  0
SECTION
  2
HEADER
  9
$ACADVER
  1
AC1015
  9
$ACADMAINTVER
 70
    20
  9
$DWGCODEPAGE
  3
ANSI_950
  9
$INSBASE
 10
0.0
 20
0.0
 30
0.0
  9
$EXTMIN
 10
532.9879636381824
 20
-143.5528201912122
 30
-0.0015718093906401
  9
$EXTMAX
 10
659.0996849128705
 20
25.4872156500694
 30
103.0840314073752
  9
$LIMMIN
 10
0.0
 20
0.0
  9
$LIMMAX
 10
420.0
 20
297.0
  9
$ORTHOMODE
 70
     0
  9
$REGENMODE
 70
     1
  9
$FILLMODE
 70
     1
  9
$QTEXTMODE
 70
     0
  9
$MIRRTEXT
 70
     1
  9
$LTSCALE
 40
0.3
  9
$ATTMODE
 70
     1
  9
$TEXTSIZE
 40
2.5
  9
$TRACEWID
 40
1.0
  9
$TEXTSTYLE
  7
STANDARD
  9
$CLAYER
  8
0
  9
$CELTYPE
  6
ByLayer
  9
$CECOLOR
 62
   256
  9
$CELTSCALE
 40
1.0
  9
$DISPSILH
 70
     0
  9
$DIMSCALE
 40
1.0
  9
$DIMASZ
 40
3.0
  9
$DIMEXO
 40
1.5
  9
$DIMDLI
 40
7.0
  9
$DIMRND
 40
0.0
  9
$DIMDLE
 40
0.0
  9
$DIMEXE
 40
1.5
  9
$DIMTP
 40
0.1
  9
$DIMTM
 40
0.1
  9
$DIMTXT
 40
3.5
  9
$DIMCEN
 40
0.0
  9
$DIMTSZ
 40
0.0
  9
$DIMTOL
 70
     0
  9
$DIMLIM
 70
     0
  9
$DIMTIH
 70
     0
  9
$DIMTOH
 70
     0
  9
$DIMSE1
 70
     0
  9
$DIMSE2
 70
     0
  9
$DIMTAD
 70
     1
  9
$DIMZIN
 70
     8
  9
$DIMBLK
  1

  9
$DIMASO
 70
     1
  9
$DIMSHO
 70
     1
  9
$DIMPOST
  1

  9
$DIMAPOST
  1
"
  9
$DIMALT
 70
     0
  9
$DIMALTD
 70
     2
  9
$DIMALTF
 40
0.0393701
  9
$DIMLFAC
 40
1.0
  9
$DIMTOFL
 70
     1
  9
$DIMTVP
 40
0.0
  9
$DIMTIX
 70
     0
  9
$DIMSOXD
 70
     0
  9
$DIMSAH
 70
     0
  9
$DIMBLK1
  1

  9
$DIMBLK2
  1

  9
$DIMSTYLE
  2
AM_ISO
  9
$DIMCLRD
 70
   256
  9
$DIMCLRE
 70
   256
  9
$DIMCLRT
 70
   256
  9
$DIMTFAC
 40
0.71
  9
$DIMGAP
 40
1.0
  9
$DIMJUST
 70
     0
  9
$DIMSD1
 70
     0
  9
$DIMSD2
 70
     0
  9
$DIMTOLJ
 70
     0
  9
$DIMTZIN
 70
     8
  9
$DIMALTZ
 70
     8
  9
$DIMALTTZ
 70
     0
  9
$DIMUPT
 70
     0
  9
$DIMDEC
 70
     2
  9
$DIMTDEC
 70
     2
  9
$DIMALTU
 70
     2
  9
$DIMALTTD
 70
     2
  9
$DIMTXSTY
  7
STANDARD
  9
$DIMAUNIT
 70
     0
  9
$DIMADEC
 70
     0
  9
$DIMALTRND
 40
0.0
  9
$DIMAZIN
 70
     2
  9
$DIMDSEP
 70
    46
  9
$DIMATFIT
 70
     3
  9
$DIMFRAC
 70
     0
  9
$DIMLDRBLK
  1

  9
$DIMLUNIT
 70
     2
  9
$DIMLWD
 70
    -1
  9
$DIMLWE
 70
    -1
  9
$DIMTMOVE
 70
     0
  9
$LUNITS
 70
     2
  9
$LUPREC
 70
     2
  9
$SKETCHINC
 40
1.0
  9
$FILLETRAD
 40
2.5
  9
$AUNITS
 70
     0
  9
$AUPREC
 70
     0
  9
$MENU
  1
.
  9
$ELEVATION
 40
0.0
  9
$PELEVATION
 40
0.0
  9
$THICKNESS
 40
0.0
  9
$LIMCHECK
 70
     0
  9
$CHAMFERA
 40
1.5
  9
$CHAMFERB
 40
1.5
  9
$CHAMFERC
 40
20.0
  9
$CHAMFERD
 40
0.0
  9
$SKPOLY
 70
     0
  9
$TDCREATE
 40
2452691.454954444
  9
$TDUCREATE
 40
2452691.121621111
  9
$TDUPDATE
 40
2454693.590624746
  9
$TDUUPDATE
 40
2454693.257291412
  9
$TDINDWG
 40
0.1984739005
  9
$TDUSRTIMER
 40
0.1984737847
  9
$USRTIMER
 70
     1
  9
$ANGBASE
 50
0.0
  9
$ANGDIR
 70
     0
  9
$PDMODE
 70
     0
  9
$PDSIZE
 40
0.0
  9
$PLINEWID
 40
0.0
  9
$SPLFRAME
 70
     0
  9
$SPLINETYPE
 70
     6
  9
$SPLINESEGS
 70
     8
  9
$HANDSEED
  5
5668
  9
$SURFTAB1
 70
     6
  9
$SURFTAB2
 70
     6
  9
$SURFTYPE
 70
     6
  9
$SURFU
 70
     6
  9
$SURFV
 70
     6
  9
$UCSBASE
  2

  9
$UCSNAME
  2

  9
$UCSORG
 10
0.0
 20
0.0
 30
0.0
  9
$UCSXDIR
 10
1.0
 20
0.0
 30
0.0
  9
$UCSYDIR
 10
0.0
 20
1.0
 30
0.0
  9
$UCSORTHOREF
  2

  9
$UCSORTHOVIEW
 70
     0
  9
$UCSORGTOP
 10
0.0
 20
0.0
 30
0.0
  9
$UCSORGBOTTOM
 10
0.0
 20
0.0
 30
0.0
  9
$UCSORGLEFT
 10
0.0
 20
0.0
 30
0.0
  9
$UCSORGRIGHT
 10
0.0
 20
0.0
 30
0.0
  9
$UCSORGFRONT
 10
0.0
 20
0.0
 30
0.0
  9
$UCSORGBACK
 10
0.0
 20
0.0
 30
0.0
  9
$PUCSBASE
  2

  9
$PUCSNAME
  2

  9
$PUCSORG
 10
0.0
 20
0.0
 30
0.0
  9
$PUCSXDIR
 10
1.0
 20
0.0
 30
0.0
  9
$PUCSYDIR
 10
0.0
 20
1.0
 30
0.0
  9
$PUCSORTHOREF
  2

  9
$PUCSORTHOVIEW
 70
     0
  9
$PUCSORGTOP
 10
0.0
 20
0.0
 30
0.0
  9
$PUCSORGBOTTOM
 10
0.0
 20
0.0
 30
0.0
  9
$PUCSORGLEFT
 10
0.0
 20
0.0
 30
0.0
  9
$PUCSORGRIGHT
 10
0.0
 20
0.0
 30
0.0
  9
$PUCSORGFRONT
 10
0.0
 20
0.0
 30
0.0
  9
$PUCSORGBACK
 10
0.0
 20
0.0
 30
0.0
  9
$USERI1
 70
     0
  9
$USERI2
 70
     0
  9
$USERI3
 70
     0
  9
$USERI4
 70
     0
  9
$USERI5
 70
     0
  9
$USERR1
 40
0.0
  9
$USERR2
 40
0.0
  9
$USERR3
 40
0.0
  9
$USERR4
 40
0.0
  9
$USERR5
 40
0.0
  9
$WORLDVIEW
 70
     1
  9
$SHADEDGE
 70
     3
  9
$SHADEDIF
 70
    70
  9
$TILEMODE
 70
     1
  9
$MAXACTVP
 70
    48
  9
$PINSBASE
 10
0.0
 20
0.0
 30
0.0
  9
$PLIMCHECK
 70
     0
  9
$PEXTMIN
 10
26.80208481208632
 20
60.62932117531272
 30
-0.0000000000000153
  9
$PEXTMAX
 10
155.7606180029584
 20
204.40991305297
 30
0.0
  9
$PLIMMIN
 10
-3.757083177566528
 20
-14.7637300491333
  9
$PLIMMAX
 10
206.2162444591522
 20
282.2045927047729
  9
$UNITMODE
 70
     0
  9
$VISRETAIN
 70
     1
  9
$PLINEGEN
 70
     0
  9
$PSLTSCALE
 70
     1
  9
$TREEDEPTH
 70
  3020
  9
$CMLSTYLE
  2
Standard
  9
$CMLJUST
 70
     0
  9
$CMLSCALE
 40
20.0
  9
$PROXYGRAPHICS
 70
     1
  9
$MEASUREMENT
 70
     1
  9
$CELWEIGHT
370
    -1
  9
$ENDCAPS
280
     0
  9
$JOINSTYLE
280
     0
  9
$LWDISPLAY
290
     0
  9
$INSUNITS
 70
     4
  9
$HYPERLINKBASE
  1

  9
$STYLESHEET
  1
單色出圖.ctb
  9
$XEDIT
290
     1
  9
$CEPSNTYPE
380
     0
  9
$PSTYLEMODE
290
     1
  9
$FINGERPRINTGUID
  2
{F78C675B-544A-4F03-A4D5-203705509F9E}
  9
$VERSIONGUID
  2
{6262C021-AA1D-484B-A7F4-A3F6EDEE3EEE}
  9
$EXTNAMES
290
     1
  9
$PSVPSCALE
 40
0.0
  9
$OLESTARTUP
290
     0
  0
ENDSEC
  0
SECTION
  2
CLASSES
  0
CLASS
  1
ACDBDICTIONARYWDFLT
  2
AcDbDictionaryWithDefault
  3
ObjectDBX Classes
 90
        0
280
     0
281
     0
  0
CLASS
  1
ACDBPLACEHOLDER
  2
AcDbPlaceHolder
  3
ObjectDBX Classes
 90
        0
280
     0
281
     0
  0
CLASS
  1
LAYOUT
  2
AcDbLayout
  3
ObjectDBX Classes
 90
        0
280
     0
281
     0
  0
CLASS
  1
AMGSETTINGSOBJ
  2
AmgSettingsObj
  3
"AcadM|Product Description: AutoCAD Mechanical 2000|Company: Autodesk"
 90
        0
280
     0
281
     0
  0
CLASS
  1
ACME_DOCUMENT
  2
AcMeDbDoc
  3
AcMeServices
 90
        0
280
     0
281
     0
  0
CLASS
  1
ACMESCOPE
  2
AcMeScope
  3
AcMeServices
 90
        0
280
     0
281
     0
  0
CLASS
  1
ACMECOMMANDHISTORY
  2
AcMeCommandHistory
  3
AcMeServices
 90
        0
280
     0
281
     0
  0
CLASS
  1
ACIMSYSVARMAN
  2
AcImSysVarManager
  3
AcMeServices
 90
        0
280
     0
281
     0
  0
CLASS
  1
ACIMREALSYSVAR
  2
AcImRealSysVar
  3
AcMeServices
 90
        0
280
     0
281
     0
  0
CLASS
  1
ACIMINTSYSVAR
  2
AcImIntSysVar
  3
AcMeServices
 90
        0
280
     0
281
     0
  0
CLASS
  1
ACMEDRAWINGMAN
  2
AcMeDrawingMan
  3
AcMeServices
 90
        0
280
     0
281
     0
  0
CLASS
  1
ACMEVIEW
  2
AcMeView
  3
AcMeServices
 90
        0
280
     0
281
     0
  0
CLASS
  1
ACDBENTITYCACHE
  2
AcMeEntityCache
  3
AcMeServices
 90
        0
280
     0
281
     0
  0
CLASS
  1
GSMANAGER
  2
AcMeGSManager
  3
AcMeServices
 90
        0
280
     0
281
     0
  0
CLASS
  1
AMDTINTERNALREACTOR
  2
AmdtInternalReactor
  3
AcMeServices
 90
        0
280
     0
281
     0
  0
CLASS
  1
ACMESTATEMGR
  2
AcMeStateMgr
  3
AcMeServices
 90
        0
280
     0
281
     0
  0
CLASS
  1
ACGREFMASTER
  2
AcGrefMaster
  3
AcAttribServices
 90
        0
280
     0
281
     0
  0
CLASS
  1
AM_DRAWING_MGR
  2
AcDmDwgMgr
  3
AcMechDwgViewMgmt
 90
        0
280
     0
281
     0
  0
CLASS
  1
AM_DWG_DOCUMENT
  2
AcDmDwgDocument
  3
AcMechDwgViewMgmt
 90
        0
280
     0
281
     0
  0
CLASS
  1
AM_DWG_SHEET
  2
AcDmSheet
  3
AcMechDwgViewMgmt
 90
        0
280
     0
281
     0
  0
CLASS
  1
AM_VIEWDIMPARMAP
  2
AcDmViewDimParMap
  3
AcMechDwgViewMgmt
 90
        0
280
     0
281
     0
  0
CLASS
  1
AM_DWGMGR_NAME
  2
AcDmDwgMgrName
  3
AcMechDwgViewMgmt
 90
        0
280
     0
281
     0
  0
CLASS
  1
ACME_DATABASE
  2
AcMeDbDatabase
  3
AcMeServices
 90
        0
280
     0
281
     0
  0
CLASS
  1
ACRFINSADJUSTERMGR
  2
AcRfInsAdjusterMgr
  3
AcMeServices
 90
        0
280
     0
281
     0
  0
CLASS
  1
ACGREFACADMASTER
  2
AcGrefacadMaster
  3
AcGrefServices
 90
        0
280
     0
281
     0
  0
CLASS
  1
AMDTMENUSTATEMGR
  2
AmdtMenuStateMgr
  3
McadcomServices
 90
        0
280
     0
281
     0
  0
CLASS
  1
AMDTMCOMMENUSTATE
  2
AmdtMcomMenuState
  3
McadcomServices
 90
        0
280
     0
281
     0
  0
CLASS
  1
AMIMASTER
  2
AmiMaster
  3
AmiServices
 90
        0
280
     0
281
     0
  0
CLASS
  1
ASAPP
  2
AcAsAppObject
  3
AutoSurfServices
 90
    32768
280
     0
281
     0
  0
CLASS
  1
IM_STATIC_MAN
  2
AcImStaticVarManager
  3
AcMeServices
 90
    32768
280
     0
281
     0
  0
CLASS
  1
ACIMSTRSYSVAR
  2
AcImStrSysVar
  3
AcMeServices
 90
        0
280
     0
281
     0
  0
CLASS
  1
ACIMDBLSTATICVAR
  2
AcImDblStaticVar
  3
AcMeServices
 90
    32768
280
     0
281
     0
  0
CLASS
  1
ACIMSTRSTATICVAR
  2
AcImStrStaticVar
  3
AcMeServices
 90
    32768
280
     0
281
     0
  0
CLASS
  1
ACIMINTSTATICVAR
  2
AcImIntStaticVar
  3
AcMeServices
 90
    32768
280
     0
281
     0
  0
CLASS
  1
ACASGREFMASTER
  2
AcAsGrefMaster
  3
AutoSurfResolverServices
 90
    32768
280
     0
281
     0
  0
CLASS
  1
ACADGREFMODULE
  2
AcAdGrefModule
  3
AdGrefServices
 90
    32768
280
     0
281
     0
  0
CLASS
  1
AMDTMAPISURFMOUDULE
  2
AmdtMApiSurfModule
  3
MApiSurfServices
 90
    32768
280
     0
281
     0
  0
CLASS
  1
MAPIAMMOUDLE
  2
MApiAmModule
  3
MApiAmServices
 90
        0
280
     0
281
     0
  0
CLASS
  1
AMDTADMENUSTATE
  2
AmdtAdMenuState
  3
DesignerServices
 90
        0
280
     0
281
     0
  0
CLASS
  1
ADAPPL
  2
AcAdAppl
  3
DesignerServices
 90
        0
280
     0
281
     0
  0
CLASS
  1
DEPMGR
  2
AcAdDepMgr
  3
DesignerServices
 90
        0
280
     0
281
     0
  0
CLASS
  1
PARAMMGR
  2
AcAdParamMgr
  3
DesignerServices
 90
        0
280
     0
281
     0
  0
CLASS
  1
PARAMSCOPE
  2
AcAdParamScope
  3
DesignerServices
 90
        0
280
     0
281
     0
  0
CLASS
  1
NAMEDAPPL
  2
AcAdNamedAppl
  3
DesignerServices
 90
        0
280
     0
281
     0
  0
CLASS
  1
AMDTDMMENUSTATE
  2
AmdtDmMenuState
  3
AcMechDwgViewMgmt
 90
        0
280
     0
281
     0
  0
CLASS
  1
MAPIADMODULE
  2
MApiAdModule
  3
MApiAdServices
 90
    32768
280
     0
281
     0
  0
CLASS
  1
AMDTAMMENUSTATE
  2
AmdtAmMenuState
  3
DesignerAssemblies
 90
        0
280
     0
281
     0
  0
CLASS
  1
ACAMPROJECT
  2
AcAmProject
  3
DesignerAssemblies
 90
        0
280
     0
281
     0
  0
CLASS
  1
ACAMCOMPDEFMGR
  2
AcAmCompDefMgr
  3
DesignerAssemblies
 90
        0
280
     0
281
     0
  0
CLASS
  1
AMCONTEXTMGR
  2
AcAmContextMgr
  3
DesignerAssemblies
 90
        0
280
     0
281
     0
  0
CLASS
  1
ACAMCONTEXTPARTMODELER
  2
AcAmContextPartModeler
  3
DesignerAssemblies
 90
    32768
280
     0
281
     0
  0
CLASS
  1
ACMDATADICTIONARY
  2
AcmDataDictionary
  3
"AcmSymBB|Product Description: AutoCAD Mechanical 2004 DX|Company: Autodesk"
 90
        0
280
     0
281
     0
  0
CLASS
  1
ACMDATAENTRYBLOCK
  2
AcmDataEntryBlock
  3
"AcmSymBB|Product Description: AutoCAD Mechanical 2004 DX|Company: Autodesk"
 90
    32768
280
     0
281
     0
  0
CLASS
  1
ACMSTANDARDISO
  2
AcmStandardISO
  3
"Amdt_StdImp|Product Description: AutoCAD Mechanical 2004 DX|Company: Autodesk"
 90
        0
280
     0
281
     0
  0
CLASS
  1
AMGOBJPROPCFG
  2
AmgObjPropCfg
  3
"AmgLay|Product Description: AutoCAD Mechanical 2000|Company: Autodesk"
 90
        1
280
     0
281
     0
  0
CLASS
  1
AMDTEDGESTANDARDISO
  2
AmdtEdgeStdISO
  3
"Amdt_StdImp|Product Description: AutoCAD Mechanical 2004 DX|Company: Autodesk"
 90
    32768
280
     0
281
     0
  0
CLASS
  1
ACMSURFSTANDARDISO
  2
AcmSurfTextStdISO
  3
"Amdt_StdImp|Product Description: AutoCAD Mechanical 2004 DX|Company: Autodesk"
 90
        0
280
     0
281
     0
  0
CLASS
  1
ACMFCFSTANDARDISO
  2
AcmFCFStdISO
  3
"Amdt_StdImp|Product Description: AutoCAD Mechanical 2004 DX|Company: Autodesk"
 90
        0
280
     0
281
     0
  0
CLASS
  1
ACMWELDSTANDARDISO
  2
AcmWeldingStdISO
  3
"Amdt_StdImp|Product Description: AutoCAD Mechanical 2004 DX|Company: Autodesk"
 90
        0
280
     0
281
     0
  0
CLASS
  1
ACMIDSTANDARDISO
  2
AcmIdStdISO
  3
"Amdt_StdImp|Product Description: AutoCAD Mechanical 2004 DX|Company: Autodesk"
 90
        0
280
     0
281
     0
  0
CLASS
  1
ACMDATUMSTANDARDISO
  2
AcmDatumStdISO
  3
"Amdt_StdImp|Product Description: AutoCAD Mechanical 2004 DX|Company: Autodesk"
 90
        0
280
     0
281
     0
  0
CLASS
  1
ACMBOMSTANDARDISO
  2
AcmBOMStdISO
  3
"Amdt_StdImp|Product Description: AutoCAD Mechanical 2004 DX|Company: Autodesk"
 90
        0
280
     0
281
     0
  0
CLASS
  1
ACMDETAILSTANDARDISO
  2
AmdtDetailSymStdISO
  3
"Amdt_StdImp|Product Description: AutoCAD Mechanical 2004 DX|Company: Autodesk"
 90
        0
280
     0
281
     0
  0
CLASS
  1
ACMSECTIONSTANDARDISO
  2
AmdtSectionSymStdISO
  3
"Amdt_StdImp|Product Description: AutoCAD Mechanical 2004 DX|Company: Autodesk"
 90
        0
280
     0
281
     0
  0
CLASS
  1
ACMCENTERLINESTANDARDISO
  2
AmdtCenterLineStdISO
  3
"Amdt_StdImp|Product Description: AutoCAD Mechanical 2004 DX|Company: Autodesk"
 90
        0
280
     0
281
     0
  0
CLASS
  1
ACMTHREADLINESTANDARDISO
  2
AmdtThreadLineStdISO
  3
"Amdt_StdImp|Product Description: AutoCAD Mechanical 2004 DX|Company: Autodesk"
 90
        0
280
     0
281
     0
  0
CLASS
  1
ACMNOTESTANDARDISO
  2
AmdtNoteStdISO
  3
"Amdt_StdImp|Product Description: AutoCAD Mechanical 2004 DX|Company: Autodesk"
 90
        0
280
     0
281
     0
  0
CLASS
  1
ACAMGLAYSTD
  2
AcAmgLayStd
  3
"AcAmgLayStd|Product Description: AutoCAD Mechanical 2000|Company: Autodesk"
 90
        0
280
     0
281
     0
  0
CLASS
  1
ACAMGDIMSTD
  2
AcAmgDimStd
  3
"AcAmgDimStd|Product Description: AutoCAD Mechanical 2000|Company: Autodesk"
 90
        0
280
     0
281
     0
  0
CLASS
  1
ACAMGHOLECHARTSTDISO
  2
AcAmgHoleChartStdISO
  3
ACMSYMBB_MODULE_NAME
 90
        0
280
     0
281
     0
  0
CLASS
  1
ACAMGTITLESTD
  2
AcAmgTitleStd
  3
"TITLEAPP"
 90
        0
280
     0
281
     0
  0
CLASS
  1
CATALOGSTATE
  2
AcAmCatalogState
  3
DesignerAssemblies
 90
        0
280
     0
281
     0
  0
CLASS
  1
ACAMGRCOMPDEFSET
  2
AcAmGrCompDefSet
  3
DesignerAssemblies
 90
        0
280
     0
281
     0
  0
CLASS
  1
AMDTBROWSERDBTAB
  2
AmdtBrowserDbTab
  3
McadcomServices
 90
        0
280
     0
281
     0
  0
CLASS
  1
CBROWSERAPPOBJECT
  2
CBrowserAppObject
  3
McadcomServices
 90
        0
280
     0
281
     0
  0
CLASS
  1
DM_PLACEHOLDER
  2
AcDmSelsetPlaceholder
  3
AcMechDwgViewMgmt
 90
        0
280
     0
281
     0
  0
CLASS
  1
ACAMGFILTERDAT
  2
AcAmgFilterDat
  3
"AcadM|Product Description: AutoCAD Mechanical 2000|Company: Autodesk"
 90
    32768
280
     0
281
     0
  0
CLASS
  1
LAYER_INDEX
  2
AcDbLayerIndex
  3
ObjectDBX Classes
 90
        0
280
     0
281
     0
  0
CLASS
  1
IDBUFFER
  2
AcDbIdBuffer
  3
ObjectDBX Classes
 90
        0
280
     0
281
     0
  0
CLASS
  1
DICTIONARYVAR
  2
AcDbDictionaryVar
  3
ObjectDBX Classes
 90
        0
280
     0
281
     0
  0
CLASS
  1
ACAMGRCOMPDEF
  2
AcAmGrCompDef
  3
DesignerAssemblies
 90
        0
280
     0
281
     0
  0
CLASS
  1
ACCMCONTEXT
  2
AcCmContext
  3
DesignerAssemblies
 90
        0
280
     0
281
     0
  0
CLASS
  1
ACAMCOMPDEF
  2
AcAmCompDef
  3
DesignerAssemblies
 90
        0
280
     0
281
     0
  0
CLASS
  1
ADPART
  2
AcAdPart
  3
DesignerServices
 90
    32768
280
     0
281
     1
  0
CLASS
  1
ADBASE
  2
AcAdBase
  3
DesignerServices
 90
    32768
280
     0
281
     0
  0
CLASS
  1
BODYID
  2
AcAdBodyId
  3
DesignerServices
 90
    32768
280
     0
281
     0
  0
CLASS
  1
WORKPLANEDISPLAYMGR
  2
AcAdDisplayMgr
  3
DesignerServices
 90
    32768
280
     0
281
     0
  0
CLASS
  1
ACCMBODY
  2
AcCmBody
  3
DesignerAssemblies
 90
    32768
280
     0
281
     0
  0
CLASS
  1
ACAMCOMPENT
  2
AcAmCompEnt
  3
DesignerAssemblies
 90
    32768
280
     0
281
     1
  0
CLASS
  1
ACAMCOMPFEEDBACK
  2
AcAmCompFeedback
  3
DesignerAssemblies
 90
    32768
280
     0
281
     0
  0
CLASS
  1
ACAMGROUNDEDBASECOMP
  2
AcAmGroundedBaseComp
  3
DesignerAssemblies
 90
    32768
280
     0
281
     0
  0
CLASS
  1
ACAMCOMPENTCLONE
  2
AcAmCompEntClone
  3
DesignerAssemblies
 90
    32768
280
     0
281
     1
  0
CLASS
  1
ACAMCLONEREACTOR
  2
AcAmGrCompCloneReactor
  3
DesignerAssemblies
 90
    32768
280
     0
281
     0
  0
CLASS
  1
ADDATUMPLANEABS
  2
AcAdDatumPlaneAbs
  3
DesignerServices
 90
    32768
280
     0
281
     0
  0
CLASS
  1
ADDATUMAXISABS
  2
AcAdDatumAxisAbs
  3
DesignerServices
 90
    32768
280
     0
281
     0
  0
CLASS
  1
ADDATUMORIENTEDPLANE
  2
AcAdDatumOrientedPlane
  3
DesignerServices
 90
    32768
280
     0
281
     0
  0
CLASS
  1
ACAD_LINE
  2
AcAdLine
  3
DesignerServices
 90
    32768
280
     0
281
     1
  0
CLASS
  1
ACADLINEACAD
  2
AcAdVirtualBoundedLineAcad
  3
DesignerServices
 90
    32768
280
     0
281
     0
  0
CLASS
  1
ACADREFLINEACAD
  2
AcAdVirtualReferenceLine
  3
DesignerServices
 90
    32768
280
     0
281
     0
  0
CLASS
  1
ACADCONSLINE
  2
AcAdConstrainedLine
  3
DesignerServices
 90
    32768
280
     0
281
     0
  0
CLASS
  1
ACADCONSGROUP
  2
AcAdConstraintGroup
  3
DesignerServices
 90
    32768
280
     0
281
     0
  0
CLASS
  1
ACADIMPPTACAD
  2
AcAdVirtualImplicitPoint
  3
DesignerServices
 90
    32768
280
     0
281
     0
  0
CLASS
  1
ACADCONSPOINT
  2
AcAdConstrainedPoint
  3
DesignerServices
 90
    32768
280
     0
281
     0
  0
CLASS
  1
ADPCURCNS
  2
AcAdPointCurveConstr
  3
DesignerServices
 90
    32768
280
     0
281
     0
  0
CLASS
  1
ADVERCNS
  2
AcAdVerticalConstr
  3
DesignerServices
 90
    32768
280
     0
281
     0
  0
CLASS
  1
ADHORCNS
  2
AcAdHorizontalConstr
  3
DesignerServices
 90
    32768
280
     0
281
     0
  0
CLASS
  1
ADCLPROF2D
  2
AcAdClosedProfile2d
  3
DesignerServices
 90
    32768
280
     0
281
     0
  0
CLASS
  1
ACAD_FIXCONSTRAINT
  2
AcAdFixedConstraint
  3
DesignerServices
 90
    32768
280
     0
281
     0
  0
CLASS
  1
AMDTFORMULAUPDATEDISPATCHER
  2
AmdtFormulaUpdateDispatcher
  3
AcMeServices
 90
    32768
280
     0
281
     0
  0
CLASS
  1
ADCONSDISP
  2
AcAdConstraintDisplay
  3
DesignerServices
 90
    32768
280
     0
281
     1
  0
CLASS
  1
ADCONSTDSP
  2
AcAdConstraintDisplayTag
  3
DesignerServices
 90
    32768
280
     0
281
     1
  0
CLASS
  1
PARAM
  2
AcAdParam
  3
DesignerServices
 90
    32768
280
     0
281
     0
  0
CLASS
  1
ADVDISTCNS
  2
AcAdVerticalDistanceConstr
  3
DesignerServices
 90
    32768
280
     0
281
     0
  0
CLASS
  1
ADHDISTCNS
  2
AcAdHorizontalDistanceConstr
  3
DesignerServices
 90
    32768
280
     0
281
     0
  0
CLASS
  1
ACMEROTATIONARROW
  2
AcImRotationArrowDisplay
  3
AcMeServices
 90
    32768
280
     0
281
     1
  0
CLASS
  1
ACADVOLFEATWITHTRIM
  2
AcAdVolFeatWithTrim
  3
DesignerServices
 90
    32768
280
     0
281
     0
  0
CLASS
  1
DEPEDGEFEATUREORDERING
  2
AcAdDepEdgeFeatureOrdering
  3
DesignerServices
 90
    32768
280
     0
281
     0
  0
CLASS
  1
DATUMAXISDISPLAY
  2
AcAdDatumAxisDisplay
  3
DesignerServices
 90
    32768
280
     0
281
     1
  0
CLASS
  1
ADDATUMAXISCENTER
  2
AcAdDatumAxisCenter
  3
DesignerServices
 90
    32768
280
     0
281
     0
  0
CLASS
  1
ADSURFGEOMID
  2
AcAdSurfGeomId
  3
DesignerServices
 90
    32768
280
     0
281
     0
  0
CLASS
  1
ACMEPOINT
  2
AcImPointDisplay
  3
AcMeServices
 90
    32768
280
     0
281
     1
  0
CLASS
  1
ADPLANEID
  2
AcAdPlaneId
  3
DesignerServices
 90
    32768
280
     0
281
     0
  0
CLASS
  1
ADDATUMPLANEFACE
  2
AcAdDatumPlaneFace
  3
DesignerServices
 90
    32768
280
     0
281
     0
  0
CLASS
  1
ADDATUMPOINTAXISPLANE
  2
AcAdDatumPointAxisPlane
  3
DesignerServices
 90
    32768
280
     0
281
     0
  0
CLASS
  1
ADHOLEFEAT
  2
AcAdHoleFeat
  3
DesignerServices
 90
    32768
280
     0
281
     0
  0
CLASS
  1
CIRREFID
  2
AcAdCircleRefId
  3
DesignerServices
 90
    32768
280
     0
281
     0
  0
CLASS
  1
ACADCIRCDEPID
  2
AcAdVirtualCircleDepId
  3
DesignerServices
 90
    32768
280
     0
281
     0
  0
CLASS
  1
ACADCONSCIRCLE
  2
AcAdConstrainedCircle
  3
DesignerServices
 90
    32768
280
     0
281
     0
  0
CLASS
  1
ADCTRPTCNS
  2
AcAdCenterPointConstr
  3
DesignerServices
 90
    32768
280
     0
281
     0
  0
CLASS
  1
AMDT_ALIGNED_DIM
  2
AmdtAlignedDimension
  3
AcMeServices
 90
    32768
280
     0
281
     1
  0
CLASS
  1
ACADBOUNDEDLINEDATUMID
  2
AcAdVirtualBoundedLineDatumId
  3
DesignerServices
 90
    32768
280
     0
281
     0
  0
CLASS
  1
AMDT_ORDINATE_DIM
  2
AmdtOrdinateDimension
  3
AcMeServices
 90
    32768
280
     0
281
     1
  0
CLASS
  1
EDGEID
  2
AcAdEdgeId
  3
DesignerServices
 90
    32768
280
     0
281
     0
  0
CLASS
  1
ADFILLET
  2
AcAdFillet
  3
DesignerServices
 90
    32768
280
     0
281
     0
  0
CLASS
  1
DATUMPLANEDISPLAY
  2
AcAdDatumPlaneDisplay
  3
DesignerServices
 90
    32768
280
     0
281
     1
  0
CLASS
  1
ADDATUMPLANEAXISPLANE
  2
AcAdDatumPlaneAxisPlane
  3
DesignerServices
 90
    32768
280
     0
281
     0
  0
CLASS
  1
ACMEPLINE
  2
AcImPlineDisplay
  3
AcMeServices
 90
    32768
280
     0
281
     1
  0
CLASS
  1
ACMELINEARARROW
  2
AcImLinearArrowDisplay
  3
AcMeServices
 90
    32768
280
     0
281
     1
  0
CLASS
  1
ACMETEXT
  2
AcImTextDisplay
  3
AcMeServices
 90
    32768
280
     0
281
     1
  0
CLASS
  1
ADDATUMPLANEOFFSET
  2
AcAdDatumPlaneOffset
  3
DesignerServices
 90
    32768
280
     0
281
     0
  0
CLASS
  1
ADCOLNCNS
  2
AcAdColinearConstr
  3
DesignerServices
 90
    32768
280
     0
281
     0
  0
CLASS
  1
STREFID
  2
AcAdStraightRefId
  3
DesignerServices
 90
    32768
280
     0
281
     0
  0
CLASS
  1
ACADLINEDEPID
  2
AcAdVirtualLineDepId
  3
DesignerServices
 90
    32768
280
     0
281
     0
  0
CLASS
  1
ADFEATUREDISPLAY
  2
AcImFeatureDisplay
  3
ACME_MODULE_NAME
 90
    32768
280
     0
281
     1
  0
CLASS
  1
ACMEAXIS
  2
AcImAxisDisplay
  3
AcMeServices
 90
    32768
280
     0
281
     1
  0
CLASS
  1
DEPEDGEPATTERNFEATURE
  2
AcAdDepEdgePatternFeature
  3
DesignerServices
 90
    32768
280
     0
281
     0
  0
CLASS
  1
ACADPATTNFEAT
  2
AcAdPatternFeat
  3
DesignerServices
 90
    32768
280
     0
281
     0
  0
CLASS
  1
ACADORDORIGPT
  2
AcAdOrdinateOriginPoint
  3
DesignerServices
 90
    32768
280
     0
281
     0
  0
CLASS
  1
ADORDBASECNS
  2
AcAdOrdinateBaseConstr
  3
DesignerServices
 90
    32768
280
     0
281
     0
  0
CLASS
  1
DEPEDGESECONDARYDEPID
  2
AcAdDepEdgeSecondaryDepId
  3
DesignerServices
 90
    32768
280
     0
281
     0
  0
CLASS
  1
DEPEDGEPATTERNINSTANCE
  2
AcAdDepEdgePatternInstance
  3
DesignerServices
 90
    32768
280
     0
281
     0
  0
CLASS
  1
AMACTIVEPARTSELECTFILTER
  2
AcDmActivePartViewEntFilter
  3
DesignerServices
 90
    32768
280
     0
281
     0
  0
CLASS
  1
AM_ABS_PLANE
  2
AcDmAbsPlnDef
  3
AcMechDwgViewMgmt
 90
    32768
280
     0
281
     0
  0
CLASS
  1
AM_ABS_AXIS
  2
AcDmAbsAxisDef
  3
AcMechDwgViewMgmt
 90
    32768
280
     0
281
     0
  0
CLASS
  1
AM_BASE_VIEW_ORIENT
  2
AcDmBaseViewOr
  3
AcMechDwgViewMgmt
 90
    32768
280
     0
281
     0
  0
CLASS
  1
AM_DWG_VIEWPORT
  2
AcDmViewport
  3
AcMechDwgViewMgmt
 90
    32768
280
     0
281
     0
  0
CLASS
  1
AM_VIEW_DISPLAY
  2
AcDmDwgViewDisplay
  3
AcMechDwgViewMgmt
 90
    32768
280
     0
281
     0
  0
CLASS
  1
AM_CLDFLTS
  2
AcDmClDflts
  3
AcMechDwgViewMgmt
 90
    32768
280
     0
281
     0
  0
CLASS
  1
AM_BASE_VIEW
  2
AcDmBaseView
  3
AcMechDwgViewMgmt
 90
    32768
280
     0
281
     0
  0
CLASS
  1
AM_ISO_VIEW_ORIENT
  2
AcDmIsoViewOr
  3
AcMechDwgViewMgmt
 90
    32768
280
     0
281
     0
  0
CLASS
  1
AM_ISO_VIEW
  2
AcDmIsoView
  3
AcMechDwgViewMgmt
 90
    32768
280
     0
281
     0
  0
CLASS
  1
AM_ORTHO_VIEW_ORIENT
  2
AcDmOrthoViewOr
  3
AcMechDwgViewMgmt
 90
    32768
280
     0
281
     0
  0
CLASS
  1
AM_ORTHO_VIEW
  2
AcDmOrthoView
  3
AcMechDwgViewMgmt
 90
    32768
280
     0
281
     0
  0
CLASS
  1
ACDMPARTVIEWDATA
  2
AcDmPartViewData
  3
AcMechDwgViewMgmt
 90
    32768
280
     0
281
     0
  0
CLASS
  1
ACDMDISPLAYATTRIBS
  2
AcDmDisplayAttribs
  3
AcMechDwgViewMgmt
 90
    32768
280
     0
281
     0
  0
CLASS
  1
ACDMBODYINSTANCEDATA
  2
AcDmBodyInstanceData
  3
AcMechDwgViewMgmt
 90
    32768
280
     0
281
     0
  0
CLASS
  1
ACDMVWEDLINE
  2
AcDmViewEdgeLine
  3
AcMechDwgViewMgmt
 90
    32768
280
     0
281
     1
  0
CLASS
  1
ACDMVWEDARC
  2
AcDmViewEdgeArc
  3
AcMechDwgViewMgmt
 90
    32768
280
     0
281
     1
  0
CLASS
  1
ACADSKETCHPOINTRES
  2
AcAdSketchPointRes
  3
DesignerServices
 90
    32768
280
     0
281
     0
  0
CLASS
  1
AM_VIEWDIMLINEAR
  2
AcDmViewDimLinear
  3
AcMechDwgViewMgmt
 90
    32768
280
     0
281
     0
  0
CLASS
  1
AMDTDMPARMAPDATA
  2
AmdtDmDimParMapData
  3
AcMechDwgViewMgmt
 90
    32768
280
     0
281
     0
  0
CLASS
  1
AM_ADLINCTRLINE
  2
AcAdLineCl
  3
DesignerServices
 90
    32768
280
     0
281
     0
  0
CLASS
  1
ACDMVWEDCIRC
  2
AcDmViewEdgeCircle
  3
AcMechDwgViewMgmt
 90
    32768
280
     0
281
     1
  0
CLASS
  1
AM_ADCIRCTRLINE
  2
AcAdBullsEyeCl
  3
DesignerServices
 90
    32768
280
     0
281
     0
  0
CLASS
  1
AD_CIRCTAPH
  2
AcAdTapHoleCircDisp
  3
DesignerServices
 90
    32768
280
     0
281
     0
  0
CLASS
  1
ACDMVIEWGEOM
  2
AcDmViewGeometry
  3
AcMechDwgViewMgmt
 90
    32768
280
     0
281
     1
  0
CLASS
  1
FACEID
  2
AcAdFaceId
  3
DesignerServices
 90
    32768
280
     0
281
     0
  0
CLASS
  1
ACADPARTPLANARFACERES
  2
AcAdPartPlanarFaceRes
  3
AdGrefServices
 90
    32768
280
     0
281
     0
  0
CLASS
  1
AM_GREF_PLANE
  2
AcDmGrefPlnDef
  3
AcMechDwgViewMgmt
 90
    32768
280
     0
281
     0
  0
CLASS
  1
ACADPARTLINEDGRES
  2
AcAdPartLinEdgRes
  3
AdGrefServices
 90
    32768
280
     0
281
     0
  0
CLASS
  1
AM_GREF_AXIS
  2
AcDmGrefAxisDef
  3
AcMechDwgViewMgmt
 90
    32768
280
     0
281
     0
  0
CLASS
  1
AMDTEXTERNALTHREAD
  2
AmdtExternalThreadFeat
  3
DesignerServices
 90
    32768
280
     0
281
     0
  0
CLASS
  1
THREADDISPLAY
  2
AcAdThreadDisplay
  3
DesignerServices
 90
    32768
280
     0
281
     1
  0
CLASS
  1
AD_LINETAPH
  2
AcAdTapHoleLineDisp
  3
DesignerServices
 90
    32768
280
     0
281
     0
  0
CLASS
  1
ADRADDISP
  2
AcAdRadiusDisplay
  3
DesignerServices
 90
    32768
280
     0
281
     1
  0
CLASS
  1
ACDBLINERES
  2
AcDbLineRes
  3
AcGrefServices
 90
    32768
280
     0
281
     0
  0
CLASS
  1
ACADPARTCONICALFACERES
  2
AcAdPartConicalFaceRes
  3
AdGrefServices
 90
    32768
280
     0
281
     0
  0
CLASS
  1
ACDMGREFEDIT
  2
AcDmViewEntityGeomrefEdit
  3
AcMechDwgViewMgmt
 90
    32768
280
     0
281
     0
  0
CLASS
  1
ACDMVIEWLINEDGERES
  2
AcDmViewLinEdgeRes
  3
AcMechDwgViewMgmt
 90
    32768
280
     0
281
     0
  0
CLASS
  1
SILEDGEID
  2
AcAdSilhouetteEdgeId
  3
DesignerServices
 90
    32768
280
     0
281
     0
  0
CLASS
  1
ACADPARTCYLINDERFACERES
  2
AcAdPartCylinderFaceRes
  3
AdGrefServices
 90
    32768
280
     0
281
     0
  0
CLASS
  1
CNRREFID
  2
AcAdCornerId
  3
DesignerServices
 90
    32768
280
     0
281
     0
  0
CLASS
  1
ACADPARTPOINTRES
  2
AcAdPartPointRes
  3
AdGrefServices
 90
    32768
280
     0
281
     0
  0
CLASS
  1
ACADPARTCIRCEDGRES
  2
AcAdPartCircEdgRes
  3
AdGrefServices
 90
    32768
280
     0
281
     0
  0
CLASS
  1
ACRFDMINSADJ
  2
AcRfDMInsAdjuster
  3
AcMechDwgViewMgmt
 90
    32768
280
     0
281
     0
  0
CLASS
  1
AM_VIEWDIMRADIUS
  2
AcDmViewDimRadius
  3
AcMechDwgViewMgmt
 90
    32768
280
     0
281
     0
  0
CLASS
  1
ACADPARTDATUMPLANERES
  2
AcAdPartDatumPlaneRes
  3
AdGrefServices
 90
    32768
280
     0
281
     0
  0
CLASS
  1
AM_FULLPLANESECTION
  2
AcDmFullPlaneSection
  3
AcMechDwgViewMgmt
 90
    32768
280
     0
281
     0
  0
CLASS
  1
AMDTSECTIONSYM
  2
AmdtSectionSym
  3
"AcmSymBB|Product Description: AutoCAD Mechanical 2004 DX|Company: Autodesk"
 90
    33791
280
     0
281
     1
  0
CLASS
  1
AM_VWNOTEADAPTER
  2
AcDmViewAnnotAdapter
  3
AcMechDwgViewMgmt
 90
    32768
280
     0
281
     0
  0
CLASS
  1
AMDTSECTIONSYMLABEL
  2
AmdtSectionSymLabel
  3
"AcmSymBB|Product Description: AutoCAD Mechanical 2004 DX|Company: Autodesk"
 90
    33791
280
     0
281
     1
  0
CLASS
  1
AMDTNOTE
  2
AmdtNote
  3
"AcmSymBB|Product Description: AutoCAD Mechanical 2004 DX|Company: Autodesk"
 90
    33791
280
     0
281
     1
  0
CLASS
  1
DIMASSOC
  2
AcDbDimAssoc
  3
"AcDbDimAssoc|Product Desc:     AcDim ARX App For Dimension|Company:          Autodesk, Inc.|WEB Address:      www.autodesk.com"
 90
        0
280
     0
281
     0
  0
CLASS
  1
TABLESTYLE
  2
AcDbTableStyle
  3
ObjectDBX Classes
 90
     2047
280
     0
281
     0
  0
CLASS
  1
ACAMCONTEXTMODELER
  2
AcAmContextModeler
  3
DesignerAssemblies
 90
        0
280
     0
281
     0
  0
CLASS
  1
AMDTEDGESTANDARDISO13715
  2
AmdtEdgeStdISO13715
  3
"Amdt_StdImp|Product Description: AutoCAD Mechanical 2004 DX|Company: Autodesk"
 90
        0
280
     0
281
     0
  0
CLASS
  1
AMDTNOTETEMPLATEDB
  2
AmdtNoteTemplateDB
  3
AMDT_STDIMP_MODULE_NAME
 90
        0
280
     0
281
     0
  0
CLASS
  1
ACRFATTGENMGR
  2
AcRfAttGeneralMgr
  3
AcAttribServices
 90
    32768
280
     0
281
     0
  0
CLASS
  1
ACMDIMBREAKPERSREACTOR
  2
AcmDimBreakPersReactor
  3
amgDimApp().moduleName()
 90
    33791
280
     0
281
     0
  0
ENDSEC
  0
SECTION
  2
TABLES
  0
TABLE
  2
VPORT
  5
1A
330
0
100
AcDbSymbolTable
 70
    56
  0
VPORT
  5
5661
330
1A
100
AcDbSymbolTableRecord
100
AcDbViewportTableRecord
  2
*Active
 70
     0
 10
0.0
 20
0.0
 11
1.0
 21
1.0
 12
596.0438242755265
 22
-59.03280227057144
 13
0.0
 23
0.0
 14
2.5
 24
2.5
 15
10.0
 25
10.0
 16
0.0
 26
0.0
 36
1.0
 17
0.0
 27
0.0
 37
0.0
 40
170.3353617864256
 41
1.019181585677749
 42
50.0
 43
0.0
 44
0.0
 50
0.0
 51
0.0
 71
     0
 72
   100
 73
     1
 74
     3
 75
     0
 76
     0
 77
     0
 78
     0
281
     0
 65
     0
110
0.0
120
0.0
130
0.0
111
1.0
121
0.0
131
0.0
112
0.0
122
1.0
132
0.0
 79
     0
146
0.0
  0
ENDTAB
  0
TABLE
  2
LTYPE
  5
15
330
0
100
AcDbSymbolTable
 70
    14
  0
LTYPE
  5
16
330
15
100
AcDbSymbolTableRecord
100
AcDbLinetypeTableRecord
  2
ByBlock
 70
     0
  3

 72
    65
 73
     0
 40
0.0
  0
LTYPE
  5
17
330
15
100
AcDbSymbolTableRecord
100
AcDbLinetypeTableRecord
  2
ByLayer
 70
     0
  3

 72
    65
 73
     0
 40
0.0
  0
LTYPE
  5
9
330
15
100
AcDbSymbolTableRecord
100
AcDbLinetypeTableRecord
  2
Continuous
 70
     0
  3
Solid line
 72
    65
 73
     0
 40
0.0
  0
LTYPE
  5
161
330
15
100
AcDbSymbolTableRecord
100
AcDbLinetypeTableRecord
  2
HIDDEN
 70
     0
  3
Hidden __ __ __ __ __ __ __ __ __ __ __ __ __ _
 72
    65
 73
     2
 40
9.524999999999998
 49
6.349999999999999
 74
     0
 49
-3.174999999999999
 74
     0
  0
LTYPE
  5
BF
330
15
100
AcDbSymbolTableRecord
100
AcDbLinetypeTableRecord
  2
AM_ISO08W050
 70
     0
  3
____ . ____ . ____ . ____ . ____ . ____ . ____
 72
    65
 73
     4
 40
18.0
 49
12.0
 74
     0
 49
-1.5
 74
     0
 49
3.0
 74
     0
 49
-1.5
 74
     0
  0
LTYPE
  5
1FD
330
15
100
AcDbSymbolTableRecord
100
AcDbLinetypeTableRecord
  2
AM_ISO02W050
 70
     0
  3
__ __ __ __ __ __ __ __ __ __ __ __ __ __ __
 72
    65
 73
     2
 40
7.5
 49
6.0
 74
     0
 49
-1.5
 74
     0
  0
LTYPE
  5
1FE
330
15
100
AcDbSymbolTableRecord
100
AcDbLinetypeTableRecord
  2
AM_ISO09W050
 70
     0
  3
_____ . . _____ . . _____ . . ____ .. ____
 72
    65
 73
     6
 40
22.5
 49
12.0
 74
     0
 49
-1.5
 74
     0
 49
3.0
 74
     0
 49
-1.5
 74
     0
 49
3.0
 74
     0
 49
-1.5
 74
     0
  0
LTYPE
  5
1FF
330
15
100
AcDbSymbolTableRecord
100
AcDbLinetypeTableRecord
  2
Amconstr
 70
     0
  3
_______________________
 72
    65
 73
     2
 40
9999.0
 49
9999.0
 74
     0
 49
0.0
 74
     0
  0
LTYPE
  5
200
330
15
100
AcDbSymbolTableRecord
100
AcDbLinetypeTableRecord
  2
AM_ISO08W050x2
 70
     0
  3
__ . __ . __ . __ . __ . __
 72
    65
 73
     4
 40
9.0
 49
6.0
 74
     0
 49
-0.75
 74
     0
 49
1.5
 74
     0
 49
-0.75
 74
     0
  0
LTYPE
  5
201
330
15
100
AcDbSymbolTableRecord
100
AcDbLinetypeTableRecord
  2
AM_ISO02W050x2
 70
     0
  3
 _ _ _ _ _ _ _ _ _ _ _ _
 72
    65
 73
     2
 40
3.75
 49
3.0
 74
     0
 49
-0.75
 74
     0
  0
LTYPE
  5
204
330
15
100
AcDbSymbolTableRecord
100
AcDbLinetypeTableRecord
  2
Amzigzag
 70
     0
  3
/\/-/\/-/\/-/\/-/\/-/\/
 72
    65
 73
     2
 40
11.0001
 49
0.0001
 74
     4
 75
   135
340
203
 46
0.04
 50
0.0
 44
0.0
 45
0.0
 49
-11.0
 74
     0
  0
LTYPE
  5
211
330
15
100
AcDbSymbolTableRecord
100
AcDbLinetypeTableRecord
  2
ACISOWELD
 70
     0
  3
_ _ _ _ _
 72
    65
 73
     2
 40
2.0
 49
2.0
 74
     0
 49
-1.0
 74
     0
  0
LTYPE
  5
212
330
15
100
AcDbSymbolTableRecord
100
AcDbLinetypeTableRecord
  2
ACISOTGB
 70
     0
  3
__ . . __ . .
 72
    65
 73
     6
 40
9.0
 49
4.0
 74
     0
 49
-1.0
 74
     0
 49
1.0
 74
     0
 49
-1.0
 74
     0
 49
1.0
 74
     0
 49
-1.0
 74
     0
  0
LTYPE
  5
213
330
15
100
AcDbSymbolTableRecord
100
AcDbLinetypeTableRecord
  2
ACISOTGL
 70
     0
  3
_ _ _ _ _
 72
    65
 73
     2
 40
3.0
 49
2.0
 74
     0
 49
-1.0
 74
     0
  0
LTYPE
  5
214
330
15
100
AcDbSymbolTableRecord
100
AcDbLinetypeTableRecord
  2
CENTER
 70
     0
  3
__ . __
 72
    65
 73
     4
 40
7.0
 49
4.0
 74
     0
 49
-1.0
 74
     0
 49
1.0
 74
     0
 49
-1.0
 74
     0
  0
LTYPE
  5
2325
330
15
100
AcDbSymbolTableRecord
100
AcDbLinetypeTableRecord
  2
PHANTOM2
 70
     0
  3
Phantom (.5x) ___ _ _ ___ _ _ ___ _ _ ___ _ _
 72
    65
 73
     6
 40
31.75
 49
15.875
 74
     0
 49
-3.174999999999999
 74
     0
 49
3.174999999999999
 74
     0
 49
-3.174999999999999
 74
     0
 49
3.174999999999999
 74
     0
 49
-3.174999999999999
 74
     0
  0
ENDTAB
  0
TABLE
  2
LAYER
  5
11
102
{ACAD_XDICTIONARY
360
2434
102
}
330
0
100
AcDbSymbolTable
 70
     7
  0
LAYER
  5
5
330
11
100
AcDbSymbolTableRecord
100
AcDbLayerTableRecord
  2
0
 70
     0
 62
     7
  6
Continuous
370
    -3
390
6
  0
LAYER
  5
3B
330
11
100
AcDbSymbolTableRecord
100
AcDbLayerTableRecord
  2
Defpoints
 70
     0
 62
     7
  6
Continuous
290
     0
370
    -3
390
6
  0
LAYER
  5
14E
330
11
100
AcDbSymbolTableRecord
100
AcDbLayerTableRecord
  2
AM_5
 70
     0
 62
     5
  6
Continuous
370
    50
390
6
  0
LAYER
  5
158
330
11
100
AcDbSymbolTableRecord
100
AcDbLayerTableRecord
  2
AM_VIS
 70
     0
 62
     7
  6
Continuous
370
    50
390
6
  0
LAYER
  5
32
330
11
100
AcDbSymbolTableRecord
100
AcDbLayerTableRecord
  2
AM_PARDIM
 70
     0
 62
     5
  6
Continuous
370
    25
390
6
  0
LAYER
  5
BE
330
11
100
AcDbSymbolTableRecord
100
AcDbLayerTableRecord
  2
AM_7
 70
     0
 62
     1
  6
AM_ISO08W050
370
    25
390
6
  0
LAYER
  5
11A7
330
11
100
AcDbSymbolTableRecord
100
AcDbLayerTableRecord
  2
LOGO
 70
     0
 62
     7
  6
Continuous
370
    -3
390
6
  0
ENDTAB
  0
TABLE
  2
STYLE
  5
12
330
0
100
AcDbSymbolTable
 70
     5
  0
STYLE
  5
13
330
12
100
AcDbSymbolTableRecord
100
AcDbTextStyleTableRecord
  2
STANDARD
 70
     0
 40
0.0
 41
1.0
 50
0.0
 71
     0
 42
2.5
  3
ISOCP.SHX
  4
CHINESET.SHX
  0
STYLE
  5
152
330
12
100
AcDbSymbolTableRecord
100
AcDbTextStyleTableRecord
  2
ACISOTS
 70
     0
 40
1.0
 41
1.0
 50
0.0
 71
     0
 42
2.5
  3
isocp.shx
  4
chineset.shx
  0
STYLE
  5
203
330
12
100
AcDbSymbolTableRecord
100
AcDbTextStyleTableRecord
  2

 70
     1
 40
0.0
 41
1.0
 50
0.0
 71
     0
 42
2.5
  3
ltypeshp.shx
  4

  0
STYLE
  5
210
330
12
100
AcDbSymbolTableRecord
100
AcDbTextStyleTableRecord
  2
ACISOGDT
 70
     0
 40
0.0
 41
1.0
 50
0.0
 71
     0
 42
2.5
  3
amgdt.shx
  4

  0
STYLE
  5
356
330
12
100
AcDbSymbolTableRecord
100
AcDbTextStyleTableRecord
  2
CHINESET
 70
     0
 40
0.0
 41
1.0
 50
0.0
 71
     0
 42
2.5
  3
simplex.shx
  4
CHINESET.shx
  0
ENDTAB
  0
TABLE
  2
VIEW
  5
18
330
0
100
AcDbSymbolTable
 70
     0
  0
ENDTAB
  0
TABLE
  2
UCS
  5
19
330
0
100
AcDbSymbolTable
 70
     0
  0
ENDTAB
  0
TABLE
  2
APPID
  5
1C
330
0
100
AcDbSymbolTable
 70
    28
  0
APPID
  5
1D
330
1C
100
AcDbSymbolTableRecord
100
AcDbRegAppTableRecord
  2
ACAD
 70
     0
  0
APPID
  5
41
330
1C
100
AcDbSymbolTableRecord
100
AcDbRegAppTableRecord
  2
AD_SKETCHDIM
 70
     0
  0
APPID
  5
42
330
1C
100
AcDbSymbolTableRecord
100
AcDbRegAppTableRecord
  2
ACAD_DIMASSOC_DIMLFAC
 70
     0
  0
APPID
  5
40
330
1C
100
AcDbSymbolTableRecord
100
AcDbRegAppTableRecord
  2
ACAD_DIMASSOC_CALC_DIMLFAC
 70
     0
  0
APPID
  5
1DF
330
1C
100
AcDbSymbolTableRecord
100
AcDbRegAppTableRecord
  2
MCAD_NO_VIS
 70
     0
  0
APPID
  5
1E0
330
1C
100
AcDbSymbolTableRecord
100
AcDbRegAppTableRecord
  2
ACAD_TEMP_GRAPHIC
 70
     0
  0
APPID
  5
1F1
330
1C
100
AcDbSymbolTableRecord
100
AcDbRegAppTableRecord
  2
ACATTRIBSERVICES
 70
     0
  0
APPID
  5
CAF
330
1C
100
AcDbSymbolTableRecord
100
AcDbRegAppTableRecord
  2
GENIUS_GENODEF_13
 70
     0
  0
APPID
  5
CB0
330
1C
100
AcDbSymbolTableRecord
100
AcDbRegAppTableRecord
  2
GENIUS_GENOBJ-N-DIM_13
 70
     0
  0
APPID
  5
CBC
330
1C
100
AcDbSymbolTableRecord
100
AcDbRegAppTableRecord
  2
GENIUS_GENDIM_13
 70
     0
  0
APPID
  5
CDC
330
1C
100
AcDbSymbolTableRecord
100
AcDbRegAppTableRecord
  2
GENIUS_GENDIMSH_14
 70
     0
  0
APPID
  5
E3C
330
1C
100
AcDbSymbolTableRecord
100
AcDbRegAppTableRecord
  2
GENIUS_GENOBJ-N-HTC_13
 70
     0
  0
APPID
  5
E3D
330
1C
100
AcDbSymbolTableRecord
100
AcDbRegAppTableRecord
  2
GENIUS_GENHATCH_13
 70
     0
  0
APPID
  5
E59
330
1C
100
AcDbSymbolTableRecord
100
AcDbRegAppTableRecord
  2
DCO15
 70
     0
  0
APPID
  5
19D0
330
1C
100
AcDbSymbolTableRecord
100
AcDbRegAppTableRecord
  2
GENIUS_GENOREF_13
 70
     0
  0
APPID
  5
19D1
330
1C
100
AcDbSymbolTableRecord
100
AcDbRegAppTableRecord
  2
GENIUS_GENOENT_13
 70
     0
  0
APPID
  5
19D2
330
1C
100
AcDbSymbolTableRecord
100
AcDbRegAppTableRecord
  2
GENIUS_GENOLIS_13
 70
     0
  0
APPID
  5
19D3
330
1C
100
AcDbSymbolTableRecord
100
AcDbRegAppTableRecord
  2
GENIUS_GENOBJ-N-CRS_13
 70
     0
  0
APPID
  5
19D4
330
1C
100
AcDbSymbolTableRecord
100
AcDbRegAppTableRecord
  2
GENIUS_GENOBJ-N-CEN_13
 70
     0
  0
APPID
  5
2327
330
1C
100
AcDbSymbolTableRecord
100
AcDbRegAppTableRecord
  2
AD_DRAW
 70
     0
  0
APPID
  5
2345
330
1C
100
AcDbSymbolTableRecord
100
AcDbRegAppTableRecord
  2
DESIGNERASSEMBLIES
 70
     0
  0
APPID
  5
234A
330
1C
100
AcDbSymbolTableRecord
100
AcDbRegAppTableRecord
  2
ACADM_DIM_EDIT
 70
     0
  0
APPID
  5
234B
330
1C
100
AcDbSymbolTableRecord
100
AcDbRegAppTableRecord
  2
AMDT_DM_ADJ
 70
     0
  0
APPID
  5
2432
330
1C
100
AcDbSymbolTableRecord
100
AcDbRegAppTableRecord
  2
GENIUS_GENDTOL_13
 70
     0
  0
APPID
  5
2433
330
1C
100
AcDbSymbolTableRecord
100
AcDbRegAppTableRecord
  2
ACAD_PSEXT
 70
     0
  0
APPID
  5
2AA8
330
1C
100
AcDbSymbolTableRecord
100
AcDbRegAppTableRecord
  2
GENIUS_GENREC_14
 70
     0
  0
APPID
  5
2AA9
330
1C
100
AcDbSymbolTableRecord
100
AcDbRegAppTableRecord
  2
GENIUS_GENOBJ-N-REC_13
 70
     0
  0
APPID
  5
37CD
330
1C
100
AcDbSymbolTableRecord
100
AcDbRegAppTableRecord
  2
ACAD_DSTYLE_DIMTEXT_FILL
 70
     0
  0
ENDTAB
  0
TABLE
  2
DIMSTYLE
  5
1E
330
0
100
AcDbSymbolTable
 70
     9
100
AcDbDimStyleTable
 71
     2
340
1F
340
11AA
  0
DIMSTYLE
105
1F
330
1E
100
AcDbSymbolTableRecord
100
AcDbDimStyleTableRecord
  2
AM_ISO
 70
     0
  4
"
 41
3.0
 42
1.5
 43
7.0
 44
1.5
 47
0.1
 48
0.1
 73
     0
 74
     0
 77
     1
 78
     8
 79
     2
140
3.5
141
0.0
143
0.0393701
146
0.71
147
1.0
172
     1
176
   256
177
   256
178
   256
271
     2
272
     2
283
     0
284
     8
285
     8
340
13
371
    -1
372
    -1
  0
DIMSTYLE
105
217
102
{ACAD_REACTORS
330
4ADC
330
518B
102
}
330
1E
100
AcDbSymbolTableRecord
100
AcDbDimStyleTableRecord
  2
AM_ISO$3
 70
     0
  4
"
 41
3.0
 42
1.5
 43
7.0
 44
1.5
 47
0.1
 48
0.1
 73
     0
 77
     1
 78
     8
 79
     2
140
3.5
141
0.0
143
0.0393701
146
0.71
147
1.0
176
   256
177
   256
178
   256
271
     2
272
     2
283
     0
284
     8
285
     8
288
     1
289
     0
340
13
371
    -1
372
    -1
  0
DIMSTYLE
105
218
330
1E
100
AcDbSymbolTableRecord
100
AcDbDimStyleTableRecord
  2
AM_ISO$4
 70
     0
  4
"
 41
3.0
 42
1.5
 43
7.0
 44
1.5
 47
0.1
 48
0.1
 73
     0
 77
     1
 78
     8
 79
     2
140
3.5
141
0.0
143
0.0393701
146
0.71
147
1.0
176
   256
177
   256
178
   256
271
     2
272
     2
283
     0
284
     8
285
     8
288
     1
289
     0
340
13
371
    -1
372
    -1
  0
DIMSTYLE
105
219
330
1E
100
AcDbSymbolTableRecord
100
AcDbDimStyleTableRecord
  2
AM_ISO$6
 70
     0
  4
"
 41
3.0
 42
1.5
 43
7.0
 44
1.5
 47
0.1
 48
0.1
 73
     0
 74
     0
 78
     8
 79
     2
140
3.5
141
0.0
143
0.0393701
146
0.71
147
1.0
172
     1
176
   256
177
   256
178
   256
271
     2
272
     2
283
     0
284
     8
285
     8
340
13
371
    -1
372
    -1
  0
DIMSTYLE
105
21A
330
1E
100
AcDbSymbolTableRecord
100
AcDbDimStyleTableRecord
  2
AM_ISO$7
 70
     0
  4
"
 41
2.5
 42
1.5
 43
7.0
 44
1.5
 47
0.1
 48
0.1
 73
     0
 74
     0
 77
     1
 78
     8
 79
     2
140
3.5
141
0.0
143
0.0393701
146
0.71
147
1.5
172
     1
176
   256
177
   256
178
   256
271
     2
272
     2
283
     0
284
     8
285
     8
340
13
371
    -1
372
    -1
  0
DIMSTYLE
105
21B
330
1E
100
AcDbSymbolTableRecord
100
AcDbDimStyleTableRecord
  2
AM_ISO$SF
 70
     0
  4
"
 41
3.0
 42
2.0
 43
5.0
 44
1.5
 47
0.1
 48
0.1
 73
     0
 74
     0
 75
     1
 76
     1
 77
     1
 78
     8
 79
     2
140
3.0
141
0.0
143
0.0393701
146
0.71
147
1.0
172
     1
176
   256
177
   256
178
     5
271
     2
272
     2
283
     0
284
     8
340
13
371
    -1
372
    -1
  0
DIMSTYLE
105
220
330
1E
100
AcDbSymbolTableRecord
100
AcDbDimStyleTableRecord
  2
AM_ISO$SH
 70
     0
  4
"
 41
3.0
 42
2.0
 43
5.0
 44
1.5
 47
0.1
 48
0.1
 73
     0
 74
     0
 75
     1
 76
     1
 77
     1
 78
     8
 79
     2
140
3.0
141
0.0
143
0.0393701
144
2.0
146
0.71
147
1.0
172
     1
173
     1
176
   256
177
   256
178
     5
271
     2
272
     2
283
     0
284
     8
340
13
341
21C
343
21C
371
    -1
372
    -1
  0
DIMSTYLE
105
11AA
330
1E
100
AcDbSymbolTableRecord
100
AcDbDimStyleTableRecord
  2
STANDARD
 70
     0
 40
0.7
 41
3.0
 42
1.5
 43
7.0
 44
2.0
 47
0.01
 48
0.01
 73
     0
 74
     0
 77
     1
 78
     8
 79
     2
140
3.0
141
0.0
146
0.6
147
0.8
172
     1
176
   256
177
   256
178
   256
271
     2
272
     2
284
     8
340
356
371
    -1
372
    -1
  0
DIMSTYLE
105
2431
102
{ACAD_REACTORS
330
31
330
43
330
52
330
5F
330
6C
330
79
330
86
330
95
330
A3
330
B0
330
4C85
330
4CAF
330
4EB9
330
4F2E
330
4F4A
330
5163
330
4FB2
330
4FF1
330
4A55
330
4C57
330
4B83
330
4BAD
330
4C0C
330
4BE6
330
4A39
330
4A09
102
}
330
1E
100
AcDbSymbolTableRecord
100
AcDbDimStyleTableRecord
  2
AM_ISO$0
 70
     0
  4
"
 41
3.0
 42
1.0
 43
7.0
 44
1.0
 47
0.1
 48
0.1
 73
     0
 74
     0
 77
     1
 78
     8
 79
     2
140
3.5
141
0.0
143
0.0393701
146
0.71
147
1.0
172
     1
176
   256
177
   256
178
   256
271
     2
272
     2
283
     0
284
     8
285
     8
340
13
371
    -1
372
    -1
  0
ENDTAB
  0
TABLE
  2
BLOCK_RECORD
  5
1
330
0
100
AcDbSymbolTable
 70
    31
  0
BLOCK_RECORD
  5
2
102
{ACAD_XDICTIONARY
360
3
102
}
330
1
100
AcDbSymbolTableRecord
100
AcDbBlockTableRecord
  2
*Model_Space
340
B
  0
BLOCK_RECORD
  5
D
102
{ACAD_XDICTIONARY
360
1848
102
}
330
1
100
AcDbSymbolTableRecord
100
AcDbBlockTableRecord
  2
*Paper_Space
340
10
  0
BLOCK_RECORD
  5
21C
330
1
100
AcDbSymbolTableRecord
100
AcDbBlockTableRecord
  2
GENAXEH
340
0
  0
BLOCK_RECORD
  5
F83
330
1
100
AcDbSymbolTableRecord
100
AcDbBlockTableRecord
  2
*D1
340
0
  0
BLOCK_RECORD
  5
F8F
330
1
100
AcDbSymbolTableRecord
100
AcDbBlockTableRecord
  2
*D2
340
0
  0
BLOCK_RECORD
  5
F9D
330
1
100
AcDbSymbolTableRecord
100
AcDbBlockTableRecord
  2
*D3
340
0
  0
BLOCK_RECORD
  5
FA9
330
1
100
AcDbSymbolTableRecord
100
AcDbBlockTableRecord
  2
*D4
340
0
  0
BLOCK_RECORD
  5
FB5
330
1
100
AcDbSymbolTableRecord
100
AcDbBlockTableRecord
  2
*D5
340
0
  0
BLOCK_RECORD
  5
FC1
330
1
100
AcDbSymbolTableRecord
100
AcDbBlockTableRecord
  2
*D6
340
0
  0
BLOCK_RECORD
  5
FCD
330
1
100
AcDbSymbolTableRecord
100
AcDbBlockTableRecord
  2
*D7
340
0
  0
BLOCK_RECORD
  5
FDB
330
1
100
AcDbSymbolTableRecord
100
AcDbBlockTableRecord
  2
*D8
340
0
  0
BLOCK_RECORD
  5
FE8
330
1
100
AcDbSymbolTableRecord
100
AcDbBlockTableRecord
  2
*D9
340
0
  0
BLOCK_RECORD
  5
FF4
330
1
100
AcDbSymbolTableRecord
100
AcDbBlockTableRecord
  2
*D10
340
0
  0
BLOCK_RECORD
  5
4A0A
330
1
100
AcDbSymbolTableRecord
100
AcDbBlockTableRecord
  2
*D11
340
0
  0
BLOCK_RECORD
  5
4A3A
330
1
100
AcDbSymbolTableRecord
100
AcDbBlockTableRecord
  2
*D12
340
0
  0
BLOCK_RECORD
  5
4A56
330
1
100
AcDbSymbolTableRecord
100
AcDbBlockTableRecord
  2
*D13
340
0
  0
BLOCK_RECORD
  5
4ADD
330
1
100
AcDbSymbolTableRecord
100
AcDbBlockTableRecord
  2
*D14
340
0
  0
BLOCK_RECORD
  5
4B84
330
1
100
AcDbSymbolTableRecord
100
AcDbBlockTableRecord
  2
*D15
340
0
  0
BLOCK_RECORD
  5
4BAE
330
1
100
AcDbSymbolTableRecord
100
AcDbBlockTableRecord
  2
*D16
340
0
  0
BLOCK_RECORD
  5
4BE7
330
1
100
AcDbSymbolTableRecord
100
AcDbBlockTableRecord
  2
*D17
340
0
  0
BLOCK_RECORD
  5
4C0D
330
1
100
AcDbSymbolTableRecord
100
AcDbBlockTableRecord
  2
*D18
340
0
  0
BLOCK_RECORD
  5
4C58
330
1
100
AcDbSymbolTableRecord
100
AcDbBlockTableRecord
  2
*D19
340
0
  0
BLOCK_RECORD
  5
4C86
330
1
100
AcDbSymbolTableRecord
100
AcDbBlockTableRecord
  2
*D20
340
0
  0
BLOCK_RECORD
  5
4CB0
330
1
100
AcDbSymbolTableRecord
100
AcDbBlockTableRecord
  2
*D21
340
0
  0
BLOCK_RECORD
  5
4D7B
330
1
100
AcDbSymbolTableRecord
100
AcDbBlockTableRecord
  2
GENDOT
340
0
102
{BLKREFS
331
5602
331
5619
102
}
  0
BLOCK_RECORD
  5
4EBA
330
1
100
AcDbSymbolTableRecord
100
AcDbBlockTableRecord
  2
*D23
340
0
  0
BLOCK_RECORD
  5
4F2F
330
1
100
AcDbSymbolTableRecord
100
AcDbBlockTableRecord
  2
*D24
340
0
  0
BLOCK_RECORD
  5
4F4B
330
1
100
AcDbSymbolTableRecord
100
AcDbBlockTableRecord
  2
*D25
340
0
  0
BLOCK_RECORD
  5
4FB3
330
1
100
AcDbSymbolTableRecord
100
AcDbBlockTableRecord
  2
*D26
340
0
  0
BLOCK_RECORD
  5
4FF2
330
1
100
AcDbSymbolTableRecord
100
AcDbBlockTableRecord
  2
*D27
340
0
  0
BLOCK_RECORD
  5
5164
330
1
100
AcDbSymbolTableRecord
100
AcDbBlockTableRecord
  2
*D28
340
0
  0
BLOCK_RECORD
  5
518C
330
1
100
AcDbSymbolTableRecord
100
AcDbBlockTableRecord
  2
*D29
340
0
  0
ENDTAB
  0
ENDSEC
  0
SECTION
  2
BLOCKS
  0
BLOCK
  5
4
330
2
100
AcDbEntity
  8
0
100
AcDbBlockBegin
  2
*Model_Space
 70
     0
 10
0.0
 20
0.0
 30
0.0
  3
*Model_Space
  1

  0
ENDBLK
  5
A
330
2
100
AcDbEntity
  8
0
100
AcDbBlockEnd
  0
BLOCK
  5
E
330
D
100
AcDbEntity
 67
     1
  8
0
100
AcDbBlockBegin
  2
*Paper_Space
 70
     0
 10
0.0
 20
0.0
 30
0.0
  3
*Paper_Space
  1

  0
ENDBLK
  5
F
330
D
100
AcDbEntity
 67
     1
  8
0
100
AcDbBlockEnd
  0
BLOCK
  5
21E
330
21C
100
AcDbEntity
  8
0
100
AcDbBlockBegin
  2
GENAXEH
 70
     0
 10
0.0
 20
0.0
 30
0.0
  3
GENAXEH
  1

  0
LINE
  5
21D
330
21C
100
AcDbEntity
  8
0
100
AcDbLine
 10
-1.0
 20
0.0
 30
0.0
 11
1.0
 21
0.0
 31
0.0
  0
ENDBLK
  5
21F
330
21C
100
AcDbEntity
  8
0
100
AcDbBlockEnd
  0
BLOCK
  5
F8D
330
F83
100
AcDbEntity
  8
0
100
AcDbBlockBegin
  2
*D1
 70
     1
 10
0.0
 20
0.0
 30
0.0
  3
*D1
  1

  0
LINE
  5
5053
330
F83
100
AcDbEntity
  8
AM_PARDIM
100
AcDbLine
 10
76.3746488765642
 20
116.1938113892625
 30
0.0
 11
115.5325708695175
 21
116.1938113892625
 31
0.0
  0
LINE
  5
5054
330
F83
100
AcDbEntity
  8
AM_PARDIM
100
AcDbLine
 10
76.3746488765642
 20
128.6938113892625
 30
0.0
 11
115.5325708695175
 21
128.6938113892625
 31
0.0
  0
LINE
  5
5055
330
F83
100
AcDbEntity
  8
AM_PARDIM
100
AcDbLine
 10
114.5325708695175
 20
119.1938113892625
 30
0.0
 11
114.5325708695175
 21
125.6938113892625
 31
0.0
  0
SOLID
  5
5056
330
F83
100
AcDbEntity
  8
AM_PARDIM
100
AcDbTrace
 10
114.0325708695175
 20
119.1938113892625
 30
0.0
 11
115.0325708695175
 21
119.1938113892625
 31
0.0
 12
114.5325708695175
 22
116.1938113892625
 32
0.0
 13
114.5325708695175
 23
116.1938113892625
 33
0.0
  0
SOLID
  5
5057
330
F83
100
AcDbEntity
  8
AM_PARDIM
100
AcDbTrace
 10
114.0325708695175
 20
125.6938113892625
 30
0.0
 11
115.0325708695175
 21
125.6938113892625
 31
0.0
 12
114.5325708695175
 22
128.6938113892625
 32
0.0
 13
114.5325708695175
 23
128.6938113892625
 33
0.0
  0
MTEXT
  5
5058
330
F83
100
AcDbEntity
  8
AM_PARDIM
100
AcDbMText
 10
111.7822263813285
 20
122.4438113892625
 30
0.0
 40
3.5
 41
0.0
 71
     5
 72
     1
  1
12.5
 11
0.0000000000000001
 21
1.0
 31
0.0
 73
     1
 44
1.0
1001
ACAD
1000
MTEXTBEGIN
1070
    73
1070
     1
1070
    44
1040
1.0
1070
    74
1070
     0
1000
MTEXTEND
  0
POINT
  5
5059
330
F83
100
AcDbEntity
  8
Defpoints
 62
     0
100
AcDbPoint
 10
75.37464887656421
 20
116.1938113892625
 30
0.0
  0
POINT
  5
505A
330
F83
100
AcDbEntity
  8
Defpoints
 62
     0
100
AcDbPoint
 10
75.37464887656421
 20
128.6938113892625
 30
0.0
  0
POINT
  5
505B
330
F83
100
AcDbEntity
  8
Defpoints
 62
     0
100
AcDbPoint
 10
114.5325708695175
 20
128.6938113892625
 30
0.0
  0
ENDBLK
  5
F8E
330
F83
100
AcDbEntity
  8
0
100
AcDbBlockEnd
  0
BLOCK
  5
F9B
330
F8F
100
AcDbEntity
  8
0
100
AcDbBlockBegin
  2
*D2
 70
     1
 10
0.0
 20
0.0
 30
0.0
  3
*D2
  1

  0
LINE
  5
505C
330
F8F
100
AcDbEntity
  8
AM_PARDIM
100
AcDbLine
 10
37.87464887656421
 20
116.1938113892625
 30
0.0
 11
25.87464887656421
 21
116.1938113892625
 31
0.0
  0
LINE
  5
505D
330
F8F
100
AcDbEntity
  8
AM_PARDIM
100
AcDbLine
 10
37.87464887656421
 20
122.1938113892625
 30
0.0
 11
25.87464887656421
 21
122.1938113892625
 31
0.0
  0
LINE
  5
505E
330
F8F
100
AcDbEntity
  8
AM_PARDIM
100
AcDbLine
 10
26.87464887656421
 20
113.1938113892625
 30
0.0
 11
26.87464887656421
 21
110.1938113892625
 31
0.0
  0
LINE
  5
505F
330
F8F
100
AcDbEntity
  8
AM_PARDIM
100
AcDbLine
 10
26.87464887656421
 20
125.1938113892625
 30
0.0
 11
26.87464887656421
 21
128.1938113892625
 31
0.0
  0
LINE
  5
5060
330
F8F
100
AcDbEntity
  8
AM_PARDIM
100
AcDbLine
 10
26.87464887656421
 20
116.1938113892625
 30
0.0
 11
26.87464887656421
 21
122.1938113892625
 31
0.0
  0
SOLID
  5
5061
330
F8F
100
AcDbEntity
  8
AM_PARDIM
100
AcDbTrace
 10
26.37464887656421
 20
113.1938113892625
 30
0.0
 11
27.3746488765642
 21
113.1938113892625
 31
0.0
 12
26.87464887656421
 22
116.1938113892625
 32
0.0
 13
26.87464887656421
 23
116.1938113892625
 33
0.0
  0
SOLID
  5
5062
330
F8F
100
AcDbEntity
  8
AM_PARDIM
100
AcDbTrace
 10
26.37464887656421
 20
125.1938113892625
 30
0.0
 11
27.37464887656421
 21
125.1938113892625
 31
0.0
 12
26.87464887656421
 22
122.1938113892625
 32
0.0
 13
26.87464887656421
 23
122.1938113892625
 33
0.0
  0
MTEXT
  5
5063
330
F8F
100
AcDbEntity
  8
AM_PARDIM
100
AcDbMText
 10
24.12464887656419
 20
119.1938113892625
 30
0.0
 40
3.5
 41
0.0
 71
     5
 72
     1
  1
6
 11
0.0000000000000001
 21
1.0
 31
0.0
 73
     1
 44
1.0
1001
ACAD
1000
MTEXTBEGIN
1070
    73
1070
     1
1070
    44
1040
1.0
1070
    74
1070
     0
1000
MTEXTEND
  0
POINT
  5
5064
330
F8F
100
AcDbEntity
  8
Defpoints
 62
     0
100
AcDbPoint
 10
38.87464887656421
 20
116.1938113892625
 30
0.0
  0
POINT
  5
5065
330
F8F
100
AcDbEntity
  8
Defpoints
 62
     0
100
AcDbPoint
 10
38.87464887656421
 20
122.1938113892625
 30
0.0
  0
POINT
  5
5066
330
F8F
100
AcDbEntity
  8
Defpoints
 62
     0
100
AcDbPoint
 10
26.87464887656421
 20
122.1938113892625
 30
0.0
  0
ENDBLK
  5
F9C
330
F8F
100
AcDbEntity
  8
0
100
AcDbBlockEnd
  0
BLOCK
  5
FA7
330
F9D
100
AcDbEntity
  8
0
100
AcDbBlockBegin
  2
*D3
 70
     1
 10
0.0
 20
0.0
 30
0.0
  3
*D3
  1

  0
LINE
  5
5067
330
F9D
100
AcDbEntity
  8
AM_PARDIM
100
AcDbLine
 10
38.87464887656421
 20
123.1938113892625
 30
0.0
 11
38.87464887656421
 21
141.6938113892625
 31
0.0
  0
LINE
  5
5068
330
F9D
100
AcDbEntity
  8
AM_PARDIM
100
AcDbLine
 10
50.87464887656421
 20
123.1938113892625
 30
0.0
 11
50.87464887656421
 21
141.6938113892625
 31
0.0
  0
LINE
  5
5069
330
F9D
100
AcDbEntity
  8
AM_PARDIM
100
AcDbLine
 10
41.8746488765642
 20
140.6938113892625
 30
0.0
 11
47.87464887656421
 21
140.6938113892625
 31
0.0
  0
SOLID
  5
506A
330
F9D
100
AcDbEntity
  8
AM_PARDIM
100
AcDbTrace
 10
41.8746488765642
 20
141.1938113892625
 30
0.0
 11
41.8746488765642
 21
140.1938113892625
 31
0.0
 12
38.87464887656421
 22
140.6938113892625
 32
0.0
 13
38.87464887656421
 23
140.6938113892625
 33
0.0
  0
SOLID
  5
506B
330
F9D
100
AcDbEntity
  8
AM_PARDIM
100
AcDbTrace
 10
47.87464887656421
 20
141.1938113892625
 30
0.0
 11
47.87464887656421
 21
140.1938113892625
 31
0.0
 12
50.87464887656421
 22
140.6938113892625
 32
0.0
 13
50.87464887656421
 23
140.6938113892625
 33
0.0
  0
MTEXT
  5
506C
330
F9D
100
AcDbEntity
  8
AM_PARDIM
100
AcDbMText
 10
44.87464887656421
 20
143.4441558774515
 30
0.0
 40
3.5
 41
0.0
 71
     5
 72
     1
  1
12
 73
     1
 44
1.0
1001
ACAD
1000
MTEXTBEGIN
1070
    73
1070
     1
1070
    44
1040
1.0
1070
    74
1070
     0
1000
MTEXTEND
  0
POINT
  5
506D
330
F9D
100
AcDbEntity
  8
Defpoints
 62
     0
100
AcDbPoint
 10
38.87464887656421
 20
122.1938113892625
 30
0.0
  0
POINT
  5
506E
330
F9D
100
AcDbEntity
  8
Defpoints
 62
     0
100
AcDbPoint
 10
50.87464887656421
 20
122.1938113892625
 30
0.0
  0
POINT
  5
506F
330
F9D
100
AcDbEntity
  8
Defpoints
 62
     0
100
AcDbPoint
 10
50.87464887656421
 20
140.6938113892625
 30
0.0
  0
ENDBLK
  5
FA8
330
F9D
100
AcDbEntity
  8
0
100
AcDbBlockEnd
  0
BLOCK
  5
FB3
330
FA9
100
AcDbEntity
  8
0
100
AcDbBlockBegin
  2
*D4
 70
     1
 10
0.0
 20
0.0
 30
0.0
  3
*D4
  1

  0
LINE
  5
5070
330
FA9
100
AcDbEntity
  8
AM_PARDIM
100
AcDbLine
 10
38.87464887656421
 20
117.1938113892625
 30
0.0
 11
38.87464887656421
 21
161.6938113892625
 31
0.0
  0
LINE
  5
5071
330
FA9
100
AcDbEntity
  8
AM_PARDIM
100
AcDbLine
 10
75.37464887656421
 20
117.1938113892625
 30
0.0
 11
75.37464887656421
 21
161.6938113892625
 31
0.0
  0
LINE
  5
5072
330
FA9
100
AcDbEntity
  8
AM_PARDIM
100
AcDbLine
 10
41.8746488765642
 20
160.6938113892625
 30
0.0
 11
72.37464887656421
 21
160.6938113892625
 31
0.0
  0
SOLID
  5
5073
330
FA9
100
AcDbEntity
  8
AM_PARDIM
100
AcDbTrace
 10
41.8746488765642
 20
161.1938113892625
 30
0.0
 11
41.8746488765642
 21
160.1938113892625
 31
0.0
 12
38.87464887656421
 22
160.6938113892625
 32
0.0
 13
38.87464887656421
 23
160.6938113892625
 33
0.0
  0
SOLID
  5
5074
330
FA9
100
AcDbEntity
  8
AM_PARDIM
100
AcDbTrace
 10
72.37464887656421
 20
161.1938113892625
 30
0.0
 11
72.37464887656421
 21
160.1938113892625
 31
0.0
 12
75.37464887656421
 22
160.6938113892625
 32
0.0
 13
75.37464887656421
 23
160.6938113892625
 33
0.0
  0
MTEXT
  5
5075
330
FA9
100
AcDbEntity
  8
AM_PARDIM
100
AcDbMText
 10
57.12464887656421
 20
163.4438113892625
 30
0.0
 40
3.5
 41
0.0
 71
     5
 72
     1
  1
36.5
 73
     1
 44
1.0
1001
ACAD
1000
MTEXTBEGIN
1070
    73
1070
     1
1070
    44
1040
1.0
1070
    74
1070
     0
1000
MTEXTEND
  0
POINT
  5
5076
330
FA9
100
AcDbEntity
  8
Defpoints
 62
     0
100
AcDbPoint
 10
38.87464887656421
 20
116.1938113892625
 30
0.0
  0
POINT
  5
5077
330
FA9
100
AcDbEntity
  8
Defpoints
 62
     0
100
AcDbPoint
 10
75.37464887656421
 20
116.1938113892625
 30
0.0
  0
POINT
  5
5078
330
FA9
100
AcDbEntity
  8
Defpoints
 62
     0
100
AcDbPoint
 10
75.37464887656421
 20
160.6938113892625
 30
0.0
  0
ENDBLK
  5
FB4
330
FA9
100
AcDbEntity
  8
0
100
AcDbBlockEnd
  0
BLOCK
  5
FBF
330
FB5
100
AcDbEntity
  8
0
100
AcDbBlockBegin
  2
*D5
 70
     1
 10
0.0
 20
0.0
 30
0.0
  3
*D5
  1

  0
LINE
  5
5079
330
FB5
100
AcDbEntity
  8
AM_PARDIM
100
AcDbLine
 10
51.87464887656421
 20
127.1938113892625
 30
0.0
 11
105.5325708695175
 21
127.1938113892625
 31
0.0
  0
LINE
  5
507A
330
FB5
100
AcDbEntity
  8
AM_PARDIM
100
AcDbLine
 10
76.3746488765642
 20
116.1938113892625
 30
0.0
 11
105.5325708695175
 21
116.1938113892625
 31
0.0
  0
LINE
  5
507B
330
FB5
100
AcDbEntity
  8
AM_PARDIM
100
AcDbLine
 10
104.5325708695175
 20
124.1938113892625
 30
0.0
 11
104.5325708695175
 21
119.1938113892625
 31
0.0
  0
SOLID
  5
507C
330
FB5
100
AcDbEntity
  8
AM_PARDIM
100
AcDbTrace
 10
104.0325708695175
 20
124.1938113892625
 30
0.0
 11
105.0325708695175
 21
124.1938113892625
 31
0.0
 12
104.5325708695175
 22
127.1938113892625
 32
0.0
 13
104.5325708695175
 23
127.1938113892625
 33
0.0
  0
SOLID
  5
507D
330
FB5
100
AcDbEntity
  8
AM_PARDIM
100
AcDbTrace
 10
104.0325708695175
 20
119.1938113892625
 30
0.0
 11
105.0325708695175
 21
119.1938113892625
 31
0.0
 12
104.5325708695175
 22
116.1938113892625
 32
0.0
 13
104.5325708695175
 23
116.1938113892625
 33
0.0
  0
MTEXT
  5
507E
330
FB5
100
AcDbEntity
  8
AM_PARDIM
100
AcDbMText
 10
101.7825708695175
 20
121.6938113892625
 30
0.0
 40
3.5
 41
0.0
 71
     5
 72
     1
  1
11
 11
0.0000000000000001
 21
1.0
 31
0.0
 73
     1
 44
1.0
1001
ACAD
1000
MTEXTBEGIN
1070
    73
1070
     1
1070
    44
1040
1.0
1070
    74
1070
     0
1000
MTEXTEND
  0
POINT
  5
507F
330
FB5
100
AcDbEntity
  8
Defpoints
 62
     0
100
AcDbPoint
 10
50.87464887656421
 20
127.1938113892625
 30
0.0
  0
POINT
  5
5080
330
FB5
100
AcDbEntity
  8
Defpoints
 62
     0
100
AcDbPoint
 10
75.37464887656421
 20
116.1938113892625
 30
0.0
  0
POINT
  5
5081
330
FB5
100
AcDbEntity
  8
Defpoints
 62
     0
100
AcDbPoint
 10
104.5325708695175
 20
116.1938113892625
 30
0.0
  0
ENDBLK
  5
FC0
330
FB5
100
AcDbEntity
  8
0
100
AcDbBlockEnd
  0
BLOCK
  5
FCB
330
FC1
100
AcDbEntity
  8
0
100
AcDbBlockBegin
  2
*D6
 70
     1
 10
0.0
 20
0.0
 30
0.0
  3
*D6
  1

  0
LINE
  5
5082
330
FC1
100
AcDbEntity
  8
AM_PARDIM
100
AcDbLine
 10
66.3746488765642
 20
129.6938113892625
 30
0.0
 11
66.3746488765642
 21
151.6938113892625
 31
0.0
  0
LINE
  5
5083
330
FC1
100
AcDbEntity
  8
AM_PARDIM
100
AcDbLine
 10
75.37464887656421
 20
129.6938113892625
 30
0.0
 11
75.37464887656421
 21
151.6938113892625
 31
0.0
  0
LINE
  5
5084
330
FC1
100
AcDbEntity
  8
AM_PARDIM
100
AcDbLine
 10
69.37464887656421
 20
150.6938113892625
 30
0.0
 11
72.37464887656421
 21
150.6938113892625
 31
0.0
  0
SOLID
  5
5085
330
FC1
100
AcDbEntity
  8
AM_PARDIM
100
AcDbTrace
 10
69.37464887656421
 20
151.1938113892625
 30
0.0
 11
69.37464887656421
 21
150.1938113892625
 31
0.0
 12
66.3746488765642
 22
150.6938113892625
 32
0.0
 13
66.3746488765642
 23
150.6938113892625
 33
0.0
  0
SOLID
  5
5086
330
FC1
100
AcDbEntity
  8
AM_PARDIM
100
AcDbTrace
 10
72.37464887656421
 20
151.1938113892625
 30
0.0
 11
72.37464887656421
 21
150.1938113892625
 31
0.0
 12
75.37464887656421
 22
150.6938113892625
 32
0.0
 13
75.37464887656421
 23
150.6938113892625
 33
0.0
  0
MTEXT
  5
5087
330
FC1
100
AcDbEntity
  8
AM_PARDIM
100
AcDbMText
 10
70.87464887656421
 20
153.4438113892625
 30
0.0
 40
3.5
 41
0.0
 71
     5
 72
     1
  1
9
 73
     1
 44
1.0
1001
ACAD
1000
MTEXTBEGIN
1070
    73
1070
     1
1070
    44
1040
1.0
1070
    74
1070
     0
1000
MTEXTEND
  0
POINT
  5
5088
330
FC1
100
AcDbEntity
  8
Defpoints
 62
     0
100
AcDbPoint
 10
66.3746488765642
 20
128.6938113892625
 30
0.0
  0
POINT
  5
5089
330
FC1
100
AcDbEntity
  8
Defpoints
 62
     0
100
AcDbPoint
 10
75.37464887656421
 20
128.6938113892625
 30
0.0
  0
POINT
  5
508A
330
FC1
100
AcDbEntity
  8
Defpoints
 62
     0
100
AcDbPoint
 10
75.37464887656421
 20
150.6938113892625
 30
0.0
  0
ENDBLK
  5
FCC
330
FC1
100
AcDbEntity
  8
0
100
AcDbBlockEnd
  0
BLOCK
  5
FD9
330
FCD
100
AcDbEntity
  8
0
100
AcDbBlockBegin
  2
*D7
 70
     1
 10
0.0
 20
0.0
 30
0.0
  3
*D7
  1

  0
LINE
  5
508B
330
FCD
100
AcDbEntity
  8
AM_PARDIM
100
AcDbLine
 10
63.87464887656418
 20
129.6938113892624
 30
0.0
 11
63.87464887656418
 21
141.6938113892625
 31
0.0
  0
LINE
  5
508C
330
FCD
100
AcDbEntity
  8
AM_PARDIM
100
AcDbLine
 10
66.37464887656418
 20
129.6938113892624
 30
0.0
 11
66.37464887656418
 21
141.6938113892625
 31
0.0
  0
LINE
  5
508D
330
FCD
100
AcDbEntity
  8
AM_PARDIM
100
AcDbLine
 10
60.87464887656418
 20
140.6938113892625
 30
0.0
 11
57.87464887656418
 21
140.6938113892625
 31
0.0
  0
LINE
  5
508E
330
FCD
100
AcDbEntity
  8
AM_PARDIM
100
AcDbLine
 10
69.37464887656418
 20
140.6938113892625
 30
0.0
 11
79.50850157615066
 21
140.6938113892625
 31
0.0
  0
LINE
  5
508F
330
FCD
100
AcDbEntity
  8
AM_PARDIM
100
AcDbLine
 10
63.87464887656418
 20
140.6938113892625
 30
0.0
 11
66.37464887656418
 21
140.6938113892625
 31
0.0
  0
SOLID
  5
5090
330
FCD
100
AcDbEntity
  8
AM_PARDIM
100
AcDbTrace
 10
60.87464887656418
 20
141.1938113892625
 30
0.0
 11
60.87464887656418
 21
140.1938113892625
 31
0.0
 12
63.87464887656418
 22
140.6938113892625
 32
0.0
 13
63.87464887656418
 23
140.6938113892625
 33
0.0
  0
SOLID
  5
5091
330
FCD
100
AcDbEntity
  8
AM_PARDIM
100
AcDbTrace
 10
69.37464887656418
 20
141.1938113892625
 30
0.0
 11
69.37464887656418
 21
140.1938113892625
 31
0.0
 12
66.37464887656418
 22
140.6938113892625
 32
0.0
 13
66.37464887656418
 23
140.6938113892625
 33
0.0
  0
MTEXT
  5
5092
330
FCD
100
AcDbEntity
  8
AM_PARDIM
100
AcDbMText
 10
75.94157522635743
 20
143.4441558774515
 30
0.0
 40
3.5
 41
0.0
 71
     5
 72
     1
  1
2.5
 73
     1
 44
1.0
1001
ACAD
1000
MTEXTBEGIN
1070
    73
1070
     1
1070
    44
1040
1.0
1070
    74
1070
     0
1000
MTEXTEND
  0
POINT
  5
5093
330
FCD
100
AcDbEntity
  8
Defpoints
 62
     0
100
AcDbPoint
 10
63.87464887656418
 20
128.6938113892624
 30
0.0
  0
POINT
  5
5094
330
FCD
100
AcDbEntity
  8
Defpoints
 62
     0
100
AcDbPoint
 10
66.37464887656418
 20
128.6938113892624
 30
0.0
  0
POINT
  5
5095
330
FCD
100
AcDbEntity
  8
Defpoints
 62
     0
100
AcDbPoint
 10
66.37464887656418
 20
140.6938113892625
 30
0.0
  0
ENDBLK
  5
FDA
330
FCD
100
AcDbEntity
  8
0
100
AcDbBlockEnd
  0
BLOCK
  5
FE6
330
FDB
100
AcDbEntity
  8
0
100
AcDbBlockBegin
  2
*D8
 70
     1
 10
0.0
 20
0.0
 30
0.0
  3
*D8
  1

  0
LINE
  5
5096
330
FDB
100
AcDbEntity
  8
AM_PARDIM
100
AcDbLine
 10
66.37464887656418
 20
129.6938113892624
 30
0.0
 11
66.37464887656418
 21
137.030378563861
 31
0.0
  0
LINE
  5
5097
330
FDB
100
AcDbEntity
  8
AM_PARDIM
100
AcDbLine
 10
66.37464887656418
 20
117.1938113892624
 30
0.0
 11
66.37464887656418
 21
137.030378563861
 31
0.0
  0
LINE
  5
5098
330
FDB
100
AcDbEntity
  8
AM_PARDIM
100
AcDbLine
 10
63.37464887656418
 20
136.030378563861
 30
0.0
 11
60.37464887656418
 21
136.030378563861
 31
0.0
  0
LINE
  5
5099
330
FDB
100
AcDbEntity
  8
AM_PARDIM
100
AcDbLine
 10
69.37464887656418
 20
136.030378563861
 30
0.0
 11
75.78016068758779
 21
136.030378563861
 31
0.0
  0
SOLID
  5
509A
330
FDB
100
AcDbEntity
  8
AM_PARDIM
100
AcDbTrace
 10
63.37464887656418
 20
136.530378563861
 30
0.0
 11
63.37464887656418
 21
135.530378563861
 31
0.0
 12
66.37464887656418
 22
136.030378563861
 32
0.0
 13
66.37464887656418
 23
136.030378563861
 33
0.0
  0
SOLID
  5
509B
330
FDB
100
AcDbEntity
  8
AM_PARDIM
100
AcDbTrace
 10
69.37464887656418
 20
136.530378563861
 30
0.0
 11
69.37464887656418
 21
135.530378563861
 31
0.0
 12
66.37464887656418
 22
136.030378563861
 32
0.0
 13
66.37464887656418
 23
136.030378563861
 33
0.0
  0
MTEXT
  5
509C
330
FDB
100
AcDbEntity
  8
AM_PARDIM
100
AcDbMText
 10
74.07740478207599
 20
138.780378563861
 30
0.0
 40
3.5
 41
0.0
 71
     5
 72
     1
  1
0
 73
     1
 44
1.0
1001
ACAD
1000
MTEXTBEGIN
1070
    73
1070
     1
1070
    44
1040
1.0
1070
    74
1070
     0
1000
MTEXTEND
  0
POINT
  5
509D
330
FDB
100
AcDbEntity
  8
Defpoints
 62
     0
100
AcDbPoint
 10
66.37464887656418
 20
128.6938113892624
 30
0.0
  0
POINT
  5
509E
330
FDB
100
AcDbEntity
  8
Defpoints
 62
     0
100
AcDbPoint
 10
66.37464887656418
 20
116.1938113892624
 30
0.0
  0
POINT
  5
509F
330
FDB
100
AcDbEntity
  8
Defpoints
 62
     0
100
AcDbPoint
 10
66.37464887656418
 20
136.030378563861
 30
0.0
  0
ENDBLK
  5
FE7
330
FDB
100
AcDbEntity
  8
0
100
AcDbBlockEnd
  0
BLOCK
  5
FF2
330
FE8
100
AcDbEntity
  8
0
100
AcDbBlockBegin
  2
*D9
 70
     1
 10
0.0
 20
0.0
 30
0.0
  3
*D9
  1

  0
LINE
  5
50A0
330
FE8
100
AcDbEntity
  8
AM_PARDIM
100
AcDbLine
 10
64.87464887656418
 20
125.6938113892624
 30
0.0
 11
95.53257086951754
 21
125.6938113892624
 31
0.0
  0
LINE
  5
50A1
330
FE8
100
AcDbEntity
  8
AM_PARDIM
100
AcDbLine
 10
83.53257086951755
 20
116.1938113892624
 30
0.0
 11
95.53257086951754
 21
116.1938113892624
 31
0.0
  0
LINE
  5
50A2
330
FE8
100
AcDbEntity
  8
AM_PARDIM
100
AcDbLine
 10
94.53257086951754
 20
122.6938113892624
 30
0.0
 11
94.53257086951754
 21
119.1938113892624
 31
0.0
  0
SOLID
  5
50A3
330
FE8
100
AcDbEntity
  8
AM_PARDIM
100
AcDbTrace
 10
94.03257086951754
 20
122.6938113892624
 30
0.0
 11
95.03257086951753
 21
122.6938113892624
 31
0.0
 12
94.53257086951754
 22
125.6938113892624
 32
0.0
 13
94.53257086951754
 23
125.6938113892624
 33
0.0
  0
SOLID
  5
50A4
330
FE8
100
AcDbEntity
  8
AM_PARDIM
100
AcDbTrace
 10
94.03257086951754
 20
119.1938113892624
 30
0.0
 11
95.03257086951753
 21
119.1938113892624
 31
0.0
 12
94.53257086951754
 22
116.1938113892624
 32
0.0
 13
94.53257086951754
 23
116.1938113892624
 33
0.0
  0
MTEXT
  5
50A5
330
FE8
100
AcDbEntity
  8
AM_PARDIM
100
AcDbMText
 10
91.78257086951752
 20
120.9438113892624
 30
0.0
 40
3.5
 41
0.0
 71
     5
 72
     1
  1
9.5
 11
0.0000000000000001
 21
1.0
 31
0.0
 73
     1
 44
1.0
1001
ACAD
1000
MTEXTBEGIN
1070
    73
1070
     1
1070
    44
1040
1.0
1070
    74
1070
     0
1000
MTEXTEND
  0
POINT
  5
50A6
330
FE8
100
AcDbEntity
  8
Defpoints
 62
     0
100
AcDbPoint
 10
63.87464887656418
 20
125.6938113892624
 30
0.0
  0
POINT
  5
50A7
330
FE8
100
AcDbEntity
  8
Defpoints
 62
     0
100
AcDbPoint
 10
82.53257086951753
 20
116.1938113892624
 30
0.0
  0
POINT
  5
50A8
330
FE8
100
AcDbEntity
  8
Defpoints
 62
     0
100
AcDbPoint
 10
94.53257086951754
 20
116.1938113892624
 30
0.0
  0
ENDBLK
  5
FF3
330
FE8
100
AcDbEntity
  8
0
100
AcDbBlockEnd
  0
BLOCK
  5
FFE
330
FF4
100
AcDbEntity
  8
0
100
AcDbBlockBegin
  2
*D10
 70
     1
 10
0.0
 20
0.0
 30
0.0
  3
*D10
  1

  0
LINE
  5
50A9
330
FF4
100
AcDbEntity
  8
AM_PARDIM
100
AcDbLine
 10
67.37464887656418
 20
128.6938113892624
 30
0.0
 11
125.5325708695175
 21
128.6938113892624
 31
0.0
  0
LINE
  5
50AA
330
FF4
100
AcDbEntity
  8
AM_PARDIM
100
AcDbLine
 10
83.53257086951755
 20
116.1938113892624
 30
0.0
 11
125.5325708695175
 21
116.1938113892624
 31
0.0
  0
LINE
  5
50AB
330
FF4
100
AcDbEntity
  8
AM_PARDIM
100
AcDbLine
 10
124.5325708695175
 20
125.6938113892624
 30
0.0
 11
124.5325708695175
 21
119.1938113892624
 31
0.0
  0
SOLID
  5
50AC
330
FF4
100
AcDbEntity
  8
AM_PARDIM
100
AcDbTrace
 10
124.0325708695175
 20
125.6938113892624
 30
0.0
 11
125.0325708695175
 21
125.6938113892624
 31
0.0
 12
124.5325708695175
 22
128.6938113892624
 32
0.0
 13
124.5325708695175
 23
128.6938113892624
 33
0.0
  0
SOLID
  5
50AD
330
FF4
100
AcDbEntity
  8
AM_PARDIM
100
AcDbTrace
 10
124.0325708695175
 20
119.1938113892624
 30
0.0
 11
125.0325708695175
 21
119.1938113892624
 31
0.0
 12
124.5325708695175
 22
116.1938113892624
 32
0.0
 13
124.5325708695175
 23
116.1938113892624
 33
0.0
  0
MTEXT
  5
50AE
330
FF4
100
AcDbEntity
  8
AM_PARDIM
100
AcDbMText
 10
121.7822263813285
 20
122.4438113892624
 30
0.0
 40
3.5
 41
0.0
 71
     5
 72
     1
  1
12.5
 11
0.0000000000000001
 21
1.0
 31
0.0
 73
     1
 44
1.0
1001
ACAD
1000
MTEXTBEGIN
1070
    73
1070
     1
1070
    44
1040
1.0
1070
    74
1070
     0
1000
MTEXTEND
  0
POINT
  5
50AF
330
FF4
100
AcDbEntity
  8
Defpoints
 62
     0
100
AcDbPoint
 10
66.37464887656418
 20
128.6938113892624
 30
0.0
  0
POINT
  5
50B0
330
FF4
100
AcDbEntity
  8
Defpoints
 62
     0
100
AcDbPoint
 10
82.53257086951753
 20
116.1938113892624
 30
0.0
  0
POINT
  5
50B1
330
FF4
100
AcDbEntity
  8
Defpoints
 62
     0
100
AcDbPoint
 10
124.5325708695175
 20
116.1938113892624
 30
0.0
  0
ENDBLK
  5
FFF
330
FF4
100
AcDbEntity
  8
0
100
AcDbBlockEnd
  0
BLOCK
  5
4A14
330
4A0A
100
AcDbEntity
  8
0
100
AcDbBlockBegin
  2
*D11
 70
     1
 10
0.0
 20
0.0
 30
0.0
  3
*D11
  1

  0
LINE
  5
563C
330
4A0A
100
AcDbEntity
  8
AM_5
100
AcDbLine
 10
559.5924873710239
 20
-4.311335300355938
 30
0.0
 11
559.5924873710239
 21
1.482303196990142
 31
0.0
  0
LINE
  5
563D
330
4A0A
100
AcDbEntity
  8
AM_5
100
AcDbLine
 10
570.5924873710239
 20
-2.011335300355955
 30
0.0
 11
570.5924873710239
 21
1.482303196990142
 31
0.0
  0
LINE
  5
563E
330
4A0A
100
AcDbEntity
  8
AM_5
100
AcDbLine
 10
561.6924873710239
 20
0.7823031969901422
 30
0.0
 11
568.4924873710238
 21
0.7823031969901422
 31
0.0
  0
SOLID
  5
563F
330
4A0A
100
AcDbEntity
  8
AM_5
100
AcDbTrace
 10
561.6924873710239
 20
1.132303196990142
 30
0.0
 11
561.6924873710239
 21
0.4323031969901423
 31
0.0
 12
559.5924873710239
 22
0.7823031969901422
 32
0.0
 13
559.5924873710239
 23
0.7823031969901422
 33
0.0
  0
SOLID
  5
5640
330
4A0A
100
AcDbEntity
  8
AM_5
100
AcDbTrace
 10
568.4924873710238
 20
1.132303196990142
 30
0.0
 11
568.4924873710238
 21
0.4323031969901423
 31
0.0
 12
570.5924873710239
 22
0.7823031969901422
 32
0.0
 13
570.5924873710239
 23
0.7823031969901422
 33
0.0
  0
MTEXT
  5
5641
330
4A0A
100
AcDbEntity
  8
AM_5
100
AcDbMText
 10
565.0985949981364
 20
2.707303196990141
 30
0.0
 40
2.449999999999999
 41
0.0
 71
     5
 72
     1
  1
11
 73
     1
 44
1.0
1001
ACAD
1000
MTEXTBEGIN
1070
    73
1070
     1
1070
    44
1040
1.0
1070
    74
1070
     0
1000
MTEXTEND
  0
POINT
  5
5642
330
4A0A
100
AcDbEntity
  8
Defpoints
 62
     0
100
AcDbPoint
 10
559.5924873710239
 20
-5.011335300355938
 30
0.0
  0
POINT
  5
5643
330
4A0A
100
AcDbEntity
  8
Defpoints
 62
     0
100
AcDbPoint
 10
570.5924873710239
 20
-2.711335300355955
 30
0.0
  0
POINT
  5
5644
330
4A0A
100
AcDbEntity
  8
Defpoints
 62
     0
100
AcDbPoint
 10
570.5924873710239
 20
0.7823031969901422
 30
0.0
  0
ENDBLK
  5
4A15
330
4A0A
100
AcDbEntity
  8
0
100
AcDbBlockEnd
  0
BLOCK
  5
4A46
330
4A3A
100
AcDbEntity
  8
0
100
AcDbBlockBegin
  2
*D12
 70
     1
 10
0.0
 20
0.0
 30
0.0
  3
*D12
  1

  0
LINE
  5
564F
330
4A3A
100
AcDbEntity
  8
AM_5
100
AcDbLine
 10
570.5924873710239
 20
-2.011335300355955
 30
0.0
 11
570.5924873710239
 21
1.482303196990142
 31
0.0
  0
LINE
  5
5650
330
4A3A
100
AcDbEntity
  8
AM_5
100
AcDbLine
 10
577.5924873710239
 20
-10.21133530035594
 30
0.0
 11
577.5924873710239
 21
1.482303196990141
 31
0.0
  0
LINE
  5
5651
330
4A3A
100
AcDbEntity
  8
AM_5
100
AcDbLine
 10
572.6924873710239
 20
0.7823031969901422
 30
0.0
 11
575.4924873710239
 21
0.7823031969901422
 31
0.0
  0
SOLID
  5
5652
330
4A3A
100
AcDbEntity
  8
AM_5
100
AcDbTrace
 10
572.6924873710239
 20
1.132303196990142
 30
0.0
 11
572.6924873710239
 21
0.4323031969901423
 31
0.0
 12
570.5924873710239
 22
0.7823031969901422
 32
0.0
 13
570.5924873710239
 23
0.7823031969901422
 33
0.0
  0
SOLID
  5
5653
330
4A3A
100
AcDbEntity
  8
AM_5
100
AcDbTrace
 10
575.4924873710239
 20
1.132303196990142
 30
0.0
 11
575.4924873710239
 21
0.4323031969901423
 31
0.0
 12
577.5924873710239
 22
0.7823031969901422
 32
0.0
 13
577.5924873710239
 23
0.7823031969901422
 33
0.0
  0
MTEXT
  5
5654
330
4A3A
100
AcDbEntity
  8
AM_5
100
AcDbMText
 10
574.0924873710239
 20
2.707303196990141
 30
0.0
 40
2.449999999999999
 41
0.0
 71
     5
 72
     1
  1
7
 73
     1
 44
1.0
1001
ACAD
1000
MTEXTBEGIN
1070
    73
1070
     1
1070
    44
1040
1.0
1070
    74
1070
     0
1000
MTEXTEND
  0
POINT
  5
5655
330
4A3A
100
AcDbEntity
  8
Defpoints
 62
     0
100
AcDbPoint
 10
570.5924873710239
 20
-2.711335300355955
 30
0.0
  0
POINT
  5
5656
330
4A3A
100
AcDbEntity
  8
Defpoints
 62
     0
100
AcDbPoint
 10
577.5924873710239
 20
-10.91133530035594
 30
0.0
  0
POINT
  5
5657
330
4A3A
100
AcDbEntity
  8
Defpoints
 62
     0
100
AcDbPoint
 10
577.5924873710239
 20
0.7823031969901422
 30
0.0
  0
ENDBLK
  5
4A47
330
4A3A
100
AcDbEntity
  8
0
100
AcDbBlockEnd
  0
BLOCK
  5
4A60
330
4A56
100
AcDbEntity
  8
0
100
AcDbBlockBegin
  2
*D13
 70
     1
 10
0.0
 20
0.0
 30
0.0
  3
*D13
  1

  0
LINE
  5
5443
330
4A56
100
AcDbEntity
  8
AM_5
100
AcDbLine
 10
640.9073115374521
 20
-60.44630218135941
 30
0.0
 11
634.0889655480046
 21
-60.44630218135941
 31
0.0
  0
LINE
  5
5444
330
4A56
100
AcDbEntity
  8
AM_5
100
AcDbLine
 10
641.4073115374521
 20
-32.94630218135939
 30
0.0
 11
634.0889655480046
 21
-32.94630218135939
 31
0.0
  0
LINE
  5
5445
330
4A56
100
AcDbEntity
  8
AM_5
100
AcDbLine
 10
634.7889655480047
 20
-58.34630218135941
 30
0.0
 11
634.7889655480047
 21
-35.04630218135939
 31
0.0
  0
SOLID
  5
5446
330
4A56
100
AcDbEntity
  8
AM_5
100
AcDbTrace
 10
634.4389655480047
 20
-58.34630218135941
 30
0.0
 11
635.1389655480048
 21
-58.34630218135941
 31
0.0
 12
634.7889655480047
 22
-60.44630218135941
 32
0.0
 13
634.7889655480047
 23
-60.44630218135941
 33
0.0
  0
SOLID
  5
5447
330
4A56
100
AcDbEntity
  8
AM_5
100
AcDbTrace
 10
634.4389655480047
 20
-35.04630218135939
 30
0.0
 11
635.1389655480048
 21
-35.04630218135939
 31
0.0
 12
634.7889655480047
 22
-32.94630218135939
 32
0.0
 13
634.7889655480047
 23
-32.94630218135939
 33
0.0
  0
MTEXT
  5
5448
330
4A56
100
AcDbEntity
  8
AM_5
100
AcDbMText
 10
632.8637244062725
 20
-46.69630218135929
 30
0.0
 40
2.449999999999999
 41
0.0
 71
     5
 72
     1
  1
27.5
 11
0.0000000000000001
 21
1.0
 31
0.0
 73
     1
 44
1.0
1001
ACAD
1000
MTEXTBEGIN
1070
    73
1070
     1
1070
    44
1040
1.0
1070
    74
1070
     0
1000
MTEXTEND
  0
POINT
  5
5449
330
4A56
100
AcDbEntity
  8
Defpoints
 62
     0
100
AcDbPoint
 10
641.6073115374522
 20
-60.44630218135941
 30
0.0
  0
POINT
  5
544A
330
4A56
100
AcDbEntity
  8
Defpoints
 62
     0
100
AcDbPoint
 10
642.1073115374522
 20
-32.94630218135939
 30
0.0
  0
POINT
  5
544B
330
4A56
100
AcDbEntity
  8
Defpoints
 62
     0
100
AcDbPoint
 10
634.7889655480047
 20
-32.94630218135939
 30
0.0
  0
ENDBLK
  5
4A61
330
4A56
100
AcDbEntity
  8
0
100
AcDbBlockEnd
  0
BLOCK
  5
4AE4
330
4ADD
100
AcDbEntity
  8
0
100
AcDbBlockBegin
  2
*D14
 70
     1
 10
0.0
 20
0.0
 30
0.0
  3
*D14
  1

  0
LINE
  5
5495
330
4ADD
100
AcDbEntity
  8
AM_5
100
AcDbLine
 10
579.6285853960267
 20
-16.24600268254488
 30
0.0
 11
585.6439622405534
 21
-22.5525893909965
 31
0.0
  0
LINE
  5
5496
330
4ADD
100
AcDbEntity
  8
AM_5
100
AcDbLine
 10
585.6439622405534
 20
-22.5525893909965
 30
0.0
 11
602.3311768074825
 21
-22.5525893909965
 31
0.0
  0
SOLID
  5
5497
330
4ADD
100
AcDbEntity
  8
AM_5
100
AcDbTrace
 10
579.8818510176422
 20
-16.00443173042589
 30
0.0
 11
579.3753197744109
 21
-16.48757363466382
 31
0.0
 12
578.1791596833129
 22
-14.72640895285116
 32
0.0
 13
578.1791596833129
 23
-14.72640895285116
 33
0.0
  0
MTEXT
  5
5498
330
4ADD
100
AcDbEntity
  8
AM_5
100
AcDbMText
 10
594.3375695240181
 20
-20.62734824926405
 30
0.0
 40
2.449999999999999
 41
0.0
 71
     5
 72
     1
  1
2-\U+22051.7 thru
 73
     1
 44
1.0
1001
ACAD
1000
MTEXTBEGIN
1070
    73
1070
     1
1070
    44
1040
1.0
1070
    74
1070
     0
1000
MTEXTEND
  0
POINT
  5
5499
330
4ADD
100
AcDbEntity
  8
Defpoints
 62
     0
100
AcDbPoint
 10
578.1791596833129
 20
-14.72640895285116
 30
0.0
  0
POINT
  5
549A
330
4ADD
100
AcDbEntity
  8
Defpoints
 62
     0
100
AcDbPoint
 10
577.0058150587352
 20
-13.49626164786082
 30
0.0
  0
ENDBLK
  5
4AE5
330
4ADD
100
AcDbEntity
  8
0
100
AcDbBlockEnd
  0
BLOCK
  5
4B8E
330
4B84
100
AcDbEntity
  8
0
100
AcDbBlockBegin
  2
*D15
 70
     1
 10
0.0
 20
0.0
 30
0.0
  3
*D15
  1

  0
LINE
  5
5457
330
4B84
100
AcDbEntity
  8
AM_5
100
AcDbLine
 10
558.8924873710238
 20
-60.44630218135933
 30
0.0
 11
552.2420833627533
 21
-60.44630218135933
 31
0.0
  0
LINE
  5
5458
330
4B84
100
AcDbEntity
  8
AM_5
100
AcDbLine
 10
558.8924873710238
 20
-45.44630218135933
 30
0.0
 11
552.2420833627533
 21
-45.44630218135933
 31
0.0
  0
LINE
  5
5459
330
4B84
100
AcDbEntity
  8
AM_5
100
AcDbLine
 10
552.9420833627533
 20
-58.34630218135933
 30
0.0
 11
552.9420833627533
 21
-47.54630218135933
 31
0.0
  0
SOLID
  5
545A
330
4B84
100
AcDbEntity
  8
AM_5
100
AcDbTrace
 10
552.5920833627533
 20
-58.34630218135933
 30
0.0
 11
553.2920833627533
 21
-58.34630218135933
 31
0.0
 12
552.9420833627533
 22
-60.44630218135933
 32
0.0
 13
552.9420833627533
 23
-60.44630218135933
 33
0.0
  0
SOLID
  5
545B
330
4B84
100
AcDbEntity
  8
AM_5
100
AcDbTrace
 10
552.5920833627533
 20
-47.54630218135933
 30
0.0
 11
553.2920833627533
 21
-47.54630218135933
 31
0.0
 12
552.9420833627533
 22
-45.44630218135933
 32
0.0
 13
552.9420833627533
 23
-45.44630218135933
 33
0.0
  0
MTEXT
  5
545C
330
4B84
100
AcDbEntity
  8
AM_5
100
AcDbMText
 10
551.0170833627533
 20
-52.94630218135925
 30
0.0
 40
2.449999999999999
 41
0.0
 71
     5
 72
     1
  1
15
 11
0.0000000000000001
 21
1.0
 31
0.0
 73
     1
 44
1.0
1001
ACAD
1000
MTEXTBEGIN
1070
    73
1070
     1
1070
    44
1040
1.0
1070
    74
1070
     0
1000
MTEXTEND
  0
POINT
  5
545D
330
4B84
100
AcDbEntity
  8
Defpoints
 62
     0
100
AcDbPoint
 10
559.5924873710239
 20
-60.44630218135933
 30
0.0
  0
POINT
  5
545E
330
4B84
100
AcDbEntity
  8
Defpoints
 62
     0
100
AcDbPoint
 10
559.5924873710239
 20
-45.44630218135933
 30
0.0
  0
POINT
  5
545F
330
4B84
100
AcDbEntity
  8
Defpoints
 62
     0
100
AcDbPoint
 10
552.9420833627533
 20
-45.44630218135933
 30
0.0
  0
ENDBLK
  5
4B8F
330
4B84
100
AcDbEntity
  8
0
100
AcDbBlockEnd
  0
BLOCK
  5
4BBA
330
4BAE
100
AcDbEntity
  8
0
100
AcDbBlockBegin
  2
*D16
 70
     1
 10
0.0
 20
0.0
 30
0.0
  3
*D16
  1

  0
LINE
  5
5628
330
4BAE
100
AcDbEntity
  8
AM_5
100
AcDbLine
 10
558.8924873710238
 20
-15.01133530035594
 30
0.0
 11
556.708040809048
 21
-15.01133530035594
 31
0.0
  0
LINE
  5
5629
330
4BAE
100
AcDbEntity
  8
AM_5
100
AcDbLine
 10
573.6924873710238
 20
-14.11133530035593
 30
0.0
 11
556.708040809048
 21
-14.11133530035592
 31
0.0
  0
LINE
  5
562A
330
4BAE
100
AcDbEntity
  8
AM_5
100
AcDbLine
 10
557.408040809048
 20
-12.01133530035592
 30
0.0
 11
557.408040809048
 21
-9.911335300355927
 31
0.0
  0
LINE
  5
562B
330
4BAE
100
AcDbEntity
  8
AM_5
100
AcDbLine
 10
557.408040809048
 20
-17.11133530035593
 30
0.0
 11
557.408040809048
 21
-24.21866845776851
 31
0.0
  0
LINE
  5
562C
330
4BAE
100
AcDbEntity
  8
AM_5
100
AcDbLine
 10
557.408040809048
 20
-14.11133530035592
 30
0.0
 11
557.408040809048
 21
-15.01133530035594
 31
0.0
  0
SOLID
  5
562D
330
4BAE
100
AcDbEntity
  8
AM_5
100
AcDbTrace
 10
557.0580408090481
 20
-12.01133530035592
 30
0.0
 11
557.7580408090481
 21
-12.01133530035592
 31
0.0
 12
557.408040809048
 22
-14.11133530035592
 32
0.0
 13
557.408040809048
 23
-14.11133530035592
 33
0.0
  0
SOLID
  5
562E
330
4BAE
100
AcDbEntity
  8
AM_5
100
AcDbTrace
 10
557.0580408090481
 20
-17.11133530035593
 30
0.0
 11
557.7580408090481
 21
-17.11133530035593
 31
0.0
 12
557.408040809048
 22
-15.01133530035594
 32
0.0
 13
557.408040809048
 23
-15.01133530035594
 33
0.0
  0
MTEXT
  5
562F
330
4BAE
100
AcDbEntity
  8
AM_5
100
AcDbMText
 10
555.4830408090481
 20
-21.71500187906214
 30
0.0
 40
2.449999999999999
 41
0.0
 71
     5
 72
     1
  1
0.9
 11
0.0000000000000001
 21
1.0
 31
0.0
 73
     1
 44
1.0
1001
ACAD
1000
MTEXTBEGIN
1070
    73
1070
     1
1070
    44
1040
1.0
1070
    74
1070
     0
1000
MTEXTEND
  0
POINT
  5
5630
330
4BAE
100
AcDbEntity
  8
Defpoints
 62
     0
100
AcDbPoint
 10
559.5924873710239
 20
-15.01133530035594
 30
0.0
  0
POINT
  5
5631
330
4BAE
100
AcDbEntity
  8
Defpoints
 62
     0
100
AcDbPoint
 10
574.3924873710239
 20
-14.11133530035593
 30
0.0
  0
POINT
  5
5632
330
4BAE
100
AcDbEntity
  8
Defpoints
 62
     0
100
AcDbPoint
 10
557.408040809048
 20
-14.11133530035592
 30
0.0
  0
ENDBLK
  5
4BBB
330
4BAE
100
AcDbEntity
  8
0
100
AcDbBlockEnd
  0
BLOCK
  5
4BF1
330
4BE7
100
AcDbEntity
  8
0
100
AcDbBlockBegin
  2
*D17
 70
     1
 10
0.0
 20
0.0
 30
0.0
  3
*D17
  1

  0
LINE
  5
5633
330
4BE7
100
AcDbEntity
  8
AM_5
100
AcDbLine
 10
558.8924873710238
 20
-15.01133530035594
 30
0.0
 11
546.9501197828178
 21
-15.01133530035593
 31
0.0
  0
LINE
  5
5634
330
4BE7
100
AcDbEntity
  8
AM_5
100
AcDbLine
 10
558.8924873710238
 20
-5.011335300355938
 30
0.0
 11
546.9501197828178
 21
-5.011335300355934
 31
0.0
  0
LINE
  5
5635
330
4BE7
100
AcDbEntity
  8
AM_5
100
AcDbLine
 10
547.6501197828179
 20
-12.91133530035593
 30
0.0
 11
547.6501197828179
 21
-7.111335300355934
 31
0.0
  0
SOLID
  5
5636
330
4BE7
100
AcDbEntity
  8
AM_5
100
AcDbTrace
 10
547.3001197828178
 20
-12.91133530035593
 30
0.0
 11
548.0001197828179
 21
-12.91133530035593
 31
0.0
 12
547.6501197828179
 22
-15.01133530035593
 32
0.0
 13
547.6501197828179
 23
-15.01133530035593
 33
0.0
  0
SOLID
  5
5637
330
4BE7
100
AcDbEntity
  8
AM_5
100
AcDbTrace
 10
547.3001197828178
 20
-7.111335300355934
 30
0.0
 11
548.0001197828179
 21
-7.111335300355934
 31
0.0
 12
547.6501197828179
 22
-5.011335300355934
 32
0.0
 13
547.6501197828179
 23
-5.011335300355934
 33
0.0
  0
MTEXT
  5
5638
330
4BE7
100
AcDbEntity
  8
AM_5
100
AcDbMText
 10
545.7251197828179
 20
-10.08360471605186
 30
0.0
 40
2.449999999999999
 41
0.0
 71
     5
 72
     1
  1
10
 11
0.0000000000000001
 21
1.0
 31
0.0
 73
     1
 44
1.0
1001
ACAD
1000
MTEXTBEGIN
1070
    73
1070
     1
1070
    44
1040
1.0
1070
    74
1070
     0
1000
MTEXTEND
  0
POINT
  5
5639
330
4BE7
100
AcDbEntity
  8
Defpoints
 62
     0
100
AcDbPoint
 10
559.5924873710239
 20
-15.01133530035594
 30
0.0
  0
POINT
  5
563A
330
4BE7
100
AcDbEntity
  8
Defpoints
 62
     0
100
AcDbPoint
 10
559.5924873710239
 20
-5.011335300355938
 30
0.0
  0
POINT
  5
563B
330
4BE7
100
AcDbEntity
  8
Defpoints
 62
     0
100
AcDbPoint
 10
547.6501197828179
 20
-5.011335300355934
 30
0.0
  0
ENDBLK
  5
4BF2
330
4BE7
100
AcDbEntity
  8
0
100
AcDbBlockEnd
  0
BLOCK
  5
4C17
330
4C0D
100
AcDbEntity
  8
0
100
AcDbBlockBegin
  2
*D18
 70
     1
 10
0.0
 20
0.0
 30
0.0
  3
*D18
  1

  0
LINE
  5
561F
330
4C0D
100
AcDbEntity
  8
AM_5
100
AcDbLine
 10
566.6924873710238
 20
-5.911335300355943
 30
0.0
 11
551.6789585931539
 21
-5.911335300355939
 31
0.0
  0
LINE
  5
5620
330
4C0D
100
AcDbEntity
  8
AM_5
100
AcDbLine
 10
573.6924873710238
 20
-14.11133530035593
 30
0.0
 11
551.6789585931539
 21
-14.11133530035592
 31
0.0
  0
LINE
  5
5621
330
4C0D
100
AcDbEntity
  8
AM_5
100
AcDbLine
 10
552.3789585931539
 20
-8.011335300355939
 30
0.0
 11
552.3789585931539
 21
-12.01133530035592
 31
0.0
  0
SOLID
  5
5622
330
4C0D
100
AcDbEntity
  8
AM_5
100
AcDbTrace
 10
552.0289585931538
 20
-8.011335300355939
 30
0.0
 11
552.7289585931539
 21
-8.011335300355939
 31
0.0
 12
552.3789585931539
 22
-5.911335300355939
 32
0.0
 13
552.3789585931539
 23
-5.911335300355939
 33
0.0
  0
SOLID
  5
5623
330
4C0D
100
AcDbEntity
  8
AM_5
100
AcDbTrace
 10
552.0289585931538
 20
-12.01133530035592
 30
0.0
 11
552.7289585931539
 21
-12.01133530035592
 31
0.0
 12
552.3789585931539
 22
-14.11133530035592
 32
0.0
 13
552.3789585931539
 23
-14.11133530035592
 33
0.0
  0
MTEXT
  5
5624
330
4C0D
100
AcDbEntity
  8
AM_5
100
AcDbMText
 10
550.4537174514216
 20
-9.858427317433779
 30
0.0
 40
2.449999999999999
 41
0.0
 71
     5
 72
     1
  1
8.2
 11
0.0000000000000001
 21
1.0
 31
0.0
 73
     1
 44
1.0
1001
ACAD
1000
MTEXTBEGIN
1070
    73
1070
     1
1070
    44
1040
1.0
1070
    74
1070
     0
1000
MTEXTEND
  0
POINT
  5
5625
330
4C0D
100
AcDbEntity
  8
Defpoints
 62
     0
100
AcDbPoint
 10
567.3924873710238
 20
-5.911335300355943
 30
0.0
  0
POINT
  5
5626
330
4C0D
100
AcDbEntity
  8
Defpoints
 62
     0
100
AcDbPoint
 10
574.3924873710239
 20
-14.11133530035593
 30
0.0
  0
POINT
  5
5627
330
4C0D
100
AcDbEntity
  8
Defpoints
 62
     0
100
AcDbPoint
 10
552.3789585931539
 20
-14.11133530035592
 30
0.0
  0
ENDBLK
  5
4C18
330
4C0D
100
AcDbEntity
  8
0
100
AcDbBlockEnd
  0
BLOCK
  5
4C64
330
4C58
100
AcDbEntity
  8
0
100
AcDbBlockBegin
  2
*D19
 70
     1
 10
0.0
 20
0.0
 30
0.0
  3
*D19
  1

  0
LINE
  5
544C
330
4C58
100
AcDbEntity
  8
AM_5
100
AcDbLine
 10
574.6064325025712
 20
-46.84630218135942
 30
0.0
 11
573.2612627252778
 21
-46.84630218135942
 31
0.0
  0
LINE
  5
544D
330
4C58
100
AcDbEntity
  8
AM_5
100
AcDbLine
 10
575.2924873710238
 20
-45.44630218135938
 30
0.0
 11
573.2612627252778
 21
-45.44630218135938
 31
0.0
  0
LINE
  5
544E
330
4C58
100
AcDbEntity
  8
AM_5
100
AcDbLine
 10
573.9612627252778
 20
-48.94630218135942
 30
0.0
 11
573.9612627252778
 21
-51.04630218135942
 31
0.0
  0
LINE
  5
544F
330
4C58
100
AcDbEntity
  8
AM_5
100
AcDbLine
 10
573.9612627252778
 20
-43.34630218135938
 30
0.0
 11
573.9612627252778
 21
-36.66130218135938
 31
0.0
  0
LINE
  5
5450
330
4C58
100
AcDbEntity
  8
AM_5
100
AcDbLine
 10
573.9612627252778
 20
-46.84630218135942
 30
0.0
 11
573.9612627252778
 21
-45.44630218135938
 31
0.0
  0
SOLID
  5
5451
330
4C58
100
AcDbEntity
  8
AM_5
100
AcDbTrace
 10
573.6112627252778
 20
-48.94630218135942
 30
0.0
 11
574.3112627252778
 21
-48.94630218135942
 31
0.0
 12
573.9612627252778
 22
-46.84630218135942
 32
0.0
 13
573.9612627252778
 23
-46.84630218135942
 33
0.0
  0
SOLID
  5
5452
330
4C58
100
AcDbEntity
  8
AM_5
100
AcDbTrace
 10
573.6112627252778
 20
-43.34630218135938
 30
0.0
 11
574.3112627252778
 21
-43.34630218135938
 31
0.0
 12
573.9612627252778
 22
-45.44630218135938
 32
0.0
 13
573.9612627252778
 23
-45.44630218135938
 33
0.0
  0
MTEXT
  5
5453
330
4C58
100
AcDbEntity
  8
AM_5
100
AcDbMText
 10
572.0362627252779
 20
-38.9538021813593
 30
0.0
 40
2.449999999999999
 41
0.0
 71
     5
 72
     1
  1
1.4
 11
0.0000000000000001
 21
1.0
 31
0.0
 73
     1
 44
1.0
1001
ACAD
1000
MTEXTBEGIN
1070
    73
1070
     1
1070
    44
1040
1.0
1070
    74
1070
     0
1000
MTEXTEND
  0
POINT
  5
5454
330
4C58
100
AcDbEntity
  8
Defpoints
 62
     0
100
AcDbPoint
 10
575.3064325025713
 20
-46.84630218135942
 30
0.0
  0
POINT
  5
5455
330
4C58
100
AcDbEntity
  8
Defpoints
 62
     0
100
AcDbPoint
 10
575.9924873710239
 20
-45.44630218135938
 30
0.0
  0
POINT
  5
5456
330
4C58
100
AcDbEntity
  8
Defpoints
 62
     0
100
AcDbPoint
 10
573.9612627252778
 20
-45.44630218135938
 30
0.0
  0
ENDBLK
  5
4C65
330
4C58
100
AcDbEntity
  8
0
100
AcDbBlockEnd
  0
BLOCK
  5
4C90
330
4C86
100
AcDbEntity
  8
0
100
AcDbBlockBegin
  2
*D20
 70
     1
 10
0.0
 20
0.0
 30
0.0
  3
*D20
  1

  0
LINE
  5
558E
330
4C86
100
AcDbEntity
  8
AM_5
100
AcDbLine
 10
559.5924873710239
 20
-61.14630218135933
 30
0.0
 11
559.5924873710239
 21
-70.37617766929177
 31
0.0
  0
LINE
  5
558F
330
4C86
100
AcDbEntity
  8
AM_5
100
AcDbLine
 10
610.1424873710239
 20
-61.14630218135939
 30
0.0
 11
610.1424873710239
 21
-70.37617766929177
 31
0.0
  0
LINE
  5
5590
330
4C86
100
AcDbEntity
  8
AM_5
100
AcDbLine
 10
561.6924873710239
 20
-69.67617766929177
 30
0.0
 11
608.0424873710239
 21
-69.67617766929177
 31
0.0
  0
SOLID
  5
5591
330
4C86
100
AcDbEntity
  8
AM_5
100
AcDbTrace
 10
561.6924873710239
 20
-69.32617766929178
 30
0.0
 11
561.6924873710239
 21
-70.02617766929176
 31
0.0
 12
559.5924873710239
 22
-69.67617766929177
 32
0.0
 13
559.5924873710239
 23
-69.67617766929177
 33
0.0
  0
SOLID
  5
5592
330
4C86
100
AcDbEntity
  8
AM_5
100
AcDbTrace
 10
608.0424873710239
 20
-69.32617766929178
 30
0.0
 11
608.0424873710239
 21
-70.02617766929176
 31
0.0
 12
610.1424873710239
 22
-69.67617766929177
 32
0.0
 13
610.1424873710239
 23
-69.67617766929177
 33
0.0
  0
MTEXT
  5
5593
330
4C86
100
AcDbEntity
  8
AM_5
100
AcDbMText
 10
584.8674873710239
 20
-67.75117766929177
 30
0.0
 40
2.449999999999999
 41
0.0
 71
     5
 72
     1
  1
50.55
 73
     1
 44
1.0
1001
ACAD
1000
MTEXTBEGIN
1070
    73
1070
     1
1070
    44
1040
1.0
1070
    74
1070
     0
1000
MTEXTEND
  0
POINT
  5
5594
330
4C86
100
AcDbEntity
  8
Defpoints
 62
     0
100
AcDbPoint
 10
559.5924873710239
 20
-60.44630218135933
 30
0.0
  0
POINT
  5
5595
330
4C86
100
AcDbEntity
  8
Defpoints
 62
     0
100
AcDbPoint
 10
610.1424873710239
 20
-60.44630218135939
 30
0.0
  0
POINT
  5
5596
330
4C86
100
AcDbEntity
  8
Defpoints
 62
     0
100
AcDbPoint
 10
610.1424873710239
 20
-69.67617766929177
 30
0.0
  0
ENDBLK
  5
4C91
330
4C86
100
AcDbEntity
  8
0
100
AcDbBlockEnd
  0
BLOCK
  5
4CBA
330
4CB0
100
AcDbEntity
  8
0
100
AcDbBlockBegin
  2
*D21
 70
     1
 10
0.0
 20
0.0
 30
0.0
  3
*D21
  1

  0
LINE
  5
5585
330
4CB0
100
AcDbEntity
  8
AM_5
100
AcDbLine
 10
559.5924873710239
 20
-61.14630218135933
 30
0.0
 11
559.5924873710239
 21
-77.37617766929175
 31
0.0
  0
LINE
  5
5586
330
4CB0
100
AcDbEntity
  8
AM_5
100
AcDbLine
 10
619.6424873710238
 20
-42.74630218135941
 30
0.0
 11
619.6424873710238
 21
-77.37617766929175
 31
0.0
  0
LINE
  5
5587
330
4CB0
100
AcDbEntity
  8
AM_5
100
AcDbLine
 10
561.6924873710239
 20
-76.67617766929175
 30
0.0
 11
617.5424873710238
 21
-76.67617766929175
 31
0.0
  0
SOLID
  5
5588
330
4CB0
100
AcDbEntity
  8
AM_5
100
AcDbTrace
 10
561.6924873710239
 20
-76.32617766929175
 30
0.0
 11
561.6924873710239
 21
-77.02617766929174
 31
0.0
 12
559.5924873710239
 22
-76.67617766929175
 32
0.0
 13
559.5924873710239
 23
-76.67617766929175
 33
0.0
  0
SOLID
  5
5589
330
4CB0
100
AcDbEntity
  8
AM_5
100
AcDbTrace
 10
617.5424873710238
 20
-76.32617766929175
 30
0.0
 11
617.5424873710238
 21
-77.02617766929174
 31
0.0
 12
619.6424873710238
 22
-76.67617766929175
 32
0.0
 13
619.6424873710238
 23
-76.67617766929175
 33
0.0
  0
MTEXT
  5
558A
330
4CB0
100
AcDbEntity
  8
AM_5
100
AcDbMText
 10
589.6174873710239
 20
-74.75117766929175
 30
0.0
 40
2.449999999999999
 41
0.0
 71
     5
 72
     1
  1
60.05
 73
     1
 44
1.0
1001
ACAD
1000
MTEXTBEGIN
1070
    73
1070
     1
1070
    44
1040
1.0
1070
    74
1070
     0
1000
MTEXTEND
  0
POINT
  5
558B
330
4CB0
100
AcDbEntity
  8
Defpoints
 62
     0
100
AcDbPoint
 10
559.5924873710239
 20
-60.44630218135933
 30
0.0
  0
POINT
  5
558C
330
4CB0
100
AcDbEntity
  8
Defpoints
 62
     0
100
AcDbPoint
 10
619.6424873710238
 20
-42.04630218135941
 30
0.0
  0
POINT
  5
558D
330
4CB0
100
AcDbEntity
  8
Defpoints
 62
     0
100
AcDbPoint
 10
619.6424873710238
 20
-76.67617766929175
 30
0.0
  0
ENDBLK
  5
4CBB
330
4CB0
100
AcDbEntity
  8
0
100
AcDbBlockEnd
  0
BLOCK
  5
4D7E
330
4D7B
100
AcDbEntity
  8
0
100
AcDbBlockBegin
  2
GENDOT
 70
     0
 10
0.0
 20
0.0
 30
0.0
  3
GENDOT
  1

  0
LINE
  5
4D7C
330
4D7B
100
AcDbEntity
  8
0
100
AcDbLine
 10
0.0
 20
0.0
 30
0.0
 11
-1.0
 21
0.0
 31
0.0
  0
LWPOLYLINE
  5
4D7D
330
4D7B
100
AcDbEntity
  8
0
100
AcDbPolyline
 90
        2
 70
     1
 43
0.25
 10
-0.125
 20
0.0
 42
1.0
 10
0.125
 20
0.0
 42
1.0
  0
ENDBLK
  5
4D7F
330
4D7B
100
AcDbEntity
  8
0
100
AcDbBlockEnd
  0
BLOCK
  5
4EC4
330
4EBA
100
AcDbEntity
  8
0
100
AcDbBlockBegin
  2
*D23
 70
     1
 10
0.0
 20
0.0
 30
0.0
  3
*D23
  1

  0
LINE
  5
5658
330
4EBA
100
AcDbEntity
  8
AM_5
100
AcDbLine
 10
559.5924873710239
 20
-102.4299673283809
 30
0.0
 11
559.5924873710239
 21
-92.48196271310609
 31
0.0
  0
LINE
  5
5659
330
4EBA
100
AcDbEntity
  8
AM_5
100
AcDbLine
 10
575.8424873710239
 20
-106.1299673283809
 30
0.0
 11
575.8424873710239
 21
-92.48196271310609
 31
0.0
  0
LINE
  5
565A
330
4EBA
100
AcDbEntity
  8
AM_5
100
AcDbLine
 10
561.6924873710239
 20
-93.18196271310609
 30
0.0
 11
573.7424873710239
 21
-93.18196271310609
 31
0.0
  0
SOLID
  5
565B
330
4EBA
100
AcDbEntity
  8
AM_5
100
AcDbTrace
 10
561.6924873710239
 20
-92.83196271310609
 30
0.0
 11
561.6924873710239
 21
-93.53196271310608
 31
0.0
 12
559.5924873710239
 22
-93.18196271310609
 32
0.0
 13
559.5924873710239
 23
-93.18196271310609
 33
0.0
  0
SOLID
  5
565C
330
4EBA
100
AcDbEntity
  8
AM_5
100
AcDbTrace
 10
573.7424873710239
 20
-92.83196271310609
 30
0.0
 11
573.7424873710239
 21
-93.53196271310608
 31
0.0
 12
575.8424873710239
 22
-93.18196271310609
 32
0.0
 13
575.8424873710239
 23
-93.18196271310609
 33
0.0
  0
MTEXT
  5
565D
330
4EBA
100
AcDbEntity
  8
AM_5
100
AcDbMText
 10
567.7663188092837
 20
-91.2567215713738
 30
0.0
 40
2.449999999999999
 41
0.0
 71
     5
 72
     1
  1
16.25
 73
     1
 44
1.0
1001
ACAD
1000
MTEXTBEGIN
1070
    73
1070
     1
1070
    44
1040
1.0
1070
    74
1070
     0
1000
MTEXTEND
  0
POINT
  5
565E
330
4EBA
100
AcDbEntity
  8
Defpoints
 62
     0
100
AcDbPoint
 10
559.5924873710239
 20
-103.1299673283809
 30
0.0
  0
POINT
  5
565F
330
4EBA
100
AcDbEntity
  8
Defpoints
 62
     0
100
AcDbPoint
 10
575.8424873710239
 20
-106.8299673283809
 30
0.0
  0
POINT
  5
5660
330
4EBA
100
AcDbEntity
  8
Defpoints
 62
     0
100
AcDbPoint
 10
575.8424873710239
 20
-93.18196271310609
 30
0.0
  0
ENDBLK
  5
4EC5
330
4EBA
100
AcDbEntity
  8
0
100
AcDbBlockEnd
  0
BLOCK
  5
4F3B
330
4F2F
100
AcDbEntity
  8
0
100
AcDbBlockBegin
  2
*D24
 70
     1
 10
0.0
 20
0.0
 30
0.0
  3
*D24
  1

  0
LINE
  5
5525
330
4F2F
100
AcDbEntity
  8
AM_5
100
AcDbLine
 10
575.8424873710239
 20
-106.1299673283809
 30
0.0
 11
575.8424873710239
 21
-97.41745438148921
 31
0.0
  0
LINE
  5
5526
330
4F2F
100
AcDbEntity
  8
AM_5
100
AcDbLine
 10
582.8424873710239
 20
-106.1299673283809
 30
0.0
 11
582.8424873710239
 21
-97.41745438148921
 31
0.0
  0
LINE
  5
5527
330
4F2F
100
AcDbEntity
  8
AM_5
100
AcDbLine
 10
577.9424873710239
 20
-98.11745438148921
 30
0.0
 11
580.7424873710239
 21
-98.11745438148921
 31
0.0
  0
SOLID
  5
5528
330
4F2F
100
AcDbEntity
  8
AM_5
100
AcDbTrace
 10
577.9424873710239
 20
-97.76745438148921
 30
0.0
 11
577.9424873710239
 21
-98.46745438148921
 31
0.0
 12
575.8424873710239
 22
-98.11745438148921
 32
0.0
 13
575.8424873710239
 23
-98.11745438148921
 33
0.0
  0
SOLID
  5
5529
330
4F2F
100
AcDbEntity
  8
AM_5
100
AcDbTrace
 10
580.7424873710239
 20
-97.76745438148921
 30
0.0
 11
580.7424873710239
 21
-98.46745438148921
 31
0.0
 12
582.8424873710239
 22
-98.11745438148921
 32
0.0
 13
582.8424873710239
 23
-98.11745438148921
 33
0.0
  0
MTEXT
  5
552A
330
4F2F
100
AcDbEntity
  8
AM_5
100
AcDbMText
 10
579.3424873710239
 20
-96.19245438148922
 30
0.0
 40
2.449999999999999
 41
0.0
 71
     5
 72
     1
  1
7
 73
     1
 44
1.0
1001
ACAD
1000
MTEXTBEGIN
1070
    73
1070
     1
1070
    44
1040
1.0
1070
    74
1070
     0
1000
MTEXTEND
  0
POINT
  5
552B
330
4F2F
100
AcDbEntity
  8
Defpoints
 62
     0
100
AcDbPoint
 10
575.8424873710239
 20
-106.8299673283809
 30
0.0
  0
POINT
  5
552C
330
4F2F
100
AcDbEntity
  8
Defpoints
 62
     0
100
AcDbPoint
 10
582.8424873710239
 20
-106.8299673283809
 30
0.0
  0
POINT
  5
552D
330
4F2F
100
AcDbEntity
  8
Defpoints
 62
     0
100
AcDbPoint
 10
582.8424873710239
 20
-98.11745438148921
 30
0.0
  0
ENDBLK
  5
4F3C
330
4F2F
100
AcDbEntity
  8
0
100
AcDbBlockEnd
  0
BLOCK
  5
4F57
330
4F4B
100
AcDbEntity
  8
0
100
AcDbBlockBegin
  2
*D25
 70
     1
 10
0.0
 20
0.0
 30
0.0
  3
*D25
  1

  0
LINE
  5
551C
330
4F4B
100
AcDbEntity
  8
AM_5
100
AcDbLine
 10
575.8424873710239
 20
-106.1299673283809
 30
0.0
 11
575.8424873710239
 21
-97.41745438148921
 31
0.0
  0
LINE
  5
551D
330
4F4B
100
AcDbEntity
  8
AM_5
100
AcDbLine
 10
568.8424873710239
 20
-106.1299673283809
 30
0.0
 11
568.8424873710239
 21
-97.41745438148921
 31
0.0
  0
LINE
  5
551E
330
4F4B
100
AcDbEntity
  8
AM_5
100
AcDbLine
 10
573.7424873710239
 20
-98.11745438148921
 30
0.0
 11
570.9424873710239
 21
-98.11745438148921
 31
0.0
  0
SOLID
  5
551F
330
4F4B
100
AcDbEntity
  8
AM_5
100
AcDbTrace
 10
573.7424873710239
 20
-97.76745438148921
 30
0.0
 11
573.7424873710239
 21
-98.46745438148921
 31
0.0
 12
575.8424873710239
 22
-98.11745438148921
 32
0.0
 13
575.8424873710239
 23
-98.11745438148921
 33
0.0
  0
SOLID
  5
5520
330
4F4B
100
AcDbEntity
  8
AM_5
100
AcDbTrace
 10
570.9424873710239
 20
-97.76745438148921
 30
0.0
 11
570.9424873710239
 21
-98.46745438148921
 31
0.0
 12
568.8424873710239
 22
-98.11745438148921
 32
0.0
 13
568.8424873710239
 23
-98.11745438148921
 33
0.0
  0
MTEXT
  5
5521
330
4F4B
100
AcDbEntity
  8
AM_5
100
AcDbMText
 10
572.3424873710239
 20
-96.19245438148922
 30
0.0
 40
2.449999999999999
 41
0.0
 71
     5
 72
     1
  1
7
 73
     1
 44
1.0
1001
ACAD
1000
MTEXTBEGIN
1070
    73
1070
     1
1070
    44
1040
1.0
1070
    74
1070
     0
1000
MTEXTEND
  0
POINT
  5
5522
330
4F4B
100
AcDbEntity
  8
Defpoints
 62
     0
100
AcDbPoint
 10
575.8424873710239
 20
-106.8299673283809
 30
0.0
  0
POINT
  5
5523
330
4F4B
100
AcDbEntity
  8
Defpoints
 62
     0
100
AcDbPoint
 10
568.8424873710239
 20
-106.8299673283809
 30
0.0
  0
POINT
  5
5524
330
4F4B
100
AcDbEntity
  8
Defpoints
 62
     0
100
AcDbPoint
 10
568.8424873710239
 20
-98.11745438148921
 30
0.0
  0
ENDBLK
  5
4F58
330
4F4B
100
AcDbEntity
  8
0
100
AcDbBlockEnd
  0
BLOCK
  5
4FBF
330
4FB3
100
AcDbEntity
  8
0
100
AcDbBlockBegin
  2
*D26
 70
     1
 10
0.0
 20
0.0
 30
0.0
  3
*D26
  1

  0
LINE
  5
5614
330
4FB3
100
AcDbEntity
  8
AM_5
100
AcDbLine
 10
575.8424873710239
 20
-110.1299673283809
 30
0.0
 11
575.8424873710239
 21
-120.4926244232061
 31
0.0
  0
LINE
  5
5615
330
4FB3
100
AcDbEntity
  8
AM_5
100
AcDbLine
 10
572.3424873710239
 20
-112.1299673283809
 30
0.0
 11
572.3424873710239
 21
-120.4926244232061
 31
0.0
  0
LINE
  5
5616
330
4FB3
100
AcDbEntity
  8
AM_5
100
AcDbLine
 10
577.9424873710239
 20
-119.7926244232061
 30
0.0
 11
580.0424873710239
 21
-119.7926244232061
 31
0.0
  0
LINE
  5
5617
330
4FB3
100
AcDbEntity
  8
AM_5
100
AcDbLine
 10
570.2424873710238
 20
-119.7926244232061
 30
0.0
 11
563.2110050482425
 21
-119.7926244232061
 31
0.0
  0
LINE
  5
5618
330
4FB3
100
AcDbEntity
  8
AM_5
100
AcDbLine
 10
575.8424873710239
 20
-119.7926244232061
 30
0.0
 11
572.3424873710239
 21
-119.7926244232061
 31
0.0
  0
INSERT
  5
5619
330
4FB3
100
AcDbEntity
  8
AM_5
100
AcDbBlockReference
  2
GENDOT
 10
575.8424873710239
 20
-119.7926244232061
 30
0.0
 41
2.099999999999999
 42
2.099999999999999
 43
2.099999999999999
 50
180.0
  0
SOLID
  5
561A
330
4FB3
100
AcDbEntity
  8
AM_5
100
AcDbTrace
 10
570.2424873710238
 20
-119.4426244232061
 30
0.0
 11
570.2424873710238
 21
-120.1426244232061
 31
0.0
 12
572.3424873710239
 22
-119.7926244232061
 32
0.0
 13
572.3424873710239
 23
-119.7926244232061
 33
0.0
  0
MTEXT
  5
561B
330
4FB3
100
AcDbEntity
  8
AM_5
100
AcDbMText
 10
565.6767462096333
 20
-117.8676244232061
 30
0.0
 40
2.449999999999999
 41
0.0
 71
     5
 72
     1
  1
3.5
 73
     1
 44
1.0
1001
ACAD
1000
MTEXTBEGIN
1070
    73
1070
     1
1070
    44
1040
1.0
1070
    74
1070
     0
1000
MTEXTEND
  0
POINT
  5
561C
330
4FB3
100
AcDbEntity
  8
Defpoints
 62
     0
100
AcDbPoint
 10
575.8424873710239
 20
-109.4299673283809
 30
0.0
  0
POINT
  5
561D
330
4FB3
100
AcDbEntity
  8
Defpoints
 62
     0
100
AcDbPoint
 10
572.3424873710239
 20
-111.4299673283809
 30
0.0
  0
POINT
  5
561E
330
4FB3
100
AcDbEntity
  8
Defpoints
 62
     0
100
AcDbPoint
 10
572.3424873710239
 20
-119.7926244232061
 30
0.0
  0
ENDBLK
  5
4FC0
330
4FB3
100
AcDbEntity
  8
0
100
AcDbBlockEnd
  0
BLOCK
  5
4FFE
330
4FF2
100
AcDbEntity
  8
0
100
AcDbBlockBegin
  2
*D27
 70
     1
 10
0.0
 20
0.0
 30
0.0
  3
*D27
  1

  0
LINE
  5
55FD
330
4FF2
100
AcDbEntity
  8
AM_5
100
AcDbLine
 10
575.8424873710239
 20
-110.1299673283809
 30
0.0
 11
575.8424873710239
 21
-120.4926244232061
 31
0.0
  0
LINE
  5
55FE
330
4FF2
100
AcDbEntity
  8
AM_5
100
AcDbLine
 10
579.3424873710239
 20
-108.1299673283809
 30
0.0
 11
579.3424873710239
 21
-120.4926244232061
 31
0.0
  0
LINE
  5
55FF
330
4FF2
100
AcDbEntity
  8
AM_5
100
AcDbLine
 10
573.7424873710239
 20
-119.7926244232061
 30
0.0
 11
571.6424873710239
 21
-119.7926244232061
 31
0.0
  0
LINE
  5
5600
330
4FF2
100
AcDbEntity
  8
AM_5
100
AcDbLine
 10
581.4424873710239
 20
-119.7926244232061
 30
0.0
 11
588.4739696938053
 21
-119.7926244232061
 31
0.0
  0
LINE
  5
5601
330
4FF2
100
AcDbEntity
  8
AM_5
100
AcDbLine
 10
575.8424873710239
 20
-119.7926244232061
 30
0.0
 11
579.3424873710239
 21
-119.7926244232061
 31
0.0
  0
INSERT
  5
5602
330
4FF2
100
AcDbEntity
  8
AM_5
100
AcDbBlockReference
  2
GENDOT
 10
575.8424873710239
 20
-119.7926244232061
 30
0.0
 41
2.099999999999999
 42
2.099999999999999
 43
2.099999999999999
  0
SOLID
  5
5603
330
4FF2
100
AcDbEntity
  8
AM_5
100
AcDbTrace
 10
581.4424873710239
 20
-119.4426244232061
 30
0.0
 11
581.4424873710239
 21
-120.1426244232061
 31
0.0
 12
579.3424873710239
 22
-119.7926244232061
 32
0.0
 13
579.3424873710239
 23
-119.7926244232061
 33
0.0
  0
MTEXT
  5
5604
330
4FF2
100
AcDbEntity
  8
AM_5
100
AcDbMText
 10
586.0082285324145
 20
-117.8676244232061
 30
0.0
 40
2.449999999999999
 41
0.0
 71
     5
 72
     1
  1
3.5
 73
     1
 44
1.0
1001
ACAD
1000
MTEXTBEGIN
1070
    73
1070
     1
1070
    44
1040
1.0
1070
    74
1070
     0
1000
MTEXTEND
  0
POINT
  5
5605
330
4FF2
100
AcDbEntity
  8
Defpoints
 62
     0
100
AcDbPoint
 10
575.8424873710239
 20
-109.4299673283809
 30
0.0
  0
POINT
  5
5606
330
4FF2
100
AcDbEntity
  8
Defpoints
 62
     0
100
AcDbPoint
 10
579.3424873710239
 20
-107.4299673283809
 30
0.0
  0
POINT
  5
5607
330
4FF2
100
AcDbEntity
  8
Defpoints
 62
     0
100
AcDbPoint
 10
579.3424873710239
 20
-119.7926244232061
 30
0.0
  0
ENDBLK
  5
4FFF
330
4FF2
100
AcDbEntity
  8
0
100
AcDbBlockEnd
  0
BLOCK
  5
516E
330
5164
100
AcDbEntity
  8
0
100
AcDbBlockBegin
  2
*D28
 70
     1
 10
0.0
 20
0.0
 30
0.0
  3
*D28
  1

  0
LINE
  5
5424
330
5164
100
AcDbEntity
  8
AM_5
100
AcDbLine
 10
569.3924873710239
 20
-113.6299673283809
 30
0.0
 11
552.8147729042916
 21
-113.6299673283809
 31
0.0
  0
LINE
  5
5425
330
5164
100
AcDbEntity
  8
AM_5
100
AcDbLine
 10
576.3924873710238
 20
-102.6299673283809
 30
0.0
 11
552.8147729042916
 21
-102.6299673283809
 31
0.0
  0
LINE
  5
5426
330
5164
100
AcDbEntity
  8
AM_5
100
AcDbLine
 10
553.5147729042916
 20
-111.5299673283809
 30
0.0
 11
553.5147729042916
 21
-104.7299673283809
 31
0.0
  0
SOLID
  5
5427
330
5164
100
AcDbEntity
  8
AM_5
100
AcDbTrace
 10
553.1647729042917
 20
-111.5299673283809
 30
0.0
 11
553.8647729042917
 21
-111.5299673283809
 31
0.0
 12
553.5147729042916
 22
-113.6299673283809
 32
0.0
 13
553.5147729042916
 23
-113.6299673283809
 33
0.0
  0
SOLID
  5
5428
330
5164
100
AcDbEntity
  8
AM_5
100
AcDbTrace
 10
553.1647729042917
 20
-104.7299673283809
 30
0.0
 11
553.8647729042917
 21
-104.7299673283809
 31
0.0
 12
553.5147729042916
 22
-102.6299673283809
 32
0.0
 13
553.5147729042916
 23
-102.6299673283809
 33
0.0
  0
MTEXT
  5
5429
330
5164
100
AcDbEntity
  8
AM_5
100
AcDbMText
 10
551.5897729042917
 20
-108.1299673283808
 30
0.0
 40
2.449999999999999
 41
0.0
 71
     5
 72
     1
  1
11
 11
0.0000000000000001
 21
1.0
 31
0.0
 73
     1
 44
1.0
1001
ACAD
1000
MTEXTBEGIN
1070
    73
1070
     1
1070
    44
1040
1.0
1070
    74
1070
     0
1000
MTEXTEND
  0
POINT
  5
542A
330
5164
100
AcDbEntity
  8
Defpoints
 62
     0
100
AcDbPoint
 10
570.0924873710239
 20
-113.6299673283809
 30
0.0
  0
POINT
  5
542B
330
5164
100
AcDbEntity
  8
Defpoints
 62
     0
100
AcDbPoint
 10
577.0924873710239
 20
-102.6299673283809
 30
0.0
  0
POINT
  5
542C
330
5164
100
AcDbEntity
  8
Defpoints
 62
     0
100
AcDbPoint
 10
553.5147729042916
 20
-102.6299673283809
 30
0.0
  0
ENDBLK
  5
516F
330
5164
100
AcDbEntity
  8
0
100
AcDbBlockEnd
  0
BLOCK
  5
5195
330
518C
100
AcDbEntity
  8
0
100
AcDbBlockBegin
  2
*D29
 70
     1
 10
0.0
 20
0.0
 30
0.0
  3
*D29
  1

  0
LINE
  5
54AD
330
518C
100
AcDbEntity
  8
AM_5
100
AcDbLine
 10
581.5989262588933
 20
-104.0042948358951
 30
0.0
 11
587.2502067747181
 21
-98.68052045654415
 31
0.0
  0
LINE
  5
54AE
330
518C
100
AcDbEntity
  8
AM_5
100
AcDbLine
 10
587.2502067747181
 20
-98.68052045654415
 30
0.0
 11
594.7123514597575
 21
-98.68052045654412
 31
0.0
  0
SOLID
  5
54AF
330
518C
100
AcDbEntity
  8
AM_5
100
AcDbTrace
 10
581.3589309774836
 20
-103.7495356066195
 30
0.0
 11
581.8389215403031
 21
-104.2590540651706
 31
0.0
 12
580.0703708832399
 22
-105.4442665243532
 32
0.0
 13
580.0703708832399
 23
-105.4442665243532
 33
0.0
  0
MTEXT
  5
54B0
330
518C
100
AcDbEntity
  8
AM_5
100
AcDbMText
 10
591.3312791172382
 20
-96.75527931481212
 30
0.0
 40
2.449999999999999
 41
0.0
 71
     5
 72
     1
  1
5-\U+22052
 73
     1
 44
1.0
1001
ACAD
1000
MTEXTBEGIN
1070
    73
1070
     1
1070
    44
1040
1.0
1070
    74
1070
     0
1000
MTEXTEND
  0
POINT
  5
54B1
330
518C
100
AcDbEntity
  8
Defpoints
 62
     0
100
AcDbPoint
 10
580.0703708832399
 20
-105.4442665243532
 30
0.0
  0
POINT
  5
54B2
330
518C
100
AcDbEntity
  8
Defpoints
 62
     0
100
AcDbPoint
 10
578.6146038588079
 20
-106.8156681324087
 30
0.0
  0
ENDBLK
  5
5196
330
518C
100
AcDbEntity
  8
0
100
AcDbBlockEnd
  0
ENDSEC
  0
SECTION
  2
ENTITIES
  0
POINT
  5
25
330
2
100
AcDbEntity
  8
0
 60
     1
100
AcDbPoint
 10
0.0
 20
0.0
 30
0.0
  0
POINT
  5
26
330
2
100
AcDbEntity
  8
0
 60
     1
100
AcDbPoint
 10
0.0
 20
0.0
 30
0.0
  0
POINT
  5
27
330
2
100
AcDbEntity
  8
0
 60
     1
100
AcDbPoint
 10
0.0
 20
0.0
 30
0.0
  0
POINT
  5
28
330
2
100
AcDbEntity
  8
0
 60
     1
100
AcDbPoint
 10
0.0
 20
0.0
 30
0.0
  0
POINT
  5
29
330
2
100
AcDbEntity
  8
0
 60
     1
100
AcDbPoint
 10
0.0
 20
0.0
 30
0.0
  0
POINT
  5
2A
330
2
100
AcDbEntity
  8
0
 60
     1
100
AcDbPoint
 10
0.0
 20
0.0
 30
0.0
  0
POINT
  5
2B
330
2
100
AcDbEntity
  8
0
 60
     1
100
AcDbPoint
 10
0.0
 20
0.0
 30
0.0
  0
POINT
  5
2C
330
2
100
AcDbEntity
  8
0
 60
     1
100
AcDbPoint
 10
0.0
 20
0.0
 30
0.0
  0
POINT
  5
2D
330
2
100
AcDbEntity
  8
0
 60
     1
100
AcDbPoint
 10
0.0
 20
0.0
 30
0.0
  0
POINT
  5
2E
330
2
100
AcDbEntity
  8
0
 60
     1
100
AcDbPoint
 10
0.0
 20
0.0
 30
0.0
  0
POINT
  5
2F
330
2
100
AcDbEntity
  8
0
 60
     1
100
AcDbPoint
 10
0.0
 20
0.0
 30
0.0
  0
POINT
  5
30
330
2
100
AcDbEntity
  8
0
 60
     1
100
AcDbPoint
 10
0.0
 20
0.0
 30
0.0
  0
DIMENSION
  5
31
330
2
100
AcDbEntity
  8
AM_PARDIM
 60
     1
100
AcDbDimension
  2
*D1
 10
114.5325708695175
 20
128.6938113892625
 30
0.0
 11
111.7822263813285
 21
122.4438113892625
 31
0.0
 70
    32
  1
<>
 71
     5
 42
12.50000000000001
  3
AM_ISO$0
100
AcDbAlignedDimension
 13
75.37464887656421
 23
116.1938113892625
 33
0.0
 14
75.37464887656421
 24
128.6938113892625
 34
0.0
 50
90.0
100
AcDbRotatedDimension
1001
ACAD_DIMASSOC_CALC_DIMLFAC
1040
-1.0
1001
AD_SKETCHDIM
1005
0
1000
d0
1001
ACAD_DIMASSOC_DIMLFAC
1040
-1.0
1001
ACAD
1000
DSTYLE
1002
{
1070
   144
1040
-1.0
1002
}
  0
DIMENSION
  5
43
330
2
100
AcDbEntity
  8
AM_PARDIM
 60
     1
100
AcDbDimension
  2
*D2
 10
26.87464887656421
 20
122.1938113892625
 30
0.0
 11
24.12464887656419
 21
119.1938113892625
 31
0.0
 70
    32
  1
<>
 71
     5
 42
6.0
  3
AM_ISO$0
100
AcDbAlignedDimension
 13
38.87464887656421
 23
116.1938113892625
 33
0.0
 14
38.87464887656421
 24
122.1938113892625
 34
0.0
 50
90.0
100
AcDbRotatedDimension
1001
ACAD_DIMASSOC_CALC_DIMLFAC
1040
-1.0
1001
AD_SKETCHDIM
1005
0
1000
d1
1001
ACAD_DIMASSOC_DIMLFAC
1040
-1.0
1001
ACAD
1000
DSTYLE
1002
{
1070
   144
1040
-1.0
1002
}
  0
DIMENSION
  5
52
330
2
100
AcDbEntity
  8
AM_PARDIM
 60
     1
100
AcDbDimension
  2
*D3
 10
50.87464887656421
 20
140.6938113892625
 30
0.0
 11
44.87464887656421
 21
143.4441558774515
 31
0.0
 70
    32
  1
<>
 71
     5
 42
12.0
  3
AM_ISO$0
100
AcDbAlignedDimension
 13
38.87464887656421
 23
122.1938113892625
 33
0.0
 14
50.87464887656421
 24
122.1938113892625
 34
0.0
100
AcDbRotatedDimension
1001
ACAD_DIMASSOC_CALC_DIMLFAC
1040
-1.0
1001
AD_SKETCHDIM
1005
0
1000
d2
1001
ACAD_DIMASSOC_DIMLFAC
1040
-1.0
1001
ACAD
1000
DSTYLE
1002
{
1070
   144
1040
-1.0
1002
}
  0
DIMENSION
  5
5F
330
2
100
AcDbEntity
  8
AM_PARDIM
 60
     1
100
AcDbDimension
  2
*D4
 10
75.37464887656421
 20
160.6938113892625
 30
0.0
 11
57.12464887656421
 21
163.4438113892625
 31
0.0
 70
    32
  1
<>
 71
     5
 42
36.5
  3
AM_ISO$0
100
AcDbAlignedDimension
 13
38.87464887656421
 23
116.1938113892625
 33
0.0
 14
75.37464887656421
 24
116.1938113892625
 34
0.0
100
AcDbRotatedDimension
1001
ACAD_DIMASSOC_CALC_DIMLFAC
1040
-1.0
1001
AD_SKETCHDIM
1005
0
1000
d3
1001
ACAD_DIMASSOC_DIMLFAC
1040
-1.0
1001
ACAD
1000
DSTYLE
1002
{
1070
   144
1040
-1.0
1002
}
  0
DIMENSION
  5
6C
330
2
100
AcDbEntity
  8
AM_PARDIM
 60
     1
100
AcDbDimension
  2
*D5
 10
104.5325708695175
 20
116.1938113892625
 30
0.0
 11
101.7825708695175
 21
121.6938113892625
 31
0.0
 70
    32
  1
<>
 71
     5
 42
11.0
  3
AM_ISO$0
100
AcDbAlignedDimension
 13
50.87464887656421
 23
127.1938113892625
 33
0.0
 14
75.37464887656421
 24
116.1938113892625
 34
0.0
 50
90.0
100
AcDbRotatedDimension
1001
ACAD_DIMASSOC_CALC_DIMLFAC
1040
-1.0
1001
AD_SKETCHDIM
1005
0
1000
d4
1001
ACAD_DIMASSOC_DIMLFAC
1040
-1.0
1001
ACAD
1000
DSTYLE
1002
{
1070
   144
1040
-1.0
1002
}
  0
DIMENSION
  5
79
330
2
100
AcDbEntity
  8
AM_PARDIM
 60
     1
100
AcDbDimension
  2
*D6
 10
75.37464887656421
 20
150.6938113892625
 30
0.0
 11
70.87464887656421
 21
153.4438113892625
 31
0.0
 70
    32
  1
<>
 71
     5
 42
9.0
  3
AM_ISO$0
100
AcDbAlignedDimension
 13
66.3746488765642
 23
128.6938113892625
 33
0.0
 14
75.37464887656421
 24
128.6938113892625
 34
0.0
100
AcDbRotatedDimension
1001
ACAD_DIMASSOC_CALC_DIMLFAC
1040
-1.0
1001
AD_SKETCHDIM
1005
0
1000
d5
1001
ACAD_DIMASSOC_DIMLFAC
1040
-1.0
1001
ACAD
1000
DSTYLE
1002
{
1070
   144
1040
-1.0
1002
}
  0
DIMENSION
  5
86
330
2
100
AcDbEntity
  8
AM_PARDIM
 60
     1
100
AcDbDimension
  2
*D7
 10
66.37464887656418
 20
140.6938113892625
 30
0.0
 11
75.94157522635743
 21
143.4441558774515
 31
0.0
 70
    32
  1
<>
 71
     5
 42
2.5
  3
AM_ISO$0
100
AcDbAlignedDimension
 13
63.87464887656418
 23
128.6938113892624
 33
0.0
 14
66.37464887656418
 24
128.6938113892624
 34
0.0
100
AcDbRotatedDimension
1001
ACAD_DIMASSOC_CALC_DIMLFAC
1040
-1.0
1001
AD_SKETCHDIM
1005
0
1000
d25
1001
ACAD_DIMASSOC_DIMLFAC
1040
-1.0
1001
ACAD
1000
DSTYLE
1002
{
1070
   144
1040
-1.0
1002
}
  0
DIMENSION
  5
95
330
2
100
AcDbEntity
  8
AM_PARDIM
 60
     1
100
AcDbDimension
  2
*D8
 10
66.37464887656418
 20
136.030378563861
 30
0.0
 11
74.07740478207599
 21
138.780378563861
 31
0.0
 70
    32
  1
<>
 71
     5
 42
0.0
  3
AM_ISO$0
100
AcDbAlignedDimension
 13
66.37464887656418
 23
128.6938113892624
 33
0.0
 14
66.37464887656418
 24
116.1938113892624
 34
0.0
100
AcDbRotatedDimension
1001
ACAD_DIMASSOC_CALC_DIMLFAC
1040
-1.0
1001
AD_SKETCHDIM
1005
0
1000
d26
1001
ACAD_DIMASSOC_DIMLFAC
1040
-1.0
1001
ACAD
1000
DSTYLE
1002
{
1070
   144
1040
-1.0
1002
}
  0
DIMENSION
  5
A3
330
2
100
AcDbEntity
  8
AM_PARDIM
 60
     1
100
AcDbDimension
  2
*D9
 10
94.53257086951754
 20
116.1938113892624
 30
0.0
 11
91.78257086951752
 21
120.9438113892624
 31
0.0
 70
    32
  1
<>
 71
     5
 42
9.5
  3
AM_ISO$0
100
AcDbAlignedDimension
 13
63.87464887656418
 23
125.6938113892624
 33
0.0
 14
82.53257086951753
 24
116.1938113892624
 34
0.0
 50
90.0
100
AcDbRotatedDimension
1001
ACAD_DIMASSOC_CALC_DIMLFAC
1040
-1.0
1001
AD_SKETCHDIM
1005
0
1000
d27
1001
ACAD_DIMASSOC_DIMLFAC
1040
-1.0
1001
ACAD
1000
DSTYLE
1002
{
1070
   144
1040
-1.0
1002
}
  0
DIMENSION
  5
B0
330
2
100
AcDbEntity
  8
AM_PARDIM
 60
     1
100
AcDbDimension
  2
*D10
 10
124.5325708695175
 20
116.1938113892624
 30
0.0
 11
121.7822263813285
 21
122.4438113892624
 31
0.0
 70
    32
  1
<>
 71
     5
 42
12.50000000000004
  3
AM_ISO$0
100
AcDbAlignedDimension
 13
66.37464887656418
 23
128.6938113892624
 33
0.0
 14
82.53257086951753
 24
116.1938113892624
 34
0.0
 50
90.0
100
AcDbRotatedDimension
1001
ACAD_DIMASSOC_CALC_DIMLFAC
1040
-1.0
1001
AD_SKETCHDIM
1005
0
1000
d28
1001
ACAD_DIMASSOC_DIMLFAC
1040
-1.0
1001
ACAD
1000
DSTYLE
1002
{
1070
   144
1040
-1.0
1002
}
  0
LINE
  5
C8
330
2
100
AcDbEntity
  8
AM_7
 60
     1
100
AcDbLine
 10
36.3746488765642
 20
116.1938113892625
 30
0.0
 11
51.3746488765642
 21
116.1938113892625
 31
0.0
  0
MTEXT
  5
151
330
2
100
AcDbEntity
  8
AM_5
 62
     5
100
AcDbMText
 10
33.56078100938999
 20
98.94002315335121
 30
0.0
 40
3.5
 41
0.0
 71
     9
 72
     5
  1

  7
ACISOTS
 73
     1
 44
1.0
1001
ACAD
1000
MTEXTBEGIN
1070
    73
1070
     1
1070
    44
1040
1.0
1070
    74
1070
     0
1000
MTEXTEND
  0
MTEXT
  5
156
330
2
100
AcDbEntity
  8
AM_5
 62
     5
100
AcDbMText
 10
67.11527269722637
 20
92.4148402526181
 30
0.0
 40
3.5
 41
0.0
 71
     9
 72
     5
  1

  7
ACISOTS
 73
     1
 44
1.0
1001
ACAD
1000
MTEXTBEGIN
1070
    73
1070
     1
1070
    44
1040
1.0
1070
    74
1070
     0
1000
MTEXTEND
  0
TEXT
  5
13E2
330
2
100
AcDbEntity
  8
LOGO
  6
Continuous
 62
     7
100
AcDbText
 10
589.0239498396579
 20
-132.5206625458283
 30
0.0
 40
2.621173968320643
  1
MVSF
  7
CHINESET
 72
     1
 11
593.8294354482458
 21
-131.210075561668
 31
0.0
100
AcDbText
 73
     2
  0
LINE
  5
13E5
330
2
100
AcDbEntity
  8
LOGO
 62
     4
100
AcDbLine
 10
600.1202529722156
 20
-128.8510189901794
 30
0.0
 11
587.5386179242765
 21
-128.8510189901794
 31
0.0
  0
LINE
  5
13E6
330
2
100
AcDbEntity
  8
LOGO
 62
     4
100
AcDbLine
 10
600.1202529722156
 20
-133.5691321331566
 30
0.0
 11
587.5386179242765
 21
-133.5691321331566
 31
0.0
  0
LINE
  5
13E7
330
2
100
AcDbEntity
  8
LOGO
 62
     4
100
AcDbLine
 10
598.0240446553734
 20
-135.9281887046451
 30
0.0
 11
589.634825632806
 21
-135.9281887046451
 31
0.0
  0
LINE
  5
13E8
330
2
100
AcDbEntity
  8
LOGO
 62
     4
100
AcDbLine
 10
598.0240446553734
 20
-141.6947714349505
 30
0.0
 11
589.634825632806
 21
-141.6947714349506
 31
0.0
  0
LINE
  5
14D1
330
2
100
AcDbEntity
  8
LOGO
 62
     4
100
AcDbLine
 10
587.5386179242765
 20
-128.8510189901794
 30
0.0
 11
587.5386179242765
 21
-133.5691321331566
 31
0.0
  0
LINE
  5
14D2
330
2
100
AcDbEntity
  8
LOGO
 62
     4
100
AcDbLine
 10
589.634825632806
 20
-135.9281887046451
 30
0.0
 11
589.634825632806
 21
-141.6947714349506
 31
0.0
  0
TEXT
  5
14D3
330
2
100
AcDbEntity
  8
LOGO
100
AcDbText
 10
591.6619354482458
 20
-140.9985791005141
 30
0.0
 40
1.274999999999999
  1
Model
 72
     4
 11
593.8294354482458
 21
-140.3841844507903
 31
0.0
100
AcDbText
  0
TEXT
  5
14D4
330
2
100
AcDbEntity
  8
LOGO
100
AcDbText
 10
591.7811479482458
 20
-138.7347374263672
 30
0.0
 40
2.048287499999999
  1
型式
  7
CHINESET
 72
     4
 11
593.8294354482458
 21
-137.7630104824696
 31
0.0
100
AcDbText
  0
LINE
  5
14D5
330
2
100
AcDbEntity
  8
LOGO
 62
     4
100
AcDbLine
 10
593.8294354482458
 20
-133.5691321331566
 30
0.0
 11
593.8294354482458
 21
-135.9281887046451
 31
0.0
  0
LINE
  5
14DF
330
2
100
AcDbEntity
  8
LOGO
  6
Continuous
 62
     7
100
AcDbLine
 10
629.7769185264347
 20
-131.2100755616679
 30
0.0
 11
631.8602651340744
 21
-131.2100755616679
 31
0.0
  0
TEXT
  5
14E0
330
2
100
AcDbEntity
  8
LOGO
100
AcDbText
 10
625.9769385934368
 20
-138.7871542324695
 30
0.0
 40
2.048287499999999
  1
單線圈
  7
CHINESET
 72
     4
 11
629.0066971871867
 21
-137.7630104824695
 31
0.0
100
AcDbText
  0
LINE
  5
14E1
330
2
100
AcDbEntity
  8
LOGO
 62
     4
100
AcDbLine
 10
635.2079801683743
 20
-135.9281887046451
 30
0.0
 11
622.8054142059995
 21
-135.9281887046451
 31
0.0
  0
LINE
  5
14E2
330
2
100
AcDbEntity
  8
LOGO
 62
     4
100
AcDbLine
 10
635.2079801683743
 20
-141.6947714349505
 30
0.0
 11
622.8054142059995
 21
-141.6947714349505
 31
0.0
  0
TEXT
  5
14E3
330
2
100
AcDbEntity
  8
LOGO
100
AcDbText
 10
623.3566024529348
 20
-140.8299176831912
 30
0.0
 40
1.274999999999999
  1
Single solenoid
 72
     4
 11
629.0066971871867
 21
-140.3841844507902
 31
0.0
100
AcDbText
  0
LINE
  5
14EB
330
2
100
AcDbEntity
  8
LOGO
 62
     4
100
AcDbLine
 10
615.3945945415884
 20
-128.8510189901794
 30
0.0
 11
603.8323843674892
 21
-128.8510189901794
 31
0.0
  0
LINE
  5
14EC
330
2
100
AcDbEntity
  8
LOGO
 62
     4
100
AcDbLine
 10
615.3945945415884
 20
-133.5691321331566
 30
0.0
 11
603.8323843674892
 21
-133.5691321331566
 31
0.0
  0
LINE
  5
14F4
330
2
100
AcDbEntity
  8
LOGO
 62
     4
100
AcDbLine
 10
612.2491857796038
 20
-135.9281887046451
 30
0.0
 11
600.6869756055045
 21
-135.9281887046451
 31
0.0
  0
LINE
  5
14F5
330
2
100
AcDbEntity
  8
LOGO
 62
     4
100
AcDbLine
 10
612.2491857796038
 20
-141.6947714349505
 30
0.0
 11
600.6869756055045
 21
-141.6947714349506
 31
0.0
  0
TEXT
  5
14F6
330
2
100
AcDbEntity
  8
LOGO
100
AcDbText
 10
602.301225342278
 20
-140.8304344507903
 30
0.0
 40
1.274999999999999
  1
Body width
 72
     4
 11
606.4680806925541
 21
-140.3841844507903
 31
0.0
100
AcDbText
  0
TEXT
  5
14F7
330
2
100
AcDbEntity
  8
LOGO
100
AcDbText
 10
602.3715056925541
 20
-138.7511176782742
 30
0.0
 40
2.048287499999999
  1
本體寬幅
  7
CHINESET
 72
     4
 11
606.4680806925541
 21
-137.7630104824696
 31
0.0
100
AcDbText
  0
LINE
  5
14F8
330
2
100
AcDbEntity
  8
LOGO
 62
     4
100
AcDbLine
 10
603.8323843674892
 20
-128.8510189901794
 30
0.0
 11
603.8323843674892
 21
-133.5691321331566
 31
0.0
  0
LINE
  5
14F9
330
2
100
AcDbEntity
  8
LOGO
 62
     4
100
AcDbLine
 10
600.1202529722156
 20
-128.8510189901794
 30
0.0
 11
600.1202529722156
 21
-133.5691321331566
 31
0.0
  0
LINE
  5
14FA
330
2
100
AcDbEntity
  8
LOGO
  6
Continuous
 62
     7
100
AcDbLine
 10
600.9331129606136
 20
-131.2267878640585
 30
0.0
 11
603.0164595682537
 21
-131.2267878640585
 31
0.0
  0
LINE
  5
14FB
330
2
100
AcDbEntity
  8
LOGO
 62
     4
100
AcDbLine
 10
600.6869756055045
 20
-135.9281887046451
 30
0.0
 11
600.6869756055045
 21
-141.6947714349505
 31
0.0
  0
LINE
  5
14FC
330
2
100
AcDbEntity
  8
LOGO
 62
     4
100
AcDbLine
 10
598.0240446553734
 20
-135.9281887046451
 30
0.0
 11
598.0240446553734
 21
-141.6947714349505
 31
0.0
  0
TEXT
  5
1509
330
2
100
AcDbEntity
  8
LOGO
  6
Continuous
 62
     7
100
AcDbText
 10
605.1200483659892
 20
-132.5503868237965
 30
0.0
 40
2.621173968320643
  1
100M
  7
CHINESET
 72
     1
 11
609.6134894545389
 21
-131.2397998396361
 31
0.0
100
AcDbText
 73
     2
  0
LINE
  5
150A
330
2
100
AcDbEntity
  8
LOGO
 62
     4
100
AcDbLine
 10
609.6134894545389
 20
-134.7486604189009
 30
0.0
 11
606.4680806925541
 21
-134.7486604189009
 31
0.0
  0
LINE
  5
150B
330
2
100
AcDbEntity
  8
LOGO
 62
     4
100
AcDbLine
 10
606.4680806925541
 20
-135.9281887046451
 30
0.0
 11
606.4680806925541
 21
-134.7486604189009
 31
0.0
  0
LINE
  5
150C
330
2
100
AcDbEntity
  8
LOGO
 62
     4
100
AcDbLine
 10
609.6134894545389
 20
-133.5691321331566
 30
0.0
 11
609.6134894545389
 21
-134.7486604189009
 31
0.0
  0
LINE
  5
150D
330
2
100
AcDbEntity
  8
LOGO
 62
     4
100
AcDbLine
 10
612.2491857796038
 20
-135.9281887046451
 30
0.0
 11
612.2491857796038
 21
-141.6947714349505
 31
0.0
  0
LINE
  5
1533
330
2
100
AcDbEntity
  8
LOGO
 62
     4
100
AcDbLine
 10
622.2811794123352
 20
-128.8510189901793
 30
0.0
 11
619.1067259368621
 21
-128.8510189901794
 31
0.0
  0
LINE
  5
1534
330
2
100
AcDbEntity
  8
LOGO
 62
     4
100
AcDbLine
 10
621.6400627324231
 20
-135.9281887046451
 30
0.0
 11
613.2232613203086
 21
-135.9281887046451
 31
0.0
  0
LINE
  5
1535
330
2
100
AcDbEntity
  8
LOGO
 62
     4
100
AcDbLine
 10
622.2811794123352
 20
-133.5691321331565
 30
0.0
 11
619.1067259368621
 21
-133.5691321331565
 31
0.0
  0
LINE
  5
1536
330
2
100
AcDbEntity
  8
LOGO
 62
     4
100
AcDbLine
 10
621.6400627324231
 20
-141.6947714349505
 30
0.0
 11
613.2232613203086
 21
-141.6947714349505
 31
0.0
  0
LINE
  5
1537
330
2
100
AcDbEntity
  8
LOGO
 62
     4
100
AcDbLine
 10
615.3945945415884
 20
-128.8510189901794
 30
0.0
 11
615.3945945415884
 21
-133.5691321331566
 31
0.0
  0
LINE
  5
1538
330
2
100
AcDbEntity
  8
LOGO
 62
     4
100
AcDbLine
 10
619.1067259368621
 20
-128.8510189901794
 30
0.0
 11
619.1067259368621
 21
-133.5691321331565
 31
0.0
  0
TEXT
  5
1539
330
2
100
AcDbEntity
  8
LOGO
100
AcDbText
 10
615.0729120263658
 20
-140.8304344507903
 30
0.0
 40
1.274999999999999
  1
4 Way
 72
     4
 11
617.4316620263659
 21
-140.3841844507903
 31
0.0
100
AcDbText
  0
TEXT
  5
153A
330
2
100
AcDbEntity
  8
LOGO
100
AcDbText
 10
613.5880749169908
 20
-138.7800981239558
 30
0.0
 40
2.048287499999999
  1
4 方向
  7
CHINESET
 72
     4
 11
617.4316620263659
 21
-137.7630104824696
 31
0.0
100
AcDbText
  0
LINE
  5
153B
330
2
100
AcDbEntity
  8
LOGO
  6
Continuous
 62
     7
100
AcDbLine
 10
616.2074545299867
 20
-131.2267878640585
 30
0.0
 11
618.2908011376262
 21
-131.2267878640585
 31
0.0
  0
LINE
  5
153C
330
2
100
AcDbEntity
  8
LOGO
 62
     4
100
AcDbLine
 10
613.2232613203086
 20
-135.9281887046451
 30
0.0
 11
613.2232613203086
 21
-141.6947714349505
 31
0.0
  0
TEXT
  5
153D
330
2
100
AcDbEntity
  8
LOGO
  6
Continuous
 62
     7
100
AcDbText
 10
619.757819114484
 20
-132.5206625458283
 30
0.0
 40
2.621173968320643
  1
4
  7
CHINESET
 72
     1
 11
620.6939526745985
 21
-131.2100755616679
 31
0.0
100
AcDbText
 73
     2
  0
LINE
  5
153E
330
2
100
AcDbEntity
  8
LOGO
 62
     4
100
AcDbLine
 10
620.693952553718
 20
-134.7486604189008
 30
0.0
 11
617.4316620263659
 21
-134.7486604189008
 31
0.0
  0
LINE
  5
153F
330
2
100
AcDbEntity
  8
LOGO
 62
     4
100
AcDbLine
 10
617.4316620263659
 20
-135.9281887046451
 30
0.0
 11
617.4316620263659
 21
-134.7486604189008
 31
0.0
  0
LINE
  5
1540
330
2
100
AcDbEntity
  8
LOGO
 62
     4
100
AcDbLine
 10
620.6939525537181
 20
-133.5691321331565
 30
0.0
 11
620.6939525537181
 21
-134.7486604189008
 31
0.0
  0
LINE
  5
1547
330
2
100
AcDbEntity
  8
LOGO
 62
     4
100
AcDbLine
 10
628.3929278507408
 20
-128.8510189901793
 30
0.0
 11
628.3929278507404
 21
-133.5691321331565
 31
0.0
  0
LINE
  5
1548
330
2
100
AcDbEntity
  8
LOGO
 62
     4
100
AcDbLine
 10
622.2811794123352
 20
-128.8510189901793
 30
0.0
 11
622.2811794123352
 21
-133.5691321331565
 31
0.0
  0
LINE
  5
1549
330
2
100
AcDbEntity
  8
LOGO
 62
     4
100
AcDbLine
 10
622.8054142059995
 20
-128.8510189901793
 30
0.0
 11
622.8054142059995
 21
-133.5691321331565
 31
0.0
  0
LINE
  5
154A
330
2
100
AcDbEntity
  8
LOGO
 62
     4
100
AcDbLine
 10
625.5991710283701
 20
-134.7486604189008
 30
0.0
 11
629.0066971871867
 21
-134.7486604189008
 31
0.0
  0
TEXT
  5
154B
330
2
100
AcDbEntity
  8
LOGO
  6
Continuous
 62
     7
100
AcDbText
 10
624.346000303413
 20
-132.5503868237964
 30
0.0
 40
2.621173968320643
  1
E1
  7
CHINESET
 72
     1
 11
625.8438139995964
 21
-131.2397998396361
 31
0.0
100
AcDbText
 73
     2
  0
LINE
  5
154C
330
2
100
AcDbEntity
  8
LOGO
 62
     4
100
AcDbLine
 10
628.3929278507404
 20
-133.5691321331565
 30
0.0
 11
622.8054142059995
 21
-133.5691321331565
 31
0.0
  0
LINE
  5
154D
330
2
100
AcDbEntity
  8
LOGO
 62
     4
100
AcDbLine
 10
622.8054142059995
 20
-135.9281887046451
 30
0.0
 11
622.8054142059995
 21
-141.6947714349505
 31
0.0
  0
LINE
  5
154E
330
2
100
AcDbEntity
  8
LOGO
 62
     4
100
AcDbLine
 10
621.6400627324231
 20
-135.9281887046451
 30
0.0
 11
621.6400627324231
 21
-141.6947714349505
 31
0.0
  0
LINE
  5
154F
330
2
100
AcDbEntity
  8
LOGO
 62
     4
100
AcDbLine
 10
625.5991710283701
 20
-133.5691321331565
 30
0.0
 11
625.5991710283701
 21
-134.7486604189008
 31
0.0
  0
LINE
  5
1550
330
2
100
AcDbEntity
  8
LOGO
 62
     4
100
AcDbLine
 10
629.0066971871867
 20
-135.9281887046451
 30
0.0
 11
629.0066971871867
 21
-134.7486604189008
 31
0.0
  0
LINE
  5
1553
330
2
100
AcDbEntity
  8
LOGO
 62
     4
100
AcDbLine
 10
628.3929278507408
 20
-128.8510189901793
 30
0.0
 11
622.8054142059995
 21
-128.8510189901793
 31
0.0
  0
LINE
  5
15C0
330
2
100
AcDbEntity
  8
LOGO
 62
     4
100
AcDbLine
 10
657.6800141014505
 20
-135.928188704645
 30
0.0
 11
645.6146413015794
 21
-135.928188704645
 31
0.0
  0
TEXT
  5
15C1
330
2
100
AcDbEntity
  8
LOGO
100
AcDbText
 10
646.674827545867
 20
-141.0216844507901
 30
0.0
 40
1.274999999999999
  1
LED indicator
 72
     4
 11
651.6473275458669
 21
-140.3841844507901
 31
0.0
100
AcDbText
  0
LINE
  5
15C2
330
2
100
AcDbEntity
  8
LOGO
 62
     4
100
AcDbLine
 10
657.6800141014505
 20
-141.6947714349505
 30
0.0
 11
645.6146413015794
 21
-141.6947714349505
 31
0.0
  0
LINE
  5
15C4
330
2
100
AcDbEntity
  8
LOGO
 62
     4
100
AcDbLine
 10
644.5376131217304
 20
-135.9281887046451
 30
0.0
 11
636.4709648531966
 21
-135.9281887046451
 31
0.0
  0
LINE
  5
15C5
330
2
100
AcDbEntity
  8
LOGO
 62
     4
100
AcDbLine
 10
646.085852136905
 20
-133.5691321331565
 30
0.0
 11
632.6357455897752
 21
-133.5691321331565
 31
0.0
  0
LINE
  5
15C6
330
2
100
AcDbEntity
  8
LOGO
 62
     4
100
AcDbLine
 10
646.085852136905
 20
-128.8510189901793
 30
0.0
 11
632.6357455897752
 21
-128.8510189901793
 31
0.0
  0
LINE
  5
15C7
330
2
100
AcDbEntity
  8
LOGO
 62
     4
100
AcDbLine
 10
644.5376131217304
 20
-141.6947714349505
 30
0.0
 11
636.4709648531966
 21
-141.6947714349505
 31
0.0
  0
TEXT
  5
15C8
330
2
100
AcDbEntity
  8
LOGO
100
AcDbText
 10
637.6026557654911
 20
-140.807329100514
 30
0.0
 40
1.274999999999999
  1
Voltage
 72
     4
 11
640.5989057654911
 21
-140.3841844507901
 31
0.0
100
AcDbText
  0
LINE
  5
15C9
330
2
100
AcDbEntity
  8
LOGO
 62
     4
100
AcDbLine
 10
632.6357455897752
 20
-128.8510189901793
 30
0.0
 11
632.6357455897752
 21
-133.5691321331565
 31
0.0
  0
LINE
  5
15CA
330
2
100
AcDbEntity
  8
LOGO
 62
     4
100
AcDbLine
 10
635.2079801683743
 20
-135.9281887046451
 30
0.0
 11
635.2079801683743
 21
-141.6947714349505
 31
0.0
  0
LINE
  5
15CB
330
2
100
AcDbEntity
  8
LOGO
 62
     4
100
AcDbLine
 10
636.4709648531966
 20
-135.9281887046451
 30
0.0
 11
636.4709648531966
 21
-141.6947714349505
 31
0.0
  0
LINE
  5
15CD
330
2
100
AcDbEntity
  8
LOGO
 62
     4
100
AcDbLine
 10
646.0858521369049
 20
-128.8510189901793
 30
0.0
 11
646.0858521369049
 21
-133.5691321331565
 31
0.0
  0
TEXT
  5
15CE
330
2
100
AcDbEntity
  8
LOGO
100
AcDbText
 10
638.5292819373661
 20
-138.7653138965935
 30
0.0
 40
2.048287499999999
  1
電壓
  7
CHINESET
 72
     4
 11
640.5989057654911
 21
-137.7630104824695
 31
0.0
100
AcDbText
  0
LINE
  5
15CF
330
2
100
AcDbEntity
  8
LOGO
 62
     4
100
AcDbLine
 10
639.36079886334
 20
-134.7486604189008
 30
0.0
 11
640.5989057654911
 21
-134.7486604189008
 31
0.0
  0
LINE
  5
15D0
330
2
100
AcDbEntity
  8
LOGO
 62
     4
100
AcDbLine
 10
639.36079886334
 20
-133.5691321331565
 30
0.0
 11
639.36079886334
 21
-134.7486604189008
 31
0.0
  0
TEXT
  5
15D1
330
2
100
AcDbEntity
  8
LOGO
  6
Continuous
 62
     7
100
AcDbText
 10
638.8829808355308
 20
-132.5503868237964
 30
0.0
 40
2.621173968320643
  1
?
  7
CHINESET
 72
     1
 11
639.5694787796148
 21
-131.2397998396361
 31
0.0
100
AcDbText
 73
     2
  0
LINE
  5
15D2
330
2
100
AcDbEntity
  8
LOGO
 62
     4
100
AcDbLine
 10
640.5989057654911
 20
-134.7486604189008
 30
0.0
 11
640.5989057654911
 21
-135.9281887046451
 31
0.0
  0
LINE
  5
15D3
330
2
100
AcDbEntity
  8
LOGO
 62
     4
100
AcDbLine
 10
644.5376131217304
 20
-135.9281887046451
 30
0.0
 11
644.5376131217304
 21
-141.6947714349505
 31
0.0
  0
LINE
  5
15D4
330
2
100
AcDbEntity
  8
LOGO
 62
     4
100
AcDbLine
 10
645.6146413015794
 20
-135.9281887046451
 30
0.0
 11
645.6146413015794
 21
-141.6947714349505
 31
0.0
  0
LINE
  5
15F8
330
2
100
AcDbEntity
  8
LOGO
 62
     4
100
AcDbLine
 10
649.7979835321785
 20
-128.8510189901793
 30
0.0
 11
649.7979835321785
 21
-133.5691321331564
 31
0.0
  0
LINE
  5
15F9
330
2
100
AcDbEntity
  8
LOGO
 62
     4
100
AcDbLine
 10
652.9724370076516
 20
-128.8510189901793
 30
0.0
 11
652.9724370076516
 21
-133.5691321331564
 31
0.0
  0
LINE
  5
15FA
330
2
100
AcDbEntity
  8
LOGO
 62
     4
100
AcDbLine
 10
652.9724370076516
 20
-133.5691321331564
 30
0.0
 11
649.7979835321785
 21
-133.5691321331564
 31
0.0
  0
TEXT
  5
15FB
330
2
100
AcDbEntity
  8
LOGO
100
AcDbText
 10
648.5962326239919
 20
-138.7658179043445
 30
0.0
 40
2.048287499999999
  1
附燈型
  7
CHINESET
 72
     4
 11
651.6473275458669
 21
-137.7630104824695
 31
0.0
100
AcDbText
  0
LINE
  5
15FC
330
2
100
AcDbEntity
  8
LOGO
  6
Continuous
 62
     7
100
AcDbLine
 10
646.8987121253034
 20
-131.2267878640584
 30
0.0
 11
648.9820587329428
 21
-131.2267878640584
 31
0.0
  0
LINE
  5
15FD
330
2
100
AcDbEntity
  8
LOGO
 62
     4
100
AcDbLine
 10
651.3852102699151
 20
-133.5691321331564
 30
0.0
 11
651.3852102699151
 21
-135.928188704645
 31
0.0
  0
TEXT
  5
15FE
330
2
100
AcDbEntity
  8
LOGO
  6
Continuous
 62
     7
100
AcDbText
 10
650.6363034218235
 20
-132.5206625458282
 30
0.0
 40
2.621173968320643
  1
L
  7
CHINESET
 72
     1
 11
651.3852102699151
 21
-131.2100755616679
 31
0.0
100
AcDbText
 73
     2
  0
LINE
  5
15FF
330
2
100
AcDbEntity
  8
LOGO
 62
     4
100
AcDbLine
 10
652.9724370076516
 20
-128.8510189901793
 30
0.0
 11
649.7979835321785
 21
-128.8510189901793
 31
0.0
  0
LINE
  5
1602
330
2
100
AcDbEntity
  8
LOGO
 62
     4
100
AcDbLine
 10
657.6800141014505
 20
-135.928188704645
 30
0.0
 11
657.6800141014505
 21
-141.6947714349504
 31
0.0
  0
TEXT
  5
2138
330
2
100
AcDbEntity
  8
LOGO
100
AcDbText
 10
535.9876296159194
 20
15.20114012459599
 30
0.0
 40
3.641399999999999
  1
MVSF-100M-4E1
100
AcDbText
  0
LINE
  5
2B59
330
2
100
AcDbEntity
  8
LOGO
 62
     4
100
AcDbLine
 10
659.0685387480348
 20
-127.8114008993628
 30
0.0
 11
532.9937997723972
 21
-127.8114008993628
 31
0.0
  0
LWPOLYLINE
  5
2B5A
330
2
100
AcDbEntity
  8
LOGO
 62
     4
100
AcDbPolyline
 90
        4
 70
     1
 43
0.0
 10
532.9937997723972
 20
-127.8114008993628
 10
659.0685387480348
 20
-127.8114008993628
 10
659.0685387480348
 20
25.45484929819822
 10
532.9937997723972
 20
25.45484929819822
1001
GENIUS_GENREC_14
1002
{
1000
PYDIR
1011
532.9937997723972
1021
25.45484929819822
1031
0.0
1002
}
1002
{
1000
PXDIR
1011
659.0685387480348
1021
-127.8114008993628
1031
0.0
1002
}
1002
{
1000
PORI
1011
532.9937997723972
1021
-127.8114008993628
1031
0.0
1002
}
1002
{
1000
PINS
1011
532.9937997723972
1021
-127.8114008993628
1031
0.0
1002
}
1002
{
1000
PINS2
1011
659.0685387480348
1021
25.45484929819822
1031
0.0
1002
}
1002
{
1000
C
1070
     1
1002
}
1001
GENIUS_GENODEF_13
1002
{
1000
HIER
1070
     0
1002
}
1002
{
1000
MANEDIT
1070
     0
1002
}
1002
{
1000
NOSEL
1070
     0
1002
}
1002
{
1000
BEHIND
1070
     0
1002
}
1002
{
1000
OTHER
1070
     0
1002
}
1002
{
1000
REACTOR
1002
}
1001
GENIUS_GENOBJ-N-REC_13
1002
{
1000
OWNER
1000
GEN
1002
}
  0
LWPOLYLINE
  5
2B5B
330
2
100
AcDbEntity
  8
LOGO
 62
     4
100
AcDbPolyline
 90
        4
 70
     1
 43
0.0
 10
532.9937997723972
 20
-127.8114008993628
 10
659.0685387480348
 20
-127.8114008993628
 10
659.0685387480348
 20
-143.5399711295167
 10
532.9937997723972
 20
-143.5399711295167
1001
GENIUS_GENREC_14
1002
{
1000
PYDIR
1011
532.9937997723972
1021
-143.5399711295167
1031
0.0
1002
}
1002
{
1000
PXDIR
1011
659.0685387480348
1021
-127.8114008993628
1031
0.0
1002
}
1002
{
1000
PORI
1011
532.9937997723972
1021
-127.8114008993628
1031
0.0
1002
}
1002
{
1000
PINS
1011
532.9937997723972
1021
-127.8114008993628
1031
0.0
1002
}
1002
{
1000
PINS2
1011
659.0685387480348
1021
-143.5399711295167
1031
0.0
1002
}
1002
{
1000
C
1070
     1
1002
}
1001
GENIUS_GENOBJ-N-REC_13
1002
{
1000
OWNER
1000
GEN
1002
}
1001
GENIUS_GENODEF_13
1002
{
1000
HIER
1070
     0
1002
}
1002
{
1000
MANEDIT
1070
     0
1002
}
1002
{
1000
NOSEL
1070
     0
1002
}
1002
{
1000
BEHIND
1070
     0
1002
}
1002
{
1000
OTHER
1070
     0
1002
}
1002
{
1000
REACTOR
1002
}
  0
TEXT
  5
2B5C
330
2
100
AcDbEntity
  8
LOGO
 62
     7
100
AcDbText
 10
568.507869893835
 20
-134.7018198727006
 30
0.0
 40
2.097142697353846
  1
Order example:
 41
0.8
  7
CHINESET
100
AcDbText
  0
TEXT
  5
2B5D
330
2
100
AcDbEntity
  8
LOGO
 62
     7
100
AcDbText
 10
568.8841146364048
 20
-131.7494771737624
 30
0.0
 40
3.145714046030768
  1
訂購代號：
  7
CHINESET
100
AcDbText
  0
LINE
  5
2B5E
330
2
100
AcDbEntity
  8
LOGO
 62
     4
100
AcDbLine
 10
567.5966542787356
 20
-143.5399711295167
 30
0.0
 11
567.5966542787356
 21
-127.8114008993628
 31
0.0
  0
TEXT
  5
2B5F
330
2
100
AcDbEntity
  8
LOGO
  6
Continuous
100
AcDbText
 10
538.6435729003595
 20
-140.4501172442851
 30
0.0
 40
2.359285534523077
  1
金器工業股份有限公司
  7
CHINESET
100
AcDbText
  0
TEXT
  5
2B60
330
2
100
AcDbEntity
  8
LOGO
  6
Continuous
100
AcDbText
 10
534.3100321350655
 20
-142.8098650137978
 30
0.0
 40
1.572857023015384
  1
MINDMAN INDUSTRIAL CO., LTD.
 41
0.85
  7
CHINESET
100
AcDbText
  0
LINE
  5
2B61
330
2
100
AcDbEntity
  8
LOGO
 62
     4
100
AcDbLine
 10
567.5966542787356
 20
-130.9571149453936
 30
0.0
 11
544.5280846078434
 21
-130.9571149453936
 31
0.0
  0
LINE
  5
2B62
330
2
100
AcDbEntity
  8
LOGO
 62
     4
100
AcDbLine
 10
567.5966542787356
 20
-134.1028289914243
 30
0.0
 11
544.5280846078434
 21
-134.1028289914243
 31
0.0
  0
LINE
  5
2B63
330
2
100
AcDbEntity
  8
LOGO
 62
     4
100
AcDbLine
 10
567.5966542787356
 20
-137.248543037455
 30
0.0
 11
532.9937997723972
 21
-137.248543037455
 31
0.0
  0
LINE
  5
2B64
330
2
100
AcDbEntity
  8
LOGO
 62
     4
100
AcDbLine
 10
544.5280846078434
 20
-137.248543037455
 30
0.0
 11
544.5280846078434
 21
-127.8114008993628
 31
0.0
  0
TEXT
  5
2B65
330
2
100
AcDbEntity
  8
LOGO
100
AcDbText
 10
560.2943631579944
 20
-136.4621145259475
 30
0.0
 40
1.572857023015384
  1
mm
  7
CHINESET
 72
     1
 11
562.2417099483945
 21
-135.6756860144398
 31
0.0
100
AcDbText
 73
     2
  0
TEXT
  5
2B66
330
2
100
AcDbEntity
  8
LOGO
100
AcDbText
 10
559.4704856697482
 20
-130.170686433886
 30
0.0
 40
1.572857023015384
  1
1 : 1
  7
CHINESET
 72
     1
 11
562.2417099483945
 21
-129.3842579223783
 31
0.0
100
AcDbText
 73
     2
  0
LINE
  5
2B67
330
2
100
AcDbEntity
  8
LOGO
 62
     4
100
AcDbLine
 10
557.1109407919663
 20
-137.248543037455
 30
0.0
 11
557.1109407919663
 21
-127.8114008993628
 31
0.0
  0
TEXT
  5
2B68
330
2
100
AcDbEntity
  8
LOGO
100
AcDbText
 10
545.8249894835171
 20
-130.1699123900754
 30
103.0824581578514
 40
1.572857023015384
  1
比例 Scale:
 41
0.9
  7
CHINESET
 72
     4
 11
550.8195126999048
 21
-129.3842579223783
 31
103.0824581578514
100
AcDbText
  0
TEXT
  5
2B69
330
2
100
AcDbEntity
  8
LOGO
100
AcDbText
 10
545.734409771031
 20
-133.2942757276655
 30
103.0824581578514
 40
1.572857023015384
  1
投影  View:
 41
0.9
  7
CHINESET
 72
     4
 11
550.8195126999048
 21
-132.5299719684091
 31
103.0824581578514
100
AcDbText
  0
TEXT
  5
2B6A
330
2
100
AcDbEntity
  8
LOGO
100
AcDbText
 10
545.8881846317633
 20
-136.4621145259475
 30
103.0824581578514
 40
1.572857023015384
  1
單位  Unit:
 41
0.9
  7
CHINESET
 72
     4
 11
550.8195126999048
 21
-135.6756860144398
 31
103.0824581578514
100
AcDbText
  0
SOLID
  5
2B6B
330
2
100
AcDbEntity
  8
LOGO
 62
     5
100
AcDbTrace
 10
534.6256641762108
 20
-134.6338921152598
 30
0.0
 11
535.3057262811944
 21
-134.63389211526
 31
0.0
 12
538.1432267881945
 22
-128.1850273266223
 32
0.0
 13
538.8232888931786
 23
-128.1850273266227
 33
0.0
  0
SOLID
  5
2B6C
330
2
100
AcDbEntity
  8
LOGO
 62
     5
100
AcDbTrace
 10
535.5871312901538
 20
-134.6338921152598
 30
0.0
 11
536.2671933951374
 21
-134.6338921152598
 31
0.0
 12
538.8232888931786
 22
-128.7009365097137
 32
0.0
 13
538.1432267881945
 23
-131.1944975613201
 33
0.0
  0
SOLID
  5
2B6D
330
2
100
AcDbEntity
  8
LOGO
 62
     2
100
AcDbTrace
 10
535.3057262811944
 20
-134.63389211526
 30
0.0
 11
535.5871312901538
 21
-134.6338921152598
 31
0.0
 12
538.8232888931786
 22
-128.1850273266227
 32
0.0
 13
539.1046939021377
 23
-128.1850273266227
 33
0.0
  0
SOLID
  5
2B6E
330
2
100
AcDbEntity
  8
LOGO
 62
     5
100
AcDbTrace
 10
533.5353578502655
 20
-136.9789338565823
 30
0.0
 11
533.7698620243982
 21
-136.9789338565823
 31
0.0
 12
534.4302440311007
 22
-135.8064129859211
 32
0.0
 13
534.6647482052325
 23
-135.8064129859211
 33
0.0
  0
SOLID
  5
2B6F
330
2
100
AcDbEntity
  8
LOGO
 62
     5
100
AcDbTrace
 10
534.4302440311007
 20
-135.8064129859211
 30
0.0
 11
534.6647482052325
 21
-135.8064129859211
 31
0.0
 12
534.4302440311007
 22
-136.9789338565823
 32
0.0
 13
534.6647482052325
 23
-136.9789338565823
 33
0.0
  0
SOLID
  5
2B70
330
2
100
AcDbEntity
  8
LOGO
 62
     5
100
AcDbTrace
 10
534.4302440311007
 20
-136.9789338565823
 30
0.0
 11
534.6647482052325
 21
-136.9789338565823
 31
0.0
 12
535.3251302119364
 22
-135.8064129859211
 32
0.0
 13
535.5596343860685
 23
-135.8064129859211
 33
0.0
  0
SOLID
  5
2B71
330
2
100
AcDbEntity
  8
LOGO
 62
     5
100
AcDbTrace
 10
535.3251302119364
 20
-135.8064129859211
 30
0.0
 11
535.5596343860685
 21
-135.8064129859211
 31
0.0
 12
535.3251302119364
 22
-136.9789338565823
 32
0.0
 13
535.5596343860685
 23
-136.9789338565823
 33
0.0
  0
POLYLINE
  5
2B72
330
2
100
AcDbEntity
  8
LOGO
 62
     5
100
AcDb2dPolyline
 66
     1
 10
0.0
 20
0.0
 30
0.0
 40
0.2348799821036307
 41
0.2348799821036307
  0
VERTEX
  5
2B73
330
2B72
100
AcDbEntity
  8
LOGO
 62
     5
100
AcDbVertex
100
AcDb2dVertex
 10
543.1856302439959
 20
-136.2754213341856
 30
0.0
 42
1.0
  0
VERTEX
  5
2B74
330
2B72
100
AcDbEntity
  8
LOGO
 62
     5
100
AcDbVertex
100
AcDb2dVertex
 10
542.480990297685
 20
-136.2754213341856
 30
0.0
 42
1.0
  0
SEQEND
  5
2B75
330
2B72
100
AcDbEntity
  8
LOGO
 62
     5
  0
POLYLINE
  5
2B76
330
2
100
AcDbEntity
  8
LOGO
 62
     5
100
AcDb2dPolyline
 66
     1
 10
0.0
 20
0.0
 30
0.0
 70
     1
  0
VERTEX
  5
2B77
330
2B76
100
AcDbEntity
  8
LOGO
 62
     5
100
AcDbVertex
100
AcDb2dVertex
 10
541.1527126565037
 20
-136.3926734212519
 30
0.0
 42
1.000000057330635
  0
VERTEX
  5
2B78
330
2B76
100
AcDbEntity
  8
LOGO
 62
     5
100
AcDbVertex
100
AcDb2dVertex
 10
541.8562251789007
 20
-136.3926734212519
 30
0.0
 42
1.000000057330635
  0
SEQEND
  5
2B79
330
2B76
100
AcDbEntity
  8
LOGO
 62
     5
  0
CIRCLE
  5
2B7A
330
2
100
AcDbEntity
  8
LOGO
 62
     5
100
AcDbCircle
 10
541.5044689177027
 20
-136.3926734212519
 30
0.0
 40
0.3517562611983974
  0
POLYLINE
  5
2B7B
330
2
100
AcDbEntity
  8
LOGO
 62
     5
100
AcDb2dPolyline
 66
     1
 10
0.0
 20
0.0
 30
0.0
 70
     1
 40
0.2348799821036307
 41
0.2348799821036307
  0
VERTEX
  5
2B7C
330
2B7B
100
AcDbEntity
  8
LOGO
 62
     5
100
AcDbVertex
100
AcDb2dVertex
 10
541.034708953495
 20
-136.3926734212519
 30
0.0
 42
1.0
  0
VERTEX
  5
2B7D
330
2B7B
100
AcDbEntity
  8
LOGO
 62
     5
100
AcDbVertex
100
AcDb2dVertex
 10
541.9742288819095
 20
-136.3926734212519
 30
0.0
 42
1.0
  0
SEQEND
  5
2B7E
330
2B7B
100
AcDbEntity
  8
LOGO
 62
     5
  0
LINE
  5
2B7F
330
2
100
AcDbEntity
  8
LOGO
100
AcDbLine
 10
543.3023186191046
 20
-136.9789338565823
 30
0.0
 11
543.3023186191046
 21
-136.2754213341856
 31
0.0
  0
SOLID
  5
2B80
330
2
100
AcDbEntity
  8
LOGO
 62
     5
100
AcDbTrace
 10
541.8562017284842
 20
-135.8064129859211
 30
0.0
 11
542.090705902616
 21
-135.8064129859211
 31
0.0
 12
541.8562017284842
 22
-136.9789338565823
 32
0.0
 13
542.090705902616
 23
-136.9789338565823
 33
0.0
  0
SOLID
  5
2B81
330
2
100
AcDbEntity
  8
LOGO
 62
     5
100
AcDbTrace
 10
542.3643019225756
 20
-136.9789338565823
 30
0.0
 11
542.5988060967082
 21
-136.9789338565823
 31
0.0
 12
542.3643019225756
 22
-135.8064129859211
 32
0.0
 13
542.5988060967082
 23
-135.8064129859211
 33
0.0
  0
SOLID
  5
2B82
330
2
100
AcDbEntity
  8
LOGO
 62
     5
100
AcDbTrace
 10
543.0678144449729
 20
-136.2754213341856
 30
0.0
 11
543.3023186191046
 21
-136.2754213341856
 31
0.0
 12
543.0678144449729
 22
-136.9789338565823
 32
0.0
 13
543.3023186191046
 23
-136.9789338565823
 33
0.0
  0
SOLID
  5
2B83
330
2
100
AcDbEntity
  8
LOGO
 62
     5
100
AcDbTrace
 10
542.3408515051622
 20
-128.7009365097137
 30
0.0
 11
541.6607894001792
 21
-131.1944975613201
 31
0.0
 12
542.3408515051622
 22
-134.63389211526
 32
0.0
 13
541.6607894001792
 23
-134.63389211526
 33
0.0
  0
SOLID
  5
2B84
330
2
100
AcDbEntity
  8
LOGO
 62
     5
100
AcDbTrace
 10
542.6222565141215
 20
-134.63389211526
 30
0.0
 11
543.3023186191046
 21
-134.63389211526
 31
0.0
 12
542.6222565141215
 22
-128.1850273266227
 32
0.0
 13
543.3023186191046
 23
-128.1850273266223
 33
0.0
  0
SOLID
  5
2B85
330
2
100
AcDbEntity
  8
LOGO
 62
     2
100
AcDbTrace
 10
542.3408515051622
 20
-128.1850273266223
 30
0.0
 11
542.6222565141215
 21
-128.1850273266227
 31
0.0
 12
542.3408515051622
 22
-134.63389211526
 32
0.0
 13
542.6222565141215
 23
-134.63389211526
 33
0.0
  0
POLYLINE
  5
2B86
330
2
100
AcDbEntity
  8
LOGO
 62
     5
100
AcDb2dPolyline
 66
     1
 10
0.0
 20
0.0
 30
0.0
 40
0.2348799821036307
 41
0.2348799821036307
  0
VERTEX
  5
2B87
330
2B86
100
AcDbEntity
  8
LOGO
 62
     5
100
AcDbVertex
100
AcDb2dVertex
 10
539.8243881144886
 20
-136.2754213341856
 30
0.0
 42
1.0
  0
VERTEX
  5
2B88
330
2B86
100
AcDbEntity
  8
LOGO
 62
     5
100
AcDbVertex
100
AcDb2dVertex
 10
539.1197481681777
 20
-136.2754213341856
 30
0.0
 42
1.0
  0
SEQEND
  5
2B89
330
2B86
100
AcDbEntity
  8
LOGO
 62
     5
  0
POLYLINE
  5
2B8A
330
2
100
AcDbEntity
  8
LOGO
 62
     5
100
AcDb2dPolyline
 66
     1
 10
0.0
 20
0.0
 30
0.0
 40
0.2348799821036307
 41
0.2348799821036307
  0
VERTEX
  5
2B8B
330
2B8A
100
AcDbEntity
  8
LOGO
 62
     5
100
AcDbVertex
100
AcDb2dVertex
 10
540.5279006368846
 20
-136.2754213341856
 30
0.0
 42
1.0
  0
VERTEX
  5
2B8C
330
2B8A
100
AcDbEntity
  8
LOGO
 62
     5
100
AcDbVertex
100
AcDb2dVertex
 10
539.823260690574
 20
-136.2754213341856
 30
0.0
 42
1.0
  0
SEQEND
  5
2B8D
330
2B8A
100
AcDbEntity
  8
LOGO
 62
     5
  0
POLYLINE
  5
2B8E
330
2
100
AcDbEntity
  8
LOGO
 62
     5
100
AcDb2dPolyline
 66
     1
 10
0.0
 20
0.0
 30
0.0
 40
0.2348799821036307
 41
0.2348799821036307
  0
VERTEX
  5
2B8F
330
2B8E
100
AcDbEntity
  8
LOGO
 62
     5
100
AcDbVertex
100
AcDb2dVertex
 10
537.1666585073774
 20
-136.2754213341856
 30
0.0
 42
1.0
  0
VERTEX
  5
2B90
330
2B8E
100
AcDbEntity
  8
LOGO
 62
     5
100
AcDbVertex
100
AcDb2dVertex
 10
536.4620185610668
 20
-136.2754213341856
 30
0.0
 42
1.0
  0
SEQEND
  5
2B91
330
2B8E
100
AcDbEntity
  8
LOGO
 62
     5
  0
SOLID
  5
2B92
330
2
100
AcDbEntity
  8
LOGO
 62
     5
100
AcDbTrace
 10
536.3453301859578
 20
-135.8064129859211
 30
0.0
 11
536.5798343600896
 21
-135.8064129859211
 31
0.0
 12
536.3453301859578
 22
-136.9789338565823
 32
0.0
 13
536.5798343600896
 23
-136.9789338565823
 33
0.0
  0
SOLID
  5
2B93
330
2
100
AcDbEntity
  8
LOGO
 62
     5
100
AcDbTrace
 10
537.0488427083546
 20
-136.2754213341856
 30
0.0
 11
537.2833468824872
 21
-136.2754213341856
 31
0.0
 12
537.0488427083546
 22
-136.9789338565823
 32
0.0
 13
537.2833468824872
 23
-136.9789338565823
 33
0.0
  0
POLYLINE
  5
2B94
330
2
100
AcDbEntity
  8
LOGO
 62
     5
100
AcDb2dPolyline
 66
     1
 10
0.0
 20
0.0
 30
0.0
 70
     1
 40
0.2348799821036307
 41
0.2348799821036307
  0
VERTEX
  5
2B95
330
2B94
100
AcDbEntity
  8
LOGO
 62
     5
100
AcDbVertex
100
AcDb2dVertex
 10
537.6734668239874
 20
-136.3926734212519
 30
0.0
 42
1.0
  0
VERTEX
  5
2B96
330
2B94
100
AcDbEntity
  8
LOGO
 62
     5
100
AcDbVertex
100
AcDb2dVertex
 10
538.6129867524023
 20
-136.3926734212519
 30
0.0
 42
1.0
  0
SEQEND
  5
2B97
330
2B94
100
AcDbEntity
  8
LOGO
 62
     5
  0
SOLID
  5
2B98
330
2
100
AcDbEntity
  8
LOGO
 62
     5
100
AcDbTrace
 10
538.4949595989761
 20
-135.4546567247226
 30
0.0
 11
538.7294637731084
 21
-135.4546567247226
 31
0.0
 12
538.4949595989761
 22
-136.9789338565823
 32
0.0
 13
538.7294637731084
 23
-136.9789338565823
 33
0.0
  0
SOLID
  5
2B99
330
2
100
AcDbEntity
  8
LOGO
 62
     5
100
AcDbTrace
 10
539.0030597930691
 20
-135.8064129859211
 30
0.0
 11
539.2375639672009
 21
-135.8064129859211
 31
0.0
 12
539.0030597930691
 22
-136.9789338565823
 32
0.0
 13
539.2375639672009
 23
-136.9789338565823
 33
0.0
  0
SOLID
  5
2B9A
330
2
100
AcDbEntity
  8
LOGO
 62
     5
100
AcDbTrace
 10
539.7065723154653
 20
-136.2754213341856
 30
0.0
 11
539.9410764895976
 21
-136.2754213341856
 31
0.0
 12
539.7065723154653
 22
-136.9789338565823
 32
0.0
 13
539.9410764895976
 23
-136.9789338565823
 33
0.0
  0
SOLID
  5
2B9B
330
2
100
AcDbEntity
  8
LOGO
 62
     5
100
AcDbTrace
 10
540.4100848378621
 20
-136.2754213341856
 30
0.0
 11
540.6445890119941
 21
-136.2754213341856
 31
0.0
 12
540.4100848378621
 22
-136.9789338565827
 32
0.0
 13
540.6445890119941
 23
-136.9789338565827
 33
0.0
  0
SOLID
  5
2B9C
330
2
100
AcDbEntity
  8
LOGO
 62
     5
100
AcDbTrace
 10
535.8372299918653
 20
-135.6422600640285
 30
0.0
 11
536.0717341659982
 21
-135.6422600640285
 31
0.0
 12
535.8372299918653
 22
-135.4546567247226
 32
0.0
 13
536.0717341659982
 23
-135.4546567247226
 33
0.0
  0
SOLID
  5
2B9D
330
2
100
AcDbEntity
  8
LOGO
 62
     5
100
AcDbTrace
 10
535.8372299918653
 20
-135.8064129859211
 30
0.0
 11
536.0717341659982
 21
-135.8064129859211
 31
0.0
 12
535.8372299918653
 22
-136.9789338565827
 32
0.0
 13
536.0717341659982
 23
-136.9789338565823
 33
0.0
  0
SOLID
  5
2B9E
330
2
100
AcDbEntity
  8
LOGO
 62
     5
100
AcDbTrace
 10
538.1432267881945
 20
-134.6338921152598
 30
0.0
 11
538.8232888931786
 21
-134.6338921152598
 31
0.0
 12
538.1432267881945
 22
-131.1944975613201
 32
0.0
 13
538.8232888931786
 23
-128.7009365097137
 33
0.0
  0
SOLID
  5
2B9F
330
2
100
AcDbEntity
  8
LOGO
 62
     5
100
AcDbTrace
 10
539.1046939021377
 20
-128.1850273266227
 30
0.0
 11
539.7847560071209
 21
-128.1850273266223
 31
0.0
 12
539.1046939021377
 22
-134.1179829321689
 32
0.0
 13
539.7847560071209
 23
-131.6244218805625
 33
0.0
  0
SOLID
  5
2BA0
330
2
100
AcDbEntity
  8
LOGO
 62
     2
100
AcDbTrace
 10
538.8232888931786
 20
-128.1850273266227
 30
0.0
 11
539.1046939021377
 21
-128.1850273266227
 31
0.0
 12
538.8232888931786
 22
-134.6338921152598
 32
0.0
 13
539.1046939021377
 23
-134.6338921152598
 33
0.0
  0
SOLID
  5
2BA1
330
2
100
AcDbEntity
  8
LOGO
 62
     5
100
AcDbTrace
 10
539.1046939021377
 20
-134.1179829321689
 30
0.0
 11
539.7847560071209
 21
-131.6244218805625
 31
0.0
 12
542.3408515051622
 22
-128.1850273266223
 32
0.0
 13
541.6607894001792
 23
-128.1850273266223
 33
0.0
  0
SOLID
  5
2BA2
330
2
100
AcDbEntity
  8
LOGO
 62
     5
100
AcDbTrace
 10
539.1046939021377
 20
-134.6338921152598
 30
0.0
 11
539.7847560071209
 21
-134.6338921152598
 31
0.0
 12
542.3408515051622
 22
-128.7009365097137
 32
0.0
 13
541.6607894001792
 23
-131.1944975613201
 33
0.0
  0
SOLID
  5
2BA3
330
2
100
AcDbEntity
  8
LOGO
 62
     2
100
AcDbTrace
 10
538.8232888931786
 20
-134.6338921152598
 30
0.0
 11
539.1046939021377
 21
-134.6338921152598
 31
0.0
 12
542.3408515051622
 22
-128.1850273266223
 32
0.0
 13
542.6222565141215
 23
-128.1850273266227
 33
0.0
  0
TEXT
  5
2BE2
330
2
100
AcDbEntity
  8
LOGO
100
AcDbText
 10
568.5613765263531
 20
-142.7032174012395
 30
0.0
 40
1.573084799999999
  1
10808141
 41
0.7
  7
CHINESET
 72
     1
 11
572.1532534863531
 21
-142.7032174012395
 31
0.0
100
AcDbText
  0
LINE
  5
2BE3
330
2
100
AcDbEntity
  8
LOGO
 62
     4
100
AcDbLine
 10
577.0351630787351
 20
-140.3942570834856
 30
0.0
 11
577.0351630787356
 21
-143.5399711295166
 31
0.0
  0
LINE
  5
2BE4
330
2
100
AcDbEntity
  8
LOGO
 62
     4
100
AcDbLine
 10
577.0351630787351
 20
-140.3942570834856
 30
0.0
 11
567.5966542787356
 21
-140.3942570834856
 31
0.0
  0
CIRCLE
  5
2BE5
330
2
100
AcDbEntity
  8
LOGO
  6
Continuous
100
AcDbCircle
 10
560.0232822999259
 20
-132.5266076157268
 30
0.0
 40
0.9132378084438222
  0
CIRCLE
  5
2BE6
330
2
100
AcDbEntity
  8
LOGO
  6
Continuous
100
AcDbCircle
 10
560.0232822999259
 20
-132.5266076157268
 30
0.0
 40
0.5350765113789635
  0
LINE
  5
2BE7
330
2
100
AcDbEntity
  8
LOGO
100
AcDbLine
 10
565.7621746558207
 20
-133.4398454241708
 30
0.0
 11
565.7621746558207
 21
-131.6133698072828
 31
0.0
  0
LINE
  5
2BE8
330
2
100
AcDbEntity
  8
LOGO
100
AcDbLine
 10
562.8992265487012
 20
-133.0616841271057
 30
0.0
 11
562.8992265487012
 21
-131.9915311043477
 31
0.0
  0
LINE
  5
2BE9
330
2
100
AcDbEntity
  8
LOGO
  6
Continuous
100
AcDbLine
 10
562.8992265487012
 20
-131.9915311043477
 30
0.0
 11
565.7621746558207
 21
-131.6133698072828
 31
0.0
  0
LINE
  5
2BEA
330
2
100
AcDbEntity
  8
LOGO
  6
Continuous
100
AcDbLine
 10
562.8992265487012
 20
-133.0616841271057
 30
0.0
 11
565.7621746558207
 21
-133.4398454241708
 31
0.0
  0
LINE
  5
2BEB
330
2
100
AcDbEntity
  8
LOGO
  6
AM_ISO08W050x2
 48
0.3
100
AcDbLine
 10
558.7643703063268
 20
-132.5266076157268
 30
0.0
 11
561.282194293525
 21
-132.5266076157268
 31
0.0
1001
GENIUS_GENOREF_13
1005
2C02
  0
LINE
  5
2BEC
330
2
100
AcDbEntity
  8
LOGO
  6
AM_ISO08W050x2
 48
0.3
100
AcDbLine
 10
560.0232822999259
 20
-133.7855196093259
 30
0.0
 11
560.0232822999259
 21
-131.2676956221276
 31
0.0
1001
GENIUS_GENOREF_13
1005
2C01
  0
LINE
  5
2BED
330
2
100
AcDbEntity
  8
LOGO
  6
CENTER
 48
0.5
100
AcDbLine
 10
562.670270275402
 20
-132.5266076157268
 30
0.0
 11
566.050464262367
 21
-132.5266076157268
 31
0.0
1001
GENIUS_GENOREF_13
1005
2C00
  0
POINT
  5
2C00
330
2
100
AcDbEntity
  8
0
 60
     1
100
AcDbPoint
 10
-1811.703739739273
 20
-1443.309492803441
 30
0.0
1001
GENIUS_GENOBJ-N-CRS_13
1002
{
1000
OWNER
1000
GEN
1002
}
1001
GENIUS_GENOLIS_13
1002
{
1000
ENT
1005
0
1005
0
1005
0
1005
2BED
1002
}
1001
GENIUS_GENOENT_13
1002
{
1000
MYREF
1005
2C00
1002
}
1002
{
1000
GRP
1005
0
1002
}
1001
GENIUS_GENODEF_13
1002
{
1000
HIER
1070
    10
1002
}
1002
{
1000
MANEDIT
1070
     1
1002
}
1002
{
1000
NOSEL
1070
     0
1002
}
1002
{
1000
BEHIND
1070
     0
1002
}
1002
{
1000
OTHER
1070
     0
1002
}
1002
{
1000
REACTOR
1002
}
  0
POINT
  5
2C01
330
2
100
AcDbEntity
  8
0
 60
     1
100
AcDbPoint
 10
-1823.028324962128
 20
-1434.433906324805
 30
0.0
1001
GENIUS_GENOBJ-N-CRS_13
1002
{
1000
OWNER
1000
GEN
1002
}
1001
GENIUS_GENOLIS_13
1002
{
1000
ENT
1005
0
1005
0
1005
0
1005
2BEC
1002
}
1001
GENIUS_GENOENT_13
1002
{
1000
MYREF
1005
2C01
1002
}
1002
{
1000
GRP
1005
0
1002
}
1001
GENIUS_GENODEF_13
1002
{
1000
HIER
1070
    10
1002
}
1002
{
1000
MANEDIT
1070
     1
1002
}
1002
{
1000
NOSEL
1070
     0
1002
}
1002
{
1000
BEHIND
1070
     0
1002
}
1002
{
1000
OTHER
1070
     0
1002
}
1002
{
1000
REACTOR
1002
}
  0
POINT
  5
2C02
330
2
100
AcDbEntity
  8
0
 60
     1
100
AcDbPoint
 10
-1816.669651264291
 20
-1443.309492803441
 30
0.0
1001
GENIUS_GENOBJ-N-CRS_13
1002
{
1000
OWNER
1000
GEN
1002
}
1001
GENIUS_GENOLIS_13
1002
{
1000
ENT
1005
0
1005
0
1005
0
1005
2BEB
1002
}
1001
GENIUS_GENOENT_13
1002
{
1000
MYREF
1005
2C02
1002
}
1002
{
1000
GRP
1005
0
1002
}
1001
GENIUS_GENODEF_13
1002
{
1000
HIER
1070
    10
1002
}
1002
{
1000
MANEDIT
1070
     1
1002
}
1002
{
1000
NOSEL
1070
     0
1002
}
1002
{
1000
BEHIND
1070
     0
1002
}
1002
{
1000
OTHER
1070
     0
1002
}
1002
{
1000
REACTOR
1002
}
  0
LINE
  5
4702
330
2
100
AcDbEntity
  8
AM_7
100
AcDbLine
 10
602.6424873710238
 20
-108.129967328381
 30
0.0
 11
604.6424873710239
 21
-108.129967328381
 31
0.0
  0
LINE
  5
4703
330
2
100
AcDbEntity
  8
AM_7
100
AcDbLine
 10
603.6424873710238
 20
-112.0579419725297
 30
0.0
 11
603.6424873710238
 21
-104.3412479907548
 31
0.0
  0
LINE
  5
4704
330
2
100
AcDbEntity
  8
AM_7
100
AcDbLine
 10
598.6424873710238
 20
-108.129967328381
 30
0.0
 11
601.8424873710239
 21
-108.129967328381
 31
0.0
  0
LINE
  5
4715
330
2
100
AcDbEntity
  8
AM_7
100
AcDbLine
 10
621.1612978767544
 20
-10.01133530035591
 30
0.0
 11
558.7424873710237
 21
-10.01133530035591
 31
0.0
  0
LINE
  5
4717
330
2
100
AcDbEntity
  8
AM_7
100
AcDbLine
 10
576.5924873710239
 20
-14.11133530035593
 30
0.0
 11
578.5924873710239
 21
-14.11133530035593
 31
0.0
  0
LINE
  5
4718
330
2
100
AcDbEntity
  8
AM_7
100
AcDbLine
 10
577.5924873710239
 20
-15.11133530035593
 30
0.0
 11
577.5924873710239
 21
-13.11133530035593
 31
0.0
  0
LINE
  5
4719
102
{ACAD_REACTORS
330
4BBD
330
4C1A
102
}
330
2
100
AcDbEntity
  8
AM_7
100
AcDbLine
 10
574.3924873710239
 20
-14.11133530035593
 30
0.0
 11
575.7924873710238
 21
-14.11133530035593
 31
0.0
  0
LINE
  5
471A
330
2
100
AcDbEntity
  8
AM_7
100
AcDbLine
 10
579.3924873710238
 20
-14.11133530035593
 30
0.0
 11
580.7924873710239
 21
-14.11133530035593
 31
0.0
  0
LINE
  5
471B
330
2
100
AcDbEntity
  8
AM_7
100
AcDbLine
 10
577.5924873710239
 20
-17.31133530035592
 30
0.0
 11
577.5924873710239
 21
-15.91133530035594
 31
0.0
  0
LINE
  5
471C
102
{ACAD_REACTORS
330
4A54
102
}
330
2
100
AcDbEntity
  8
AM_7
100
AcDbLine
 10
577.5924873710239
 20
-12.31133530035592
 30
0.0
 11
577.5924873710239
 21
-10.91133530035594
 31
0.0
  0
LINE
  5
471D
330
2
100
AcDbEntity
  8
AM_7
100
AcDbLine
 10
569.5924873710239
 20
-5.911335300355943
 30
0.0
 11
571.5924873710239
 21
-5.911335300355943
 31
0.0
  0
LINE
  5
471E
330
2
100
AcDbEntity
  8
AM_7
100
AcDbLine
 10
570.5924873710239
 20
-6.911335300355943
 30
0.0
 11
570.5924873710239
 21
-4.911335300355943
 31
0.0
  0
LINE
  5
471F
102
{ACAD_REACTORS
330
4C1A
102
}
330
2
100
AcDbEntity
  8
AM_7
100
AcDbLine
 10
567.3924873710238
 20
-5.911335300355943
 30
0.0
 11
568.7924873710239
 21
-5.911335300355943
 31
0.0
  0
LINE
  5
4720
330
2
100
AcDbEntity
  8
AM_7
100
AcDbLine
 10
572.3924873710238
 20
-5.911335300355943
 30
0.0
 11
573.7924873710238
 21
-5.911335300355943
 31
0.0
  0
LINE
  5
4721
330
2
100
AcDbEntity
  8
AM_7
100
AcDbLine
 10
570.5924873710239
 20
-9.111335300355932
 30
0.0
 11
570.5924873710239
 21
-7.711335300355955
 31
0.0
  0
LINE
  5
4722
102
{ACAD_REACTORS
330
4A20
330
4A54
102
}
330
2
100
AcDbEntity
  8
AM_7
100
AcDbLine
 10
570.5924873710239
 20
-4.111335300355932
 30
0.0
 11
570.5924873710239
 21
-2.711335300355955
 31
0.0
  0
LINE
  5
4748
330
2
100
AcDbEntity
  8
AM_7
100
AcDbLine
 10
581.542487371024
 20
-108.1299673283809
 30
0.0
 11
584.1424873710239
 21
-108.1299673283809
 31
0.0
  0
LINE
  5
4749
102
{ACAD_REACTORS
330
4F3E
102
}
330
2
100
AcDbEntity
  8
AM_7
100
AcDbLine
 10
582.8424873710239
 20
-109.4299673283809
 30
0.0
 11
582.8424873710239
 21
-106.8299673283809
 31
0.0
  0
LINE
  5
474A
330
2
100
AcDbEntity
  8
AM_7
100
AcDbLine
 10
558.5205034137827
 20
-108.1299673283809
 30
0.0
 11
621.4833011098497
 21
-108.1299673283809
 31
0.0
  0
LINE
  5
4755
330
2
100
AcDbEntity
  8
AM_7
100
AcDbLine
 10
556.6100973398752
 20
-47.44630218135933
 30
0.0
 11
564.0924873710239
 21
-47.44630218135933
 31
0.0
  0
LINE
  5
4756
330
2
100
AcDbEntity
  8
AM_7
100
AcDbLine
 10
615.1424873710238
 20
-54.34630218135939
 30
0.0
 11
605.6424873710239
 21
-54.34630218135939
 31
0.0
  0
LINE
  5
4758
330
2
100
AcDbEntity
  8
AM_7
100
AcDbLine
 10
603.6424873710238
 20
-62.02130218135943
 30
0.0
 11
603.6424873710238
 21
-52.7140724554354
 31
0.0
  0
LINE
  5
4759
330
2
100
AcDbEntity
  8
AM_7
100
AcDbLine
 10
577.5924873710239
 20
-42.44630218135938
 30
0.0
 11
577.5924873710239
 21
-49.8463021813594
 31
0.0
  0
LINE
  5
475B
330
2
100
AcDbEntity
  8
AM_7
100
AcDbLine
 10
647.1073115374522
 20
-52.94630218135939
 30
0.0
 11
647.1073115374522
 21
-52.94630218135939
 31
0.0
  0
LINE
  5
475C
330
2
100
AcDbEntity
  8
AM_7
100
AcDbLine
 10
647.1073115374522
 20
-52.94630218135939
 30
0.0
 11
647.1073115374522
 21
-52.94630218135939
 31
0.0
  0
LINE
  5
475E
330
2
100
AcDbEntity
  8
AM_7
100
AcDbLine
 10
644.5119612225597
 20
-52.94630218135939
 30
0.0
 11
650.5119612225597
 21
-52.94630218135939
 31
0.0
  0
LINE
  5
475F
330
2
100
AcDbEntity
  8
AM_7
100
AcDbLine
 10
647.1073115374522
 20
-56.49387406612681
 30
0.0
 11
647.1073115374522
 21
-50.4938740661268
 31
0.0
  0
LINE
  5
4761
330
2
100
AcDbEntity
  8
AM_7
100
AcDbLine
 10
643.8573115374522
 20
-54.34630218135939
 30
0.0
 11
643.8573115374522
 21
-54.34630218135939
 31
0.0
  0
LINE
  5
4762
330
2
100
AcDbEntity
  8
AM_7
100
AcDbLine
 10
643.8573115374522
 20
-54.34630218135939
 30
0.0
 11
643.8573115374522
 21
-54.34630218135939
 31
0.0
  0
LINE
  5
4763
330
2
100
AcDbEntity
  8
AM_7
100
AcDbLine
 10
638.3573115374522
 20
-54.34630218135939
 30
0.0
 11
643.8573115374522
 21
-54.34630218135939
 31
0.0
  0
LINE
  5
4764
330
2
100
AcDbEntity
  8
AM_7
100
AcDbLine
 10
643.8573115374522
 20
-54.34630218135939
 30
0.0
 11
649.3573115374522
 21
-54.34630218135939
 31
0.0
  0
LINE
  5
4765
330
2
100
AcDbEntity
  8
AM_7
100
AcDbLine
 10
643.8573115374522
 20
-59.84630218135939
 30
0.0
 11
643.8573115374522
 21
-54.34630218135939
 31
0.0
  0
LINE
  5
4766
330
2
100
AcDbEntity
  8
AM_7
100
AcDbLine
 10
643.8573115374522
 20
-54.34630218135939
 30
0.0
 11
643.8573115374522
 21
-48.84630218135939
 31
0.0
  0
LINE
  5
4767
330
2
100
AcDbEntity
  8
AM_7
100
AcDbLine
 10
650.3573115374522
 20
-54.34630218135938
 30
0.0
 11
650.3573115374522
 21
-54.34630218135938
 31
0.0
  0
LINE
  5
4768
330
2
100
AcDbEntity
  8
AM_7
100
AcDbLine
 10
650.3573115374522
 20
-54.34630218135938
 30
0.0
 11
650.3573115374522
 21
-54.34630218135938
 31
0.0
  0
LINE
  5
4769
330
2
100
AcDbEntity
  8
AM_7
100
AcDbLine
 10
644.8573115374522
 20
-54.34630218135938
 30
0.0
 11
650.3573115374522
 21
-54.34630218135938
 31
0.0
  0
LINE
  5
476A
330
2
100
AcDbEntity
  8
AM_7
100
AcDbLine
 10
650.3573115374522
 20
-54.34630218135938
 30
0.0
 11
655.8573115374522
 21
-54.34630218135938
 31
0.0
  0
LINE
  5
476B
330
2
100
AcDbEntity
  8
AM_7
100
AcDbLine
 10
650.3573115374522
 20
-59.84630218135937
 30
0.0
 11
650.3573115374522
 21
-54.34630218135938
 31
0.0
  0
LINE
  5
476C
330
2
100
AcDbEntity
  8
AM_7
100
AcDbLine
 10
650.3573115374522
 20
-54.34630218135938
 30
0.0
 11
650.3573115374522
 21
-48.84630218135938
 31
0.0
  0
LINE
  5
476D
330
2
100
AcDbEntity
  8
AM_7
100
AcDbLine
 10
648.6073115374522
 20
-40.14630218135937
 30
0.0
 11
648.6073115374522
 21
-40.14630218135937
 31
0.0
  0
LINE
  5
476E
330
2
100
AcDbEntity
  8
AM_7
100
AcDbLine
 10
648.6073115374522
 20
-40.14630218135937
 30
0.0
 11
648.6073115374522
 21
-40.14630218135937
 31
0.0
  0
LINE
  5
4770
330
2
100
AcDbEntity
  8
AM_7
100
AcDbLine
 10
648.0179465656418
 20
-40.14630218135937
 30
0.0
 11
649.3721931225543
 21
-40.14630218135937
 31
0.0
  0
LINE
  5
4772
330
2
100
AcDbEntity
  8
AM_7
100
AcDbLine
 10
648.6073115374522
 20
-40.68998597596237
 30
0.0
 11
648.6073115374522
 21
-39.49268347083171
 31
0.0
  0
LINE
  5
4773
330
2
100
AcDbEntity
  8
AM_7
100
AcDbLine
 10
645.6073115374522
 20
-40.14630218135937
 30
0.0
 11
645.6073115374522
 21
-40.14630218135937
 31
0.0
  0
LINE
  5
4774
330
2
100
AcDbEntity
  8
AM_7
100
AcDbLine
 10
645.6073115374522
 20
-40.14630218135937
 30
0.0
 11
645.6073115374522
 21
-40.14630218135937
 31
0.0
  0
LINE
  5
4775
330
2
100
AcDbEntity
  8
AM_7
100
AcDbLine
 10
644.9503903047153
 20
-40.14630218135937
 30
0.0
 11
646.2421239933263
 21
-40.14630218135937
 31
0.0
  0
LINE
  5
4778
330
2
100
AcDbEntity
  8
AM_7
100
AcDbLine
 10
645.6073115374522
 20
-40.68998597596237
 30
0.0
 11
645.6073115374522
 21
-39.49268347083171
 31
0.0
  0
LINE
  5
4779
330
2
100
AcDbEntity
  8
AM_VIS
100
AcDbLine
 10
560.6208352834169
 20
-4.95259951114977
 30
0.0
 11
561.0924873710239
 21
-4.911335300355887
 31
0.0
  0
LINE
  5
477A
330
2
100
AcDbEntity
  8
AM_VIS
100
AcDbLine
 10
561.0924873710239
 20
-4.911335300355887
 30
0.0
 11
561.0924873710239
 21
-5.011335300355909
 31
0.0
  0
ARC
  5
477B
330
2
100
AcDbEntity
  8
AM_VIS
100
AcDbCircle
 10
560.6766149587754
 20
-5.590164117928509
 30
0.0
 40
0.6400000000000002
100
AcDbArc
 50
94.99999999999982
 51
115.2547165609067
  0
LINE
  5
477C
330
2
100
AcDbEntity
  8
AM_VIS
100
AcDbLine
 10
560.6208352834169
 20
-15.07007108956202
 30
0.0
 11
561.0924873710239
 21
-15.1113353003559
 31
0.0
  0
LINE
  5
477D
330
2
100
AcDbEntity
  8
AM_VIS
100
AcDbLine
 10
561.0924873710239
 20
-15.01133530035591
 30
0.0
 11
561.0924873710239
 21
-15.1113353003559
 31
0.0
  0
ARC
  5
477E
330
2
100
AcDbEntity
  8
AM_VIS
100
AcDbCircle
 10
560.6766149587754
 20
-14.43250648278328
 30
0.0
 40
0.6400000000000002
100
AcDbArc
 50
244.7452834391002
 51
265.0000000000002
  0
LINE
  5
477F
330
2
100
AcDbEntity
  8
AM_VIS
100
AcDbLine
 10
596.4141394586309
 20
-15.07007108956202
 30
0.0
 11
595.9424873710238
 21
-15.1113353003559
 31
0.0
  0
LINE
  5
4780
330
2
100
AcDbEntity
  8
AM_VIS
100
AcDbLine
 10
595.9424873710238
 20
-15.1113353003559
 30
0.0
 11
595.9424873710238
 21
-15.01133530035585
 31
0.0
  0
ARC
  5
4781
330
2
100
AcDbEntity
  8
AM_VIS
100
AcDbCircle
 10
596.3583597832723
 20
-14.43250648278328
 30
0.0
 40
0.6400000000000002
100
AcDbArc
 50
274.9999999999998
 51
295.2547165609077
  0
LINE
  5
4782
330
2
100
AcDbEntity
  8
AM_VIS
100
AcDbLine
 10
596.4141394586309
 20
-4.952599511149742
 30
0.0
 11
595.9424873710238
 21
-4.911335300355858
 31
0.0
  0
LINE
  5
4783
330
2
100
AcDbEntity
  8
AM_VIS
100
AcDbLine
 10
595.9424873710238
 20
-5.011335300355881
 30
0.0
 11
595.9424873710238
 21
-4.911335300355858
 31
0.0
  0
ARC
  5
4784
330
2
100
AcDbEntity
  8
AM_VIS
100
AcDbCircle
 10
596.3583597832723
 20
-5.590164117928509
 30
0.0
 40
0.6400000000000002
100
AcDbArc
 50
64.74528343909952
 51
85.00000000000019
  0
LINE
  5
4785
330
2
100
AcDbEntity
  8
AM_VIS
100
AcDbLine
 10
587.6424873710239
 20
-5.011335300355881
 30
0.0
 11
587.6424873710239
 21
-15.01133530035588
 31
0.0
  0
LINE
  5
4786
330
2
100
AcDbEntity
  8
AM_VIS
100
AcDbLine
 10
587.6424873710239
 20
-5.011335300355881
 30
0.0
 11
597.1424873710239
 21
-5.011335300355881
 31
0.0
  0
LINE
  5
4787
330
2
100
AcDbEntity
  8
AM_VIS
100
AcDbLine
 10
587.6424873710239
 20
-15.01133530035588
 30
0.0
 11
597.1424873710239
 21
-15.01133530035588
 31
0.0
  0
ARC
  5
4788
330
2
100
AcDbEntity
  8
AM_VIS
100
AcDbCircle
 10
598.1423554209912
 20
-12.21133530035584
 30
0.0
 40
4.674968506161596
100
AcDbArc
 50
177.5480788316095
 51
182.4519211683905
  0
ARC
  5
4789
330
2
100
AcDbEntity
  8
AM_VIS
100
AcDbCircle
 10
590.1426193210566
 20
-12.2113353003559
 30
0.0
 40
4.674968506161596
100
AcDbArc
 50
357.5480788316095
 51
2.451921168390511
  0
CIRCLE
  5
478A
330
2
100
AcDbEntity
  8
AM_VIS
100
AcDbCircle
 10
594.1424873710238
 20
-12.21133530035587
 30
0.0
 40
0.7
  0
LINE
  5
478B
330
2
100
AcDbEntity
  8
AM_VIS
100
AcDbLine
 10
564.0424873710238
 20
-15.01133530035591
 30
0.0
 11
564.0424873710238
 21
-5.011335300355909
 31
0.0
  0
LINE
  5
478C
102
{ACAD_REACTORS
330
4A20
330
4BBD
330
4BF4
102
}
330
2
100
AcDbEntity
  8
AM_VIS
100
AcDbLine
 10
559.5924873710239
 20
-5.011335300355938
 30
0.0
 11
559.5924873710239
 21
-15.01133530035594
 31
0.0
  0
ARC
  5
478D
330
2
100
AcDbEntity
  8
AM_VIS
100
AcDbCircle
 10
561.1924873710238
 20
-1.742259015399497
 30
0.0
 40
6.554834521868656
100
AcDbArc
 50
264.0125425170536
 51
275.9874574829463
  0
LINE
  5
478E
330
2
100
AcDbEntity
  8
AM_VIS
100
AcDbLine
 10
564.0424873710238
 20
-5.011335300355909
 30
0.0
 11
559.5924873710239
 21
-5.011335300355909
 31
0.0
  0
LINE
  5
478F
330
2
100
AcDbEntity
  8
AM_VIS
100
AcDbLine
 10
564.0424873710238
 20
-15.01133530035591
 30
0.0
 11
559.5924873710239
 21
-15.01133530035591
 31
0.0
  0
CIRCLE
  5
4790
330
2
100
AcDbEntity
  8
AM_VIS
100
AcDbCircle
 10
561.1924873710238
 20
-8.411335300355915
 30
0.0
 40
0.7
  0
LINE
  5
4791
330
2
100
AcDbEntity
  8
AM_VIS
100
AcDbLine
 10
610.1424873710239
 20
-15.01133530035594
 30
0.0
 11
597.1424873710239
 21
-15.01133530035594
 31
0.0
  0
LINE
  5
4792
330
2
100
AcDbEntity
  8
AM_VIS
100
AcDbLine
 10
597.1424873710239
 20
-5.011335300355938
 30
0.0
 11
610.1424873710239
 21
-5.011335300355938
 31
0.0
  0
LINE
  5
4793
330
2
100
AcDbEntity
  8
AM_VIS
100
AcDbLine
 10
597.1424873710239
 20
-15.01133530035594
 30
0.0
 11
597.1424873710239
 21
-5.011335300355938
 31
0.0
  0
LINE
  5
4794
330
2
100
AcDbEntity
  8
AM_VIS
100
AcDbLine
 10
610.1424873710239
 20
-15.01133530035594
 30
0.0
 11
610.1424873710239
 21
-5.011335300355938
 31
0.0
  0
LINE
  5
4795
330
2
100
AcDbEntity
  8
AM_VIS
100
AcDbLine
 10
615.1424873710238
 20
-14.01133530035596
 30
0.0
 11
613.6424873710239
 21
-15.01133530035597
 31
0.0
  0
LINE
  5
4796
330
2
100
AcDbEntity
  8
AM_VIS
100
AcDbLine
 10
615.1424873710238
 20
-6.261335300355995
 30
0.0
 11
618.6424873710238
 21
-6.261335300355995
 31
0.0
  0
LINE
  5
4797
330
2
100
AcDbEntity
  8
AM_VIS
100
AcDbLine
 10
618.6424873710238
 20
-6.261335300355995
 30
0.0
 11
619.6424873710238
 21
-6.861335300356017
 31
0.0
  0
LINE
  5
4798
330
2
100
AcDbEntity
  8
AM_VIS
100
AcDbLine
 10
619.6424873710238
 20
-7.011335300355995
 30
0.0
 11
619.6424873710238
 21
-6.861335300355989
 31
0.0
  0
LINE
  5
4799
330
2
100
AcDbEntity
  8
AM_VIS
100
AcDbLine
 10
619.6424873710238
 20
-7.011335300355995
 30
0.0
 11
619.6424873710238
 21
-7.911335300356
 31
0.0
  0
LINE
  5
479A
330
2
100
AcDbEntity
  8
AM_VIS
100
AcDbLine
 10
615.1424873710238
 20
-7.011335300355995
 30
0.0
 11
619.6424873710238
 21
-7.011335300355995
 31
0.0
  0
LINE
  5
479B
330
2
100
AcDbEntity
  8
AM_VIS
100
AcDbLine
 10
619.6424873710238
 20
-7.911335300355972
 30
0.0
 11
615.1424873710238
 21
-7.911335300355972
 31
0.0
  0
LINE
  5
479C
330
2
100
AcDbEntity
  8
AM_VIS
100
AcDbLine
 10
619.6424873710238
 20
-12.11133530035596
 30
0.0
 11
619.6424873710238
 21
-7.911335300355972
 31
0.0
  0
LINE
  5
479D
330
2
100
AcDbEntity
  8
AM_VIS
100
AcDbLine
 10
619.6424873710238
 20
-13.16133530035597
 30
0.0
 11
619.6424873710238
 21
-13.01133530035597
 31
0.0
  0
LINE
  5
479E
330
2
100
AcDbEntity
  8
AM_VIS
100
AcDbLine
 10
619.6424873710238
 20
-13.16133530035597
 30
0.0
 11
618.6424873710238
 21
-13.76133530035597
 31
0.0
  0
LINE
  5
479F
330
2
100
AcDbEntity
  8
AM_VIS
100
AcDbLine
 10
615.1424873710238
 20
-13.76133530035597
 30
0.0
 11
618.6424873710238
 21
-13.76133530035597
 31
0.0
  0
LINE
  5
47A0
330
2
100
AcDbEntity
  8
AM_VIS
100
AcDbLine
 10
619.6424873710238
 20
-12.11133530035599
 30
0.0
 11
619.6424873710238
 21
-13.01133530035599
 31
0.0
  0
LINE
  5
47A1
330
2
100
AcDbEntity
  8
AM_VIS
100
AcDbLine
 10
615.1424873710238
 20
-12.11133530035596
 30
0.0
 11
619.6424873710238
 21
-12.11133530035596
 31
0.0
  0
LINE
  5
47A2
330
2
100
AcDbEntity
  8
AM_VIS
100
AcDbLine
 10
619.6424873710238
 20
-13.01133530035597
 30
0.0
 11
615.1424873710238
 21
-13.01133530035597
 31
0.0
  0
LINE
  5
47A3
330
2
100
AcDbEntity
  8
AM_VIS
100
AcDbLine
 10
618.1424873710239
 20
-9.511335300355966
 30
0.0
 11
616.9424873710239
 21
-9.511335300355966
 31
0.0
  0
LINE
  5
47A4
330
2
100
AcDbEntity
  8
AM_VIS
100
AcDbLine
 10
618.1424873710239
 20
-9.511335300355966
 30
0.0
 11
618.1424873710239
 21
-10.51133530035596
 31
0.0
  0
LINE
  5
47A5
330
2
100
AcDbEntity
  8
AM_VIS
100
AcDbLine
 10
616.9424873710239
 20
-10.51133530035596
 30
0.0
 11
618.1424873710239
 21
-10.51133530035596
 31
0.0
  0
LINE
  5
47A6
330
2
100
AcDbEntity
  8
AM_VIS
100
AcDbLine
 10
616.9424873710239
 20
-9.511335300355966
 30
0.0
 11
616.9424873710239
 21
-10.51133530035596
 31
0.0
  0
LINE
  5
47A7
330
2
100
AcDbEntity
  8
AM_VIS
100
AcDbLine
 10
615.1424873710238
 20
-14.01133530035596
 30
0.0
 11
615.1424873710238
 21
-12.01133530035596
 31
0.0
  0
LINE
  5
47A8
330
2
100
AcDbEntity
  8
AM_VIS
100
AcDbLine
 10
613.6424873710239
 20
-5.011335300355995
 30
0.0
 11
615.1424873710238
 21
-6.011335300355995
 31
0.0
  0
LINE
  5
47A9
330
2
100
AcDbEntity
  8
AM_VIS
100
AcDbLine
 10
615.1424873710238
 20
-8.011335300355995
 30
0.0
 11
615.1424873710238
 21
-6.011335300355995
 31
0.0
  0
LINE
  5
47AA
330
2
100
AcDbEntity
  8
AM_VIS
100
AcDbLine
 10
613.6424873710239
 20
-12.01133530035596
 30
0.0
 11
613.6424873710239
 21
-15.01133530035597
 31
0.0
  0
LINE
  5
47AB
330
2
100
AcDbEntity
  8
AM_VIS
100
AcDbLine
 10
610.1424873710239
 20
-15.01133530035597
 30
0.0
 11
613.6424873710239
 21
-15.01133530035597
 31
0.0
  0
LINE
  5
47AC
330
2
100
AcDbEntity
  8
AM_VIS
100
AcDbLine
 10
610.1424873710239
 20
-5.011335300355995
 30
0.0
 11
610.1424873710239
 21
-15.01133530035599
 31
0.0
  0
LINE
  5
47AD
330
2
100
AcDbEntity
  8
AM_VIS
100
AcDbLine
 10
610.1424873710239
 20
-5.011335300355995
 30
0.0
 11
613.6424873710239
 21
-5.011335300355995
 31
0.0
  0
LINE
  5
47AE
330
2
100
AcDbEntity
  8
AM_VIS
100
AcDbLine
 10
613.6424873710239
 20
-5.011335300355995
 30
0.0
 11
613.6424873710239
 21
-8.011335300355995
 31
0.0
  0
LINE
  5
47AF
330
2
100
AcDbEntity
  8
AM_VIS
100
AcDbLine
 10
615.1424873710238
 20
-12.01133530035596
 30
0.0
 11
613.6424873710239
 21
-12.01133530035596
 31
0.0
  0
LINE
  5
47B0
330
2
100
AcDbEntity
  8
AM_VIS
100
AcDbLine
 10
613.6424873710239
 20
-12.01133530035596
 30
0.0
 11
612.8424873710239
 21
-12.01133530035596
 31
0.0
  0
LINE
  5
47B1
330
2
100
AcDbEntity
  8
AM_VIS
100
AcDbLine
 10
612.8424873710239
 20
-8.011335300355995
 30
0.0
 11
613.6424873710239
 21
-8.011335300355995
 31
0.0
  0
LINE
  5
47B2
330
2
100
AcDbEntity
  8
AM_VIS
100
AcDbLine
 10
613.6424873710239
 20
-8.011335300355995
 30
0.0
 11
615.1424873710238
 21
-8.011335300355995
 31
0.0
  0
LINE
  5
47B3
330
2
100
AcDbEntity
  8
AM_VIS
100
AcDbLine
 10
612.8424873710239
 20
-12.01133530035596
 30
0.0
 11
612.8424873710239
 21
-8.011335300355966
 31
0.0
  0
LINE
  5
47B4
330
2
100
AcDbEntity
  8
AM_VIS
100
AcDbLine
 10
613.5596446585493
 20
-12.01133530035596
 30
0.0
 11
613.5596446585493
 21
-8.011335300355966
 31
0.0
  0
LINE
  5
47B5
330
2
100
AcDbEntity
  8
AM_VIS
100
AcDbLine
 10
615.1424873710238
 20
-8.011335300355995
 30
0.0
 11
615.1424873710238
 21
-12.01133530035599
 31
0.0
  0
LINE
  5
47B6
330
2
100
AcDbEntity
  8
AM_VIS
100
AcDbLine
 10
568.9924873710238
 20
-5.011335300355938
 30
0.0
 11
569.5924873710239
 21
-5.011335300355938
 31
0.0
  0
LINE
  5
47B7
330
2
100
AcDbEntity
  8
AM_VIS
100
AcDbLine
 10
569.5924873710239
 20
-5.011335300355938
 30
0.0
 11
570.0924873710239
 21
-4.511335300355938
 31
0.0
  0
LINE
  5
47B8
330
2
100
AcDbEntity
  8
AM_VIS
100
AcDbLine
 10
570.0924873710239
 20
-4.511335300355938
 30
0.0
 11
571.0924873710239
 21
-4.511335300355938
 31
0.0
  0
LINE
  5
47B9
330
2
100
AcDbEntity
  8
AM_VIS
100
AcDbLine
 10
571.0924873710239
 20
-4.511335300355938
 30
0.0
 11
571.5924873710239
 21
-5.011335300355938
 31
0.0
  0
LINE
  5
47BA
330
2
100
AcDbEntity
  8
AM_VIS
100
AcDbLine
 10
579.1924873710238
 20
-15.01133530035594
 30
0.0
 11
578.5924873710239
 21
-15.01133530035594
 31
0.0
  0
LINE
  5
47BB
330
2
100
AcDbEntity
  8
AM_VIS
100
AcDbLine
 10
578.5924873710239
 20
-15.01133530035594
 30
0.0
 11
578.0924873710239
 21
-15.51133530035594
 31
0.0
  0
LINE
  5
47BC
330
2
100
AcDbEntity
  8
AM_VIS
100
AcDbLine
 10
578.0924873710239
 20
-15.51133530035594
 30
0.0
 11
577.0924873710239
 21
-15.51133530035594
 31
0.0
  0
LINE
  5
47BD
330
2
100
AcDbEntity
  8
AM_VIS
100
AcDbLine
 10
577.0924873710239
 20
-15.51133530035594
 30
0.0
 11
576.5924873710239
 21
-15.01133530035594
 31
0.0
  0
LINE
  5
47BE
330
2
100
AcDbEntity
  8
AM_VIS
100
AcDbLine
 10
576.5924873710239
 20
-15.01133530035594
 30
0.0
 11
575.9924873710239
 21
-15.01133530035594
 31
0.0
  0
LINE
  5
47BF
330
2
100
AcDbEntity
  8
AM_VIS
100
AcDbLine
 10
571.5924873710239
 20
-5.011335300355938
 30
0.0
 11
572.1924873710238
 21
-5.011335300355938
 31
0.0
  0
LINE
  5
47C0
330
2
100
AcDbEntity
  8
AM_VIS
100
AcDbLine
 10
587.6424873710239
 20
-5.011335300355938
 30
0.0
 11
578.6924873710238
 21
-5.011335300355938
 31
0.0
  0
LINE
  5
47C1
330
2
100
AcDbEntity
  8
AM_VIS
100
AcDbLine
 10
587.6424873710239
 20
-15.01133530035594
 30
0.0
 11
587.6424873710239
 21
-5.011335300355938
 31
0.0
  0
LINE
  5
47C2
330
2
100
AcDbEntity
  8
AM_VIS
100
AcDbLine
 10
587.6424873710239
 20
-15.01133530035594
 30
0.0
 11
579.1924873710238
 21
-15.01133530035594
 31
0.0
  0
LINE
  5
47C3
330
2
100
AcDbEntity
  8
AM_VIS
100
AcDbLine
 10
579.1924873710238
 20
-14.11133530035596
 30
0.0
 11
579.1924873710238
 21
-15.01133530035597
 31
0.0
  0
LINE
  5
47C4
330
2
100
AcDbEntity
  8
AM_VIS
100
AcDbLine
 10
575.9924873710239
 20
-15.01133530035594
 30
0.0
 11
575.9924873710239
 21
-14.11133530035593
 31
0.0
  0
LINE
  5
47C5
330
2
100
AcDbEntity
  8
AM_VIS
100
AcDbLine
 10
575.9924873710239
 20
-15.01133530035594
 30
0.0
 11
571.6924873710238
 21
-15.01133530035594
 31
0.0
  0
LINE
  5
47C6
330
2
100
AcDbEntity
  8
AM_VIS
100
AcDbLine
 10
571.1924873710238
 20
-14.51133530035594
 30
0.0
 11
571.6924873710238
 21
-15.01133530035594
 31
0.0
  0
LINE
  5
47C7
330
2
100
AcDbEntity
  8
AM_VIS
100
AcDbLine
 10
567.7924873710238
 20
-14.51133530035594
 30
0.0
 11
571.1924873710238
 21
-14.51133530035594
 31
0.0
  0
LINE
  5
47C8
330
2
100
AcDbEntity
  8
AM_VIS
100
AcDbLine
 10
567.2924873710238
 20
-15.01133530035594
 30
0.0
 11
567.7924873710238
 21
-14.51133530035594
 31
0.0
  0
LINE
  5
47C9
330
2
100
AcDbEntity
  8
AM_VIS
100
AcDbLine
 10
567.2924873710238
 20
-15.01133530035594
 30
0.0
 11
564.0424873710238
 21
-15.01133530035594
 31
0.0
  0
LINE
  5
47CA
330
2
100
AcDbEntity
  8
AM_VIS
100
AcDbLine
 10
564.0424873710238
 20
-5.011335300355938
 30
0.0
 11
564.0424873710238
 21
-15.01133530035594
 31
0.0
  0
LINE
  5
47CB
330
2
100
AcDbEntity
  8
AM_VIS
100
AcDbLine
 10
568.9924873710238
 20
-5.011335300355938
 30
0.0
 11
564.0424873710238
 21
-5.011335300355938
 31
0.0
  0
LINE
  5
47CC
330
2
100
AcDbEntity
  8
AM_VIS
100
AcDbLine
 10
568.9924873710238
 20
-5.911335300355943
 30
0.0
 11
568.9924873710238
 21
-5.011335300355938
 31
0.0
  0
LINE
  5
47CD
330
2
100
AcDbEntity
  8
AM_VIS
100
AcDbLine
 10
572.1924873710238
 20
-5.011335300355938
 30
0.0
 11
572.1924873710238
 21
-5.911335300355943
 31
0.0
  0
LINE
  5
47CE
330
2
100
AcDbEntity
  8
AM_VIS
100
AcDbLine
 10
574.2924873710238
 20
-5.011335300355938
 30
0.0
 11
572.1924873710238
 21
-5.011335300355938
 31
0.0
  0
LINE
  5
47CF
330
2
100
AcDbEntity
  8
AM_VIS
100
AcDbLine
 10
574.7924873710238
 20
-5.511335300355938
 30
0.0
 11
574.2924873710238
 21
-5.011335300355938
 31
0.0
  0
LINE
  5
47D0
330
2
100
AcDbEntity
  8
AM_VIS
100
AcDbLine
 10
578.1924873710238
 20
-5.511335300355938
 30
0.0
 11
574.7924873710238
 21
-5.511335300355938
 31
0.0
  0
LINE
  5
47D1
330
2
100
AcDbEntity
  8
AM_VIS
100
AcDbLine
 10
578.6924873710238
 20
-5.011335300355938
 30
0.0
 11
578.1924873710238
 21
-5.511335300355938
 31
0.0
  0
CIRCLE
  5
47D2
330
2
100
AcDbEntity
  8
AM_VIS
100
AcDbCircle
 10
570.5924873710239
 20
-5.911335300355972
 30
0.0
 40
0.85
  0
CIRCLE
  5
47D3
102
{ACAD_REACTORS
330
4AED
102
}
330
2
100
AcDbEntity
  8
AM_VIS
100
AcDbCircle
 10
577.5924873710239
 20
-14.11133530035596
 30
0.0
 40
0.85
  0
ARC
  5
47D4
330
2
100
AcDbEntity
  8
AM_VIS
100
AcDbCircle
 10
577.5924873710239
 20
-14.11133530035596
 30
0.0
 40
1.6
100
AcDbArc
 50
0.0
 51
180.0
  0
ARC
  5
47D5
330
2
100
AcDbEntity
  8
AM_VIS
100
AcDbCircle
 10
570.5924873710239
 20
-5.911335300355972
 30
0.0
 40
1.6
100
AcDbArc
 50
180.0
 51
0.0
  0
LINE
  5
47D6
330
2
100
AcDbEntity
  8
AM_VIS
100
AcDbLine
 10
560.6208352834169
 20
-113.1887031175871
 30
0.0
 11
561.0924873710239
 21
-113.2299673283809
 31
0.0
  0
LINE
  5
47D7
330
2
100
AcDbEntity
  8
AM_VIS
100
AcDbLine
 10
561.0924873710239
 20
-113.1299673283809
 30
0.0
 11
561.0924873710239
 21
-113.2299673283809
 31
0.0
  0
ARC
  5
47D8
330
2
100
AcDbEntity
  8
AM_VIS
100
AcDbCircle
 10
560.6766149587754
 20
-112.5511385108083
 30
0.0
 40
0.6400000000000002
100
AcDbArc
 50
244.7452834390992
 51
265.0000000000002
  0
LINE
  5
47D9
330
2
100
AcDbEntity
  8
AM_VIS
100
AcDbLine
 10
560.6208352834169
 20
-103.0712315391748
 30
0.0
 11
561.0924873710239
 21
-103.0299673283809
 31
0.0
  0
LINE
  5
47DA
330
2
100
AcDbEntity
  8
AM_VIS
100
AcDbLine
 10
561.0924873710239
 20
-103.0299673283809
 30
0.0
 11
561.0924873710239
 21
-103.129967328381
 31
0.0
  0
ARC
  5
47DB
330
2
100
AcDbEntity
  8
AM_VIS
100
AcDbCircle
 10
560.6766149587754
 20
-103.7087961459536
 30
0.0
 40
0.6400000000000002
100
AcDbArc
 50
94.99999999999982
 51
115.2547165609001
  0
LINE
  5
47DC
330
2
100
AcDbEntity
  8
AM_VIS
100
AcDbLine
 10
596.4141394586309
 20
-103.0712315391748
 30
0.0
 11
595.9424873710238
 21
-103.0299673283809
 31
0.0
  0
LINE
  5
47DD
330
2
100
AcDbEntity
  8
AM_VIS
100
AcDbLine
 10
595.9424873710238
 20
-103.129967328381
 30
0.0
 11
595.9424873710238
 21
-103.0299673283809
 31
0.0
  0
ARC
  5
47DE
330
2
100
AcDbEntity
  8
AM_VIS
100
AcDbCircle
 10
596.3583597832723
 20
-103.7087961459536
 30
0.0
 40
0.6400000000000002
100
AcDbArc
 50
64.74528343909224
 51
85.00000000000019
  0
LINE
  5
47DF
330
2
100
AcDbEntity
  8
AM_VIS
100
AcDbLine
 10
596.4141394586309
 20
-113.1887031175871
 30
0.0
 11
595.9424873710238
 21
-113.229967328381
 31
0.0
  0
LINE
  5
47E0
330
2
100
AcDbEntity
  8
AM_VIS
100
AcDbLine
 10
595.9424873710238
 20
-113.229967328381
 30
0.0
 11
595.9424873710238
 21
-113.129967328381
 31
0.0
  0
ARC
  5
47E1
330
2
100
AcDbEntity
  8
AM_VIS
100
AcDbCircle
 10
596.3583597832723
 20
-112.5511385108083
 30
0.0
 40
0.6400000000000002
100
AcDbArc
 50
274.9999999999998
 51
295.2547165608997
  0
LINE
  5
47E2
330
2
100
AcDbEntity
  8
AM_VIS
100
AcDbLine
 10
587.6424873710239
 20
-103.129967328381
 30
0.0
 11
587.6424873710239
 21
-113.129967328381
 31
0.0
  0
LINE
  5
47E3
330
2
100
AcDbEntity
  8
AM_VIS
100
AcDbLine
 10
587.6424873710239
 20
-113.129967328381
 30
0.0
 11
597.1424873710239
 21
-113.129967328381
 31
0.0
  0
LINE
  5
47E4
330
2
100
AcDbEntity
  8
AM_VIS
100
AcDbLine
 10
587.6424873710239
 20
-103.129967328381
 30
0.0
 11
597.1424873710239
 21
-103.129967328381
 31
0.0
  0
LINE
  5
47E5
330
2
100
AcDbEntity
  8
AM_VIS
100
AcDbLine
 10
597.1424873710239
 20
-113.129967328381
 30
0.0
 11
597.1424873710239
 21
-103.129967328381
 31
0.0
  0
LINE
  5
47E6
330
2
100
AcDbEntity
  8
AM_VIS
100
AcDbLine
 10
564.0424873710238
 20
-113.1299673283809
 30
0.0
 11
564.0424873710238
 21
-103.1299673283809
 31
0.0
  0
LINE
  5
47E7
330
2
100
AcDbEntity
  8
AM_VIS
100
AcDbLine
 10
559.5924873710239
 20
-103.1299673283809
 30
0.0
 11
559.5924873710239
 21
-113.1299673283809
 31
0.0
  0
LINE
  5
47E8
330
2
100
AcDbEntity
  8
AM_VIS
100
AcDbLine
 10
564.0424873710238
 20
-113.1299673283809
 30
0.0
 11
559.5924873710239
 21
-113.1299673283809
 31
0.0
  0
LINE
  5
47E9
102
{ACAD_REACTORS
330
4EC7
102
}
330
2
100
AcDbEntity
  8
AM_VIS
100
AcDbLine
 10
564.0424873710238
 20
-103.1299673283809
 30
0.0
 11
559.5924873710239
 21
-103.1299673283809
 31
0.0
  0
LINE
  5
47F6
330
2
100
AcDbEntity
  8
AM_VIS
100
AcDbLine
 10
597.1424873710239
 20
-103.129967328381
 30
0.0
 11
597.1424873710239
 21
-113.129967328381
 31
0.0
  0
LINE
  5
47F7
330
2
100
AcDbEntity
  8
AM_VIS
100
AcDbLine
 10
597.1424873710239
 20
-113.129967328381
 30
0.0
 11
610.1424873710239
 21
-113.1299673283809
 31
0.0
  0
LINE
  5
47F8
330
2
100
AcDbEntity
  8
AM_VIS
100
AcDbLine
 10
610.1417205029986
 20
-109.8760210224844
 30
0.0
 11
612.1415588603113
 21
-109.6470399216235
 31
0.0
  0
LINE
  5
47F9
330
2
100
AcDbEntity
  8
AM_VIS
100
AcDbLine
 10
612.1424873710239
 20
-110.7299673283809
 30
0.0
 11
610.1424873710239
 21
-110.7299673283809
 31
0.0
  0
LINE
  5
47FA
330
2
100
AcDbEntity
  8
AM_VIS
100
AcDbLine
 10
610.1424873710239
 20
-113.129967328381
 30
0.0
 11
610.1424873710239
 21
-103.129967328381
 31
0.0
  0
LINE
  5
47FB
330
2
100
AcDbEntity
  8
AM_VIS
100
AcDbLine
 10
597.1424873710239
 20
-103.129967328381
 30
0.0
 11
610.1424873710239
 21
-103.129967328381
 31
0.0
  0
LINE
  5
47FC
330
2
100
AcDbEntity
  8
AM_VIS
100
AcDbLine
 10
610.1424873710239
 20
-105.5299673283809
 30
0.0
 11
612.1424873710239
 21
-105.5299673283809
 31
0.0
  0
LINE
  5
47FD
330
2
100
AcDbEntity
  8
AM_VIS
100
AcDbLine
 10
610.1417205029986
 20
-106.3839136342774
 30
0.0
 11
612.1415588603113
 21
-106.6128947351383
 31
0.0
  0
LINE
  5
47FE
330
2
100
AcDbEntity
  8
AM_VIS
100
AcDbLine
 10
612.1424873710239
 20
-109.5996611740509
 30
0.0
 11
612.3424873710239
 21
-109.5996611740509
 31
0.0
  0
LINE
  5
47FF
330
2
100
AcDbEntity
  8
AM_VIS
100
AcDbLine
 10
612.3424873710239
 20
-106.660273482711
 30
0.0
 11
612.1424873710239
 21
-106.660273482711
 31
0.0
  0
CIRCLE
  5
4800
330
2
100
AcDbEntity
  8
AM_VIS
100
AcDbCircle
 10
603.6424873710238
 20
-108.129967328381
 30
0.0
 40
3.399999999999999
  0
CIRCLE
  5
4801
330
2
100
AcDbEntity
  8
AM_VIS
100
AcDbCircle
 10
603.6424873710238
 20
-108.129967328381
 30
0.0
 40
2.7
  0
CIRCLE
  5
4802
330
2
100
AcDbEntity
  8
AM_VIS
100
AcDbCircle
 10
603.6424873710238
 20
-108.129967328381
 30
0.0
 40
2.5
  0
CIRCLE
  5
4803
330
2
100
AcDbEntity
  8
AM_VIS
100
AcDbCircle
 10
603.6424873710238
 20
-108.129967328381
 30
0.0
 40
2.399999999999999
  0
LINE
  5
4804
330
2
100
AcDbEntity
  8
AM_VIS
100
AcDbLine
 10
612.1424873710239
 20
-106.6047854574244
 30
0.0
 11
612.1424873710239
 21
-109.6551491993375
 31
0.0
  0
LINE
  5
4805
330
2
100
AcDbEntity
  8
AM_VIS
100
AcDbLine
 10
612.1424873710239
 20
-109.6551491993375
 30
0.0
 11
612.1424873710239
 21
-110.7299673283809
 31
0.0
  0
LINE
  5
4806
330
2
100
AcDbEntity
  8
AM_VIS
100
AcDbLine
 10
612.1424873710239
 20
-105.5299673283809
 30
0.0
 11
612.1424873710239
 21
-106.6047854574244
 31
0.0
  0
LINE
  5
4807
330
2
100
AcDbEntity
  8
AM_VIS
100
AcDbLine
 10
612.3424873710239
 20
-106.660273482711
 30
0.0
 11
612.3424873710239
 21
-109.5996611740509
 31
0.0
  0
LINE
  5
4808
330
2
100
AcDbEntity
  8
AM_VIS
100
AcDbLine
 10
610.1424873710239
 20
-113.1299673283809
 30
0.0
 11
610.6424873710238
 21
-113.1299673283809
 31
0.0
  0
LINE
  5
4809
330
2
100
AcDbEntity
  8
AM_VIS
100
AcDbLine
 10
610.6424873710238
 20
-103.1299673283809
 30
0.0
 11
610.1424873710239
 21
-103.1299673283809
 31
0.0
  0
LINE
  5
480A
330
2
100
AcDbEntity
  8
AM_VIS
100
AcDbLine
 10
612.1424873710239
 20
-105.5299673283809
 30
0.0
 11
612.1424873710239
 21
-103.1299673283809
 31
0.0
  0
LINE
  5
480B
330
2
100
AcDbEntity
  8
AM_VIS
100
AcDbLine
 10
610.6424873710238
 20
-103.1299673283809
 30
0.0
 11
610.6424873710238
 21
-105.5299673283809
 31
0.0
  0
LINE
  5
480C
330
2
100
AcDbEntity
  8
AM_VIS
100
AcDbLine
 10
612.1424873710239
 20
-103.1299673283809
 30
0.0
 11
610.6424873710238
 21
-103.1299673283809
 31
0.0
  0
LINE
  5
480D
330
2
100
AcDbEntity
  8
AM_VIS
100
AcDbLine
 10
612.1424873710239
 20
-113.1299673283809
 30
0.0
 11
612.1424873710239
 21
-110.7299673283809
 31
0.0
  0
LINE
  5
480E
330
2
100
AcDbEntity
  8
AM_VIS
100
AcDbLine
 10
610.6424873710238
 20
-113.1299673283809
 30
0.0
 11
612.1424873710239
 21
-113.1299673283809
 31
0.0
  0
LINE
  5
480F
330
2
100
AcDbEntity
  8
AM_VIS
100
AcDbLine
 10
610.6424873710238
 20
-110.7299673283809
 30
0.0
 11
610.6424873710238
 21
-113.1299673283809
 31
0.0
  0
LINE
  5
4810
330
2
100
AcDbEntity
  8
AM_VIS
100
AcDbLine
 10
612.1424873710239
 20
-103.1299673283809
 30
0.0
 11
613.6424873710239
 21
-103.1299673283809
 31
0.0
  0
LINE
  5
4811
330
2
100
AcDbEntity
  8
AM_VIS
100
AcDbLine
 10
613.6424873710239
 20
-103.1299673283809
 30
0.0
 11
613.6424873710239
 21
-113.1299673283809
 31
0.0
  0
LINE
  5
4812
330
2
100
AcDbEntity
  8
AM_VIS
100
AcDbLine
 10
612.1424873710239
 20
-113.1299673283809
 30
0.0
 11
613.6424873710239
 21
-113.1299673283809
 31
0.0
  0
LINE
  5
4813
330
2
100
AcDbEntity
  8
AM_VIS
100
AcDbLine
 10
615.1424873710238
 20
-112.1299673283809
 30
0.0
 11
613.6424873710239
 21
-113.1299673283809
 31
0.0
  0
LINE
  5
4814
330
2
100
AcDbEntity
  8
AM_VIS
100
AcDbLine
 10
613.6424873710239
 20
-103.1299673283809
 30
0.0
 11
615.1424873710238
 21
-104.1299673283809
 31
0.0
  0
LINE
  5
4815
330
2
100
AcDbEntity
  8
AM_VIS
100
AcDbLine
 10
615.1424873710238
 20
-111.8799673283809
 30
0.0
 11
618.6424873710238
 21
-111.8799673283809
 31
0.0
  0
LINE
  5
4816
330
2
100
AcDbEntity
  8
AM_VIS
100
AcDbLine
 10
615.1424873710238
 20
-104.3799673283809
 30
0.0
 11
618.6424873710238
 21
-104.3799673283809
 31
0.0
  0
LINE
  5
4817
330
2
100
AcDbEntity
  8
AM_VIS
100
AcDbLine
 10
619.6424873710238
 20
-111.2799673283809
 30
0.0
 11
619.6424873710238
 21
-104.9799673283809
 31
0.0
  0
LINE
  5
4818
330
2
100
AcDbEntity
  8
AM_VIS
100
AcDbLine
 10
618.6424873710238
 20
-111.8799673283809
 30
0.0
 11
619.6424873710238
 21
-111.2799673283809
 31
0.0
  0
LINE
  5
4819
330
2
100
AcDbEntity
  8
AM_VIS
100
AcDbLine
 10
618.6424873710238
 20
-104.3799673283809
 30
0.0
 11
618.6424873710238
 21
-111.8799673283809
 31
0.0
  0
LINE
  5
481A
330
2
100
AcDbEntity
  8
AM_VIS
100
AcDbLine
 10
619.6424873710238
 20
-104.9799673283809
 30
0.0
 11
618.6424873710238
 21
-104.3799673283809
 31
0.0
  0
LINE
  5
481B
330
2
100
AcDbEntity
  8
AM_VIS
100
AcDbLine
 10
615.1424873710238
 20
-112.1299673283809
 30
0.0
 11
615.1424873710238
 21
-104.1299673283809
 31
0.0
  0
LINE
  5
481E
330
2
100
AcDbEntity
  8
AM_VIS
100
AcDbLine
 10
571.5924873710239
 20
-113.1299673283809
 30
0.0
 11
571.0924873710239
 21
-113.6299673283809
 31
0.0
  0
LINE
  5
481F
330
2
100
AcDbEntity
  8
AM_VIS
100
AcDbLine
 10
571.0924873710239
 20
-113.6299673283809
 30
0.0
 11
570.0924873710239
 21
-113.6299673283809
 31
0.0
  0
LINE
  5
4820
102
{ACAD_REACTORS
330
5171
102
}
330
2
100
AcDbEntity
  8
AM_VIS
100
AcDbLine
 10
570.0924873710239
 20
-113.6299673283809
 30
0.0
 11
569.5924873710239
 21
-113.1299673283809
 31
0.0
  0
LINE
  5
4821
330
2
100
AcDbEntity
  8
AM_VIS
100
AcDbLine
 10
569.5924873710239
 20
-113.1299673283809
 30
0.0
 11
564.0424873710238
 21
-113.1299673283809
 31
0.0
  0
LINE
  5
4822
330
2
100
AcDbEntity
  8
AM_VIS
100
AcDbLine
 10
564.0424873710238
 20
-103.1299673283809
 30
0.0
 11
564.0424873710238
 21
-113.1299673283809
 31
0.0
  0
LINE
  5
4823
330
2
100
AcDbEntity
  8
AM_VIS
100
AcDbLine
 10
567.2924873710238
 20
-103.1299673283809
 30
0.0
 11
564.0424873710238
 21
-103.1299673283809
 31
0.0
  0
LINE
  5
4824
330
2
100
AcDbEntity
  8
AM_VIS
100
AcDbLine
 10
567.7924873710238
 20
-103.6299673283809
 30
0.0
 11
567.2924873710238
 21
-103.1299673283809
 31
0.0
  0
LINE
  5
4825
330
2
100
AcDbEntity
  8
AM_VIS
100
AcDbLine
 10
571.1924873710238
 20
-103.6299673283809
 30
0.0
 11
567.7924873710238
 21
-103.6299673283809
 31
0.0
  0
LINE
  5
4826
330
2
100
AcDbEntity
  8
AM_VIS
100
AcDbLine
 10
571.6924873710238
 20
-103.1299673283809
 30
0.0
 11
571.1924873710238
 21
-103.6299673283809
 31
0.0
  0
LINE
  5
4827
330
2
100
AcDbEntity
  8
AM_VIS
100
AcDbLine
 10
576.5924873710239
 20
-103.1299673283809
 30
0.0
 11
571.6924873710238
 21
-103.1299673283809
 31
0.0
  0
LINE
  5
4828
330
2
100
AcDbEntity
  8
AM_VIS
100
AcDbLine
 10
576.5924873710239
 20
-103.1299673283809
 30
0.0
 11
577.0924873710239
 21
-102.6299673283809
 31
0.0
  0
LINE
  5
4829
102
{ACAD_REACTORS
330
5171
102
}
330
2
100
AcDbEntity
  8
AM_VIS
100
AcDbLine
 10
577.0924873710239
 20
-102.6299673283809
 30
0.0
 11
578.0924873710239
 21
-102.6299673283809
 31
0.0
  0
LINE
  5
482A
330
2
100
AcDbEntity
  8
AM_VIS
100
AcDbLine
 10
578.0924873710239
 20
-102.6299673283809
 30
0.0
 11
578.5924873710239
 21
-103.1299673283809
 31
0.0
  0
LINE
  5
482B
330
2
100
AcDbEntity
  8
AM_VIS
100
AcDbLine
 10
587.6424873710239
 20
-103.1299673283809
 30
0.0
 11
578.5924873710239
 21
-103.1299673283809
 31
0.0
  0
LINE
  5
482C
330
2
100
AcDbEntity
  8
AM_VIS
100
AcDbLine
 10
587.6424873710239
 20
-113.1299673283809
 30
0.0
 11
587.6424873710239
 21
-103.1299673283809
 31
0.0
  0
LINE
  5
482D
330
2
100
AcDbEntity
  8
AM_VIS
100
AcDbLine
 10
587.6424873710239
 20
-113.1299673283809
 30
0.0
 11
578.6924873710238
 21
-113.1299673283809
 31
0.0
  0
LINE
  5
482E
330
2
100
AcDbEntity
  8
AM_VIS
100
AcDbLine
 10
574.2924873710238
 20
-113.1299673283809
 30
0.0
 11
571.5924873710239
 21
-113.1299673283809
 31
0.0
  0
LINE
  5
482F
330
2
100
AcDbEntity
  8
AM_VIS
100
AcDbLine
 10
574.2924873710238
 20
-113.1299673283809
 30
0.0
 11
574.7924873710238
 21
-112.6299673283809
 31
0.0
  0
LINE
  5
4830
330
2
100
AcDbEntity
  8
AM_VIS
100
AcDbLine
 10
574.7924873710238
 20
-112.6299673283809
 30
0.0
 11
578.1924873710238
 21
-112.6299673283809
 31
0.0
  0
LINE
  5
4831
330
2
100
AcDbEntity
  8
AM_VIS
100
AcDbLine
 10
578.1924873710238
 20
-112.6299673283809
 30
0.0
 11
578.6924873710238
 21
-113.1299673283809
 31
0.0
  0
CIRCLE
  5
4832
330
2
100
AcDbEntity
  8
AM_VIS
100
AcDbCircle
 10
575.8424873710239
 20
-108.1299673283809
 30
0.0
 40
1.0
  0
CIRCLE
  5
4833
330
2
100
AcDbEntity
  8
AM_VIS
100
AcDbCircle
 10
577.5924873710239
 20
-104.0299673283809
 30
0.0
 40
0.85
  0
CIRCLE
  5
4834
330
2
100
AcDbEntity
  8
AM_VIS
100
AcDbCircle
 10
570.5924873710239
 20
-112.2299673283809
 30
0.0
 40
0.85
  0
CIRCLE
  5
4835
330
2
100
AcDbEntity
  8
AM_VIS
100
AcDbCircle
 10
568.8424873710239
 20
-108.1299673283809
 30
0.0
 40
1.0
  0
CIRCLE
  5
4836
330
2
100
AcDbEntity
  8
AM_VIS
100
AcDbCircle
 10
582.8424873710239
 20
-108.1299673283809
 30
0.0
 40
1.0
  0
CIRCLE
  5
4837
330
2
100
AcDbEntity
  8
AM_VIS
100
AcDbCircle
 10
572.3424873710239
 20
-110.1299673283809
 30
0.0
 40
1.0
  0
CIRCLE
  5
4838
102
{ACAD_REACTORS
330
5198
102
}
330
2
100
AcDbEntity
  8
AM_VIS
100
AcDbCircle
 10
579.3424873710239
 20
-106.1299673283809
 30
0.0
 40
1.0
  0
LINE
  5
4839
330
2
100
AcDbEntity
  8
AM_VIS
100
AcDbLine
 10
559.8027392006779
 20
-47.60607832876473
 30
0.0
 11
559.8021159127872
 21
-47.60607832876473
 31
0.0
  0
LINE
  5
483A
330
2
100
AcDbEntity
  8
AM_VIS
100
AcDbLine
 10
559.802115912787
 20
-47.2962302562023
 30
0.0
 11
559.9439018726186
 21
-47.2962302562023
 31
0.0
  0
LINE
  5
483B
330
2
100
AcDbEntity
  8
AM_VIS
100
AcDbLine
 10
559.9443073142466
 20
-47.28652603395807
 30
0.0
 11
559.802115912787
 21
-47.28652603395807
 31
0.0
  0
LINE
  5
483C
330
2
100
AcDbEntity
  8
AM_VIS
100
AcDbLine
 10
561.0924873710239
 20
-46.88952574507638
 30
0.0
 11
561.0924873710239
 21
-48.00307861764242
 31
0.0
  0
ELLIPSE
  5
483D
330
2
100
AcDbEntity
  8
AM_VIS
100
AcDbEllipse
 10
562.2924873710238
 20
-47.45115429248153
 30
0.0
 11
2.495190373498582
 21
-0.0000000000000011
 31
0.0
210
0.0
220
0.0
230
1.0
 40
0.9995099114916117
 41
3.203752183251133
 42
3.485155507044237
  0
ELLIPSE
  5
483E
330
2
100
AcDbEntity
  8
AM_VIS
100
AcDbEllipse
 10
561.7100784160718
 20
-46.77131260528932
 30
0.0
 11
1.768284764505587
 21
1.525749312677538
 31
0.0
210
0.0
220
0.0
230
1.0
 40
0.0237058193562346
 41
3.054726489433899
 42
3.132538457567109
  0
ELLIPSE
  5
483F
330
2
100
AcDbEntity
  8
AM_VIS
100
AcDbEllipse
 10
562.2924873710238
 20
-47.44145007023726
 30
0.0
 11
2.495190373498582
 21
-0.0000000000000011
 31
0.0
210
0.0
220
0.0
230
1.0
 40
0.9995099114916117
 41
3.203752183251127
 42
3.487773453070436
  0
ELLIPSE
  5
4840
330
2
100
AcDbEntity
  8
AM_VIS
100
AcDbEllipse
 10
562.2924873710238
 20
-47.44145007023726
 30
0.0
 11
2.495190373498582
 21
-0.0000000000000011
 31
0.0
210
0.0
220
0.0
230
1.0
 40
0.9995099114916117
 41
2.795411854110827
 42
3.079433123930057
  0
ELLIPSE
  5
4841
330
2
100
AcDbEntity
  8
AM_VIS
100
AcDbEllipse
 10
561.7100784160759
 20
-48.12129175742888
 30
0.0
 11
1.768284764511111
 21
-1.525749312672966
 31
0.0
210
0.0
220
0.0
230
1.0
 40
0.0237058193562971
 41
3.09562951073638
 42
3.205774235520407
  0
ELLIPSE
  5
4842
330
2
100
AcDbEntity
  8
AM_VIS
100
AcDbEllipse
 10
562.2924873710238
 20
-47.45115429248153
 30
0.0
 11
2.495190373498582
 21
-0.0000000000000011
 31
0.0
210
0.0
220
0.0
230
1.0
 40
0.9995099114916117
 41
3.075534033575729
 42
3.079433123930062
  0
ELLIPSE
  5
4843
330
2
100
AcDbEntity
  8
AM_VIS
100
AcDbEllipse
 10
561.7100784160763
 20
-47.46744237695446
 30
0.0
 11
0.0847192597916111
 21
-2.334001846731583
 31
0.0
210
0.0
220
0.0
230
0.9999999999999998
 40
0.7569078954683901
 41
4.598055593073517
 42
4.730884900082694
  0
ELLIPSE
  5
4844
330
2
100
AcDbEntity
  8
AM_VIS
100
AcDbEllipse
 10
562.2924873710238
 20
-47.29137814508018
 30
0.0
 11
2.495190373498707
 21
-0.0000000000000013
 31
0.0
210
0.0
220
0.0
230
1.0
 40
0.0313039427234114
 41
3.203752183250315
 42
3.485155507043433
  0
ELLIPSE
  5
4845
330
2
100
AcDbEntity
  8
AM_VIS
100
AcDbEllipse
 10
562.2924873710238
 20
-47.29137814508018
 30
0.0
 11
2.495190373498707
 21
-0.0000000000000013
 31
0.0
210
0.0
220
0.0
230
1.0
 40
0.0313039427234114
 41
2.79541185410996
 42
3.079433123929256
  0
ELLIPSE
  5
4846
330
2
100
AcDbEntity
  8
AM_VIS
100
AcDbEllipse
 10
561.7100784160763
 20
-47.42516198576433
 30
0.0
 11
0.0847192597916136
 21
2.334001846731582
 31
0.0
210
0.0
220
0.0
230
0.9999999999999998
 40
0.7569078954683903
 41
1.552300407098598
 42
1.662445131883446
  0
ELLIPSE
  5
4847
330
2
100
AcDbEntity
  8
AM_VIS
100
AcDbEllipse
 10
562.2924873710238
 20
-47.60122621764259
 30
0.0
 11
2.495190373498459
 21
-0.0000000000000013
 31
0.0
210
0.0
220
0.0
230
1.0
 40
0.0313039427234114
 41
2.795411854109997
 42
3.079433123929256
  0
ARC
  5
4848
330
2
100
AcDbEntity
  8
AM_VIS
100
AcDbCircle
 10
560.6766149587754
 20
-48.36747336378682
 30
0.0
 40
0.6400000000000002
100
AcDbArc
 50
209.686456186922
 51
244.7452834390784
  0
ARC
  5
4849
330
2
100
AcDbEntity
  8
AM_VIS
100
AcDbCircle
 10
560.6766149587754
 20
-46.52513099893201
 30
0.0
 40
0.6400000000000002
100
AcDbArc
 50
115.2547165608925
 51
150.3135438130779
  0
ARC
  5
484A
330
2
100
AcDbEntity
  8
AM_VIS
100
AcDbCircle
 10
562.2924873710238
 20
-47.44630218135938
 30
0.0
 40
2.5
100
AcDbArc
 50
150.3135438130793
 51
160.1153842364362
  0
ARC
  5
484B
330
2
100
AcDbEntity
  8
AM_VIS
100
AcDbCircle
 10
562.2924873710238
 20
-47.44630218135938
 30
0.0
 40
2.5
100
AcDbArc
 50
199.8846157636606
 51
209.6864561869207
  0
LINE
  5
484C
330
2
100
AcDbEntity
  8
AM_VIS
100
AcDbLine
 10
595.9424873710238
 20
-59.00307861764256
 30
0.0
 11
595.9424873710238
 21
-57.8895257450763
 31
0.0
  0
LINE
  5
484D
330
2
100
AcDbEntity
  8
AM_VIS
100
AcDbLine
 10
597.1424873710239
 20
-58.29130218135943
 30
0.0
 11
597.0896517088646
 21
-58.29130218135943
 31
0.0
  0
ELLIPSE
  5
484E
330
2
100
AcDbEntity
  8
AM_VIS
100
AcDbEllipse
 10
595.3248963259759
 20
-58.44630218135943
 30
0.0
 11
-0.000000000000001
 21
-2.335538904304221
 31
0.0
210
0.0
220
0.0
230
1.0
 40
0.7572790292165315
 41
1.504381673290256
 42
1.637210980299539
  0
LINE
  5
484F
330
2
100
AcDbEntity
  8
AM_VIS
100
AcDbLine
 10
597.0896517088645
 20
-58.60130218135946
 30
0.0
 11
597.1424873710239
 21
-58.60130218135946
 31
0.0
  0
ARC
  5
4850
330
2
100
AcDbEntity
  8
AM_VIS
100
AcDbCircle
 10
594.7424873710239
 20
-58.44630218135944
 30
0.0
 40
2.495190373498459
100
AcDbArc
 50
15.87715702472721
 51
19.83469875865789
  0
LINE
  5
4851
330
2
100
AcDbEntity
  8
AM_VIS
100
AcDbLine
 10
597.0896517088651
 20
-59.29293939479008
 30
0.0
 11
597.0935509601256
 21
-59.29630218135945
 31
0.0
  0
LINE
  5
4852
330
2
100
AcDbEntity
  8
AM_VIS
100
AcDbLine
 10
597.0935509601256
 20
-57.59630218135942
 30
0.0
 11
597.0896517088651
 21
-57.59966496792879
 31
0.0
  0
ARC
  5
4853
330
2
100
AcDbEntity
  8
AM_VIS
100
AcDbCircle
 10
594.7424873710239
 20
-58.44630218135944
 30
0.0
 40
2.495190373498459
100
AcDbArc
 50
340.1653012413421
 51
344.1228429752728
  0
ARC
  5
4854
330
2
100
AcDbEntity
  8
AM_VIS
100
AcDbCircle
 10
596.3583597832723
 20
-57.52513099893203
 30
0.0
 40
0.6400000000000002
100
AcDbArc
 50
29.68645618692206
 51
64.74528343910022
  0
ARC
  5
4855
330
2
100
AcDbEntity
  8
AM_VIS
100
AcDbCircle
 10
596.3583597832723
 20
-59.36747336378683
 30
0.0
 40
0.6400000000000002
100
AcDbArc
 50
295.2547165609077
 51
330.3135438130733
  0
ARC
  5
4856
330
2
100
AcDbEntity
  8
AM_VIS
100
AcDbCircle
 10
594.7424873710239
 20
-58.44630218135944
 30
0.0
 40
2.5
100
AcDbArc
 50
19.87687407007918
 51
29.68645618692065
  0
ARC
  5
4857
330
2
100
AcDbEntity
  8
AM_VIS
100
AcDbCircle
 10
594.7424873710239
 20
-58.44630218135944
 30
0.0
 40
2.5
100
AcDbArc
 50
330.3135438130793
 51
340.1231259299208
  0
LINE
  5
4858
330
2
100
AcDbEntity
  8
AM_VIS
100
AcDbLine
 10
587.6424873710239
 20
-45.44630218135938
 30
0.0
 11
587.6424873710239
 21
-51.94630218135938
 31
0.0
  0
LINE
  5
4859
330
2
100
AcDbEntity
  8
AM_VIS
100
AcDbLine
 10
587.6424873710239
 20
-45.44630218135938
 30
0.0
 11
597.1424873710239
 21
-45.44630218135938
 31
0.0
  0
LINE
  5
485A
330
2
100
AcDbEntity
  8
AM_VIS
100
AcDbLine
 10
595.9424873710238
 20
-56.9463021813594
 30
0.0
 11
597.1424873710239
 21
-56.9463021813594
 31
0.0
  0
LINE
  5
485B
330
2
100
AcDbEntity
  8
AM_VIS
100
AcDbLine
 10
595.9424873710238
 20
-59.9463021813594
 30
0.0
 11
595.9424873710238
 21
-59.00307861764256
 31
0.0
  0
LINE
  5
485C
330
2
100
AcDbEntity
  8
AM_VIS
100
AcDbLine
 10
595.9424873710238
 20
-57.8895257450763
 30
0.0
 11
595.9424873710238
 21
-56.9463021813594
 31
0.0
  0
LINE
  5
485D
330
2
100
AcDbEntity
  8
AM_VIS
100
AcDbLine
 10
597.1424873710239
 20
-59.9463021813594
 30
0.0
 11
595.9424873710238
 21
-59.9463021813594
 31
0.0
  0
LINE
  5
485E
330
2
100
AcDbEntity
  8
AM_VIS
100
AcDbLine
 10
587.6424873710239
 20
-60.4463021813594
 30
0.0
 11
597.1424873710239
 21
-60.4463021813594
 31
0.0
  0
LINE
  5
485F
330
2
100
AcDbEntity
  8
AM_VIS
100
AcDbLine
 10
587.6424873710239
 20
-53.9463021813594
 30
0.0
 11
587.6424873710239
 21
-60.4463021813594
 31
0.0
  0
LINE
  5
4860
330
2
100
AcDbEntity
  8
AM_VIS
100
AcDbLine
 10
588.1424873710239
 20
-51.9463021813594
 30
0.0
 11
588.1424873710239
 21
-53.9463021813594
 31
0.0
  0
LINE
  5
4861
330
2
100
AcDbEntity
  8
AM_VIS
100
AcDbLine
 10
588.1424873710239
 20
-53.9463021813594
 30
0.0
 11
587.6424873710239
 21
-53.9463021813594
 31
0.0
  0
LINE
  5
4862
330
2
100
AcDbEntity
  8
AM_VIS
100
AcDbLine
 10
587.6424873710239
 20
-51.9463021813594
 30
0.0
 11
588.1424873710239
 21
-51.9463021813594
 31
0.0
  0
LINE
  5
4865
330
2
100
AcDbEntity
  8
AM_VIS
100
AcDbLine
 10
597.1424873710239
 20
-60.4463021813594
 30
0.0
 11
597.1424873710239
 21
-59.94630218135942
 31
0.0
  0
LINE
  5
4866
330
2
100
AcDbEntity
  8
AM_VIS
100
AcDbLine
 10
597.1424873710239
 20
-56.9463021813594
 30
0.0
 11
597.1424873710239
 21
-45.44630218135938
 31
0.0
  0
CIRCLE
  5
4868
330
2
100
AcDbEntity
  8
AM_VIS
100
AcDbCircle
 10
594.1424873710238
 20
-52.6463021813594
 30
0.0
 40
0.7
  0
LINE
  5
4869
330
2
100
AcDbEntity
  8
AM_VIS
100
AcDbLine
 10
559.5924873710239
 20
-45.44630218135933
 30
0.0
 11
559.5924873710239
 21
-45.94630218135932
 31
0.0
  0
LINE
  5
486A
102
{ACAD_REACTORS
330
4B91
102
}
330
2
100
AcDbEntity
  8
AM_VIS
100
AcDbLine
 10
564.0424873710238
 20
-45.44630218135933
 30
0.0
 11
559.5924873710239
 21
-45.44630218135933
 31
0.0
  0
LINE
  5
486B
330
2
100
AcDbEntity
  8
AM_VIS
100
AcDbLine
 10
564.0424873710238
 20
-60.44630218135933
 30
0.0
 11
564.0424873710238
 21
-45.44630218135933
 31
0.0
  0
LINE
  5
486C
330
2
100
AcDbEntity
  8
AM_VIS
100
AcDbLine
 10
564.0424873710238
 20
-60.44630218135933
 30
0.0
 11
559.5924873710239
 21
-60.44630218135933
 31
0.0
  0
LINE
  5
486D
102
{ACAD_REACTORS
330
4B91
330
4C93
330
4CBD
102
}
330
2
100
AcDbEntity
  8
AM_VIS
100
AcDbLine
 10
559.5924873710239
 20
-48.94630218135933
 30
0.0
 11
559.5924873710239
 21
-60.44630218135933
 31
0.0
  0
LINE
  5
486E
330
2
100
AcDbEntity
  8
AM_VIS
100
AcDbLine
 10
561.0924873710239
 20
-45.94630218135932
 30
0.0
 11
561.0924873710239
 21
-46.88952574507638
 31
0.0
  0
LINE
  5
486F
330
2
100
AcDbEntity
  8
AM_VIS
100
AcDbLine
 10
561.0924873710239
 20
-48.00307861764242
 30
0.0
 11
561.0924873710239
 21
-48.94630218135933
 31
0.0
  0
LINE
  5
4870
330
2
100
AcDbEntity
  8
AM_VIS
100
AcDbLine
 10
561.0924873710239
 20
-48.94630218135933
 30
0.0
 11
559.5924873710239
 21
-48.94630218135933
 31
0.0
  0
LINE
  5
4871
330
2
100
AcDbEntity
  8
AM_VIS
100
AcDbLine
 10
559.5924873710239
 20
-45.94630218135932
 30
0.0
 11
561.0924873710239
 21
-45.94630218135932
 31
0.0
  0
LINE
  5
4872
330
2
100
AcDbEntity
  8
AM_VIS
100
AcDbLine
 10
559.5924873710239
 20
-48.94630218135933
 30
0.0
 11
559.5924873710239
 21
-45.94630218135932
 31
0.0
  0
LINE
  5
4873
330
2
100
AcDbEntity
  8
AM_VIS
100
AcDbLine
 10
612.1424873710239
 20
-52.14630218135939
 30
0.0
 11
612.1424873710239
 21
-52.64633159337853
 31
0.0
  0
LINE
  5
4874
330
2
100
AcDbEntity
  8
AM_VIS
100
AcDbLine
 10
599.7424873710238
 20
-58.44630218135939
 30
0.0
 11
607.4424873710238
 21
-58.44630218135939
 31
0.0
  0
LINE
  5
4875
330
2
100
AcDbEntity
  8
AM_VIS
100
AcDbLine
 10
599.7424873710238
 20
-59.54630218135936
 30
0.0
 11
599.7424873710238
 21
-58.44630218135937
 31
0.0
  0
LINE
  5
4876
330
2
100
AcDbEntity
  8
AM_VIS
100
AcDbLine
 10
607.4424873710238
 20
-59.54630218135939
 30
0.0
 11
599.7424873710238
 21
-59.54630218135939
 31
0.0
  0
LINE
  5
4877
330
2
100
AcDbEntity
  8
AM_VIS
100
AcDbLine
 10
607.4424873710238
 20
-58.44630218135939
 30
0.0
 11
607.4424873710238
 21
-59.54630218135939
 31
0.0
  0
LINE
  5
4878
330
2
100
AcDbEntity
  8
AM_VIS
100
AcDbLine
 10
610.1424873710239
 20
-60.4463021813594
 30
0.0
 11
610.1424873710239
 21
-56.1663021813594
 31
0.0
  0
LINE
  5
4879
102
{ACAD_REACTORS
330
4C93
102
}
330
2
100
AcDbEntity
  8
AM_VIS
100
AcDbLine
 10
597.1424873710239
 20
-60.44630218135937
 30
0.0
 11
610.1424873710239
 21
-60.44630218135939
 31
0.0
  0
LINE
  5
487A
330
2
100
AcDbEntity
  8
AM_VIS
100
AcDbLine
 10
597.1424873710239
 20
-52.64630218135938
 30
0.0
 11
597.1424873710239
 21
-60.44630218135937
 31
0.0
  0
LINE
  5
487B
330
2
100
AcDbEntity
  8
AM_VIS
100
AcDbLine
 10
608.6424873710239
 20
-52.6463021813594
 30
0.0
 11
597.1424873710239
 21
-52.6463021813594
 31
0.0
  0
LINE
  5
487C
330
2
100
AcDbEntity
  8
AM_VIS
100
AcDbLine
 10
608.6424873710239
 20
-56.1663021813594
 30
0.0
 11
608.6424873710239
 21
-52.6463021813594
 31
0.0
  0
LINE
  5
487D
330
2
100
AcDbEntity
  8
AM_VIS
100
AcDbLine
 10
610.1424873710239
 20
-52.64633159337853
 30
0.0
 11
612.1424873710239
 21
-52.64633159337853
 31
0.0
  0
LINE
  5
487E
330
2
100
AcDbEntity
  8
AM_VIS
100
AcDbLine
 10
610.1435939073391
 20
-55.38591236520426
 30
0.0
 11
612.1438677911631
 21
-54.93326586017906
 31
0.0
  0
LINE
  5
487F
330
2
100
AcDbEntity
  8
AM_VIS
100
AcDbLine
 10
610.1424873710239
 20
-56.1663021813594
 30
0.0
 11
608.6424873710239
 21
-56.1663021813594
 31
0.0
  0
LINE
  5
4880
330
2
100
AcDbEntity
  8
AM_VIS
100
AcDbLine
 10
612.3424873710239
 20
-53.2463021813594
 30
0.0
 11
612.1424873710239
 21
-53.2463021813594
 31
0.0
  0
LINE
  5
4881
330
2
100
AcDbEntity
  8
AM_VIS
100
AcDbLine
 10
612.1424873710239
 20
-52.64630218135939
 30
0.0
 11
612.3424873710239
 21
-52.64630218135939
 31
0.0
  0
LINE
  5
4882
330
2
100
AcDbEntity
  8
AM_VIS
100
AcDbLine
 10
607.0424873710238
 20
-59.54630218135938
 30
0.0
 11
607.0424873710238
 21
-58.44630218135939
 31
0.0
  0
LINE
  5
4883
330
2
100
AcDbEntity
  8
AM_VIS
100
AcDbLine
 10
600.2424873710239
 20
-59.54630218135936
 30
0.0
 11
600.2424873710239
 21
-58.44630218135937
 31
0.0
  0
LINE
  5
4884
330
2
100
AcDbEntity
  8
AM_VIS
100
AcDbLine
 10
612.1424873710239
 20
-55.44630218135939
 30
0.0
 11
610.1424873710239
 21
-55.94630218135939
 31
0.0
  0
LINE
  5
4885
330
2
100
AcDbEntity
  8
AM_VIS
100
AcDbLine
 10
612.1424873710239
 20
-54.44630218135938
 30
0.0
 11
612.3424873710239
 21
-54.44630218135938
 31
0.0
  0
LINE
  5
4886
330
2
100
AcDbEntity
  8
AM_VIS
100
AcDbLine
 10
612.1424873710239
 20
-51.44630218135938
 30
0.0
 11
612.3424873710239
 21
-51.44630218135938
 31
0.0
  0
LINE
  5
4887
330
2
100
AcDbEntity
  8
AM_VIS
100
AcDbLine
 10
612.1424873710239
 20
-54.92716569521021
 30
0.0
 11
612.1424873710239
 21
-55.44630218135939
 31
0.0
  0
LINE
  5
4888
330
2
100
AcDbEntity
  8
AM_VIS
100
AcDbLine
 10
610.1424873710239
 20
-52.64630218135939
 30
0.0
 11
610.1424873710239
 21
-52.64633159337853
 31
0.0
  0
LINE
  5
4889
330
2
100
AcDbEntity
  8
AM_VIS
100
AcDbLine
 10
612.1424873710239
 20
-52.64633159337853
 30
0.0
 11
612.1424873710239
 21
-54.92716569521021
 31
0.0
  0
LINE
  5
488A
330
2
100
AcDbEntity
  8
AM_VIS
100
AcDbLine
 10
610.1424873710239
 20
-55.38102251038726
 30
0.0
 11
610.1424873710239
 21
-56.16630218135938
 31
0.0
  0
LINE
  5
488B
330
2
100
AcDbEntity
  8
AM_VIS
100
AcDbLine
 10
612.3424873710239
 20
-51.44630218135938
 30
0.0
 11
612.3424873710239
 21
-52.64630218135939
 31
0.0
  0
LINE
  5
488C
330
2
100
AcDbEntity
  8
AM_VIS
100
AcDbLine
 10
612.3424873710239
 20
-53.2463021813594
 30
0.0
 11
612.3424873710239
 21
-54.44630218135938
 31
0.0
  0
LINE
  5
488D
330
2
100
AcDbEntity
  8
AM_VIS
100
AcDbLine
 10
610.1424873710239
 20
-32.94630218135939
 30
0.0
 11
597.1424873710239
 21
-32.94630218135939
 31
0.0
  0
LINE
  5
488E
330
2
100
AcDbEntity
  8
AM_VIS
100
AcDbLine
 10
597.1424873710239
 20
-52.64630218135936
 30
0.0
 11
597.1424873710239
 21
-32.94630218135939
 31
0.0
  0
LINE
  5
488F
330
2
100
AcDbEntity
  8
AM_VIS
100
AcDbLine
 10
612.1424873710239
 20
-52.14630218135939
 30
0.0
 11
612.1424873710239
 21
-49.94630218135938
 31
0.0
  0
LINE
  5
4890
330
2
100
AcDbEntity
  8
AM_VIS
100
AcDbLine
 10
610.1424873710239
 20
-49.94630218135938
 30
0.0
 11
610.1424873710239
 21
-32.94630218135939
 31
0.0
  0
LINE
  5
4891
330
2
100
AcDbEntity
  8
AM_VIS
100
AcDbLine
 10
612.1424873710239
 20
-49.94630218135938
 30
0.0
 11
610.1424873710239
 21
-49.94630218135938
 31
0.0
  0
LINE
  5
4892
330
2
100
AcDbEntity
  8
AM_VIS
100
AcDbLine
 10
610.6424873710238
 20
-52.64630218135938
 30
0.0
 11
597.1424873710239
 21
-52.64630218135938
 31
0.0
  0
LINE
  5
4893
330
2
100
AcDbEntity
  8
AM_VIS
100
AcDbLine
 10
612.1424873710239
 20
-52.14630218135937
 30
0.0
 11
610.6424873710238
 21
-52.64630218135938
 31
0.0
  0
LINE
  5
4894
330
2
100
AcDbEntity
  8
AM_VIS
100
AcDbLine
 10
610.1424873710239
 20
-49.94630218135938
 30
0.0
 11
613.6424873710239
 21
-49.94630218135938
 31
0.0
  0
LINE
  5
4895
330
2
100
AcDbEntity
  8
AM_VIS
100
AcDbLine
 10
610.1424873710239
 20
-32.94630218135939
 30
0.0
 11
610.1424873710239
 21
-49.94630218135938
 31
0.0
  0
LINE
  5
4896
330
2
100
AcDbEntity
  8
AM_VIS
100
AcDbLine
 10
613.6424873710239
 20
-49.9463021813594
 30
0.0
 11
615.1424873710238
 21
-48.44630218135941
 31
0.0
  0
LINE
  5
4897
330
2
100
AcDbEntity
  8
AM_VIS
100
AcDbLine
 10
613.6424873710239
 20
-32.94630218135939
 30
0.0
 11
613.6424873710239
 21
-49.94630218135938
 31
0.0
  0
LINE
  5
4898
330
2
100
AcDbEntity
  8
AM_VIS
100
AcDbLine
 10
615.1424873710238
 20
-34.44630218135939
 30
0.0
 11
613.6424873710239
 21
-32.94630218135939
 31
0.0
  0
LINE
  5
4899
330
2
100
AcDbEntity
  8
AM_VIS
100
AcDbLine
 10
618.6424873710238
 20
-36.94630218135939
 30
0.0
 11
618.6424873710238
 21
-42.34630218135936
 31
0.0
  0
LINE
  5
489A
330
2
100
AcDbEntity
  8
AM_VIS
100
AcDbLine
 10
619.6424873710238
 20
-42.04630218135941
 30
0.0
 11
619.6424873710238
 21
-36.94630218135941
 31
0.0
  0
LINE
  5
489B
330
2
100
AcDbEntity
  8
AM_VIS
100
AcDbLine
 10
615.1424873710238
 20
-42.34630218135939
 30
0.0
 11
618.6424873710238
 21
-42.34630218135939
 31
0.0
  0
LINE
  5
489C
102
{ACAD_REACTORS
330
4CBD
102
}
330
2
100
AcDbEntity
  8
AM_VIS
100
AcDbLine
 10
619.6424873710238
 20
-42.04630218135941
 30
0.0
 11
618.6424873710238
 21
-42.34630218135942
 31
0.0
  0
LINE
  5
489D
330
2
100
AcDbEntity
  8
AM_VIS
100
AcDbLine
 10
619.6424873710238
 20
-36.94630218135939
 30
0.0
 11
618.6424873710238
 21
-36.94630218135939
 31
0.0
  0
LINE
  5
489E
330
2
100
AcDbEntity
  8
AM_VIS
100
AcDbLine
 10
615.1424873710238
 20
-36.94630218135939
 30
0.0
 11
618.6424873710238
 21
-36.94630218135939
 31
0.0
  0
LINE
  5
489F
330
2
100
AcDbEntity
  8
AM_VIS
100
AcDbLine
 10
619.6424873710238
 20
-36.94630218135939
 30
0.0
 11
619.6424873710238
 21
-35.44630218135939
 31
0.0
  0
LINE
  5
48A0
330
2
100
AcDbEntity
  8
AM_VIS
100
AcDbLine
 10
619.6424873710238
 20
-35.44630218135939
 30
0.0
 11
615.1424873710238
 21
-35.44630218135939
 31
0.0
  0
LINE
  5
48A1
330
2
100
AcDbEntity
  8
AM_VIS
100
AcDbLine
 10
615.1424873710238
 20
-48.44630218135939
 30
0.0
 11
615.1424873710238
 21
-34.44630218135939
 31
0.0
  0
LINE
  5
48A2
330
2
100
AcDbEntity
  8
AM_VIS
100
AcDbLine
 10
610.1424873710239
 20
-32.94630218135939
 30
0.0
 11
613.6424873710239
 21
-32.94630218135939
 31
0.0
  0
LINE
  5
48A3
330
2
100
AcDbEntity
  8
AM_VIS
100
AcDbLine
 10
609.7921333308979
 20
-54.45834600539538
 30
0.0
 11
609.8847881527793
 21
-54.44667685121233
 31
0.0
  0
LINE
  5
48A4
330
2
100
AcDbEntity
  8
AM_VIS
100
AcDbLine
 10
609.8632691994122
 20
-53.83278482961573
 30
0.0
 11
609.8847888696004
 21
-53.8218210223898
 31
0.0
  0
LINE
  5
48A5
330
2
100
AcDbEntity
  8
AM_VIS
100
AcDbLine
 10
609.7911332208582
 20
-54.66630815591904
 30
0.0
 11
609.8847881023999
 21
-54.67810453808093
 31
0.0
  0
LINE
  5
48A6
330
2
100
AcDbEntity
  8
AM_VIS
100
AcDbLine
 10
609.1141394586307
 20
-52.78756639215332
 30
0.0
 11
608.6424873710239
 21
-52.74630218135941
 31
0.0
  0
LINE
  5
48A7
330
2
100
AcDbEntity
  8
AM_VIS
100
AcDbLine
 10
609.1141394586307
 20
-55.90503797056557
 30
0.0
 11
608.6424873710239
 21
-55.94630218135948
 31
0.0
  0
ELLIPSE
  5
48A8
330
2
100
AcDbEntity
  8
AM_VIS
100
AcDbEllipse
 10
607.4424873710238
 20
-54.29327303426294
 30
0.0
 11
2.490079065009783
 21
-0.0000000000000016
 31
0.0
210
0.0
220
0.0
230
1.0
 40
0.9711834348606755
 41
0.1962051514771408
 42
0.3428970250348993
  0
ELLIPSE
  5
48A9
330
2
100
AcDbEntity
  8
AM_VIS
100
AcDbEllipse
 10
607.9768491810325
 20
-54.97566165365769
 30
0.0
 11
1.794957342537178
 21
1.524020367793819
 31
0.0
210
0.0
220
0.0
230
1.0
 40
0.1838809272074944
 41
6.033676357464736
 42
6.216405892020739
  0
ELLIPSE
  5
48AA
330
2
100
AcDbEntity
  8
AM_VIS
100
AcDbEllipse
 10
607.4424873710238
 20
-54.39933132845597
 30
0.0
 11
2.490079065009783
 21
-0.0000000000000016
 31
0.0
210
0.0
220
0.0
230
1.0
 40
0.9711834348606755
 41
5.937689964444293
 42
6.086980155702427
  0
ELLIPSE
  5
48AB
330
2
100
AcDbEntity
  8
AM_VIS
100
AcDbEllipse
 10
607.9768491810325
 20
-53.71694270906117
 30
0.0
 11
1.794957342537175
 21
-1.524020367793822
 31
0.0
210
0.0
220
0.0
230
1.0
 40
0.1838809272074954
 41
0.0602411001503978
 42
0.0739494530812532
  0
ELLIPSE
  5
48AC
330
2
100
AcDbEntity
  8
AM_VIS
100
AcDbEllipse
 10
607.4424873710238
 20
-54.56239049561787
 30
0.0
 11
2.490079065009606
 21
-0.0000000000000021
 31
0.0
210
0.0
220
0.0
230
1.0
 40
0.2383332453776022
 41
5.937689964444311
 42
6.086980155702799
  0
ELLIPSE
  5
48AD
330
2
100
AcDbEntity
  8
AM_VIS
100
AcDbEllipse
 10
607.9768491810325
 20
-54.50075012616349
 30
0.0
 11
0.6538164905629058
 21
2.262086191913682
 31
0.0
210
0.0
220
0.0
230
1.0
 40
0.7492958450165216
 41
4.992445536876735
 42
4.999615574798079
  0
ELLIPSE
  5
48AE
330
2
100
AcDbEntity
  8
AM_VIS
100
AcDbEllipse
 10
607.4424873710238
 20
-54.13021386710489
 30
0.0
 11
2.490079065009962
 21
-0.0000000000000021
 31
0.0
210
0.0
220
0.0
230
1.0
 40
0.2383332453776022
 41
5.93768996444426
 42
6.08698015570207
  0
ELLIPSE
  5
48AF
330
2
100
AcDbEntity
  8
AM_VIS
100
AcDbEllipse
 10
607.9768491810325
 20
-54.19185423655538
 30
0.0
 11
0.6538164905628977
 21
-2.262086191913684
 31
0.0
210
0.0
220
0.0
230
1.0
 40
0.7492958450165198
 41
1.108010235745992
 42
1.297278085310448
  0
ELLIPSE
  5
48B0
330
2
100
AcDbEntity
  8
AM_VIS
100
AcDbEllipse
 10
607.4424873710238
 20
-54.56239049561787
 30
0.0
 11
2.490079065009606
 21
-0.0000000000000021
 31
0.0
210
0.0
220
0.0
230
1.0
 40
0.2383332453776022
 41
0.1962051514767866
 42
0.3428970250345853
  0
ELLIPSE
  5
48B1
330
2
100
AcDbEntity
  8
AM_VIS
100
AcDbEllipse
 10
607.4424873710238
 20
-54.39933132845597
 30
0.0
 11
2.490079065009783
 21
-0.0000000000000016
 31
0.0
210
0.0
220
0.0
230
1.0
 40
0.9711834348606755
 41
0.1962051514771408
 42
0.3454953427352922
  0
LINE
  5
48B2
330
2
100
AcDbEntity
  8
AM_VIS
100
AcDbLine
 10
609.8847903825275
 20
-54.44669455574601
 30
0.0
 11
609.8847903825275
 21
-54.67808643548977
 31
0.0
  0
LINE
  5
48B3
330
2
100
AcDbEntity
  8
AM_VIS
100
AcDbLine
 10
609.8847903825275
 20
-53.82182399195073
 30
0.0
 11
609.8847903825275
 21
-53.92788228614375
 31
0.0
  0
LINE
  5
48B4
330
2
100
AcDbEntity
  8
AM_VIS
100
AcDbLine
 10
609.8847903825275
 20
-53.92788228614375
 30
0.0
 11
609.8847903825275
 21
-54.24590980697721
 31
0.0
  0
LINE
  5
48B5
330
2
100
AcDbEntity
  8
AM_VIS
100
AcDbLine
 10
609.8847903825275
 20
-54.67808643548979
 30
0.0
 11
609.8847903825275
 21
-54.87078037076819
 31
0.0
  0
ARC
  5
48B6
330
2
100
AcDbEntity
  8
AM_VIS
100
AcDbCircle
 10
609.0583597832723
 20
-53.42513099893205
 30
0.0
 40
0.6400000000000002
100
AcDbArc
 50
29.68645618692206
 51
85.00000000000019
  0
ARC
  5
48B7
330
2
100
AcDbEntity
  8
AM_VIS
100
AcDbCircle
 10
609.0583597832723
 20
-55.26747336378685
 30
0.0
 40
0.6400000000000002
100
AcDbArc
 50
274.9999999999998
 51
330.3135438130779
  0
ARC
  5
48B8
330
2
100
AcDbEntity
  8
AM_VIS
100
AcDbCircle
 10
607.4424873710238
 20
-54.34630218135945
 30
0.0
 40
2.5
100
AcDbArc
 50
330.3135438130801
 51
339.6535615282061
  0
ARC
  5
48B9
330
2
100
AcDbEntity
  8
AM_VIS
100
AcDbCircle
 10
607.4424873710238
 20
-54.34630218135945
 30
0.0
 40
2.5
100
AcDbArc
 50
20.34643847179391
 51
29.68645618691994
  0
LINE
  5
48BA
330
2
100
AcDbEntity
  8
AM_VIS
100
AcDbLine
 10
577.0924873710239
 20
-60.4463021813594
 30
0.0
 11
577.0924873710239
 21
-46.84630218135942
 31
0.0
  0
LINE
  5
48BB
330
2
100
AcDbEntity
  8
AM_VIS
100
AcDbLine
 10
578.0924873710239
 20
-46.84630218135942
 30
0.0
 11
578.0924873710239
 21
-60.44630218135941
 31
0.0
  0
LINE
  5
48BC
330
2
100
AcDbEntity
  8
AM_VIS
100
AcDbLine
 10
578.5924873710239
 20
-46.84630218135942
 30
0.0
 11
578.5924873710239
 21
-60.44630218135941
 31
0.0
  0
LINE
  5
48BD
330
2
100
AcDbEntity
  8
AM_VIS
100
AcDbLine
 10
579.1924873710238
 20
-46.84630218135942
 30
0.0
 11
578.5924873710239
 21
-46.84630218135942
 31
0.0
  0
LINE
  5
48BE
330
2
100
AcDbEntity
  8
AM_VIS
100
AcDbLine
 10
578.5924873710239
 20
-46.84630218135942
 30
0.0
 11
578.0924873710239
 21
-46.84630218135942
 31
0.0
  0
LINE
  5
48BF
330
2
100
AcDbEntity
  8
AM_VIS
100
AcDbLine
 10
578.0924873710239
 20
-46.84630218135942
 30
0.0
 11
577.0924873710239
 21
-46.84630218135942
 31
0.0
  0
LINE
  5
48C0
330
2
100
AcDbEntity
  8
AM_VIS
100
AcDbLine
 10
577.0924873710239
 20
-46.84630218135942
 30
0.0
 11
576.5924873710239
 21
-46.84630218135942
 31
0.0
  0
LINE
  5
48C1
330
2
100
AcDbEntity
  8
AM_VIS
100
AcDbLine
 10
579.1924873710238
 20
-45.44630218135938
 30
0.0
 11
579.1924873710238
 21
-46.84630218135938
 31
0.0
  0
LINE
  5
48C2
330
2
100
AcDbEntity
  8
AM_VIS
100
AcDbLine
 10
587.6424873710239
 20
-60.4463021813594
 30
0.0
 11
587.6424873710239
 21
-45.44630218135938
 31
0.0
  0
LINE
  5
48C3
330
2
100
AcDbEntity
  8
AM_VIS
100
AcDbLine
 10
564.0424873710238
 20
-45.44630218135938
 30
0.0
 11
564.0424873710238
 21
-60.44630218135939
 31
0.0
  0
LINE
  5
48C4
330
2
100
AcDbEntity
  8
AM_VIS
100
AcDbLine
 10
575.9924873710239
 20
-46.84630218135942
 30
0.0
 11
575.9924873710239
 21
-45.44630218135941
 31
0.0
  0
LINE
  5
48C5
330
2
100
AcDbEntity
  8
AM_VIS
100
AcDbLine
 10
576.5924873710239
 20
-46.84630218135942
 30
0.0
 11
575.9924873710239
 21
-46.84630218135942
 31
0.0
  0
LINE
  5
48C6
330
2
100
AcDbEntity
  8
AM_VIS
100
AcDbLine
 10
576.5924873710239
 20
-60.4463021813594
 30
0.0
 11
576.5924873710239
 21
-46.84630218135942
 31
0.0
  0
LINE
  5
48C7
330
2
100
AcDbEntity
  8
AM_VIS
100
AcDbLine
 10
571.6924873710238
 20
-45.44630218135938
 30
0.0
 11
571.6924873710238
 21
-60.44630218135939
 31
0.0
  0
LINE
  5
48C8
330
2
100
AcDbEntity
  8
AM_VIS
100
AcDbLine
 10
567.2924873710238
 20
-60.44630218135939
 30
0.0
 11
567.2924873710238
 21
-45.44630218135938
 31
0.0
  0
LINE
  5
48C9
330
2
100
AcDbEntity
  8
AM_VIS
100
AcDbLine
 10
567.7924873710238
 20
-45.44630218135938
 30
0.0
 11
567.7924873710238
 21
-60.44630218135939
 31
0.0
  0
LINE
  5
48CA
330
2
100
AcDbEntity
  8
AM_VIS
100
AcDbLine
 10
571.1924873710238
 20
-45.44630218135938
 30
0.0
 11
571.1924873710238
 21
-60.44630218135939
 31
0.0
  0
LINE
  5
48CB
330
2
100
AcDbEntity
  8
AM_VIS
100
AcDbLine
 10
567.2924873710238
 20
-60.4463021813594
 30
0.0
 11
564.0424873710238
 21
-60.4463021813594
 31
0.0
  0
LINE
  5
48CC
330
2
100
AcDbEntity
  8
AM_VIS
100
AcDbLine
 10
567.7924873710238
 20
-60.44630218135939
 30
0.0
 11
567.2924873710238
 21
-60.44630218135939
 31
0.0
  0
LINE
  5
48CD
330
2
100
AcDbEntity
  8
AM_VIS
100
AcDbLine
 10
571.1924873710238
 20
-60.4463021813594
 30
0.0
 11
567.7924873710238
 21
-60.4463021813594
 31
0.0
  0
LINE
  5
48CE
330
2
100
AcDbEntity
  8
AM_VIS
100
AcDbLine
 10
571.6924873710238
 20
-60.4463021813594
 30
0.0
 11
571.1924873710238
 21
-60.4463021813594
 31
0.0
  0
LINE
  5
48CF
330
2
100
AcDbEntity
  8
AM_VIS
100
AcDbLine
 10
576.5924873710239
 20
-60.4463021813594
 30
0.0
 11
571.6924873710238
 21
-60.4463021813594
 31
0.0
  0
LINE
  5
48D0
330
2
100
AcDbEntity
  8
AM_VIS
100
AcDbLine
 10
576.5924873710239
 20
-60.4463021813594
 30
0.0
 11
577.0924873710239
 21
-60.4463021813594
 31
0.0
  0
LINE
  5
48D1
330
2
100
AcDbEntity
  8
AM_VIS
100
AcDbLine
 10
577.0924873710239
 20
-60.4463021813594
 30
0.0
 11
578.0924873710239
 21
-60.4463021813594
 31
0.0
  0
LINE
  5
48D2
330
2
100
AcDbEntity
  8
AM_VIS
100
AcDbLine
 10
578.0924873710239
 20
-60.4463021813594
 30
0.0
 11
578.5924873710239
 21
-60.4463021813594
 31
0.0
  0
LINE
  5
48D3
330
2
100
AcDbEntity
  8
AM_VIS
100
AcDbLine
 10
587.6424873710239
 20
-60.4463021813594
 30
0.0
 11
578.5924873710239
 21
-60.4463021813594
 31
0.0
  0
LINE
  5
48D4
330
2
100
AcDbEntity
  8
AM_VIS
100
AcDbLine
 10
587.6424873710239
 20
-45.44630218135938
 30
0.0
 11
579.1924873710238
 21
-45.44630218135938
 31
0.0
  0
LINE
  5
48D5
102
{ACAD_REACTORS
330
4C67
102
}
330
2
100
AcDbEntity
  8
AM_VIS
100
AcDbLine
 10
575.9924873710239
 20
-45.44630218135938
 30
0.0
 11
571.6924873710238
 21
-45.44630218135938
 31
0.0
  0
LINE
  5
48D6
330
2
100
AcDbEntity
  8
AM_VIS
100
AcDbLine
 10
571.1924873710238
 20
-45.44630218135938
 30
0.0
 11
571.6924873710238
 21
-45.44630218135938
 31
0.0
  0
LINE
  5
48D7
330
2
100
AcDbEntity
  8
AM_VIS
100
AcDbLine
 10
567.7924873710238
 20
-45.44630218135938
 30
0.0
 11
571.1924873710238
 21
-45.44630218135938
 31
0.0
  0
LINE
  5
48D8
330
2
100
AcDbEntity
  8
AM_VIS
100
AcDbLine
 10
567.2924873710238
 20
-45.44630218135938
 30
0.0
 11
567.7924873710238
 21
-45.44630218135938
 31
0.0
  0
LINE
  5
48D9
330
2
100
AcDbEntity
  8
AM_VIS
100
AcDbLine
 10
567.2924873710238
 20
-45.44630218135938
 30
0.0
 11
564.0424873710238
 21
-45.44630218135938
 31
0.0
  0
LINE
  5
48DA
330
2
100
AcDbEntity
  8
AM_VIS
100
AcDbLine
 10
575.9924873710239
 20
-45.44630218135938
 30
0.0
 11
579.1924873710238
 21
-45.44630218135938
 31
0.0
  0
ARC
  5
48DB
330
2
100
AcDbEntity
  8
AM_VIS
100
AcDbCircle
 10
650.6073115374522
 20
-47.44630218135938
 30
0.0
 40
1.600000000000022
100
AcDbArc
 50
339.6358651936759
 51
20.36413480632409
  0
ARC
  5
48DC
330
2
100
AcDbEntity
  8
AM_VIS
100
AcDbCircle
 10
643.6073115374522
 20
-58.44630218135943
 30
0.0
 40
1.600000000000022
100
AcDbArc
 50
159.6358651936812
 51
200.3641348063195
  0
LINE
  5
48DD
330
2
100
AcDbEntity
  8
AM_VIS
100
AcDbLine
 10
644.5073115374523
 20
-49.9463021813594
 30
0.0
 11
644.5073115374523
 21
-52.64633159337853
 31
0.0
  0
LINE
  5
48DE
330
2
100
AcDbEntity
  8
AM_VIS
100
AcDbLine
 10
643.2073115374522
 20
-57.3463021813594
 30
0.0
 11
651.0073115374523
 21
-57.34630218135937
 31
0.0
  0
LINE
  5
48DF
330
2
100
AcDbEntity
  8
AM_VIS
100
AcDbLine
 10
650.5073115374523
 20
-56.84630218135935
 30
0.0
 11
650.5073115374523
 21
-57.34630218135935
 31
0.0
  0
LINE
  5
48E0
330
2
100
AcDbEntity
  8
AM_VIS
100
AcDbLine
 10
643.7073115374523
 20
-57.34630218135936
 30
0.0
 11
643.7073115374523
 21
-56.84630218135936
 31
0.0
  0
LINE
  5
48E1
330
2
100
AcDbEntity
  8
AM_VIS
100
AcDbLine
 10
649.7073115374522
 20
-52.64633159337852
 30
0.0
 11
649.7073115374522
 21
-49.94630218135938
 31
0.0
  0
LINE
  5
48E2
330
2
100
AcDbEntity
  8
AM_VIS
100
AcDbLine
 10
652.1073115374522
 20
-52.64630218135939
 30
0.0
 11
652.1073115374522
 21
-56.16630218135938
 31
0.0
  0
ARC
  5
48E3
330
2
100
AcDbEntity
  8
AM_VIS
100
AcDbCircle
 10
650.3623124050849
 20
-54.34379468501214
 30
0.0
 40
1.825539782311255
100
AcDbArc
 50
198.6363679025926
 51
214.6231278646366
  0
LINE
  5
48E4
330
2
100
AcDbEntity
  8
AM_VIS
100
AcDbLine
 10
643.2073115374522
 20
-56.84630218135939
 30
0.0
 11
643.8573115374522
 21
-56.84630218135939
 31
0.0
  0
LINE
  5
48E5
330
2
100
AcDbEntity
  8
AM_VIS
100
AcDbLine
 10
643.2073115374522
 20
-59.34630218135939
 30
0.0
 11
643.2073115374522
 21
-56.8463021813594
 31
0.0
  0
LINE
  5
48E6
330
2
100
AcDbEntity
  8
AM_VIS
100
AcDbLine
 10
651.0073115374523
 20
-59.34630218135936
 30
0.0
 11
643.2073115374522
 21
-59.34630218135938
 31
0.0
  0
LINE
  5
48E7
330
2
100
AcDbEntity
  8
AM_VIS
100
AcDbLine
 10
651.0073115374523
 20
-56.84630218135938
 30
0.0
 11
651.0073115374523
 21
-59.34630218135936
 31
0.0
  0
LINE
  5
48E8
330
2
100
AcDbEntity
  8
AM_VIS
100
AcDbLine
 10
650.3573115374522
 20
-56.84630218135938
 30
0.0
 11
651.0073115374523
 21
-56.84630218135938
 31
0.0
  0
LINE
  5
48E9
330
2
100
AcDbEntity
  8
AM_VIS
100
AcDbLine
 10
652.1073115374522
 20
-56.16630218135938
 30
0.0
 11
650.3573115374522
 21
-56.16630218135938
 31
0.0
  0
LINE
  5
48EA
330
2
100
AcDbEntity
  8
AM_VIS
100
AcDbLine
 10
652.1073115374522
 20
-56.16630218135938
 30
0.0
 11
652.1073115374523
 21
-60.44630218135939
 31
0.0
  0
LINE
  5
48EB
330
2
100
AcDbEntity
  8
AM_VIS
100
AcDbLine
 10
652.1073115374522
 20
-60.44630218135939
 30
0.0
 11
642.1073115374522
 21
-60.4463021813594
 31
0.0
  0
LINE
  5
48EC
330
2
100
AcDbEntity
  8
AM_VIS
100
AcDbLine
 10
642.1073115374522
 20
-60.4463021813594
 30
0.0
 11
642.1073115374522
 21
-56.1663021813594
 31
0.0
  0
LINE
  5
48ED
330
2
100
AcDbEntity
  8
AM_VIS
100
AcDbLine
 10
642.1073115374522
 20
-56.1663021813594
 30
0.0
 11
642.1073115374522
 21
-52.6463021813594
 31
0.0
  0
ARC
  5
48EE
330
2
100
AcDbEntity
  8
AM_VIS
100
AcDbCircle
 10
643.8523106698182
 20
-54.34379468501152
 30
0.0
 40
1.825539782312666
100
AcDbArc
 50
325.3768721353674
 51
341.3636320974007
  0
LINE
  5
48EF
330
2
100
AcDbEntity
  8
AM_VIS
100
AcDbLine
 10
643.8573115374522
 20
-56.1663021813594
 30
0.0
 11
642.1073115374522
 21
-56.1663021813594
 31
0.0
  0
LINE
  5
48F0
330
2
100
AcDbEntity
  8
AM_VIS
100
AcDbLine
 10
648.5770053831222
 20
-53.2463021813594
 30
0.0
 11
647.5073115374523
 21
-53.2463021813594
 31
0.0
  0
LINE
  5
48F1
330
2
100
AcDbEntity
  8
AM_VIS
100
AcDbLine
 10
646.7073115374522
 20
-53.2463021813594
 30
0.0
 11
645.6376176917823
 21
-53.2463021813594
 31
0.0
  0
LINE
  5
48F2
330
2
100
AcDbEntity
  8
AM_VIS
100
AcDbLine
 10
647.5073115374523
 20
-52.64630218135939
 30
0.0
 11
648.5770053831222
 21
-52.64630218135939
 31
0.0
  0
LINE
  5
48F3
330
2
100
AcDbEntity
  8
AM_VIS
100
AcDbLine
 10
645.6376176917823
 20
-52.64630218135939
 30
0.0
 11
646.7073115374522
 21
-52.64630218135939
 31
0.0
  0
ARC
  5
48F4
330
2
100
AcDbEntity
  8
AM_VIS
100
AcDbCircle
 10
647.1073115374522
 20
-52.94630218135939
 30
0.0
 40
2.5
100
AcDbArc
 50
232.4052366676959
 51
307.594763332304
  0
ARC
  5
48F5
330
2
100
AcDbEntity
  8
AM_VIS
100
AcDbCircle
 10
647.1073115374522
 20
-52.94630218135939
 30
0.0
 40
3.0
100
AcDbArc
 50
247.307722008548
 51
292.692277991452
  0
ARC
  5
48F6
330
2
100
AcDbEntity
  8
AM_VIS
100
AcDbCircle
 10
650.3573115374522
 20
-54.34630218135938
 30
0.0
 40
1.819999999999999
100
AcDbArc
 50
110.9248324276401
 51
198.6118775363971
  0
ARC
  5
48F7
330
2
100
AcDbEntity
  8
AM_VIS
100
AcDbCircle
 10
647.1073115374522
 20
-52.94630218135939
 30
0.0
 40
3.0
100
AcDbArc
 50
234.2499471461065
 51
247.307722008548
  0
ARC
  5
48F8
330
2
100
AcDbEntity
  8
AM_VIS
100
AcDbCircle
 10
643.8573115374522
 20
-54.34630218135939
 30
0.0
 40
2.5
100
AcDbArc
 50
270.0
 51
326.831157478121
  0
ARC
  5
48F9
330
2
100
AcDbEntity
  8
AM_VIS
100
AcDbCircle
 10
650.3573115374522
 20
-54.34630218135938
 30
0.0
 40
2.5
100
AcDbArc
 50
213.168842521879
 51
270.0
  0
ARC
  5
48FA
330
2
100
AcDbEntity
  8
AM_VIS
100
AcDbCircle
 10
647.1073115374522
 20
-52.94630218135939
 30
0.0
 40
3.0
100
AcDbArc
 50
292.692277991452
 51
305.750052853894
  0
ARC
  5
48FB
330
2
100
AcDbEntity
  8
AM_VIS
100
AcDbCircle
 10
650.3573115374522
 20
-54.34630218135938
 30
0.0
 40
1.819999999999999
100
AcDbArc
 50
214.6476182308366
 51
270.0
  0
ARC
  5
48FC
330
2
100
AcDbEntity
  8
AM_VIS
100
AcDbCircle
 10
643.8573115374522
 20
-54.34630218135939
 30
0.0
 40
1.819999999999999
100
AcDbArc
 50
69.07516757235985
 51
69.07776031741949
  0
ARC
  5
48FD
330
2
100
AcDbEntity
  8
AM_VIS
100
AcDbCircle
 10
643.8573115374522
 20
-54.34630218135939
 30
0.0
 40
1.819999999999999
100
AcDbArc
 50
341.3881224636028
 51
69.07516757235985
  0
ARC
  5
48FE
330
2
100
AcDbEntity
  8
AM_VIS
100
AcDbCircle
 10
643.8573115374522
 20
-54.34630218135939
 30
0.0
 40
1.819999999999999
100
AcDbArc
 50
270.0
 51
325.3523817691634
  0
CIRCLE
  5
48FF
330
2
100
AcDbEntity
  8
AM_VIS
100
AcDbCircle
 10
647.1073115374522
 20
-52.94630218135939
 30
0.0
 40
1.6
  0
ARC
  5
4900
330
2
100
AcDbEntity
  8
AM_VIS
100
AcDbCircle
 10
647.1073115374522
 20
-52.94630218135939
 30
0.0
 40
1.5
100
AcDbArc
 50
11.53695903281574
 51
168.4630409671842
  0
ARC
  5
4901
330
2
100
AcDbEntity
  8
AM_VIS
100
AcDbCircle
 10
647.1073115374522
 20
-52.94630218135939
 30
0.0
 40
1.5
100
AcDbArc
 50
191.5369590328157
 51
348.4630409671843
  0
ARC
  5
4902
330
2
100
AcDbEntity
  8
AM_VIS
100
AcDbCircle
 10
647.1073115374522
 20
-52.94630218135939
 30
0.0
 40
1.5
100
AcDbArc
 50
348.4630409671843
 51
11.53695903281574
  0
ARC
  5
4903
330
2
100
AcDbEntity
  8
AM_VIS
100
AcDbCircle
 10
647.1073115374522
 20
-52.94630218135939
 30
0.0
 40
1.5
100
AcDbArc
 50
168.4630409671842
 51
191.5369590328157
  0
ARC
  5
4904
330
2
100
AcDbEntity
  8
AM_VIS
100
AcDbCircle
 10
647.1073115374522
 20
-52.94630218135939
 30
0.0
 40
0.5
100
AcDbArc
 50
323.1301023541547
 51
36.86989764584533
  0
ARC
  5
4905
330
2
100
AcDbEntity
  8
AM_VIS
100
AcDbCircle
 10
647.1073115374522
 20
-52.94630218135939
 30
0.0
 40
0.5
100
AcDbArc
 50
216.8698976458453
 51
323.1301023541547
  0
ARC
  5
4906
330
2
100
AcDbEntity
  8
AM_VIS
100
AcDbCircle
 10
647.1073115374522
 20
-52.94630218135939
 30
0.0
 40
0.5
100
AcDbArc
 50
143.1301023541546
 51
216.8698976458453
  0
ARC
  5
4907
330
2
100
AcDbEntity
  8
AM_VIS
100
AcDbCircle
 10
647.1073115374522
 20
-52.94630218135939
 30
0.0
 40
0.5
100
AcDbArc
 50
36.86989764584533
 51
143.1301023541546
  0
LINE
  5
4908
330
2
100
AcDbEntity
  8
AM_VIS
100
AcDbLine
 10
642.1073115374522
 20
-52.14630218135939
 30
0.0
 11
642.1073115374522
 21
-49.94630218135938
 31
0.0
  0
LINE
  5
4909
330
2
100
AcDbEntity
  8
AM_VIS
100
AcDbLine
 10
644.5073115374523
 20
-52.14630218135937
 30
0.0
 11
644.5073115374523
 21
-49.94630218135938
 31
0.0
  0
LINE
  5
490A
330
2
100
AcDbEntity
  8
AM_VIS
100
AcDbLine
 10
644.5073115374523
 20
-52.14630218135939
 30
0.0
 11
642.1073115374522
 21
-52.14630218135939
 31
0.0
  0
LINE
  5
490B
330
2
100
AcDbEntity
  8
AM_VIS
100
AcDbLine
 10
642.1073115374522
 20
-52.64630218135939
 30
0.0
 11
644.5073115374523
 21
-52.64630218135939
 31
0.0
  0
LINE
  5
490C
330
2
100
AcDbEntity
  8
AM_VIS
100
AcDbLine
 10
642.1073115374522
 20
-52.14630218135937
 30
0.0
 11
642.1073115374522
 21
-52.64630218135938
 31
0.0
  0
LINE
  5
490D
330
2
100
AcDbEntity
  8
AM_VIS
100
AcDbLine
 10
652.1073115374522
 20
-52.14630218135936
 30
0.0
 11
652.1073115374522
 21
-49.94630218135935
 31
0.0
  0
LINE
  5
490E
330
2
100
AcDbEntity
  8
AM_VIS
100
AcDbLine
 10
649.7073115374522
 20
-49.94630218135937
 30
0.0
 11
649.7073115374522
 21
-52.14630218135937
 31
0.0
  0
LINE
  5
490F
330
2
100
AcDbEntity
  8
AM_VIS
100
AcDbLine
 10
652.1073115374522
 20
-52.14630218135937
 30
0.0
 11
649.7073115374522
 21
-52.14630218135937
 31
0.0
  0
LINE
  5
4910
330
2
100
AcDbEntity
  8
AM_VIS
100
AcDbLine
 10
652.1073115374522
 20
-52.64630218135936
 30
0.0
 11
652.1073115374522
 21
-52.14630218135936
 31
0.0
  0
LINE
  5
4911
330
2
100
AcDbEntity
  8
AM_VIS
100
AcDbLine
 10
649.7073115374522
 20
-52.64630218135938
 30
0.0
 11
652.1073115374522
 21
-52.64630218135938
 31
0.0
  0
LINE
  5
4912
330
2
100
AcDbEntity
  8
AM_VIS
100
AcDbLine
 10
642.1073115374522
 20
-49.9463021813594
 30
0.0
 11
652.1073115374522
 21
-49.94630218135938
 31
0.0
  0
LINE
  5
4913
330
2
100
AcDbEntity
  8
AM_VIS
100
AcDbLine
 10
652.1073115374522
 20
-49.94630218135938
 30
0.0
 11
652.1073115374522
 21
-32.94630218135939
 31
0.0
  0
LINE
  5
4914
330
2
100
AcDbEntity
  8
AM_VIS
100
AcDbLine
 10
651.1073115374522
 20
-48.44630218135939
 30
0.0
 11
652.1073115374522
 21
-49.94630218135938
 31
0.0
  0
LINE
  5
4915
330
2
100
AcDbEntity
  8
AM_VIS
100
AcDbLine
 10
642.1073115374522
 20
-49.9463021813594
 30
0.0
 11
643.1073115374522
 21
-48.44630218135941
 31
0.0
  0
LINE
  5
4916
330
2
100
AcDbEntity
  8
AM_VIS
100
AcDbLine
 10
642.1073115374522
 20
-32.94630218135939
 30
0.0
 11
642.1073115374522
 21
-49.94630218135938
 31
0.0
  0
LINE
  5
4917
330
2
100
AcDbEntity
  8
AM_VIS
100
AcDbLine
 10
643.1073115374522
 20
-34.44630218135939
 30
0.0
 11
642.1073115374522
 21
-32.94630218135939
 31
0.0
  0
LINE
  5
4918
330
2
100
AcDbEntity
  8
AM_VIS
100
AcDbLine
 10
650.8573115374522
 20
-42.34630218135936
 30
0.0
 11
650.8573115374522
 21
-36.94630218135939
 31
0.0
  0
LINE
  5
4919
330
2
100
AcDbEntity
  8
AM_VIS
100
AcDbLine
 10
644.3573115374522
 20
-37.94630218135939
 30
0.0
 11
649.8573115374522
 21
-37.94630218135939
 31
0.0
  0
LINE
  5
491A
330
2
100
AcDbEntity
  8
AM_VIS
100
AcDbLine
 10
644.3573115374522
 20
-41.34630218135939
 30
0.0
 11
644.3573115374522
 21
-37.94630218135939
 31
0.0
  0
LINE
  5
491B
330
2
100
AcDbEntity
  8
AM_VIS
100
AcDbLine
 10
649.8573115374522
 20
-41.34630218135939
 30
0.0
 11
644.3573115374522
 21
-41.34630218135939
 31
0.0
  0
LINE
  5
491C
330
2
100
AcDbEntity
  8
AM_VIS
100
AcDbLine
 10
649.8573115374522
 20
-37.94630218135939
 30
0.0
 11
649.8573115374522
 21
-41.34630218135936
 31
0.0
  0
LINE
  5
491D
330
2
100
AcDbEntity
  8
AM_VIS
100
AcDbLine
 10
650.2573115374522
 20
-36.94630218135939
 30
0.0
 11
650.2573115374522
 21
-42.04630218135938
 31
0.0
  0
LINE
  5
491E
330
2
100
AcDbEntity
  8
AM_VIS
100
AcDbLine
 10
643.3573115374522
 20
-36.94630218135939
 30
0.0
 11
643.3573115374522
 21
-42.34630218135936
 31
0.0
  0
LINE
  5
491F
330
2
100
AcDbEntity
  8
AM_VIS
100
AcDbLine
 10
643.9573115374521
 20
-42.04630218135941
 30
0.0
 11
643.9573115374521
 21
-36.94630218135941
 31
0.0
  0
LINE
  5
4920
330
2
100
AcDbEntity
  8
AM_VIS
100
AcDbLine
 10
650.2573115374522
 20
-42.04630218135941
 30
0.0
 11
643.9573115374521
 21
-42.04630218135943
 31
0.0
  0
LINE
  5
4921
330
2
100
AcDbEntity
  8
AM_VIS
100
AcDbLine
 10
650.8573115374522
 20
-42.34630218135936
 30
0.0
 11
650.2573115374522
 21
-42.04630218135938
 31
0.0
  0
LINE
  5
4922
330
2
100
AcDbEntity
  8
AM_VIS
100
AcDbLine
 10
643.3573115374522
 20
-42.34630218135942
 30
0.0
 11
650.8573115374522
 21
-42.34630218135939
 31
0.0
  0
LINE
  5
4923
330
2
100
AcDbEntity
  8
AM_VIS
100
AcDbLine
 10
643.9573115374521
 20
-42.04630218135941
 30
0.0
 11
643.3573115374522
 21
-42.34630218135942
 31
0.0
  0
LINE
  5
4924
330
2
100
AcDbEntity
  8
AM_VIS
100
AcDbLine
 10
650.8573115374522
 20
-36.94630218135939
 30
0.0
 11
650.2573115374521
 21
-36.94630218135939
 31
0.0
  0
LINE
  5
4925
330
2
100
AcDbEntity
  8
AM_VIS
100
AcDbLine
 10
650.1073115374522
 20
-36.94630218135939
 30
0.0
 11
650.2573115374522
 21
-36.94630218135939
 31
0.0
  0
LINE
  5
4926
330
2
100
AcDbEntity
  8
AM_VIS
100
AcDbLine
 10
650.1073115374522
 20
-35.44630218135939
 30
0.0
 11
649.2073115374521
 21
-35.44630218135939
 31
0.0
  0
LINE
  5
4927
330
2
100
AcDbEntity
  8
AM_VIS
100
AcDbLine
 10
650.1073115374522
 20
-36.94630218135939
 30
0.0
 11
650.1073115374522
 21
-35.44630218135939
 31
0.0
  0
LINE
  5
4928
330
2
100
AcDbEntity
  8
AM_VIS
100
AcDbLine
 10
649.2073115374521
 20
-36.94630218135939
 30
0.0
 11
649.2073115374521
 21
-35.44630218135939
 31
0.0
  0
LINE
  5
4929
330
2
100
AcDbEntity
  8
AM_VIS
100
AcDbLine
 10
645.0073115374522
 20
-36.94630218135939
 30
0.0
 11
649.2073115374521
 21
-36.94630218135939
 31
0.0
  0
LINE
  5
492A
330
2
100
AcDbEntity
  8
AM_VIS
100
AcDbLine
 10
643.9573115374521
 20
-36.94630218135939
 30
0.0
 11
644.1073115374522
 21
-36.94630218135936
 31
0.0
  0
LINE
  5
492B
330
2
100
AcDbEntity
  8
AM_VIS
100
AcDbLine
 10
643.9573115374521
 20
-36.94630218135939
 30
0.0
 11
643.3573115374522
 21
-36.94630218135939
 31
0.0
  0
LINE
  5
492C
330
2
100
AcDbEntity
  8
AM_VIS
100
AcDbLine
 10
645.0073115374522
 20
-35.44630218135939
 30
0.0
 11
644.1073115374522
 21
-35.44630218135939
 31
0.0
  0
LINE
  5
492D
330
2
100
AcDbEntity
  8
AM_VIS
100
AcDbLine
 10
645.0073115374522
 20
-36.94630218135939
 30
0.0
 11
645.0073115374522
 21
-35.44630218135939
 31
0.0
  0
LINE
  5
492E
330
2
100
AcDbEntity
  8
AM_VIS
100
AcDbLine
 10
644.1073115374522
 20
-36.94630218135939
 30
0.0
 11
644.1073115374522
 21
-35.44630218135939
 31
0.0
  0
LINE
  5
492F
330
2
100
AcDbEntity
  8
AM_VIS
100
AcDbLine
 10
647.6073115374522
 20
-36.94630218135939
 30
0.0
 11
647.6073115374522
 21
-36.44630218135939
 31
0.0
  0
LINE
  5
4930
330
2
100
AcDbEntity
  8
AM_VIS
100
AcDbLine
 10
646.6073115374522
 20
-36.44630218135939
 30
0.0
 11
646.6073115374522
 21
-36.94630218135939
 31
0.0
  0
LINE
  5
4931
330
2
100
AcDbEntity
  8
AM_VIS
100
AcDbLine
 10
647.6073115374522
 20
-36.44630218135939
 30
0.0
 11
646.6073115374522
 21
-36.44630218135939
 31
0.0
  0
LINE
  5
4932
330
2
100
AcDbEntity
  8
AM_VIS
100
AcDbLine
 10
651.1073115374522
 20
-34.44630218135939
 30
0.0
 11
651.1073115374522
 21
-48.44630218135939
 31
0.0
  0
LINE
  5
4933
330
2
100
AcDbEntity
  8
AM_VIS
100
AcDbLine
 10
651.1073115374522
 20
-48.44630218135939
 30
0.0
 11
643.1073115374522
 21
-48.44630218135941
 31
0.0
  0
LINE
  5
4934
330
2
100
AcDbEntity
  8
AM_VIS
100
AcDbLine
 10
643.1073115374522
 20
-48.44630218135939
 30
0.0
 11
643.1073115374522
 21
-34.44630218135939
 31
0.0
  0
LINE
  5
4935
330
2
100
AcDbEntity
  8
AM_VIS
100
AcDbLine
 10
643.1073115374522
 20
-34.44630218135939
 30
0.0
 11
645.1073115374522
 21
-34.44630218135939
 31
0.0
  0
LINE
  5
4936
330
2
100
AcDbEntity
  8
AM_VIS
100
AcDbLine
 10
652.1073115374522
 20
-32.94630218135939
 30
0.0
 11
651.1073115374522
 21
-34.44630218135939
 31
0.0
  0
LINE
  5
4937
330
2
100
AcDbEntity
  8
AM_VIS
100
AcDbLine
 10
649.1073115374522
 20
-34.44630218135939
 30
0.0
 11
651.1073115374522
 21
-34.44630218135939
 31
0.0
  0
LINE
  5
4938
102
{ACAD_REACTORS
330
4A6C
102
}
330
2
100
AcDbEntity
  8
AM_VIS
100
AcDbLine
 10
645.1073115374522
 20
-32.94630218135939
 30
0.0
 11
642.1073115374522
 21
-32.94630218135939
 31
0.0
  0
LINE
  5
4939
330
2
100
AcDbEntity
  8
AM_VIS
100
AcDbLine
 10
652.1073115374522
 20
-32.94630218135939
 30
0.0
 11
649.1073115374522
 21
-32.94630218135939
 31
0.0
  0
LINE
  5
493A
330
2
100
AcDbEntity
  8
AM_VIS
100
AcDbLine
 10
645.1073115374522
 20
-34.72914489383402
 30
0.0
 11
645.1073115374522
 21
-34.44630218135939
 31
0.0
  0
LINE
  5
493B
330
2
100
AcDbEntity
  8
AM_VIS
100
AcDbLine
 10
645.1073115374522
 20
-34.44630218135939
 30
0.0
 11
645.1073115374522
 21
-32.94630218135939
 31
0.0
  0
LINE
  5
493C
330
2
100
AcDbEntity
  8
AM_VIS
100
AcDbLine
 10
649.1073115374522
 20
-34.44630218135939
 30
0.0
 11
649.1073115374522
 21
-34.72914489383402
 31
0.0
  0
LINE
  5
493D
330
2
100
AcDbEntity
  8
AM_VIS
100
AcDbLine
 10
649.1073115374522
 20
-32.94630218135939
 30
0.0
 11
649.1073115374522
 21
-34.44630218135939
 31
0.0
  0
LINE
  5
493E
330
2
100
AcDbEntity
  8
AM_VIS
100
AcDbLine
 10
645.1073115374522
 20
-32.94630218135939
 30
0.0
 11
649.1073115374522
 21
-32.94630218135936
 31
0.0
  0
LINE
  5
493F
330
2
100
AcDbEntity
  8
AM_VIS
100
AcDbLine
 10
645.1073115374522
 20
-33.14630218135937
 30
0.0
 11
649.1073115374522
 21
-33.14630218135937
 31
0.0
  0
LINE
  5
4940
330
2
100
AcDbEntity
  8
AM_VIS
100
AcDbLine
 10
649.1073115374522
 20
-34.72914489383402
 30
0.0
 11
645.1073115374522
 21
-34.72914489383402
 31
0.0
  0
CIRCLE
  5
4941
330
2
100
AcDbEntity
  8
AM_VIS
100
AcDbCircle
 10
648.6073115374522
 20
-40.14630218135937
 30
0.0
 40
0.25
  0
CIRCLE
  5
4942
330
2
100
AcDbEntity
  8
AM_VIS
100
AcDbCircle
 10
645.6073115374522
 20
-40.14630218135937
 30
0.0
 40
0.25
  0
LINE
  5
4943
330
2
100
AcDbEntity
  8
AM_VIS
100
AcDbLine
 10
644.0733998517087
 20
-54.2932730342629
 30
0.0
 11
643.8573115374522
 21
-54.34630218135942
 31
0.0
  0
LINE
  5
4944
330
2
100
AcDbEntity
  8
AM_VIS
100
AcDbLine
 10
643.8573115374522
 20
-54.34630218135942
 30
0.0
 11
643.6412232231957
 21
-54.39933132845594
 31
0.0
  0
LINE
  5
4945
330
2
100
AcDbEntity
  8
AM_VIS
100
AcDbLine
 10
643.8573115374522
 20
-54.34630218135946
 30
0.0
 11
644.1264289988059
 21
-54.50936134851985
 31
0.0
  0
LINE
  5
4946
330
2
100
AcDbEntity
  8
AM_VIS
100
AcDbLine
 10
644.0203707046118
 20
-54.07718472000714
 30
0.0
 11
643.8573115374522
 21
-54.34630218135943
 31
0.0
  0
LINE
  5
4947
330
2
100
AcDbEntity
  8
AM_VIS
100
AcDbLine
 10
644.1264289988057
 20
-54.50936134852137
 30
0.0
 11
644.0203707046126
 21
-54.07718472000836
 31
0.0
  0
LINE
  5
4948
330
2
100
AcDbEntity
  8
AM_VIS
100
AcDbLine
 10
643.5881940760997
 20
-54.18324301420136
 30
0.0
 11
644.0203707046126
 21
-54.07718472000833
 31
0.0
  0
LINE
  5
4949
330
2
100
AcDbEntity
  8
AM_VIS
100
AcDbLine
 10
643.9103406845492
 20
-54.56239049561786
 30
0.0
 11
643.8573115374522
 21
-54.34630218135943
 31
0.0
  0
LINE
  5
494A
330
2
100
AcDbEntity
  8
AM_VIS
100
AcDbLine
 10
643.6942523702919
 20
-54.61541964271313
 30
0.0
 11
643.8573115374522
 21
-54.34630218135945
 31
0.0
  0
LINE
  5
494B
330
2
100
AcDbEntity
  8
AM_VIS
100
AcDbLine
 10
643.5881940760997
 20
-54.18324301420139
 30
0.0
 11
643.6942523702928
 21
-54.6154196427144
 31
0.0
  0
LINE
  5
494C
330
2
100
AcDbEntity
  8
AM_VIS
100
AcDbLine
 10
643.8573115374522
 20
-54.34630218135943
 30
0.0
 11
643.8042823903562
 21
-54.13021386710487
 31
0.0
  0
LINE
  5
494D
330
2
100
AcDbEntity
  8
AM_VIS
100
AcDbLine
 10
643.8573115374522
 20
-54.34630218135942
 30
0.0
 11
643.5881940760999
 21
-54.18324301419985
 31
0.0
  0
LINE
  5
494E
330
2
100
AcDbEntity
  8
AM_VIS
100
AcDbLine
 10
644.1264289988057
 20
-54.50936134852135
 30
0.0
 11
643.6942523702928
 21
-54.61541964271439
 31
0.0
  0
LINE
  5
494F
330
2
100
AcDbEntity
  8
AM_VIS
100
AcDbLine
 10
644.1264289988057
 20
-54.50936134852138
 30
0.0
 11
644.1890957915808
 21
-54.76472207657514
 31
0.0
  0
LINE
  5
4950
330
2
100
AcDbEntity
  8
AM_VIS
100
AcDbLine
 10
644.1264289988057
 20
-54.50936134852137
 30
0.0
 11
644.3817897268606
 21
-54.44669455574601
 31
0.0
  0
LINE
  5
4951
330
2
100
AcDbEntity
  8
AM_VIS
100
AcDbLine
 10
643.9577039118367
 20
-53.82182399195072
 30
0.0
 11
644.0203707046127
 21
-54.07718472000833
 31
0.0
  0
LINE
  5
4952
330
2
100
AcDbEntity
  8
AM_VIS
100
AcDbLine
 10
644.0203707046126
 20
-54.07718472000834
 30
0.0
 11
644.2757314326692
 21
-54.01451792723253
 31
0.0
  0
LINE
  5
4953
330
2
100
AcDbEntity
  8
AM_VIS
100
AcDbLine
 10
643.5255272833236
 20
-53.92788228614375
 30
0.0
 11
643.5881940760997
 21
-54.18324301420134
 31
0.0
  0
LINE
  5
4954
330
2
100
AcDbEntity
  8
AM_VIS
100
AcDbLine
 10
643.3328333480431
 20
-54.24590980697724
 30
0.0
 11
643.5881940760997
 21
-54.18324301420139
 31
0.0
  0
LINE
  5
4955
330
2
100
AcDbEntity
  8
AM_VIS
100
AcDbLine
 10
643.6942523702928
 20
-54.6154196427144
 30
0.0
 11
643.7569191630679
 21
-54.87078037076821
 31
0.0
  0
LINE
  5
4956
330
2
100
AcDbEntity
  8
AM_VIS
100
AcDbLine
 10
643.4388916422379
 20
-54.67808643548981
 30
0.0
 11
643.6942523702928
 21
-54.61541964271443
 31
0.0
  0
CIRCLE
  5
4957
330
2
100
AcDbEntity
  8
AM_VIS
100
AcDbCircle
 10
643.8573115374522
 20
-54.34630218135943
 30
0.0
 40
1.600000000000022
  0
LINE
  5
4958
330
2
100
AcDbEntity
  8
AM_VIS
100
AcDbLine
 10
643.9577039118367
 20
-53.82182399195073
 30
0.0
 11
643.8724141110809
 21
-53.47427683576075
 31
0.0
  0
ELLIPSE
  5
4959
330
2
100
AcDbEntity
  8
AM_VIS
100
AcDbEllipse
 10
644.0117594822563
 20
-54.97566165365769
 30
0.0
 11
-2.286824568972775
 21
-0.5611981234118815
 31
0.0
210
0.0
220
0.0
230
0.9999999999999998
 40
0.6361945781365053
 41
4.617755055602463
 42
4.80702290516692
  0
LINE
  5
495A
330
2
100
AcDbEntity
  8
AM_VIS
100
AcDbLine
 10
643.7569191630679
 20
-54.87078037076821
 30
0.0
 11
643.8422089638236
 21
-55.21832752695816
 31
0.0
  0
ELLIPSE
  5
495B
330
2
100
AcDbEntity
  8
AM_VIS
100
AcDbEllipse
 10
643.7028635926481
 20
-53.71694270906117
 30
0.0
 11
2.286824568972775
 21
0.5611981234118847
 31
0.0
210
0.0
220
0.0
230
1.0
 40
0.6361945781365066
 41
4.617755055602462
 42
4.807022905166917
  0
LINE
  5
495C
330
2
100
AcDbEntity
  8
AM_VIS
100
AcDbLine
 10
643.0913444860472
 20
-54.76337623624567
 30
0.0
 11
643.4388916422379
 21
-54.67808643548977
 31
0.0
  0
ELLIPSE
  5
495D
330
2
100
AcDbEntity
  8
AM_VIS
100
AcDbEllipse
 10
643.2279520651539
 20
-54.50075012616349
 30
0.0
 11
-0.5611981234118839
 21
2.286824568972775
 31
0.0
210
0.0
220
0.0
230
1.0
 40
0.6361945781365078
 41
4.617755055601612
 42
4.807022905166068
  0
LINE
  5
495E
330
2
100
AcDbEntity
  8
AM_VIS
100
AcDbLine
 10
643.3328333480431
 20
-54.24590980697722
 30
0.0
 11
642.9852861918539
 21
-54.33119960773274
 31
0.0
  0
LINE
  5
495F
330
2
100
AcDbEntity
  8
AM_VIS
100
AcDbLine
 10
644.6232785888585
 20
-53.92922812647703
 30
0.0
 11
644.2757314326692
 21
-54.01451792723254
 31
0.0
  0
ELLIPSE
  5
4960
330
2
100
AcDbEntity
  8
AM_VIS
100
AcDbEllipse
 10
644.4866710097506
 20
-54.19185423655538
 30
0.0
 11
0.5611981234118821
 21
-2.286824568972774
 31
0.0
210
0.0
220
0.0
230
1.0
 40
0.6361945781365099
 41
4.617755055603316
 42
4.807022905167772
  0
LINE
  5
4961
330
2
100
AcDbEntity
  8
AM_VIS
100
AcDbLine
 10
644.3817897268606
 20
-54.44669455574597
 30
0.0
 11
644.7293368830513
 21
-54.36140475499008
 31
0.0
  0
LINE
  5
4962
330
2
100
AcDbEntity
  8
AM_VIS
100
AcDbLine
 10
643.4402374825679
 20
-53.58033512995378
 30
0.0
 11
643.5255272833236
 21
-53.92788228614377
 31
0.0
  0
LINE
  5
4963
330
2
100
AcDbEntity
  8
AM_VIS
100
AcDbLine
 10
644.2743855923366
 20
-55.11226923276513
 30
0.0
 11
644.1890957915809
 21
-54.76472207657518
 31
0.0
  0
ARC
  5
4964
330
2
100
AcDbEntity
  8
AM_VIS
100
AcDbCircle
 10
643.8573115374522
 20
-54.34630218135946
 30
0.0
 40
0.5339999999999919
100
AcDbArc
 50
308.4125063669301
 51
349.1638696623682
  0
ARC
  5
4965
330
2
100
AcDbEntity
  8
AM_VIS
100
AcDbCircle
 10
643.8573115374522
 20
-54.34630218135946
 30
0.0
 40
0.5339999999999919
100
AcDbArc
 50
38.41250636669811
 51
79.16386966260453
  0
ARC
  5
4966
330
2
100
AcDbEntity
  8
AM_VIS
100
AcDbCircle
 10
643.8573115374522
 20
-54.34630218135946
 30
0.0
 40
0.5339999999999919
100
AcDbArc
 50
128.4125063669305
 51
169.1638696628363
  0
ARC
  5
4967
330
2
100
AcDbEntity
  8
AM_VIS
100
AcDbCircle
 10
643.8573115374522
 20
-54.34630218135946
 30
0.0
 40
0.5339999999999919
100
AcDbArc
 50
218.4125063671673
 51
259.1638696626045
  0
LINE
  5
4968
330
2
100
AcDbEntity
  8
AM_VIS
100
AcDbLine
 10
650.5733998517087
 20
-54.29327303426288
 30
0.0
 11
650.3573115374522
 21
-54.34630218135939
 31
0.0
  0
LINE
  5
4969
330
2
100
AcDbEntity
  8
AM_VIS
100
AcDbLine
 10
650.3573115374522
 20
-54.34630218135939
 30
0.0
 11
650.1412232231957
 21
-54.39933132845592
 31
0.0
  0
LINE
  5
496A
330
2
100
AcDbEntity
  8
AM_VIS
100
AcDbLine
 10
650.3573115374522
 20
-54.34630218135943
 30
0.0
 11
650.626428998806
 21
-54.50936134851982
 31
0.0
  0
LINE
  5
496B
330
2
100
AcDbEntity
  8
AM_VIS
100
AcDbLine
 10
650.5203707046119
 20
-54.07718472000709
 30
0.0
 11
650.3573115374522
 21
-54.3463021813594
 31
0.0
  0
LINE
  5
496C
330
2
100
AcDbEntity
  8
AM_VIS
100
AcDbLine
 10
650.6264289988057
 20
-54.50936134852134
 30
0.0
 11
650.5203707046128
 21
-54.07718472000833
 31
0.0
  0
LINE
  5
496D
330
2
100
AcDbEntity
  8
AM_VIS
100
AcDbLine
 10
650.0881940760997
 20
-54.18324301420134
 30
0.0
 11
650.5203707046128
 21
-54.0771847200083
 31
0.0
  0
LINE
  5
496E
330
2
100
AcDbEntity
  8
AM_VIS
100
AcDbLine
 10
650.4103406845493
 20
-54.56239049561784
 30
0.0
 11
650.3573115374522
 21
-54.3463021813594
 31
0.0
  0
LINE
  5
496F
330
2
100
AcDbEntity
  8
AM_VIS
100
AcDbLine
 10
650.1942523702918
 20
-54.61541964271311
 30
0.0
 11
650.3573115374522
 21
-54.34630218135942
 31
0.0
  0
LINE
  5
4970
330
2
100
AcDbEntity
  8
AM_VIS
100
AcDbLine
 10
650.0881940760997
 20
-54.18324301420136
 30
0.0
 11
650.1942523702928
 21
-54.61541964271437
 31
0.0
  0
LINE
  5
4971
330
2
100
AcDbEntity
  8
AM_VIS
100
AcDbLine
 10
650.3573115374522
 20
-54.3463021813594
 30
0.0
 11
650.3042823903562
 21
-54.13021386710484
 31
0.0
  0
LINE
  5
4972
330
2
100
AcDbEntity
  8
AM_VIS
100
AcDbLine
 10
650.3573115374522
 20
-54.34630218135939
 30
0.0
 11
650.0881940760999
 21
-54.18324301419983
 31
0.0
  0
LINE
  5
4973
330
2
100
AcDbEntity
  8
AM_VIS
100
AcDbLine
 10
650.6264289988057
 20
-54.50936134852132
 30
0.0
 11
650.1942523702928
 21
-54.61541964271436
 31
0.0
  0
LINE
  5
4974
330
2
100
AcDbEntity
  8
AM_VIS
100
AcDbLine
 10
650.6264289988057
 20
-54.50936134852137
 30
0.0
 11
650.6890957915809
 21
-54.76472207657512
 31
0.0
  0
LINE
  5
4975
330
2
100
AcDbEntity
  8
AM_VIS
100
AcDbLine
 10
650.6264289988057
 20
-54.50936134852137
 30
0.0
 11
650.8817897268606
 21
-54.44669455574597
 31
0.0
  0
LINE
  5
4976
330
2
100
AcDbEntity
  8
AM_VIS
100
AcDbLine
 10
650.4577039118366
 20
-53.8218239919507
 30
0.0
 11
650.5203707046128
 21
-54.0771847200083
 31
0.0
  0
LINE
  5
4977
330
2
100
AcDbEntity
  8
AM_VIS
100
AcDbLine
 10
650.5203707046128
 20
-54.0771847200083
 30
0.0
 11
650.7757314326693
 21
-54.01451792723249
 31
0.0
  0
LINE
  5
4978
330
2
100
AcDbEntity
  8
AM_VIS
100
AcDbLine
 10
650.0255272833237
 20
-53.92788228614373
 30
0.0
 11
650.0881940760997
 21
-54.18324301420134
 31
0.0
  0
LINE
  5
4979
330
2
100
AcDbEntity
  8
AM_VIS
100
AcDbLine
 10
649.832833348043
 20
-54.24590980697721
 30
0.0
 11
650.0881940760997
 21
-54.18324301420134
 31
0.0
  0
LINE
  5
497A
330
2
100
AcDbEntity
  8
AM_VIS
100
AcDbLine
 10
650.1942523702928
 20
-54.61541964271439
 30
0.0
 11
650.2569191630678
 21
-54.87078037076819
 31
0.0
  0
LINE
  5
497B
330
2
100
AcDbEntity
  8
AM_VIS
100
AcDbLine
 10
649.938891642238
 20
-54.67808643548979
 30
0.0
 11
650.1942523702928
 21
-54.61541964271439
 31
0.0
  0
CIRCLE
  5
497C
330
2
100
AcDbEntity
  8
AM_VIS
100
AcDbCircle
 10
650.3573115374522
 20
-54.3463021813594
 30
0.0
 40
1.600000000000022
  0
LINE
  5
497D
330
2
100
AcDbEntity
  8
AM_VIS
100
AcDbLine
 10
650.4577039118366
 20
-53.82182399195071
 30
0.0
 11
650.3724141110809
 21
-53.47427683576071
 31
0.0
  0
ELLIPSE
  5
497E
330
2
100
AcDbEntity
  8
AM_VIS
100
AcDbEllipse
 10
650.5117594822563
 20
-54.97566165365767
 30
0.0
 11
-2.286824568972775
 21
-0.5611981234118836
 31
0.0
210
0.0
220
0.0
230
1.0
 40
0.6361945781365066
 41
4.61775505560246
 42
4.807022905166922
  0
LINE
  5
497F
330
2
100
AcDbEntity
  8
AM_VIS
100
AcDbLine
 10
650.2569191630678
 20
-54.87078037076819
 30
0.0
 11
650.3422089638235
 21
-55.21832752695813
 31
0.0
  0
ELLIPSE
  5
4980
330
2
100
AcDbEntity
  8
AM_VIS
100
AcDbEllipse
 10
650.2028635926482
 20
-53.71694270906115
 30
0.0
 11
2.286824568972775
 21
0.5611981234118866
 31
0.0
210
0.0
220
0.0
230
1.0
 40
0.6361945781365053
 41
4.617755055602465
 42
4.807022905166916
  0
LINE
  5
4981
330
2
100
AcDbEntity
  8
AM_VIS
100
AcDbLine
 10
649.5913444860471
 20
-54.76337623624565
 30
0.0
 11
649.938891642238
 21
-54.67808643548974
 31
0.0
  0
ELLIPSE
  5
4982
330
2
100
AcDbEntity
  8
AM_VIS
100
AcDbEllipse
 10
649.7279520651541
 20
-54.50075012616347
 30
0.0
 11
-0.5611981234118825
 21
2.286824568972775
 31
0.0
210
0.0
220
0.0
230
1.0
 40
0.636194578136508
 41
4.617755055601615
 42
4.80702290516607
  0
LINE
  5
4983
330
2
100
AcDbEntity
  8
AM_VIS
100
AcDbLine
 10
649.832833348043
 20
-54.24590980697719
 30
0.0
 11
649.4852861918539
 21
-54.33119960773272
 31
0.0
  0
LINE
  5
4984
330
2
100
AcDbEntity
  8
AM_VIS
100
AcDbLine
 10
651.1232785888585
 20
-53.929228126477
 30
0.0
 11
650.7757314326693
 21
-54.01451792723252
 31
0.0
  0
ELLIPSE
  5
4985
330
2
100
AcDbEntity
  8
AM_VIS
100
AcDbEllipse
 10
650.9866710097505
 20
-54.19185423655536
 30
0.0
 11
0.5611981234118872
 21
-2.286824568972773
 31
0.0
210
0.0
220
0.0
230
0.9999999999999998
 40
0.63619457813651
 41
4.617755055603312
 42
4.807022905167766
  0
LINE
  5
4986
330
2
100
AcDbEntity
  8
AM_VIS
100
AcDbLine
 10
650.8817897268606
 20
-54.44669455574595
 30
0.0
 11
651.2293368830513
 21
-54.36140475499005
 31
0.0
  0
LINE
  5
4987
330
2
100
AcDbEntity
  8
AM_VIS
100
AcDbLine
 10
649.9402374825678
 20
-53.58033512995375
 30
0.0
 11
650.0255272833237
 21
-53.92788228614374
 31
0.0
  0
LINE
  5
4988
330
2
100
AcDbEntity
  8
AM_VIS
100
AcDbLine
 10
650.7743855923365
 20
-55.1122692327651
 30
0.0
 11
650.6890957915809
 21
-54.76472207657515
 31
0.0
  0
ARC
  5
4989
330
2
100
AcDbEntity
  8
AM_VIS
100
AcDbCircle
 10
650.3573115374522
 20
-54.34630218135942
 30
0.0
 40
0.5339999999999919
100
AcDbArc
 50
308.4125063669301
 51
349.1638696623682
  0
ARC
  5
498A
330
2
100
AcDbEntity
  8
AM_VIS
100
AcDbCircle
 10
650.3573115374522
 20
-54.34630218135942
 30
0.0
 40
0.5339999999999919
100
AcDbArc
 50
38.41250636669747
 51
79.16386966260453
  0
ARC
  5
498B
330
2
100
AcDbEntity
  8
AM_VIS
100
AcDbCircle
 10
650.3573115374522
 20
-54.34630218135942
 30
0.0
 40
0.5339999999999919
100
AcDbArc
 50
128.4125063669305
 51
169.1638696628363
  0
ARC
  5
498C
330
2
100
AcDbEntity
  8
AM_VIS
100
AcDbCircle
 10
650.3573115374522
 20
-54.34630218135942
 30
0.0
 40
0.5339999999999919
100
AcDbArc
 50
218.412506367168
 51
259.1638696626047
  0
LINE
  5
498D
330
2
100
AcDbEntity
  8
AM_VIS
100
AcDbLine
 10
652.6073115374522
 20
-46.84630218135938
 30
0.0
 11
652.6073115374522
 21
-60.44630218135939
 31
0.0
  0
LINE
  5
498E
330
2
100
AcDbEntity
  8
AM_VIS
100
AcDbLine
 10
652.6073115374522
 20
-46.84630218135938
 30
0.0
 11
652.1073115374522
 21
-46.84630218135938
 31
0.0
  0
LINE
  5
498F
102
{ACAD_REACTORS
330
4A6C
102
}
330
2
100
AcDbEntity
  8
AM_VIS
100
AcDbLine
 10
641.6073115374522
 20
-46.84630218135942
 30
0.0
 11
641.6073115374522
 21
-60.44630218135941
 31
0.0
  0
LINE
  5
4990
330
2
100
AcDbEntity
  8
AM_VIS
100
AcDbLine
 10
642.1073115374522
 20
-46.84630218135942
 30
0.0
 11
641.6073115374522
 21
-46.84630218135942
 31
0.0
  0
LINE
  5
4991
330
2
100
AcDbEntity
  8
AM_VIS
100
AcDbLine
 10
652.1073115374522
 20
-60.44630218135939
 30
0.0
 11
652.6073115374522
 21
-60.44630218135939
 31
0.0
  0
LINE
  5
4992
330
2
100
AcDbEntity
  8
AM_VIS
100
AcDbLine
 10
641.6073115374522
 20
-60.4463021813594
 30
0.0
 11
642.1073115374522
 21
-60.4463021813594
 31
0.0
  0
DIMENSION
  5
4A09
102
{ACAD_XDICTIONARY
360
4A16
102
}
102
{ACAD_REACTORS
330
4A20
102
}
330
2
100
AcDbEntity
  8
AM_5
100
AcDbDimension
  2
*D11
 10
570.5924873710239
 20
0.7823031969901422
 30
0.0
 11
565.0985949981364
 21
0.7823031969901422
 31
0.0
 70
   160
 71
     5
 42
11.0
  3
AM_ISO$0
100
AcDbAlignedDimension
 13
559.5924873710239
 23
-5.011335300355938
 33
0.0
 14
570.5924873710239
 24
-2.711335300355955
 34
0.0
100
AcDbRotatedDimension
1001
ACAD
1000
DSTYLE
1002
{
1070
    40
1040
0.7
1002
}
  0
DIMENSION
  5
4A39
102
{ACAD_XDICTIONARY
360
4A48
102
}
102
{ACAD_REACTORS
330
4A54
102
}
330
2
100
AcDbEntity
  8
AM_5
100
AcDbDimension
  2
*D12
 10
577.5924873710239
 20
0.7823031969901422
 30
0.0
 11
574.0924873710239
 21
2.707303196990141
 31
0.0
 70
    32
 71
     5
 42
7.0
  3
AM_ISO$0
100
AcDbAlignedDimension
 13
570.5924873710239
 23
-2.711335300355955
 33
0.0
 14
577.5924873710239
 24
-10.91133530035594
 34
0.0
100
AcDbRotatedDimension
1001
ACAD
1000
DSTYLE
1002
{
1070
    40
1040
0.7
1002
}
  0
DIMENSION
  5
4A55
102
{ACAD_XDICTIONARY
360
4A62
102
}
102
{ACAD_REACTORS
330
4A6C
102
}
330
2
100
AcDbEntity
  8
AM_5
100
AcDbDimension
  2
*D13
 10
634.7889655480047
 20
-32.94630218135939
 30
0.0
 11
632.8637244062725
 21
-46.69630218135929
 31
0.0
 70
    32
 71
     5
 42
27.50000000000003
  3
AM_ISO$0
100
AcDbAlignedDimension
 13
641.6073115374522
 23
-60.44630218135941
 33
0.0
 14
642.1073115374522
 24
-32.94630218135939
 34
0.0
 50
90.0
100
AcDbRotatedDimension
1001
ACAD
1000
DSTYLE
1002
{
1070
    40
1040
0.7
1002
}
  0
DIMENSION
  5
4ADC
102
{ACAD_XDICTIONARY
360
4AE6
102
}
102
{ACAD_REACTORS
330
4AED
102
}
330
2
100
AcDbEntity
  8
AM_5
100
AcDbDimension
  2
*D14
 10
577.0058150587352
 20
-13.49626164786082
 30
0.0
 11
594.3375695240181
 21
-22.55258939099633
 31
0.0
 70
   163
  1
2-<> thru
 71
     5
 42
1.700000000000102
  3
AM_ISO$3
100
AcDbDiametricDimension
 15
578.1791596833129
 25
-14.72640895285116
 35
0.0
 40
0.0
1001
ACAD
1000
DSTYLE
1002
{
1070
    40
1040
0.7
1002
}
  0
DIMENSION
  5
4B83
102
{ACAD_XDICTIONARY
360
4B90
102
}
102
{ACAD_REACTORS
330
4B91
102
}
330
2
100
AcDbEntity
  8
AM_5
100
AcDbDimension
  2
*D15
 10
552.9420833627533
 20
-45.44630218135933
 30
0.0
 11
551.0170833627533
 21
-52.94630218135925
 31
0.0
 70
    32
 71
     5
 42
15.0
  3
AM_ISO$0
100
AcDbAlignedDimension
 13
559.5924873710239
 23
-60.44630218135933
 33
0.0
 14
559.5924873710239
 24
-45.44630218135933
 34
0.0
 50
90.0
100
AcDbRotatedDimension
1001
ACAD
1000
DSTYLE
1002
{
1070
    40
1040
0.7
1002
}
  0
DIMENSION
  5
4BAD
102
{ACAD_XDICTIONARY
360
4BBC
102
}
102
{ACAD_REACTORS
330
4BBD
102
}
330
2
100
AcDbEntity
  8
AM_5
100
AcDbDimension
  2
*D16
 10
557.408040809048
 20
-14.11133530035592
 30
0.0
 11
557.408040809048
 21
-21.71500187906214
 31
0.0
 70
   160
 71
     5
 42
0.9000000000000092
  3
AM_ISO$0
100
AcDbAlignedDimension
 13
559.5924873710239
 23
-15.01133530035594
 33
0.0
 14
574.3924873710239
 24
-14.11133530035593
 34
0.0
 50
90.0
100
AcDbRotatedDimension
1001
ACAD
1000
DSTYLE
1002
{
1070
    40
1040
0.7
1002
}
  0
DIMENSION
  5
4BE6
102
{ACAD_XDICTIONARY
360
4BF3
102
}
102
{ACAD_REACTORS
330
4BF4
102
}
330
2
100
AcDbEntity
  8
AM_5
100
AcDbDimension
  2
*D17
 10
547.6501197828179
 20
-5.011335300355934
 30
0.0
 11
547.6501197828179
 21
-10.08360471605186
 31
0.0
 70
   160
 71
     5
 42
10.0
  3
AM_ISO$0
100
AcDbAlignedDimension
 13
559.5924873710239
 23
-15.01133530035594
 33
0.0
 14
559.5924873710239
 24
-5.011335300355938
 34
0.0
 50
90.0
100
AcDbRotatedDimension
1001
ACAD
1000
DSTYLE
1002
{
1070
    40
1040
0.7
1002
}
  0
DIMENSION
  5
4C0C
102
{ACAD_XDICTIONARY
360
4C19
102
}
102
{ACAD_REACTORS
330
4C1A
102
}
330
2
100
AcDbEntity
  8
AM_5
100
AcDbDimension
  2
*D18
 10
552.3789585931539
 20
-14.11133530035592
 30
0.0
 11
552.3789585931539
 21
-9.858427317433779
 31
0.0
 70
   160
 71
     5
 42
8.199999999999986
  3
AM_ISO$0
100
AcDbAlignedDimension
 13
567.3924873710238
 23
-5.911335300355943
 33
0.0
 14
574.3924873710239
 24
-14.11133530035593
 34
0.0
 50
90.0
100
AcDbRotatedDimension
1001
ACAD
1000
DSTYLE
1002
{
1070
    40
1040
0.7
1002
}
  0
DIMENSION
  5
4C57
102
{ACAD_XDICTIONARY
360
4C66
102
}
102
{ACAD_REACTORS
330
4C67
102
}
330
2
100
AcDbEntity
  8
AM_5
100
AcDbDimension
  2
*D19
 10
573.9612627252778
 20
-45.44630218135938
 30
0.0
 11
572.0362627252779
 21
-38.9538021813593
 31
0.0
 70
    32
 71
     5
 42
1.400000000000034
  3
AM_ISO$0
100
AcDbAlignedDimension
 13
575.3064325025713
 23
-46.84630218135942
 33
0.0
 14
575.9924873710239
 24
-45.44630218135938
 34
0.0
 50
90.0
100
AcDbRotatedDimension
1001
ACAD
1000
DSTYLE
1002
{
1070
    40
1040
0.7
1002
}
  0
DIMENSION
  5
4C85
102
{ACAD_XDICTIONARY
360
4C92
102
}
102
{ACAD_REACTORS
330
4C93
102
}
330
2
100
AcDbEntity
  8
AM_5
100
AcDbDimension
  2
*D20
 10
610.1424873710239
 20
-69.67617766929177
 30
0.0
 11
584.8674873710239
 21
-67.75117766929177
 31
0.0
 70
    32
 71
     5
 42
50.54999999999996
  3
AM_ISO$0
100
AcDbAlignedDimension
 13
559.5924873710239
 23
-60.44630218135933
 33
0.0
 14
610.1424873710239
 24
-60.44630218135939
 34
0.0
 50
0.0000000000002036
100
AcDbRotatedDimension
1001
ACAD
1000
DSTYLE
1002
{
1070
    40
1040
0.7
1070
   144
1040
1.0
1002
}
  0
DIMENSION
  5
4CAF
102
{ACAD_XDICTIONARY
360
4CBC
102
}
102
{ACAD_REACTORS
330
4CBD
102
}
330
2
100
AcDbEntity
  8
AM_5
100
AcDbDimension
  2
*D21
 10
619.6424873710238
 20
-76.67617766929175
 30
0.0
 11
589.6174873710239
 21
-74.75117766929175
 31
0.0
 70
    32
 71
     5
 42
60.04999999999995
  3
AM_ISO$0
100
AcDbAlignedDimension
 13
559.5924873710239
 23
-60.44630218135933
 33
0.0
 14
619.6424873710238
 24
-42.04630218135941
 34
0.0
 50
0.0000000000002036
100
AcDbRotatedDimension
1001
ACAD
1000
DSTYLE
1002
{
1070
    40
1040
0.7
1002
}
  0
LINE
  5
4CF3
330
2
100
AcDbEntity
  8
AM_7
100
AcDbLine
 10
578.042487371024
 20
-106.1299673283809
 30
0.0
 11
580.6424873710239
 21
-106.1299673283809
 31
0.0
  0
LINE
  5
4CF4
102
{ACAD_REACTORS
330
5001
102
}
330
2
100
AcDbEntity
  8
AM_7
100
AcDbLine
 10
579.3424873710239
 20
-107.4299673283809
 30
0.0
 11
579.3424873710239
 21
-104.8299673283809
 31
0.0
  0
LINE
  5
4CF5
330
2
100
AcDbEntity
  8
AM_7
100
AcDbLine
 10
576.292487371024
 20
-104.0299673283809
 30
0.0
 11
578.8924873710239
 21
-104.0299673283809
 31
0.0
  0
LINE
  5
4CF6
330
2
100
AcDbEntity
  8
AM_7
100
AcDbLine
 10
577.5924873710239
 20
-105.3299673283809
 30
0.0
 11
577.5924873710239
 21
-102.7299673283809
 31
0.0
  0
LINE
  5
4CF7
330
2
100
AcDbEntity
  8
AM_7
100
AcDbLine
 10
574.542487371024
 20
-108.1299673283809
 30
0.0
 11
577.1424873710238
 21
-108.1299673283809
 31
0.0
  0
LINE
  5
4CF8
102
{ACAD_REACTORS
330
4EC7
330
4F3E
330
4F5A
330
4FC2
330
5001
102
}
330
2
100
AcDbEntity
  8
AM_7
100
AcDbLine
 10
575.8424873710239
 20
-109.4299673283809
 30
0.0
 11
575.8424873710239
 21
-106.8299673283809
 31
0.0
  0
LINE
  5
4CF9
330
2
100
AcDbEntity
  8
AM_7
100
AcDbLine
 10
567.5424873710239
 20
-108.1299673283809
 30
0.0
 11
570.1424873710238
 21
-108.1299673283809
 31
0.0
  0
LINE
  5
4CFA
102
{ACAD_REACTORS
330
4F5A
102
}
330
2
100
AcDbEntity
  8
AM_7
100
AcDbLine
 10
568.8424873710239
 20
-109.4299673283809
 30
0.0
 11
568.8424873710239
 21
-106.8299673283809
 31
0.0
  0
LINE
  5
4CFB
330
2
100
AcDbEntity
  8
AM_7
100
AcDbLine
 10
571.0424873710239
 20
-110.1299673283809
 30
0.0
 11
573.6424873710238
 21
-110.1299673283809
 31
0.0
  0
LINE
  5
4CFC
102
{ACAD_REACTORS
330
4FC2
102
}
330
2
100
AcDbEntity
  8
AM_7
100
AcDbLine
 10
572.3424873710239
 20
-111.4299673283809
 30
0.0
 11
572.3424873710239
 21
-108.8299673283809
 31
0.0
  0
LINE
  5
4CFD
330
2
100
AcDbEntity
  8
AM_7
100
AcDbLine
 10
569.2924873710239
 20
-112.2299673283809
 30
0.0
 11
571.8924873710238
 21
-112.2299673283809
 31
0.0
  0
LINE
  5
4CFE
330
2
100
AcDbEntity
  8
AM_7
100
AcDbLine
 10
570.5924873710239
 20
-113.5299673283809
 30
0.0
 11
570.5924873710239
 21
-110.9299673283809
 31
0.0
  0
DIMENSION
  5
4EB9
102
{ACAD_XDICTIONARY
360
4EC6
102
}
102
{ACAD_REACTORS
330
4EC7
102
}
330
2
100
AcDbEntity
  8
AM_5
100
AcDbDimension
  2
*D23
 10
575.8424873710239
 20
-93.18196271310609
 30
0.0
 11
567.7663188092837
 21
-93.18196271310609
 31
0.0
 70
   160
 71
     5
 42
16.25
  3
AM_ISO$0
100
AcDbAlignedDimension
 13
559.5924873710239
 23
-103.1299673283809
 33
0.0
 14
575.8424873710239
 24
-106.8299673283809
 34
0.0
100
AcDbRotatedDimension
1001
ACAD
1000
DSTYLE
1002
{
1070
    40
1040
0.7
1002
}
  0
DIMENSION
  5
4F2E
102
{ACAD_XDICTIONARY
360
4F3D
102
}
102
{ACAD_REACTORS
330
4F3E
102
}
330
2
100
AcDbEntity
  8
AM_5
100
AcDbDimension
  2
*D24
 10
582.8424873710239
 20
-98.11745438148921
 30
0.0
 11
579.3424873710239
 21
-96.19245438148922
 31
0.0
 70
    32
 71
     5
 42
7.0
  3
AM_ISO$0
100
AcDbAlignedDimension
 13
575.8424873710239
 23
-106.8299673283809
 33
0.0
 14
582.8424873710239
 24
-106.8299673283809
 34
0.0
100
AcDbRotatedDimension
1001
ACAD
1000
DSTYLE
1002
{
1070
    40
1040
0.7
1002
}
  0
DIMENSION
  5
4F4A
102
{ACAD_XDICTIONARY
360
4F59
102
}
102
{ACAD_REACTORS
330
4F5A
102
}
330
2
100
AcDbEntity
  8
AM_5
100
AcDbDimension
  2
*D25
 10
568.8424873710239
 20
-98.11745438148921
 30
0.0
 11
572.3424873710239
 21
-96.19245438148922
 31
0.0
 70
    32
 71
     5
 42
7.0
  3
AM_ISO$0
100
AcDbAlignedDimension
 13
575.8424873710239
 23
-106.8299673283809
 33
0.0
 14
568.8424873710239
 24
-106.8299673283809
 34
0.0
100
AcDbRotatedDimension
1001
ACAD
1000
DSTYLE
1002
{
1070
    40
1040
0.7
1002
}
  0
DIMENSION
  5
4FB2
102
{ACAD_XDICTIONARY
360
4FC1
102
}
102
{ACAD_REACTORS
330
4FC2
102
}
330
2
100
AcDbEntity
  8
AM_5
100
AcDbDimension
  2
*D26
 10
572.3424873710239
 20
-119.7926244232061
 30
0.0
 11
565.6767462096333
 21
-119.7926244232061
 31
0.0
 70
   160
 71
     5
 42
3.5
  3
AM_ISO$0
100
AcDbAlignedDimension
 13
575.8424873710239
 23
-109.4299673283809
 33
0.0
 14
572.3424873710239
 24
-111.4299673283809
 34
0.0
 50
0.0000000000002036
100
AcDbRotatedDimension
1001
ACAD
1000
DSTYLE
1002
{
1070
    40
1040
0.7
1070
   173
1070
     1
1070
   343
1005
4D7B
1002
}
  0
DIMENSION
  5
4FF1
102
{ACAD_XDICTIONARY
360
5000
102
}
102
{ACAD_REACTORS
330
5001
102
}
330
2
100
AcDbEntity
  8
AM_5
100
AcDbDimension
  2
*D27
 10
579.3424873710239
 20
-119.7926244232061
 30
0.0
 11
586.0082285324145
 21
-119.7926244232061
 31
0.0
 70
   160
 71
     5
 42
3.5
  3
AM_ISO$0
100
AcDbAlignedDimension
 13
575.8424873710239
 23
-109.4299673283809
 33
0.0
 14
579.3424873710239
 24
-107.4299673283809
 34
0.0
100
AcDbRotatedDimension
1001
ACAD
1000
DSTYLE
1002
{
1070
    40
1040
0.7
1070
   173
1070
     1
1070
   343
1005
4D7B
1002
}
  0
DIMENSION
  5
5163
102
{ACAD_XDICTIONARY
360
5170
102
}
102
{ACAD_REACTORS
330
5171
102
}
330
2
100
AcDbEntity
  8
AM_5
100
AcDbDimension
  2
*D28
 10
553.5147729042916
 20
-102.6299673283809
 30
0.0
 11
553.5147729042916
 21
-108.1299673283808
 31
0.0
 70
   160
 71
     5
 42
11.0
  3
AM_ISO$0
100
AcDbAlignedDimension
 13
570.0924873710239
 23
-113.6299673283809
 33
0.0
 14
577.0924873710239
 24
-102.6299673283809
 34
0.0
 50
90.0
100
AcDbRotatedDimension
1001
ACAD
1000
DSTYLE
1002
{
1070
    40
1040
0.7
1002
}
  0
DIMENSION
  5
518B
102
{ACAD_XDICTIONARY
360
5197
102
}
102
{ACAD_REACTORS
330
5198
102
}
330
2
100
AcDbEntity
  8
AM_5
100
AcDbDimension
  2
*D29
 10
578.6146038588079
 20
-106.8156681324087
 30
0.0
 11
591.3312791172382
 21
-98.6805204565444
 31
0.0
 70
   163
  1
5-<>
 71
     5
 42
2.000000000000113
  3
AM_ISO$3
100
AcDbDiametricDimension
 15
580.0703708832399
 25
-105.4442665243532
 35
0.0
 40
0.0
1001
ACAD
1000
DSTYLE
1002
{
1070
    40
1040
0.7
1070
   144
1040
1.0
1002
}
  0
ENDSEC
  0
SECTION
  2
OBJECTS
  0
DICTIONARY
  5
8
330
0
100
AcDbDictionary
281
     1
  3
ACAD_COLOR
350
22EB
  3
ACAD_GROUP
350
21
  3
ACAD_LAYOUT
350
C
  3
ACAD_MATERIAL
350
22EA
  3
ACAD_MLINESTYLE
350
22
  3
ACAD_PLOTSETTINGS
350
23
  3
ACAD_PLOTSTYLENAME
350
7
  3
ACAD_TABLESTYLE
350
22EC
  3
ACDBHEADERROUNDTRIPXREC
350
5663
  3
AcDbVariableDictionary
350
1D2
  3
AcmDictionary
350
1F4
  3
AMG
350
1DA
  3
AMGSNAPSETTINGS
350
37D
  3
ASE_INDEX_DICTIONARY
350
E58
  3
DWGPROPS
350
5662
  0
DICTIONARY
  5
2434
330
11
100
AcDbDictionary
280
     1
281
     1
  3
ACAD_LAYERFILTERS
360
4CF2
  3
ACAD_LAYERSTATES
360
2435
  3
ACLYDICTIONARY
360
4CF1
  0
DICTIONARY
  5
3
330
2
100
AcDbDictionary
280
     1
281
     1
  3
ACAD_INDEX
360
403A
  3
ACAD_LAYOUTSELFREF
360
22C3
  0
DICTIONARY
  5
1848
330
D
100
AcDbDictionary
280
     1
281
     1
  3
ACAD_LAYOUTSELFREF
360
22C8
  0
DICTIONARY
  5
4A16
330
4A09
100
AcDbDictionary
280
     1
281
     1
  3
ACAD_DIMASSOC
360
4A20
  0
DICTIONARY
  5
4A48
330
4A39
100
AcDbDictionary
280
     1
281
     1
  3
ACAD_DIMASSOC
360
4A54
  0
DICTIONARY
  5
4A62
330
4A55
100
AcDbDictionary
280
     1
281
     1
  3
ACAD_DIMASSOC
360
4A6C
  0
DICTIONARY
  5
4AE6
330
4ADC
100
AcDbDictionary
280
     1
281
     1
  3
ACAD_DIMASSOC
360
4AED
  0
DICTIONARY
  5
4B90
330
4B83
100
AcDbDictionary
280
     1
281
     1
  3
ACAD_DIMASSOC
360
4B91
  0
DICTIONARY
  5
4BBC
330
4BAD
100
AcDbDictionary
280
     1
281
     1
  3
ACAD_DIMASSOC
360
4BBD
  0
DICTIONARY
  5
4BF3
330
4BE6
100
AcDbDictionary
280
     1
281
     1
  3
ACAD_DIMASSOC
360
4BF4
  0
DICTIONARY
  5
4C19
330
4C0C
100
AcDbDictionary
280
     1
281
     1
  3
ACAD_DIMASSOC
360
4C1A
  0
DICTIONARY
  5
4C66
330
4C57
100
AcDbDictionary
280
     1
281
     1
  3
ACAD_DIMASSOC
360
4C67
  0
DICTIONARY
  5
4C92
330
4C85
100
AcDbDictionary
280
     1
281
     1
  3
ACAD_DIMASSOC
360
4C93
  0
DICTIONARY
  5
4CBC
330
4CAF
100
AcDbDictionary
280
     1
281
     1
  3
ACAD_DIMASSOC
360
4CBD
  0
DICTIONARY
  5
4EC6
330
4EB9
100
AcDbDictionary
280
     1
281
     1
  3
ACAD_DIMASSOC
360
4EC7
  0
DICTIONARY
  5
4F3D
330
4F2E
100
AcDbDictionary
280
     1
281
     1
  3
ACAD_DIMASSOC
360
4F3E
  0
DICTIONARY
  5
4F59
330
4F4A
100
AcDbDictionary
280
     1
281
     1
  3
ACAD_DIMASSOC
360
4F5A
  0
DICTIONARY
  5
4FC1
330
4FB2
100
AcDbDictionary
280
     1
281
     1
  3
ACAD_DIMASSOC
360
4FC2
  0
DICTIONARY
  5
5000
330
4FF1
100
AcDbDictionary
280
     1
281
     1
  3
ACAD_DIMASSOC
360
5001
  0
DICTIONARY
  5
5170
330
5163
100
AcDbDictionary
280
     1
281
     1
  3
ACAD_DIMASSOC
360
5171
  0
DICTIONARY
  5
5197
330
518B
100
AcDbDictionary
280
     1
281
     1
  3
ACAD_DIMASSOC
360
5198
  0
DICTIONARY
  5
22EB
102
{ACAD_REACTORS
330
8
102
}
330
8
100
AcDbDictionary
281
     1
  0
DICTIONARY
  5
21
102
{ACAD_REACTORS
330
8
102
}
330
8
100
AcDbDictionary
281
     1
  0
DICTIONARY
  5
C
102
{ACAD_REACTORS
330
8
102
}
330
8
100
AcDbDictionary
281
     1
  3
Layout1
350
10
  3
Model
350
B
  0
DICTIONARY
  5
22EA
102
{ACAD_REACTORS
330
8
102
}
330
8
100
AcDbDictionary
281
     1
  0
DICTIONARY
  5
22
102
{ACAD_REACTORS
330
8
102
}
330
8
100
AcDbDictionary
281
     1
  3
Standard
350
24
  0
DICTIONARY
  5
23
102
{ACAD_REACTORS
330
8
102
}
330
8
100
AcDbDictionary
281
     1
  0
ACDBDICTIONARYWDFLT
  5
7
102
{ACAD_REACTORS
330
8
102
}
330
8
100
AcDbDictionary
281
     1
  3
Normal
350
6
100
AcDbDictionaryWithDefault
340
6
  0
DICTIONARY
  5
22EC
102
{ACAD_REACTORS
330
8
102
}
330
8
100
AcDbDictionary
281
     1
  3
Standard
350
22ED
  0
DICTIONARY
  5
5663
102
{ACAD_REACTORS
330
8
102
}
330
8
100
AcDbDictionary
281
     1
  0
DICTIONARY
  5
1D2
102
{ACAD_REACTORS
330
8
102
}
330
8
100
AcDbDictionary
281
     1
  3
CTABLESTYLE
350
2CA1
  3
DIMASSOC
350
1D4
  3
HIDETEXT
350
1D3
  3
INDEXCTL
350
4C0
  3
PROJECTNAME
350
2CA2
  0
DICTIONARY
  5
1F4
102
{ACAD_REACTORS
330
8
102
}
330
8
100
AcDbDictionary
281
     1
  3
AcmStdDictionary
350
1FA
  3
AMDTSECTSYM_ARROWCOLOR
350
2360
  0
DICTIONARY
  5
1DA
102
{ACAD_REACTORS
330
8
102
}
330
8
100
AcDbDictionary
281
     1
  0
DICTIONARY
  5
37D
102
{ACAD_REACTORS
330
8
102
}
330
8
100
AcDbDictionary
281
     1
  0
DICTIONARY
  5
E58
102
{ACAD_REACTORS
330
8
102
}
330
8
100
AcDbDictionary
281
     1
  3
ASEBlockHierarchyIndexRecord
350
E5A
1001
DCO15
1040
1443953005.444
  0
XRECORD
  5
5662
102
{ACAD_REACTORS
330
8
102
}
330
8
100
AcDbXrecord
280
     1
  1
DWGPROPS COOKIE
  2

  3

  4

  6

  7

  8

  9

300
AmdtFileType=84
301
=
302
=
303
=
304
=
305
=
306
=
307
=
308
=
309
=
 40
0.1984735416666667
 41
2452691.454954444
 42
2454693.590624746
  1

 90
        1
  0
DICTIONARY
  5
4CF2
102
{ACAD_REACTORS
330
2434
102
}
330
2434
100
AcDbDictionary
281
     1
  0
DICTIONARY
  5
2435
102
{ACAD_REACTORS
330
2434
102
}
330
2434
100
AcDbDictionary
281
     1
  0
DICTIONARY
  5
4CF1
102
{ACAD_REACTORS
330
2434
102
}
330
2434
100
AcDbDictionary
281
     1
1001
ACAD
1000
<All
  0
DICTIONARY
  5
403A
102
{ACAD_REACTORS
330
3
102
}
330
3
100
AcDbDictionary
281
     1
  3
*A1
350
403B
  0
XRECORD
  5
22C3
102
{ACAD_REACTORS
330
3
102
}
330
3
100
AcDbXrecord
280
     1
340
2
  0
XRECORD
  5
22C8
102
{ACAD_REACTORS
330
1848
102
}
330
1848
100
AcDbXrecord
280
     1
340
D
  0
DIMASSOC
  5
4A20
102
{ACAD_REACTORS
330
4A16
102
}
330
4A16
100
AcDbDimAssoc
330
4A09
 90
        3
 70
     0
 71
     0
  1
AcDbOsnapPointRef
 72
    13
331
478C
 73
     2
 91
        0
 40
0.0
 10
0.0
 20
0.0
 30
2.000000000000000E+50
 75
     0
  1
AcDbOsnapPointRef
 72
     1
331
4722
 73
     2
 91
        0
 40
0.9999999999999998
 10
0.0
 20
0.0
 30
2.000000000000000E+50
 75
     0
  0
DIMASSOC
  5
4A54
102
{ACAD_REACTORS
330
4A48
102
}
330
4A48
100
AcDbDimAssoc
330
4A39
 90
        3
 70
     0
 71
     0
  1
AcDbOsnapPointRef
 72
     1
331
4722
 73
     2
 91
        0
 40
0.9999999999999998
 10
0.0
 20
0.0
 30
2.000000000000000E+50
 75
     0
  1
AcDbOsnapPointRef
 72
     1
331
471C
 73
     2
 91
        0
 40
0.9999999999999998
 10
0.0
 20
0.0
 30
2.000000000000000E+50
 75
     0
  0
DIMASSOC
  5
4A6C
102
{ACAD_REACTORS
330
4A62
102
}
330
4A62
100
AcDbDimAssoc
330
4A55
 90
        3
 70
     0
 71
     0
  1
AcDbOsnapPointRef
 72
     1
331
498F
 73
     2
 91
        0
 40
1.0
 10
0.0
 20
0.0
 30
2.000000000000000E+50
 75
     0
  1
AcDbOsnapPointRef
 72
     1
331
4938
 73
     2
 91
        0
 40
1.0
 10
0.0
 20
0.0
 30
2.000000000000000E+50
 75
     0
  0
DIMASSOC
  5
4AED
102
{ACAD_REACTORS
330
4AE6
102
}
330
4AE6
100
AcDbDimAssoc
330
4ADC
 90
        2
 70
     0
 71
     0
  1
AcDbOsnapPointRef
 72
     3
331
47D3
 73
     2
 91
        0
 40
0.0
 10
0.0
 20
0.0
 30
0.0
 75
     0
  0
DIMASSOC
  5
4B91
102
{ACAD_REACTORS
330
4B90
102
}
330
4B90
100
AcDbDimAssoc
330
4B83
 90
        3
 70
     0
 71
     0
  1
AcDbOsnapPointRef
 72
     1
331
486D
 73
     0
 91
        0
 40
0.0
 10
0.0
 20
0.0
 30
2.000000000000000E+50
 75
     0
  1
AcDbOsnapPointRef
 72
     1
331
486A
 73
     0
 91
        0
 40
0.0
 10
0.0
 20
0.0
 30
2.000000000000000E+50
 75
     0
  0
DIMASSOC
  5
4BBD
102
{ACAD_REACTORS
330
4BBC
102
}
330
4BBC
100
AcDbDimAssoc
330
4BAD
 90
        3
 70
     0
 71
     0
  1
AcDbOsnapPointRef
 72
     1
331
478C
 73
     0
 91
        0
 40
0.0
 10
0.0
 20
0.0
 30
2.000000000000000E+50
 75
     0
  1
AcDbOsnapPointRef
 72
    13
331
4719
 73
     0
 91
        0
 40
0.0
 10
0.0
 20
0.0
 30
2.000000000000000E+50
 75
     0
  0
DIMASSOC
  5
4BF4
102
{ACAD_REACTORS
330
4BF3
102
}
330
4BF3
100
AcDbDimAssoc
330
4BE6
 90
        3
 70
     0
 71
     0
  1
AcDbOsnapPointRef
 72
     1
331
478C
 73
     0
 91
        0
 40
0.0
 10
0.0
 20
0.0
 30
2.000000000000000E+50
 75
     0
  1
AcDbOsnapPointRef
 72
    13
331
478C
 73
     0
 91
        0
 40
0.0
 10
0.0
 20
0.0
 30
2.000000000000000E+50
 75
     0
  0
DIMASSOC
  5
4C1A
102
{ACAD_REACTORS
330
4C19
102
}
330
4C19
100
AcDbDimAssoc
330
4C0C
 90
        3
 70
     0
 71
     0
  1
AcDbOsnapPointRef
 72
    13
331
471F
 73
     0
 91
        0
 40
0.0
 10
0.0
 20
0.0
 30
2.000000000000000E+50
 75
     0
  1
AcDbOsnapPointRef
 72
    13
331
4719
 73
     0
 91
        0
 40
0.0
 10
0.0
 20
0.0
 30
2.000000000000000E+50
 75
     0
  0
DIMASSOC
  5
4C67
102
{ACAD_REACTORS
330
4C66
102
}
330
4C66
100
AcDbDimAssoc
330
4C57
 90
        2
 70
     0
 71
     0
  1
AcDbOsnapPointRef
 72
    13
331
48D5
 73
     0
 91
        0
 40
0.0
 10
0.0
 20
0.0
 30
2.000000000000000E+50
 75
     0
  0
DIMASSOC
  5
4C93
102
{ACAD_REACTORS
330
4C92
102
}
330
4C92
100
AcDbDimAssoc
330
4C85
 90
        3
 70
     0
 71
     0
  1
AcDbOsnapPointRef
 72
     1
331
486D
 73
     0
 91
        0
 40
0.0
 10
0.0
 20
0.0
 30
2.000000000000000E+50
 75
     0
  1
AcDbOsnapPointRef
 72
     1
331
4879
 73
     0
 91
        0
 40
0.0
 10
0.0
 20
0.0
 30
2.000000000000000E+50
 75
     0
  0
DIMASSOC
  5
4CBD
102
{ACAD_REACTORS
330
4CBC
102
}
330
4CBC
100
AcDbDimAssoc
330
4CAF
 90
        3
 70
     0
 71
     0
  1
AcDbOsnapPointRef
 72
     1
331
486D
 73
     0
 91
        0
 40
0.0
 10
0.0
 20
0.0
 30
2.000000000000000E+50
 75
     0
  1
AcDbOsnapPointRef
 72
    13
331
489C
 73
     0
 91
        0
 40
0.0
 10
0.0
 20
0.0
 30
2.000000000000000E+50
 75
     0
  0
DIMASSOC
  5
4EC7
102
{ACAD_REACTORS
330
4EC6
102
}
330
4EC6
100
AcDbDimAssoc
330
4EB9
 90
        3
 70
     0
 71
     0
  1
AcDbOsnapPointRef
 72
     1
331
47E9
 73
     0
 91
        0
 40
0.0
 10
0.0
 20
0.0
 30
2.000000000000000E+50
 75
     0
  1
AcDbOsnapPointRef
 72
     1
331
4CF8
 73
     0
 91
        0
 40
0.0
 10
0.0
 20
0.0
 30
2.000000000000000E+50
 75
     0
  0
DIMASSOC
  5
4F3E
102
{ACAD_REACTORS
330
4F3D
102
}
330
4F3D
100
AcDbDimAssoc
330
4F2E
 90
        3
 70
     0
 71
     0
  1
AcDbOsnapPointRef
 72
     1
331
4CF8
 73
     0
 91
        0
 40
0.0
 10
0.0
 20
0.0
 30
2.000000000000000E+50
 75
     0
  1
AcDbOsnapPointRef
 72
     1
331
4749
 73
     0
 91
        0
 40
0.0
 10
0.0
 20
0.0
 30
2.000000000000000E+50
 75
     0
  0
DIMASSOC
  5
4F5A
102
{ACAD_REACTORS
330
4F59
102
}
330
4F59
100
AcDbDimAssoc
330
4F4A
 90
        3
 70
     0
 71
     0
  1
AcDbOsnapPointRef
 72
     1
331
4CF8
 73
     0
 91
        0
 40
0.0
 10
0.0
 20
0.0
 30
2.000000000000000E+50
 75
     0
  1
AcDbOsnapPointRef
 72
     1
331
4CFA
 73
     0
 91
        0
 40
0.0
 10
0.0
 20
0.0
 30
2.000000000000000E+50
 75
     0
  0
DIMASSOC
  5
4FC2
102
{ACAD_REACTORS
330
4FC1
102
}
330
4FC1
100
AcDbDimAssoc
330
4FB2
 90
        3
 70
     0
 71
     0
  1
AcDbOsnapPointRef
 72
    13
331
4CF8
 73
     0
 91
        0
 40
0.0
 10
0.0
 20
0.0
 30
2.000000000000000E+50
 75
     0
  1
AcDbOsnapPointRef
 72
    13
331
4CFC
 73
     0
 91
        0
 40
0.0
 10
0.0
 20
0.0
 30
2.000000000000000E+50
 75
     0
  0
DIMASSOC
  5
5001
102
{ACAD_REACTORS
330
5000
102
}
330
5000
100
AcDbDimAssoc
330
4FF1
 90
        3
 70
     0
 71
     0
  1
AcDbOsnapPointRef
 72
    13
331
4CF8
 73
     0
 91
        0
 40
0.0
 10
0.0
 20
0.0
 30
2.000000000000000E+50
 75
     0
  1
AcDbOsnapPointRef
 72
    13
331
4CF4
 73
     0
 91
        0
 40
0.0
 10
0.0
 20
0.0
 30
2.000000000000000E+50
 75
     0
  0
DIMASSOC
  5
5171
102
{ACAD_REACTORS
330
5170
102
}
330
5170
100
AcDbDimAssoc
330
5163
 90
        3
 70
     0
 71
     0
  1
AcDbOsnapPointRef
 72
    13
331
4820
 73
     0
 91
        0
 40
0.0
 10
0.0
 20
0.0
 30
2.000000000000000E+50
 75
     0
  1
AcDbOsnapPointRef
 72
    13
331
4829
 73
     0
 91
        0
 40
0.0
 10
0.0
 20
0.0
 30
2.000000000000000E+50
 75
     0
  0
DIMASSOC
  5
5198
102
{ACAD_REACTORS
330
5197
102
}
330
5197
100
AcDbDimAssoc
330
518B
 90
        2
 70
     0
 71
     0
  1
AcDbOsnapPointRef
 72
     3
331
4838
 73
     2
 91
        0
 40
0.0
 10
0.0
 20
0.0
 30
0.0
 75
     0
  0
LAYOUT
  5
10
102
{ACAD_XDICTIONARY
360
5666
102
}
102
{ACAD_REACTORS
330
C
102
}
330
C
100
AcDbPlotSettings
  1

  2
\\RD01\EPSON Stylus COLOR 1160 單色
  4
A4
  6

 40
3.757083177566528
 41
14.7637300491333
 42
3.757080078125
 43
3.757080078125
 44
209.9733276367187
 45
296.9683227539062
 46
0.0
 47
0.0
 48
0.0
 49
0.0
140
0.0
141
0.0
142
1.0
143
1.0
 70
   688
 72
     1
 73
     0
 74
     5
  7
單色出圖.ctb
 75
    16
147
1.0
148
0.0
149
0.0
100
AcDbLayout
  1
Layout1
 70
     1
 71
     1
 10
-3.757083177566528
 20
-14.7637300491333
 11
206.2162444591522
 21
282.2045927047729
 12
0.0
 22
0.0
 32
0.0
 14
26.80208481208632
 24
60.62932117531272
 34
-0.0000000000000153
 15
155.7606180029584
 25
204.40991305297
 35
0.0
146
0.0
 13
0.0
 23
0.0
 33
0.0
 16
1.0
 26
0.0
 36
0.0
 17
0.0
 27
1.0
 37
0.0
 76
     0
330
D
  0
LAYOUT
  5
B
102
{ACAD_XDICTIONARY
360
5664
102
}
102
{ACAD_REACTORS
330
C
102
}
330
C
100
AcDbPlotSettings
  1

  2
自動 RD 上的 Epson Stylus Photo 750 單色
  4
A4
  6

 40
3.757083177566528
 41
14.7637300491333
 42
3.757080078125
 43
3.757080078125
 44
209.9733276367187
 45
296.9683227539062
 46
0.0
 47
0.0
 48
0.0
 49
0.0
140
0.0
141
0.0
142
1.0
143
1.0
 70
 11952
 72
     1
 73
     0
 74
     0
  7
單色出圖.ctb
 75
    16
147
1.0
148
47.70409695138527
149
1.582593250444062
100
AcDbLayout
  1
Model
 70
     1
 71
     0
 10
0.0
 20
0.0
 11
12.0
 21
9.0
 12
0.0
 22
0.0
 32
0.0
 14
0.0
 24
0.0
 34
0.0
 15
0.0
 25
0.0
 35
0.0
146
0.0
 13
0.0
 23
0.0
 33
0.0
 16
1.0
 26
0.0
 36
0.0
 17
0.0
 27
1.0
 37
0.0
 76
     0
330
2
  0
MLINESTYLE
  5
24
102
{ACAD_REACTORS
330
22
102
}
330
22
100
AcDbMlineStyle
  2
STANDARD
 70
     0
  3

 62
   256
 51
90.0
 52
90.0
 71
     2
 49
0.5
 62
   256
  6
BYLAYER
 49
-0.5
 62
   256
  6
BYLAYER
  0
ACDBPLACEHOLDER
  5
6
102
{ACAD_REACTORS
330
7
102
}
330
7
  0
TABLESTYLE
  5
22ED
102
{ACAD_REACTORS
330
22EC
102
}
330
22EC
100
AcDbTableStyle
  3
Standard
 70
     0
 71
     0
 40
1.5
 41
1.5
280
     0
281
     0
  7
STANDARD
140
4.5
170
     2
 62
     0
 63
     7
283
     0
274
    -2
284
     1
 64
     0
275
    -2
285
     1
 65
     0
276
    -2
286
     1
 66
     0
277
    -2
287
     1
 67
     0
278
    -2
288
     1
 68
     0
279
    -2
289
     1
 69
     0
  7
STANDARD
140
6.0
170
     5
 62
     0
 63
     7
283
     0
274
    -2
284
     1
 64
     0
275
    -2
285
     1
 65
     0
276
    -2
286
     1
 66
     0
277
    -2
287
     1
 67
     0
278
    -2
288
     1
 68
     0
279
    -2
289
     1
 69
     0
  7
STANDARD
140
4.5
170
     5
 62
     0
 63
     7
283
     0
274
    -2
284
     1
 64
     0
275
    -2
285
     1
 65
     0
276
    -2
286
     1
 66
     0
277
    -2
287
     1
 67
     0
278
    -2
288
     1
 68
     0
279
    -2
289
     1
 69
     0
  0
DICTIONARYVAR
  5
2CA1
102
{ACAD_REACTORS
330
1D2
102
}
330
1D2
100
DictionaryVariables
280
     0
  1
STANDARD
  0
DICTIONARYVAR
  5
1D4
102
{ACAD_REACTORS
330
1D2
102
}
330
1D2
100
DictionaryVariables
280
     0
  1
2
  0
DICTIONARYVAR
  5
1D3
102
{ACAD_REACTORS
330
1D2
102
}
330
1D2
100
DictionaryVariables
280
     0
  1
1
  0
DICTIONARYVAR
  5
4C0
102
{ACAD_REACTORS
330
1D2
102
}
330
1D2
100
DictionaryVariables
280
     0
  1
1
  0
DICTIONARYVAR
  5
2CA2
102
{ACAD_REACTORS
330
1D2
102
}
330
1D2
100
DictionaryVariables
280
     0
  1

  0
DICTIONARY
  5
1FA
102
{ACAD_REACTORS
330
1F4
102
}
330
1F4
100
AcDbDictionary
281
     1
  0
XRECORD
  5
2360
102
{ACAD_REACTORS
330
1F4
102
}
330
1F4
100
AcDbXrecord
280
     1
 90
-1023410169
  0
XRECORD
  5
E5A
102
{ACAD_REACTORS
330
E58
102
}
330
E58
100
AcDbXrecord
280
     1
330
0
330
0
  0
LAYER_INDEX
  5
403B
102
{ACAD_REACTORS
330
403A
102
}
330
403A
100
AcDbIndex
 40
2454693.590624746
100
AcDbLayerIndex
  8
0
360
5371
 90
       15
  8
Defpoints
360
5372
 90
        0
  8
AM_5
360
5373
 90
       20
  8
AM_VIS
360
5374
 90
      521
  8
AM_PARDIM
360
5375
 90
       10
  8
AM_7
360
5376
 90
       60
  8
LOGO
360
5377
 90
      151
  0
DICTIONARY
  5
5666
330
10
100
AcDbDictionary
280
     1
281
     1
  3
ACAD_XREC_ROUNDTRIP
360
5667
  0
DICTIONARY
  5
5664
330
B
100
AcDbDictionary
280
     1
281
     1
  3
ACAD_XREC_ROUNDTRIP
360
5665
  0
IDBUFFER
  5
5371
330
0
100
AcDbIdBuffer
330
25
330
26
330
27
330
28
330
29
330
2A
330
2B
330
2C
330
2D
330
2E
330
2F
330
30
330
2C00
330
2C01
330
2C02
  0
IDBUFFER
  5
5372
330
0
100
AcDbIdBuffer
  0
IDBUFFER
  5
5373
330
0
100
AcDbIdBuffer
330
151
330
156
330
4A09
330
4A39
330
4A55
330
4ADC
330
4B83
330
4BAD
330
4BE6
330
4C0C
330
4C57
330
4C85
330
4CAF
330
4EB9
330
4F2E
330
4F4A
330
4FB2
330
4FF1
330
5163
330
518B
  0
IDBUFFER
  5
5374
330
0
100
AcDbIdBuffer
330
4779
330
477A
330
477B
330
477C
330
477D
330
477E
330
477F
330
4780
330
4781
330
4782
330
4783
330
4784
330
4785
330
4786
330
4787
330
4788
330
4789
330
478A
330
478B
330
478C
330
478D
330
478E
330
478F
330
4790
330
4791
330
4792
330
4793
330
4794
330
4795
330
4796
330
4797
330
4798
330
4799
330
479A
330
479B
330
479C
330
479D
330
479E
330
479F
330
47A0
330
47A1
330
47A2
330
47A3
330
47A4
330
47A5
330
47A6
330
47A7
330
47A8
330
47A9
330
47AA
330
47AB
330
47AC
330
47AD
330
47AE
330
47AF
330
47B0
330
47B1
330
47B2
330
47B3
330
47B4
330
47B5
330
47B6
330
47B7
330
47B8
330
47B9
330
47BA
330
47BB
330
47BC
330
47BD
330
47BE
330
47BF
330
47C0
330
47C1
330
47C2
330
47C3
330
47C4
330
47C5
330
47C6
330
47C7
330
47C8
330
47C9
330
47CA
330
47CB
330
47CC
330
47CD
330
47CE
330
47CF
330
47D0
330
47D1
330
47D2
330
47D3
330
47D4
330
47D5
330
47D6
330
47D7
330
47D8
330
47D9
330
47DA
330
47DB
330
47DC
330
47DD
330
47DE
330
47DF
330
47E0
330
47E1
330
47E2
330
47E3
330
47E4
330
47E5
330
47E6
330
47E7
330
47E8
330
47E9
330
47F6
330
47F7
330
47F8
330
47F9
330
47FA
330
47FB
330
47FC
330
47FD
330
47FE
330
47FF
330
4800
330
4801
330
4802
330
4803
330
4804
330
4805
330
4806
330
4807
330
4808
330
4809
330
480A
330
480B
330
480C
330
480D
330
480E
330
480F
330
4810
330
4811
330
4812
330
4813
330
4814
330
4815
330
4816
330
4817
330
4818
330
4819
330
481A
330
481B
330
481E
330
481F
330
4820
330
4821
330
4822
330
4823
330
4824
330
4825
330
4826
330
4827
330
4828
330
4829
330
482A
330
482B
330
482C
330
482D
330
482E
330
482F
330
4830
330
4831
330
4832
330
4833
330
4834
330
4835
330
4836
330
4837
330
4838
330
4839
330
483A
330
483B
330
483C
330
483D
330
483E
330
483F
330
4840
330
4841
330
4842
330
4843
330
4844
330
4845
330
4846
330
4847
330
4848
330
4849
330
484A
330
484B
330
484C
330
484D
330
484E
330
484F
330
4850
330
4851
330
4852
330
4853
330
4854
330
4855
330
4856
330
4857
330
4858
330
4859
330
485A
330
485B
330
485C
330
485D
330
485E
330
485F
330
4860
330
4861
330
4862
330
4865
330
4866
330
4868
330
4869
330
486A
330
486B
330
486C
330
486D
330
486E
330
486F
330
4870
330
4871
330
4872
330
4873
330
4874
330
4875
330
4876
330
4877
330
4878
330
4879
330
487A
330
487B
330
487C
330
487D
330
487E
330
487F
330
4880
330
4881
330
4882
330
4883
330
4884
330
4885
330
4886
330
4887
330
4888
330
4889
330
488A
330
488B
330
488C
330
488D
330
488E
330
488F
330
4890
330
4891
330
4892
330
4893
330
4894
330
4895
330
4896
330
4897
330
4898
330
4899
330
489A
330
489B
330
489C
330
489D
330
489E
330
489F
330
48A0
330
48A1
330
48A2
330
48A3
330
48A4
330
48A5
330
48A6
330
48A7
330
48A8
330
48A9
330
48AA
330
48AB
330
48AC
330
48AD
330
48AE
330
48AF
330
48B0
330
48B1
330
48B2
330
48B3
330
48B4
330
48B5
330
48B6
330
48B7
330
48B8
330
48B9
330
48BA
330
48BB
330
48BC
330
48BD
330
48BE
330
48BF
330
48C0
330
48C1
330
48C2
330
48C3
330
48C4
330
48C5
330
48C6
330
48C7
330
48C8
330
48C9
330
48CA
330
48CB
330
48CC
330
48CD
330
48CE
330
48CF
330
48D0
330
48D1
330
48D2
330
48D3
330
48D4
330
48D5
330
48D6
330
48D7
330
48D8
330
48D9
330
48DA
330
48DB
330
48DC
330
48DD
330
48DE
330
48DF
330
48E0
330
48E1
330
48E2
330
48E3
330
48E4
330
48E5
330
48E6
330
48E7
330
48E8
330
48E9
330
48EA
330
48EB
330
48EC
330
48ED
330
48EE
330
48EF
330
48F0
330
48F1
330
48F2
330
48F3
330
48F4
330
48F5
330
48F6
330
48F7
330
48F8
330
48F9
330
48FA
330
48FB
330
48FC
330
48FD
330
48FE
330
48FF
330
4900
330
4901
330
4902
330
4903
330
4904
330
4905
330
4906
330
4907
330
4908
330
4909
330
490A
330
490B
330
490C
330
490D
330
490E
330
490F
330
4910
330
4911
330
4912
330
4913
330
4914
330
4915
330
4916
330
4917
330
4918
330
4919
330
491A
330
491B
330
491C
330
491D
330
491E
330
491F
330
4920
330
4921
330
4922
330
4923
330
4924
330
4925
330
4926
330
4927
330
4928
330
4929
330
492A
330
492B
330
492C
330
492D
330
492E
330
492F
330
4930
330
4931
330
4932
330
4933
330
4934
330
4935
330
4936
330
4937
330
4938
330
4939
330
493A
330
493B
330
493C
330
493D
330
493E
330
493F
330
4940
330
4941
330
4942
330
4943
330
4944
330
4945
330
4946
330
4947
330
4948
330
4949
330
494A
330
494B
330
494C
330
494D
330
494E
330
494F
330
4950
330
4951
330
4952
330
4953
330
4954
330
4955
330
4956
330
4957
330
4958
330
4959
330
495A
330
495B
330
495C
330
495D
330
495E
330
495F
330
4960
330
4961
330
4962
330
4963
330
4964
330
4965
330
4966
330
4967
330
4968
330
4969
330
496A
330
496B
330
496C
330
496D
330
496E
330
496F
330
4970
330
4971
330
4972
330
4973
330
4974
330
4975
330
4976
330
4977
330
4978
330
4979
330
497A
330
497B
330
497C
330
497D
330
497E
330
497F
330
4980
330
4981
330
4982
330
4983
330
4984
330
4985
330
4986
330
4987
330
4988
330
4989
330
498A
330
498B
330
498C
330
498D
330
498E
330
498F
330
4990
330
4991
330
4992
  0
IDBUFFER
  5
5375
330
0
100
AcDbIdBuffer
330
31
330
43
330
52
330
5F
330
6C
330
79
330
86
330
95
330
A3
330
B0
  0
IDBUFFER
  5
5376
330
0
100
AcDbIdBuffer
330
C8
330
4702
330
4703
330
4704
330
4715
330
4717
330
4718
330
4719
330
471A
330
471B
330
471C
330
471D
330
471E
330
471F
330
4720
330
4721
330
4722
330
4748
330
4749
330
474A
330
4755
330
4756
330
4758
330
4759
330
475B
330
475C
330
475E
330
475F
330
4761
330
4762
330
4763
330
4764
330
4765
330
4766
330
4767
330
4768
330
4769
330
476A
330
476B
330
476C
330
476D
330
476E
330
4770
330
4772
330
4773
330
4774
330
4775
330
4778
330
4CF3
330
4CF4
330
4CF5
330
4CF6
330
4CF7
330
4CF8
330
4CF9
330
4CFA
330
4CFB
330
4CFC
330
4CFD
330
4CFE
  0
IDBUFFER
  5
5377
330
0
100
AcDbIdBuffer
330
13E2
330
13E5
330
13E6
330
13E7
330
13E8
330
14D1
330
14D2
330
14D3
330
14D4
330
14D5
330
14DF
330
14E0
330
14E1
330
14E2
330
14E3
330
14EB
330
14EC
330
14F4
330
14F5
330
14F6
330
14F7
330
14F8
330
14F9
330
14FA
330
14FB
330
14FC
330
1509
330
150A
330
150B
330
150C
330
150D
330
1533
330
1534
330
1535
330
1536
330
1537
330
1538
330
1539
330
153A
330
153B
330
153C
330
153D
330
153E
330
153F
330
1540
330
1547
330
1548
330
1549
330
154A
330
154B
330
154C
330
154D
330
154E
330
154F
330
1550
330
1553
330
15C0
330
15C1
330
15C2
330
15C4
330
15C5
330
15C6
330
15C7
330
15C8
330
15C9
330
15CA
330
15CB
330
15CD
330
15CE
330
15CF
330
15D0
330
15D1
330
15D2
330
15D3
330
15D4
330
15F8
330
15F9
330
15FA
330
15FB
330
15FC
330
15FD
330
15FE
330
15FF
330
1602
330
2138
330
2B59
330
2B5A
330
2B5B
330
2B5C
330
2B5D
330
2B5E
330
2B5F
330
2B60
330
2B61
330
2B62
330
2B63
330
2B64
330
2B65
330
2B66
330
2B67
330
2B68
330
2B69
330
2B6A
330
2B6B
330
2B6C
330
2B6D
330
2B6E
330
2B6F
330
2B70
330
2B71
330
2B72
330
2B76
330
2B7A
330
2B7B
330
2B7F
330
2B80
330
2B81
330
2B82
330
2B83
330
2B84
330
2B85
330
2B86
330
2B8A
330
2B8E
330
2B92
330
2B93
330
2B94
330
2B98
330
2B99
330
2B9A
330
2B9B
330
2B9C
330
2B9D
330
2B9E
330
2B9F
330
2BA0
330
2BA1
330
2BA2
330
2BA3
330
2BE2
330
2BE3
330
2BE4
330
2BE5
330
2BE6
330
2BE7
330
2BE8
330
2BE9
330
2BEA
330
2BEB
330
2BEC
330
2BED
  0
XRECORD
  5
5667
102
{ACAD_REACTORS
330
5666
102
}
330
5666
100
AcDbXrecord
280
     1
102
SHADEPLOT
 70
     0
102
SHADEPLOTRESLEVEL
 70
     2
102
SHADEPLOTCUSTOMDPI
 70
   300
  0
XRECORD
  5
5665
102
{ACAD_REACTORS
330
5664
102
}
330
5664
100
AcDbXrecord
280
     1
102
SHADEPLOT
 70
     0
102
SHADEPLOTRESLEVEL
 70
     2
102
SHADEPLOTCUSTOMDPI
 70
   300
  0
ENDSEC
  0
EOF
