  0
SECTION
  2
HEADER
  9
$ACADVER
  1
AC1015
  9
$ACADMAINTVER
 70
    20
  9
$DWGCODEPAGE
  3
ANSI_950
  9
$INSBASE
 10
0.0
 20
0.0
 30
0.0
  9
$EXTMIN
 10
506.0156971654432
 20
464.8687240135684
 30
-0.0028195737512533
  9
$EXTMAX
 10
696.4733243604082
 20
776.9101216106389
 30
138.6039029160643
  9
$LIMMIN
 10
0.0
 20
0.0
  9
$LIMMAX
 10
420.0
 20
297.0
  9
$ORTHOMODE
 70
     1
  9
$REGENMODE
 70
     1
  9
$FILLMODE
 70
     1
  9
$QTEXTMODE
 70
     0
  9
$MIRRTEXT
 70
     1
  9
$LTSCALE
 40
1.0
  9
$ATTMODE
 70
     1
  9
$TEXTSIZE
 40
3.0
  9
$TRACEWID
 40
1.0
  9
$TEXTSTYLE
  7
STANDARD
  9
$CLAYER
  8
0
  9
$CELTYPE
  6
ByLayer
  9
$CECOLOR
 62
   256
  9
$CELTSCALE
 40
1.0
  9
$DISPSILH
 70
     0
  9
$DIMSCALE
 40
1.0
  9
$DIMASZ
 40
3.0
  9
$DIMEXO
 40
1.0
  9
$DIMDLI
 40
8.0
  9
$DIMRND
 40
0.0
  9
$DIMDLE
 40
0.0
  9
$DIMEXE
 40
1.5
  9
$DIMTP
 40
0.1
  9
$DIMTM
 40
0.1
  9
$DIMTXT
 40
3.5
  9
$DIMCEN
 40
0.0
  9
$DIMTSZ
 40
0.0
  9
$DIMTOL
 70
     0
  9
$DIMLIM
 70
     0
  9
$DIMTIH
 70
     0
  9
$DIMTOH
 70
     0
  9
$DIMSE1
 70
     0
  9
$DIMSE2
 70
     0
  9
$DIMTAD
 70
     1
  9
$DIMZIN
 70
     8
  9
$DIMBLK
  1

  9
$DIMASO
 70
     1
  9
$DIMSHO
 70
     1
  9
$DIMPOST
  1

  9
$DIMAPOST
  1
"
  9
$DIMALT
 70
     0
  9
$DIMALTD
 70
     2
  9
$DIMALTF
 40
0.0393701
  9
$DIMLFAC
 40
1.0
  9
$DIMTOFL
 70
     1
  9
$DIMTVP
 40
0.0
  9
$DIMTIX
 70
     0
  9
$DIMSOXD
 70
     0
  9
$DIMSAH
 70
     0
  9
$DIMBLK1
  1

  9
$DIMBLK2
  1

  9
$DIMSTYLE
  2
AM_ISO
  9
$DIMCLRD
 70
   256
  9
$DIMCLRE
 70
   256
  9
$DIMCLRT
 70
   256
  9
$DIMTFAC
 40
0.6
  9
$DIMGAP
 40
0.7
  9
$DIMJUST
 70
     0
  9
$DIMSD1
 70
     0
  9
$DIMSD2
 70
     0
  9
$DIMTOLJ
 70
     0
  9
$DIMTZIN
 70
     8
  9
$DIMALTZ
 70
     0
  9
$DIMALTTZ
 70
     0
  9
$DIMUPT
 70
     0
  9
$DIMDEC
 70
     2
  9
$DIMTDEC
 70
     8
  9
$DIMALTU
 70
     2
  9
$DIMALTTD
 70
     2
  9
$DIMTXSTY
  7
STANDARD
  9
$DIMAUNIT
 70
     0
  9
$DIMADEC
 70
     0
  9
$DIMALTRND
 40
0.0
  9
$DIMAZIN
 70
     2
  9
$DIMDSEP
 70
    46
  9
$DIMATFIT
 70
     3
  9
$DIMFRAC
 70
     0
  9
$DIMLDRBLK
  1

  9
$DIMLUNIT
 70
     2
  9
$DIMLWD
 70
    -1
  9
$DIMLWE
 70
    -1
  9
$DIMTMOVE
 70
     0
  9
$LUNITS
 70
     2
  9
$LUPREC
 70
     2
  9
$SKETCHINC
 40
1.0
  9
$FILLETRAD
 40
2.5
  9
$AUNITS
 70
     0
  9
$AUPREC
 70
     0
  9
$MENU
  1
.
  9
$ELEVATION
 40
0.0
  9
$PELEVATION
 40
0.0
  9
$THICKNESS
 40
0.0
  9
$LIMCHECK
 70
     0
  9
$CHAMFERA
 40
2.5
  9
$CHAMFERB
 40
2.5
  9
$CHAMFERC
 40
20.0
  9
$CHAMFERD
 40
0.0
  9
$SKPOLY
 70
     0
  9
$TDCREATE
 40
2454013.612854456
  9
$TDUCREATE
 40
2454013.279521123
  9
$TDUPDATE
 40
2455061.587015371
  9
$TDUUPDATE
 40
2455061.253682037
  9
$TDINDWG
 40
0.1366267477
  9
$TDUSRTIMER
 40
0.1366267477
  9
$USRTIMER
 70
     1
  9
$ANGBASE
 50
0.0
  9
$ANGDIR
 70
     0
  9
$PDMODE
 70
     0
  9
$PDSIZE
 40
0.0
  9
$PLINEWID
 40
0.0
  9
$SPLFRAME
 70
     0
  9
$SPLINETYPE
 70
     6
  9
$SPLINESEGS
 70
     8
  9
$HANDSEED
  5
3CCF
  9
$SURFTAB1
 70
     6
  9
$SURFTAB2
 70
     6
  9
$SURFTYPE
 70
     6
  9
$SURFU
 70
     6
  9
$SURFV
 70
     6
  9
$UCSBASE
  2

  9
$UCSNAME
  2

  9
$UCSORG
 10
0.0
 20
0.0
 30
0.0
  9
$UCSXDIR
 10
1.0
 20
0.0
 30
0.0
  9
$UCSYDIR
 10
0.0
 20
1.0
 30
0.0
  9
$UCSORTHOREF
  2

  9
$UCSORTHOVIEW
 70
     0
  9
$UCSORGTOP
 10
0.0
 20
0.0
 30
0.0
  9
$UCSORGBOTTOM
 10
0.0
 20
0.0
 30
0.0
  9
$UCSORGLEFT
 10
0.0
 20
0.0
 30
0.0
  9
$UCSORGRIGHT
 10
0.0
 20
0.0
 30
0.0
  9
$UCSORGFRONT
 10
0.0
 20
0.0
 30
0.0
  9
$UCSORGBACK
 10
0.0
 20
0.0
 30
0.0
  9
$PUCSBASE
  2

  9
$PUCSNAME
  2

  9
$PUCSORG
 10
0.0
 20
0.0
 30
0.0
  9
$PUCSXDIR
 10
1.0
 20
0.0
 30
0.0
  9
$PUCSYDIR
 10
0.0
 20
1.0
 30
0.0
  9
$PUCSORTHOREF
  2

  9
$PUCSORTHOVIEW
 70
     0
  9
$PUCSORGTOP
 10
0.0
 20
0.0
 30
0.0
  9
$PUCSORGBOTTOM
 10
0.0
 20
0.0
 30
0.0
  9
$PUCSORGLEFT
 10
0.0
 20
0.0
 30
0.0
  9
$PUCSORGRIGHT
 10
0.0
 20
0.0
 30
0.0
  9
$PUCSORGFRONT
 10
0.0
 20
0.0
 30
0.0
  9
$PUCSORGBACK
 10
0.0
 20
0.0
 30
0.0
  9
$USERI1
 70
     0
  9
$USERI2
 70
     0
  9
$USERI3
 70
     0
  9
$USERI4
 70
     0
  9
$USERI5
 70
     0
  9
$USERR1
 40
0.0
  9
$USERR2
 40
0.0
  9
$USERR3
 40
0.0
  9
$USERR4
 40
0.0
  9
$USERR5
 40
0.0
  9
$WORLDVIEW
 70
     1
  9
$SHADEDGE
 70
     3
  9
$SHADEDIF
 70
    70
  9
$TILEMODE
 70
     1
  9
$MAXACTVP
 70
    64
  9
$PINSBASE
 10
0.0
 20
0.0
 30
0.0
  9
$PLIMCHECK
 70
     0
  9
$PEXTMIN
 10
1.000000000000000E+20
 20
1.000000000000000E+20
 30
1.000000000000000E+20
  9
$PEXTMAX
 10
-1.000000000000000E+20
 20
-1.000000000000000E+20
 30
-1.000000000000000E+20
  9
$PLIMMIN
 10
0.0
 20
0.0
  9
$PLIMMAX
 10
420.0
 20
297.0
  9
$UNITMODE
 70
     0
  9
$VISRETAIN
 70
     1
  9
$PLINEGEN
 70
     0
  9
$PSLTSCALE
 70
     1
  9
$TREEDEPTH
 70
  3020
  9
$CMLSTYLE
  2
Standard
  9
$CMLJUST
 70
     0
  9
$CMLSCALE
 40
20.0
  9
$PROXYGRAPHICS
 70
     1
  9
$MEASUREMENT
 70
     1
  9
$CELWEIGHT
370
    -1
  9
$ENDCAPS
280
     0
  9
$JOINSTYLE
280
     0
  9
$LWDISPLAY
290
     0
  9
$INSUNITS
 70
     4
  9
$HYPERLINKBASE
  1

  9
$STYLESHEET
  1
彩色出圖.ctb
  9
$XEDIT
290
     1
  9
$CEPSNTYPE
380
     0
  9
$PSTYLEMODE
290
     1
  9
$FINGERPRINTGUID
  2
{25AFC6F0-9DA1-4431-A483-4DF0D038E6B1}
  9
$VERSIONGUID
  2
{BA6160AB-1617-4D87-857E-411949E3F91F}
  9
$EXTNAMES
290
     1
  9
$PSVPSCALE
 40
0.0
  9
$OLESTARTUP
290
     0
  0
ENDSEC
  0
SECTION
  2
CLASSES
  0
CLASS
  1
ACDBDICTIONARYWDFLT
  2
AcDbDictionaryWithDefault
  3
ObjectDBX Classes
 90
        0
280
     0
281
     0
  0
CLASS
  1
ACDBPLACEHOLDER
  2
AcDbPlaceHolder
  3
ObjectDBX Classes
 90
        0
280
     0
281
     0
  0
CLASS
  1
LAYOUT
  2
AcDbLayout
  3
ObjectDBX Classes
 90
        0
280
     0
281
     0
  0
CLASS
  1
ACME_DOCUMENT
  2
AcMeDbDoc
  3
AcMeServices
 90
        0
280
     0
281
     0
  0
CLASS
  1
AMGSETTINGSOBJ
  2
AmgSettingsObj
  3
"AcadM|Product Description: AutoCAD Mechanical 2000|Company: Autodesk"
 90
        0
280
     0
281
     0
  0
CLASS
  1
ACMESCOPE
  2
AcMeScope
  3
AcMeServices
 90
        0
280
     0
281
     0
  0
CLASS
  1
ACMECOMMANDHISTORY
  2
AcMeCommandHistory
  3
AcMeServices
 90
        0
280
     0
281
     0
  0
CLASS
  1
ACIMSYSVARMAN
  2
AcImSysVarManager
  3
AcMeServices
 90
        0
280
     0
281
     0
  0
CLASS
  1
ACIMREALSYSVAR
  2
AcImRealSysVar
  3
AcMeServices
 90
        0
280
     0
281
     0
  0
CLASS
  1
ACIMINTSYSVAR
  2
AcImIntSysVar
  3
AcMeServices
 90
        0
280
     0
281
     0
  0
CLASS
  1
ACMEDRAWINGMAN
  2
AcMeDrawingMan
  3
AcMeServices
 90
        0
280
     0
281
     0
  0
CLASS
  1
ACMEVIEW
  2
AcMeView
  3
AcMeServices
 90
        0
280
     0
281
     0
  0
CLASS
  1
ACDBENTITYCACHE
  2
AcMeEntityCache
  3
AcMeServices
 90
        0
280
     0
281
     0
  0
CLASS
  1
GSMANAGER
  2
AcMeGSManager
  3
AcMeServices
 90
        0
280
     0
281
     0
  0
CLASS
  1
AMDTINTERNALREACTOR
  2
AmdtInternalReactor
  3
AcMeServices
 90
        0
280
     0
281
     0
  0
CLASS
  1
ACMESTATEMGR
  2
AcMeStateMgr
  3
AcMeServices
 90
        0
280
     0
281
     0
  0
CLASS
  1
ACGREFMASTER
  2
AcGrefMaster
  3
AcAttribServices
 90
        0
280
     0
281
     0
  0
CLASS
  1
ACME_DATABASE
  2
AcMeDbDatabase
  3
AcMeServices
 90
        0
280
     0
281
     0
  0
CLASS
  1
ACRFINSADJUSTERMGR
  2
AcRfInsAdjusterMgr
  3
AcMeServices
 90
        0
280
     0
281
     0
  0
CLASS
  1
ACGREFACADMASTER
  2
AcGrefacadMaster
  3
AcGrefServices
 90
        0
280
     0
281
     0
  0
CLASS
  1
AMIMASTER
  2
AmiMaster
  3
AmiServices
 90
        0
280
     0
281
     0
  0
CLASS
  1
ACMDATADICTIONARY
  2
AcmDataDictionary
  3
"AcmSymBB|Product Description: AutoCAD Mechanical 2004 DX|Company: Autodesk"
 90
        0
280
     0
281
     0
  0
CLASS
  1
ACMDATAENTRYBLOCK
  2
AcmDataEntryBlock
  3
"AcmSymBB|Product Description: AutoCAD Mechanical 2004 DX|Company: Autodesk"
 90
    32768
280
     0
281
     0
  0
CLASS
  1
ACIMSTRSYSVAR
  2
AcImStrSysVar
  3
AcMeServices
 90
        0
280
     0
281
     0
  0
CLASS
  1
ACMSTANDARDISO
  2
AcmStandardISO
  3
"Amdt_StdImp|Product Description: AutoCAD Mechanical 2004 DX|Company: Autodesk"
 90
        0
280
     0
281
     0
  0
CLASS
  1
AMGOBJPROPCFG
  2
AmgObjPropCfg
  3
"AmgLay|Product Description: AutoCAD Mechanical 2000|Company: Autodesk"
 90
        1
280
     0
281
     0
  0
CLASS
  1
AMDTEDGESTANDARDISO
  2
AmdtEdgeStdISO
  3
"Amdt_StdImp|Product Description: AutoCAD Mechanical 2004 DX|Company: Autodesk"
 90
    32768
280
     0
281
     0
  0
CLASS
  1
ACMSURFSTANDARDISO
  2
AcmSurfTextStdISO
  3
"Amdt_StdImp|Product Description: AutoCAD Mechanical 2004 DX|Company: Autodesk"
 90
        0
280
     0
281
     0
  0
CLASS
  1
ACMFCFSTANDARDISO
  2
AcmFCFStdISO
  3
"Amdt_StdImp|Product Description: AutoCAD Mechanical 2004 DX|Company: Autodesk"
 90
        0
280
     0
281
     0
  0
CLASS
  1
ACMWELDSTANDARDISO
  2
AcmWeldingStdISO
  3
"Amdt_StdImp|Product Description: AutoCAD Mechanical 2004 DX|Company: Autodesk"
 90
        0
280
     0
281
     0
  0
CLASS
  1
ACMIDSTANDARDISO
  2
AcmIdStdISO
  3
"Amdt_StdImp|Product Description: AutoCAD Mechanical 2004 DX|Company: Autodesk"
 90
        0
280
     0
281
     0
  0
CLASS
  1
ACMDATUMSTANDARDISO
  2
AcmDatumStdISO
  3
"Amdt_StdImp|Product Description: AutoCAD Mechanical 2004 DX|Company: Autodesk"
 90
        0
280
     0
281
     0
  0
CLASS
  1
ACMBOMSTANDARDISO
  2
AcmBOMStdISO
  3
"Amdt_StdImp|Product Description: AutoCAD Mechanical 2004 DX|Company: Autodesk"
 90
        0
280
     0
281
     0
  0
CLASS
  1
ACMDETAILSTANDARDISO
  2
AmdtDetailSymStdISO
  3
"Amdt_StdImp|Product Description: AutoCAD Mechanical 2004 DX|Company: Autodesk"
 90
        0
280
     0
281
     0
  0
CLASS
  1
ACMSECTIONSTANDARDISO
  2
AmdtSectionSymStdISO
  3
"Amdt_StdImp|Product Description: AutoCAD Mechanical 2004 DX|Company: Autodesk"
 90
        0
280
     0
281
     0
  0
CLASS
  1
ACMCENTERLINESTANDARDISO
  2
AmdtCenterLineStdISO
  3
"Amdt_StdImp|Product Description: AutoCAD Mechanical 2004 DX|Company: Autodesk"
 90
        0
280
     0
281
     0
  0
CLASS
  1
ACMNOTESTANDARDISO
  2
AmdtNoteStdISO
  3
"Amdt_StdImp|Product Description: AutoCAD Mechanical 2004 DX|Company: Autodesk"
 90
        0
280
     0
281
     0
  0
CLASS
  1
ACAMGLAYSTD
  2
AcAmgLayStd
  3
"AcAmgLayStd|Product Description: AutoCAD Mechanical 2000|Company: Autodesk"
 90
        0
280
     0
281
     0
  0
CLASS
  1
ACAMGDIMSTD
  2
AcAmgDimStd
  3
"AcAmgDimStd|Product Description: AutoCAD Mechanical 2000|Company: Autodesk"
 90
        0
280
     0
281
     0
  0
CLASS
  1
ACAMGHOLECHARTSTDISO
  2
AcAmgHoleChartStdISO
  3
ACMSYMBB_MODULE_NAME
 90
        0
280
     0
281
     0
  0
CLASS
  1
ACAMGTITLESTD
  2
AcAmgTitleStd
  3
"TITLEAPP"
 90
        0
280
     0
281
     0
  0
CLASS
  1
LAYER_INDEX
  2
AcDbLayerIndex
  3
ObjectDBX Classes
 90
    32768
280
     0
281
     0
  0
CLASS
  1
IDBUFFER
  2
AcDbIdBuffer
  3
ObjectDBX Classes
 90
    32768
280
     0
281
     0
  0
CLASS
  1
DICTIONARYVAR
  2
AcDbDictionaryVar
  3
ObjectDBX Classes
 90
        0
280
     0
281
     0
  0
CLASS
  1
AM_DRAWING_MGR
  2
AcDmDwgMgr
  3
AcMechDwgViewMgmt
 90
        0
280
     0
281
     0
  0
CLASS
  1
AM_DWG_DOCUMENT
  2
AcDmDwgDocument
  3
AcMechDwgViewMgmt
 90
        0
280
     0
281
     0
  0
CLASS
  1
AM_DWG_SHEET
  2
AcDmSheet
  3
AcMechDwgViewMgmt
 90
        0
280
     0
281
     0
  0
CLASS
  1
AM_VIEWDIMPARMAP
  2
AcDmViewDimParMap
  3
AcMechDwgViewMgmt
 90
        0
280
     0
281
     0
  0
CLASS
  1
AM_DWGMGR_NAME
  2
AcDmDwgMgrName
  3
AcMechDwgViewMgmt
 90
        0
280
     0
281
     0
  0
CLASS
  1
AMDTMENUSTATEMGR
  2
AmdtMenuStateMgr
  3
McadcomServices
 90
        0
280
     0
281
     0
  0
CLASS
  1
AMDTMCOMMENUSTATE
  2
AmdtMcomMenuState
  3
McadcomServices
 90
        0
280
     0
281
     0
  0
CLASS
  1
MAPIAMMOUDLE
  2
MApiAmModule
  3
MApiAmServices
 90
        0
280
     0
281
     0
  0
CLASS
  1
AMDTADMENUSTATE
  2
AmdtAdMenuState
  3
DesignerServices
 90
        0
280
     0
281
     0
  0
CLASS
  1
ADAPPL
  2
AcAdAppl
  3
DesignerServices
 90
        0
280
     0
281
     0
  0
CLASS
  1
DEPMGR
  2
AcAdDepMgr
  3
DesignerServices
 90
        0
280
     0
281
     0
  0
CLASS
  1
PARAMMGR
  2
AcAdParamMgr
  3
DesignerServices
 90
        0
280
     0
281
     0
  0
CLASS
  1
PARAMSCOPE
  2
AcAdParamScope
  3
DesignerServices
 90
        0
280
     0
281
     0
  0
CLASS
  1
NAMEDAPPL
  2
AcAdNamedAppl
  3
DesignerServices
 90
        0
280
     0
281
     0
  0
CLASS
  1
AMDTDMMENUSTATE
  2
AmdtDmMenuState
  3
AcMechDwgViewMgmt
 90
        0
280
     0
281
     0
  0
CLASS
  1
AMDTAMMENUSTATE
  2
AmdtAmMenuState
  3
DesignerAssemblies
 90
        0
280
     0
281
     0
  0
CLASS
  1
ACAMPROJECT
  2
AcAmProject
  3
DesignerAssemblies
 90
        0
280
     0
281
     0
  0
CLASS
  1
ACAMGRCOMPDEF
  2
AcAmGrCompDef
  3
DesignerAssemblies
 90
        0
280
     0
281
     0
  0
CLASS
  1
ACCMCONTEXT
  2
AcCmContext
  3
DesignerAssemblies
 90
        0
280
     0
281
     0
  0
CLASS
  1
ACAMCOMPDEF
  2
AcAmCompDef
  3
DesignerAssemblies
 90
        0
280
     0
281
     0
  0
CLASS
  1
ACAMCOMPDEFMGR
  2
AcAmCompDefMgr
  3
DesignerAssemblies
 90
        0
280
     0
281
     0
  0
CLASS
  1
AMCONTEXTMGR
  2
AcAmContextMgr
  3
DesignerAssemblies
 90
        0
280
     0
281
     0
  0
CLASS
  1
ACAMCONTEXTMODELER
  2
AcAmContextModeler
  3
DesignerAssemblies
 90
        0
280
     0
281
     0
  0
CLASS
  1
ACMTHREADLINESTANDARDISO
  2
AmdtThreadLineStdISO
  3
"Amdt_StdImp|Product Description: AutoCAD Mechanical 2004 DX|Company: Autodesk"
 90
        0
280
     0
281
     0
  0
CLASS
  1
CATALOGSTATE
  2
AcAmCatalogState
  3
DesignerAssemblies
 90
        0
280
     0
281
     0
  0
CLASS
  1
ACAMGRCOMPDEFSET
  2
AcAmGrCompDefSet
  3
DesignerAssemblies
 90
        0
280
     0
281
     0
  0
CLASS
  1
AMDTBROWSERDBTAB
  2
AmdtBrowserDbTab
  3
McadcomServices
 90
        0
280
     0
281
     0
  0
CLASS
  1
CBROWSERAPPOBJECT
  2
CBrowserAppObject
  3
McadcomServices
 90
        0
280
     0
281
     0
  0
CLASS
  1
DM_PLACEHOLDER
  2
AcDmSelsetPlaceholder
  3
AcMechDwgViewMgmt
 90
        0
280
     0
281
     0
  0
CLASS
  1
TABLESTYLE
  2
AcDbTableStyle
  3
ObjectDBX Classes
 90
     2047
280
     0
281
     0
  0
CLASS
  1
VAACXREFPANELOBJECT
  2
VaAcXREFPanelObject
  3
VAAC_ADDIN
 90
    32768
280
     0
281
     0
  0
CLASS
  1
VAACIMAGEINVENTORY
  2
VaAcImageInventory
  3
VAAC_ADDIN
 90
    32768
280
     0
281
     0
  0
CLASS
  1
AMDTNOTETEMPLATEDB
  2
AmdtNoteTemplateDB
  3
AMDT_STDIMP_MODULE_NAME
 90
        0
280
     0
281
     0
  0
CLASS
  1
ACMBOM
  2
AcmBom
  3
"AcmSymBB|Product Description: AutoCAD Mechanical 2004 DX|Company: Autodesk"
 90
    32768
280
     0
281
     0
  0
CLASS
  1
AMDTFORMULAUPDATEDISPATCHER
  2
AmdtFormulaUpdateDispatcher
  3
AcMeServices
 90
    32768
280
     0
281
     0
  0
CLASS
  1
ACMPARTLIST
  2
AcmPartList
  3
"AcmSymBB|Product Description: AutoCAD Mechanical 2004 DX|Company: Autodesk"
 90
    33791
280
     0
281
     1
  0
CLASS
  1
ACAMGFILTERDAT
  2
AcAmgFilterDat
  3
"AcadM|Product Description: AutoCAD Mechanical 2000|Company: Autodesk"
 90
    32768
280
     0
281
     0
  0
CLASS
  1
DIMASSOC
  2
AcDbDimAssoc
  3
"AcDbDimAssoc|Product Desc:     AcDim ARX App For Dimension|Company:          Autodesk, Inc.|WEB Address:      www.autodesk.com"
 90
        0
280
     0
281
     0
  0
CLASS
  1
SORTENTSTABLE
  2
AcDbSortentsTable
  3
ObjectDBX Classes
 90
        0
280
     0
281
     0
  0
CLASS
  1
AMDTNOTE
  2
AmdtNote
  3
"AcmSymBB|Product Description: AutoCAD Mechanical 2004 DX|Company: Autodesk"
 90
    33791
280
     0
281
     1
  0
CLASS
  1
AMDTEDGESTANDARDISO13715
  2
AmdtEdgeStdISO13715
  3
"Amdt_StdImp|Product Description: AutoCAD Mechanical 2004 DX|Company: Autodesk"
 90
        0
280
     0
281
     0
  0
CLASS
  1
ACRFATTGENMGR
  2
AcRfAttGeneralMgr
  3
AcAttribServices
 90
        0
280
     0
281
     0
  0
ENDSEC
  0
SECTION
  2
TABLES
  0
TABLE
  2
VPORT
  5
8
330
0
100
AcDbSymbolTable
 70
   238
  0
VPORT
  5
3CC6
330
8
100
AcDbSymbolTableRecord
100
AcDbViewportTableRecord
  2
*Active
 70
     0
 10
0.0
 20
0.0
 11
1.0
 21
1.0
 12
601.2445107629257
 22
620.8894228121037
 13
0.0
 23
0.0
 14
2.5
 24
2.5
 15
10.0
 25
10.0
 16
0.0
 26
0.0
 36
1.0
 17
0.0
 27
0.0
 37
0.0
 40
314.4984164757876
 41
1.244415243101182
 42
50.0
 43
0.0
 44
0.0
 50
0.0
 51
0.0
 71
     0
 72
   100
 73
     1
 74
     3
 75
     0
 76
     0
 77
     0
 78
     0
281
     0
 65
     1
110
0.0
120
0.0
130
0.0
111
1.0
121
0.0
131
0.0
112
0.0
122
1.0
132
0.0
 79
     0
146
0.0
  0
ENDTAB
  0
TABLE
  2
LTYPE
  5
5
330
0
100
AcDbSymbolTable
 70
    15
  0
LTYPE
  5
14
330
5
100
AcDbSymbolTableRecord
100
AcDbLinetypeTableRecord
  2
ByBlock
 70
     0
  3

 72
    65
 73
     0
 40
0.0
  0
LTYPE
  5
15
330
5
100
AcDbSymbolTableRecord
100
AcDbLinetypeTableRecord
  2
ByLayer
 70
     0
  3

 72
    65
 73
     0
 40
0.0
  0
LTYPE
  5
16
330
5
100
AcDbSymbolTableRecord
100
AcDbLinetypeTableRecord
  2
Continuous
 70
     0
  3
Solid line
 72
    65
 73
     0
 40
0.0
  0
LTYPE
  5
64
330
5
100
AcDbSymbolTableRecord
100
AcDbLinetypeTableRecord
  2
AM_ISO02W050
 70
     0
  3
__ __ __ __ __ __ __ __ __ __ __ __ __ __ __
 72
    65
 73
     2
 40
7.5
 49
6.0
 74
     0
 49
-1.5
 74
     0
  0
LTYPE
  5
65
330
5
100
AcDbSymbolTableRecord
100
AcDbLinetypeTableRecord
  2
AM_ISO08W050
 70
     0
  3
____ . ____ . ____ . ____ . ____ . ____ . ____
 72
    65
 73
     4
 40
18.0
 49
12.0
 74
     0
 49
-1.5
 74
     0
 49
3.0
 74
     0
 49
-1.5
 74
     0
  0
LTYPE
  5
66
330
5
100
AcDbSymbolTableRecord
100
AcDbLinetypeTableRecord
  2
AM_ISO09W050
 70
     0
  3
_____ . . _____ . . _____ . . ____ .. ____
 72
    65
 73
     6
 40
22.5
 49
12.0
 74
     0
 49
-1.5
 74
     0
 49
3.0
 74
     0
 49
-1.5
 74
     0
 49
3.0
 74
     0
 49
-1.5
 74
     0
  0
LTYPE
  5
67
330
5
100
AcDbSymbolTableRecord
100
AcDbLinetypeTableRecord
  2
Amconstr
 70
     0
  3
_______________________
 72
    65
 73
     2
 40
9999.0
 49
9999.0
 74
     0
 49
0.0
 74
     0
  0
LTYPE
  5
68
330
5
100
AcDbSymbolTableRecord
100
AcDbLinetypeTableRecord
  2
AM_ISO08W050x2
 70
     0
  3
__ . __ . __ . __ . __ . __
 72
    65
 73
     4
 40
9.0
 49
6.0
 74
     0
 49
-0.75
 74
     0
 49
1.5
 74
     0
 49
-0.75
 74
     0
  0
LTYPE
  5
69
330
5
100
AcDbSymbolTableRecord
100
AcDbLinetypeTableRecord
  2
AM_ISO02W050x2
 70
     0
  3
 _ _ _ _ _ _ _ _ _ _ _ _
 72
    65
 73
     2
 40
3.75
 49
3.0
 74
     0
 49
-0.75
 74
     0
  0
LTYPE
  5
6C
330
5
100
AcDbSymbolTableRecord
100
AcDbLinetypeTableRecord
  2
Amzigzag
 70
     0
  3
/\/-/\/-/\/-/\/-/\/-/\/
 72
    65
 73
     2
 40
11.0001
 49
0.0001
 74
     4
 75
   135
340
6B
 46
0.04
 50
0.0
 44
0.0
 45
0.0
 49
-11.0
 74
     0
  0
LTYPE
  5
7A
330
5
100
AcDbSymbolTableRecord
100
AcDbLinetypeTableRecord
  2
ACISOWELD
 70
     0
  3
_ _ _ _ _
 72
    65
 73
     2
 40
2.0
 49
2.0
 74
     0
 49
-1.0
 74
     0
  0
LTYPE
  5
7B
330
5
100
AcDbSymbolTableRecord
100
AcDbLinetypeTableRecord
  2
ACISOTGB
 70
     0
  3
__ . . __ . .
 72
    65
 73
     6
 40
9.0
 49
4.0
 74
     0
 49
-1.0
 74
     0
 49
1.0
 74
     0
 49
-1.0
 74
     0
 49
1.0
 74
     0
 49
-1.0
 74
     0
  0
LTYPE
  5
7C
330
5
100
AcDbSymbolTableRecord
100
AcDbLinetypeTableRecord
  2
ACISOTGL
 70
     0
  3
_ _ _ _ _
 72
    65
 73
     2
 40
3.0
 49
2.0
 74
     0
 49
-1.0
 74
     0
  0
LTYPE
  5
7E
330
5
100
AcDbSymbolTableRecord
100
AcDbLinetypeTableRecord
  2
CENTER
 70
     0
  3
__ . __
 72
    65
 73
     4
 40
7.0
 49
4.0
 74
     0
 49
-1.0
 74
     0
 49
1.0
 74
     0
 49
-1.0
 74
     0
  0
LTYPE
  5
D8
330
5
100
AcDbSymbolTableRecord
100
AcDbLinetypeTableRecord
  2
HIDDEN
 70
     0
  3
Hidden __ __ __ __ __ __ __ __ __ __ __ __ __ _
 72
    65
 73
     2
 40
9.524999999999998
 49
6.349999999999999
 74
     0
 49
-3.174999999999999
 74
     0
  0
LTYPE
  5
D9
330
5
100
AcDbSymbolTableRecord
100
AcDbLinetypeTableRecord
  2
PHANTOM2
 70
     0
  3
Phantom (.5x) ___ _ _ ___ _ _ ___ _ _ ___ _ _
 72
    65
 73
     6
 40
31.75
 49
15.875
 74
     0
 49
-3.174999999999999
 74
     0
 49
3.174999999999999
 74
     0
 49
-3.174999999999999
 74
     0
 49
3.174999999999999
 74
     0
 49
-3.174999999999999
 74
     0
  0
ENDTAB
  0
TABLE
  2
LAYER
  5
2
102
{ACAD_XDICTIONARY
360
3F9
102
}
330
0
100
AcDbSymbolTable
 70
    11
  0
LAYER
  5
10
330
2
100
AcDbSymbolTableRecord
100
AcDbLayerTableRecord
  2
0
 70
     0
 62
     7
  6
Continuous
370
    -3
390
F
  0
LAYER
  5
AB7
330
2
100
AcDbSymbolTableRecord
100
AcDbLayerTableRecord
  2
AM_5
 70
     0
 62
     5
  6
Continuous
370
    50
390
F
  0
LAYER
  5
AB8
330
2
100
AcDbSymbolTableRecord
100
AcDbLayerTableRecord
  2
Defpoints
 70
     0
 62
     7
  6
Continuous
290
     0
370
    -3
390
F
  0
LAYER
  5
AB9
330
2
100
AcDbSymbolTableRecord
100
AcDbLayerTableRecord
  2
LOGO
 70
     0
 62
     7
  6
Continuous
370
    -3
390
F
  0
LAYER
  5
ABA
330
2
100
AcDbSymbolTableRecord
100
AcDbLayerTableRecord
  2
AM_VIS
 70
     0
 62
     7
  6
Continuous
370
    50
390
F
  0
LAYER
  5
ABB
330
2
100
AcDbSymbolTableRecord
100
AcDbLayerTableRecord
  2
AM_7
 70
     0
 62
     1
  6
CENTER
370
    25
390
F
  0
LAYER
  5
ABC
330
2
100
AcDbSymbolTableRecord
100
AcDbLayerTableRecord
  2
AM_4
 70
     0
 62
     3
  6
Continuous
370
    25
390
F
  0
LAYER
  5
EF2
330
2
100
AcDbSymbolTableRecord
100
AcDbLayerTableRecord
  2
SL
 70
     0
 62
     4
  6
Continuous
370
    -3
390
F
1001
AcAecLayerStandard
1000

1000

  0
LAYER
  5
10CD
330
2
100
AcDbSymbolTableRecord
100
AcDbLayerTableRecord
  2
AM_REFDIM
 70
     0
 62
     5
  6
Continuous
370
    25
390
F
  0
ENDTAB
  0
TABLE
  2
STYLE
  5
3
330
0
100
AcDbSymbolTable
 70
     6
  0
STYLE
  5
11
330
3
100
AcDbSymbolTableRecord
100
AcDbTextStyleTableRecord
  2
STANDARD
 70
     0
 40
0.0
 41
1.0
 50
0.0
 71
     0
 42
3.0
  3
ISOCP.SHX
  4
CHINESET.SHX
  0
STYLE
  5
6B
330
3
100
AcDbSymbolTableRecord
100
AcDbTextStyleTableRecord
  2

 70
     1
 40
0.0
 41
1.0
 50
0.0
 71
     0
 42
2.5
  3
ltypeshp.shx
  4

  0
STYLE
  5
6D
330
3
100
AcDbSymbolTableRecord
100
AcDbTextStyleTableRecord
  2
ACISOTS
 70
     0
 40
1.0
 41
1.0
 50
0.0
 71
     0
 42
1.0
  3
isocp.shx
  4
chineset.shx
  0
STYLE
  5
79
330
3
100
AcDbSymbolTableRecord
100
AcDbTextStyleTableRecord
  2
ACISOGDT
 70
     0
 40
0.0
 41
1.0
 50
0.0
 71
     0
 42
2.5
  3
amgdt.shx
  4
chineset.shx
  0
STYLE
  5
ABE
330
3
100
AcDbSymbolTableRecord
100
AcDbTextStyleTableRecord
  2
CHINESET
 70
     0
 40
0.0
 41
0.75
 50
0.0
 71
     0
 42
3.0
  3
simplex.shx
  4
CHINESET.SHX
  0
STYLE
  5
10CF
330
3
100
AcDbSymbolTableRecord
100
AcDbTextStyleTableRecord
  2
dayus
 70
     0
 40
0.0
 41
1.0
 50
0.0
 71
     0
 42
5.0
  3
simplex.shx
  4
dayus.shx
  0
ENDTAB
  0
TABLE
  2
VIEW
  5
6
330
0
100
AcDbSymbolTable
 70
     0
  0
ENDTAB
  0
TABLE
  2
UCS
  5
7
330
0
100
AcDbSymbolTable
 70
     0
  0
ENDTAB
  0
TABLE
  2
APPID
  5
9
330
0
100
AcDbSymbolTable
 70
    22
  0
APPID
  5
12
330
9
100
AcDbSymbolTableRecord
100
AcDbRegAppTableRecord
  2
ACAD
 70
     0
  0
APPID
  5
46
330
9
100
AcDbSymbolTableRecord
100
AcDbRegAppTableRecord
  2
MCAD_NO_VIS
 70
     0
  0
APPID
  5
47
330
9
100
AcDbSymbolTableRecord
100
AcDbRegAppTableRecord
  2
ACAD_TEMP_GRAPHIC
 70
     0
  0
APPID
  5
58
330
9
100
AcDbSymbolTableRecord
100
AcDbRegAppTableRecord
  2
ACATTRIBSERVICES
 70
     0
  0
APPID
  5
EE
330
9
100
AcDbSymbolTableRecord
100
AcDbRegAppTableRecord
  2
AD_DRAW
 70
     0
  0
APPID
  5
10C
330
9
100
AcDbSymbolTableRecord
100
AcDbRegAppTableRecord
  2
DESIGNERASSEMBLIES
 70
     0
  0
APPID
  5
111
330
9
100
AcDbSymbolTableRecord
100
AcDbRegAppTableRecord
  2
ACADM_DIM_EDIT
 70
     0
  0
APPID
  5
112
330
9
100
AcDbSymbolTableRecord
100
AcDbRegAppTableRecord
  2
AMDT_DM_ADJ
 70
     0
  0
APPID
  5
22C
330
9
100
AcDbSymbolTableRecord
100
AcDbRegAppTableRecord
  2
ACAD_DSTYLE_DIMTEXT_FILL
 70
     0
  0
APPID
  5
452
330
9
100
AcDbSymbolTableRecord
100
AcDbRegAppTableRecord
  2
GENIUS_GENOENT_13
 70
     0
  0
APPID
  5
453
330
9
100
AcDbSymbolTableRecord
100
AcDbRegAppTableRecord
  2
GENIUS_GENOBJ-N-CRS_13
 70
     0
  0
APPID
  5
454
330
9
100
AcDbSymbolTableRecord
100
AcDbRegAppTableRecord
  2
GENIUS_GENOLIS_13
 70
     0
  0
APPID
  5
455
330
9
100
AcDbSymbolTableRecord
100
AcDbRegAppTableRecord
  2
GENIUS_GENODEF_13
 70
     0
  0
APPID
  5
456
330
9
100
AcDbSymbolTableRecord
100
AcDbRegAppTableRecord
  2
GENIUS_GENOREF_13
 70
     0
  0
APPID
  5
6F3
330
9
100
AcDbSymbolTableRecord
100
AcDbRegAppTableRecord
  2
ACAD_PSEXT
 70
     0
  0
APPID
  5
808
330
9
100
AcDbSymbolTableRecord
100
AcDbRegAppTableRecord
  2
GENIUS_GENDTOL_13
 70
     0
  0
APPID
  5
AC0
330
9
100
AcDbSymbolTableRecord
100
AcDbRegAppTableRecord
  2
GENIUS_GENREC_14
 70
     0
  0
APPID
  5
AC1
330
9
100
AcDbSymbolTableRecord
100
AcDbRegAppTableRecord
  2
GENIUS_GENOBJ-N-REC_13
 70
     0
  0
APPID
  5
AC2
330
9
100
AcDbSymbolTableRecord
100
AcDbRegAppTableRecord
  2
GENIUS_GENOBJ-N-CEN_13
 70
     0
  0
APPID
  5
AC3
330
9
100
AcDbSymbolTableRecord
100
AcDbRegAppTableRecord
  2
GENIUS_GENCEN_19
 70
     0
  0
APPID
  5
EF3
330
9
100
AcDbSymbolTableRecord
100
AcDbRegAppTableRecord
  2
AcAecLayerStandard
 70
     0
  0
APPID
  5
18BA
330
9
100
AcDbSymbolTableRecord
100
AcDbRegAppTableRecord
  2
GENIUS_GENDIMSH_14
 70
     0
  0
ENDTAB
  0
TABLE
  2
DIMSTYLE
  5
A
330
0
100
AcDbSymbolTable
 70
    13
100
AcDbDimStyleTable
 71
     4
340
81
340
10D0
340
8B
340
86
  0
DIMSTYLE
105
81
330
A
100
AcDbSymbolTableRecord
100
AcDbDimStyleTableRecord
  2
AM_ISO
 70
     0
  4
"
 41
3.0
 42
1.0
 43
8.0
 44
1.5
 47
0.1
 48
0.1
 73
     0
 74
     0
 77
     1
 78
     8
 79
     2
140
3.5
141
0.0
143
0.0393701
146
0.6
147
0.7
172
     1
176
   256
177
   256
178
   256
271
     2
272
     2
283
     0
284
     8
340
11
371
    -1
372
    -1
  0
DIMSTYLE
105
82
330
A
100
AcDbSymbolTableRecord
100
AcDbDimStyleTableRecord
  2
AM_ISO$3
 70
     0
  4
"
 41
3.0
 42
1.0
 43
8.0
 44
1.5
 47
0.1
 48
0.1
 73
     0
 77
     1
 78
     8
 79
     2
140
3.5
141
0.0
143
0.0393701
146
0.6
147
0.7
176
   256
177
   256
178
   256
271
     2
272
     2
283
     0
284
     8
288
     1
289
     0
340
11
371
    -1
372
    -1
  0
DIMSTYLE
105
83
330
A
100
AcDbSymbolTableRecord
100
AcDbDimStyleTableRecord
  2
AM_ISO$4
 70
     0
  4
"
 41
3.0
 42
1.0
 43
8.0
 44
1.5
 47
0.1
 48
0.1
 73
     0
 77
     1
 78
     8
 79
     2
140
3.5
141
0.0
143
0.0393701
146
0.6
147
0.7
176
   256
177
   256
178
   256
271
     2
272
     2
283
     0
284
     8
288
     1
289
     0
340
11
371
    -1
372
    -1
  0
DIMSTYLE
105
84
330
A
100
AcDbSymbolTableRecord
100
AcDbDimStyleTableRecord
  2
AM_ISO$6
 70
     0
  4
"
 41
3.0
 42
1.0
 43
8.0
 44
1.5
 47
0.1
 48
0.1
 73
     0
 74
     0
 78
     8
 79
     2
140
3.5
141
0.0
143
0.0393701
146
0.6
147
0.7
172
     1
176
   256
177
   256
178
   256
271
     2
272
     2
283
     0
284
     8
340
11
371
    -1
372
    -1
  0
DIMSTYLE
105
85
330
A
100
AcDbSymbolTableRecord
100
AcDbDimStyleTableRecord
  2
AM_ISO$7
 70
     0
  4
"
 41
3.0
 42
1.0
 43
8.0
 44
1.5
 47
0.1
 48
0.1
 73
     0
 74
     0
 77
     1
 78
     8
 79
     2
140
5.0
141
0.0
143
0.0393701
146
0.6
147
0.7
172
     1
176
   256
177
   256
178
   256
271
     2
272
     2
283
     0
284
     8
340
11
371
    -1
372
    -1
  0
DIMSTYLE
105
86
330
A
100
AcDbSymbolTableRecord
100
AcDbDimStyleTableRecord
  2
AM_ISO$SF
 70
     0
  4
"
 41
2.5
 42
1.0
 43
10.0
 44
1.0
 47
0.1
 48
0.1
 73
     0
 74
     0
 75
     1
 76
     1
 77
     1
 78
     8
 79
     2
140
3.5
141
0.0
143
0.0393701
146
0.71
147
1.5
172
     1
176
   256
177
   256
178
     2
271
     2
272
     3
274
     4
283
     0
284
     8
340
11
371
    -1
372
    -1
  0
DIMSTYLE
105
8B
330
A
100
AcDbSymbolTableRecord
100
AcDbDimStyleTableRecord
  2
AM_ISO$SH
 70
     0
  4
"
 41
2.5
 42
1.0
 43
10.0
 44
1.0
 47
0.1
 48
0.1
 73
     0
 74
     0
 75
     1
 76
     1
 77
     1
 78
     8
 79
     2
140
3.5
141
0.0
143
0.0393701
144
2.0
146
0.71
147
1.5
172
     1
173
     1
176
   256
177
   256
178
     2
271
     2
272
     3
274
     4
283
     0
284
     8
340
11
343
87
371
    -1
372
    -1
  0
DIMSTYLE
105
40B
102
{ACAD_REACTORS
330
33B2
330
340A
330
3567
102
}
330
A
100
AcDbSymbolTableRecord
100
AcDbDimStyleTableRecord
  2
AM_ISO$0
 70
     0
  4
"
 41
3.0
 42
1.0
 43
8.0
 44
1.5
 47
0.1
 48
0.1
 73
     0
 74
     0
 77
     1
 78
     8
 79
     2
140
3.5
141
0.0
143
0.0393701
146
0.6
147
0.7
172
     1
176
   256
177
   256
178
   256
271
     2
272
     2
283
     0
284
     8
340
11
371
    -1
372
    -1
  0
DIMSTYLE
105
10D0
102
{ACAD_REACTORS
330
2FF5
330
2FF6
330
2FF7
330
2FF8
330
2FF9
330
2FFC
330
2FFD
330
3000
330
300C
330
300D
330
2FF2
330
2FF3
330
2FFE
330
2FFF
102
}
330
A
100
AcDbSymbolTableRecord
100
AcDbDimStyleTableRecord
  2
AM_ANSI
 70
     0
  4
"
 40
0.9
 41
3.0
 42
1.5
 43
8.0
 44
2.0
 47
0.1
 48
0.1
 73
     0
 74
     0
 77
     3
 78
     8
 79
     2
140
3.0
141
3.0
143
0.0393701
146
0.6
147
0.8
172
     1
176
   256
177
   256
178
   256
271
     2
272
     2
284
     8
340
10CF
371
    -1
372
    -1
  0
DIMSTYLE
105
10D1
330
A
100
AcDbSymbolTableRecord
100
AcDbDimStyleTableRecord
  2
Standard
 70
     0
 41
3.0
 42
1.0
 43
8.0
 44
1.0
 73
     0
 74
     0
 77
     1
 78
     8
 79
     2
140
3.5
141
0.0
146
0.6
147
1.0
172
     1
176
   256
177
   256
178
   256
271
     2
272
     2
284
     8
285
     8
340
11
371
    -1
372
    -1
  0
DIMSTYLE
105
10D2
102
{ACAD_REACTORS
330
302E
330
302F
102
}
330
A
100
AcDbSymbolTableRecord
100
AcDbDimStyleTableRecord
  2
AM_ANSI$0
 70
     0
  4
"
 40
0.9
 41
3.0
 42
1.5
 43
8.0
 44
2.0
 47
0.1
 48
0.1
 73
     0
 74
     0
 77
     3
 78
     8
 79
     2
140
3.0
141
3.0
143
0.0393701
146
0.6
147
0.8
172
     1
176
   256
177
   256
178
   256
271
     2
272
     2
284
     8
340
10CF
371
    -1
372
    -1
  0
DIMSTYLE
105
2484
102
{ACAD_REACTORS
330
250F
330
2510
330
251D
330
251E
330
2528
330
3001
330
3002
330
300E
330
300F
330
3019
102
}
330
A
100
AcDbSymbolTableRecord
100
AcDbDimStyleTableRecord
  2
AM_ANSI$3
 70
     0
  4
"
 41
3.0
 42
1.5
 43
8.0
 44
2.0
 47
0.1
 48
0.1
 73
     0
 74
     0
 77
     3
 78
     8
 79
     2
140
3.0
141
3.0
143
0.0393701
146
0.6
147
0.8
172
     1
176
   256
177
   256
178
   256
271
     2
272
     2
284
     8
288
     1
289
     0
340
10CF
371
    -1
372
    -1
  0
ENDTAB
  0
TABLE
  2
BLOCK_RECORD
  5
1
330
0
100
AcDbSymbolTable
 70
   164
  0
BLOCK_RECORD
  5
1F
102
{ACAD_XDICTIONARY
360
8F
102
}
330
1
100
AcDbSymbolTableRecord
100
AcDbBlockTableRecord
  2
*Model_Space
340
22
  0
BLOCK_RECORD
  5
1B
330
1
100
AcDbSymbolTableRecord
100
AcDbBlockTableRecord
  2
*Paper_Space
340
1E
  0
BLOCK_RECORD
  5
23
330
1
100
AcDbSymbolTableRecord
100
AcDbBlockTableRecord
  2
*Paper_Space0
340
26
  0
BLOCK_RECORD
  5
87
330
1
100
AcDbSymbolTableRecord
100
AcDbBlockTableRecord
  2
GENAXEH
340
0
  0
BLOCK_RECORD
  5
2205
102
{ACAD_XDICTIONARY
360
2209
102
}
330
1
100
AcDbSymbolTableRecord
100
AcDbBlockTableRecord
  2
A$C3CA723EF
340
0
102
{BLKREFS
331
220D
102
}
  0
BLOCK_RECORD
  5
232C
330
1
100
AcDbSymbolTableRecord
100
AcDbBlockTableRecord
  2
GENDOT
340
0
102
{BLKREFS
331
241B
331
2379
331
23E9
331
23F7
331
2AF5
331
2B00
331
2B60
331
2B6B
331
2DE9
331
2D47
331
2DB7
331
2DC5
331
38AD
331
38B8
331
3904
331
390F
331
3B84
331
3B8F
331
3BDB
331
3BE6
102
}
  0
BLOCK_RECORD
  5
309E
330
1
100
AcDbSymbolTableRecord
100
AcDbBlockTableRecord
  2
*D101
340
0
  0
BLOCK_RECORD
  5
30A8
330
1
100
AcDbSymbolTableRecord
100
AcDbBlockTableRecord
  2
*D102
340
0
  0
BLOCK_RECORD
  5
30B2
330
1
100
AcDbSymbolTableRecord
100
AcDbBlockTableRecord
  2
*D103
340
0
  0
BLOCK_RECORD
  5
30BE
330
1
100
AcDbSymbolTableRecord
100
AcDbBlockTableRecord
  2
*D104
340
0
  0
BLOCK_RECORD
  5
30CA
330
1
100
AcDbSymbolTableRecord
100
AcDbBlockTableRecord
  2
*D105
340
0
  0
BLOCK_RECORD
  5
30D6
330
1
100
AcDbSymbolTableRecord
100
AcDbBlockTableRecord
  2
*D106
340
0
  0
BLOCK_RECORD
  5
30E2
330
1
100
AcDbSymbolTableRecord
100
AcDbBlockTableRecord
  2
*D107
340
0
  0
BLOCK_RECORD
  5
3106
330
1
100
AcDbSymbolTableRecord
100
AcDbBlockTableRecord
  2
*D110
340
0
  0
BLOCK_RECORD
  5
3112
330
1
100
AcDbSymbolTableRecord
100
AcDbBlockTableRecord
  2
*D111
340
0
  0
BLOCK_RECORD
  5
311E
330
1
100
AcDbSymbolTableRecord
100
AcDbBlockTableRecord
  2
*D112
340
0
  0
BLOCK_RECORD
  5
312A
330
1
100
AcDbSymbolTableRecord
100
AcDbBlockTableRecord
  2
*D113
340
0
  0
BLOCK_RECORD
  5
3136
330
1
100
AcDbSymbolTableRecord
100
AcDbBlockTableRecord
  2
*D114
340
0
  0
BLOCK_RECORD
  5
3142
330
1
100
AcDbSymbolTableRecord
100
AcDbBlockTableRecord
  2
*D115
340
0
  0
BLOCK_RECORD
  5
314E
330
1
100
AcDbSymbolTableRecord
100
AcDbBlockTableRecord
  2
*D116
340
0
  0
BLOCK_RECORD
  5
315A
330
1
100
AcDbSymbolTableRecord
100
AcDbBlockTableRecord
  2
*D117
340
0
  0
BLOCK_RECORD
  5
3166
330
1
100
AcDbSymbolTableRecord
100
AcDbBlockTableRecord
  2
*D118
340
0
  0
BLOCK_RECORD
  5
3172
330
1
100
AcDbSymbolTableRecord
100
AcDbBlockTableRecord
  2
*D119
340
0
  0
BLOCK_RECORD
  5
317E
330
1
100
AcDbSymbolTableRecord
100
AcDbBlockTableRecord
  2
*D120
340
0
  0
BLOCK_RECORD
  5
318A
330
1
100
AcDbSymbolTableRecord
100
AcDbBlockTableRecord
  2
*D121
340
0
  0
BLOCK_RECORD
  5
3196
330
1
100
AcDbSymbolTableRecord
100
AcDbBlockTableRecord
  2
*D122
340
0
  0
BLOCK_RECORD
  5
31A2
330
1
100
AcDbSymbolTableRecord
100
AcDbBlockTableRecord
  2
*D123
340
0
  0
BLOCK_RECORD
  5
33B3
330
1
100
AcDbSymbolTableRecord
100
AcDbBlockTableRecord
  2
*D126
340
0
  0
BLOCK_RECORD
  5
340B
330
1
100
AcDbSymbolTableRecord
100
AcDbBlockTableRecord
  2
*D128
340
0
  0
BLOCK_RECORD
  5
3568
330
1
100
AcDbSymbolTableRecord
100
AcDbBlockTableRecord
  2
*D129
340
0
  0
BLOCK_RECORD
  5
37AB
102
{ACAD_XDICTIONARY
360
37BE
102
}
330
1
100
AcDbSymbolTableRecord
100
AcDbBlockTableRecord
  2
A$C34B3331A
340
0
102
{BLKREFS
331
37C2
102
}
  0
ENDTAB
  0
ENDSEC
  0
SECTION
  2
BLOCKS
  0
BLOCK
  5
20
330
1F
100
AcDbEntity
  8
0
100
AcDbBlockBegin
  2
*Model_Space
 70
     0
 10
0.0
 20
0.0
 30
0.0
  3
*Model_Space
  1

  0
ENDBLK
  5
21
330
1F
100
AcDbEntity
  8
0
100
AcDbBlockEnd
  0
BLOCK
  5
1C
330
1B
100
AcDbEntity
 67
     1
  8
0
100
AcDbBlockBegin
  2
*Paper_Space
 70
     0
 10
0.0
 20
0.0
 30
0.0
  3
*Paper_Space
  1

  0
ENDBLK
  5
1D
330
1B
100
AcDbEntity
 67
     1
  8
0
100
AcDbBlockEnd
  0
BLOCK
  5
24
330
23
100
AcDbEntity
  8
0
100
AcDbBlockBegin
  2
*Paper_Space0
 70
     0
 10
0.0
 20
0.0
 30
0.0
  3
*Paper_Space0
  1

  0
ENDBLK
  5
25
330
23
100
AcDbEntity
  8
0
100
AcDbBlockEnd
  0
BLOCK
  5
89
330
87
100
AcDbEntity
  8
0
100
AcDbBlockBegin
  2
GENAXEH
 70
     0
 10
0.0
 20
0.0
 30
0.0
  3
GENAXEH
  1

  0
LINE
  5
88
330
87
100
AcDbEntity
  8
0
100
AcDbLine
 10
-1.0
 20
0.0
 30
0.0
 11
1.0
 21
0.0
 31
0.0
  0
ENDBLK
  5
8A
330
87
100
AcDbEntity
  8
0
100
AcDbBlockEnd
  0
BLOCK
  5
220B
330
2205
100
AcDbEntity
  8
0
100
AcDbBlockBegin
  2
A$C3CA723EF
 70
     0
 10
0.0
 20
0.0
 30
0.0
  3
A$C3CA723EF
  1

  0
LINE
  5
2206
330
2205
100
AcDbEntity
  8
SL
100
AcDbLine
 10
0.0
 20
0.6911753860061936
 30
0.0
 11
8.787074561278132
 21
0.6911753860061936
 31
0.0
  0
TRACE
  5
2207
330
2205
100
AcDbEntity
  8
SL
370
    35
100
AcDbTrace
 10
8.787074561278132
 20
-0.0000002232437737
 30
0.0
 11
8.787074561278132
 21
1.38235099525616
 31
0.0
 12
14.03707456127813
 22
0.6911753860061936
 32
0.0
 13
14.03707456127813
 23
0.6911753860061936
 33
0.0
  0
MTEXT
  5
2208
330
2205
100
AcDbEntity
  8
SL
100
AcDbMText
 10
3.57376164884431
 20
1.266163268973059
 30
0.0
 40
3.674999999999999
 41
0.0
 71
     7
 72
     5
  1
SL
  7
ACISOTS
 73
     1
 44
1.0
1001
ACAD
1000
MTEXTBEGIN
1070
    73
1070
     1
1070
    44
1040
1.0
1070
    74
1070
     0
1000
MTEXTEND
  0
ENDBLK
  5
220C
330
2205
100
AcDbEntity
  8
0
100
AcDbBlockEnd
  0
BLOCK
  5
232D
330
232C
100
AcDbEntity
  8
0
100
AcDbBlockBegin
  2
GENDOT
 70
     0
 10
0.0
 20
0.0
 30
0.0
  3
GENDOT
  1

  0
LINE
  5
232E
330
232C
100
AcDbEntity
  8
0
100
AcDbLine
 10
0.0
 20
0.0
 30
0.0
 11
-1.0
 21
0.0
 31
0.0
  0
LWPOLYLINE
  5
232F
330
232C
100
AcDbEntity
  8
0
100
AcDbPolyline
 90
        2
 70
     1
 43
0.25
 10
-0.125
 20
0.0
 42
1.0
 10
0.125
 20
0.0
 42
1.0
  0
ENDBLK
  5
2330
330
232C
100
AcDbEntity
  8
0
100
AcDbBlockEnd
  0
BLOCK
  5
32AB
330
309E
100
AcDbEntity
  8
0
100
AcDbBlockBegin
  2
*D101
 70
     1
 10
0.0
 20
0.0
 30
0.0
  3
*D101
  1

  0
LINE
  5
38A7
330
309E
100
AcDbEntity
  8
AM_REFDIM
100
AcDbLine
 10
589.7786482374385
 20
584.8980964741662
 30
0.0
 11
554.0494929687689
 21
584.8980964741662
 31
0.0
  0
LINE
  5
38A8
330
309E
100
AcDbEntity
  8
AM_REFDIM
100
AcDbLine
 10
577.5286482374387
 20
591.3980964741662
 30
0.0
 11
554.0494929687689
 21
591.3980964741662
 31
0.0
  0
LINE
  5
38A9
330
309E
100
AcDbEntity
  8
AM_REFDIM
100
AcDbLine
 10
555.8494929687689
 20
582.1980964741661
 30
0.0
 11
555.8494929687689
 21
579.4980964741662
 31
0.0
  0
LINE
  5
38AA
330
309E
100
AcDbEntity
  8
AM_REFDIM
100
AcDbLine
 10
555.8494929687689
 20
594.0980964741662
 30
0.0
 11
555.8494929687689
 21
596.7980964741662
 31
0.0
  0
MTEXT
  5
38AB
330
309E
100
AcDbEntity
  8
AM_REFDIM
100
AcDbMText
 10
553.7794929687688
 20
588.3384752782268
 30
0.0
 40
2.7
 41
0.0
 71
     5
 72
     1
  1
\A1;6.5
  7
dayus
 11
0.0000000000000001
 21
1.0
 31
0.0
 73
     1
 44
1.0
1001
ACAD
1000
MTEXTBEGIN
1070
    73
1070
     1
1070
    44
1040
1.0
1070
    74
1070
     0
1000
MTEXTEND
  0
LINE
  5
38AC
330
309E
100
AcDbEntity
  8
AM_REFDIM
100
AcDbLine
 10
555.8494929687689
 20
584.8980964741662
 30
0.0
 11
555.8494929687689
 21
591.3980964741662
 31
0.0
  0
INSERT
  5
38AD
330
309E
100
AcDbEntity
  8
AM_REFDIM
100
AcDbBlockReference
  2
GENDOT
 10
555.8494929687689
 20
584.8980964741662
 30
0.0
 41
2.7
 42
2.7
 43
2.7
 50
90.0
  0
SOLID
  5
38AE
330
309E
100
AcDbEntity
  8
AM_REFDIM
100
AcDbTrace
 10
555.3994929687688
 20
594.0980964741662
 30
0.0
 11
556.2994929687689
 21
594.0980964741662
 31
0.0
 12
555.8494929687689
 22
591.3980964741662
 32
0.0
 13
555.8494929687689
 23
591.3980964741662
 33
0.0
  0
POINT
  5
38AF
330
309E
100
AcDbEntity
  8
Defpoints
 62
     0
100
AcDbPoint
 10
591.1286482374386
 20
584.8980964741662
 30
0.0
  0
POINT
  5
38B0
330
309E
100
AcDbEntity
  8
Defpoints
 62
     0
100
AcDbPoint
 10
578.8786482374387
 20
591.3980964741662
 30
0.0
  0
POINT
  5
38B1
330
309E
100
AcDbEntity
  8
Defpoints
 62
     0
100
AcDbPoint
 10
555.8494929687689
 20
591.3980964741662
 30
0.0
  0
ENDBLK
  5
32AC
330
309E
100
AcDbEntity
  8
0
100
AcDbBlockEnd
  0
BLOCK
  5
32AD
330
30A8
100
AcDbEntity
  8
0
100
AcDbBlockBegin
  2
*D102
 70
     1
 10
0.0
 20
0.0
 30
0.0
  3
*D102
  1

  0
LINE
  5
38B2
330
30A8
100
AcDbEntity
  8
AM_REFDIM
100
AcDbLine
 10
589.7786482374385
 20
584.8980964741662
 30
0.0
 11
554.0494929687689
 21
584.8980964741662
 31
0.0
  0
LINE
  5
38B3
330
30A8
100
AcDbEntity
  8
AM_REFDIM
100
AcDbLine
 10
607.5286482374385
 20
578.3980964741662
 30
0.0
 11
554.0494929687689
 21
578.3980964741662
 31
0.0
  0
LINE
  5
38B4
330
30A8
100
AcDbEntity
  8
AM_REFDIM
100
AcDbLine
 10
555.8494929687689
 20
587.5980964741662
 30
0.0
 11
555.8494929687689
 21
590.2980964741662
 31
0.0
  0
LINE
  5
38B5
330
30A8
100
AcDbEntity
  8
AM_REFDIM
100
AcDbLine
 10
555.8494929687689
 20
575.6980964741662
 30
0.0
 11
555.8494929687689
 21
572.9980964741662
 31
0.0
  0
MTEXT
  5
38B6
330
30A8
100
AcDbEntity
  8
AM_REFDIM
100
AcDbMText
 10
553.7794929687688
 20
581.8512839176114
 30
0.0
 40
2.7
 41
0.0
 71
     5
 72
     1
  1
\A1;6.5
  7
dayus
 11
0.0000000000000001
 21
1.0
 31
0.0
 73
     1
 44
1.0
1001
ACAD
1000
MTEXTBEGIN
1070
    73
1070
     1
1070
    44
1040
1.0
1070
    74
1070
     0
1000
MTEXTEND
  0
LINE
  5
38B7
330
30A8
100
AcDbEntity
  8
AM_REFDIM
100
AcDbLine
 10
555.8494929687689
 20
584.8980964741662
 30
0.0
 11
555.8494929687689
 21
578.3980964741662
 31
0.0
  0
INSERT
  5
38B8
330
30A8
100
AcDbEntity
  8
AM_REFDIM
100
AcDbBlockReference
  2
GENDOT
 10
555.8494929687689
 20
584.8980964741662
 30
0.0
 41
2.7
 42
2.7
 43
2.7
 50
270.0
  0
SOLID
  5
38B9
330
30A8
100
AcDbEntity
  8
AM_REFDIM
100
AcDbTrace
 10
555.3994929687688
 20
575.6980964741662
 30
0.0
 11
556.2994929687689
 21
575.6980964741662
 31
0.0
 12
555.8494929687689
 22
578.3980964741662
 32
0.0
 13
555.8494929687689
 23
578.3980964741662
 33
0.0
  0
POINT
  5
38BA
330
30A8
100
AcDbEntity
  8
Defpoints
 62
     0
100
AcDbPoint
 10
591.1286482374386
 20
584.8980964741662
 30
0.0
  0
POINT
  5
38BB
330
30A8
100
AcDbEntity
  8
Defpoints
 62
     0
100
AcDbPoint
 10
608.8786482374386
 20
578.3980964741662
 30
0.0
  0
POINT
  5
38BC
330
30A8
100
AcDbEntity
  8
Defpoints
 62
     0
100
AcDbPoint
 10
555.8494929687689
 20
578.3980964741662
 30
0.0
  0
ENDBLK
  5
32AE
330
30A8
100
AcDbEntity
  8
0
100
AcDbBlockEnd
  0
BLOCK
  5
30BC
330
30B2
100
AcDbEntity
  8
0
100
AcDbBlockBegin
  2
*D103
 70
     1
 10
0.0
 20
0.0
 30
0.0
  3
*D103
  1

  0
LINE
  5
38BD
330
30B2
100
AcDbEntity
  8
AM_REFDIM
100
AcDbLine
 10
596.2715053802958
 20
562.379643807611
 30
0.0
 11
596.2715053802958
 21
554.786786664754
 31
0.0
  0
LINE
  5
38BE
330
30B2
100
AcDbEntity
  8
AM_REFDIM
100
AcDbLine
 10
583.0715053802958
 20
577.905239331309
 30
0.0
 11
583.0715053802958
 21
554.786786664754
 31
0.0
  0
LINE
  5
38BF
330
30B2
100
AcDbEntity
  8
AM_REFDIM
100
AcDbLine
 10
593.5715053802957
 20
556.5867866647539
 30
0.0
 11
585.7715053802958
 21
556.5867866647539
 31
0.0
  0
SOLID
  5
38C0
330
30B2
100
AcDbEntity
  8
AM_REFDIM
100
AcDbTrace
 10
593.5715053802957
 20
557.036786664754
 30
0.0
 11
593.5715053802957
 21
556.1367866647539
 31
0.0
 12
596.2715053802958
 22
556.5867866647539
 32
0.0
 13
596.2715053802958
 23
556.5867866647539
 33
0.0
  0
SOLID
  5
38C1
330
30B2
100
AcDbEntity
  8
AM_REFDIM
100
AcDbTrace
 10
585.7715053802958
 20
557.036786664754
 30
0.0
 11
585.7715053802958
 21
556.1367866647539
 31
0.0
 12
583.0715053802958
 22
556.5867866647539
 32
0.0
 13
583.0715053802958
 23
556.5867866647539
 33
0.0
  0
MTEXT
  5
38C2
330
30B2
100
AcDbEntity
  8
AM_REFDIM
100
AcDbMText
 10
589.6715053802958
 20
558.656786664754
 30
0.0
 40
2.7
 41
0.0
 71
     5
 72
     1
  1
\A1;13.2
  7
dayus
 73
     1
 44
1.0
1001
ACAD
1000
MTEXTBEGIN
1070
    73
1070
     1
1070
    44
1040
1.0
1070
    74
1070
     0
1000
MTEXTEND
  0
POINT
  5
38C3
330
30B2
100
AcDbEntity
  8
Defpoints
 62
     0
100
AcDbPoint
 10
596.2715053802958
 20
563.729643807611
 30
0.0
  0
POINT
  5
38C4
330
30B2
100
AcDbEntity
  8
Defpoints
 62
     0
100
AcDbPoint
 10
583.0715053802958
 20
579.2552393313091
 30
0.0
  0
POINT
  5
38C5
330
30B2
100
AcDbEntity
  8
Defpoints
 62
     0
100
AcDbPoint
 10
583.0715053802958
 20
556.5867866647539
 30
0.0
  0
ENDBLK
  5
30BD
330
30B2
100
AcDbEntity
  8
0
100
AcDbBlockEnd
  0
BLOCK
  5
30C8
330
30BE
100
AcDbEntity
  8
0
100
AcDbBlockBegin
  2
*D104
 70
     1
 10
0.0
 20
0.0
 30
0.0
  3
*D104
  1

  0
LINE
  5
38C6
330
30BE
100
AcDbEntity
  8
AM_REFDIM
100
AcDbLine
 10
596.2715053802958
 20
562.379643807611
 30
0.0
 11
596.2715053802958
 21
554.786786664754
 31
0.0
  0
LINE
  5
38C7
330
30BE
100
AcDbEntity
  8
AM_REFDIM
100
AcDbLine
 10
609.4715053802958
 20
578.9052393313089
 30
0.0
 11
609.4715053802958
 21
554.786786664754
 31
0.0
  0
LINE
  5
38C8
330
30BE
100
AcDbEntity
  8
AM_REFDIM
100
AcDbLine
 10
598.9715053802958
 20
556.5867866647539
 30
0.0
 11
606.7715053802958
 21
556.5867866647539
 31
0.0
  0
SOLID
  5
38C9
330
30BE
100
AcDbEntity
  8
AM_REFDIM
100
AcDbTrace
 10
598.9715053802958
 20
557.036786664754
 30
0.0
 11
598.9715053802958
 21
556.1367866647539
 31
0.0
 12
596.2715053802958
 22
556.5867866647539
 32
0.0
 13
596.2715053802958
 23
556.5867866647539
 33
0.0
  0
SOLID
  5
38CA
330
30BE
100
AcDbEntity
  8
AM_REFDIM
100
AcDbTrace
 10
606.7715053802958
 20
557.036786664754
 30
0.0
 11
606.7715053802958
 21
556.1367866647539
 31
0.0
 12
609.4715053802958
 22
556.5867866647539
 32
0.0
 13
609.4715053802958
 23
556.5867866647539
 33
0.0
  0
MTEXT
  5
38CB
330
30BE
100
AcDbEntity
  8
AM_REFDIM
100
AcDbMText
 10
602.8715053802958
 20
558.656786664754
 30
0.0
 40
2.7
 41
0.0
 71
     5
 72
     1
  1
\A1;13.2
  7
dayus
 73
     1
 44
1.0
1001
ACAD
1000
MTEXTBEGIN
1070
    73
1070
     1
1070
    44
1040
1.0
1070
    74
1070
     0
1000
MTEXTEND
  0
POINT
  5
38CC
330
30BE
100
AcDbEntity
  8
Defpoints
 62
     0
100
AcDbPoint
 10
596.2715053802958
 20
563.729643807611
 30
0.0
  0
POINT
  5
38CD
330
30BE
100
AcDbEntity
  8
Defpoints
 62
     0
100
AcDbPoint
 10
609.4715053802958
 20
580.255239331309
 30
0.0
  0
POINT
  5
38CE
330
30BE
100
AcDbEntity
  8
Defpoints
 62
     0
100
AcDbPoint
 10
609.4715053802958
 20
556.5867866647539
 30
0.0
  0
ENDBLK
  5
30C9
330
30BE
100
AcDbEntity
  8
0
100
AcDbBlockEnd
  0
BLOCK
  5
30D4
330
30CA
100
AcDbEntity
  8
0
100
AcDbBlockBegin
  2
*D105
 70
     1
 10
0.0
 20
0.0
 30
0.0
  3
*D105
  1

  0
LINE
  5
38CF
330
30CA
100
AcDbEntity
  8
AM_REFDIM
100
AcDbLine
 10
596.2715053802958
 20
562.379643807611
 30
0.0
 11
596.2715053802958
 21
549.0725009504683
 31
0.0
  0
LINE
  5
38D0
330
30CA
100
AcDbEntity
  8
AM_REFDIM
100
AcDbLine
 10
581.2715053802958
 20
587.6552393313089
 30
0.0
 11
581.2715053802958
 21
549.0725009504683
 31
0.0
  0
LINE
  5
38D1
330
30CA
100
AcDbEntity
  8
AM_REFDIM
100
AcDbLine
 10
593.5715053802957
 20
550.8725009504683
 30
0.0
 11
583.9715053802958
 21
550.8725009504683
 31
0.0
  0
SOLID
  5
38D2
330
30CA
100
AcDbEntity
  8
AM_REFDIM
100
AcDbTrace
 10
593.5715053802957
 20
551.3225009504683
 30
0.0
 11
593.5715053802957
 21
550.4225009504682
 31
0.0
 12
596.2715053802958
 22
550.8725009504683
 32
0.0
 13
596.2715053802958
 23
550.8725009504683
 33
0.0
  0
SOLID
  5
38D3
330
30CA
100
AcDbEntity
  8
AM_REFDIM
100
AcDbTrace
 10
583.9715053802958
 20
551.3225009504683
 30
0.0
 11
583.9715053802958
 21
550.4225009504682
 31
0.0
 12
581.2715053802958
 22
550.8725009504683
 32
0.0
 13
581.2715053802958
 23
550.8725009504683
 33
0.0
  0
MTEXT
  5
38D4
330
30CA
100
AcDbEntity
  8
AM_REFDIM
100
AcDbMText
 10
588.7715053802958
 20
552.9425009504683
 30
0.0
 40
2.7
 41
0.0
 71
     5
 72
     1
  1
\A1;15
  7
dayus
 73
     1
 44
1.0
1001
ACAD
1000
MTEXTBEGIN
1070
    73
1070
     1
1070
    44
1040
1.0
1070
    74
1070
     0
1000
MTEXTEND
  0
POINT
  5
38D5
330
30CA
100
AcDbEntity
  8
Defpoints
 62
     0
100
AcDbPoint
 10
596.2715053802958
 20
563.729643807611
 30
0.0
  0
POINT
  5
38D6
330
30CA
100
AcDbEntity
  8
Defpoints
 62
     0
100
AcDbPoint
 10
581.2715053802958
 20
589.005239331309
 30
0.0
  0
POINT
  5
38D7
330
30CA
100
AcDbEntity
  8
Defpoints
 62
     0
100
AcDbPoint
 10
581.2715053802958
 20
550.8725009504683
 30
0.0
  0
ENDBLK
  5
30D5
330
30CA
100
AcDbEntity
  8
0
100
AcDbBlockEnd
  0
BLOCK
  5
30E0
330
30D6
100
AcDbEntity
  8
0
100
AcDbBlockBegin
  2
*D106
 70
     1
 10
0.0
 20
0.0
 30
0.0
  3
*D106
  1

  0
LINE
  5
38D8
330
30D6
100
AcDbEntity
  8
AM_REFDIM
100
AcDbLine
 10
596.2715053802958
 20
562.379643807611
 30
0.0
 11
596.2715053802958
 21
549.0725009504683
 31
0.0
  0
LINE
  5
38D9
330
30D6
100
AcDbEntity
  8
AM_REFDIM
100
AcDbLine
 10
611.2715053802958
 20
574.655239331309
 30
0.0
 11
611.2715053802958
 21
549.0725009504683
 31
0.0
  0
LINE
  5
38DA
330
30D6
100
AcDbEntity
  8
AM_REFDIM
100
AcDbLine
 10
598.9715053802958
 20
550.8725009504683
 30
0.0
 11
608.5715053802958
 21
550.8725009504683
 31
0.0
  0
SOLID
  5
38DB
330
30D6
100
AcDbEntity
  8
AM_REFDIM
100
AcDbTrace
 10
598.9715053802958
 20
551.3225009504683
 30
0.0
 11
598.9715053802958
 21
550.4225009504682
 31
0.0
 12
596.2715053802958
 22
550.8725009504683
 32
0.0
 13
596.2715053802958
 23
550.8725009504683
 33
0.0
  0
SOLID
  5
38DC
330
30D6
100
AcDbEntity
  8
AM_REFDIM
100
AcDbTrace
 10
608.5715053802958
 20
551.3225009504683
 30
0.0
 11
608.5715053802958
 21
550.4225009504682
 31
0.0
 12
611.2715053802958
 22
550.8725009504683
 32
0.0
 13
611.2715053802958
 23
550.8725009504683
 33
0.0
  0
MTEXT
  5
38DD
330
30D6
100
AcDbEntity
  8
AM_REFDIM
100
AcDbMText
 10
603.7715053802958
 20
552.9425009504683
 30
0.0
 40
2.7
 41
0.0
 71
     5
 72
     1
  1
\A1;15
  7
dayus
 73
     1
 44
1.0
1001
ACAD
1000
MTEXTBEGIN
1070
    73
1070
     1
1070
    44
1040
1.0
1070
    74
1070
     0
1000
MTEXTEND
  0
POINT
  5
38DE
330
30D6
100
AcDbEntity
  8
Defpoints
 62
     0
100
AcDbPoint
 10
596.2715053802958
 20
563.729643807611
 30
0.0
  0
POINT
  5
38DF
330
30D6
100
AcDbEntity
  8
Defpoints
 62
     0
100
AcDbPoint
 10
611.2715053802958
 20
576.0052393313091
 30
0.0
  0
POINT
  5
38E0
330
30D6
100
AcDbEntity
  8
Defpoints
 62
     0
100
AcDbPoint
 10
611.2715053802958
 20
550.8725009504683
 30
0.0
  0
ENDBLK
  5
30E1
330
30D6
100
AcDbEntity
  8
0
100
AcDbBlockEnd
  0
BLOCK
  5
30EC
330
30E2
100
AcDbEntity
  8
0
100
AcDbBlockBegin
  2
*D107
 70
     1
 10
0.0
 20
0.0
 30
0.0
  3
*D107
  1

  0
LINE
  5
38E1
330
30E2
100
AcDbEntity
  8
AM_REFDIM
100
AcDbLine
 10
611.0143625231529
 20
570.8980964741662
 30
0.0
 11
639.0715053802957
 21
570.8980964741662
 31
0.0
  0
LINE
  5
38E2
330
30E2
100
AcDbEntity
  8
AM_REFDIM
100
AcDbLine
 10
626.6215053802958
 20
565.8980964741662
 30
0.0
 11
639.0715053802957
 21
565.8980964741662
 31
0.0
  0
LINE
  5
38E3
330
30E2
100
AcDbEntity
  8
AM_REFDIM
100
AcDbLine
 10
637.2715053802957
 20
573.5980964741663
 30
0.0
 11
637.2715053802957
 21
576.2980964741662
 31
0.0
  0
LINE
  5
38E4
330
30E2
100
AcDbEntity
  8
AM_REFDIM
100
AcDbLine
 10
637.2715053802957
 20
563.1980964741662
 30
0.0
 11
637.2715053802957
 21
560.4980964741662
 31
0.0
  0
LINE
  5
38E5
330
30E2
100
AcDbEntity
  8
AM_REFDIM
100
AcDbLine
 10
637.2715053802957
 20
570.8980964741662
 30
0.0
 11
637.2715053802957
 21
565.8980964741662
 31
0.0
  0
SOLID
  5
38E6
330
30E2
100
AcDbEntity
  8
AM_REFDIM
100
AcDbTrace
 10
636.8215053802957
 20
573.5980964741663
 30
0.0
 11
637.7215053802959
 21
573.5980964741663
 31
0.0
 12
637.2715053802957
 22
570.8980964741662
 32
0.0
 13
637.2715053802957
 23
570.8980964741662
 33
0.0
  0
SOLID
  5
38E7
330
30E2
100
AcDbEntity
  8
AM_REFDIM
100
AcDbTrace
 10
636.8215053802957
 20
563.1980964741662
 30
0.0
 11
637.7215053802959
 21
563.1980964741662
 31
0.0
 12
637.2715053802957
 22
565.8980964741662
 32
0.0
 13
637.2715053802957
 23
565.8980964741662
 33
0.0
  0
MTEXT
  5
38E8
330
30E2
100
AcDbEntity
  8
AM_REFDIM
100
AcDbMText
 10
635.2015053802956
 20
568.3980964741663
 30
0.0
 40
2.7
 41
0.0
 71
     5
 72
     1
  1
\A1;5
  7
dayus
 11
0.0000000000000001
 21
1.0
 31
0.0
 73
     1
 44
1.0
1001
ACAD
1000
MTEXTBEGIN
1070
    73
1070
     1
1070
    44
1040
1.0
1070
    74
1070
     0
1000
MTEXTEND
  0
POINT
  5
38E9
330
30E2
100
AcDbEntity
  8
Defpoints
 62
     0
100
AcDbPoint
 10
609.6643625231529
 20
570.8980964741662
 30
0.0
  0
POINT
  5
38EA
330
30E2
100
AcDbEntity
  8
Defpoints
 62
     0
100
AcDbPoint
 10
625.2715053802958
 20
565.8980964741662
 30
0.0
  0
POINT
  5
38EB
330
30E2
100
AcDbEntity
  8
Defpoints
 62
     0
100
AcDbPoint
 10
637.2715053802957
 20
565.8980964741662
 30
0.0
  0
ENDBLK
  5
30ED
330
30E2
100
AcDbEntity
  8
0
100
AcDbBlockEnd
  0
BLOCK
  5
3110
330
3106
100
AcDbEntity
  8
0
100
AcDbBlockBegin
  2
*D110
 70
     1
 10
0.0
 20
0.0
 30
0.0
  3
*D110
  1

  0
LINE
  5
38EC
330
3106
100
AcDbEntity
  8
AM_REFDIM
100
AcDbLine
 10
609.9607910945815
 20
570.8980964741662
 30
0.0
 11
639.0715053802957
 21
570.8980964741662
 31
0.0
  0
LINE
  5
38ED
330
3106
100
AcDbEntity
  8
AM_REFDIM
100
AcDbLine
 10
611.0143625231529
 20
617.8980964741661
 30
0.0
 11
639.0715053802957
 21
617.8980964741661
 31
0.0
  0
LINE
  5
38EE
330
3106
100
AcDbEntity
  8
AM_REFDIM
100
AcDbLine
 10
637.2715053802957
 20
573.5980964741663
 30
0.0
 11
637.2715053802957
 21
615.1980964741661
 31
0.0
  0
SOLID
  5
38EF
330
3106
100
AcDbEntity
  8
AM_REFDIM
100
AcDbTrace
 10
636.8215053802957
 20
573.5980964741663
 30
0.0
 11
637.7215053802959
 21
573.5980964741663
 31
0.0
 12
637.2715053802957
 22
570.8980964741662
 32
0.0
 13
637.2715053802957
 23
570.8980964741662
 33
0.0
  0
SOLID
  5
38F0
330
3106
100
AcDbEntity
  8
AM_REFDIM
100
AcDbTrace
 10
636.8215053802957
 20
615.1980964741661
 30
0.0
 11
637.7215053802959
 21
615.1980964741661
 31
0.0
 12
637.2715053802957
 22
617.8980964741661
 32
0.0
 13
637.2715053802957
 23
617.8980964741661
 33
0.0
  0
MTEXT
  5
38F1
330
3106
100
AcDbEntity
  8
AM_REFDIM
100
AcDbMText
 10
635.2015053802956
 20
594.3980964741663
 30
0.0
 40
2.7
 41
0.0
 71
     5
 72
     1
  1
\A1;P
  7
dayus
 11
0.0000000000000001
 21
1.0
 31
0.0
 73
     1
 44
1.0
1001
ACAD
1000
MTEXTBEGIN
1070
    73
1070
     1
1070
    44
1040
1.0
1070
    74
1070
     0
1000
MTEXTEND
  0
POINT
  5
38F2
330
3106
100
AcDbEntity
  8
Defpoints
 62
     0
100
AcDbPoint
 10
608.6107910945814
 20
570.8980964741662
 30
0.0
  0
POINT
  5
38F3
330
3106
100
AcDbEntity
  8
Defpoints
 62
     0
100
AcDbPoint
 10
609.6643625231529
 20
617.8980964741661
 30
0.0
  0
POINT
  5
38F4
330
3106
100
AcDbEntity
  8
Defpoints
 62
     0
100
AcDbPoint
 10
637.2715053802957
 20
617.8980964741661
 30
0.0
  0
ENDBLK
  5
3111
330
3106
100
AcDbEntity
  8
0
100
AcDbBlockEnd
  0
BLOCK
  5
311C
330
3112
100
AcDbEntity
  8
0
100
AcDbBlockBegin
  2
*D111
 70
     1
 10
0.0
 20
0.0
 30
0.0
  3
*D111
  1

  0
LINE
  5
38F5
330
3112
100
AcDbEntity
  8
AM_REFDIM
100
AcDbLine
 10
626.6215053802958
 20
565.8980964741662
 30
0.0
 11
647.0715053802957
 21
565.8980964741662
 31
0.0
  0
LINE
  5
38F6
330
3112
100
AcDbEntity
  8
AM_REFDIM
100
AcDbLine
 10
626.6215053802958
 20
622.8980964741662
 30
0.0
 11
647.0715053802957
 21
622.8980964741662
 31
0.0
  0
LINE
  5
38F7
330
3112
100
AcDbEntity
  8
AM_REFDIM
100
AcDbLine
 10
645.2715053802958
 20
568.5980964741662
 30
0.0
 11
645.2715053802958
 21
620.1980964741661
 31
0.0
  0
SOLID
  5
38F8
330
3112
100
AcDbEntity
  8
AM_REFDIM
100
AcDbTrace
 10
644.8215053802957
 20
568.5980964741662
 30
0.0
 11
645.7215053802959
 21
568.5980964741662
 31
0.0
 12
645.2715053802958
 22
565.8980964741662
 32
0.0
 13
645.2715053802958
 23
565.8980964741662
 33
0.0
  0
SOLID
  5
38F9
330
3112
100
AcDbEntity
  8
AM_REFDIM
100
AcDbTrace
 10
644.8215053802957
 20
620.1980964741661
 30
0.0
 11
645.7215053802959
 21
620.1980964741661
 31
0.0
 12
645.2715053802958
 22
622.8980964741662
 32
0.0
 13
645.2715053802958
 23
622.8980964741662
 33
0.0
  0
MTEXT
  5
38FA
330
3112
100
AcDbEntity
  8
AM_REFDIM
100
AcDbMText
 10
643.2015053802956
 20
594.3980964741663
 30
0.0
 40
2.7
 41
0.0
 71
     5
 72
     1
  1
\A1;L
  7
dayus
 11
0.0000000000000001
 21
1.0
 31
0.0
 73
     1
 44
1.0
1001
ACAD
1000
MTEXTBEGIN
1070
    73
1070
     1
1070
    44
1040
1.0
1070
    74
1070
     0
1000
MTEXTEND
  0
POINT
  5
38FB
330
3112
100
AcDbEntity
  8
Defpoints
 62
     0
100
AcDbPoint
 10
625.2715053802958
 20
565.8980964741662
 30
0.0
  0
POINT
  5
38FC
330
3112
100
AcDbEntity
  8
Defpoints
 62
     0
100
AcDbPoint
 10
625.2715053802958
 20
622.8980964741662
 30
0.0
  0
POINT
  5
38FD
330
3112
100
AcDbEntity
  8
Defpoints
 62
     0
100
AcDbPoint
 10
645.2715053802958
 20
622.8980964741662
 30
0.0
  0
ENDBLK
  5
311D
330
3112
100
AcDbEntity
  8
0
100
AcDbBlockEnd
  0
BLOCK
  5
32AF
330
311E
100
AcDbEntity
  8
0
100
AcDbBlockBegin
  2
*D112
 70
     1
 10
0.0
 20
0.0
 30
0.0
  3
*D112
  1

  0
LINE
  5
38FE
330
311E
100
AcDbEntity
  8
AM_REFDIM
100
AcDbLine
 10
589.7786482374385
 20
584.8980964741662
 30
0.0
 11
559.7637786830546
 21
584.8980964741662
 31
0.0
  0
LINE
  5
38FF
330
311E
100
AcDbEntity
  8
AM_REFDIM
100
AcDbLine
 10
576.5786482374386
 20
584.398096474166
 30
0.0
 11
559.7637786830546
 21
584.398096474166
 31
0.0
  0
LINE
  5
3900
330
311E
100
AcDbEntity
  8
AM_REFDIM
100
AcDbLine
 10
561.5637786830546
 20
587.5980964741662
 30
0.0
 11
561.5637786830546
 21
590.2980964741662
 31
0.0
  0
LINE
  5
3901
330
311E
100
AcDbEntity
  8
AM_REFDIM
100
AcDbLine
 10
561.5637786830546
 20
581.698096474166
 30
0.0
 11
561.5637786830546
 21
578.9980964741661
 31
0.0
  0
MTEXT
  5
3902
330
311E
100
AcDbEntity
  8
AM_REFDIM
100
AcDbMText
 10
559.4937786830545
 20
581.0991458353496
 30
0.0
 40
2.7
 41
0.0
 71
     5
 72
     1
  1
\A1;0.5
  7
dayus
 11
0.0000000000000001
 21
1.0
 31
0.0
 73
     1
 44
1.0
1001
ACAD
1000
MTEXTBEGIN
1070
    73
1070
     1
1070
    44
1040
1.0
1070
    74
1070
     0
1000
MTEXTEND
  0
LINE
  5
3903
330
311E
100
AcDbEntity
  8
AM_REFDIM
100
AcDbLine
 10
561.5637786830546
 20
584.8980964741662
 30
0.0
 11
561.5637786830546
 21
584.398096474166
 31
0.0
  0
INSERT
  5
3904
330
311E
100
AcDbEntity
  8
AM_REFDIM
100
AcDbBlockReference
  2
GENDOT
 10
561.5637786830546
 20
584.8980964741662
 30
0.0
 41
2.7
 42
2.7
 43
2.7
 50
270.0
  0
SOLID
  5
3905
330
311E
100
AcDbEntity
  8
AM_REFDIM
100
AcDbTrace
 10
561.1137786830545
 20
581.698096474166
 30
0.0
 11
562.0137786830546
 21
581.698096474166
 31
0.0
 12
561.5637786830546
 22
584.398096474166
 32
0.0
 13
561.5637786830546
 23
584.398096474166
 33
0.0
  0
POINT
  5
3906
330
311E
100
AcDbEntity
  8
Defpoints
 62
     0
100
AcDbPoint
 10
591.1286482374386
 20
584.8980964741662
 30
0.0
  0
POINT
  5
3907
330
311E
100
AcDbEntity
  8
Defpoints
 62
     0
100
AcDbPoint
 10
577.9286482374386
 20
584.398096474166
 30
0.0
  0
POINT
  5
3908
330
311E
100
AcDbEntity
  8
Defpoints
 62
     0
100
AcDbPoint
 10
561.5637786830546
 20
584.398096474166
 30
0.0
  0
ENDBLK
  5
32B0
330
311E
100
AcDbEntity
  8
0
100
AcDbBlockEnd
  0
BLOCK
  5
32B1
330
312A
100
AcDbEntity
  8
0
100
AcDbBlockBegin
  2
*D113
 70
     1
 10
0.0
 20
0.0
 30
0.0
  3
*D113
  1

  0
LINE
  5
3909
330
312A
100
AcDbEntity
  8
AM_REFDIM
100
AcDbLine
 10
589.7786482374385
 20
584.8980964741662
 30
0.0
 11
559.7637786830546
 21
584.8980964741662
 31
0.0
  0
LINE
  5
390A
330
312A
100
AcDbEntity
  8
AM_REFDIM
100
AcDbLine
 10
602.9786482374386
 20
585.3980964741662
 30
0.0
 11
559.7637786830546
 21
585.3980964741662
 31
0.0
  0
LINE
  5
390B
330
312A
100
AcDbEntity
  8
AM_REFDIM
100
AcDbLine
 10
561.5637786830546
 20
582.1980964741661
 30
0.0
 11
561.5637786830546
 21
579.4980964741662
 31
0.0
  0
LINE
  5
390C
330
312A
100
AcDbEntity
  8
AM_REFDIM
100
AcDbLine
 10
561.5637786830546
 20
588.0980964741662
 30
0.0
 11
561.5637786830546
 21
590.7980964741661
 31
0.0
  0
MTEXT
  5
390D
330
312A
100
AcDbEntity
  8
AM_REFDIM
100
AcDbMText
 10
559.4937786830545
 20
588.3384752782268
 30
0.0
 40
2.7
 41
0.0
 71
     5
 72
     1
  1
\A1;0.5
  7
dayus
 11
0.0000000000000001
 21
1.0
 31
0.0
 73
     1
 44
1.0
1001
ACAD
1000
MTEXTBEGIN
1070
    73
1070
     1
1070
    44
1040
1.0
1070
    74
1070
     0
1000
MTEXTEND
  0
LINE
  5
390E
330
312A
100
AcDbEntity
  8
AM_REFDIM
100
AcDbLine
 10
561.5637786830546
 20
584.8980964741662
 30
0.0
 11
561.5637786830546
 21
585.3980964741662
 31
0.0
  0
INSERT
  5
390F
330
312A
100
AcDbEntity
  8
AM_REFDIM
100
AcDbBlockReference
  2
GENDOT
 10
561.5637786830546
 20
584.8980964741662
 30
0.0
 41
2.7
 42
2.7
 43
2.7
 50
90.0
  0
SOLID
  5
3910
330
312A
100
AcDbEntity
  8
AM_REFDIM
100
AcDbTrace
 10
561.1137786830545
 20
588.0980964741662
 30
0.0
 11
562.0137786830546
 21
588.0980964741662
 31
0.0
 12
561.5637786830546
 22
585.3980964741662
 32
0.0
 13
561.5637786830546
 23
585.3980964741662
 33
0.0
  0
POINT
  5
3911
330
312A
100
AcDbEntity
  8
Defpoints
 62
     0
100
AcDbPoint
 10
591.1286482374386
 20
584.8980964741662
 30
0.0
  0
POINT
  5
3912
330
312A
100
AcDbEntity
  8
Defpoints
 62
     0
100
AcDbPoint
 10
604.3286482374386
 20
585.3980964741662
 30
0.0
  0
POINT
  5
3913
330
312A
100
AcDbEntity
  8
Defpoints
 62
     0
100
AcDbPoint
 10
561.5637786830546
 20
585.3980964741662
 30
0.0
  0
ENDBLK
  5
32B2
330
312A
100
AcDbEntity
  8
0
100
AcDbBlockEnd
  0
BLOCK
  5
3140
330
3136
100
AcDbEntity
  8
0
100
AcDbBlockBegin
  2
*D114
 70
     1
 10
0.0
 20
0.0
 30
0.0
  3
*D114
  1

  0
LINE
  5
3914
330
3136
100
AcDbEntity
  8
AM_REFDIM
100
AcDbLine
 10
586.2715053802958
 20
622.6409536170233
 30
0.0
 11
586.2715053802958
 21
631.6623821884518
 31
0.0
  0
LINE
  5
3915
330
3136
100
AcDbEntity
  8
AM_REFDIM
100
AcDbLine
 10
606.2715053802958
 20
622.6409536170233
 30
0.0
 11
606.2715053802958
 21
631.6623821884518
 31
0.0
  0
LINE
  5
3916
330
3136
100
AcDbEntity
  8
AM_REFDIM
100
AcDbLine
 10
588.9715053802958
 20
629.8623821884518
 30
0.0
 11
603.5715053802958
 21
629.8623821884518
 31
0.0
  0
SOLID
  5
3917
330
3136
100
AcDbEntity
  8
AM_REFDIM
100
AcDbTrace
 10
588.9715053802958
 20
630.3123821884518
 30
0.0
 11
588.9715053802958
 21
629.4123821884518
 31
0.0
 12
586.2715053802958
 22
629.8623821884518
 32
0.0
 13
586.2715053802958
 23
629.8623821884518
 33
0.0
  0
SOLID
  5
3918
330
3136
100
AcDbEntity
  8
AM_REFDIM
100
AcDbTrace
 10
603.5715053802958
 20
630.3123821884518
 30
0.0
 11
603.5715053802958
 21
629.4123821884518
 31
0.0
 12
606.2715053802958
 22
629.8623821884518
 32
0.0
 13
606.2715053802958
 23
629.8623821884518
 33
0.0
  0
MTEXT
  5
3919
330
3136
100
AcDbEntity
  8
AM_REFDIM
100
AcDbMText
 10
596.2715053802958
 20
631.9323821884519
 30
0.0
 40
2.7
 41
0.0
 71
     5
 72
     1
  1
\A1;20
  7
dayus
 73
     1
 44
1.0
1001
ACAD
1000
MTEXTBEGIN
1070
    73
1070
     1
1070
    44
1040
1.0
1070
    74
1070
     0
1000
MTEXTEND
  0
POINT
  5
391A
330
3136
100
AcDbEntity
  8
Defpoints
 62
     0
100
AcDbPoint
 10
586.2715053802958
 20
621.2909536170233
 30
0.0
  0
POINT
  5
391B
330
3136
100
AcDbEntity
  8
Defpoints
 62
     0
100
AcDbPoint
 10
606.2715053802958
 20
621.2909536170233
 30
0.0
  0
POINT
  5
391C
330
3136
100
AcDbEntity
  8
Defpoints
 62
     0
100
AcDbPoint
 10
606.2715053802958
 20
629.8623821884518
 30
0.0
  0
ENDBLK
  5
3141
330
3136
100
AcDbEntity
  8
0
100
AcDbBlockEnd
  0
BLOCK
  5
314C
330
3142
100
AcDbEntity
  8
0
100
AcDbBlockBegin
  2
*D115
 70
     1
 10
0.0
 20
0.0
 30
0.0
  3
*D115
  1

  0
LINE
  5
391D
330
3142
100
AcDbEntity
  8
AM_REFDIM
100
AcDbLine
 10
650.9193868534647
 20
629.8916431811228
 30
0.0
 11
616.0390297106074
 21
629.8916431811227
 31
0.0
  0
LINE
  5
391E
330
3142
100
AcDbEntity
  8
AM_REFDIM
100
AcDbLine
 10
616.0390297106074
 20
629.8916431811227
 30
0.0
 11
609.5867693173892
 21
621.9689102782357
 31
0.0
  0
LINE
  5
391F
330
3142
100
AcDbEntity
  8
AM_REFDIM
100
AcDbLine
 10
602.9562414432021
 20
613.8272826700961
 30
0.0
 11
601.06180490772
 21
611.5011033534847
 31
0.0
  0
MTEXT
  5
3920
330
3142
100
AcDbEntity
  8
AM_REFDIM
100
AcDbMText
 10
633.8792082820361
 20
632.1916431811228
 30
0.0
 40
3.0
 41
0.0
 71
     5
 72
     1
  1
\A1;2×2-\U+22054.5 thru
  7
dayus
 73
     1
 44
1.0
1001
ACAD
1000
MTEXTBEGIN
1070
    73
1070
     1
1070
    44
1040
1.0
1070
    74
1070
     0
1000
MTEXTEND
  0
LINE
  5
3921
330
3142
100
AcDbEntity
  8
AM_REFDIM
100
AcDbLine
 10
604.8506779786841
 20
616.1534619867075
 30
0.0
 11
607.6923327819071
 21
619.6427309616243
 31
0.0
  0
SOLID
  5
3922
330
3142
100
AcDbEntity
  8
AM_REFDIM
100
AcDbTrace
 10
602.5685448904335
 20
614.1430220926764
 30
0.0
 11
603.3439379959706
 21
613.5115432475157
 31
0.0
 12
604.8506779786841
 22
616.1534619867075
 32
0.0
 13
604.8506779786841
 23
616.1534619867075
 33
0.0
  0
SOLID
  5
3923
330
3142
100
AcDbEntity
  8
AM_REFDIM
100
AcDbTrace
 10
609.1990727646207
 20
622.2846497008161
 30
0.0
 11
609.9744658701578
 21
621.6531708556553
 31
0.0
 12
607.6923327819071
 22
619.6427309616243
 32
0.0
 13
607.6923327819071
 23
619.6427309616243
 33
0.0
  0
POINT
  5
3924
330
3142
100
AcDbEntity
  8
Defpoints
 62
     0
100
AcDbPoint
 10
607.6923327819071
 20
619.6427309616243
 30
0.0
  0
POINT
  5
3925
330
3142
100
AcDbEntity
  8
Defpoints
 62
     0
100
AcDbPoint
 10
604.8506779786841
 20
616.1534619867075
 30
0.0
  0
ENDBLK
  5
314D
330
3142
100
AcDbEntity
  8
0
100
AcDbBlockEnd
  0
BLOCK
  5
3158
330
314E
100
AcDbEntity
  8
0
100
AcDbBlockBegin
  2
*D116
 70
     1
 10
0.0
 20
0.0
 30
0.0
  3
*D116
  1

  0
LINE
  5
3926
330
314E
100
AcDbEntity
  8
AM_REFDIM
100
AcDbLine
 10
522.3470312547665
 20
628.2485315110254
 30
0.0
 11
562.6738169690522
 21
628.2485315110253
 31
0.0
  0
LINE
  5
3927
330
314E
100
AcDbEntity
  8
AM_REFDIM
100
AcDbLine
 10
562.6738169690522
 20
628.2485315110253
 30
0.0
 11
578.2053336974821
 21
613.3410696666214
 31
0.0
  0
LINE
  5
3928
330
314E
100
AcDbEntity
  8
AM_REFDIM
100
AcDbLine
 10
584.3376770631098
 20
607.455123281711
 30
0.0
 11
586.502033545096
 21
605.3777304399779
 31
0.0
  0
MTEXT
  5
3929
330
314E
100
AcDbEntity
  8
AM_REFDIM
100
AcDbMText
 10
542.1104241119094
 20
630.5485315110255
 30
0.0
 40
3.0
 41
0.0
 71
     5
 72
     1
  1
\A1;2×N-M3×0.5×5L
  7
dayus
 73
     1
 44
1.0
1001
ACAD
1000
MTEXTBEGIN
1070
    73
1070
     1
1070
    44
1040
1.0
1070
    74
1070
     0
1000
MTEXTEND
  0
LINE
  5
392A
330
314E
100
AcDbEntity
  8
AM_REFDIM
100
AcDbLine
 10
582.1733205811235
 20
609.5325161234442
 30
0.0
 11
580.3696901794684
 21
611.2636768248884
 31
0.0
  0
SOLID
  5
392B
330
314E
100
AcDbEntity
  8
AM_REFDIM
100
AcDbTrace
 10
584.6839092033986
 20
607.8158493620421
 30
0.0
 11
583.9914449228209
 21
607.09439720138
 31
0.0
 12
582.1733205811235
 22
609.5325161234442
 32
0.0
 13
582.1733205811235
 23
609.5325161234442
 33
0.0
  0
SOLID
  5
392C
330
314E
100
AcDbEntity
  8
AM_REFDIM
100
AcDbTrace
 10
578.551565837771
 20
613.7017957469525
 30
0.0
 11
577.8591015571932
 21
612.9803435862904
 31
0.0
 12
580.3696901794684
 22
611.2636768248884
 32
0.0
 13
580.3696901794684
 23
611.2636768248884
 33
0.0
  0
POINT
  5
392D
330
314E
100
AcDbEntity
  8
Defpoints
 62
     0
100
AcDbPoint
 10
580.3696901794684
 20
611.2636768248884
 30
0.0
  0
POINT
  5
392E
330
314E
100
AcDbEntity
  8
Defpoints
 62
     0
100
AcDbPoint
 10
582.1733205811235
 20
609.5325161234442
 30
0.0
  0
ENDBLK
  5
3159
330
314E
100
AcDbEntity
  8
0
100
AcDbBlockEnd
  0
BLOCK
  5
3164
330
315A
100
AcDbEntity
  8
0
100
AcDbBlockBegin
  2
*D117
 70
     1
 10
0.0
 20
0.0
 30
0.0
  3
*D117
  1

  0
LINE
  5
392F
330
315A
100
AcDbEntity
  8
AM_REFDIM
100
AcDbLine
 10
567.2715053802958
 20
514.107230551539
 30
0.0
 11
567.2715053802958
 21
497.1765237058659
 31
0.0
  0
LINE
  5
3930
330
315A
100
AcDbEntity
  8
AM_REFDIM
100
AcDbLine
 10
625.2715053802958
 20
514.107230551539
 30
0.0
 11
625.2715053802958
 21
497.1765237058659
 31
0.0
  0
LINE
  5
3931
330
315A
100
AcDbEntity
  8
AM_REFDIM
100
AcDbLine
 10
569.9715053802958
 20
498.9765237058659
 30
0.0
 11
622.5715053802957
 21
498.9765237058659
 31
0.0
  0
SOLID
  5
3932
330
315A
100
AcDbEntity
  8
AM_REFDIM
100
AcDbTrace
 10
569.9715053802958
 20
499.4265237058659
 30
0.0
 11
569.9715053802958
 21
498.5265237058659
 31
0.0
 12
567.2715053802958
 22
498.9765237058659
 32
0.0
 13
567.2715053802958
 23
498.9765237058659
 33
0.0
  0
SOLID
  5
3933
330
315A
100
AcDbEntity
  8
AM_REFDIM
100
AcDbTrace
 10
622.5715053802957
 20
499.4265237058659
 30
0.0
 11
622.5715053802957
 21
498.5265237058659
 31
0.0
 12
625.2715053802958
 22
498.9765237058659
 32
0.0
 13
625.2715053802958
 23
498.9765237058659
 33
0.0
  0
MTEXT
  5
3934
330
315A
100
AcDbEntity
  8
AM_REFDIM
100
AcDbMText
 10
596.2715053802958
 20
501.7536665630087
 30
0.0
 40
2.7
 41
0.0
 71
     5
 72
     1
  1
\A1;(58)
  7
dayus
 73
     1
 44
1.0
1001
ACAD
1000
MTEXTBEGIN
1070
    73
1070
     1
1070
    44
1040
1.0
1070
    74
1070
     0
1000
MTEXTEND
  0
POINT
  5
3935
330
315A
100
AcDbEntity
  8
Defpoints
 62
     0
100
AcDbPoint
 10
567.2715053802958
 20
515.457230551539
 30
0.0
  0
POINT
  5
3936
330
315A
100
AcDbEntity
  8
Defpoints
 62
     0
100
AcDbPoint
 10
625.2715053802958
 20
515.457230551539
 30
0.0
  0
POINT
  5
3937
330
315A
100
AcDbEntity
  8
Defpoints
 62
     0
100
AcDbPoint
 10
625.2715053802958
 20
498.9765237058659
 30
0.0
  0
ENDBLK
  5
3165
330
315A
100
AcDbEntity
  8
0
100
AcDbBlockEnd
  0
BLOCK
  5
3170
330
3166
100
AcDbEntity
  8
0
100
AcDbBlockBegin
  2
*D118
 70
     1
 10
0.0
 20
0.0
 30
0.0
  3
*D118
  1

  0
LINE
  5
3938
330
3166
100
AcDbEntity
  8
AM_REFDIM
100
AcDbLine
 10
626.6215053802958
 20
515.457230551539
 30
0.0
 11
655.0715053802957
 21
515.457230551539
 31
0.0
  0
LINE
  5
3939
330
3166
100
AcDbEntity
  8
AM_REFDIM
100
AcDbLine
 10
620.3715053802958
 20
539.957230551539
 30
0.0
 11
655.0715053802957
 21
539.957230551539
 31
0.0
  0
LINE
  5
393A
330
3166
100
AcDbEntity
  8
AM_REFDIM
100
AcDbLine
 10
653.2715053802958
 20
518.157230551539
 30
0.0
 11
653.2715053802958
 21
537.2572305515389
 31
0.0
  0
SOLID
  5
393B
330
3166
100
AcDbEntity
  8
AM_REFDIM
100
AcDbTrace
 10
652.8215053802957
 20
518.157230551539
 30
0.0
 11
653.7215053802959
 21
518.157230551539
 31
0.0
 12
653.2715053802958
 22
515.457230551539
 32
0.0
 13
653.2715053802958
 23
515.457230551539
 33
0.0
  0
SOLID
  5
393C
330
3166
100
AcDbEntity
  8
AM_REFDIM
100
AcDbTrace
 10
652.8215053802957
 20
537.2572305515389
 30
0.0
 11
653.7215053802959
 21
537.2572305515389
 31
0.0
 12
653.2715053802958
 22
539.957230551539
 32
0.0
 13
653.2715053802958
 23
539.957230551539
 33
0.0
  0
MTEXT
  5
393D
330
3166
100
AcDbEntity
  8
AM_REFDIM
100
AcDbMText
 10
651.2015053802956
 20
527.7072305515392
 30
0.0
 40
2.7
 41
0.0
 71
     5
 72
     1
  1
\A1;24.5
  7
dayus
 11
0.0000000000000001
 21
1.0
 31
0.0
 73
     1
 44
1.0
1001
ACAD
1000
MTEXTBEGIN
1070
    73
1070
     1
1070
    44
1040
1.0
1070
    74
1070
     0
1000
MTEXTEND
  0
POINT
  5
393E
330
3166
100
AcDbEntity
  8
Defpoints
 62
     0
100
AcDbPoint
 10
625.2715053802958
 20
515.457230551539
 30
0.0
  0
POINT
  5
393F
330
3166
100
AcDbEntity
  8
Defpoints
 62
     0
100
AcDbPoint
 10
619.0215053802958
 20
539.957230551539
 30
0.0
  0
POINT
  5
3940
330
3166
100
AcDbEntity
  8
Defpoints
 62
     0
100
AcDbPoint
 10
653.2715053802958
 20
539.957230551539
 30
0.0
  0
ENDBLK
  5
3171
330
3166
100
AcDbEntity
  8
0
100
AcDbBlockEnd
  0
BLOCK
  5
317C
330
3172
100
AcDbEntity
  8
0
100
AcDbBlockBegin
  2
*D119
 70
     1
 10
0.0
 20
0.0
 30
0.0
  3
*D119
  1

  0
LINE
  5
3941
330
3172
100
AcDbEntity
  8
AM_REFDIM
100
AcDbLine
 10
540.2840624380537
 20
603.6858909528659
 30
0.0
 11
562.0215624380547
 21
603.6858909528659
 31
0.0
  0
LINE
  5
3942
330
3172
100
AcDbEntity
  8
AM_REFDIM
100
AcDbLine
 10
562.0215624380547
 20
603.6858909528659
 30
0.0
 11
590.1342391893856
 21
588.26469174267
 31
0.0
  0
LINE
  5
3943
330
3172
100
AcDbEntity
  8
AM_REFDIM
100
AcDbLine
 10
602.4087715712054
 20
581.5315012056616
 30
0.0
 11
605.0390285101667
 21
580.0886746620168
 31
0.0
  0
MTEXT
  5
3944
330
3172
100
AcDbEntity
  8
AM_REFDIM
100
AcDbMText
 10
550.7528124380536
 20
605.9858909528659
 30
0.0
 40
3.0
 41
0.0
 71
     5
 72
     1
  1
\A1;N-\U+22058×6L
  7
dayus
 73
     1
 44
1.0
1001
ACAD
1000
MTEXTBEGIN
1070
    73
1070
     1
1070
    44
1040
1.0
1070
    74
1070
     0
1000
MTEXTEND
  0
LINE
  5
3945
330
3172
100
AcDbEntity
  8
AM_REFDIM
100
AcDbLine
 10
599.778514632244
 20
582.9743277493061
 30
0.0
 11
592.7644961283469
 21
586.8218651990253
 31
0.0
  0
SOLID
  5
3946
330
3172
100
AcDbEntity
  8
AM_REFDIM
100
AcDbTrace
 10
602.6492426618128
 20
581.9698773621552
 30
0.0
 11
602.1683004805979
 21
581.093125049168
 31
0.0
 12
599.778514632244
 22
582.9743277493061
 32
0.0
 13
599.778514632244
 23
582.9743277493061
 33
0.0
  0
SOLID
  5
3947
330
3172
100
AcDbEntity
  8
AM_REFDIM
100
AcDbTrace
 10
590.3747102799931
 20
588.7030678991636
 30
0.0
 11
589.8937680987781
 21
587.8263155861765
 31
0.0
 12
592.7644961283469
 22
586.8218651990253
 32
0.0
 13
592.7644961283469
 23
586.8218651990253
 33
0.0
  0
POINT
  5
3948
330
3172
100
AcDbEntity
  8
Defpoints
 62
     0
100
AcDbPoint
 10
592.7644961283469
 20
586.8218651990253
 30
0.0
  0
POINT
  5
3949
330
3172
100
AcDbEntity
  8
Defpoints
 62
     0
100
AcDbPoint
 10
599.778514632244
 20
582.9743277493061
 30
0.0
  0
ENDBLK
  5
317D
330
3172
100
AcDbEntity
  8
0
100
AcDbBlockEnd
  0
BLOCK
  5
3188
330
317E
100
AcDbEntity
  8
0
100
AcDbBlockBegin
  2
*D120
 70
     1
 10
0.0
 20
0.0
 30
0.0
  3
*D120
  1

  0
LINE
  5
394A
330
317E
100
AcDbEntity
  8
AM_REFDIM
100
AcDbLine
 10
535.4211573161993
 20
540.2221206080122
 30
0.0
 11
562.7300858876282
 21
540.2221206080122
 31
0.0
  0
LINE
  5
394B
330
317E
100
AcDbEntity
  8
AM_REFDIM
100
AcDbLine
 10
562.7300858876282
 20
540.2221206080122
 30
0.0
 11
570.1702263037534
 21
532.6591974677802
 31
0.0
  0
LINE
  5
394C
330
317E
100
AcDbEntity
  8
AM_REFDIM
100
AcDbLine
 10
582.3727844568382
 20
520.2552636352982
 30
0.0
 11
584.476673793577
 21
518.1166543538357
 31
0.0
  0
MTEXT
  5
394D
330
317E
100
AcDbEntity
  8
AM_REFDIM
100
AcDbMText
 10
548.6756216019137
 20
543.3078348937264
 30
0.0
 40
3.0
 41
0.0
 71
     5
 72
     1
  1
\A1;3×2-PT1/4
  7
dayus
 73
     1
 44
1.0
1001
ACAD
1000
MTEXTBEGIN
1070
    73
1070
     1
1070
    44
1040
1.0
1070
    74
1070
     0
1000
MTEXTEND
  0
LINE
  5
394E
330
317E
100
AcDbEntity
  8
AM_REFDIM
100
AcDbLine
 10
580.2688951200995
 20
522.3938729167605
 30
0.0
 11
572.2741156404922
 21
530.5205881863177
 31
0.0
  0
SOLID
  5
394F
330
317E
100
AcDbEntity
  8
AM_REFDIM
100
AcDbTrace
 10
582.7292193370819
 20
520.6059118580879
 30
0.0
 11
582.0163495765945
 21
519.9046154125084
 31
0.0
 12
580.2688951200995
 22
522.3938729167605
 32
0.0
 13
580.2688951200995
 23
522.3938729167605
 33
0.0
  0
SOLID
  5
3950
330
317E
100
AcDbEntity
  8
AM_REFDIM
100
AcDbTrace
 10
570.5266611839972
 20
533.00984569057
 30
0.0
 11
569.8137914235099
 21
532.3085492449904
 31
0.0
 12
572.2741156404922
 22
530.5205881863177
 32
0.0
 13
572.2741156404922
 23
530.5205881863177
 33
0.0
  0
POINT
  5
3951
330
317E
100
AcDbEntity
  8
Defpoints
 62
     0
100
AcDbPoint
 10
572.2741156404922
 20
530.5205881863177
 30
0.0
  0
POINT
  5
3952
330
317E
100
AcDbEntity
  8
Defpoints
 62
     0
100
AcDbPoint
 10
580.2688951200995
 20
522.3938729167605
 30
0.0
  0
ENDBLK
  5
3189
330
317E
100
AcDbEntity
  8
0
100
AcDbBlockEnd
  0
BLOCK
  5
3194
330
318A
100
AcDbEntity
  8
0
100
AcDbBlockBegin
  2
*D121
 70
     1
 10
0.0
 20
0.0
 30
0.0
  3
*D121
  1

  0
LINE
  5
3953
330
318A
100
AcDbEntity
  8
AM_REFDIM
100
AcDbLine
 10
522.8739103789909
 20
567.7376002295809
 30
0.0
 11
553.691767521848
 21
567.7376002295809
 31
0.0
  0
LINE
  5
3954
330
318A
100
AcDbEntity
  8
AM_REFDIM
100
AcDbLine
 10
553.691767521848
 20
567.7376002295809
 30
0.0
 11
576.9824152026062
 21
580.9451295169008
 31
0.0
  0
LINE
  5
3955
330
318A
100
AcDbEntity
  8
AM_REFDIM
100
AcDbLine
 10
589.1605955579856
 20
587.8510634314316
 30
0.0
 11
591.7702056341381
 21
589.3309064131167
 31
0.0
  0
MTEXT
  5
3956
330
318A
100
AcDbEntity
  8
AM_REFDIM
100
AcDbMText
 10
537.8828389504194
 20
570.0376002295809
 30
0.0
 40
3.0
 41
0.0
 71
     5
 72
     1
  1
\A1;2×N-\U+22058×14L
  7
dayus
 73
     1
 44
1.0
1001
ACAD
1000
MTEXTBEGIN
1070
    73
1070
     1
1070
    44
1040
1.0
1070
    74
1070
     0
1000
MTEXTEND
  0
LINE
  5
3957
330
318A
100
AcDbEntity
  8
AM_REFDIM
100
AcDbLine
 10
586.550985481833
 20
586.3712204497464
 30
0.0
 11
579.5920252787588
 21
582.4249724985859
 31
0.0
  0
SOLID
  5
3958
330
318A
100
AcDbEntity
  8
AM_REFDIM
100
AcDbTrace
 10
588.9139550610381
 20
588.2859984441235
 30
0.0
 11
589.4072360549331
 21
587.4161284187393
 31
0.0
 12
586.550985481833
 22
586.3712204497464
 32
0.0
 13
586.550985481833
 23
586.3712204497464
 33
0.0
  0
SOLID
  5
3959
330
318A
100
AcDbEntity
  8
AM_REFDIM
100
AcDbTrace
 10
576.7357747056587
 20
581.3800645295929
 30
0.0
 11
577.2290556995537
 21
580.5101945042086
 31
0.0
 12
579.5920252787588
 22
582.4249724985859
 32
0.0
 13
579.5920252787588
 23
582.4249724985859
 33
0.0
  0
POINT
  5
395A
330
318A
100
AcDbEntity
  8
Defpoints
 62
     0
100
AcDbPoint
 10
579.5920252787588
 20
582.4249724985859
 30
0.0
  0
POINT
  5
395B
330
318A
100
AcDbEntity
  8
Defpoints
 62
     0
100
AcDbPoint
 10
586.550985481833
 20
586.3712204497464
 30
0.0
  0
ENDBLK
  5
3195
330
318A
100
AcDbEntity
  8
0
100
AcDbBlockEnd
  0
BLOCK
  5
31A0
330
3196
100
AcDbEntity
  8
0
100
AcDbBlockBegin
  2
*D122
 70
     1
 10
0.0
 20
0.0
 30
0.0
  3
*D122
  1

  0
LINE
  5
395C
330
3196
100
AcDbEntity
  8
AM_REFDIM
100
AcDbLine
 10
576.2715053802958
 20
518.2643734086818
 30
0.0
 11
576.2715053802958
 21
505.1765237058659
 31
0.0
  0
LINE
  5
395D
330
3196
100
AcDbEntity
  8
AM_REFDIM
100
AcDbLine
 10
596.2715053802958
 20
523.2643734086819
 30
0.0
 11
596.2715053802958
 21
505.1765237058659
 31
0.0
  0
LINE
  5
395E
330
3196
100
AcDbEntity
  8
AM_REFDIM
100
AcDbLine
 10
578.9715053802958
 20
506.9765237058659
 30
0.0
 11
593.5715053802957
 21
506.9765237058659
 31
0.0
  0
SOLID
  5
395F
330
3196
100
AcDbEntity
  8
AM_REFDIM
100
AcDbTrace
 10
578.9715053802958
 20
507.4265237058659
 30
0.0
 11
578.9715053802958
 21
506.5265237058659
 31
0.0
 12
576.2715053802958
 22
506.9765237058659
 32
0.0
 13
576.2715053802958
 23
506.9765237058659
 33
0.0
  0
SOLID
  5
3960
330
3196
100
AcDbEntity
  8
AM_REFDIM
100
AcDbTrace
 10
593.5715053802957
 20
507.4265237058659
 30
0.0
 11
593.5715053802957
 21
506.5265237058659
 31
0.0
 12
596.2715053802958
 22
506.9765237058659
 32
0.0
 13
596.2715053802958
 23
506.9765237058659
 33
0.0
  0
MTEXT
  5
3961
330
3196
100
AcDbEntity
  8
AM_REFDIM
100
AcDbMText
 10
586.2715053802958
 20
509.0465237058658
 30
0.0
 40
2.7
 41
0.0
 71
     5
 72
     1
  1
\A1;14.29
  7
dayus
 73
     1
 44
1.0
1001
ACAD
1000
MTEXTBEGIN
1070
    73
1070
     1
1070
    44
1040
1.0
1070
    74
1070
     0
1000
MTEXTEND
  0
POINT
  5
3962
330
3196
100
AcDbEntity
  8
Defpoints
 62
     0
100
AcDbPoint
 10
576.2715053802958
 20
519.6143734086819
 30
0.0
  0
POINT
  5
3963
330
3196
100
AcDbEntity
  8
Defpoints
 62
     0
100
AcDbPoint
 10
596.2715053802958
 20
524.6143734086818
 30
0.0
  0
POINT
  5
3964
330
3196
100
AcDbEntity
  8
Defpoints
 62
     0
100
AcDbPoint
 10
596.2715053802958
 20
506.9765237058659
 30
0.0
  0
ENDBLK
  5
31A1
330
3196
100
AcDbEntity
  8
0
100
AcDbBlockEnd
  0
BLOCK
  5
31AC
330
31A2
100
AcDbEntity
  8
0
100
AcDbBlockBegin
  2
*D123
 70
     1
 10
0.0
 20
0.0
 30
0.0
  3
*D123
  1

  0
LINE
  5
3965
330
31A2
100
AcDbEntity
  8
AM_REFDIM
100
AcDbLine
 10
596.2715053802958
 20
523.2643734086819
 30
0.0
 11
596.2715053802958
 21
505.1765237058659
 31
0.0
  0
LINE
  5
3966
330
31A2
100
AcDbEntity
  8
AM_REFDIM
100
AcDbLine
 10
616.2715053802958
 20
518.2643734086818
 30
0.0
 11
616.2715053802958
 21
505.1765237058659
 31
0.0
  0
LINE
  5
3967
330
31A2
100
AcDbEntity
  8
AM_REFDIM
100
AcDbLine
 10
598.9715053802958
 20
506.9765237058659
 30
0.0
 11
613.5715053802957
 21
506.9765237058659
 31
0.0
  0
SOLID
  5
3968
330
31A2
100
AcDbEntity
  8
AM_REFDIM
100
AcDbTrace
 10
598.9715053802958
 20
507.4265237058659
 30
0.0
 11
598.9715053802958
 21
506.5265237058659
 31
0.0
 12
596.2715053802958
 22
506.9765237058659
 32
0.0
 13
596.2715053802958
 23
506.9765237058659
 33
0.0
  0
SOLID
  5
3969
330
31A2
100
AcDbEntity
  8
AM_REFDIM
100
AcDbTrace
 10
613.5715053802957
 20
507.4265237058659
 30
0.0
 11
613.5715053802957
 21
506.5265237058659
 31
0.0
 12
616.2715053802958
 22
506.9765237058659
 32
0.0
 13
616.2715053802958
 23
506.9765237058659
 33
0.0
  0
MTEXT
  5
396A
330
31A2
100
AcDbEntity
  8
AM_REFDIM
100
AcDbMText
 10
606.2715053802958
 20
509.0465237058658
 30
0.0
 40
2.7
 41
0.0
 71
     5
 72
     1
  1
\A1;14.29
  7
dayus
 73
     1
 44
1.0
1001
ACAD
1000
MTEXTBEGIN
1070
    73
1070
     1
1070
    44
1040
1.0
1070
    74
1070
     0
1000
MTEXTEND
  0
POINT
  5
396B
330
31A2
100
AcDbEntity
  8
Defpoints
 62
     0
100
AcDbPoint
 10
596.2715053802958
 20
524.6143734086818
 30
0.0
  0
POINT
  5
396C
330
31A2
100
AcDbEntity
  8
Defpoints
 62
     0
100
AcDbPoint
 10
616.2715053802958
 20
519.6143734086819
 30
0.0
  0
POINT
  5
396D
330
31A2
100
AcDbEntity
  8
Defpoints
 62
     0
100
AcDbPoint
 10
616.2715053802958
 20
506.9765237058659
 30
0.0
  0
ENDBLK
  5
31AD
330
31A2
100
AcDbEntity
  8
0
100
AcDbBlockEnd
  0
BLOCK
  5
33BD
330
33B3
100
AcDbEntity
  8
0
100
AcDbBlockBegin
  2
*D126
 70
     1
 10
0.0
 20
0.0
 30
0.0
  3
*D126
  1

  0
LINE
  5
396E
330
33B3
100
AcDbEntity
  8
AM_5
100
AcDbLine
 10
626.2715053802958
 20
515.457230551539
 30
0.0
 11
638.7715053802958
 21
515.457230551539
 31
0.0
  0
LINE
  5
396F
330
33B3
100
AcDbEntity
  8
AM_5
100
AcDbLine
 10
624.1143625231529
 20
526.4572305515391
 30
0.0
 11
638.7715053802958
 21
526.4572305515391
 31
0.0
  0
LINE
  5
3970
330
33B3
100
AcDbEntity
  8
AM_5
100
AcDbLine
 10
637.2715053802957
 20
518.457230551539
 30
0.0
 11
637.2715053802957
 21
523.457230551539
 31
0.0
  0
SOLID
  5
3971
330
33B3
100
AcDbEntity
  8
AM_5
100
AcDbTrace
 10
636.7715053802958
 20
518.457230551539
 30
0.0
 11
637.7715053802958
 21
518.457230551539
 31
0.0
 12
637.2715053802957
 22
515.457230551539
 32
0.0
 13
637.2715053802957
 23
515.457230551539
 33
0.0
  0
SOLID
  5
3972
330
33B3
100
AcDbEntity
  8
AM_5
100
AcDbTrace
 10
636.7715053802958
 20
523.457230551539
 30
0.0
 11
637.7715053802958
 21
523.457230551539
 31
0.0
 12
637.2715053802957
 22
526.4572305515391
 32
0.0
 13
637.2715053802957
 23
526.4572305515391
 33
0.0
  0
MTEXT
  5
3973
330
33B3
100
AcDbEntity
  8
AM_5
100
AcDbMText
 10
634.8215053802956
 20
520.9572305515392
 30
0.0
 40
3.5
 41
0.0
 71
     5
 72
     1
  1
11
 11
0.0000000000000001
 21
1.0
 31
0.0
 73
     1
 44
1.0
1001
ACAD
1000
MTEXTBEGIN
1070
    73
1070
     1
1070
    44
1040
1.0
1070
    74
1070
     0
1000
MTEXTEND
  0
POINT
  5
3974
330
33B3
100
AcDbEntity
  8
Defpoints
 62
     0
100
AcDbPoint
 10
625.2715053802958
 20
515.457230551539
 30
0.0
  0
POINT
  5
3975
330
33B3
100
AcDbEntity
  8
Defpoints
 62
     0
100
AcDbPoint
 10
623.1143625231529
 20
526.4572305515391
 30
0.0
  0
POINT
  5
3976
330
33B3
100
AcDbEntity
  8
Defpoints
 62
     0
100
AcDbPoint
 10
637.2715053802957
 20
526.4572305515391
 30
0.0
  0
ENDBLK
  5
33BE
330
33B3
100
AcDbEntity
  8
0
100
AcDbBlockEnd
  0
BLOCK
  5
3415
330
340B
100
AcDbEntity
  8
0
100
AcDbBlockBegin
  2
*D128
 70
     1
 10
0.0
 20
0.0
 30
0.0
  3
*D128
  1

  0
LINE
  5
3977
330
340B
100
AcDbEntity
  8
AM_5
100
AcDbLine
 10
626.2715053802958
 20
515.457230551539
 30
0.0
 11
646.7715053802958
 21
515.457230551539
 31
0.0
  0
LINE
  5
3978
330
340B
100
AcDbEntity
  8
AM_5
100
AcDbLine
 10
605.114362523153
 20
531.457230551539
 30
0.0
 11
646.7715053802958
 21
531.457230551539
 31
0.0
  0
LINE
  5
3979
330
340B
100
AcDbEntity
  8
AM_5
100
AcDbLine
 10
645.2715053802958
 20
518.457230551539
 30
0.0
 11
645.2715053802958
 21
528.457230551539
 31
0.0
  0
SOLID
  5
397A
330
340B
100
AcDbEntity
  8
AM_5
100
AcDbTrace
 10
644.7715053802958
 20
518.457230551539
 30
0.0
 11
645.7715053802957
 21
518.457230551539
 31
0.0
 12
645.2715053802958
 22
515.457230551539
 32
0.0
 13
645.2715053802958
 23
515.457230551539
 33
0.0
  0
SOLID
  5
397B
330
340B
100
AcDbEntity
  8
AM_5
100
AcDbTrace
 10
644.7715053802958
 20
528.457230551539
 30
0.0
 11
645.7715053802957
 21
528.457230551539
 31
0.0
 12
645.2715053802958
 22
531.457230551539
 32
0.0
 13
645.2715053802958
 23
531.457230551539
 33
0.0
  0
MTEXT
  5
397C
330
340B
100
AcDbEntity
  8
AM_5
100
AcDbMText
 10
642.8215053802956
 20
523.4572305515391
 30
0.0
 40
3.5
 41
0.0
 71
     5
 72
     1
  1
16
 11
0.0000000000000001
 21
1.0
 31
0.0
 73
     1
 44
1.0
1001
ACAD
1000
MTEXTBEGIN
1070
    73
1070
     1
1070
    44
1040
1.0
1070
    74
1070
     0
1000
MTEXTEND
  0
POINT
  5
397D
330
340B
100
AcDbEntity
  8
Defpoints
 62
     0
100
AcDbPoint
 10
625.2715053802958
 20
515.457230551539
 30
0.0
  0
POINT
  5
397E
330
340B
100
AcDbEntity
  8
Defpoints
 62
     0
100
AcDbPoint
 10
604.1143625231529
 20
531.457230551539
 30
0.0
  0
POINT
  5
397F
330
340B
100
AcDbEntity
  8
Defpoints
 62
     0
100
AcDbPoint
 10
645.2715053802958
 20
531.457230551539
 30
0.0
  0
ENDBLK
  5
3416
330
340B
100
AcDbEntity
  8
0
100
AcDbBlockEnd
  0
BLOCK
  5
3574
330
3568
100
AcDbEntity
  8
0
100
AcDbBlockBegin
  2
*D129
 70
     1
 10
0.0
 20
0.0
 30
0.0
  3
*D129
  1

  0
LINE
  5
3980
330
3568
100
AcDbEntity
  8
AM_5
100
AcDbLine
 10
610.6643625231529
 20
617.8980964741661
 30
0.0
 11
638.7715053802958
 21
617.8980964741661
 31
0.0
  0
LINE
  5
3981
330
3568
100
AcDbEntity
  8
AM_5
100
AcDbLine
 10
625.2715053802958
 20
622.8980964741662
 30
0.0
 11
638.7715053802958
 21
622.8980964741662
 31
0.0
  0
LINE
  5
3982
330
3568
100
AcDbEntity
  8
AM_5
100
AcDbLine
 10
637.2715053802957
 20
614.8980964741662
 30
0.0
 11
637.2715053802957
 21
611.8980964741662
 31
0.0
  0
LINE
  5
3983
330
3568
100
AcDbEntity
  8
AM_5
100
AcDbLine
 10
637.2715053802957
 20
625.8980964741661
 30
0.0
 11
637.2715053802957
 21
628.8980964741662
 31
0.0
  0
LINE
  5
3984
330
3568
100
AcDbEntity
  8
AM_5
100
AcDbLine
 10
637.2715053802957
 20
617.8980964741661
 30
0.0
 11
637.2715053802957
 21
622.8980964741662
 31
0.0
  0
SOLID
  5
3985
330
3568
100
AcDbEntity
  8
AM_5
100
AcDbTrace
 10
636.7715053802958
 20
614.8980964741662
 30
0.0
 11
637.7715053802958
 21
614.8980964741662
 31
0.0
 12
637.2715053802957
 22
617.8980964741661
 32
0.0
 13
637.2715053802957
 23
617.8980964741661
 33
0.0
  0
SOLID
  5
3986
330
3568
100
AcDbEntity
  8
AM_5
100
AcDbTrace
 10
636.7715053802958
 20
625.8980964741661
 30
0.0
 11
637.7715053802958
 21
625.8980964741661
 31
0.0
 12
637.2715053802957
 22
622.8980964741662
 32
0.0
 13
637.2715053802957
 23
622.8980964741662
 33
0.0
  0
MTEXT
  5
3987
330
3568
100
AcDbEntity
  8
AM_5
100
AcDbMText
 10
634.8215053802956
 20
620.3980964741663
 30
0.0
 40
3.5
 41
0.0
 71
     5
 72
     1
  1
5
 11
0.0000000000000001
 21
1.0
 31
0.0
 73
     1
 44
1.0
1001
ACAD
1000
MTEXTBEGIN
1070
    73
1070
     1
1070
    44
1040
1.0
1070
    74
1070
     0
1000
MTEXTEND
  0
POINT
  5
3988
330
3568
100
AcDbEntity
  8
Defpoints
 62
     0
100
AcDbPoint
 10
609.6643625231529
 20
617.8980964741661
 30
0.0
  0
POINT
  5
3989
330
3568
100
AcDbEntity
  8
Defpoints
 62
     0
100
AcDbPoint
 10
624.2715053802958
 20
622.8980964741662
 30
0.0
  0
POINT
  5
398A
330
3568
100
AcDbEntity
  8
Defpoints
 62
     0
100
AcDbPoint
 10
637.2715053802957
 20
622.8980964741662
 30
0.0
  0
ENDBLK
  5
3575
330
3568
100
AcDbEntity
  8
0
100
AcDbBlockEnd
  0
BLOCK
  5
37C0
330
37AB
100
AcDbEntity
  8
0
100
AcDbBlockBegin
  2
A$C34B3331A
 70
     0
 10
0.0
 20
0.0
 30
0.0
  3
A$C34B3331A
  1

  0
LINE
  5
37AC
330
37AB
100
AcDbEntity
  8
0
 62
     4
100
AcDbLine
 10
16.17018656498555
 20
153.4498897308763
 30
0.0
 11
3.663596470972493
 21
153.4498897308763
 31
0.0
  0
TEXT
  5
37AD
330
37AB
100
AcDbEntity
  8
0
 62
     4
100
AcDbText
 10
0.0000003820757684
 20
0.0000006724744708
 30
0.0
 40
3.0
  1
2
 41
0.75
  7
CHINESET
100
AcDbText
  0
LINE
  5
37AE
330
37AB
100
AcDbEntity
  8
0
 62
     4
100
AcDbLine
 10
16.17018656498555
 20
134.4498897308763
 30
0.0
 11
3.663596470972493
 21
134.4498897308763
 31
0.0
  0
LINE
  5
37AF
330
37AB
100
AcDbEntity
  8
0
 62
     4
100
AcDbLine
 10
16.17018656498555
 20
115.4498897308763
 30
0.0
 11
3.663596470972493
 21
115.4498897308763
 31
0.0
  0
LINE
  5
37B0
330
37AB
100
AcDbEntity
  8
0
 62
     4
100
AcDbLine
 10
16.17018656498555
 20
96.44988973087629
 30
0.0
 11
3.663596470972493
 21
96.44988973087629
 31
0.0
  0
LINE
  5
37B1
330
37AB
100
AcDbEntity
  8
0
 62
     4
100
AcDbLine
 10
16.17018656498555
 20
77.44988973087629
 30
0.0
 11
3.663596470972493
 21
77.44988973087629
 31
0.0
  0
LINE
  5
37B2
330
37AB
100
AcDbEntity
  8
0
 62
     4
100
AcDbLine
 10
16.17018656498555
 20
58.44988973087629
 30
0.0
 11
3.663596470972493
 21
58.44988973087629
 31
0.0
  0
LINE
  5
37B3
330
37AB
100
AcDbEntity
  8
0
 62
     4
100
AcDbLine
 10
16.17018656498555
 20
39.4498897308763
 30
0.0
 11
3.663596470972493
 21
39.4498897308763
 31
0.0
  0
LINE
  5
37B4
330
37AB
100
AcDbEntity
  8
0
 62
     4
100
AcDbLine
 10
16.17018656498555
 20
20.4498897308763
 30
0.0
 11
3.663596470972493
 21
20.4498897308763
 31
0.0
  0
LINE
  5
37B5
330
37AB
100
AcDbEntity
  8
0
 62
     4
100
AcDbLine
 10
16.17018656498555
 20
1.449889730876293
 30
0.0
 11
3.663596470972493
 21
1.449889730876293
 31
0.0
  0
TEXT
  5
37B6
330
37AB
100
AcDbEntity
  8
0
 62
     4
100
AcDbText
 10
0.0000003820757684
 20
19.00000067247447
 30
0.0
 40
3.0
  1
3
 41
0.75
  7
CHINESET
100
AcDbText
  0
TEXT
  5
37B7
330
37AB
100
AcDbEntity
  8
0
 62
     4
100
AcDbText
 10
0.0000003820757684
 20
38.00000067247447
 30
0.0
 40
3.0
  1
4
 41
0.75
  7
CHINESET
100
AcDbText
  0
TEXT
  5
37B8
330
37AB
100
AcDbEntity
  8
0
 62
     4
100
AcDbText
 10
0.0000003820757684
 20
57.00000067247447
 30
0.0
 40
3.0
  1
5
 41
0.75
  7
CHINESET
100
AcDbText
  0
TEXT
  5
37B9
330
37AB
100
AcDbEntity
  8
0
 62
     4
100
AcDbText
 10
0.0000003820757684
 20
76.00000067247447
 30
0.0
 40
3.0
  1
6
 41
0.75
  7
CHINESET
100
AcDbText
  0
TEXT
  5
37BA
330
37AB
100
AcDbEntity
  8
0
 62
     4
100
AcDbText
 10
0.0000003820757684
 20
95.00000067247446
 30
0.0
 40
3.0
  1
7
 41
0.75
  7
CHINESET
100
AcDbText
  0
TEXT
  5
37BB
330
37AB
100
AcDbEntity
  8
0
 62
     4
100
AcDbText
 10
0.0000003820757684
 20
114.0000006724744
 30
0.0
 40
3.0
  1
8
 41
0.75
  7
CHINESET
100
AcDbText
  0
TEXT
  5
37BC
330
37AB
100
AcDbEntity
  8
0
 62
     4
100
AcDbText
 10
0.0000003820757684
 20
133.0000006724745
 30
0.0
 40
3.0
  1
9
 41
0.75
  7
CHINESET
100
AcDbText
  0
TEXT
  5
37BD
330
37AB
100
AcDbEntity
  8
0
 62
     4
100
AcDbText
 10
0.0000003820757684
 20
152.0000006724744
 30
0.0
 40
3.0
  1
10
 41
0.75
  7
CHINESET
100
AcDbText
  0
ENDBLK
  5
37C1
330
37AB
100
AcDbEntity
  8
0
100
AcDbBlockEnd
  0
ENDSEC
  0
SECTION
  2
ENTITIES
  0
LINE
  5
C92
330
1F
100
AcDbEntity
  8
0
100
AcDbLine
 10
549.3418917240882
 20
734.8028156870718
 30
0.0
 11
549.3418917240882
 21
686.4188156870722
 31
0.0
  0
LINE
  5
C93
330
1F
100
AcDbEntity
  8
0
100
AcDbLine
 10
591.8645854233529
 20
734.8028156870721
 30
0.0
 11
591.8645854233529
 21
725.1260156870723
 31
0.0
  0
LINE
  5
C94
330
1F
100
AcDbEntity
  8
0
100
AcDbLine
 10
605.7724318568347
 20
734.8028156870721
 30
0.0
 11
605.7724318568347
 21
725.1260156870726
 31
0.0
  0
LINE
  5
C95
330
1F
100
AcDbEntity
  8
0
100
AcDbLine
 10
576.7653198500416
 20
734.8028156870718
 30
0.0
 11
576.7653198500445
 21
686.4188156870722
 31
0.0
  0
LINE
  5
C96
330
1F
100
AcDbEntity
  8
0
100
AcDbLine
 10
549.3418917240882
 20
725.1260156870723
 30
0.0
 11
605.7724318568347
 21
725.1260156870723
 31
0.0
  0
LINE
  5
C97
330
1F
100
AcDbEntity
  8
0
100
AcDbLine
 10
549.3418917240882
 20
729.9644156870722
 30
0.0
 11
605.7724318568347
 21
729.9644156870722
 31
0.0
  0
TEXT
  5
C98
330
1F
100
AcDbEntity
  8
0
100
AcDbText
 10
562.3250286234915
 20
725.9484735855461
 30
0.0
 40
3.037726430252237
  1
2
 41
0.8
  7
CHINESET
 72
     4
 11
563.1350890048921
 21
727.4673368006722
 31
0.0
100
AcDbText
  0
TEXT
  5
C99
330
1F
100
AcDbEntity
  8
0
100
AcDbText
 10
551.1101117494088
 20
731.4464393974494
 30
0.0
 40
2.4192
  1
No. of stations
 41
0.8
  7
CHINESET
100
AcDbText
  0
TEXT
  5
C9A
330
1F
100
AcDbEntity
  8
0
100
AcDbText
 10
582.7697980111378
 20
725.9735389014238
 30
0.0
 40
3.023999999999999
  1
47
 41
0.8
  7
CHINESET
100
AcDbText
  0
TEXT
  5
C9B
330
1F
100
AcDbEntity
  8
0
100
AcDbText
 10
584.2261862876535
 20
730.8338768454587
 30
0.0
 40
3.023999999999999
  1
P
 41
0.8
  7
CHINESET
100
AcDbText
  0
LINE
  5
C9C
330
1F
100
AcDbEntity
  8
0
100
AcDbLine
 10
549.3418917240882
 20
734.8028156870721
 30
0.0
 11
605.7724318568347
 21
734.8028156870721
 31
0.0
  0
LINE
  5
C9D
330
1F
100
AcDbEntity
  8
0
100
AcDbLine
 10
591.8645854233524
 20
734.8028156870718
 30
0.0
 11
591.8645854233552
 21
686.4188156870722
 31
0.0
  0
LINE
  5
C9E
330
1F
100
AcDbEntity
  8
0
100
AcDbLine
 10
605.7724318568343
 20
734.8028156870718
 30
0.0
 11
605.7724318568368
 21
686.4188156870722
 31
0.0
  0
LINE
  5
C9F
330
1F
100
AcDbEntity
  8
0
100
AcDbLine
 10
549.3418917240882
 20
720.2876156870721
 30
0.0
 11
605.7724318568347
 21
720.2876156870721
 31
0.0
  0
LINE
  5
CA0
330
1F
100
AcDbEntity
  8
0
100
AcDbLine
 10
549.3418917240882
 20
715.4492156870722
 30
0.0
 11
605.7724318568347
 21
715.4492156870722
 31
0.0
  0
LINE
  5
CA1
330
1F
100
AcDbEntity
  8
0
100
AcDbLine
 10
549.3418917240882
 20
710.6108156870723
 30
0.0
 11
605.7724318568347
 21
710.6108156870723
 31
0.0
  0
LINE
  5
CA2
330
1F
100
AcDbEntity
  8
0
100
AcDbLine
 10
549.3418917240882
 20
705.7724156870721
 30
0.0
 11
605.7724318568347
 21
705.7724156870721
 31
0.0
  0
LINE
  5
CA3
330
1F
100
AcDbEntity
  8
0
100
AcDbLine
 10
549.3418917240882
 20
700.9340156870722
 30
0.0
 11
605.7724318568347
 21
700.9340156870722
 31
0.0
  0
LINE
  5
CA4
330
1F
100
AcDbEntity
  8
0
100
AcDbLine
 10
549.3418917240882
 20
696.0956156870722
 30
0.0
 11
605.7724318568347
 21
696.0956156870722
 31
0.0
  0
LINE
  5
CA5
330
1F
100
AcDbEntity
  8
0
100
AcDbLine
 10
549.3418917240882
 20
691.2572156870723
 30
0.0
 11
605.7724318568347
 21
691.2572156870723
 31
0.0
  0
LINE
  5
CA6
330
1F
100
AcDbEntity
  8
0
100
AcDbLine
 10
549.3418917240882
 20
686.4188156870722
 30
0.0
 11
605.7724318568347
 21
686.4188156870722
 31
0.0
  0
TEXT
  5
CA7
330
1F
100
AcDbEntity
  8
0
100
AcDbText
 10
562.3250286234915
 20
721.110073585546
 30
0.0
 40
3.037726430252237
  1
3
 41
0.8
  7
CHINESET
 72
     4
 11
563.1350890048921
 21
722.6289368006721
 31
0.0
100
AcDbText
  0
TEXT
  5
CA8
330
1F
100
AcDbEntity
  8
0
100
AcDbText
 10
562.2671671676776
 20
716.271673585546
 30
0.0
 40
3.037726430252237
  1
4
 41
0.8
  7
CHINESET
 72
     4
 11
563.1350890048926
 21
717.7905368006721
 31
0.0
100
AcDbText
  0
TEXT
  5
CA9
330
1F
100
AcDbEntity
  8
0
100
AcDbText
 10
562.3250286234926
 20
711.4332735855461
 30
0.0
 40
3.037726430252237
  1
5
 41
0.8
  7
CHINESET
 72
     4
 11
563.1350890048931
 21
712.9521368006723
 31
0.0
100
AcDbText
  0
TEXT
  5
CAA
330
1F
100
AcDbEntity
  8
0
100
AcDbText
 10
562.3828900793069
 20
706.5948735855459
 30
0.0
 40
3.037726430252237
  1
6
 41
0.8
  7
CHINESET
 72
     4
 11
563.1350890048931
 21
708.1137368006721
 31
0.0
100
AcDbText
  0
TEXT
  5
CAB
330
1F
100
AcDbEntity
  8
0
100
AcDbText
 10
562.3250286234926
 20
701.7564735855461
 30
0.0
 40
3.037726430252237
  1
7
 41
0.8
  7
CHINESET
 72
     4
 11
563.1350890048931
 21
703.2753368006722
 31
0.0
100
AcDbText
  0
TEXT
  5
CAC
330
1F
100
AcDbEntity
  8
0
100
AcDbText
 10
562.3250286234931
 20
696.9180735855461
 30
0.0
 40
3.037726430252237
  1
8
 41
0.8
  7
CHINESET
 72
     4
 11
563.1350890048937
 21
698.4369368006722
 31
0.0
100
AcDbText
  0
TEXT
  5
CAD
330
1F
100
AcDbEntity
  8
0
100
AcDbText
 10
562.382890079308
 20
692.0796735855462
 30
0.0
 40
3.037726430252237
  1
9
 41
0.8
  7
CHINESET
 72
     4
 11
563.1350890048943
 21
693.5985368006722
 31
0.0
100
AcDbText
  0
TEXT
  5
CAE
330
1F
100
AcDbEntity
  8
0
100
AcDbText
 10
561.3992453304645
 20
687.241273585546
 30
0.0
 40
3.037726430252237
  1
10
 41
0.8
  7
CHINESET
 72
     4
 11
563.1350890048943
 21
688.7601368006722
 31
0.0
100
AcDbText
  0
TEXT
  5
CAF
330
1F
100
AcDbEntity
  8
0
100
AcDbText
 10
597.5909093697073
 20
725.9735389014238
 30
0.0
 40
3.023999999999999
  1
57
 41
0.8
  7
CHINESET
100
AcDbText
  0
TEXT
  5
CB0
330
1F
100
AcDbEntity
  8
0
100
AcDbText
 10
582.7697980111378
 20
721.1351389014238
 30
0.0
 40
3.023999999999999
  1
66
 41
0.8
  7
CHINESET
100
AcDbText
  0
TEXT
  5
CB1
330
1F
100
AcDbEntity
  8
0
100
AcDbText
 10
597.5909093697073
 20
721.1351389014238
 30
0.0
 40
3.023999999999999
  1
76
 41
0.8
  7
CHINESET
100
AcDbText
  0
TEXT
  5
CB2
330
1F
100
AcDbEntity
  8
0
100
AcDbText
 10
582.7697980111386
 20
716.2967389014236
 30
0.0
 40
3.023999999999999
  1
85
 41
0.8
  7
CHINESET
100
AcDbText
  0
TEXT
  5
CB3
330
1F
100
AcDbEntity
  8
0
100
AcDbText
 10
597.5909093697079
 20
716.2967389014236
 30
0.0
 40
3.023999999999999
  1
95
 41
0.8
  7
CHINESET
100
AcDbText
  0
TEXT
  5
CB4
330
1F
100
AcDbEntity
  8
0
100
AcDbText
 10
581.2863088658519
 20
711.4583389014237
 30
0.0
 40
3.023999999999999
  1
104
 41
0.8
  7
CHINESET
100
AcDbText
  0
TEXT
  5
CB5
330
1F
100
AcDbEntity
  8
0
100
AcDbText
 10
596.2928563675821
 20
711.4583389014237
 30
0.0
 40
3.023999999999999
  1
114
 41
0.8
  7
CHINESET
100
AcDbText
  0
TEXT
  5
CB6
330
1F
100
AcDbEntity
  8
0
100
AcDbText
 10
581.2863088658519
 20
706.6199389014238
 30
0.0
 40
3.023999999999999
  1
123
 41
0.8
  7
CHINESET
100
AcDbText
  0
TEXT
  5
CB7
330
1F
100
AcDbEntity
  8
0
100
AcDbText
 10
596.2928563675821
 20
706.6199389014238
 30
0.0
 40
3.023999999999999
  1
133
 41
0.8
  7
CHINESET
100
AcDbText
  0
TEXT
  5
CB8
330
1F
100
AcDbEntity
  8
0
100
AcDbText
 10
581.2863088658519
 20
701.7815389014238
 30
0.0
 40
3.023999999999999
  1
142
 41
0.8
  7
CHINESET
100
AcDbText
  0
TEXT
  5
CB9
330
1F
100
AcDbEntity
  8
0
100
AcDbText
 10
596.2928563675821
 20
701.7815389014238
 30
0.0
 40
3.023999999999999
  1
152
 41
0.8
  7
CHINESET
100
AcDbText
  0
TEXT
  5
CBA
330
1F
100
AcDbEntity
  8
0
100
AcDbText
 10
581.2863088658525
 20
696.9431389014236
 30
0.0
 40
3.023999999999999
  1
161
 41
0.8
  7
CHINESET
100
AcDbText
  0
TEXT
  5
CBB
330
1F
100
AcDbEntity
  8
0
100
AcDbText
 10
596.2928563675826
 20
696.9431389014236
 30
0.0
 40
3.023999999999999
  1
171
 41
0.8
  7
CHINESET
100
AcDbText
  0
TEXT
  5
CBC
330
1F
100
AcDbEntity
  8
0
100
AcDbText
 10
581.2863088658531
 20
692.1047389014238
 30
0.0
 40
3.023999999999999
  1
180
 41
0.8
  7
CHINESET
100
AcDbText
  0
TEXT
  5
CBD
330
1F
100
AcDbEntity
  8
0
100
AcDbText
 10
596.2928563675832
 20
692.1047389014238
 30
0.0
 40
3.023999999999999
  1
190
 41
0.8
  7
CHINESET
100
AcDbText
  0
TEXT
  5
CBE
330
1F
100
AcDbEntity
  8
0
100
AcDbText
 10
581.2863088658531
 20
687.2663389014236
 30
0.0
 40
3.023999999999999
  1
199
 41
0.8
  7
CHINESET
100
AcDbText
  0
TEXT
  5
CBF
330
1F
100
AcDbEntity
  8
0
100
AcDbText
 10
596.2928563675832
 20
687.2663389014236
 30
0.0
 40
3.023999999999999
  1
209
 41
0.8
  7
CHINESET
100
AcDbText
  0
TEXT
  5
CC0
330
1F
100
AcDbEntity
  8
0
100
AcDbText
 10
599.325451860964
 20
730.8338768454587
 30
0.0
 40
3.023999999999999
  1
L
 41
0.8
  7
CHINESET
100
AcDbText
  0
CIRCLE
  5
CC2
330
1F
100
AcDbEntity
  8
0
100
AcDbCircle
 10
547.0431606112607
 20
727.3961474533074
 30
0.0
 40
1.232373610538005
  0
CIRCLE
  5
CC3
330
1F
100
AcDbEntity
  8
0
100
AcDbCircle
 10
547.0431606112607
 20
727.3961474533074
 30
0.0
 40
0.8019096229170321
  0
LINE
  5
1D0C
330
1F
100
AcDbEntity
  8
SL
  6
ACISOTGB
 62
     4
100
AcDbLine
 10
632.7999513157769
 20
613.2926433754544
 30
0.0
 11
564.2616437955846
 21
613.2926433754544
 31
0.0
  0
LINE
  5
20E4
330
1F
100
AcDbEntity
  8
LOGO
 62
     4
100
AcDbLine
 10
552.6067938764817
 20
464.8991449648458
 30
0.0
 11
552.6067938764817
 21
486.0468024171537
 31
0.0
  0
TEXT
  5
20E5
330
1F
100
AcDbEntity
  8
LOGO
  6
Continuous
100
AcDbText
 10
513.6782810988331
 20
469.053570356754
 30
0.0
 40
3.172148617846153
  1
金器工業股份有限公司
  7
CHINESET
100
AcDbText
  0
TEXT
  5
20E6
330
1F
100
AcDbEntity
  8
LOGO
  6
Continuous
100
AcDbText
 10
507.8516716665049
 20
465.8808002464848
 30
0.0
 40
2.114765745230769
  1
MINDMAN INDUSTRIAL CO., LTD.
 41
0.85
  7
CHINESET
100
AcDbText
  0
LINE
  5
20E7
330
1F
100
AcDbEntity
  8
LOGO
 62
     4
100
AcDbLine
 10
552.6067938764817
 20
481.8172709266922
 30
0.0
 11
521.5902296130969
 21
481.8172709266922
 31
0.0
  0
LINE
  5
20E8
330
1F
100
AcDbEntity
  8
LOGO
 62
     4
100
AcDbLine
 10
552.6067938764817
 20
477.5877394362305
 30
0.0
 11
521.5902296130969
 21
477.5877394362305
 31
0.0
  0
LINE
  5
20E9
330
1F
100
AcDbEntity
  8
LOGO
 62
     4
100
AcDbLine
 10
552.6067938764817
 20
473.3582079457693
 30
0.0
 11
506.0819474814046
 21
473.3582079457693
 31
0.0
  0
LINE
  5
20EA
330
1F
100
AcDbEntity
  8
LOGO
 62
     4
100
AcDbLine
 10
521.5902296130969
 20
473.3582079457693
 30
0.0
 11
521.5902296130969
 21
486.0468024171537
 31
0.0
  0
TEXT
  5
20EB
330
1F
100
AcDbEntity
  8
LOGO
100
AcDbText
 10
542.7885873275861
 20
474.4155908183842
 30
0.0
 40
2.114765745230769
  1
mm
  7
CHINESET
 72
     1
 11
545.4068687264432
 21
475.4729736909996
 31
0.0
100
AcDbText
 73
     2
  0
TEXT
  5
20EC
330
1F
100
AcDbEntity
  8
LOGO
100
AcDbText
 10
541.6808528896081
 20
482.8746537993074
 30
0.0
 40
2.114765745230769
  1
1 : 1
  7
CHINESET
 72
     1
 11
545.4068687264432
 21
483.9320366719228
 31
0.0
100
AcDbText
 73
     2
  0
LINE
  5
20ED
330
1F
100
AcDbEntity
  8
LOGO
 62
     4
100
AcDbLine
 10
538.5083555749431
 20
473.3582079457693
 30
0.0
 11
538.5083555749431
 21
486.0468024171537
 31
0.0
  0
TEXT
  5
20EE
330
1F
100
AcDbEntity
  8
LOGO
100
AcDbText
 10
523.3339672610615
 20
482.8756945304812
 30
138.5982630693801
 40
2.114765745230769
  1
比例 Scale:
 41
0.9
  7
CHINESET
 72
     4
 11
530.0492925940197
 21
483.9320366719228
 31
138.5982630693801
100
AcDbText
  0
TEXT
  5
20EF
330
1F
100
AcDbEntity
  8
LOGO
100
AcDbText
 10
523.2121794123407
 20
478.674869874898
 30
138.5982630693801
 40
2.114765745230769
  1
投影  View:
 41
0.9
  7
CHINESET
 72
     4
 11
530.0492925940197
 21
479.7025051814613
 31
138.5982630693801
100
AcDbText
  0
TEXT
  5
20F0
330
1F
100
AcDbEntity
  8
LOGO
100
AcDbText
 10
523.4189355276109
 20
474.4155908183842
 30
138.5982630693801
 40
2.114765745230769
  1
單位  Unit:
 41
0.9
  7
CHINESET
 72
     4
 11
530.0492925940197
 21
475.4729736909996
 31
138.5982630693801
100
AcDbText
  0
LWPOLYLINE
  5
20F1
330
1F
100
AcDbEntity
  8
LOGO
 62
     4
100
AcDbPolyline
 90
        4
 70
     1
 43
0.0
 10
696.4414900290964
 20
486.0468024171536
 10
696.4414900290964
 20
776.8692024171534
 10
506.0819474814046
 20
776.8692024171534
 10
506.0819474814046
 20
486.0468024171536
1001
GENIUS_GENREC_14
1002
{
1000
PYDIR
1011
506.0819474814046
1021
486.0468024171536
1031
0.0
1002
}
1002
{
1000
PXDIR
1011
696.4414900290964
1021
776.8692024171534
1031
0.0
1002
}
1002
{
1000
PORI
1011
696.4414900290964
1021
486.0468024171536
1031
0.0
1002
}
1002
{
1000
PINS
1011
696.4414900290964
1021
486.0468024171536
1031
0.0
1002
}
1002
{
1000
PINS2
1011
506.0819474814046
1021
776.8692024171534
1031
0.0
1002
}
1002
{
1000
C
1070
     1
1002
}
1001
GENIUS_GENODEF_13
1002
{
1000
HIER
1070
     0
1002
}
1002
{
1000
MANEDIT
1070
     0
1002
}
1002
{
1000
NOSEL
1070
     0
1002
}
1002
{
1000
BEHIND
1070
     0
1002
}
1002
{
1000
OTHER
1070
     0
1002
}
1002
{
1000
REACTOR
1002
}
1001
GENIUS_GENOBJ-N-REC_13
1002
{
1000
OWNER
1000
GEN
1002
}
  0
SOLID
  5
20F2
330
1F
100
AcDbEntity
  8
LOGO
 62
     5
100
AcDbTrace
 10
508.2760508814902
 20
476.8737049840149
 30
0.0
 11
509.1904200982748
 21
476.8737049840146
 31
0.0
 12
513.005546830376
 22
485.5444475569727
 32
0.0
 13
513.9199160471612
 23
485.5444475569722
 33
0.0
  0
SOLID
  5
20F3
330
1F
100
AcDbEntity
  8
LOGO
 62
     5
100
AcDbTrace
 10
509.5687797741867
 20
476.8737049840149
 30
0.0
 11
510.4831489909713
 21
476.8737049840149
 31
0.0
 12
513.9199160471612
 22
484.8507881511358
 32
0.0
 13
513.005546830376
 23
481.4981010229254
 33
0.0
  0
SOLID
  5
20F4
330
1F
100
AcDbEntity
  8
LOGO
 62
     2
100
AcDbTrace
 10
509.1904200982748
 20
476.8737049840146
 30
0.0
 11
509.5687797741867
 21
476.8737049840149
 31
0.0
 12
513.9199160471612
 22
485.5444475569722
 32
0.0
 13
514.2982757230725
 23
485.5444475569722
 33
0.0
  0
SOLID
  5
20F5
330
1F
100
AcDbEntity
  8
LOGO
 62
     5
100
AcDbTrace
 10
506.8100927961857
 20
473.7207076847576
 30
0.0
 11
507.1253925261117
 21
473.7207076847576
 31
0.0
 12
508.0133011065523
 22
475.2972063343861
 32
0.0
 13
508.3286008364773
 23
475.2972063343861
 33
0.0
  0
SOLID
  5
20F6
330
1F
100
AcDbEntity
  8
LOGO
 62
     5
100
AcDbTrace
 10
508.0133011065523
 20
475.2972063343861
 30
0.0
 11
508.3286008364773
 21
475.2972063343861
 31
0.0
 12
508.0133011065523
 22
473.7207076847576
 32
0.0
 13
508.3286008364773
 23
473.7207076847576
 33
0.0
  0
SOLID
  5
20F7
330
1F
100
AcDbEntity
  8
LOGO
 62
     5
100
AcDbTrace
 10
508.0133011065523
 20
473.7207076847576
 30
0.0
 11
508.3286008364773
 21
473.7207076847576
 31
0.0
 12
509.2165094169194
 22
475.2972063343861
 32
0.0
 13
509.531809146845
 23
475.2972063343861
 33
0.0
  0
SOLID
  5
20F8
330
1F
100
AcDbEntity
  8
LOGO
 62
     5
100
AcDbTrace
 10
509.2165094169194
 20
475.2972063343861
 30
0.0
 11
509.531809146845
 21
475.2972063343861
 31
0.0
 12
509.2165094169194
 22
473.7207076847576
 32
0.0
 13
509.531809146845
 23
473.7207076847576
 33
0.0
  0
POLYLINE
  5
20F9
330
1F
100
AcDbEntity
  8
LOGO
 62
     5
100
AcDb2dPolyline
 66
     1
 10
0.0
 20
0.0
 30
0.0
 40
0.3158050179544615
 41
0.3158050179544615
  0
VERTEX
  5
20FA
330
20F9
100
AcDbEntity
  8
LOGO
 62
     5
100
AcDbVertex
100
AcDb2dVertex
 10
519.7852489558232
 20
474.6666068745347
 30
0.0
 42
1.0
  0
VERTEX
  5
20FB
330
20F9
100
AcDbEntity
  8
LOGO
 62
     5
100
AcDbVertex
100
AcDb2dVertex
 10
518.8378339019597
 20
474.6666068745347
 30
0.0
 42
1.0
  0
SEQEND
  5
20FC
330
20F9
100
AcDbEntity
  8
LOGO
 62
     5
  0
POLYLINE
  5
20FD
330
1F
100
AcDbEntity
  8
LOGO
 62
     5
100
AcDb2dPolyline
 66
     1
 10
0.0
 20
0.0
 30
0.0
 70
     1
  0
VERTEX
  5
20FE
330
20FD
100
AcDbEntity
  8
LOGO
 62
     5
100
AcDbVertex
100
AcDb2dVertex
 10
517.051914384405
 20
474.5089570095717
 30
0.0
 42
1.000000057330635
  0
VERTEX
  5
20FF
330
20FD
100
AcDbEntity
  8
LOGO
 62
     5
100
AcDbVertex
100
AcDb2dVertex
 10
517.9978135741824
 20
474.5089570095717
 30
0.0
 42
1.000000057330635
  0
SEQEND
  5
2100
330
20FD
100
AcDbEntity
  8
LOGO
 62
     5
  0
CIRCLE
  5
2101
330
1F
100
AcDbEntity
  8
LOGO
 62
     5
100
AcDbCircle
 10
517.5248639792944
 20
474.5089570095717
 30
0.0
 40
0.4729495948886016
  0
POLYLINE
  5
2102
330
1F
100
AcDbEntity
  8
LOGO
 62
     5
100
AcDb2dPolyline
 66
     1
 10
0.0
 20
0.0
 30
0.0
 70
     1
 40
0.3158050179544615
 41
0.3158050179544615
  0
VERTEX
  5
2103
330
2102
100
AcDbEntity
  8
LOGO
 62
     5
100
AcDbVertex
100
AcDb2dVertex
 10
516.8932539433852
 20
474.5089570095717
 30
0.0
 42
1.0
  0
VERTEX
  5
2104
330
2102
100
AcDbEntity
  8
LOGO
 62
     5
100
AcDbVertex
100
AcDb2dVertex
 10
518.1564740152027
 20
474.5089570095717
 30
0.0
 42
1.0
  0
SEQEND
  5
2105
330
2102
100
AcDbEntity
  8
LOGO
 62
     5
  0
LINE
  5
2106
330
1F
100
AcDbEntity
  8
LOGO
100
AcDbLine
 10
519.9421408887424
 20
473.7207076847576
 30
0.0
 11
519.9421408887424
 21
474.6666068745347
 31
0.0
  0
SOLID
  5
2107
330
1F
100
AcDbEntity
  8
LOGO
 62
     5
100
AcDbTrace
 10
517.9977820442108
 20
475.2972063343861
 30
0.0
 11
518.313081774136
 21
475.2972063343861
 31
0.0
 12
517.9977820442108
 22
473.7207076847576
 32
0.0
 13
518.313081774136
 23
473.7207076847576
 33
0.0
  0
SOLID
  5
2108
330
1F
100
AcDbEntity
  8
LOGO
 62
     5
100
AcDbTrace
 10
518.6809419690396
 20
473.7207076847576
 30
0.0
 11
518.9962416989657
 21
473.7207076847576
 31
0.0
 12
518.6809419690396
 22
475.2972063343861
 32
0.0
 13
518.9962416989657
 23
475.2972063343861
 33
0.0
  0
SOLID
  5
2109
330
1F
100
AcDbEntity
  8
LOGO
 62
     5
100
AcDbTrace
 10
519.6268411588173
 20
474.6666068745347
 30
0.0
 11
519.9421408887424
 21
474.6666068745347
 31
0.0
 12
519.6268411588173
 22
473.7207076847576
 32
0.0
 13
519.9421408887424
 23
473.7207076847576
 33
0.0
  0
SOLID
  5
210A
330
1F
100
AcDbEntity
  8
LOGO
 62
     5
100
AcDbTrace
 10
518.6494119960469
 20
484.8507881511358
 30
0.0
 11
517.7350427792628
 21
481.4981010229254
 31
0.0
 12
518.6494119960469
 22
476.8737049840146
 32
0.0
 13
517.7350427792628
 23
476.8737049840146
 33
0.0
  0
SOLID
  5
210B
330
1F
100
AcDbEntity
  8
LOGO
 62
     5
100
AcDbTrace
 10
519.0277716719584
 20
476.8737049840146
 30
0.0
 11
519.9421408887424
 21
476.8737049840146
 31
0.0
 12
519.0277716719584
 22
485.5444475569722
 32
0.0
 13
519.9421408887424
 23
485.5444475569727
 33
0.0
  0
SOLID
  5
210C
330
1F
100
AcDbEntity
  8
LOGO
 62
     2
100
AcDbTrace
 10
518.6494119960469
 20
485.5444475569727
 30
0.0
 11
519.0277716719584
 21
485.5444475569722
 31
0.0
 12
518.6494119960469
 22
476.8737049840146
 32
0.0
 13
519.0277716719584
 23
476.8737049840146
 33
0.0
  0
POLYLINE
  5
210D
330
1F
100
AcDbEntity
  8
LOGO
 62
     5
100
AcDb2dPolyline
 66
     1
 10
0.0
 20
0.0
 30
0.0
 40
0.3158050179544615
 41
0.3158050179544615
  0
VERTEX
  5
210E
330
210D
100
AcDbEntity
  8
LOGO
 62
     5
100
AcDbVertex
100
AcDb2dVertex
 10
515.2659318069058
 20
474.6666068745347
 30
0.0
 42
1.0
  0
VERTEX
  5
210F
330
210D
100
AcDbEntity
  8
LOGO
 62
     5
100
AcDbVertex
100
AcDb2dVertex
 10
514.3185167530423
 20
474.6666068745347
 30
0.0
 42
1.0
  0
SEQEND
  5
2110
330
210D
100
AcDbEntity
  8
LOGO
 62
     5
  0
POLYLINE
  5
2111
330
1F
100
AcDbEntity
  8
LOGO
 62
     5
100
AcDb2dPolyline
 66
     1
 10
0.0
 20
0.0
 30
0.0
 40
0.3158050179544615
 41
0.3158050179544615
  0
VERTEX
  5
2112
330
2111
100
AcDbEntity
  8
LOGO
 62
     5
100
AcDbVertex
100
AcDb2dVertex
 10
516.211830996682
 20
474.6666068745347
 30
0.0
 42
1.0
  0
VERTEX
  5
2113
330
2111
100
AcDbEntity
  8
LOGO
 62
     5
100
AcDbVertex
100
AcDb2dVertex
 10
515.264415942819
 20
474.6666068745347
 30
0.0
 42
1.0
  0
SEQEND
  5
2114
330
2111
100
AcDbEntity
  8
LOGO
 62
     5
  0
POLYLINE
  5
2115
330
1F
100
AcDbEntity
  8
LOGO
 62
     5
100
AcDb2dPolyline
 66
     1
 10
0.0
 20
0.0
 30
0.0
 40
0.3158050179544615
 41
0.3158050179544615
  0
VERTEX
  5
2116
330
2115
100
AcDbEntity
  8
LOGO
 62
     5
100
AcDbVertex
100
AcDb2dVertex
 10
511.6925138477648
 20
474.6666068745347
 30
0.0
 42
1.0
  0
VERTEX
  5
2117
330
2115
100
AcDbEntity
  8
LOGO
 62
     5
100
AcDbVertex
100
AcDb2dVertex
 10
510.7450987939015
 20
474.6666068745347
 30
0.0
 42
1.0
  0
SEQEND
  5
2118
330
2115
100
AcDbEntity
  8
LOGO
 62
     5
  0
SOLID
  5
2119
330
1F
100
AcDbEntity
  8
LOGO
 62
     5
100
AcDbTrace
 10
510.5882068609818
 20
475.2972063343861
 30
0.0
 11
510.9035065909071
 21
475.2972063343861
 31
0.0
 12
510.5882068609818
 22
473.7207076847576
 32
0.0
 13
510.9035065909071
 23
473.7207076847576
 33
0.0
  0
SOLID
  5
211A
330
1F
100
AcDbEntity
  8
LOGO
 62
     5
100
AcDbTrace
 10
511.5341060507593
 20
474.6666068745347
 30
0.0
 11
511.8494057806852
 21
474.6666068745347
 31
0.0
 12
511.5341060507593
 22
473.7207076847576
 32
0.0
 13
511.8494057806852
 23
473.7207076847576
 33
0.0
  0
POLYLINE
  5
211B
330
1F
100
AcDbEntity
  8
LOGO
 62
     5
100
AcDb2dPolyline
 66
     1
 10
0.0
 20
0.0
 30
0.0
 70
     1
 40
0.3158050179544615
 41
0.3158050179544615
  0
VERTEX
  5
211C
330
211B
100
AcDbEntity
  8
LOGO
 62
     5
100
AcDbVertex
100
AcDb2dVertex
 10
512.3739367944672
 20
474.5089570095717
 30
0.0
 42
1.0
  0
VERTEX
  5
211D
330
211B
100
AcDbEntity
  8
LOGO
 62
     5
100
AcDbVertex
100
AcDb2dVertex
 10
513.6371568662854
 20
474.5089570095717
 30
0.0
 42
1.0
  0
SEQEND
  5
211E
330
211B
100
AcDbEntity
  8
LOGO
 62
     5
  0
SOLID
  5
211F
330
1F
100
AcDbEntity
  8
LOGO
 62
     5
100
AcDbTrace
 10
513.4784648952923
 20
475.770155929275
 30
0.0
 11
513.7937646252179
 21
475.770155929275
 31
0.0
 12
513.4784648952923
 22
473.7207076847576
 32
0.0
 13
513.7937646252179
 23
473.7207076847576
 33
0.0
  0
SOLID
  5
2120
330
1F
100
AcDbEntity
  8
LOGO
 62
     5
100
AcDbTrace
 10
514.1616248201232
 20
475.2972063343861
 30
0.0
 11
514.4769245500483
 21
475.2972063343861
 31
0.0
 12
514.1616248201232
 22
473.7207076847576
 32
0.0
 13
514.4769245500483
 23
473.7207076847576
 33
0.0
  0
SOLID
  5
2121
330
1F
100
AcDbEntity
  8
LOGO
 62
     5
100
AcDbTrace
 10
515.1075240098994
 20
474.6666068745347
 30
0.0
 11
515.4228237398256
 21
474.6666068745347
 31
0.0
 12
515.1075240098994
 22
473.7207076847576
 32
0.0
 13
515.4228237398256
 23
473.7207076847576
 33
0.0
  0
SOLID
  5
2122
330
1F
100
AcDbEntity
  8
LOGO
 62
     5
100
AcDbTrace
 10
516.0534231996766
 20
474.6666068745347
 30
0.0
 11
516.3687229296023
 21
474.6666068745347
 31
0.0
 12
516.0534231996766
 22
473.7207076847573
 32
0.0
 13
516.3687229296023
 23
473.7207076847573
 33
0.0
  0
SOLID
  5
2123
330
1F
100
AcDbEntity
  8
LOGO
 62
     5
100
AcDbTrace
 10
509.9050469361516
 20
475.5179161453342
 30
0.0
 11
510.2203466660783
 21
475.5179161453342
 31
0.0
 12
509.9050469361516
 22
475.770155929275
 32
0.0
 13
510.2203466660783
 23
475.770155929275
 33
0.0
  0
SOLID
  5
2124
330
1F
100
AcDbEntity
  8
LOGO
 62
     5
100
AcDbTrace
 10
509.9050469361516
 20
475.2972063343861
 30
0.0
 11
510.2203466660783
 21
475.2972063343861
 31
0.0
 12
509.9050469361516
 22
473.7207076847573
 32
0.0
 13
510.2203466660783
 23
473.7207076847576
 33
0.0
  0
SOLID
  5
2125
330
1F
100
AcDbEntity
  8
LOGO
 62
     5
100
AcDbTrace
 10
513.005546830376
 20
476.8737049840149
 30
0.0
 11
513.9199160471612
 21
476.8737049840149
 31
0.0
 12
513.005546830376
 22
481.4981010229254
 32
0.0
 13
513.9199160471612
 23
484.8507881511358
 33
0.0
  0
SOLID
  5
2126
330
1F
100
AcDbEntity
  8
LOGO
 62
     5
100
AcDbTrace
 10
514.2982757230725
 20
485.5444475569722
 30
0.0
 11
515.2126449398566
 21
485.5444475569727
 31
0.0
 12
514.2982757230725
 22
477.5673643898513
 32
0.0
 13
515.2126449398566
 23
480.9200515180617
 33
0.0
  0
SOLID
  5
2127
330
1F
100
AcDbEntity
  8
LOGO
 62
     2
100
AcDbTrace
 10
513.9199160471612
 20
485.5444475569722
 30
0.0
 11
514.2982757230725
 21
485.5444475569722
 31
0.0
 12
513.9199160471612
 22
476.8737049840149
 32
0.0
 13
514.2982757230725
 23
476.8737049840149
 33
0.0
  0
SOLID
  5
2128
330
1F
100
AcDbEntity
  8
LOGO
 62
     5
100
AcDbTrace
 10
514.2982757230725
 20
477.5673643898513
 30
0.0
 11
515.2126449398566
 21
480.9200515180617
 31
0.0
 12
518.6494119960469
 22
485.5444475569727
 32
0.0
 13
517.7350427792628
 23
485.5444475569727
 33
0.0
  0
SOLID
  5
2129
330
1F
100
AcDbEntity
  8
LOGO
 62
     5
100
AcDbTrace
 10
514.2982757230725
 20
476.8737049840149
 30
0.0
 11
515.2126449398566
 21
476.8737049840149
 31
0.0
 12
518.6494119960469
 22
484.8507881511358
 32
0.0
 13
517.7350427792628
 23
481.4981010229254
 33
0.0
  0
SOLID
  5
212A
330
1F
100
AcDbEntity
  8
LOGO
 62
     2
100
AcDbTrace
 10
513.9199160471612
 20
476.8737049840149
 30
0.0
 11
514.2982757230725
 21
476.8737049840149
 31
0.0
 12
518.6494119960469
 22
485.5444475569727
 32
0.0
 13
519.0277716719584
 23
485.5444475569722
 33
0.0
  0
LWPOLYLINE
  5
212B
330
1F
100
AcDbEntity
  8
LOGO
 62
     4
100
AcDbPolyline
 90
        4
 70
     1
 43
0.0
 10
506.0819474814046
 20
486.0468024171536
 10
696.4414900290964
 20
486.0468024171536
 10
696.4414900290964
 20
464.8991449648455
 10
506.0819474814046
 20
464.8991449648455
1001
GENIUS_GENREC_14
1002
{
1000
PYDIR
1011
506.0819474814046
1021
464.8991449648455
1031
0.0
1002
}
1002
{
1000
PXDIR
1011
696.4414900290964
1021
486.0468024171536
1031
0.0
1002
}
1002
{
1000
PORI
1011
506.0819474814046
1021
486.0468024171536
1031
0.0
1002
}
1002
{
1000
PINS
1011
506.0819474814046
1021
486.0468024171536
1031
0.0
1002
}
1002
{
1000
PINS2
1011
696.4414900290964
1021
464.8991449648455
1031
0.0
1002
}
1002
{
1000
C
1070
     1
1002
}
1001
GENIUS_GENOBJ-N-REC_13
1002
{
1000
OWNER
1000
GEN
1002
}
1001
GENIUS_GENODEF_13
1002
{
1000
HIER
1070
     0
1002
}
1002
{
1000
MANEDIT
1070
     0
1002
}
1002
{
1000
NOSEL
1070
     0
1002
}
1002
{
1000
BEHIND
1070
     0
1002
}
1002
{
1000
OTHER
1070
     0
1002
}
1002
{
1000
REACTOR
1002
}
  0
CIRCLE
  5
212C
330
1F
100
AcDbEntity
  8
LOGO
  6
Continuous
100
AcDbCircle
 10
542.4241088629558
 20
479.7070286808659
 30
0.0
 40
1.227882767655559
  0
CIRCLE
  5
212D
330
1F
100
AcDbEntity
  8
LOGO
  6
Continuous
100
AcDbCircle
 10
542.4241088629558
 20
479.7070286808659
 30
0.0
 40
0.719430603534741
  0
LINE
  5
212E
330
1F
100
AcDbEntity
  8
LOGO
100
AcDbLine
 10
550.1402666523946
 20
478.4791459132101
 30
0.0
 11
550.1402666523946
 21
480.9349114485216
 31
0.0
  0
LINE
  5
212F
330
1F
100
AcDbEntity
  8
LOGO
100
AcDbLine
 10
546.2909246596284
 20
478.9875980773314
 30
0.0
 11
546.2909246596284
 21
480.4264592844009
 31
0.0
  0
LINE
  5
2130
330
1F
100
AcDbEntity
  8
LOGO
  6
Continuous
100
AcDbLine
 10
546.2909246596284
 20
480.4264592844009
 30
0.0
 11
550.1402666523946
 21
480.9349114485216
 31
0.0
  0
LINE
  5
2131
330
1F
100
AcDbEntity
  8
LOGO
  6
Continuous
100
AcDbLine
 10
546.2909246596284
 20
478.9875980773314
 30
0.0
 11
550.1402666523946
 21
478.4791459132101
 31
0.0
  0
LINE
  5
2132
330
1F
100
AcDbEntity
  8
LOGO
  6
AM_ISO08W050x2
 48
0.3
100
AcDbLine
 10
540.7314540816462
 20
479.7070286808659
 30
0.0
 11
544.1167636442655
 21
479.7070286808659
 31
0.0
1001
GENIUS_GENOREF_13
1005
2167
  0
LINE
  5
2133
330
1F
100
AcDbEntity
  8
LOGO
  6
AM_ISO08W050x2
 48
0.3
100
AcDbLine
 10
542.4241088629558
 20
478.0143738995561
 30
0.0
 11
542.4241088629558
 21
481.3996834621757
 31
0.0
1001
GENIUS_GENOREF_13
1005
2166
  0
LINE
  5
2134
330
1F
100
AcDbEntity
  8
LOGO
  6
CENTER
 48
0.5
100
AcDbLine
 10
545.9830842921673
 20
479.7070286808659
 30
0.0
 11
550.5278829301034
 21
479.7070286808659
 31
0.0
1001
GENIUS_GENOREF_13
1005
2165
  0
TEXT
  5
2135
330
1F
100
AcDbEntity
  8
LOGO
 62
     7
100
AcDbText
 10
553.831957728716
 20
476.782373545439
 30
0.0
 40
2.819687660307692
  1
Order example:
 41
0.8
  7
CHINESET
100
AcDbText
  0
TEXT
  5
2136
330
1F
100
AcDbEntity
  8
LOGO
 62
     7
100
AcDbText
 10
554.3378330128437
 20
480.7519099473727
 30
0.0
 40
4.229531490461539
  1
訂購代號：
  7
CHINESET
100
AcDbText
  0
TEXT
  5
2137
330
1F
100
AcDbEntity
  8
LOGO
100
AcDbText
 10
553.7628946194969
 20
466.0241919944623
 30
0.0
 40
2.115072
  1
00908171
 41
0.7
  7
CHINESET
 72
     1
 11
558.733313819497
 21
466.0241919944623
 31
0.0
100
AcDbText
  0
LINE
  5
2138
330
1F
100
AcDbEntity
  8
LOGO
 62
     4
100
AcDbLine
 10
565.2972258764806
 20
469.1286764553079
 30
0.0
 11
565.2972258764814
 21
464.8991449648461
 31
0.0
  0
LINE
  5
2139
330
1F
100
AcDbEntity
  8
LOGO
 62
     4
100
AcDbLine
 10
565.2972258764806
 20
469.1286764553079
 30
0.0
 11
552.6067938764817
 21
469.1286764553079
 31
0.0
  0
LINE
  5
213A
330
1F
100
AcDbEntity
  8
LOGO
 62
     4
100
AcDbLine
 10
595.7928964229846
 20
474.4155908183846
 30
0.0
 11
595.7928964229846
 21
466.6614497525383
 31
0.0
  0
LINE
  5
213B
330
1F
100
AcDbEntity
  8
LOGO
 62
     4
100
AcDbLine
 10
581.6944581214459
 20
474.4155908183846
 30
0.0
 11
581.6944581214459
 21
466.6614497525383
 31
0.0
  0
LINE
  5
213C
330
1F
100
AcDbEntity
  8
LOGO
 62
     4
100
AcDbLine
 10
595.7928964229846
 20
466.6614497525383
 30
0.0
 11
581.6944581214459
 21
466.6614497525383
 31
0.0
  0
LINE
  5
213D
330
1F
100
AcDbEntity
  8
LOGO
 62
     4
100
AcDbLine
 10
598.4063167437957
 20
483.9320366719228
 30
0.0
 11
581.6944581214459
 21
483.9320366719228
 31
0.0
  0
LINE
  5
213E
330
1F
100
AcDbEntity
  8
LOGO
 62
     4
100
AcDbLine
 10
598.4063167437957
 20
477.5877394362305
 30
0.0
 11
581.6944581214459
 21
477.5877394362305
 31
0.0
  0
LINE
  5
213F
330
1F
100
AcDbEntity
  8
LOGO
 62
     4
100
AcDbLine
 10
581.6944581214459
 20
483.9320366719228
 30
0.0
 11
581.6944581214459
 21
477.5877394362305
 31
0.0
  0
LINE
  5
2140
330
1F
100
AcDbEntity
  8
LOGO
 62
     4
100
AcDbLine
 10
598.4063167437957
 20
483.9320366719228
 30
0.0
 11
598.4063167437957
 21
477.5877394362305
 31
0.0
  0
LINE
  5
2141
330
1F
100
AcDbEntity
  8
LOGO
 62
     4
100
AcDbLine
 10
589.4792616425179
 20
477.5877394362305
 30
0.0
 11
589.4792616425179
 21
474.4155908183846
 31
0.0
  0
TEXT
  5
2142
330
1F
100
AcDbEntity
  8
LOGO
  6
Continuous
 62
     7
100
AcDbText
 10
582.8217403796245
 20
478.91210220882
 30
0.0
 40
3.701376
  1
MVSG
  7
CHINESET
100
AcDbText
  0
LINE
  5
2143
330
1F
100
AcDbEntity
  8
LOGO
 62
     4
100
AcDbLine
 10
595.7928964229846
 20
474.4155908183846
 30
0.0
 11
581.6944581214459
 21
474.4155908183846
 31
0.0
  0
TEXT
  5
2144
330
1F
100
AcDbEntity
  8
LOGO
  6
Continuous
100
AcDbText
 10
586.2186023374333
 20
467.7559303209445
 30
138.5982630693801
 40
1.586304
  1
Model
 41
0.8
  7
CHINESET
100
AcDbText
  0
TEXT
  5
2145
330
1F
100
AcDbEntity
  8
LOGO
100
AcDbText
 10
585.7963797802045
 20
470.6965960640321
 30
138.5982630693801
 40
2.643839999999999
  1
型號
  7
CHINESET
100
AcDbText
  0
LINE
  5
2146
330
1F
100
AcDbEntity
  8
LOGO
  6
Continuous
 62
     7
100
AcDbLine
 10
599.0807679748447
 20
480.737415550632
 30
0.0
 11
601.8821781410064
 21
480.737415550632
 31
0.0
  0
TEXT
  5
2147
330
1F
100
AcDbEntity
  8
LOGO
  6
Continuous
 62
     7
100
AcDbText
 10
603.0803968886069
 20
478.91210220882
 30
0.0
 40
3.701376
  1
188
  7
CHINESET
100
AcDbText
  0
LINE
  5
2148
330
1F
100
AcDbEntity
  8
LOGO
  6
Continuous
 62
     7
100
AcDbLine
 10
612.9671917585328
 20
480.737415550632
 30
0.0
 11
615.7686019246947
 21
480.737415550632
 31
0.0
  0
LINE
  5
2149
330
1F
100
AcDbEntity
  8
LOGO
 62
     4
100
AcDbLine
 10
617.9690417745526
 20
474.4155908183846
 30
0.0
 11
617.9690417745526
 21
466.6614497525383
 31
0.0
  0
LINE
  5
214A
330
1F
100
AcDbEntity
  8
LOGO
 62
     4
100
AcDbLine
 10
605.0917268903713
 20
474.4155908183846
 30
0.0
 11
605.0917268903713
 21
466.6614497525383
 31
0.0
  0
LINE
  5
214B
330
1F
100
AcDbEntity
  8
LOGO
 62
     4
100
AcDbLine
 10
617.9690417745526
 20
466.6614497525383
 30
0.0
 11
605.0917268903713
 21
466.6614497525383
 31
0.0
  0
LINE
  5
214C
330
1F
100
AcDbEntity
  8
LOGO
 62
     4
100
AcDbLine
 10
625.4253265147258
 20
483.9320366719228
 30
0.0
 11
616.6522991609763
 21
483.9320366719228
 31
0.0
  0
LINE
  5
214D
330
1F
100
AcDbEntity
  8
LOGO
 62
     4
100
AcDbLine
 10
625.4253265147258
 20
477.5877394362305
 30
0.0
 11
616.6522991609763
 21
477.5877394362305
 31
0.0
  0
LINE
  5
214E
330
1F
100
AcDbEntity
  8
LOGO
 62
     4
100
AcDbLine
 10
616.6522991609763
 20
483.9320366719228
 30
0.0
 11
616.6522991609763
 21
477.5877394362305
 31
0.0
  0
LINE
  5
214F
330
1F
100
AcDbEntity
  8
LOGO
 62
     4
100
AcDbLine
 10
625.4253265147258
 20
483.9320366719228
 30
0.0
 11
625.4253265147258
 21
477.5877394362305
 31
0.0
  0
LINE
  5
2150
330
1F
100
AcDbEntity
  8
LOGO
 62
     4
100
AcDbLine
 10
621.5267401599577
 20
477.5877394362305
 30
0.0
 11
621.5267401599577
 21
476.0016651273076
 31
0.0
  0
TEXT
  5
2151
330
1F
100
AcDbEntity
  8
LOGO
  6
Continuous
 62
     7
100
AcDbText
 10
617.4967081584075
 20
478.91210220882
 30
0.0
 40
3.701376
  1
5B
  7
CHINESET
100
AcDbText
  0
LINE
  5
2152
330
1F
100
AcDbEntity
  8
LOGO
 62
     4
100
AcDbLine
 10
617.9690417745526
 20
474.4155908183846
 30
0.0
 11
605.0917268903713
 21
474.4155908183846
 31
0.0
  0
LINE
  5
2153
330
1F
100
AcDbEntity
  8
LOGO
 62
     4
100
AcDbLine
 10
633.9669498781842
 20
474.4155908183846
 30
0.0
 11
633.9669498781842
 21
466.6614497525383
 31
0.0
  0
LINE
  5
2154
330
1F
100
AcDbEntity
  8
LOGO
 62
     4
100
AcDbLine
 10
622.4815242928025
 20
474.4155908183846
 30
0.0
 11
622.4815242928025
 21
466.6614497525383
 31
0.0
  0
LINE
  5
2155
330
1F
100
AcDbEntity
  8
LOGO
 62
     4
100
AcDbLine
 10
633.9669498781842
 20
466.6614497525383
 30
0.0
 11
622.4815242928025
 21
466.6614497525383
 31
0.0
  0
LINE
  5
2156
330
1F
100
AcDbEntity
  8
LOGO
 62
     4
100
AcDbLine
 10
633.9604965769217
 20
483.9320366719228
 30
0.0
 11
628.5815356672347
 21
483.9320366719228
 31
0.0
  0
LINE
  5
2157
330
1F
100
AcDbEntity
  8
LOGO
 62
     4
100
AcDbLine
 10
633.9604965769217
 20
477.5877394362305
 30
0.0
 11
628.5815356672347
 21
477.5877394362305
 31
0.0
  0
LINE
  5
2158
330
1F
100
AcDbEntity
  8
LOGO
 62
     4
100
AcDbLine
 10
628.5815356672347
 20
483.9320366719228
 30
0.0
 11
628.5815356672347
 21
477.5877394362305
 31
0.0
  0
LINE
  5
2159
330
1F
100
AcDbEntity
  8
LOGO
 62
     4
100
AcDbLine
 10
633.9604965769217
 20
483.9320366719228
 30
0.0
 11
633.9604965769217
 21
477.5877394362305
 31
0.0
  0
LINE
  5
215A
330
1F
100
AcDbEntity
  8
LOGO
 62
     4
100
AcDbLine
 10
631.9566137066843
 20
477.5877394362305
 30
0.0
 11
631.9566137066839
 21
476.0016651273076
 31
0.0
  0
TEXT
  5
215B
330
1F
100
AcDbEntity
  8
LOGO
  6
Continuous
 62
     7
100
AcDbText
 10
629.9996614118912
 20
478.91210220882
 30
0.0
 40
3.701376
  1
*
  7
CHINESET
100
AcDbText
  0
LINE
  5
215C
330
1F
100
AcDbEntity
  8
LOGO
 62
     4
100
AcDbLine
 10
633.9669498781842
 20
474.4155908183846
 30
0.0
 11
622.4815242928025
 21
474.4155908183846
 31
0.0
  0
TEXT
  5
215D
330
1F
100
AcDbEntity
  8
LOGO
  6
Continuous
100
AcDbText
 10
608.0447734960459
 20
467.7559303209445
 30
138.5982630693801
 40
1.586304
  1
Manifold
 41
0.8
  7
CHINESET
100
AcDbText
  0
TEXT
  5
215E
330
1F
100
AcDbEntity
  8
LOGO
100
AcDbText
 10
608.6843883596595
 20
470.6965960640321
 30
138.5982630693801
 40
2.643839999999999
  1
連座
  7
CHINESET
100
AcDbText
  0
TEXT
  5
215F
330
1F
100
AcDbEntity
  8
LOGO
  6
Continuous
100
AcDbText
 10
624.4159312245856
 20
467.7559303209445
 30
138.5982630693801
 40
1.586304
  1
Number
 41
0.8
  7
CHINESET
100
AcDbText
  0
TEXT
  5
2160
330
1F
100
AcDbEntity
  8
LOGO
100
AcDbText
 10
624.3059421198444
 20
470.6965960640321
 30
138.5982630693801
 40
2.643839999999999
  1
連座數
  7
CHINESET
100
AcDbText
  0
LINE
  5
2161
330
1F
100
AcDbEntity
  8
LOGO
 62
     4
100
AcDbLine
 10
621.5267401599577
 20
476.0016651273076
 30
0.0
 11
612.1409460411407
 21
476.0016651273076
 31
0.0
  0
LINE
  5
2162
330
1F
100
AcDbEntity
  8
LOGO
 62
     4
100
AcDbLine
 10
612.1409460411407
 20
474.4155908183846
 30
0.0
 11
612.1409460411407
 21
476.0016651273076
 31
0.0
  0
LINE
  5
2163
330
1F
100
AcDbEntity
  8
LOGO
 62
     4
100
AcDbLine
 10
628.2242370854929
 20
474.4155908183846
 30
0.0
 11
628.2242370854929
 21
476.0016651273076
 31
0.0
  0
LINE
  5
2164
330
1F
100
AcDbEntity
  8
LOGO
 62
     4
100
AcDbLine
 10
631.9566137066843
 20
476.0016651273076
 30
0.0
 11
628.2242370854929
 21
476.0016651273076
 31
0.0
  0
POINT
  5
2165
330
1F
100
AcDbEntity
  8
0
 60
     1
100
AcDbPoint
 10
-1571.404689390798
 20
-227.6404237129455
 30
0.0
1001
GENIUS_GENOBJ-N-CRS_13
1002
{
1000
OWNER
1000
GEN
1002
}
1001
GENIUS_GENOLIS_13
1002
{
1000
ENT
1005
0
1005
0
1005
0
1005
2134
1002
}
1001
GENIUS_GENOENT_13
1002
{
1000
MYREF
1005
2165
1002
}
1002
{
1000
GRP
1005
0
1002
}
1001
GENIUS_GENODEF_13
1002
{
1000
HIER
1070
    10
1002
}
1002
{
1000
MANEDIT
1070
     1
1002
}
1002
{
1000
NOSEL
1070
     0
1002
}
1002
{
1000
BEHIND
1070
     0
1002
}
1002
{
1000
OTHER
1070
     0
1002
}
1002
{
1000
REACTOR
1002
}
  0
POINT
  5
2166
330
1F
100
AcDbEntity
  8
0
 60
     1
100
AcDbPoint
 10
-1582.729274613653
 20
-218.7648372343093
 30
0.0
1001
GENIUS_GENOBJ-N-CRS_13
1002
{
1000
OWNER
1000
GEN
1002
}
1001
GENIUS_GENOLIS_13
1002
{
1000
ENT
1005
0
1005
0
1005
0
1005
2133
1002
}
1001
GENIUS_GENOENT_13
1002
{
1000
MYREF
1005
2166
1002
}
1002
{
1000
GRP
1005
0
1002
}
1001
GENIUS_GENODEF_13
1002
{
1000
HIER
1070
    10
1002
}
1002
{
1000
MANEDIT
1070
     1
1002
}
1002
{
1000
NOSEL
1070
     0
1002
}
1002
{
1000
BEHIND
1070
     0
1002
}
1002
{
1000
OTHER
1070
     0
1002
}
1002
{
1000
REACTOR
1002
}
  0
POINT
  5
2167
330
1F
100
AcDbEntity
  8
0
 60
     1
100
AcDbPoint
 10
-1576.370600915816
 20
-227.6404237129455
 30
0.0
1001
GENIUS_GENOBJ-N-CRS_13
1002
{
1000
OWNER
1000
GEN
1002
}
1001
GENIUS_GENOLIS_13
1002
{
1000
ENT
1005
0
1005
0
1005
0
1005
2132
1002
}
1001
GENIUS_GENOENT_13
1002
{
1000
MYREF
1005
2167
1002
}
1002
{
1000
GRP
1005
0
1002
}
1001
GENIUS_GENODEF_13
1002
{
1000
HIER
1070
    10
1002
}
1002
{
1000
MANEDIT
1070
     1
1002
}
1002
{
1000
NOSEL
1070
     0
1002
}
1002
{
1000
BEHIND
1070
     0
1002
}
1002
{
1000
OTHER
1070
     0
1002
}
1002
{
1000
REACTOR
1002
}
  0
INSERT
  5
220D
330
1F
100
AcDbEntity
  8
0
100
AcDbBlockReference
  2
A$C3CA723EF
 10
631.5596439896126
 20
599.2555688141763
 30
0.0
 50
90.0
  0
MTEXT
  5
2642
102
{ACAD_REACTORS
330
2641
102
}
330
1F
100
AcDbEntity
  8
AM_5
100
AcDbMText
 10
848.1993319909735
 20
677.5058602817855
 30
0.0
 40
5.0
 41
6.389899999999999
 71
     9
 72
     1
  1

  7
dayus
 73
     1
 44
1.0
1001
ACAD
1000
MTEXTBEGIN
1070
    73
1070
     1
1070
    44
1040
1.0
1070
    74
1070
     0
1000
MTEXTEND
  0
LINE
  5
2F79
330
1F
100
AcDbEntity
  8
AM_7
100
AcDbLine
 10
585.5572196660101
 20
570.8980964741662
 30
0.0
 11
586.9857910945816
 21
570.8980964741662
 31
0.0
  0
LINE
  5
2F7A
330
1F
100
AcDbEntity
  8
AM_7
100
AcDbLine
 10
586.2715053802958
 20
570.1838107598805
 30
0.0
 11
586.2715053802958
 21
571.612382188452
 31
0.0
  0
LINE
  5
2F7B
330
1F
100
AcDbEntity
  8
AM_7
100
AcDbLine
 10
582.8786482374387
 20
570.8980964741662
 30
0.0
 11
584.9857910945815
 21
570.8980964741662
 31
0.0
  0
LINE
  5
2F7C
330
1F
100
AcDbEntity
  8
AM_7
100
AcDbLine
 10
587.55721966601
 20
570.8980964741662
 30
0.0
 11
589.6643625231529
 21
570.8980964741662
 31
0.0
  0
LINE
  5
2F7D
330
1F
100
AcDbEntity
  8
AM_7
100
AcDbLine
 10
586.2715053802958
 20
567.5052393313091
 30
0.0
 11
586.2715053802958
 21
569.6123821884518
 31
0.0
  0
LINE
  5
2F7E
330
1F
100
AcDbEntity
  8
AM_7
100
AcDbLine
 10
586.2715053802958
 20
572.1838107598805
 30
0.0
 11
586.2715053802958
 21
574.2909536170234
 31
0.0
  0
LINE
  5
2F7F
330
1F
100
AcDbEntity
  8
AM_7
100
AcDbLine
 10
605.5572196660101
 20
617.8980964741661
 30
0.0
 11
606.9857910945814
 21
617.8980964741661
 31
0.0
  0
LINE
  5
2F80
330
1F
100
AcDbEntity
  8
AM_7
100
AcDbLine
 10
606.2715053802958
 20
617.1838107598805
 30
0.0
 11
606.2715053802958
 21
618.6123821884518
 31
0.0
  0
LINE
  5
2F81
330
1F
100
AcDbEntity
  8
AM_7
100
AcDbLine
 10
602.8786482374386
 20
617.8980964741661
 30
0.0
 11
604.9857910945815
 21
617.8980964741661
 31
0.0
  0
LINE
  5
2F82
102
{ACAD_REACTORS
330
3577
102
}
330
1F
100
AcDbEntity
  8
AM_7
100
AcDbLine
 10
607.5572196660101
 20
617.8980964741661
 30
0.0
 11
609.6643625231529
 21
617.8980964741661
 31
0.0
  0
LINE
  5
2F83
330
1F
100
AcDbEntity
  8
AM_7
100
AcDbLine
 10
606.2715053802958
 20
614.505239331309
 30
0.0
 11
606.2715053802958
 21
616.6123821884518
 31
0.0
  0
LINE
  5
2F84
330
1F
100
AcDbEntity
  8
AM_7
100
AcDbLine
 10
606.2715053802958
 20
619.1838107598804
 30
0.0
 11
606.2715053802958
 21
621.2909536170233
 31
0.0
  0
LINE
  5
2F85
330
1F
100
AcDbEntity
  8
AM_7
100
AcDbLine
 10
585.5572196660101
 20
617.8980964741661
 30
0.0
 11
586.9857910945816
 21
617.8980964741661
 31
0.0
  0
LINE
  5
2F86
330
1F
100
AcDbEntity
  8
AM_7
100
AcDbLine
 10
586.2715053802958
 20
617.1838107598805
 30
0.0
 11
586.2715053802958
 21
618.6123821884518
 31
0.0
  0
LINE
  5
2F87
330
1F
100
AcDbEntity
  8
AM_7
100
AcDbLine
 10
582.8786482374387
 20
617.8980964741661
 30
0.0
 11
584.9857910945815
 21
617.8980964741661
 31
0.0
  0
LINE
  5
2F88
330
1F
100
AcDbEntity
  8
AM_7
100
AcDbLine
 10
587.5572196660101
 20
617.8980964741661
 30
0.0
 11
589.6643625231529
 21
617.8980964741661
 31
0.0
  0
LINE
  5
2F89
330
1F
100
AcDbEntity
  8
AM_7
100
AcDbLine
 10
586.2715053802958
 20
614.505239331309
 30
0.0
 11
586.2715053802958
 21
616.6123821884518
 31
0.0
  0
LINE
  5
2F8A
330
1F
100
AcDbEntity
  8
AM_7
100
AcDbLine
 10
586.2715053802958
 20
619.1838107598804
 30
0.0
 11
586.2715053802958
 21
621.2909536170233
 31
0.0
  0
LINE
  5
2F8B
330
1F
100
AcDbEntity
  8
AM_7
100
AcDbLine
 10
605.5572196660101
 20
570.8980964741662
 30
0.0
 11
606.9857910945814
 21
570.8980964741662
 31
0.0
  0
LINE
  5
2F8C
330
1F
100
AcDbEntity
  8
AM_7
100
AcDbLine
 10
606.2715053802958
 20
570.1838107598805
 30
0.0
 11
606.2715053802958
 21
571.612382188452
 31
0.0
  0
LINE
  5
2F8D
330
1F
100
AcDbEntity
  8
AM_7
100
AcDbLine
 10
602.8786482374386
 20
570.8980964741662
 30
0.0
 11
604.9857910945815
 21
570.8980964741662
 31
0.0
  0
LINE
  5
2F8E
330
1F
100
AcDbEntity
  8
AM_7
100
AcDbLine
 10
607.55721966601
 20
570.8980964741662
 30
0.0
 11
609.6643625231529
 21
570.8980964741662
 31
0.0
  0
LINE
  5
2F8F
330
1F
100
AcDbEntity
  8
AM_7
100
AcDbLine
 10
606.2715053802958
 20
567.5052393313091
 30
0.0
 11
606.2715053802958
 21
569.6123821884518
 31
0.0
  0
LINE
  5
2F90
330
1F
100
AcDbEntity
  8
AM_7
100
AcDbLine
 10
606.2715053802958
 20
572.1838107598805
 30
0.0
 11
606.2715053802958
 21
574.2909536170234
 31
0.0
  0
LINE
  5
2F91
330
1F
100
AcDbEntity
  8
AM_7
100
AcDbLine
 10
610.5572196660101
 20
578.3980964741662
 30
0.0
 11
611.9857910945815
 21
578.3980964741662
 31
0.0
  0
LINE
  5
2F92
330
1F
100
AcDbEntity
  8
AM_7
100
AcDbLine
 10
611.2715053802958
 20
577.6838107598805
 30
0.0
 11
611.2715053802958
 21
579.112382188452
 31
0.0
  0
LINE
  5
2F93
330
1F
100
AcDbEntity
  8
AM_7
100
AcDbLine
 10
608.8786482374387
 20
578.3980964741662
 30
0.0
 11
609.9857910945815
 21
578.3980964741662
 31
0.0
  0
LINE
  5
2F94
330
1F
100
AcDbEntity
  8
AM_7
100
AcDbLine
 10
612.55721966601
 20
578.3980964741662
 30
0.0
 11
613.6643625231529
 21
578.3980964741662
 31
0.0
  0
LINE
  5
2F95
330
1F
100
AcDbEntity
  8
AM_7
100
AcDbLine
 10
611.2715053802958
 20
576.0052393313091
 30
0.0
 11
611.2715053802958
 21
577.1123821884518
 31
0.0
  0
LINE
  5
2F96
330
1F
100
AcDbEntity
  8
AM_7
100
AcDbLine
 10
611.2715053802958
 20
579.6838107598805
 30
0.0
 11
611.2715053802958
 21
580.7909536170233
 31
0.0
  0
LINE
  5
2F97
330
1F
100
AcDbEntity
  8
AM_7
100
AcDbLine
 10
580.5572196660101
 20
591.3980964741662
 30
0.0
 11
581.9857910945816
 21
591.3980964741662
 31
0.0
  0
LINE
  5
2F98
330
1F
100
AcDbEntity
  8
AM_7
100
AcDbLine
 10
581.2715053802958
 20
590.6838107598805
 30
0.0
 11
581.2715053802958
 21
592.1123821884519
 31
0.0
  0
LINE
  5
2F99
330
1F
100
AcDbEntity
  8
AM_7
100
AcDbLine
 10
578.8786482374387
 20
591.3980964741662
 30
0.0
 11
579.9857910945815
 21
591.3980964741662
 31
0.0
  0
LINE
  5
2F9A
330
1F
100
AcDbEntity
  8
AM_7
100
AcDbLine
 10
582.55721966601
 20
591.3980964741662
 30
0.0
 11
583.664362523153
 21
591.3980964741662
 31
0.0
  0
LINE
  5
2F9B
330
1F
100
AcDbEntity
  8
AM_7
100
AcDbLine
 10
581.2715053802958
 20
589.005239331309
 30
0.0
 11
581.2715053802958
 21
590.1123821884518
 31
0.0
  0
LINE
  5
2F9C
330
1F
100
AcDbEntity
  8
AM_7
100
AcDbLine
 10
581.2715053802958
 20
592.6838107598805
 30
0.0
 11
581.2715053802958
 21
593.7909536170232
 31
0.0
  0
LINE
  5
2F9D
330
1F
100
AcDbEntity
  8
AM_7
100
AcDbLine
 10
608.7572196660101
 20
585.3980964741662
 30
0.0
 11
610.1857910945815
 21
585.3980964741662
 31
0.0
  0
LINE
  5
2F9E
330
1F
100
AcDbEntity
  8
AM_7
100
AcDbLine
 10
609.4715053802958
 20
584.6838107598805
 30
0.0
 11
609.4715053802958
 21
586.1123821884518
 31
0.0
  0
LINE
  5
2F9F
330
1F
100
AcDbEntity
  8
AM_7
100
AcDbLine
 10
604.3286482374386
 20
585.3980964741662
 30
0.0
 11
608.1857910945815
 21
585.3980964741662
 31
0.0
  0
LINE
  5
2FA0
330
1F
100
AcDbEntity
  8
AM_7
100
AcDbLine
 10
610.75721966601
 20
585.3980964741662
 30
0.0
 11
614.614362523153
 21
585.3980964741662
 31
0.0
  0
LINE
  5
2FA1
330
1F
100
AcDbEntity
  8
AM_7
100
AcDbLine
 10
609.4715053802958
 20
580.255239331309
 30
0.0
 11
609.4715053802958
 21
584.1123821884519
 31
0.0
  0
LINE
  5
2FA2
330
1F
100
AcDbEntity
  8
AM_7
100
AcDbLine
 10
609.4715053802958
 20
586.6838107598804
 30
0.0
 11
609.4715053802958
 21
590.5409536170233
 31
0.0
  0
LINE
  5
2FA3
330
1F
100
AcDbEntity
  8
AM_7
100
AcDbLine
 10
582.3572196660101
 20
584.398096474166
 30
0.0
 11
583.7857910945815
 21
584.398096474166
 31
0.0
  0
LINE
  5
2FA4
330
1F
100
AcDbEntity
  8
AM_7
100
AcDbLine
 10
583.0715053802958
 20
583.6838107598804
 30
0.0
 11
583.0715053802958
 21
585.1123821884518
 31
0.0
  0
LINE
  5
2FA5
330
1F
100
AcDbEntity
  8
AM_7
100
AcDbLine
 10
577.9286482374387
 20
584.398096474166
 30
0.0
 11
581.7857910945815
 21
584.398096474166
 31
0.0
  0
LINE
  5
2FA6
330
1F
100
AcDbEntity
  8
AM_7
100
AcDbLine
 10
584.3572196660101
 20
584.398096474166
 30
0.0
 11
588.2143625231529
 21
584.398096474166
 31
0.0
  0
LINE
  5
2FA7
330
1F
100
AcDbEntity
  8
AM_7
100
AcDbLine
 10
583.0715053802958
 20
579.2552393313091
 30
0.0
 11
583.0715053802958
 21
583.1123821884518
 31
0.0
  0
LINE
  5
2FA8
330
1F
100
AcDbEntity
  8
AM_7
100
AcDbLine
 10
583.0715053802958
 20
585.6838107598805
 30
0.0
 11
583.0715053802958
 21
589.5409536170233
 31
0.0
  0
LINE
  5
2FA9
330
1F
100
AcDbEntity
  8
AM_7
100
AcDbLine
 10
595.5572196660101
 20
584.8980964741662
 30
0.0
 11
596.9857910945815
 21
584.8980964741662
 31
0.0
  0
LINE
  5
2FAA
330
1F
100
AcDbEntity
  8
AM_7
100
AcDbLine
 10
596.2715053802958
 20
584.1838107598804
 30
0.0
 11
596.2715053802958
 21
585.6123821884518
 31
0.0
  0
LINE
  5
2FAB
330
1F
100
AcDbEntity
  8
AM_7
100
AcDbLine
 10
591.1286482374387
 20
584.8980964741662
 30
0.0
 11
594.9857910945816
 21
584.8980964741662
 31
0.0
  0
LINE
  5
2FAC
330
1F
100
AcDbEntity
  8
AM_7
100
AcDbLine
 10
597.55721966601
 20
584.8980964741662
 30
0.0
 11
601.414362523153
 21
584.8980964741662
 31
0.0
  0
LINE
  5
2FAD
330
1F
100
AcDbEntity
  8
AM_7
100
AcDbLine
 10
596.2715053802958
 20
579.7552393313091
 30
0.0
 11
596.2715053802958
 21
583.6123821884519
 31
0.0
  0
LINE
  5
2FAE
330
1F
100
AcDbEntity
  8
AM_7
100
AcDbLine
 10
596.2715053802958
 20
586.1838107598805
 30
0.0
 11
596.2715053802958
 21
590.0409536170233
 31
0.0
  0
LINE
  5
2FB8
330
1F
100
AcDbEntity
  8
AM_7
100
AcDbLine
 10
610.5572196660101
 20
597.3980964741662
 30
0.0
 11
611.9857910945815
 21
597.3980964741662
 31
0.0
  0
LINE
  5
2FB9
330
1F
100
AcDbEntity
  8
AM_7
100
AcDbLine
 10
611.2715053802958
 20
596.6838107598804
 30
0.0
 11
611.2715053802958
 21
598.1123821884518
 31
0.0
  0
LINE
  5
2FBA
330
1F
100
AcDbEntity
  8
AM_7
100
AcDbLine
 10
608.8786482374387
 20
597.3980964741662
 30
0.0
 11
609.9857910945815
 21
597.3980964741662
 31
0.0
  0
LINE
  5
2FBB
330
1F
100
AcDbEntity
  8
AM_7
100
AcDbLine
 10
612.55721966601
 20
597.3980964741662
 30
0.0
 11
613.6643625231529
 21
597.3980964741662
 31
0.0
  0
LINE
  5
2FBC
330
1F
100
AcDbEntity
  8
AM_7
100
AcDbLine
 10
611.2715053802958
 20
595.005239331309
 30
0.0
 11
611.2715053802958
 21
596.1123821884519
 31
0.0
  0
LINE
  5
2FBD
330
1F
100
AcDbEntity
  8
AM_7
100
AcDbLine
 10
611.2715053802958
 20
598.6838107598805
 30
0.0
 11
611.2715053802958
 21
599.7909536170233
 31
0.0
  0
LINE
  5
2FC4
330
1F
100
AcDbEntity
  8
AM_7
100
AcDbLine
 10
580.5572196660101
 20
610.3980964741662
 30
0.0
 11
581.9857910945816
 21
610.3980964741662
 31
0.0
  0
LINE
  5
2FC5
330
1F
100
AcDbEntity
  8
AM_7
100
AcDbLine
 10
581.2715053802958
 20
609.6838107598805
 30
0.0
 11
581.2715053802958
 21
611.1123821884518
 31
0.0
  0
LINE
  5
2FC6
330
1F
100
AcDbEntity
  8
AM_7
100
AcDbLine
 10
578.8786482374387
 20
610.3980964741662
 30
0.0
 11
579.9857910945815
 21
610.3980964741662
 31
0.0
  0
LINE
  5
2FC7
330
1F
100
AcDbEntity
  8
AM_7
100
AcDbLine
 10
582.55721966601
 20
610.3980964741662
 30
0.0
 11
583.664362523153
 21
610.3980964741662
 31
0.0
  0
LINE
  5
2FC8
330
1F
100
AcDbEntity
  8
AM_7
100
AcDbLine
 10
581.2715053802958
 20
608.0052393313089
 30
0.0
 11
581.2715053802958
 21
609.1123821884519
 31
0.0
  0
LINE
  5
2FC9
330
1F
100
AcDbEntity
  8
AM_7
100
AcDbLine
 10
581.2715053802958
 20
611.6838107598804
 30
0.0
 11
581.2715053802958
 21
612.7909536170232
 31
0.0
  0
LINE
  5
2FD0
330
1F
100
AcDbEntity
  8
AM_7
100
AcDbLine
 10
608.7572196660101
 20
604.3980964741661
 30
0.0
 11
610.1857910945815
 21
604.3980964741661
 31
0.0
  0
LINE
  5
2FD1
330
1F
100
AcDbEntity
  8
AM_7
100
AcDbLine
 10
609.4715053802958
 20
603.6838107598804
 30
0.0
 11
609.4715053802958
 21
605.1123821884519
 31
0.0
  0
LINE
  5
2FD2
330
1F
100
AcDbEntity
  8
AM_7
100
AcDbLine
 10
604.3286482374386
 20
604.3980964741661
 30
0.0
 11
608.1857910945815
 21
604.3980964741661
 31
0.0
  0
LINE
  5
2FD3
330
1F
100
AcDbEntity
  8
AM_7
100
AcDbLine
 10
610.75721966601
 20
604.3980964741661
 30
0.0
 11
614.614362523153
 21
604.3980964741661
 31
0.0
  0
LINE
  5
2FD4
330
1F
100
AcDbEntity
  8
AM_7
100
AcDbLine
 10
609.4715053802958
 20
599.255239331309
 30
0.0
 11
609.4715053802958
 21
603.1123821884518
 31
0.0
  0
LINE
  5
2FD5
330
1F
100
AcDbEntity
  8
AM_7
100
AcDbLine
 10
609.4715053802958
 20
605.6838107598804
 30
0.0
 11
609.4715053802958
 21
609.5409536170233
 31
0.0
  0
LINE
  5
2FDC
330
1F
100
AcDbEntity
  8
AM_7
100
AcDbLine
 10
582.3572196660101
 20
603.3980964741662
 30
0.0
 11
583.7857910945815
 21
603.3980964741662
 31
0.0
  0
LINE
  5
2FDD
330
1F
100
AcDbEntity
  8
AM_7
100
AcDbLine
 10
583.0715053802958
 20
602.6838107598806
 30
0.0
 11
583.0715053802958
 21
604.112382188452
 31
0.0
  0
LINE
  5
2FDE
330
1F
100
AcDbEntity
  8
AM_7
100
AcDbLine
 10
577.9286482374387
 20
603.3980964741662
 30
0.0
 11
581.7857910945815
 21
603.3980964741662
 31
0.0
  0
LINE
  5
2FDF
330
1F
100
AcDbEntity
  8
AM_7
100
AcDbLine
 10
584.3572196660101
 20
603.3980964741662
 30
0.0
 11
588.2143625231529
 21
603.3980964741662
 31
0.0
  0
LINE
  5
2FE0
330
1F
100
AcDbEntity
  8
AM_7
100
AcDbLine
 10
583.0715053802958
 20
598.2552393313091
 30
0.0
 11
583.0715053802958
 21
602.1123821884518
 31
0.0
  0
LINE
  5
2FE1
330
1F
100
AcDbEntity
  8
AM_7
100
AcDbLine
 10
583.0715053802958
 20
604.6838107598805
 30
0.0
 11
583.0715053802958
 21
608.5409536170232
 31
0.0
  0
LINE
  5
2FE8
330
1F
100
AcDbEntity
  8
AM_7
100
AcDbLine
 10
595.5572196660101
 20
603.8980964741662
 30
0.0
 11
596.9857910945815
 21
603.8980964741662
 31
0.0
  0
LINE
  5
2FE9
330
1F
100
AcDbEntity
  8
AM_7
100
AcDbLine
 10
596.2715053802958
 20
603.1838107598804
 30
0.0
 11
596.2715053802958
 21
604.6123821884519
 31
0.0
  0
LINE
  5
2FEA
330
1F
100
AcDbEntity
  8
AM_7
100
AcDbLine
 10
591.1286482374387
 20
603.8980964741662
 30
0.0
 11
594.9857910945816
 21
603.8980964741662
 31
0.0
  0
LINE
  5
2FEB
330
1F
100
AcDbEntity
  8
AM_7
100
AcDbLine
 10
597.55721966601
 20
603.8980964741662
 30
0.0
 11
601.414362523153
 21
603.8980964741662
 31
0.0
  0
LINE
  5
2FEC
330
1F
100
AcDbEntity
  8
AM_7
100
AcDbLine
 10
596.2715053802958
 20
598.7552393313091
 30
0.0
 11
596.2715053802958
 21
602.6123821884518
 31
0.0
  0
LINE
  5
2FED
330
1F
100
AcDbEntity
  8
AM_7
100
AcDbLine
 10
596.2715053802958
 20
605.1838107598805
 30
0.0
 11
596.2715053802958
 21
609.0409536170231
 31
0.0
  0
ARC
  5
2FF1
330
1F
100
AcDbEntity
  8
AM_4
100
AcDbCircle
 10
581.2715053802958
 20
610.3980964741662
 30
0.0
 40
1.499999999999998
100
AcDbArc
 50
248.3204641148091
 51
203.3033583986846
  0
DIMENSION
  5
2FF2
330
1F
100
AcDbEntity
  8
AM_REFDIM
100
AcDbDimension
  2
*D101
 10
555.8494929687689
 20
591.3980964741662
 30
0.0
 11
555.8494929687689
 21
588.3384752782268
 31
0.0
 70
   160
 71
     5
 42
6.5
  3
AM_ANSI
100
AcDbAlignedDimension
 13
591.1286482374386
 23
584.8980964741662
 33
0.0
 14
578.8786482374387
 24
591.3980964741662
 34
0.0
 50
90.0
100
AcDbRotatedDimension
1001
ACAD
1000
DSTYLE
1002
{
1070
   279
1070
     1
1070
   144
1040
-0.7142857142857144
1070
   173
1070
     1
1070
   343
1005
232C
1002
}
  0
DIMENSION
  5
2FF3
330
1F
100
AcDbEntity
  8
AM_REFDIM
100
AcDbDimension
  2
*D102
 10
555.8494929687689
 20
578.3980964741662
 30
0.0
 11
555.8494929687689
 21
581.8512839176114
 31
0.0
 70
   160
 71
     5
 42
6.5
  3
AM_ANSI
100
AcDbAlignedDimension
 13
591.1286482374386
 23
584.8980964741662
 33
0.0
 14
608.8786482374386
 24
578.3980964741662
 34
0.0
 50
90.0
100
AcDbRotatedDimension
1001
ACAD
1000
DSTYLE
1002
{
1070
   279
1070
     1
1070
   144
1040
-0.7142857142857144
1070
   173
1070
     1
1070
   343
1005
232C
1002
}
  0
LINE
  5
2FF4
330
1F
100
AcDbEntity
  8
AM_7
100
AcDbLine
 10
596.2715053802958
 20
563.729643807611
 30
0.0
 11
596.2715053802958
 21
625.197425284445
 31
0.0
  0
DIMENSION
  5
2FF5
330
1F
100
AcDbEntity
  8
AM_REFDIM
100
AcDbDimension
  2
*D103
 10
583.0715053802958
 20
556.5867866647539
 30
0.0
 11
589.6715053802958
 21
558.656786664754
 31
0.0
 70
    32
 71
     5
 42
13.20000000000004
  3
AM_ANSI
100
AcDbAlignedDimension
 13
596.2715053802958
 23
563.729643807611
 33
0.0
 14
583.0715053802958
 24
579.2552393313091
 34
0.0
100
AcDbRotatedDimension
1001
ACAD
1000
DSTYLE
1002
{
1070
   144
1040
-0.7142857142857144
1002
}
  0
DIMENSION
  5
2FF6
330
1F
100
AcDbEntity
  8
AM_REFDIM
100
AcDbDimension
  2
*D104
 10
609.4715053802958
 20
556.5867866647539
 30
0.0
 11
602.8715053802958
 21
558.656786664754
 31
0.0
 70
    32
 71
     5
 42
13.20000000000004
  3
AM_ANSI
100
AcDbAlignedDimension
 13
596.2715053802958
 23
563.729643807611
 33
0.0
 14
609.4715053802958
 24
580.255239331309
 34
0.0
100
AcDbRotatedDimension
1001
ACAD
1000
DSTYLE
1002
{
1070
   144
1040
-0.7142857142857144
1002
}
  0
DIMENSION
  5
2FF7
330
1F
100
AcDbEntity
  8
AM_REFDIM
100
AcDbDimension
  2
*D105
 10
581.2715053802958
 20
550.8725009504683
 30
0.0
 11
588.7715053802958
 21
552.9425009504683
 31
0.0
 70
    32
  1
<>
 71
     5
 42
15.0
  3
AM_ANSI
100
AcDbAlignedDimension
 13
596.2715053802958
 23
563.729643807611
 33
0.0
 14
581.2715053802958
 24
589.005239331309
 34
0.0
100
AcDbRotatedDimension
1001
ACAD
1000
DSTYLE
1002
{
1070
   144
1040
-0.7142857142857144
1002
}
  0
DIMENSION
  5
2FF8
330
1F
100
AcDbEntity
  8
AM_REFDIM
100
AcDbDimension
  2
*D106
 10
611.2715053802958
 20
550.8725009504683
 30
0.0
 11
603.7715053802958
 21
552.9425009504683
 31
0.0
 70
    32
 71
     5
 42
15.0
  3
AM_ANSI
100
AcDbAlignedDimension
 13
596.2715053802958
 23
563.729643807611
 33
0.0
 14
611.2715053802958
 24
576.0052393313091
 34
0.0
100
AcDbRotatedDimension
1001
ACAD
1000
DSTYLE
1002
{
1070
   144
1040
-0.7142857142857144
1002
}
  0
DIMENSION
  5
2FF9
330
1F
100
AcDbEntity
  8
AM_REFDIM
100
AcDbDimension
  2
*D107
 10
637.2715053802957
 20
565.8980964741662
 30
0.0
 11
635.2015053802956
 21
568.3980964741663
 31
0.0
 70
    32
 71
     5
 42
5.0
  3
AM_ANSI
100
AcDbAlignedDimension
 13
609.6643625231529
 23
570.8980964741662
 33
0.0
 14
625.2715053802958
 24
565.8980964741662
 34
0.0
 50
90.0
100
AcDbRotatedDimension
1001
ACAD
1000
DSTYLE
1002
{
1070
   144
1040
-0.7142857142857144
1002
}
  0
DIMENSION
  5
2FFC
330
1F
100
AcDbEntity
  8
AM_REFDIM
100
AcDbDimension
  2
*D110
 10
637.2715053802957
 20
617.8980964741661
 30
0.0
 11
635.2015053802956
 21
594.3980964741663
 31
0.0
 70
    32
  1
P
 71
     5
 42
47.0
  3
AM_ANSI
100
AcDbAlignedDimension
 13
608.6107910945814
 23
570.8980964741662
 33
0.0
 14
609.6643625231529
 24
617.8980964741661
 34
0.0
 50
90.0
100
AcDbRotatedDimension
1001
ACAD
1000
DSTYLE
1002
{
1070
   144
1040
-0.7142857142857144
1070
   174
1070
     1
1002
}
  0
DIMENSION
  5
2FFD
330
1F
100
AcDbEntity
  8
AM_REFDIM
100
AcDbDimension
  2
*D111
 10
645.2715053802958
 20
622.8980964741662
 30
0.0
 11
643.2015053802956
 21
594.3980964741663
 31
0.0
 70
    32
  1
L
 71
     5
 42
57.0
  3
AM_ANSI
100
AcDbAlignedDimension
 13
625.2715053802958
 23
565.8980964741662
 33
0.0
 14
625.2715053802958
 24
622.8980964741662
 34
0.0
 50
90.0
100
AcDbRotatedDimension
1001
ACAD
1000
DSTYLE
1002
{
1070
   144
1040
-0.7142857142857144
1002
}
  0
DIMENSION
  5
2FFE
330
1F
100
AcDbEntity
  8
AM_REFDIM
100
AcDbDimension
  2
*D112
 10
561.5637786830546
 20
584.398096474166
 30
0.0
 11
561.5637786830546
 21
581.0991458353496
 31
0.0
 70
   160
 71
     5
 42
0.5000000000001137
  3
AM_ANSI
100
AcDbAlignedDimension
 13
591.1286482374386
 23
584.8980964741662
 33
0.0
 14
577.9286482374386
 24
584.398096474166
 34
0.0
 50
90.0
100
AcDbRotatedDimension
1001
ACAD
1000
DSTYLE
1002
{
1070
   279
1070
     1
1070
   144
1040
-0.7142857142857144
1070
   173
1070
     1
1070
   343
1005
232C
1002
}
  0
DIMENSION
  5
2FFF
330
1F
100
AcDbEntity
  8
AM_REFDIM
100
AcDbDimension
  2
*D113
 10
561.5637786830546
 20
585.3980964741662
 30
0.0
 11
561.5637786830546
 21
588.3384752782268
 31
0.0
 70
   160
 71
     5
 42
0.5
  3
AM_ANSI
100
AcDbAlignedDimension
 13
591.1286482374386
 23
584.8980964741662
 33
0.0
 14
604.3286482374386
 24
585.3980964741662
 34
0.0
 50
90.0
100
AcDbRotatedDimension
1001
ACAD
1000
DSTYLE
1002
{
1070
   279
1070
     1
1070
   144
1040
-0.7142857142857144
1070
   173
1070
     1
1070
   343
1005
232C
1002
}
  0
DIMENSION
  5
3000
330
1F
100
AcDbEntity
  8
AM_REFDIM
100
AcDbDimension
  2
*D114
 10
606.2715053802958
 20
629.8623821884518
 30
0.0
 11
596.2715053802958
 21
631.9323821884519
 31
0.0
 70
    32
 71
     5
 42
20.0
  3
AM_ANSI
100
AcDbAlignedDimension
 13
586.2715053802958
 23
621.2909536170233
 33
0.0
 14
606.2715053802958
 24
621.2909536170233
 34
0.0
100
AcDbRotatedDimension
1001
ACAD
1000
DSTYLE
1002
{
1070
   144
1040
-0.7142857142857144
1002
}
  0
DIMENSION
  5
3001
330
1F
100
AcDbEntity
  8
AM_REFDIM
100
AcDbDimension
  2
*D115
 10
604.8506779786841
 20
616.1534619867075
 30
0.0
 11
633.8792082820361
 21
629.8916431811228
 31
0.0
 70
   163
  1
2×2-<> thru
 71
     5
 42
4.499999999999772
  3
AM_ANSI$3
100
AcDbDiametricDimension
 15
607.6923327819071
 25
619.6427309616243
 35
0.0
 40
0.0
1001
ACAD
1000
DSTYLE
1002
{
1070
    74
1070
     1
1070
   144
1040
-0.7142857142857144
1070
   271
1070
     1
1070
   289
1070
     3
1002
}
  0
DIMENSION
  5
3002
330
1F
100
AcDbEntity
  8
AM_REFDIM
100
AcDbDimension
  2
*D116
 10
582.1733205811235
 20
609.5325161234442
 30
0.0
 11
542.1104241119094
 21
628.2485315110256
 31
0.0
 70
   163
  1
2×N-M3×0.5×5L
 71
     5
 42
2.499999999999886
  3
AM_ANSI$3
100
AcDbDiametricDimension
 15
580.3696901794684
 25
611.2636768248884
 35
0.0
 40
0.0
1001
ACAD
1000
DSTYLE
1002
{
1070
    74
1070
     1
1070
   144
1040
-0.7142857142857144
1070
   271
1070
     1
1070
   289
1070
     3
1002
}
  0
MTEXT
  5
3009
102
{ACAD_REACTORS
330
3008
102
}
330
1F
100
AcDbEntity
  8
AM_5
100
AcDbMText
 10
821.9368274317
 20
718.6855758545739
 30
0.0
 40
5.0
 41
6.389899999999999
 71
     9
 72
     1
  1

  7
dayus
 73
     1
 44
1.0
1001
ACAD
1000
MTEXTBEGIN
1070
    73
1070
     1
1070
    44
1040
1.0
1070
    74
1070
     0
1000
MTEXTEND
  0
DIMENSION
  5
300C
330
1F
100
AcDbEntity
  8
AM_REFDIM
100
AcDbDimension
  2
*D117
 10
625.2715053802958
 20
498.9765237058659
 30
0.0
 11
596.2715053802958
 21
501.7536665630087
 31
0.0
 70
    32
  1
(<>)
 71
     5
 42
58.0
  3
AM_ANSI
100
AcDbAlignedDimension
 13
567.2715053802958
 23
515.457230551539
 33
0.0
 14
625.2715053802958
 24
515.457230551539
 34
0.0
100
AcDbRotatedDimension
1001
ACAD
1000
DSTYLE
1002
{
1070
   144
1040
-0.7142857142857144
1002
}
  0
DIMENSION
  5
300D
330
1F
100
AcDbEntity
  8
AM_REFDIM
100
AcDbDimension
  2
*D118
 10
653.2715053802958
 20
539.957230551539
 30
0.0
 11
651.2015053802956
 21
527.7072305515392
 31
0.0
 70
    32
  1
<>
 71
     5
 42
24.5
  3
AM_ANSI
100
AcDbAlignedDimension
 13
625.2715053802958
 23
515.457230551539
 33
0.0
 14
619.0215053802958
 24
539.957230551539
 34
0.0
 50
90.0
100
AcDbRotatedDimension
1001
ACAD
1000
DSTYLE
1002
{
1070
    47
1040
0.2
1070
    48
1040
0.0
1070
   144
1040
-0.7142857142857144
1002
}
  0
DIMENSION
  5
300E
330
1F
100
AcDbEntity
  8
AM_REFDIM
100
AcDbDimension
  2
*D119
 10
599.778514632244
 20
582.9743277493061
 30
0.0
 11
550.7528124380536
 21
603.6858909528659
 31
0.0
 70
   163
  1
N-<>×6L
 71
     5
 42
8.000000000000113
  3
AM_ANSI$3
100
AcDbDiametricDimension
 15
592.7644961283469
 25
586.8218651990253
 35
0.0
 40
0.0
1001
ACAD
1000
DSTYLE
1002
{
1070
    74
1070
     1
1070
   144
1040
-0.7142857142857144
1070
   271
1070
     1
1070
   289
1070
     3
1002
}
  0
DIMENSION
  5
300F
330
1F
100
AcDbEntity
  8
AM_REFDIM
100
AcDbDimension
  2
*D120
 10
580.2688951200995
 20
522.3938729167605
 30
0.0
 11
548.6756216019137
 21
540.2221206080122
 31
0.0
 70
   163
  1
3×2-PT1/4
 71
     5
 42
11.4000000000002
  3
AM_ANSI$3
100
AcDbDiametricDimension
 15
572.2741156404922
 25
530.5205881863177
 35
0.0
 40
0.0
1001
ACAD
1000
DSTYLE
1002
{
1070
    74
1070
     1
1070
   144
1040
-0.7142857142857144
1070
   271
1070
     1
1070
   289
1070
     3
1002
}
  0
DIMENSION
  5
3019
330
1F
100
AcDbEntity
  8
AM_REFDIM
100
AcDbDimension
  2
*D121
 10
586.550985481833
 20
586.3712204497464
 30
0.0
 11
537.8828389504194
 21
567.7376002295809
 31
0.0
 70
   163
  1
2×N-<>×14L
 71
     5
 42
8.000000000000454
  3
AM_ANSI$3
100
AcDbDiametricDimension
 15
579.5920252787588
 25
582.4249724985859
 35
0.0
 40
0.0
1001
ACAD
1000
DSTYLE
1002
{
1070
    74
1070
     1
1070
   144
1040
-0.7142857142857144
1070
   271
1070
     1
1070
   289
1070
     3
1002
}
  0
LINE
  5
301C
330
1F
100
AcDbEntity
  8
AM_7
100
AcDbLine
 10
575.5572196660101
 20
526.4572305515391
 30
0.0
 11
576.9857910945815
 21
526.4572305515391
 31
0.0
  0
LINE
  5
301D
330
1F
100
AcDbEntity
  8
AM_7
100
AcDbLine
 10
576.2715053802958
 20
525.7429448372533
 30
0.0
 11
576.2715053802958
 21
527.1715162658247
 31
0.0
  0
LINE
  5
301E
330
1F
100
AcDbEntity
  8
AM_7
100
AcDbLine
 10
569.4286482374386
 20
526.4572305515391
 30
0.0
 11
574.9857910945816
 21
526.4572305515391
 31
0.0
  0
LINE
  5
301F
330
1F
100
AcDbEntity
  8
AM_7
100
AcDbLine
 10
577.5572196660101
 20
526.4572305515391
 30
0.0
 11
583.1143625231529
 21
526.4572305515391
 31
0.0
  0
LINE
  5
3020
330
1F
100
AcDbEntity
  8
AM_7
100
AcDbLine
 10
576.2715053802958
 20
519.6143734086819
 30
0.0
 11
576.2715053802958
 21
525.1715162658248
 31
0.0
  0
LINE
  5
3021
330
1F
100
AcDbEntity
  8
AM_7
100
AcDbLine
 10
576.2715053802958
 20
527.7429448372532
 30
0.0
 11
576.2715053802958
 21
533.3000876943962
 31
0.0
  0
LINE
  5
3025
102
{ACAD_REACTORS
330
3418
102
}
330
1F
100
AcDbEntity
  8
AM_7
100
AcDbLine
 10
587.9933378335608
 20
531.457230551539
 30
0.0
 11
604.1143625231529
 21
531.457230551539
 31
0.0
  0
LINE
  5
3026
330
1F
100
AcDbEntity
  8
AM_7
100
AcDbLine
 10
596.2715053802958
 20
523.2643734086819
 30
0.0
 11
596.2715053802958
 21
540.8470683915713
 31
0.0
  0
LINE
  5
3028
330
1F
100
AcDbEntity
  8
AM_7
100
AcDbLine
 10
615.55721966601
 20
526.4572305515391
 30
0.0
 11
616.9857910945815
 21
526.4572305515391
 31
0.0
  0
LINE
  5
3029
330
1F
100
AcDbEntity
  8
AM_7
100
AcDbLine
 10
616.2715053802958
 20
525.7429448372533
 30
0.0
 11
616.2715053802958
 21
527.1715162658247
 31
0.0
  0
LINE
  5
302A
330
1F
100
AcDbEntity
  8
AM_7
100
AcDbLine
 10
609.4286482374386
 20
526.4572305515391
 30
0.0
 11
614.9857910945816
 21
526.4572305515391
 31
0.0
  0
LINE
  5
302B
102
{ACAD_REACTORS
330
33C0
102
}
330
1F
100
AcDbEntity
  8
AM_7
100
AcDbLine
 10
617.55721966601
 20
526.4572305515391
 30
0.0
 11
623.1143625231529
 21
526.4572305515391
 31
0.0
  0
LINE
  5
302C
330
1F
100
AcDbEntity
  8
AM_7
100
AcDbLine
 10
616.2715053802958
 20
519.6143734086819
 30
0.0
 11
616.2715053802958
 21
525.1715162658248
 31
0.0
  0
LINE
  5
302D
330
1F
100
AcDbEntity
  8
AM_7
100
AcDbLine
 10
616.2715053802958
 20
527.7429448372532
 30
0.0
 11
616.2715053802958
 21
533.3000876943962
 31
0.0
  0
DIMENSION
  5
302E
330
1F
100
AcDbEntity
  8
AM_REFDIM
100
AcDbDimension
  2
*D122
 10
596.2715053802958
 20
506.9765237058659
 30
0.0
 11
586.2715053802958
 21
509.0465237058658
 31
0.0
 70
    32
 71
     5
 42
14.28571428571429
  3
AM_ANSI$0
100
AcDbAlignedDimension
 13
576.2715053802958
 23
519.6143734086819
 33
0.0
 14
596.2715053802958
 24
524.6143734086818
 34
0.0
100
AcDbRotatedDimension
1001
ACAD
1000
DSTYLE
1002
{
1070
   144
1040
0.7142857142857144
1070
   174
1070
     1
1070
   272
1070
     8
1002
}
  0
DIMENSION
  5
302F
330
1F
100
AcDbEntity
  8
AM_REFDIM
100
AcDbDimension
  2
*D123
 10
616.2715053802958
 20
506.9765237058659
 30
0.0
 11
606.2715053802958
 21
509.0465237058658
 31
0.0
 70
    32
 71
     5
 42
14.28571428571429
  3
AM_ANSI$0
100
AcDbAlignedDimension
 13
596.2715053802958
 23
524.6143734086818
 33
0.0
 14
616.2715053802958
 24
519.6143734086819
 34
0.0
100
AcDbRotatedDimension
1001
ACAD
1000
DSTYLE
1002
{
1070
   174
1070
     1
1070
   144
1040
0.7142857142857144
1070
   272
1070
     8
1002
}
  0
CIRCLE
  5
303A
330
1F
100
AcDbEntity
  8
AM_VIS
100
AcDbCircle
 10
586.2715053802958
 20
570.8980964741662
 30
0.0
 40
2.249999999999997
  0
CIRCLE
  5
303B
330
1F
100
AcDbEntity
  8
AM_VIS
100
AcDbCircle
 10
606.2715053802958
 20
570.8980964741662
 30
0.0
 40
2.249999999999997
  0
CIRCLE
  5
303C
330
1F
100
AcDbEntity
  8
AM_VIS
100
AcDbCircle
 10
586.2715053802958
 20
617.8980964741661
 30
0.0
 40
2.249999999999997
  0
CIRCLE
  5
303D
330
1F
100
AcDbEntity
  8
AM_VIS
100
AcDbCircle
 10
606.2715053802958
 20
617.8980964741661
 30
0.0
 40
2.249999999999997
  0
CIRCLE
  5
303E
330
1F
100
AcDbEntity
  8
AM_VIS
100
AcDbCircle
 10
596.2715053802958
 20
584.8980964741662
 30
0.0
 40
3.999999999999996
  0
CIRCLE
  5
303F
330
1F
100
AcDbEntity
  8
AM_VIS
100
AcDbCircle
 10
583.0715053802958
 20
584.3980964741661
 30
0.0
 40
3.999999999999996
  0
CIRCLE
  5
3040
330
1F
100
AcDbEntity
  8
AM_VIS
100
AcDbCircle
 10
609.4715053802958
 20
585.3980964741662
 30
0.0
 40
3.999999999999996
  0
CIRCLE
  5
3042
330
1F
100
AcDbEntity
  8
AM_VIS
100
AcDbCircle
 10
609.4715053802958
 20
604.3980964741661
 30
0.0
 40
3.999999999999996
  0
CIRCLE
  5
3043
330
1F
100
AcDbEntity
  8
AM_VIS
100
AcDbCircle
 10
596.2715053802958
 20
603.8980964741662
 30
0.0
 40
3.999999999999996
  0
CIRCLE
  5
3044
330
1F
100
AcDbEntity
  8
AM_VIS
100
AcDbCircle
 10
583.0715053802958
 20
603.3980964741662
 30
0.0
 40
3.999999999999996
  0
CIRCLE
  5
304C
330
1F
100
AcDbEntity
  8
AM_VIS
100
AcDbCircle
 10
611.2715053802958
 20
597.3980964741662
 30
0.0
 40
1.249999999999998
  0
CIRCLE
  5
304D
330
1F
100
AcDbEntity
  8
AM_VIS
100
AcDbCircle
 10
581.2715053802958
 20
610.3980964741662
 30
0.0
 40
1.249999999999998
  0
CIRCLE
  5
304E
330
1F
100
AcDbEntity
  8
AM_VIS
100
AcDbCircle
 10
611.2715053802958
 20
578.3980964741662
 30
0.0
 40
1.249999999999998
  0
CIRCLE
  5
304F
330
1F
100
AcDbEntity
  8
AM_VIS
100
AcDbCircle
 10
581.2715053802958
 20
591.3980964741662
 30
0.0
 40
1.249999999999998
  0
LINE
  5
3050
330
1F
100
AcDbEntity
  8
AM_VIS
100
AcDbLine
 10
625.2715053802958
 20
566.8980964741662
 30
0.0
 11
624.2715053802958
 21
565.8980964741663
 31
0.0
  0
LINE
  5
3051
330
1F
100
AcDbEntity
  8
AM_VIS
100
AcDbLine
 10
573.9692428359474
 20
565.8980964741663
 30
0.0
 11
618.5737679246441
 21
565.8980964741663
 31
0.0
  0
LINE
  5
3052
330
1F
100
AcDbEntity
  8
AM_VIS
100
AcDbLine
 10
618.5737679246441
 20
565.8980964741663
 30
0.0
 11
619.0215053802958
 21
566.8980964741662
 31
0.0
  0
LINE
  5
3053
330
1F
100
AcDbEntity
  8
AM_VIS
100
AcDbLine
 10
619.0215053802958
 20
566.8980964741662
 30
0.0
 11
573.5215053802958
 21
566.8980964741662
 31
0.0
  0
LINE
  5
3054
330
1F
100
AcDbEntity
  8
AM_VIS
100
AcDbLine
 10
573.5215053802958
 20
566.8980964741662
 30
0.0
 11
573.9692428359474
 21
565.8980964741663
 31
0.0
  0
LINE
  5
3055
330
1F
100
AcDbEntity
  8
AM_VIS
100
AcDbLine
 10
568.2715053802958
 20
565.8980964741663
 30
0.0
 11
573.9692428359474
 21
565.8980964741663
 31
0.0
  0
LINE
  5
3056
330
1F
100
AcDbEntity
  8
AM_VIS
100
AcDbLine
 10
573.5215053802958
 20
566.8980964741662
 30
0.0
 11
567.2715053802958
 21
566.8980964741662
 31
0.0
  0
LINE
  5
3057
330
1F
100
AcDbEntity
  8
AM_VIS
100
AcDbLine
 10
567.2715053802958
 20
566.8980964741662
 30
0.0
 11
568.2715053802958
 21
565.8980964741663
 31
0.0
  0
LINE
  5
3058
330
1F
100
AcDbEntity
  8
AM_VIS
100
AcDbLine
 10
618.5737679246441
 20
565.8980964741663
 30
0.0
 11
624.2715053802958
 21
565.8980964741663
 31
0.0
  0
LINE
  5
3059
330
1F
100
AcDbEntity
  8
AM_VIS
100
AcDbLine
 10
625.2715053802958
 20
566.8980964741662
 30
0.0
 11
619.0215053802958
 21
566.8980964741662
 31
0.0
  0
LINE
  5
305A
330
1F
100
AcDbEntity
  8
AM_VIS
100
AcDbLine
 10
618.5737679246441
 20
622.8980964741662
 30
0.0
 11
573.9692428359474
 21
622.8980964741662
 31
0.0
  0
LINE
  5
305B
330
1F
100
AcDbEntity
  8
AM_VIS
100
AcDbLine
 10
573.9692428359474
 20
622.8980964741662
 30
0.0
 11
573.5215053802958
 21
621.8980964741661
 31
0.0
  0
LINE
  5
305C
330
1F
100
AcDbEntity
  8
AM_VIS
100
AcDbLine
 10
573.5215053802958
 20
621.8980964741661
 30
0.0
 11
619.0215053802958
 21
621.8980964741661
 31
0.0
  0
LINE
  5
305D
330
1F
100
AcDbEntity
  8
AM_VIS
100
AcDbLine
 10
619.0215053802958
 20
621.8980964741661
 30
0.0
 11
618.5737679246441
 21
622.8980964741662
 31
0.0
  0
LINE
  5
305E
330
1F
100
AcDbEntity
  8
AM_VIS
100
AcDbLine
 10
567.2715053802958
 20
621.8980964741661
 30
0.0
 11
568.2715053802958
 21
622.8980964741662
 31
0.0
  0
LINE
  5
305F
330
1F
100
AcDbEntity
  8
AM_VIS
100
AcDbLine
 10
573.9692428359474
 20
622.8980964741662
 30
0.0
 11
568.2715053802958
 21
622.8980964741662
 31
0.0
  0
LINE
  5
3060
330
1F
100
AcDbEntity
  8
AM_VIS
100
AcDbLine
 10
567.2715053802958
 20
621.8980964741661
 30
0.0
 11
573.5215053802958
 21
621.8980964741661
 31
0.0
  0
LINE
  5
3061
102
{ACAD_REACTORS
330
3577
102
}
330
1F
100
AcDbEntity
  8
AM_VIS
100
AcDbLine
 10
624.2715053802958
 20
622.8980964741662
 30
0.0
 11
618.5737679246441
 21
622.8980964741662
 31
0.0
  0
LINE
  5
3062
330
1F
100
AcDbEntity
  8
AM_VIS
100
AcDbLine
 10
619.0215053802958
 20
621.8980964741661
 30
0.0
 11
625.2715053802958
 21
621.8980964741661
 31
0.0
  0
LINE
  5
3063
330
1F
100
AcDbEntity
  8
AM_VIS
100
AcDbLine
 10
625.2715053802958
 20
621.8980964741661
 30
0.0
 11
624.2715053802958
 21
622.8980964741662
 31
0.0
  0
LINE
  5
3064
330
1F
100
AcDbEntity
  8
AM_VIS
100
AcDbLine
 10
625.2715053802958
 20
566.8980964741662
 30
0.0
 11
625.2715053802958
 21
621.8980964741661
 31
0.0
  0
LINE
  5
3065
330
1F
100
AcDbEntity
  8
AM_VIS
100
AcDbLine
 10
619.0215053802958
 20
621.8980964741661
 30
0.0
 11
619.0215053802958
 21
566.8980964741662
 31
0.0
  0
LINE
  5
3066
330
1F
100
AcDbEntity
  8
AM_VIS
100
AcDbLine
 10
573.5215053802958
 20
566.8980964741662
 30
0.0
 11
573.5215053802958
 21
621.8980964741661
 31
0.0
  0
LINE
  5
3067
330
1F
100
AcDbEntity
  8
AM_VIS
100
AcDbLine
 10
567.2715053802958
 20
621.8980964741661
 30
0.0
 11
567.2715053802958
 21
566.8980964741662
 31
0.0
  0
ARC
  5
306A
330
1F
100
AcDbEntity
  8
AM_VIS
100
AcDbCircle
 10
602.9536021651978
 20
603.3980964741662
 30
0.0
 40
21.35209805255622
100
AcDbArc
 50
169.6410246747668
 51
190.3589753252331
  0
ARC
  5
306B
330
1F
100
AcDbEntity
  8
AM_VIS
100
AcDbCircle
 10
589.5894085953939
 20
604.3980964741661
 30
0.0
 40
21.35209805255613
100
AcDbArc
 50
349.6410246747668
 51
10.35897532523313
  0
ARC
  5
306C
330
1F
100
AcDbEntity
  8
AM_VIS
100
AcDbCircle
 10
589.5894085953937
 20
585.3980964741662
 30
0.0
 40
21.35209805255636
100
AcDbArc
 50
349.6410246747668
 51
10.35897532523313
  0
ARC
  5
306D
330
1F
100
AcDbEntity
  8
AM_VIS
100
AcDbCircle
 10
602.9536021651979
 20
584.3980964741661
 30
0.0
 40
21.35209805255624
100
AcDbArc
 50
169.6410246747668
 51
190.3589753252331
  0
LINE
  5
306E
330
1F
100
AcDbEntity
  8
AM_VIS
100
AcDbLine
 10
625.2715053802958
 20
532.957230551539
 30
0.0
 11
619.0215053802958
 21
539.957230551539
 31
0.0
  0
LINE
  5
3070
330
1F
100
AcDbEntity
  8
AM_VIS
100
AcDbLine
 10
578.2715053802958
 20
515.457230551539
 30
0.0
 11
585.2715053802958
 21
522.457230551539
 31
0.0
  0
LINE
  5
3072
330
1F
100
AcDbEntity
  8
AM_VIS
100
AcDbLine
 10
567.2715053802958
 20
532.957230551539
 30
0.0
 11
567.2715053802958
 21
515.457230551539
 31
0.0
  0
LINE
  5
3075
330
1F
100
AcDbEntity
  8
AM_VIS
100
AcDbLine
 10
567.2715053802958
 20
515.457230551539
 30
0.0
 11
578.2715053802958
 21
515.457230551539
 31
0.0
  0
LINE
  5
3079
330
1F
100
AcDbEntity
  8
AM_VIS
100
AcDbLine
 10
573.5215053802958
 20
539.957230551539
 30
0.0
 11
567.2715053802958
 21
532.957230551539
 31
0.0
  0
LINE
  5
307C
330
1F
100
AcDbEntity
  8
AM_VIS
100
AcDbLine
 10
619.0215053802958
 20
539.957230551539
 30
0.0
 11
573.5215053802958
 21
539.957230551539
 31
0.0
  0
LINE
  5
3081
330
1F
100
AcDbEntity
  8
AM_VIS
100
AcDbLine
 10
585.2715053802958
 20
522.457230551539
 30
0.0
 11
607.2715053802958
 21
522.457230551539
 31
0.0
  0
LINE
  5
3084
330
1F
100
AcDbEntity
  8
AM_VIS
100
AcDbLine
 10
607.2715053802958
 20
522.457230551539
 30
0.0
 11
614.2715053802958
 21
515.457230551539
 31
0.0
  0
LINE
  5
3086
102
{ACAD_REACTORS
330
33C0
102
}
330
1F
100
AcDbEntity
  8
AM_VIS
100
AcDbLine
 10
625.2715053802958
 20
515.457230551539
 30
0.0
 11
625.2715053802958
 21
532.957230551539
 31
0.0
  0
LINE
  5
308B
102
{ACAD_REACTORS
330
3418
102
}
330
1F
100
AcDbEntity
  8
AM_VIS
100
AcDbLine
 10
614.2715053802958
 20
515.457230551539
 30
0.0
 11
625.2715053802958
 21
515.457230551539
 31
0.0
  0
CIRCLE
  5
3096
330
1F
100
AcDbEntity
  8
AM_VIS
100
AcDbCircle
 10
576.2715053802958
 20
526.4572305515391
 30
0.0
 40
5.699999999999994
  0
CIRCLE
  5
3097
330
1F
100
AcDbEntity
  8
AM_VIS
100
AcDbCircle
 10
596.2715053802958
 20
531.457230551539
 30
0.0
 40
5.699999999999994
  0
CIRCLE
  5
3098
330
1F
100
AcDbEntity
  8
AM_VIS
100
AcDbCircle
 10
616.2715053802958
 20
526.4572305515391
 30
0.0
 40
5.699999999999994
  0
CIRCLE
  5
309B
330
1F
100
AcDbEntity
  8
AM_VIS
100
AcDbCircle
 10
596.2715053802958
 20
531.457230551539
 30
0.0
 40
6.899999999999992
  0
CIRCLE
  5
309C
330
1F
100
AcDbEntity
  8
AM_VIS
100
AcDbCircle
 10
576.2715053802958
 20
526.4572305515391
 30
0.0
 40
6.899999999999992
  0
CIRCLE
  5
309D
330
1F
100
AcDbEntity
  8
AM_VIS
100
AcDbCircle
 10
616.2715053802958
 20
526.4572305515391
 30
0.0
 40
6.899999999999992
  0
DIMENSION
  5
33B2
102
{ACAD_XDICTIONARY
360
33BF
102
}
102
{ACAD_REACTORS
330
33C0
102
}
330
1F
100
AcDbEntity
  8
AM_5
100
AcDbDimension
  2
*D126
 10
637.2715053802957
 20
526.4572305515391
 30
0.0
 11
634.8215053802956
 21
520.9572305515392
 31
0.0
 70
    32
 71
     5
 42
11.0
  3
AM_ISO$0
100
AcDbAlignedDimension
 13
625.2715053802958
 23
515.457230551539
 33
0.0
 14
623.1143625231529
 24
526.4572305515391
 34
0.0
 50
90.0
100
AcDbRotatedDimension
1001
ACAD
1000
DSTYLE
1002
{
1070
   174
1070
     1
1070
   272
1070
     8
1002
}
  0
DIMENSION
  5
340A
102
{ACAD_XDICTIONARY
360
3417
102
}
102
{ACAD_REACTORS
330
3418
102
}
330
1F
100
AcDbEntity
  8
AM_5
100
AcDbDimension
  2
*D128
 10
645.2715053802958
 20
531.457230551539
 30
0.0
 11
642.8215053802956
 21
523.4572305515391
 31
0.0
 70
    32
 71
     5
 42
16.0
  3
AM_ISO$0
100
AcDbAlignedDimension
 13
625.2715053802958
 23
515.457230551539
 33
0.0
 14
604.1143625231529
 24
531.457230551539
 34
0.0
 50
90.0
100
AcDbRotatedDimension
1001
ACAD
1000
DSTYLE
1002
{
1070
    40
1040
1.0
1070
   144
1040
1.0
1070
   272
1070
     8
1002
}
  0
DIMENSION
  5
3567
102
{ACAD_XDICTIONARY
360
3576
102
}
102
{ACAD_REACTORS
330
3577
102
}
330
1F
100
AcDbEntity
  8
AM_5
100
AcDbDimension
  2
*D129
 10
637.2715053802957
 20
622.8980964741662
 30
0.0
 11
634.8215053802956
 21
620.3980964741663
 31
0.0
 70
    32
 71
     5
 42
5.0
  3
AM_ISO$0
100
AcDbAlignedDimension
 13
609.6643625231529
 23
617.8980964741661
 33
0.0
 14
624.2715053802958
 24
622.8980964741662
 34
0.0
 50
90.0
100
AcDbRotatedDimension
1001
ACAD
1000
DSTYLE
1002
{
1070
   174
1070
     1
1070
    40
1040
1.0
1070
   144
1040
1.0
1070
   272
1070
     8
1002
}
  0
ARC
  5
3635
330
1F
100
AcDbEntity
  8
AM_4
100
AcDbCircle
 10
611.2715053802958
 20
597.3980964741662
 30
0.0
 40
1.499999999999998
100
AcDbArc
 50
248.3204641148091
 51
203.3033583986846
  0
ARC
  5
3636
330
1F
100
AcDbEntity
  8
AM_4
100
AcDbCircle
 10
611.2715053802958
 20
578.3980964741662
 30
0.0
 40
1.499999999999998
100
AcDbArc
 50
248.3204641148091
 51
203.3033583986846
  0
ARC
  5
3637
330
1F
100
AcDbEntity
  8
AM_4
100
AcDbCircle
 10
581.2715053802958
 20
591.3980964741662
 30
0.0
 40
1.499999999999998
100
AcDbArc
 50
248.3204641148091
 51
203.3033583986846
  0
INSERT
  5
37C2
330
1F
100
AcDbEntity
  8
0
100
AcDbBlockReference
  2
A$C34B3331A
 10
657.4353742457868
 20
611.8427536445781
 30
0.0
  0
ENDSEC
  0
SECTION
  2
OBJECTS
  0
DICTIONARY
  5
C
330
0
100
AcDbDictionary
281
     1
  3
ACAD_COLOR
350
BE
  3
ACAD_GROUP
350
D
  3
ACAD_LAYOUT
350
1A
  3
ACAD_MATERIAL
350
BD
  3
ACAD_MLINESTYLE
350
17
  3
ACAD_PLOTSETTINGS
350
19
  3
ACAD_PLOTSTYLENAME
350
E
  3
ACAD_TABLESTYLE
350
11A
  3
ACDBHEADERROUNDTRIPXREC
350
3CC8
  3
AcDbVariableDictionary
350
94
  3
AcmDictionary
350
5B
  3
AMG
350
41
  3
AMGSNAPSETTINGS
350
1B8
  3
DWGPROPS
350
3CC7
  0
DICTIONARY
  5
3F9
330
2
100
AcDbDictionary
280
     1
281
     1
  3
ACAD_LAYERFILTERS
360
135C
  3
ACAD_LAYERSTATES
360
AC4
  3
ACLYDICTIONARY
360
135B
  3
AMLAYER_GROUPCOLORS
360
EBF
  0
DICTIONARY
  5
8F
330
1F
100
AcDbDictionary
280
     1
281
     1
  3
ACAD_SORTENTS
360
EC5
  0
DICTIONARY
  5
2209
330
2205
100
AcDbDictionary
280
     1
281
     1
  3
ACAD_SORTENTS
360
220A
  0
DICTIONARY
  5
37BE
330
37AB
100
AcDbDictionary
280
     1
281
     1
  3
ACAD_SORTENTS
360
37BF
  0
DICTIONARY
  5
33BF
330
33B2
100
AcDbDictionary
280
     1
281
     1
  3
ACAD_DIMASSOC
360
33C0
  0
DICTIONARY
  5
3417
330
340A
100
AcDbDictionary
280
     1
281
     1
  3
ACAD_DIMASSOC
360
3418
  0
DICTIONARY
  5
3576
330
3567
100
AcDbDictionary
280
     1
281
     1
  3
ACAD_DIMASSOC
360
3577
  0
DICTIONARY
  5
BE
102
{ACAD_REACTORS
330
C
102
}
330
C
100
AcDbDictionary
281
     1
  0
DICTIONARY
  5
D
102
{ACAD_REACTORS
330
C
102
}
330
C
100
AcDbDictionary
281
     1
  0
DICTIONARY
  5
1A
102
{ACAD_REACTORS
330
C
102
}
330
C
100
AcDbDictionary
281
     1
  3
Model
350
22
  3
配置1
350
1E
  3
配置2
350
26
  0
DICTIONARY
  5
BD
102
{ACAD_REACTORS
330
C
102
}
330
C
100
AcDbDictionary
281
     1
  0
DICTIONARY
  5
17
102
{ACAD_REACTORS
330
C
102
}
330
C
100
AcDbDictionary
281
     1
  3
Standard
350
18
  0
DICTIONARY
  5
19
102
{ACAD_REACTORS
330
C
102
}
330
C
100
AcDbDictionary
281
     1
  0
ACDBDICTIONARYWDFLT
  5
E
102
{ACAD_REACTORS
330
C
102
}
330
C
100
AcDbDictionary
281
     1
  3
Normal
350
F
100
AcDbDictionaryWithDefault
340
F
  0
DICTIONARY
  5
11A
102
{ACAD_REACTORS
330
C
102
}
330
C
100
AcDbDictionary
281
     1
  3
Standard
350
11B
  0
DICTIONARY
  5
3CC8
102
{ACAD_REACTORS
330
C
102
}
330
C
100
AcDbDictionary
281
     1
  0
DICTIONARY
  5
94
102
{ACAD_REACTORS
330
C
102
}
330
C
100
AcDbDictionary
281
     1
  3
CTABLESTYLE
350
138
  3
DIMASSOC
350
96
  3
INDEXCTL
350
95
  3
PROJECTNAME
350
FB7
  0
DICTIONARY
  5
5B
102
{ACAD_REACTORS
330
C
102
}
330
C
100
AcDbDictionary
281
     1
  3
AcmBOM
350
1B5
  3
AcmStdDictionary
350
61
  3
AMDTSECTSYM_ARROWCOLOR
350
123
  0
DICTIONARY
  5
41
102
{ACAD_REACTORS
330
C
102
}
330
C
100
AcDbDictionary
281
     1
  0
DICTIONARY
  5
1B8
102
{ACAD_REACTORS
330
C
102
}
330
C
100
AcDbDictionary
281
     1
  0
XRECORD
  5
3CC7
102
{ACAD_REACTORS
330
C
102
}
330
C
100
AcDbXrecord
280
     1
  1
DWGPROPS COOKIE
  2

  3

  4

  6

  7

  8

  9

300
AmdtFileType=84
301
=
302
=
303
=
304
=
305
=
306
=
307
=
308
=
309
=
 40
0.1366240393518519
 41
2454013.612854456
 42
2455061.587015371
  1

 90
        1
  0
DICTIONARY
  5
135C
102
{ACAD_REACTORS
330
3F9
102
}
330
3F9
100
AcDbDictionary
281
     1
  0
DICTIONARY
  5
AC4
102
{ACAD_REACTORS
330
3F9
102
}
330
3F9
100
AcDbDictionary
281
     1
  0
DICTIONARY
  5
135B
102
{ACAD_REACTORS
330
3F9
102
}
330
3F9
100
AcDbDictionary
281
     1
1001
ACAD
1000
<All
  0
DICTIONARY
  5
EBF
102
{ACAD_REACTORS
330
3F9
102
}
330
3F9
100
AcDbDictionary
280
     1
281
     1
  0
SORTENTSTABLE
  5
EC5
102
{ACAD_REACTORS
330
8F
102
}
330
8F
100
AcDbSortentsTable
330
1F
331
20E7
  5
20E7
331
215D
  5
215D
331
20EF
  5
20EF
331
2126
  5
2126
331
20F7
  5
20F7
331
212E
  5
212E
331
2136
  5
2136
331
CA2
  5
CA2
331
CAA
  5
CAA
331
CB2
  5
CB2
331
CBA
  5
CBA
331
3635
  5
3635
331
308B
  5
308B
331
3054
  5
3054
331
2FDE
  5
2FDE
331
2F9F
  5
2F9F
331
305C
  5
305C
331
301D
  5
301D
331
2FA7
  5
2FA7
331
309B
  5
309B
331
3064
  5
3064
331
3025
  5
3025
331
306C
  5
306C
331
302D
  5
302D
331
2FF6
  5
2FF6
331
2F7E
  5
2F7E
331
220D
  5
220D
331
213E
  5
213E
331
2107
  5
2107
331
2146
  5
2146
331
214E
  5
214E
331
2156
  5
2156
331
CC2
  5
CC2
331
C93
  5
C93
331
C9B
  5
C9B
331
2FFE
  5
2FFE
331
307C
  5
307C
331
303D
  5
303D
331
2FC7
  5
2FC7
331
3084
  5
3084
331
300E
  5
300E
331
304D
  5
304D
331
2F86
  5
2F86
331
2F8E
  5
2F8E
331
2F96
  5
2F96
331
20E8
  5
20E8
331
211F
  5
211F
331
215E
  5
215E
331
20F0
  5
20F0
331
2127
  5
2127
331
212F
  5
212F
331
2137
  5
2137
331
CA3
  5
CA3
331
CAB
  5
CAB
331
CB3
  5
CB3
331
CBB
  5
CBB
331
3636
  5
3636
331
2F98
  5
2F98
331
3055
  5
3055
331
2FDF
  5
2FDF
331
2FA0
  5
2FA0
331
305D
  5
305D
331
301E
  5
301E
331
2FA8
  5
2FA8
331
309C
  5
309C
331
3065
  5
3065
331
3026
  5
3026
331
306D
  5
306D
331
302E
  5
302E
331
2FF7
  5
2FF7
331
2F7F
  5
2F7F
331
20F8
  5
20F8
331
213F
  5
213F
331
2108
  5
2108
331
2147
  5
2147
331
214F
  5
214F
331
2157
  5
2157
331
CC3
  5
CC3
331
C94
  5
C94
331
C9C
  5
C9C
331
2FB8
  5
2FB8
331
3075
  5
3075
331
2FFF
  5
2FFF
331
303E
  5
303E
331
2FC8
  5
2FC8
331
300F
  5
300F
331
2FD0
  5
2FD0
331
304E
  5
304E
331
2F87
  5
2F87
331
2F8F
  5
2F8F
331
2F97
  5
2F97
331
20E9
  5
20E9
331
2120
  5
2120
331
215F
  5
215F
331
20F1
  5
20F1
331
2128
  5
2128
331
2130
  5
2130
331
CA4
  5
CA4
331
CAC
  5
CAC
331
CB4
  5
CB4
331
CBC
  5
CBC
331
3637
  5
3637
331
2F99
  5
2F99
331
3056
  5
3056
331
2FE0
  5
2FE0
331
2FA1
  5
2FA1
331
305E
  5
305E
331
301F
  5
301F
331
2FE8
  5
2FE8
331
2FA9
  5
2FA9
331
309D
  5
309D
331
3066
  5
3066
331
306E
  5
306E
331
302F
  5
302F
331
20F9
  5
20F9
331
2138
  5
2138
331
2101
  5
2101
331
2140
  5
2140
331
2109
  5
2109
331
2148
  5
2148
331
2111
  5
2111
331
2150
  5
2150
331
C95
  5
C95
331
C9D
  5
C9D
331
2FF8
  5
2FF8
331
2FB9
  5
2FB9
331
3000
  5
3000
331
303F
  5
303F
331
2FC9
  5
2FC9
331
3086
  5
3086
331
2FD1
  5
2FD1
331
304F
  5
304F
331
2F80
  5
2F80
331
2F88
  5
2F88
331
2F90
  5
2F90
331
2119
  5
2119
331
2158
  5
2158
331
20EA
  5
20EA
331
2121
  5
2121
331
2160
  5
2160
331
20F2
  5
20F2
331
2129
  5
2129
331
2131
  5
2131
331
CA5
  5
CA5
331
CAD
  5
CAD
331
CB5
  5
CB5
331
CBD
  5
CBD
331
2F9A
  5
2F9A
331
3057
  5
3057
331
2FE1
  5
2FE1
331
2FA2
  5
2FA2
331
3096
  5
3096
331
305F
  5
305F
331
3020
  5
3020
331
2FE9
  5
2FE9
331
2FAA
  5
2FAA
331
3067
  5
3067
331
3028
  5
3028
331
2FF1
  5
2FF1
331
2F79
  5
2F79
331
2139
  5
2139
331
2102
  5
2102
331
2141
  5
2141
331
210A
  5
210A
331
2149
  5
2149
331
2151
  5
2151
331
C96
  5
C96
331
C9E
  5
C9E
331
2FF9
  5
2FF9
331
2FBA
  5
2FBA
331
3001
  5
3001
331
3040
  5
3040
331
3009
  5
3009
331
2FD2
  5
2FD2
331
2F81
  5
2F81
331
2F89
  5
2F89
331
2F91
  5
2F91
331
211A
  5
211A
331
2159
  5
2159
331
20EB
  5
20EB
331
1D0C
  5
1D0C
331
2122
  5
2122
331
2161
  5
2161
331
212A
  5
212A
331
20F3
  5
20F3
331
2132
  5
2132
331
CA6
  5
CA6
331
CAE
  5
CAE
331
CB6
  5
CB6
331
CBE
  5
CBE
331
3050
  5
3050
331
2F9B
  5
2F9B
331
3058
  5
3058
331
3019
  5
3019
331
2FA3
  5
2FA3
331
3097
  5
3097
331
3060
  5
3060
331
3021
  5
3021
331
2FEA
  5
2FEA
331
2FAB
  5
2FAB
331
3029
  5
3029
331
2FF2
  5
2FF2
331
2F7A
  5
2F7A
331
213A
  5
213A
331
2142
  5
2142
331
210B
  5
210B
331
214A
  5
214A
331
2152
  5
2152
331
C97
  5
C97
331
C9F
  5
C9F
331
3070
  5
3070
331
2FBB
  5
2FBB
331
3002
  5
3002
331
2FD3
  5
2FD3
331
2F82
  5
2F82
331
2F8A
  5
2F8A
331
2F92
  5
2F92
331
20E4
  5
20E4
331
211B
  5
211B
331
215A
  5
215A
331
20EC
  5
20EC
331
2123
  5
2123
331
2162
  5
2162
331
20F4
  5
20F4
331
212B
  5
212B
331
2133
  5
2133
331
CA7
  5
CA7
331
CAF
  5
CAF
331
CB7
  5
CB7
331
CBF
  5
CBF
331
3051
  5
3051
331
2F9C
  5
2F9C
331
3059
  5
3059
331
2FA4
  5
2FA4
331
3098
  5
3098
331
3061
  5
3061
331
2FEB
  5
2FEB
331
2FAC
  5
2FAC
331
302A
  5
302A
331
2FF3
  5
2FF3
331
2F7B
  5
2F7B
331
213B
  5
213B
331
2143
  5
2143
331
210C
  5
210C
331
214B
  5
214B
331
2153
  5
2153
331
C98
  5
C98
331
2FBC
  5
2FBC
331
3079
  5
3079
331
303A
  5
303A
331
2FC4
  5
2FC4
331
3081
  5
3081
331
3042
  5
3042
331
2FD4
  5
2FD4
331
2F83
  5
2F83
331
2F8B
  5
2F8B
331
2F93
  5
2F93
331
20E5
  5
20E5
331
215B
  5
215B
331
20ED
  5
20ED
331
2124
  5
2124
331
2163
  5
2163
331
20F5
  5
20F5
331
212C
  5
212C
331
2134
  5
2134
331
CA0
  5
CA0
331
CA8
  5
CA8
331
CB0
  5
CB0
331
CB8
  5
CB8
331
33B2
  5
33B2
331
3052
  5
3052
331
2FDC
  5
2FDC
331
2F9D
  5
2F9D
331
305A
  5
305A
331
2FA5
  5
2FA5
331
3062
  5
3062
331
2FEC
  5
2FEC
331
2FAD
  5
2FAD
331
306A
  5
306A
331
302B
  5
302B
331
2FF4
  5
2FF4
331
2F7C
  5
2F7C
331
20FD
  5
20FD
331
213C
  5
213C
331
2144
  5
2144
331
210D
  5
210D
331
214C
  5
214C
331
2115
  5
2115
331
2154
  5
2154
331
CC0
  5
CC0
331
C99
  5
C99
331
3567
  5
3567
331
3072
  5
3072
331
2FFC
  5
2FFC
331
2FBD
  5
2FBD
331
303B
  5
303B
331
2FC5
  5
2FC5
331
3043
  5
3043
331
300C
  5
300C
331
2FD5
  5
2FD5
331
2F84
  5
2F84
331
2F8C
  5
2F8C
331
2F94
  5
2F94
331
20E6
  5
20E6
331
215C
  5
215C
331
20EE
  5
20EE
331
2125
  5
2125
331
2164
  5
2164
331
20F6
  5
20F6
331
212D
  5
212D
331
2135
  5
2135
331
CA1
  5
CA1
331
CA9
  5
CA9
331
CB1
  5
CB1
331
CB9
  5
CB9
331
3053
  5
3053
331
2FDD
  5
2FDD
331
2F9E
  5
2F9E
331
305B
  5
305B
331
301C
  5
301C
331
2FA6
  5
2FA6
331
3063
  5
3063
331
2FED
  5
2FED
331
2FAE
  5
2FAE
331
306B
  5
306B
331
302C
  5
302C
331
2FF5
  5
2FF5
331
2F7D
  5
2F7D
331
2642
  5
2642
331
213D
  5
213D
331
2106
  5
2106
331
2145
  5
2145
331
214D
  5
214D
331
2155
  5
2155
331
C92
  5
C92
331
C9A
  5
C9A
331
340A
  5
340A
331
2FFD
  5
2FFD
331
303C
  5
303C
331
2FC6
  5
2FC6
331
3044
  5
3044
331
300D
  5
300D
331
304C
  5
304C
331
2F85
  5
2F85
331
2F8D
  5
2F8D
331
2F95
  5
2F95
  0
SORTENTSTABLE
  5
220A
102
{ACAD_REACTORS
330
2209
102
}
330
2209
100
AcDbSortentsTable
330
2205
  0
SORTENTSTABLE
  5
37BF
102
{ACAD_REACTORS
330
37BE
102
}
330
37BE
100
AcDbSortentsTable
330
37AB
  0
DIMASSOC
  5
33C0
102
{ACAD_REACTORS
330
33BF
102
}
330
33BF
100
AcDbDimAssoc
330
33B2
 90
        3
 70
     0
 71
     0
  1
AcDbOsnapPointRef
 72
    13
331
3086
 73
     0
 91
        0
 40
0.0
 10
0.0
 20
0.0
 30
2.000000000000000E+50
 75
     0
  1
AcDbOsnapPointRef
 72
     1
331
302B
 73
     0
 91
        0
 40
0.0
 10
0.0
 20
0.0
 30
2.000000000000000E+50
 75
     0
  0
DIMASSOC
  5
3418
102
{ACAD_REACTORS
330
3417
102
}
330
3417
100
AcDbDimAssoc
330
340A
 90
        3
 70
     0
 71
     0
  1
AcDbOsnapPointRef
 72
     1
331
308B
 73
     0
 91
        0
 40
0.0
 10
0.0
 20
0.0
 30
2.000000000000000E+50
 75
     0
  1
AcDbOsnapPointRef
 72
     1
331
3025
 73
     0
 91
        0
 40
0.0
 10
0.0
 20
0.0
 30
2.000000000000000E+50
 75
     0
  0
DIMASSOC
  5
3577
102
{ACAD_REACTORS
330
3576
102
}
330
3576
100
AcDbDimAssoc
330
3567
 90
        3
 70
     0
 71
     0
  1
AcDbOsnapPointRef
 72
     1
331
2F82
 73
     0
 91
        0
 40
0.0
 10
0.0
 20
0.0
 30
2.000000000000000E+50
 75
     0
  1
AcDbOsnapPointRef
 72
    13
331
3061
 73
     0
 91
        0
 40
0.0
 10
0.0
 20
0.0
 30
2.000000000000000E+50
 75
     0
  0
LAYOUT
  5
22
102
{ACAD_XDICTIONARY
360
3CCB
102
}
102
{ACAD_REACTORS
330
1A
102
}
330
1A
100
AcDbPlotSettings
  1

  2
\\RD\EPSON Stylus C63 Series單色
  4
A4
  6

 40
3.757083177566528
 41
3.757076978683471
 42
3.757080078125
 43
3.757080078125
 44
209.9733276367187
 45
296.9683227539062
 46
0.0
 47
0.0
 48
0.0
 49
0.0
140
0.0
141
0.0
142
1.0
143
0.3405120737814363
 70
 11952
 72
     1
 73
     0
 74
     0
  7
單色出圖.ctb
 75
     0
147
2.936753428137963
148
-2047.07469463503
149
-1261.649717473083
100
AcDbLayout
  1
Model
 70
     1
 71
     0
 10
0.0
 20
0.0
 11
12.0
 21
9.0
 12
0.0
 22
0.0
 32
0.0
 14
0.0
 24
0.0
 34
0.0
 15
0.0
 25
0.0
 35
0.0
146
0.0
 13
0.0
 23
0.0
 33
0.0
 16
1.0
 26
0.0
 36
0.0
 17
0.0
 27
1.0
 37
0.0
 76
     0
330
1F
1001
ACAD_PSEXT
1000
\\RD\EPSON Stylus C63 Series單色
1000
EPSON Stylus C63 Series
1000
\\RD
1000

1070
     0
  0
LAYOUT
  5
1E
102
{ACAD_XDICTIONARY
360
3CC9
102
}
102
{ACAD_REACTORS
330
1A
102
}
330
1A
100
AcDbPlotSettings
  1

  2

  4

  6

 40
0.0
 41
0.0
 42
0.0
 43
0.0
 44
0.0
 45
0.0
 46
0.0
 47
0.0
 48
0.0
 49
0.0
140
0.0
141
0.0
142
1.0
143
1.0
 70
   688
 72
     0
 73
     0
 74
     5
  7
單色出圖.ctb
 75
    16
147
1.0
148
0.0
149
0.0
100
AcDbLayout
  1
配置1
 70
     1
 71
     1
 10
0.0
 20
0.0
 11
420.0
 21
297.0
 12
0.0
 22
0.0
 32
0.0
 14
1.000000000000000E+20
 24
1.000000000000000E+20
 34
1.000000000000000E+20
 15
-1.000000000000000E+20
 25
-1.000000000000000E+20
 35
-1.000000000000000E+20
146
0.0
 13
0.0
 23
0.0
 33
0.0
 16
1.0
 26
0.0
 36
0.0
 17
0.0
 27
1.0
 37
0.0
 76
     0
330
1B
  0
LAYOUT
  5
26
102
{ACAD_XDICTIONARY
360
3CCD
102
}
102
{ACAD_REACTORS
330
1A
102
}
330
1A
100
AcDbPlotSettings
  1

  2

  4

  6

 40
0.0
 41
0.0
 42
0.0
 43
0.0
 44
0.0
 45
0.0
 46
0.0
 47
0.0
 48
0.0
 49
0.0
140
0.0
141
0.0
142
1.0
143
1.0
 70
   688
 72
     0
 73
     0
 74
     5
  7
單色出圖.ctb
 75
    16
147
1.0
148
0.0
149
0.0
100
AcDbLayout
  1
配置2
 70
     1
 71
     2
 10
0.0
 20
0.0
 11
12.0
 21
9.0
 12
0.0
 22
0.0
 32
0.0
 14
0.0
 24
0.0
 34
0.0
 15
0.0
 25
0.0
 35
0.0
146
0.0
 13
0.0
 23
0.0
 33
0.0
 16
1.0
 26
0.0
 36
0.0
 17
0.0
 27
1.0
 37
0.0
 76
     0
330
23
  0
MLINESTYLE
  5
18
102
{ACAD_REACTORS
330
17
102
}
330
17
100
AcDbMlineStyle
  2
STANDARD
 70
     0
  3

 62
   256
 51
90.0
 52
90.0
 71
     2
 49
0.5
 62
   256
  6
BYLAYER
 49
-0.5
 62
   256
  6
BYLAYER
  0
ACDBPLACEHOLDER
  5
F
102
{ACAD_REACTORS
330
E
102
}
330
E
  0
TABLESTYLE
  5
11B
102
{ACAD_REACTORS
330
11A
102
}
330
11A
100
AcDbTableStyle
  3
Standard
 70
     0
 71
     0
 40
1.5
 41
1.5
280
     0
281
     0
  7
STANDARD
140
4.5
170
     2
 62
     0
 63
     7
283
     0
274
    -2
284
     1
 64
     0
275
    -2
285
     1
 65
     0
276
    -2
286
     1
 66
     0
277
    -2
287
     1
 67
     0
278
    -2
288
     1
 68
     0
279
    -2
289
     1
 69
     0
  7
STANDARD
140
6.0
170
     5
 62
     0
 63
     7
283
     0
274
    -2
284
     1
 64
     0
275
    -2
285
     1
 65
     0
276
    -2
286
     1
 66
     0
277
    -2
287
     1
 67
     0
278
    -2
288
     1
 68
     0
279
    -2
289
     1
 69
     0
  7
STANDARD
140
4.5
170
     5
 62
     0
 63
     7
283
     0
274
    -2
284
     1
 64
     0
275
    -2
285
     1
 65
     0
276
    -2
286
     1
 66
     0
277
    -2
287
     1
 67
     0
278
    -2
288
     1
 68
     0
279
    -2
289
     1
 69
     0
  0
DICTIONARYVAR
  5
138
102
{ACAD_REACTORS
330
94
102
}
330
94
100
DictionaryVariables
280
     0
  1
STANDARD
  0
DICTIONARYVAR
  5
96
102
{ACAD_REACTORS
330
94
102
}
330
94
100
DictionaryVariables
280
     0
  1
2
  0
DICTIONARYVAR
  5
95
102
{ACAD_REACTORS
330
94
102
}
330
94
100
DictionaryVariables
280
     0
  1
0
  0
DICTIONARYVAR
  5
FB7
102
{ACAD_REACTORS
330
94
102
}
330
94
100
DictionaryVariables
280
     0
  1

  0
DICTIONARY
  5
1B5
102
{ACAD_REACTORS
330
5B
102
}
330
5B
100
AcDbDictionary
281
     1
  0
DICTIONARY
  5
61
102
{ACAD_REACTORS
330
5B
102
}
330
5B
100
AcDbDictionary
281
     1
  0
XRECORD
  5
123
102
{ACAD_REACTORS
330
5B
102
}
330
5B
100
AcDbXrecord
280
     1
 90
-1023410169
  0
DICTIONARY
  5
3CCB
330
22
100
AcDbDictionary
280
     1
281
     1
  3
ACAD_XREC_ROUNDTRIP
360
3CCC
  0
DICTIONARY
  5
3CC9
330
1E
100
AcDbDictionary
280
     1
281
     1
  3
ACAD_XREC_ROUNDTRIP
360
3CCA
  0
DICTIONARY
  5
3CCD
330
26
100
AcDbDictionary
280
     1
281
     1
  3
ACAD_XREC_ROUNDTRIP
360
3CCE
  0
XRECORD
  5
3CCC
102
{ACAD_REACTORS
330
3CCB
102
}
330
3CCB
100
AcDbXrecord
280
     1
102
SHADEPLOT
 70
     0
102
SHADEPLOTRESLEVEL
 70
     2
102
SHADEPLOTCUSTOMDPI
 70
   300
  0
XRECORD
  5
3CCA
102
{ACAD_REACTORS
330
3CC9
102
}
330
3CC9
100
AcDbXrecord
280
     1
102
SHADEPLOT
 70
     0
102
SHADEPLOTRESLEVEL
 70
     2
102
SHADEPLOTCUSTOMDPI
 70
   300
  0
XRECORD
  5
3CCE
102
{ACAD_REACTORS
330
3CCD
102
}
330
3CCD
100
AcDbXrecord
280
     1
102
SHADEPLOT
 70
     0
102
SHADEPLOTRESLEVEL
 70
     2
102
SHADEPLOTCUSTOMDPI
 70
   300
  0
ENDSEC
  0
EOF
