  0
SECTION
  2
HEADER
  9
$ACADVER
  1
AC1012
  9
$DWGCODEPAGE
  3
big5
  9
$INSBASE
 10
0.0
 20
0.0
 30
0.0
  9
$EXTMIN
 10
650.46608371472
 20
-68.07572268728183
 30
0.0
  9
$EXTMAX
 10
969.0704818568777
 20
263.7474219576365
 30
0.0
  9
$LIMMIN
 10
0.0
 20
0.0
  9
$LIMMAX
 10
420.0
 20
297.0
  9
$ORTHOMODE
 70
     0
  9
$REGENMODE
 70
     1
  9
$FILLMODE
 70
     1
  9
$QTEXTMODE
 70
     0
  9
$MIRRTEXT
 70
     1
  9
$DRAGMODE
 70
     2
  9
$LTSCALE
 40
1.0
  9
$OSMODE
 70
    37
  9
$ATTMODE
 70
     1
  9
$TEXTSIZE
 40
2.5
  9
$TRACEWID
 40
1.0
  9
$TEXTSTYLE
  7
DAYUS
  9
$CLAYER
  8
0
  9
$CELTYPE
  6
BYLAYER
  9
$CECOLOR
 62
   256
  9
$CELTSCALE
 40
1.0
  9
$DELOBJ
 70
     1
  9
$DISPSILH
 70
     0
  9
$DIMSCALE
 40
1.0
  9
$DIMASZ
 40
3.0
  9
$DIMEXO
 40
1.5
  9
$DIMDLI
 40
10.0
  9
$DIMRND
 40
0.0
  9
$DIMDLE
 40
0.0
  9
$DIMEXE
 40
2.0
  9
$DIMTP
 40
0.01
  9
$DIMTM
 40
0.01
  9
$DIMTXT
 40
3.5
  9
$DIMCEN
 40
3.0
  9
$DIMTSZ
 40
0.0
  9
$DIMTOL
 70
     0
  9
$DIMLIM
 70
     0
  9
$DIMTIH
 70
     0
  9
$DIMTOH
 70
     0
  9
$DIMSE1
 70
     0
  9
$DIMSE2
 70
     0
  9
$DIMTAD
 70
     1
  9
$DIMZIN
 70
     8
  9
$DIMBLK
  1

  9
$DIMASO
 70
     1
  9
$DIMSHO
 70
     1
  9
$DIMPOST
  1

  9
$DIMAPOST
  1

  9
$DIMALT
 70
     0
  9
$DIMALTD
 70
     2
  9
$DIMALTF
 40
25.4
  9
$DIMLFAC
 40
1.0
  9
$DIMTOFL
 70
     1
  9
$DIMTVP
 40
0.0
  9
$DIMTIX
 70
     0
  9
$DIMSOXD
 70
     0
  9
$DIMSAH
 70
     0
  9
$DIMBLK1
  1

  9
$DIMBLK2
  1

  9
$DIMSTYLE
  2
STANDARD
  9
$DIMCLRD
 70
   256
  9
$DIMCLRE
 70
   256
  9
$DIMCLRT
 70
   256
  9
$DIMTFAC
 40
0.6
  9
$DIMGAP
 40
0.8
  9
$DIMJUST
 70
     0
  9
$DIMSD1
 70
     0
  9
$DIMSD2
 70
     0
  9
$DIMTOLJ
 70
     0
  9
$DIMTZIN
 70
     8
  9
$DIMALTZ
 70
     0
  9
$DIMALTTZ
 70
     0
  9
$DIMFIT
 70
     3
  9
$DIMUPT
 70
     0
  9
$DIMUNIT
 70
     2
  9
$DIMDEC
 70
     2
  9
$DIMTDEC
 70
     2
  9
$DIMALTU
 70
     2
  9
$DIMALTTD
 70
     2
  9
$DIMTXSTY
  7
STANDARD
  9
$DIMAUNIT
 70
     0
  9
$LUNITS
 70
     2
  9
$LUPREC
 70
     2
  9
$SKETCHINC
 40
1.0
  9
$FILLETRAD
 40
5.0
  9
$AUNITS
 70
     0
  9
$AUPREC
 70
     0
  9
$MENU
  1
.
  9
$ELEVATION
 40
0.0
  9
$PELEVATION
 40
0.0
  9
$THICKNESS
 40
0.0
  9
$LIMCHECK
 70
     0
  9
$BLIPMODE
 70
     0
  9
$CHAMFERA
 40
2.5
  9
$CHAMFERB
 40
2.5
  9
$CHAMFERC
 40
20.0
  9
$CHAMFERD
 40
0.0
  9
$SKPOLY
 70
     0
  9
$TDCREATE
 40
2452292.457678333
  9
$TDUPDATE
 40
2453057.564765081
  9
$TDINDWG
 40
2.4848336343
  9
$TDUSRTIMER
 40
2.4848335185
  9
$USRTIMER
 70
     1
  9
$ANGBASE
 50
0.0
  9
$ANGDIR
 70
     0
  9
$PDMODE
 70
     0
  9
$PDSIZE
 40
0.0
  9
$PLINEWID
 40
0.0
  9
$COORDS
 70
     1
  9
$SPLFRAME
 70
     0
  9
$SPLINETYPE
 70
     6
  9
$SPLINESEGS
 70
     8
  9
$ATTDIA
 70
     1
  9
$ATTREQ
 70
     1
  9
$HANDLING
 70
 22529
  9
$HANDSEED
  5
166EE
  9
$SURFTAB1
 70
     6
  9
$SURFTAB2
 70
     6
  9
$SURFTYPE
 70
     6
  9
$SURFU
 70
     6
  9
$SURFV
 70
     6
  9
$UCSNAME
  2

  9
$UCSORG
 10
0.0
 20
0.0
 30
0.0
  9
$UCSXDIR
 10
1.0
 20
0.0
 30
0.0
  9
$UCSYDIR
 10
0.0
 20
1.0
 30
0.0
  9
$PUCSNAME
  2

  9
$PUCSORG
 10
0.0
 20
0.0
 30
0.0
  9
$PUCSXDIR
 10
1.0
 20
0.0
 30
0.0
  9
$PUCSYDIR
 10
0.0
 20
1.0
 30
0.0
  9
$USERI1
 70
     0
  9
$USERI2
 70
     0
  9
$USERI3
 70
     0
  9
$USERI4
 70
     0
  9
$USERI5
 70
     0
  9
$USERR1
 40
0.0
  9
$USERR2
 40
0.0
  9
$USERR3
 40
0.0
  9
$USERR4
 40
0.0
  9
$USERR5
 40
0.0
  9
$WORLDVIEW
 70
     1
  9
$SHADEDGE
 70
     3
  9
$SHADEDIF
 70
    70
  9
$TILEMODE
 70
     1
  9
$MAXACTVP
 70
    48
  9
$PINSBASE
 10
0.0
 20
0.0
 30
0.0
  9
$PLIMCHECK
 70
     0
  9
$PEXTMIN
 10
1.000000000000000E+20
 20
1.000000000000000E+20
 30
1.000000000000000E+20
  9
$PEXTMAX
 10
-1.000000000000000E+20
 20
-1.000000000000000E+20
 30
-1.000000000000000E+20
  9
$PLIMMIN
 10
0.0
 20
0.0
  9
$PLIMMAX
 10
420.0
 20
297.0
  9
$UNITMODE
 70
     0
  9
$VISRETAIN
 70
     1
  9
$PLINEGEN
 70
     0
  9
$PSLTSCALE
 70
     1
  9
$TREEDEPTH
 70
  3020
  9
$PICKSTYLE
 70
     1
  9
$CMLSTYLE
  2
STANDARD
  9
$CMLJUST
 70
     0
  9
$CMLSCALE
 40
20.0
  9
$SAVEIMAGES
 70
     1
  0
ENDSEC
  0
SECTION
  2
CLASSES
  0
CLASS
  1
ACDBDICTIONARYWDFLT
  2
AcDbDictionaryWithDefault
  3
AutoCAD 2000
 90
    32768
280
     0
281
     0
  0
CLASS
  1
ACDBPLACEHOLDER
  2
AcDbPlaceHolder
  3
AutoCAD 2000
 90
    32768
280
     0
281
     0
  0
CLASS
  1
LAYOUT
  2
AcDbLayout
  3
AutoCAD 2000
 90
    32768
280
     0
281
     0
  0
CLASS
  1
AMGSETTINGSOBJ
  2
AmgSettingsObj
  3
"AcadM|Product Description: AutoCAD Mechanical 2000|Company: Autodesk"
 90
    32768
280
     0
281
     0
  0
CLASS
  1
ACME_DOCUMENT
  2
AcMeDbDoc
  3
AcMeServices
 90
    32768
280
     0
281
     0
  0
CLASS
  1
ACMESCOPE
  2
AcMeScope
  3
AcMeServices
 90
    32768
280
     0
281
     0
  0
CLASS
  1
ACMECOMMANDHISTORY
  2
AcMeCommandHistory
  3
AcMeServices
 90
    32768
280
     0
281
     0
  0
CLASS
  1
DICTIONARYVAR
  2
AcDbDictionaryVar
  3
AutoCAD 2000
 90
    32768
280
     0
281
     0
  0
CLASS
  1
ACIMSYSVARMAN
  2
AcImSysVarManager
  3
AcMeServices
 90
    32768
280
     0
281
     0
  0
CLASS
  1
ACIMREALSYSVAR
  2
AcImRealSysVar
  3
AcMeServices
 90
    32768
280
     0
281
     0
  0
CLASS
  1
ACIMINTSYSVAR
  2
AcImIntSysVar
  3
AcMeServices
 90
    32768
280
     0
281
     0
  0
CLASS
  1
ACMEDRAWINGMAN
  2
AcMeDrawingMan
  3
AcMeServices
 90
    32768
280
     0
281
     0
  0
CLASS
  1
ACMEVIEW
  2
AcMeView
  3
AcMeServices
 90
    32768
280
     0
281
     0
  0
CLASS
  1
ACDBENTITYCACHE
  2
AcMeEntityCache
  3
AcMeServices
 90
    32768
280
     0
281
     0
  0
CLASS
  1
GSMANAGER
  2
AcMeGSManager
  3
AcMeServices
 90
    32768
280
     0
281
     0
  0
CLASS
  1
AMDTINTERNALREACTOR
  2
AmdtInternalReactor
  3
AcMeServices
 90
    32768
280
     0
281
     0
  0
CLASS
  1
ACMESTATEMGR
  2
AcMeStateMgr
  3
AcMeServices
 90
    32768
280
     0
281
     0
  0
CLASS
  1
ACME_DATABASE
  2
AcMeDbDatabase
  3
AcMeServices
 90
    32768
280
     0
281
     0
  0
CLASS
  1
ACRFINSADJUSTERMGR
  2
AcRfInsAdjusterMgr
  3
AcMeServices
 90
    32768
280
     0
281
     0
  0
CLASS
  1
ACMDATADICTIONARY
  2
AcmDataDictionary
  3
"AcmSymBB|Product Description: AutoCAD Mechanical 2000|Company: Autodesk"
 90
    32768
280
     0
281
     0
  0
CLASS
  1
ACMDATAENTRYBLOCK
  2
AcmDataEntryBlock
  3
"AcmSymBB|Product Description: AutoCAD Mechanical 2000|Company: Autodesk"
 90
    32768
280
     0
281
     0
  0
CLASS
  1
AMGOBJPROPCFG
  2
AmgObjPropCfg
  3
"AmgLay|Product Description: AutoCAD Mechanical 2000|Company: Autodesk"
 90
    32769
280
     0
281
     0
  0
CLASS
  1
ACAMGFILTERDAT
  2
AcAmgFilterDat
  3
"AcadM|Product Description: AutoCAD Mechanical 2000|Company: Autodesk"
 90
    32768
280
     0
281
     0
  0
CLASS
  1
LAYER_INDEX
  2
AcDbLayerIndex
  3
AutoCAD 2000
 90
    32768
280
     0
281
     0
  0
CLASS
  1
IDBUFFER
  2
AcDbIdBuffer
  3
AutoCAD 2000
 90
    32768
280
     0
281
     0
  0
CLASS
  1
ACIMSTRSYSVAR
  2
AcImStrSysVar
  3
AcMeServices
 90
    32768
280
     0
281
     0
  0
CLASS
  1
ACMSTANDARDISO
  2
AcmStandardISO
  3
"Amdt_StdImp|Product Description: AutoCAD Mechanical 2000|Company: Autodesk"
 90
    32768
280
     0
281
     0
  0
CLASS
  1
AMDTEDGESTANDARDISO
  2
AmdtEdgeStdISO
  3
"Amdt_StdImp|Product Description: AutoCAD Mechanical 2000|Company: Autodesk"
 90
    32768
280
     0
281
     0
  0
CLASS
  1
ACMSURFSTANDARDISO
  2
AcmSurfTextStdISO
  3
"Amdt_StdImp|Product Description: AutoCAD Mechanical 2000|Company: Autodesk"
 90
    32768
280
     0
281
     0
  0
CLASS
  1
ACMFCFSTANDARDISO
  2
AcmFCFStdISO
  3
"Amdt_StdImp|Product Description: AutoCAD Mechanical 2000|Company: Autodesk"
 90
    32768
280
     0
281
     0
  0
CLASS
  1
ACMWELDSTANDARDISO
  2
AcmWeldingStdISO
  3
"Amdt_StdImp|Product Description: AutoCAD Mechanical 2000|Company: Autodesk"
 90
    32768
280
     0
281
     0
  0
CLASS
  1
ACMIDSTANDARDISO
  2
AcmIdStdISO
  3
"Amdt_StdImp|Product Description: AutoCAD Mechanical 2000|Company: Autodesk"
 90
    32768
280
     0
281
     0
  0
CLASS
  1
ACMDATUMSTANDARDISO
  2
AcmDatumStdISO
  3
"Amdt_StdImp|Product Description: AutoCAD Mechanical 2000|Company: Autodesk"
 90
    32768
280
     0
281
     0
  0
CLASS
  1
ACMBOMSTANDARDISO
  2
AcmBOMStdISO
  3
"Amdt_StdImp|Product Description: AutoCAD Mechanical 2000|Company: Autodesk"
 90
    32768
280
     0
281
     0
  0
CLASS
  1
AMDTNOTE
  2
AmdtNote
  3
"AcmSymBB|Product Description: AutoCAD Mechanical 2000|Company: Autodesk"
 90
    33791
280
     0
281
     1
  0
CLASS
  1
ACGREFMASTER
  2
AcGrefMaster
  3
AcAttribServices
 90
    32768
280
     0
281
     0
  0
CLASS
  1
ACGREFACADMASTER
  2
AcGrefacadMaster
  3
AcGrefServices
 90
    32768
280
     0
281
     0
  0
CLASS
  1
AMIMASTER
  2
AmiMaster
  3
AmiServices
 90
    32768
280
     0
281
     0
  0
CLASS
  1
ACAMGTITLESTD
  2
AcAmgTitleStd
  3
"TITLEAPP"
 90
    32768
280
     0
281
     0
  0
CLASS
  1
ACMDETAILSTANDARDISO
  2
AmdtDetailSymStdISO
  3
"Amdt_StdImp|Product Description: AutoCAD Mechanical 2000|Company: Autodesk"
 90
    32768
280
     0
281
     0
  0
CLASS
  1
ACMSECTIONSTANDARDISO
  2
AmdtSectionSymStdISO
  3
"Amdt_StdImp|Product Description: AutoCAD Mechanical 2000|Company: Autodesk"
 90
    32768
280
     0
281
     0
  0
CLASS
  1
ACMCENTERLINESTANDARDISO
  2
AmdtCenterLineStdISO
  3
"Amdt_StdImp|Product Description: AutoCAD Mechanical 2000|Company: Autodesk"
 90
    32768
280
     0
281
     0
  0
CLASS
  1
ACMNOTESTANDARDISO
  2
AmdtNoteStdISO
  3
"Amdt_StdImp|Product Description: AutoCAD Mechanical 2000|Company: Autodesk"
 90
    32768
280
     0
281
     0
  0
CLASS
  1
ACAMGLAYSTD
  2
AcAmgLayStd
  3
"AcAmgLayStd|Product Description: AutoCAD Mechanical 2000|Company: Autodesk"
 90
    32768
280
     0
281
     0
  0
CLASS
  1
ACAMGDIMSTD
  2
AcAmgDimStd
  3
"AcAmgDimStd|Product Description: AutoCAD Mechanical 2000|Company: Autodesk"
 90
    32768
280
     0
281
     0
  0
CLASS
  1
ACAMGHOLECHARTSTDISO
  2
AcAmgHoleChartStdISO
  3
ACMSYMBB_MODULE_NAME
 90
    32768
280
     0
281
     0
  0
CLASS
  1
AMDTFORMULAUPDATEDISPATCHER
  2
AmdtFormulaUpdateDispatcher
  3
AcMeServices
 90
    32768
280
     0
281
     0
  0
CLASS
  1
ACMSTANDARDANSI
  2
AcmStandardANSI
  3
"Amdt_StdImp|Product Description: AutoCAD Mechanical 2000|Company: Autodesk"
 90
    32768
280
     0
281
     0
  0
CLASS
  1
ACMSURFSTANDARDANSI
  2
AcmSurfTextStdANSI
  3
"Amdt_StdImp|Product Description: AutoCAD Mechanical 2000|Company: Autodesk"
 90
    32768
280
     0
281
     0
  0
CLASS
  1
ACMFCFSTANDARDANSI
  2
AcmFCFStdANSI
  3
"Amdt_StdImp|Product Description: AutoCAD Mechanical 2000|Company: Autodesk"
 90
    32768
280
     0
281
     0
  0
CLASS
  1
ACMWELDSTANDARDANSI
  2
AcmWeldingStdANSI
  3
"Amdt_StdImp|Product Description: AutoCAD Mechanical 2000|Company: Autodesk"
 90
    32768
280
     0
281
     0
  0
CLASS
  1
ACMIDSTANDARDANSI
  2
AcmIdStdANSI
  3
"Amdt_StdImp|Product Description: AutoCAD Mechanical 2000|Company: Autodesk"
 90
    32768
280
     0
281
     0
  0
CLASS
  1
ACMDATUMSTANDARDANSI
  2
AcmDatumStdANSI
  3
"Amdt_StdImp|Product Description: AutoCAD Mechanical 2000|Company: Autodesk"
 90
    32768
280
     0
281
     0
  0
CLASS
  1
ACMBOMSTANDARDANSI
  2
AcmBOMStdANSI
  3
"Amdt_StdImp|Product Description: AutoCAD Mechanical 2000|Company: Autodesk"
 90
    32768
280
     0
281
     0
  0
CLASS
  1
ACMDETAILSTANDARDANSI
  2
AmdtDetailSymStdANSI
  3
"Amdt_StdImp|Product Description: AutoCAD Mechanical 2000|Company: Autodesk"
 90
    32768
280
     0
281
     0
  0
CLASS
  1
ACMSECTIONSTANDARDANSI
  2
AmdtSectionSymStdANSI
  3
"Amdt_StdImp|Product Description: AutoCAD Mechanical 2000|Company: Autodesk"
 90
    32768
280
     0
281
     0
  0
CLASS
  1
ACMCENTERLINESTANDARDANSI
  2
AmdtCenterLineStdANSI
  3
"Amdt_StdImp|Product Description: AutoCAD Mechanical 2000|Company: Autodesk"
 90
    32768
280
     0
281
     0
  0
CLASS
  1
ACMNOTESTANDARDANSI
  2
AmdtNoteStdANSI
  3
"Amdt_StdImp|Product Description: AutoCAD Mechanical 2000|Company: Autodesk"
 90
    32768
280
     0
281
     0
  0
CLASS
  1
ACAMGHOLECHARTSTDANSI
  2
AcAmgHoleChartStdANSI
  3
ACMSYMBB_MODULE_NAME
 90
    32768
280
     0
281
     0
  0
CLASS
  1
STDPART2D
  2
AmgStdPart
  3
"AmgStdPart|Product Description: AutoCAD Mechanical 2000|Company: Autodesk"
 90
    33791
280
     0
281
     1
  0
CLASS
  1
ACMDATAENTRYPART
  2
AcmDataEntryPart
  3
"AcmSymBB|Product Description: AutoCAD Mechanical 2000|Company: Autodesk"
 90
    32768
280
     0
281
     0
  0
CLASS
  1
ACMPARTREF
  2
AcmPartRef
  3
"AcmSymBB|Product Description: AutoCAD Mechanical 2000|Company: Autodesk"
 90
    33791
280
     0
281
     1
  0
CLASS
  1
ACDBSTDPARTRES_LINE
  2
AcDbStdPartRes_Line
  3
"AcDbStdPartRes_Line|Product Description: AutoCAD Mechanical 2000|Company: Autodesk"
 90
    32768
280
     0
281
     0
  0
CLASS
  1
RASTERVARIABLES
  2
AcDbRasterVariables
  3
ISM
 90
    32768
280
     0
281
     0
  0
CLASS
  1
IMAGEDEF
  2
AcDbRasterImageDef
  3
ISM
 90
    32768
280
     0
281
     0
  0
CLASS
  1
IMAGEDEF_REACTOR
  2
AcDbRasterImageDefReactor
  3
ISM
 90
    32769
280
     0
281
     0
  0
CLASS
  1
IMAGE
  2
AcDbRasterImage
  3
ISM
 90
    32895
280
     0
281
     1
  0
CLASS
  1
DIMASSOC
  2
AcDbDimAssoc
  3
"AcDbDimAssoc|Product Desc:     AcDim ARX App For Dimension|Company:          Autodesk, Inc.|WEB Address:      www.autodesk.com"
 90
    32768
280
     0
281
     0
  0
CLASS
  1
LONG_TRANSACTION
  2
AcDbLongTransaction
  3
AutoCAD 2000
 90
    32768
280
     0
281
     0
  0
CLASS
  1
LWPOLYLINE
  2
AcDbPolyline
  3
AutoCAD 2000
 90
    32768
280
     0
281
     1
  0
CLASS
  1
HATCH
  2
AcDbHatch
  3
AutoCAD 2000
 90
    32768
280
     0
281
     1
  0
CLASS
  1
XRECORD
  2
AcDbXrecord
  3
AutoCAD 2000
 90
    32768
280
     0
281
     0
  0
CLASS
  1
LONG_TRANSACTION
  2
AcDbLongTransaction
  3
AutoCAD 2000
 90
    32768
280
     0
281
     0
  0
CLASS
  1
LWPOLYLINE
  2
AcDbPolyline
  3
AutoCAD 2000
 90
    32768
280
     0
281
     1
  0
CLASS
  1
HATCH
  2
AcDbHatch
  3
AutoCAD 2000
 90
    32768
280
     0
281
     1
  0
CLASS
  1
XRECORD
  2
AcDbXrecord
  3
AutoCAD 2000
 90
    32768
280
     0
281
     0
  0
ENDSEC
  0
SECTION
  2
TABLES
  0
TABLE
  2
VPORT
  5
8
330
0
100
AcDbSymbolTable
 70
     4
  0
VPORT
  5
166CD
330
8
100
AcDbSymbolTableRecord
100
AcDbViewportTableRecord
  2
*ACTIVE
 70
     0
 10
0.0
 20
0.0
 11
1.0
 21
1.0
 12
819.5285187660278
 22
97.84248405823225
 13
0.0
 23
0.0
 14
2.5
 24
2.5
 15
10.0
 25
10.0
 16
0.0
 26
0.0
 36
1.0
 17
0.0
 27
0.0
 37
0.0
 40
335.4225709644395
 41
1.775280898876404
 42
50.0
 43
0.0
 44
0.0
 50
0.0
 51
0.0
 71
     0
 72
   100
 73
     1
 74
     3
 75
     0
 76
     0
 77
     0
 78
     0
  0
ENDTAB
  0
TABLE
  2
LTYPE
  5
5
330
0
100
AcDbSymbolTable
 70
    15
  0
LTYPE
  5
14
330
5
100
AcDbSymbolTableRecord
100
AcDbLinetypeTableRecord
  2
BYBLOCK
 70
     0
  3

 72
    65
 73
     0
 40
0.0
  0
LTYPE
  5
15
330
5
100
AcDbSymbolTableRecord
100
AcDbLinetypeTableRecord
  2
BYLAYER
 70
     0
  3

 72
    65
 73
     0
 40
0.0
  0
LTYPE
  5
16
330
5
100
AcDbSymbolTableRecord
100
AcDbLinetypeTableRecord
  2
CONTINUOUS
 70
     0
  3
Solid line
 72
    65
 73
     0
 40
0.0
  0
LTYPE
  5
4B
330
5
100
AcDbSymbolTableRecord
100
AcDbLinetypeTableRecord
  2
AM_ISO02W050
 70
     0
  3
__ __ __ __ __ __ __ __ __ __ __ __ __ __ __
 72
    65
 73
     2
 40
7.5
 49
6.0
 74
     0
 49
-1.5
 74
     0
  0
LTYPE
  5
4C
330
5
100
AcDbSymbolTableRecord
100
AcDbLinetypeTableRecord
  2
AM_ISO08W050
 70
     0
  3
____ . ____ . ____ . ____ . ____ . ____ . ____
 72
    65
 73
     4
 40
18.0
 49
12.0
 74
     0
 49
-1.5
 74
     0
 49
3.0
 74
     0
 49
-1.5
 74
     0
  0
LTYPE
  5
4D
330
5
100
AcDbSymbolTableRecord
100
AcDbLinetypeTableRecord
  2
AM_ISO09W050
 70
     0
  3
_____ . . _____ . . _____ . . ____ .. ____
 72
    65
 73
     6
 40
22.5
 49
12.0
 74
     0
 49
-1.5
 74
     0
 49
3.0
 74
     0
 49
-1.5
 74
     0
 49
3.0
 74
     0
 49
-1.5
 74
     0
  0
LTYPE
  5
4E
330
5
100
AcDbSymbolTableRecord
100
AcDbLinetypeTableRecord
  2
AMCONSTR
 70
     0
  3
_______________________
 72
    65
 73
     2
 40
9999.0
 49
9999.0
 74
     0
 49
0.0
 74
     0
  0
LTYPE
  5
4F
330
5
100
AcDbSymbolTableRecord
100
AcDbLinetypeTableRecord
  2
AM_ISO02W050X2
 70
     0
  3
 _ _ _ _ _ _ _ _ _ _ _ _
 72
    65
 73
     2
 40
3.75
 49
3.0
 74
     0
 49
-0.75
 74
     0
  0
LTYPE
  5
50
330
5
100
AcDbSymbolTableRecord
100
AcDbLinetypeTableRecord
  2
AM_ISO08W050X2
 70
     0
  3
__ . __ . __ . __ . __ . __
 72
    65
 73
     4
 40
9.0
 49
6.0
 74
     0
 49
-0.75
 74
     0
 49
1.5
 74
     0
 49
-0.75
 74
     0
  0
LTYPE
  5
53
330
5
100
AcDbSymbolTableRecord
100
AcDbLinetypeTableRecord
  2
AMZIGZAG
 70
     0
  3
/\/-/\/-/\/-/\/-/\/-/\/
 72
    65
 73
     2
 40
11.00009999999999
 49
0.0001
 74
     4
 75
   135
340
52
 46
0.04
 50
0.0
 44
0.0
 45
0.0
 49
-11.0
 74
     0
  0
LTYPE
  5
144B
330
5
100
AcDbSymbolTableRecord
100
AcDbLinetypeTableRecord
  2
ACISOWELD
 70
     0
  3
_ _ _ _ _
 72
    65
 73
     2
 40
2.0
 49
2.0
 74
     0
 49
-1.0
 74
     0
  0
LTYPE
  5
144C
330
5
100
AcDbSymbolTableRecord
100
AcDbLinetypeTableRecord
  2
ACISOTGB
 70
     0
  3
__ . . __ . .
 72
    65
 73
     6
 40
9.0
 49
4.0
 74
     0
 49
-1.0
 74
     0
 49
1.0
 74
     0
 49
-1.0
 74
     0
 49
1.0
 74
     0
 49
-1.0
 74
     0
  0
LTYPE
  5
144D
330
5
100
AcDbSymbolTableRecord
100
AcDbLinetypeTableRecord
  2
ACISOTGL
 70
     0
  3
_ _ _ _ _
 72
    65
 73
     2
 40
3.0
 49
2.0
 74
     0
 49
-1.0
 74
     0
  0
LTYPE
  5
1C35
330
5
100
AcDbSymbolTableRecord
100
AcDbLinetypeTableRecord
  2
CENTER
 70
     0
  3
Center ____ _ ____ _ ____ _ ____ _ ____ _ ____
 72
    65
 73
     4
 40
2.0
 49
1.25
 74
     0
 49
-0.25
 74
     0
 49
0.25
 74
     0
 49
-0.25
 74
     0
  0
LTYPE
  5
B899
330
5
100
AcDbSymbolTableRecord
100
AcDbLinetypeTableRecord
  2
PHANTOM2
 70
     0
  3
Phantom (.5x) ___ _ _ ___ _ _ ___ _ _ ___ _ _
 72
    65
 73
     6
 40
31.75
 49
15.875
 74
     0
 49
-3.174999999999999
 74
     0
 49
3.174999999999999
 74
     0
 49
-3.174999999999999
 74
     0
 49
3.174999999999999
 74
     0
 49
-3.174999999999999
 74
     0
  0
LTYPE
  5
BE5A
330
5
100
AcDbSymbolTableRecord
100
AcDbLinetypeTableRecord
  2
ACANSTGB
 70
     0
  3
__ . . __ . .
 72
    65
 73
     6
 40
0.35433070866
 49
0.15748031496
 74
     0
 49
-0.03937007874
 74
     0
 49
0.03937007874
 74
     0
 49
-0.03937007874
 74
     0
 49
0.03937007874
 74
     0
 49
-0.03937007874
 74
     0
  0
LTYPE
  5
BE5B
330
5
100
AcDbSymbolTableRecord
100
AcDbLinetypeTableRecord
  2
ACANSTGL
 70
     0
  3
_ _ _ _ _
 72
    65
 73
     2
 40
0.11811023622
 49
0.07874015748
 74
     0
 49
-0.03937007874
 74
     0
  0
ENDTAB
  0
TABLE
  2
LAYER
  5
2
330
0
100
AcDbSymbolTable
 70
     9
  0
LAYER
  5
10
330
2
100
AcDbSymbolTableRecord
100
AcDbLayerTableRecord
  2
0
 70
     0
 62
     7
  6
CONTINUOUS
  0
LAYER
  5
D0
330
2
100
AcDbSymbolTableRecord
100
AcDbLayerTableRecord
  2
圖層2
 70
     0
 62
     3
  6
CONTINUOUS
  0
LAYER
  5
450
330
2
100
AcDbSymbolTableRecord
100
AcDbLayerTableRecord
  2
DEFPOINTS
 70
     0
 62
    -7
  6
CONTINUOUS
  0
LAYER
  5
989
330
2
100
AcDbSymbolTableRecord
100
AcDbLayerTableRecord
  2
AM_5
 70
     0
 62
     5
  6
CONTINUOUS
  0
LAYER
  5
1C3A
330
2
100
AcDbSymbolTableRecord
100
AcDbLayerTableRecord
  2
AM_REFDIM
 70
     0
 62
     5
  6
CONTINUOUS
  0
LAYER
  5
DF31
330
2
100
AcDbSymbolTableRecord
100
AcDbLayerTableRecord
  2
AM_7
 70
     0
 62
     1
  6
AM_ISO08W050
  0
LAYER
  5
E91C
330
2
100
AcDbSymbolTableRecord
100
AcDbLayerTableRecord
  2
圖層4
 70
     0
 62
     7
  6
CONTINUOUS
  0
LAYER
  5
135C4
330
2
100
AcDbSymbolTableRecord
100
AcDbLayerTableRecord
  2
AM_VIS
 70
     0
 62
     7
  6
CONTINUOUS
  0
LAYER
  5
163A1
330
2
100
AcDbSymbolTableRecord
100
AcDbLayerTableRecord
  2
LOGO
 70
     0
 62
     7
  6
CONTINUOUS
  0
ENDTAB
  0
TABLE
  2
STYLE
  5
3
330
0
100
AcDbSymbolTable
 70
    12
  0
STYLE
  5
11
330
3
100
AcDbSymbolTableRecord
100
AcDbTextStyleTableRecord
  2
STANDARD
 70
     0
 40
0.0
 41
1.0
 50
0.0
 71
     0
 42
3.0
  3
ISOCP.SHX
  4
CHINESET.SHX
  0
STYLE
  5
52
330
3
100
AcDbSymbolTableRecord
100
AcDbTextStyleTableRecord
  2

 70
     1
 40
0.0
 41
1.0
 50
0.0
 71
     0
 42
2.5
  3
ltypeshp.shx
  4

  0
STYLE
  5
D3
330
3
100
AcDbSymbolTableRecord
100
AcDbTextStyleTableRecord
  2
ROMAND
 70
     0
 40
0.0
 41
1.0
 50
0.0
 71
     0
 42
6.0
  3
romand.shx
  4
chineset.shx
  0
STYLE
  5
D4
330
3
100
AcDbSymbolTableRecord
100
AcDbTextStyleTableRecord
  2
ROMANS
 70
     0
 40
0.0
 41
1.0
 50
0.0
 71
     0
 42
1.5
  3
romans
  4

  0
STYLE
  5
1442
330
3
100
AcDbSymbolTableRecord
100
AcDbTextStyleTableRecord
  2
ACISOTS
 70
     0
 40
1.0
 41
1.0
 50
0.0
 71
     0
 42
1.0
  3
isocp.shx
  4
chineset.shx
  0
STYLE
  5
144A
330
3
100
AcDbSymbolTableRecord
100
AcDbTextStyleTableRecord
  2
ACISOGDT
 70
     0
 40
0.0
 41
1.0
 50
0.0
 71
     0
 42
2.5
  3
amgdt.shx
  4

  0
STYLE
  5
167B
330
3
100
AcDbSymbolTableRecord
100
AcDbTextStyleTableRecord
  2
DAYUS
 70
     0
 40
0.0
 41
1.0
 50
0.0
 71
     0
 42
2.5
  3
simplex
  4
dayus
  0
STYLE
  5
BE5E
330
3
100
AcDbSymbolTableRecord
100
AcDbTextStyleTableRecord
  2
ACANSTS
 70
     0
 40
1.0
 41
1.0
 50
0.0
 71
     0
 42
1.5
  3
romans.shx
  4
chineset.shx
  0
STYLE
  5
BE5F
330
3
100
AcDbSymbolTableRecord
100
AcDbTextStyleTableRecord
  2
ACANSGDT
 70
     0
 40
0.0
 41
1.0
 50
0.0
 71
     0
 42
1.5
  3
amgdtans.shx
  4

  0
STYLE
  5
163A2
330
3
100
AcDbSymbolTableRecord
100
AcDbTextStyleTableRecord
  2
ITALICT
 70
     0
 40
0.0
 41
1.0
 50
0.0
 71
     0
 42
6.0
  3
italict
  4

  0
STYLE
  5
163A3
330
3
100
AcDbSymbolTableRecord
100
AcDbTextStyleTableRecord
  2
CHINESET
 70
     0
 40
0.0
 41
1.0
 50
0.0
 71
     0
 42
5.0
  3
simplex.shx
  4
chineset.shx
  0
STYLE
  5
163A4
330
3
100
AcDbSymbolTableRecord
100
AcDbTextStyleTableRecord
  2
LOGO
 70
     0
 40
0.0
 41
1.0
 50
0.0
 71
     0
 42
5.0
  3
LEI00DP.TTF
  4

1001
ACAD
1000
文鼎中粗隸
1071
    34865
  0
ENDTAB
  0
TABLE
  2
VIEW
  5
6
330
0
100
AcDbSymbolTable
 70
     0
  0
ENDTAB
  0
TABLE
  2
UCS
  5
7
330
0
100
AcDbSymbolTable
 70
     0
  0
ENDTAB
  0
TABLE
  2
APPID
  5
9
330
0
100
AcDbSymbolTable
 70
    19
  0
APPID
  5
12
330
9
100
AcDbSymbolTableRecord
100
AcDbRegAppTableRecord
  2
ACAD
 70
     0
  0
APPID
  5
30
330
9
100
AcDbSymbolTableRecord
100
AcDbRegAppTableRecord
  2
MCAD_NO_VIS
 70
     0
  0
APPID
  5
31
330
9
100
AcDbSymbolTableRecord
100
AcDbRegAppTableRecord
  2
ACAD_TEMP_GRAPHIC
 70
     0
  0
APPID
  5
455
330
9
100
AcDbSymbolTableRecord
100
AcDbRegAppTableRecord
  2
GENIUS_GENDTOL_13
 70
     0
  0
APPID
  5
6B34
330
9
100
AcDbSymbolTableRecord
100
AcDbRegAppTableRecord
  2
ACATTRIBSERVICES
 70
     0
  0
APPID
  5
DF34
330
9
100
AcDbSymbolTableRecord
100
AcDbRegAppTableRecord
  2
GENIUS_GENOREF_13
 70
     0
  0
APPID
  5
E304
330
9
100
AcDbSymbolTableRecord
100
AcDbRegAppTableRecord
  2
GENIUS_GENREC_14
 70
     0
  0
APPID
  5
E305
330
9
100
AcDbSymbolTableRecord
100
AcDbRegAppTableRecord
  2
GENIUS_GENODEF_13
 70
     0
  0
APPID
  5
E306
330
9
100
AcDbSymbolTableRecord
100
AcDbRegAppTableRecord
  2
GENIUS_GENOBJ-N-REC_13
 70
     0
  0
APPID
  5
E7E4
330
9
100
AcDbSymbolTableRecord
100
AcDbRegAppTableRecord
  2
GEVID1067829771
 70
     0
  0
APPID
  5
E7E5
330
9
100
AcDbSymbolTableRecord
100
AcDbRegAppTableRecord
  2
GEVDC
 70
     0
  0
APPID
  5
E7E6
330
9
100
AcDbSymbolTableRecord
100
AcDbRegAppTableRecord
  2
GEVRADREF
 70
     0
  0
APPID
  5
E7E9
330
9
100
AcDbSymbolTableRecord
100
AcDbRegAppTableRecord
  2
GENIUS_GENBH_13
 70
     0
  0
APPID
  5
E7EC
330
9
100
AcDbSymbolTableRecord
100
AcDbRegAppTableRecord
  2
GENIUS_GENOBJ-NBEHI-BHF_13
 70
     0
  0
APPID
  5
E7ED
330
9
100
AcDbSymbolTableRecord
100
AcDbRegAppTableRecord
  2
GENIUS_GENOENT_13
 70
     0
  0
APPID
  5
E7EE
330
9
100
AcDbSymbolTableRecord
100
AcDbRegAppTableRecord
  2
GENIUS_GENOLIS_13
 70
     0
  0
APPID
  5
E7F0
330
9
100
AcDbSymbolTableRecord
100
AcDbRegAppTableRecord
  2
GENIUS_GENOBJ-NBEHI-BHB_13
 70
     0
  0
APPID
  5
E805
330
9
100
AcDbSymbolTableRecord
100
AcDbRegAppTableRecord
  2
GEVID1067829772
 70
     0
  0
APPID
  5
135CA
330
9
100
AcDbSymbolTableRecord
100
AcDbRegAppTableRecord
  2
GENIUS_GENOBJ-N-CRS_13
 70
     0
  0
ENDTAB
  0
TABLE
  2
DIMSTYLE
  5
A
330
0
100
AcDbSymbolTable
 70
    14
  0
DIMSTYLE
105
98A
330
A
100
AcDbSymbolTableRecord
100
AcDbDimStyleTableRecord
  2
AM_ISO
 70
     0
  3

  4
"
  5

  6

  7

 40
0.6
 41
3.0
 42
2.0
 43
10.0
 44
1.5
 45
0.0
 46
0.0
 47
0.1
 48
0.1
140
3.0
141
0.0
142
0.0
143
0.0393701
144
1.0
145
0.0
146
0.71
147
0.8
 71
     0
 72
     0
 73
     0
 74
     0
 75
     0
 76
     0
 77
     1
 78
     8
170
     0
171
     2
172
     1
173
     0
174
     0
175
     0
176
     5
177
   256
178
     5
270
     2
271
     2
272
     2
273
     2
274
     2
340
11
275
     0
280
     0
281
     0
282
     0
283
     0
284
     0
285
     0
286
     0
287
     3
288
     0
  0
DIMSTYLE
105
98B
330
A
100
AcDbSymbolTableRecord
100
AcDbDimStyleTableRecord
  2
AM_ISO$3
 70
     0
  3

  4
"
  5

  6

  7

 40
0.6
 41
3.0
 42
2.0
 43
10.0
 44
1.5
 45
0.0
 46
0.0
 47
0.1
 48
0.1
140
3.0
141
0.0
142
0.0
143
0.0393701
144
1.0
145
0.0
146
0.71
147
0.8
 71
     0
 72
     0
 73
     0
 74
     1
 75
     0
 76
     0
 77
     1
 78
     8
170
     0
171
     2
172
     0
173
     0
174
     0
175
     0
176
     5
177
   256
178
     5
270
     2
271
     2
272
     2
273
     2
274
     2
340
11
275
     0
280
     0
281
     0
282
     0
283
     0
284
     0
285
     0
286
     0
287
     0
288
     1
  0
DIMSTYLE
105
98C
330
A
100
AcDbSymbolTableRecord
100
AcDbDimStyleTableRecord
  2
AM_ISO$4
 70
     0
  3

  4
"
  5

  6

  7

 40
0.6
 41
3.0
 42
2.0
 43
10.0
 44
1.5
 45
0.0
 46
0.0
 47
0.1
 48
0.1
140
3.0
141
0.0
142
0.0
143
0.0393701
144
1.0
145
0.0
146
0.71
147
0.8
 71
     0
 72
     0
 73
     0
 74
     1
 75
     0
 76
     0
 77
     1
 78
     8
170
     0
171
     2
172
     0
173
     0
174
     0
175
     0
176
     5
177
   256
178
     5
270
     2
271
     2
272
     2
273
     2
274
     2
340
11
275
     0
280
     0
281
     0
282
     0
283
     0
284
     0
285
     0
286
     0
287
     0
288
     1
  0
DIMSTYLE
105
98D
330
A
100
AcDbSymbolTableRecord
100
AcDbDimStyleTableRecord
  2
AM_ISO$6
 70
     0
  3

  4
"
  5

  6

  7

 40
0.6
 41
3.0
 42
2.0
 43
10.0
 44
1.5
 45
0.0
 46
0.0
 47
0.1
 48
0.1
140
3.0
141
0.0
142
0.0
143
0.0393701
144
1.0
145
0.0
146
0.71
147
0.8
 71
     0
 72
     0
 73
     0
 74
     0
 75
     0
 76
     0
 77
     0
 78
     8
170
     0
171
     2
172
     1
173
     0
174
     0
175
     0
176
     5
177
   256
178
     5
270
     2
271
     2
272
     2
273
     2
274
     2
340
11
275
     0
280
     0
281
     0
282
     0
283
     0
284
     0
285
     0
286
     0
287
     3
288
     0
  0
DIMSTYLE
105
98E
330
A
100
AcDbSymbolTableRecord
100
AcDbDimStyleTableRecord
  2
AM_ISO$7
 70
     0
  3

  4
"
  5

  6

  7

 40
0.6
 41
3.0
 42
2.0
 43
10.0
 44
1.5
 45
0.0
 46
0.0
 47
0.1
 48
0.1
140
5.0
141
0.0
142
0.0
143
0.0393701
144
1.0
145
0.0
146
0.71
147
0.8
 71
     0
 72
     0
 73
     0
 74
     0
 75
     0
 76
     0
 77
     1
 78
     8
170
     0
171
     2
172
     1
173
     0
174
     0
175
     0
176
     5
177
   256
178
     5
270
     2
271
     2
272
     2
273
     2
274
     2
340
11
275
     0
280
     0
281
     0
282
     0
283
     0
284
     0
285
     0
286
     0
287
     3
288
     0
  0
DIMSTYLE
105
98F
330
A
100
AcDbSymbolTableRecord
100
AcDbDimStyleTableRecord
  2
AM_ISO$SF
 70
     0
  3

  4
"
  5

  6

  7

 40
0.5
 41
2.5
 42
1.0
 43
10.0
 44
1.0
 45
0.0
 46
0.0
 47
0.1
 48
0.1
140
3.5
141
0.0
142
0.0
143
0.0393701
144
1.0
145
0.0
146
0.71
147
1.5
 71
     0
 72
     0
 73
     0
 74
     0
 75
     1
 76
     1
 77
     1
 78
     8
170
     0
171
     2
172
     1
173
     0
174
     0
175
     0
176
   256
177
   256
178
     2
270
     2
271
     2
272
     2
273
     2
274
     2
340
11
275
     0
280
     0
281
     0
282
     0
283
     0
284
     0
285
     0
286
     0
287
     3
288
     0
  0
DIMSTYLE
105
994
330
A
100
AcDbSymbolTableRecord
100
AcDbDimStyleTableRecord
  2
AM_ISO$SH
 70
     0
  3

  4
"
  5

  6
GENAXEH
  7

 40
0.5
 41
2.5
 42
1.0
 43
10.0
 44
1.0
 45
0.0
 46
0.0
 47
0.1
 48
0.1
140
3.5
141
0.0
142
0.0
143
0.0393701
144
2.0
145
0.0
146
0.71
147
1.5
 71
     0
 72
     0
 73
     0
 74
     0
 75
     1
 76
     1
 77
     1
 78
     8
170
     0
171
     2
172
     1
173
     1
174
     0
175
     0
176
   256
177
   256
178
     2
270
     2
271
     2
272
     2
273
     2
274
     2
340
11
275
     0
280
     0
281
     0
282
     0
283
     0
284
     0
285
     0
286
     0
287
     3
288
     0
  0
DIMSTYLE
105
6E5D
330
A
100
AcDbSymbolTableRecord
100
AcDbDimStyleTableRecord
  2
AM_ANSI
 70
     0
  3

  4
"
  5

  6

  7

 40
0.8
 41
3.0
 42
1.5
 43
5.0
 44
2.0
 45
0.0
 46
0.0
 47
0.1
 48
0.1
140
3.0
141
-1.5
142
0.0
143
0.0393701
144
0.833333333
145
0.0
146
0.6
147
0.8
 71
     0
 72
     0
 73
     0
 74
     0
 75
     0
 76
     0
 77
     1
 78
     8
170
     0
171
     2
172
     1
173
     0
174
     0
175
     0
176
   256
177
   256
178
   256
270
     2
271
     2
272
     2
273
     2
274
     2
340
167B
275
     0
280
     0
281
     0
282
     0
283
     1
284
     8
285
     0
286
     0
287
     3
288
     0
  0
DIMSTYLE
105
6E5E
330
A
100
AcDbSymbolTableRecord
100
AcDbDimStyleTableRecord
  2
AM_ANSI$3
 70
     0
  3

  4
"
  5

  6

  7

 40
0.8
 41
3.0
 42
1.5
 43
5.0
 44
2.0
 45
0.0
 46
0.0
 47
0.1
 48
0.1
140
3.0
141
-1.5
142
0.0
143
0.0393701
144
0.833333333
145
0.0
146
0.6
147
0.8
 71
     0
 72
     0
 73
     0
 74
     0
 75
     0
 76
     0
 77
     1
 78
     8
170
     0
171
     2
172
     1
173
     0
174
     0
175
     0
176
   256
177
   256
178
   256
270
     2
271
     2
272
     2
273
     2
274
     2
340
167B
275
     0
280
     0
281
     0
282
     0
283
     1
284
     8
285
     0
286
     0
287
     0
288
     1
  0
DIMSTYLE
105
6E5F
330
A
100
AcDbSymbolTableRecord
100
AcDbDimStyleTableRecord
  2
AM_ANSI$7
 70
     0
  3

  4
"
  5

  6

  7

 40
0.8
 41
3.0
 42
1.5
 43
5.0
 44
2.0
 45
0.0
 46
0.0
 47
0.1
 48
0.1
140
5.0
141
-1.5
142
0.0
143
0.0393701
144
0.833333333
145
0.0
146
0.6
147
0.8
 71
     0
 72
     0
 73
     0
 74
     0
 75
     0
 76
     0
 77
     1
 78
     8
170
     0
171
     2
172
     1
173
     0
174
     0
175
     0
176
   256
177
   256
178
   256
270
     2
271
     2
272
     2
273
     2
274
     2
340
167B
275
     0
280
     0
281
     0
282
     0
283
     1
284
     8
285
     0
286
     0
287
     3
288
     0
  0
DIMSTYLE
105
B991
102
{ACAD_REACTORS
330
1583F
330
1581B
330
157CD
330
157A9
330
15702
330
15726
330
15758
330
156BA
330
156DE
330
15F13
330
15F62
102
}
330
A
100
AcDbSymbolTableRecord
100
AcDbDimStyleTableRecord
  2
STANDARD
 70
     0
  3

  4

  5

  6

  7

 40
1.0
 41
3.0
 42
1.5
 43
10.0
 44
2.0
 45
0.0
 46
0.0
 47
0.01
 48
0.01
140
3.5
141
3.0
142
0.0
143
25.4
144
1.0
145
0.0
146
0.6
147
0.8
 71
     0
 72
     0
 73
     0
 74
     0
 75
     0
 76
     0
 77
     1
 78
     8
170
     0
171
     2
172
     1
173
     0
174
     0
175
     0
176
   256
177
   256
178
   256
270
     2
271
     2
272
     2
273
     2
274
     2
340
11
275
     0
280
     0
281
     0
282
     0
283
     0
284
     8
285
     0
286
     0
287
     3
288
     0
  0
DIMSTYLE
105
BE61
330
A
100
AcDbSymbolTableRecord
100
AcDbDimStyleTableRecord
  2
AM_ANSI$4
 70
     0
  3

  4
mm
  5

  6

  7

 40
1.0
 41
0.1
 42
0.05
 43
0.5
 44
0.1
 45
0.0
 46
0.0
 47
0.1
 48
0.1
140
0.12
141
0.0
142
0.0
143
25.4
144
1.0
145
0.0
146
0.71
147
0.06
 71
     0
 72
     0
 73
     1
 74
     1
 75
     0
 76
     0
 77
     0
 78
     7
170
     0
171
     2
172
     0
173
     0
174
     0
175
     0
176
   256
177
   256
178
     2
270
     2
271
     4
272
     4
273
     2
274
     4
340
11
275
     0
280
     0
281
     0
282
     0
283
     1
284
     7
285
     0
286
     0
287
     0
288
     1
  0
DIMSTYLE
105
BE62
330
A
100
AcDbSymbolTableRecord
100
AcDbDimStyleTableRecord
  2
AM_ANSI$SF
 70
     0
  3

  4
mm
  5

  6

  7

 40
1.0
 41
0.1
 42
0.05
 43
0.5
 44
0.1
 45
0.0
 46
0.0
 47
0.1
 48
0.1
140
0.12
141
0.0
142
0.0
143
25.4
144
1.0
145
0.0
146
0.71
147
0.06
 71
     0
 72
     0
 73
     1
 74
     1
 75
     1
 76
     1
 77
     0
 78
     7
170
     0
171
     2
172
     0
173
     0
174
     0
175
     0
176
   256
177
   256
178
     2
270
     2
271
     4
272
     4
273
     2
274
     4
340
11
275
     0
280
     0
281
     0
282
     0
283
     1
284
     7
285
     0
286
     0
287
     3
288
     0
  0
DIMSTYLE
105
BE63
330
A
100
AcDbSymbolTableRecord
100
AcDbDimStyleTableRecord
  2
AM_ANSI$SH
 70
     0
  3

  4
mm
  5

  6
GENAXEH
  7

 40
1.0
 41
0.1
 42
0.05
 43
0.5
 44
0.1
 45
0.0
 46
0.0
 47
0.1
 48
0.1
140
0.12
141
0.0
142
0.0
143
25.4
144
1.0
145
0.0
146
0.71
147
0.06
 71
     0
 72
     0
 73
     1
 74
     1
 75
     1
 76
     1
 77
     0
 78
     7
170
     0
171
     2
172
     0
173
     1
174
     0
175
     0
176
   256
177
   256
178
     2
270
     2
271
     4
272
     4
273
     2
274
     4
340
11
275
     0
280
     0
281
     0
282
     0
283
     1
284
     7
285
     0
286
     0
287
     3
288
     0
  0
ENDTAB
  0
TABLE
  2
BLOCK_RECORD
  5
1
330
0
100
AcDbSymbolTable
 70
    15
  0
BLOCK_RECORD
  5
1F
102
{ACAD_XDICTIONARY
360
3A4
102
}
330
1
100
AcDbSymbolTableRecord
100
AcDbBlockTableRecord
  2
*MODEL_SPACE
  0
BLOCK_RECORD
  5
1B
102
{ACAD_XDICTIONARY
360
165A2
102
}
330
1
100
AcDbSymbolTableRecord
100
AcDbBlockTableRecord
  2
*PAPER_SPACE
  0
BLOCK_RECORD
  5
990
330
1
100
AcDbSymbolTableRecord
100
AcDbBlockTableRecord
  2
GENAXEH
  0
BLOCK_RECORD
  5
156BB
330
1
100
AcDbSymbolTableRecord
100
AcDbBlockTableRecord
  2
*D2
  0
BLOCK_RECORD
  5
156DF
330
1
100
AcDbSymbolTableRecord
100
AcDbBlockTableRecord
  2
*D3
  0
BLOCK_RECORD
  5
15703
330
1
100
AcDbSymbolTableRecord
100
AcDbBlockTableRecord
  2
*D4
  0
BLOCK_RECORD
  5
15727
330
1
100
AcDbSymbolTableRecord
100
AcDbBlockTableRecord
  2
*D5
  0
BLOCK_RECORD
  5
15759
330
1
100
AcDbSymbolTableRecord
100
AcDbBlockTableRecord
  2
*D6
  0
BLOCK_RECORD
  5
157AA
330
1
100
AcDbSymbolTableRecord
100
AcDbBlockTableRecord
  2
*D7
  0
BLOCK_RECORD
  5
157CE
330
1
100
AcDbSymbolTableRecord
100
AcDbBlockTableRecord
  2
*D8
  0
BLOCK_RECORD
  5
1581C
330
1
100
AcDbSymbolTableRecord
100
AcDbBlockTableRecord
  2
*D9
  0
BLOCK_RECORD
  5
15840
330
1
100
AcDbSymbolTableRecord
100
AcDbBlockTableRecord
  2
*D10
  0
BLOCK_RECORD
  5
15BBA
330
1
100
AcDbSymbolTableRecord
100
AcDbBlockTableRecord
  2
GENDOT
  0
BLOCK_RECORD
  5
15F14
330
1
100
AcDbSymbolTableRecord
100
AcDbBlockTableRecord
  2
*D12
  0
BLOCK_RECORD
  5
15F63
330
1
100
AcDbSymbolTableRecord
100
AcDbBlockTableRecord
  2
*D13
  0
BLOCK_RECORD
  5
16624
330
1
100
AcDbSymbolTableRecord
100
AcDbBlockTableRecord
  2
*S14
  0
ENDTAB
  0
ENDSEC
  0
SECTION
  2
BLOCKS
  0
BLOCK
  5
20
330
1F
100
AcDbEntity
  8
0
100
AcDbBlockBegin
  2
*MODEL_SPACE
 70
     0
 10
0.0
 20
0.0
 30
0.0
  3
*MODEL_SPACE
  1

  0
ENDBLK
  5
21
330
1F
100
AcDbEntity
  8
0
100
AcDbBlockEnd
  0
BLOCK
  5
1C
330
1B
100
AcDbEntity
 67
     1
  8
0
100
AcDbBlockBegin
  2
*PAPER_SPACE
 70
     0
 10
0.0
 20
0.0
 30
0.0
  3
*PAPER_SPACE
  1

  0
ENDBLK
  5
1D
330
1B
100
AcDbEntity
 67
     1
  8
0
100
AcDbBlockEnd
  0
BLOCK
  5
992
330
990
100
AcDbEntity
  8
0
100
AcDbBlockBegin
  2
GENAXEH
 70
     0
 10
0.0
 20
0.0
 30
0.0
  3
GENAXEH
  1

  0
LINE
  5
991
330
990
100
AcDbEntity
  8
0
100
AcDbLine
 10
-1.0
 20
0.0
 30
0.0
 11
1.0
 21
0.0
 31
0.0
  0
ENDBLK
  5
993
330
990
100
AcDbEntity
  8
0
100
AcDbBlockEnd
  0
BLOCK
  5
156C5
330
156BB
100
AcDbEntity
  8
0
100
AcDbBlockBegin
  2
*D2
 70
     1
 10
0.0
 20
0.0
 30
0.0
  3
*D2
  1

  0
LINE
  5
16583
330
156BB
100
AcDbEntity
  8
AM_5
100
AcDbLine
 10
746.7977184913441
 20
150.2416682346162
 30
0.0
 11
668.1851141843102
 21
150.2416682346163
 31
0.0
  0
LINE
  5
16584
330
156BB
100
AcDbEntity
  8
AM_5
100
AcDbLine
 10
755.7977184913441
 20
178.2416682346162
 30
0.0
 11
668.1851141843102
 21
178.2416682346163
 31
0.0
  0
LINE
  5
16585
330
156BB
100
AcDbEntity
  8
AM_5
100
AcDbLine
 10
670.6851141843102
 20
153.9916682346162
 30
0.0
 11
670.6851141843102
 21
174.4916682346163
 31
0.0
  0
SOLID
  5
16586
330
156BB
100
AcDbEntity
  8
AM_5
100
AcDbTrace
 10
670.0601141843102
 20
153.9916682346162
 30
0.0
 11
671.3101141843102
 21
153.9916682346162
 31
0.0
 12
670.6851141843102
 22
150.2416682346163
 32
0.0
 13
670.6851141843102
 23
150.2416682346163
 33
0.0
  0
SOLID
  5
16587
330
156BB
100
AcDbEntity
  8
AM_5
100
AcDbTrace
 10
670.0601141843102
 20
174.4916682346163
 30
0.0
 11
671.3101141843102
 21
174.4916682346163
 31
0.0
 12
670.6851141843102
 22
178.2416682346163
 32
0.0
 13
670.6851141843102
 23
178.2416682346163
 33
0.0
  0
MTEXT
  5
16588
330
156BB
100
AcDbEntity
  8
AM_5
100
AcDbMText
 10
667.497183574074
 20
164.2416682346164
 30
0.0
 40
4.375
 41
0.0
 71
     5
 72
     1
  1
28
 11
0.0000000000000001
 21
1.0
 31
0.0
1001
ACAD
1000
MTEXTBEGIN
1070
    73
1070
     1
1070
    44
1040
1.0
1070
    74
1070
     0
1000
MTEXTEND
  0
POINT
  5
16589
330
156BB
100
AcDbEntity
  8
DEFPOINTS
 62
     0
100
AcDbPoint
 10
748.6727184913441
 20
150.2416682346162
 30
0.0
  0
POINT
  5
1658A
330
156BB
100
AcDbEntity
  8
DEFPOINTS
 62
     0
100
AcDbPoint
 10
757.672718491344
 20
178.2416682346162
 30
0.0
  0
POINT
  5
1658B
330
156BB
100
AcDbEntity
  8
DEFPOINTS
 62
     0
100
AcDbPoint
 10
670.6851141843102
 20
178.2416682346163
 30
0.0
  0
ENDBLK
  5
156C6
330
156BB
100
AcDbEntity
  8
0
100
AcDbBlockEnd
  0
BLOCK
  5
156E9
330
156DF
100
AcDbEntity
  8
0
100
AcDbBlockBegin
  2
*D3
 70
     1
 10
0.0
 20
0.0
 30
0.0
  3
*D3
  1

  0
LINE
  5
1655F
330
156DF
100
AcDbEntity
  8
AM_5
100
AcDbLine
 10
764.422718491344
 20
186.8666682346162
 30
0.0
 11
764.422718491344
 21
201.2416692346162
 31
0.0
  0
LINE
  5
16560
330
156DF
100
AcDbEntity
  8
AM_5
100
AcDbLine
 10
782.422718491344
 20
186.8666682346162
 30
0.0
 11
782.422718491344
 21
201.2416692346162
 31
0.0
  0
LINE
  5
16561
330
156DF
100
AcDbEntity
  8
AM_5
100
AcDbLine
 10
768.1727184913441
 20
198.7416692346162
 30
0.0
 11
778.672718491344
 21
198.7416692346162
 31
0.0
  0
SOLID
  5
16562
330
156DF
100
AcDbEntity
  8
AM_5
100
AcDbTrace
 10
768.1727184913441
 20
199.3666692346162
 30
0.0
 11
768.1727184913441
 21
198.1166692346162
 31
0.0
 12
764.422718491344
 22
198.7416692346162
 32
0.0
 13
764.422718491344
 23
198.7416692346162
 33
0.0
  0
SOLID
  5
16563
330
156DF
100
AcDbEntity
  8
AM_5
100
AcDbTrace
 10
778.672718491344
 20
199.3666692346162
 30
0.0
 11
778.672718491344
 21
198.1166692346162
 31
0.0
 12
782.422718491344
 22
198.7416692346162
 32
0.0
 13
782.422718491344
 23
198.7416692346162
 33
0.0
  0
MTEXT
  5
16564
330
156DF
100
AcDbEntity
  8
AM_5
100
AcDbMText
 10
773.422718491344
 20
201.9291692346162
 30
0.0
 40
4.375
 41
0.0
 71
     5
 72
     1
  1
18
1001
ACAD
1000
MTEXTBEGIN
1070
    73
1070
     1
1070
    44
1040
1.0
1070
    74
1070
     0
1000
MTEXTEND
  0
POINT
  5
16565
330
156DF
100
AcDbEntity
  8
DEFPOINTS
 62
     0
100
AcDbPoint
 10
764.422718491344
 20
184.9916682346162
 30
0.0
  0
POINT
  5
16566
330
156DF
100
AcDbEntity
  8
DEFPOINTS
 62
     0
100
AcDbPoint
 10
782.422718491344
 20
184.9916682346162
 30
0.0
  0
POINT
  5
16567
330
156DF
100
AcDbEntity
  8
DEFPOINTS
 62
     0
100
AcDbPoint
 10
782.422718491344
 20
198.7416692346162
 30
0.0
  0
ENDBLK
  5
156EA
330
156DF
100
AcDbEntity
  8
0
100
AcDbBlockEnd
  0
BLOCK
  5
1570D
330
15703
100
AcDbEntity
  8
0
100
AcDbBlockBegin
  2
*D4
 70
     1
 10
0.0
 20
0.0
 30
0.0
  3
*D4
  1

  0
LINE
  5
16571
330
15703
100
AcDbEntity
  8
AM_5
100
AcDbLine
 10
755.4227184913441
 20
141.6166682346162
 30
0.0
 11
755.4227184913441
 21
127.2416682346162
 31
0.0
  0
LINE
  5
16572
330
15703
100
AcDbEntity
  8
AM_5
100
AcDbLine
 10
791.4227184913441
 20
141.6166682346162
 30
0.0
 11
791.4227184913441
 21
127.2416682346162
 31
0.0
  0
LINE
  5
16573
330
15703
100
AcDbEntity
  8
AM_5
100
AcDbLine
 10
759.172718491344
 20
129.7416682346162
 30
0.0
 11
787.672718491344
 21
129.7416682346162
 31
0.0
  0
SOLID
  5
16574
330
15703
100
AcDbEntity
  8
AM_5
100
AcDbTrace
 10
759.172718491344
 20
130.3666682346162
 30
0.0
 11
759.172718491344
 21
129.1166682346162
 31
0.0
 12
755.4227184913441
 22
129.7416682346162
 32
0.0
 13
755.4227184913441
 23
129.7416682346162
 33
0.0
  0
SOLID
  5
16575
330
15703
100
AcDbEntity
  8
AM_5
100
AcDbTrace
 10
787.672718491344
 20
130.3666682346162
 30
0.0
 11
787.672718491344
 21
129.1166682346162
 31
0.0
 12
791.4227184913441
 22
129.7416682346162
 32
0.0
 13
791.4227184913441
 23
129.7416682346162
 33
0.0
  0
MTEXT
  5
16576
330
15703
100
AcDbEntity
  8
AM_5
100
AcDbMText
 10
773.422718491344
 20
132.9291682346162
 30
0.0
 40
4.375
 41
0.0
 71
     5
 72
     1
  1
36
1001
ACAD
1000
MTEXTBEGIN
1070
    73
1070
     1
1070
    44
1040
1.0
1070
    74
1070
     0
1000
MTEXTEND
  0
POINT
  5
16577
330
15703
100
AcDbEntity
  8
DEFPOINTS
 62
     0
100
AcDbPoint
 10
755.4227184913441
 20
143.4916682346162
 30
0.0
  0
POINT
  5
16578
330
15703
100
AcDbEntity
  8
DEFPOINTS
 62
     0
100
AcDbPoint
 10
791.4227184913441
 20
143.4916682346162
 30
0.0
  0
POINT
  5
16579
330
15703
100
AcDbEntity
  8
DEFPOINTS
 62
     0
100
AcDbPoint
 10
791.4227184913441
 20
129.7416682346162
 30
0.0
  0
ENDBLK
  5
1570E
330
15703
100
AcDbEntity
  8
0
100
AcDbBlockEnd
  0
BLOCK
  5
15733
330
15727
100
AcDbEntity
  8
0
100
AcDbBlockBegin
  2
*D5
 70
     1
 10
0.0
 20
0.0
 30
0.0
  3
*D5
  1

  0
LINE
  5
16610
330
15727
100
AcDbEntity
  8
AM_5
100
AcDbLine
 10
828.797718491344
 20
141.7416682346162
 30
0.0
 11
878.6603227983782
 21
141.7416682346162
 31
0.0
  0
LINE
  5
16611
330
15727
100
AcDbEntity
  8
AM_5
100
AcDbLine
 10
835.297718491344
 20
147.7416682346162
 30
0.0
 11
878.6603227983782
 21
147.7416682346162
 31
0.0
  0
LINE
  5
16612
330
15727
100
AcDbEntity
  8
AM_5
100
AcDbLine
 10
876.1603227983782
 20
137.9916682346162
 30
0.0
 11
876.1603227983782
 21
134.2416682346162
 31
0.0
  0
LINE
  5
16613
330
15727
100
AcDbEntity
  8
AM_5
100
AcDbLine
 10
876.1603227983782
 20
151.4916682346162
 30
0.0
 11
876.1603227983782
 21
155.2416682346162
 31
0.0
  0
LINE
  5
16614
330
15727
100
AcDbEntity
  8
AM_5
100
AcDbLine
 10
876.1603227983782
 20
141.7416682346162
 30
0.0
 11
876.1603227983782
 21
147.7416682346162
 31
0.0
  0
SOLID
  5
16615
330
15727
100
AcDbEntity
  8
AM_5
100
AcDbTrace
 10
875.5353227983782
 20
137.9916682346162
 30
0.0
 11
876.7853227983781
 21
137.9916682346162
 31
0.0
 12
876.1603227983782
 22
141.7416682346162
 32
0.0
 13
876.1603227983782
 23
141.7416682346162
 33
0.0
  0
INSERT
  5
16616
330
15727
100
AcDbEntity
  8
AM_5
100
AcDbBlockReference
  2
GENDOT
 10
876.1603227983782
 20
147.7416682346162
 30
0.0
 41
3.75
 42
3.75
 43
3.75
 50
270.0
  0
MTEXT
  5
16617
330
15727
100
AcDbEntity
  8
AM_5
100
AcDbMText
 10
872.9728227983782
 20
144.7416682346163
 30
0.0
 40
4.375
 41
0.0
 71
     5
 72
     1
  1
6
 11
0.0000000000000001
 21
1.0
 31
0.0
1001
ACAD
1000
MTEXTBEGIN
1070
    73
1070
     1
1070
    44
1040
1.0
1070
    74
1070
     0
1000
MTEXTEND
  0
POINT
  5
16618
330
15727
100
AcDbEntity
  8
DEFPOINTS
 62
     0
100
AcDbPoint
 10
826.9227184913441
 20
141.7416682346162
 30
0.0
  0
POINT
  5
16619
330
15727
100
AcDbEntity
  8
DEFPOINTS
 62
     0
100
AcDbPoint
 10
833.4227184913441
 20
147.7416682346162
 30
0.0
  0
POINT
  5
1661A
330
15727
100
AcDbEntity
  8
DEFPOINTS
 62
     0
100
AcDbPoint
 10
876.1603227983782
 20
147.7416682346162
 30
0.0
  0
ENDBLK
  5
15734
330
15727
100
AcDbEntity
  8
0
100
AcDbBlockEnd
  0
BLOCK
  5
15763
330
15759
100
AcDbEntity
  8
0
100
AcDbBlockBegin
  2
*D6
 70
     1
 10
0.0
 20
0.0
 30
0.0
  3
*D6
  1

  0
LINE
  5
1661B
330
15759
100
AcDbEntity
  8
AM_5
100
AcDbLine
 10
835.297718491344
 20
169.7416682346162
 30
0.0
 11
878.6603227983782
 21
169.7416682346162
 31
0.0
  0
LINE
  5
1661C
330
15759
100
AcDbEntity
  8
AM_5
100
AcDbLine
 10
835.297718491344
 20
147.7416682346162
 30
0.0
 11
878.6603227983782
 21
147.7416682346162
 31
0.0
  0
LINE
  5
1661D
330
15759
100
AcDbEntity
  8
AM_5
100
AcDbLine
 10
876.1603227983782
 20
165.9916682346162
 30
0.0
 11
876.1603227983782
 21
151.4916682346162
 31
0.0
  0
SOLID
  5
1661E
330
15759
100
AcDbEntity
  8
AM_5
100
AcDbTrace
 10
875.5353227983782
 20
165.9916682346162
 30
0.0
 11
876.7853227983781
 21
165.9916682346162
 31
0.0
 12
876.1603227983782
 22
169.7416682346162
 32
0.0
 13
876.1603227983782
 23
169.7416682346162
 33
0.0
  0
INSERT
  5
1661F
330
15759
100
AcDbEntity
  8
AM_5
100
AcDbBlockReference
  2
GENDOT
 10
876.1603227983782
 20
147.7416682346162
 30
0.0
 41
3.75
 42
3.75
 43
3.75
 50
270.0
  0
MTEXT
  5
16620
330
15759
100
AcDbEntity
  8
AM_5
100
AcDbMText
 10
872.9723921881419
 20
158.7416682346163
 30
0.0
 40
4.375
 41
0.0
 71
     5
 72
     1
  1
22
 11
0.0000000000000001
 21
1.0
 31
0.0
1001
ACAD
1000
MTEXTBEGIN
1070
    73
1070
     1
1070
    44
1040
1.0
1070
    74
1070
     0
1000
MTEXTEND
  0
POINT
  5
16621
330
15759
100
AcDbEntity
  8
DEFPOINTS
 62
     0
100
AcDbPoint
 10
833.4227184913441
 20
169.7416682346162
 30
0.0
  0
POINT
  5
16622
330
15759
100
AcDbEntity
  8
DEFPOINTS
 62
     0
100
AcDbPoint
 10
833.4227184913441
 20
147.7416682346162
 30
0.0
  0
POINT
  5
16623
330
15759
100
AcDbEntity
  8
DEFPOINTS
 62
     0
100
AcDbPoint
 10
876.1603227983782
 20
147.7416682346162
 30
0.0
  0
ENDBLK
  5
15764
330
15759
100
AcDbEntity
  8
0
100
AcDbBlockEnd
  0
BLOCK
  5
157B4
330
157AA
100
AcDbEntity
  8
0
100
AcDbBlockBegin
  2
*D7
 70
     1
 10
0.0
 20
0.0
 30
0.0
  3
*D7
  1

  0
LINE
  5
16044
330
157AA
100
AcDbEntity
  8
AM_5
100
AcDbLine
 10
718.047718491344
 20
3.533731090914905
 30
0.0
 11
668.422718491344
 21
3.533731090914919
 31
0.0
  0
LINE
  5
16045
330
157AA
100
AcDbEntity
  8
AM_5
100
AcDbLine
 10
719.5477184913441
 20
84.03373109091491
 30
0.0
 11
668.422718491344
 21
84.03373109091493
 31
0.0
  0
LINE
  5
16046
330
157AA
100
AcDbEntity
  8
AM_5
100
AcDbLine
 10
670.9227184913441
 20
7.283731090914919
 30
0.0
 11
670.9227184913441
 21
80.28373109091493
 31
0.0
  0
SOLID
  5
16047
330
157AA
100
AcDbEntity
  8
AM_5
100
AcDbTrace
 10
670.297718491344
 20
7.283731090914919
 30
0.0
 11
671.547718491344
 21
7.283731090914919
 31
0.0
 12
670.9227184913441
 22
3.533731090914919
 32
0.0
 13
670.9227184913441
 23
3.533731090914919
 33
0.0
  0
SOLID
  5
16048
330
157AA
100
AcDbEntity
  8
AM_5
100
AcDbTrace
 10
670.297718491344
 20
80.28373109091493
 30
0.0
 11
671.547718491344
 21
80.28373109091493
 31
0.0
 12
670.9227184913441
 22
84.03373109091493
 32
0.0
 13
670.9227184913441
 23
84.03373109091493
 33
0.0
  0
MTEXT
  5
16049
330
157AA
100
AcDbEntity
  8
AM_5
100
AcDbMText
 10
667.735218491344
 20
43.78373109091502
 30
0.0
 40
4.375
 41
0.0
 71
     5
 72
     1
  1
80.5
 11
0.0000000000000001
 21
1.0
 31
0.0
1001
ACAD
1000
MTEXTBEGIN
1070
    73
1070
     1
1070
    44
1040
1.0
1070
    74
1070
     0
1000
MTEXTEND
  0
POINT
  5
1604A
330
157AA
100
AcDbEntity
  8
DEFPOINTS
 62
     0
100
AcDbPoint
 10
719.922718491344
 20
3.533731090914905
 30
0.0
  0
POINT
  5
1604B
330
157AA
100
AcDbEntity
  8
DEFPOINTS
 62
     0
100
AcDbPoint
 10
721.4227184913441
 20
84.03373109091491
 30
0.0
  0
POINT
  5
1604C
330
157AA
100
AcDbEntity
  8
DEFPOINTS
 62
     0
100
AcDbPoint
 10
670.9227184913441
 20
84.03373109091493
 30
0.0
  0
ENDBLK
  5
157B5
330
157AA
100
AcDbEntity
  8
0
100
AcDbBlockEnd
  0
BLOCK
  5
157D8
330
157CE
100
AcDbEntity
  8
0
100
AcDbBlockBegin
  2
*D8
 70
     1
 10
0.0
 20
0.0
 30
0.0
  3
*D8
  1

  0
LINE
  5
1603B
330
157CE
100
AcDbEntity
  8
AM_5
100
AcDbLine
 10
682.9227184913441
 20
74.15873109091492
 30
0.0
 11
682.9227184913441
 21
-10.96626890908498
 31
0.0
  0
LINE
  5
1603C
330
157CE
100
AcDbEntity
  8
AM_5
100
AcDbLine
 10
863.922718491344
 20
74.15873109091487
 30
0.0
 11
863.922718491344
 21
-10.96626890908498
 31
0.0
  0
LINE
  5
1603D
330
157CE
100
AcDbEntity
  8
AM_5
100
AcDbLine
 10
686.6727184913441
 20
-8.46626890908498
 30
0.0
 11
860.1727184913441
 21
-8.46626890908498
 31
0.0
  0
SOLID
  5
1603E
330
157CE
100
AcDbEntity
  8
AM_5
100
AcDbTrace
 10
686.6727184913441
 20
-7.84126890908498
 30
0.0
 11
686.6727184913441
 21
-9.09126890908498
 31
0.0
 12
682.9227184913441
 22
-8.46626890908498
 32
0.0
 13
682.9227184913441
 23
-8.46626890908498
 33
0.0
  0
SOLID
  5
1603F
330
157CE
100
AcDbEntity
  8
AM_5
100
AcDbTrace
 10
860.1727184913441
 20
-7.84126890908498
 30
0.0
 11
860.1727184913441
 21
-9.09126890908498
 31
0.0
 12
863.922718491344
 22
-8.46626890908498
 32
0.0
 13
863.922718491344
 23
-8.46626890908498
 33
0.0
  0
MTEXT
  5
16040
330
157CE
100
AcDbEntity
  8
AM_5
100
AcDbMText
 10
773.422718491344
 20
-5.27876890908498
 30
0.0
 40
4.375
 41
0.0
 71
     5
 72
     1
  1
181
1001
ACAD
1000
MTEXTBEGIN
1070
    73
1070
     1
1070
    44
1040
1.0
1070
    74
1070
     0
1000
MTEXTEND
  0
POINT
  5
16041
330
157CE
100
AcDbEntity
  8
DEFPOINTS
 62
     0
100
AcDbPoint
 10
682.9227184913441
 20
76.03373109091492
 30
0.0
  0
POINT
  5
16042
330
157CE
100
AcDbEntity
  8
DEFPOINTS
 62
     0
100
AcDbPoint
 10
863.922718491344
 20
76.03373109091487
 30
0.0
  0
POINT
  5
16043
330
157CE
100
AcDbEntity
  8
DEFPOINTS
 62
     0
100
AcDbPoint
 10
863.922718491344
 20
-8.46626890908498
 30
0.0
  0
ENDBLK
  5
157D9
330
157CE
100
AcDbEntity
  8
0
100
AcDbBlockEnd
  0
BLOCK
  5
15826
330
1581C
100
AcDbEntity
  8
0
100
AcDbBlockBegin
  2
*D9
 70
     1
 10
0.0
 20
0.0
 30
0.0
  3
*D9
  1

  0
LINE
  5
16068
330
1581C
100
AcDbEntity
  8
AM_5
100
AcDbLine
 10
910.0206244039942
 20
3.533731090914898
 30
0.0
 11
897.3956244039941
 21
3.533731090914902
 31
0.0
  0
LINE
  5
16069
330
1581C
100
AcDbEntity
  8
AM_5
100
AcDbLine
 10
910.0206244039942
 20
29.5337310909149
 30
0.0
 11
897.3956244039941
 21
29.5337310909149
 31
0.0
  0
LINE
  5
1606A
330
1581C
100
AcDbEntity
  8
AM_5
100
AcDbLine
 10
899.8956244039941
 20
7.283731090914901
 30
0.0
 11
899.8956244039941
 21
25.7837310909149
 31
0.0
  0
SOLID
  5
1606B
330
1581C
100
AcDbEntity
  8
AM_5
100
AcDbTrace
 10
899.2706244039942
 20
7.283731090914901
 30
0.0
 11
900.5206244039941
 21
7.283731090914901
 31
0.0
 12
899.8956244039941
 22
3.533731090914901
 32
0.0
 13
899.8956244039941
 23
3.533731090914901
 33
0.0
  0
SOLID
  5
1606C
330
1581C
100
AcDbEntity
  8
AM_5
100
AcDbTrace
 10
899.2706244039942
 20
25.7837310909149
 30
0.0
 11
900.5206244039941
 21
25.7837310909149
 31
0.0
 12
899.8956244039941
 22
29.5337310909149
 32
0.0
 13
899.8956244039941
 23
29.5337310909149
 33
0.0
  0
MTEXT
  5
1606D
330
1581C
100
AcDbEntity
  8
AM_5
100
AcDbMText
 10
896.7076937937578
 20
16.53373109091504
 30
0.0
 40
4.375
 41
0.0
 71
     5
 72
     1
  1
26
 11
0.0000000000000001
 21
1.0
 31
0.0
1001
ACAD
1000
MTEXTBEGIN
1070
    73
1070
     1
1070
    44
1040
1.0
1070
    74
1070
     0
1000
MTEXTEND
  0
POINT
  5
1606E
330
1581C
100
AcDbEntity
  8
DEFPOINTS
 62
     0
100
AcDbPoint
 10
911.895624403994
 20
3.533731090914898
 30
0.0
  0
POINT
  5
1606F
330
1581C
100
AcDbEntity
  8
DEFPOINTS
 62
     0
100
AcDbPoint
 10
911.895624403994
 20
29.5337310909149
 30
0.0
  0
POINT
  5
16070
330
1581C
100
AcDbEntity
  8
DEFPOINTS
 62
     0
100
AcDbPoint
 10
899.8956244039941
 20
29.5337310909149
 30
0.0
  0
ENDBLK
  5
15827
330
1581C
100
AcDbEntity
  8
0
100
AcDbBlockEnd
  0
BLOCK
  5
1584A
330
15840
100
AcDbEntity
  8
0
100
AcDbBlockBegin
  2
*D10
 70
     1
 10
0.0
 20
0.0
 30
0.0
  3
*D10
  1

  0
LINE
  5
1605F
330
15840
100
AcDbEntity
  8
AM_5
100
AcDbLine
 10
910.0206244039942
 20
3.533731090914898
 30
0.0
 11
887.3956244039941
 21
3.533731090914904
 31
0.0
  0
LINE
  5
16060
330
15840
100
AcDbEntity
  8
AM_5
100
AcDbLine
 10
919.0206244039941
 20
95.13373109091489
 30
0.0
 11
887.3956244039941
 21
95.13373109091489
 31
0.0
  0
LINE
  5
16061
330
15840
100
AcDbEntity
  8
AM_5
100
AcDbLine
 10
889.8956244039942
 20
7.283731090914905
 30
0.0
 11
889.8956244039942
 21
91.38373109091489
 31
0.0
  0
SOLID
  5
16062
330
15840
100
AcDbEntity
  8
AM_5
100
AcDbTrace
 10
889.270624403994
 20
7.283731090914905
 30
0.0
 11
890.5206244039941
 21
7.283731090914904
 31
0.0
 12
889.8956244039942
 22
3.533731090914904
 32
0.0
 13
889.8956244039942
 23
3.533731090914904
 33
0.0
  0
SOLID
  5
16063
330
15840
100
AcDbEntity
  8
AM_5
100
AcDbTrace
 10
889.270624403994
 20
91.38373109091489
 30
0.0
 11
890.5206244039941
 21
91.38373109091489
 31
0.0
 12
889.8956244039942
 22
95.13373109091489
 32
0.0
 13
889.8956244039942
 23
95.13373109091489
 33
0.0
  0
MTEXT
  5
16064
330
15840
100
AcDbEntity
  8
AM_5
100
AcDbMText
 10
886.7066364459022
 20
49.33373109091504
 30
0.0
 40
4.375
 41
0.0
 71
     5
 72
     1
  1
92
 11
0.0000000000000001
 21
1.0
 31
0.0
1001
ACAD
1000
MTEXTBEGIN
1070
    73
1070
     1
1070
    44
1040
1.0
1070
    74
1070
     0
1000
MTEXTEND
  0
POINT
  5
16065
330
15840
100
AcDbEntity
  8
DEFPOINTS
 62
     0
100
AcDbPoint
 10
911.895624403994
 20
3.533731090914898
 30
0.0
  0
POINT
  5
16066
330
15840
100
AcDbEntity
  8
DEFPOINTS
 62
     0
100
AcDbPoint
 10
920.895624403994
 20
95.13373109091489
 30
0.0
  0
POINT
  5
16067
330
15840
100
AcDbEntity
  8
DEFPOINTS
 62
     0
100
AcDbPoint
 10
889.8956244039942
 20
95.13373109091489
 30
0.0
  0
ENDBLK
  5
1584B
330
15840
100
AcDbEntity
  8
0
100
AcDbBlockEnd
  0
BLOCK
  5
15BBD
330
15BBA
100
AcDbEntity
  8
0
100
AcDbBlockBegin
  2
GENDOT
 70
     0
 10
0.0
 20
0.0
 30
0.0
  3
GENDOT
  1

  0
LINE
  5
15BBB
330
15BBA
100
AcDbEntity
  8
0
100
AcDbLine
 10
0.0
 20
0.0
 30
0.0
 11
-1.0
 21
0.0
 31
0.0
  0
POLYLINE
  5
15BBC
330
15BBA
100
AcDbEntity
  8
0
100
AcDb2dPolyline
 66
     1
 10
0.0
 20
0.0
 30
0.0
 70
     1
 40
0.25
 41
0.25
  0
VERTEX
  5
166D1
330
15BBC
100
AcDbEntity
  8
0
100
AcDbVertex
100
AcDb2dVertex
 10
-0.125
 20
0.0
 30
0.0
 42
1.0
  0
VERTEX
  5
166D2
330
15BBC
100
AcDbEntity
  8
0
100
AcDbVertex
100
AcDb2dVertex
 10
0.125
 20
0.0
 30
0.0
 42
1.0
  0
SEQEND
  5
166D3
330
15BBC
100
AcDbEntity
  8
0
  0
ENDBLK
  5
15BBE
330
15BBA
100
AcDbEntity
  8
0
100
AcDbBlockEnd
  0
BLOCK
  5
15F1E
330
15F14
100
AcDbEntity
  8
0
100
AcDbBlockBegin
  2
*D12
 70
     1
 10
0.0
 20
0.0
 30
0.0
  3
*D12
  1

  0
LINE
  5
16568
330
15F14
100
AcDbEntity
  8
AM_5
100
AcDbLine
 10
719.922718491344
 20
139.8666682346162
 30
0.0
 11
719.922718491344
 21
117.2416682346163
 31
0.0
  0
LINE
  5
16569
330
15F14
100
AcDbEntity
  8
AM_5
100
AcDbLine
 10
826.9227184913441
 20
139.8666682346162
 30
0.0
 11
826.9227184913441
 21
117.2416682346163
 31
0.0
  0
LINE
  5
1656A
330
15F14
100
AcDbEntity
  8
AM_5
100
AcDbLine
 10
723.6727184913441
 20
119.7416682346163
 30
0.0
 11
823.172718491344
 21
119.7416682346163
 31
0.0
  0
SOLID
  5
1656B
330
15F14
100
AcDbEntity
  8
AM_5
100
AcDbTrace
 10
723.6727184913441
 20
120.3666682346163
 30
0.0
 11
723.6727184913441
 21
119.1166682346163
 31
0.0
 12
719.922718491344
 22
119.7416682346163
 32
0.0
 13
719.922718491344
 23
119.7416682346163
 33
0.0
  0
SOLID
  5
1656C
330
15F14
100
AcDbEntity
  8
AM_5
100
AcDbTrace
 10
823.172718491344
 20
120.3666682346163
 30
0.0
 11
823.172718491344
 21
119.1166682346163
 31
0.0
 12
826.9227184913441
 22
119.7416682346163
 32
0.0
 13
826.9227184913441
 23
119.7416682346163
 33
0.0
  0
MTEXT
  5
1656D
330
15F14
100
AcDbEntity
  8
AM_5
100
AcDbMText
 10
773.422718491344
 20
122.9291682346163
 30
0.0
 40
4.375
 41
0.0
 71
     5
 72
     1
  1
107
1001
ACAD
1000
MTEXTBEGIN
1070
    73
1070
     1
1070
    44
1040
1.0
1070
    74
1070
     0
1000
MTEXTEND
  0
POINT
  5
1656E
330
15F14
100
AcDbEntity
  8
DEFPOINTS
 62
     0
100
AcDbPoint
 10
719.922718491344
 20
141.7416682346162
 30
0.0
  0
POINT
  5
1656F
330
15F14
100
AcDbEntity
  8
DEFPOINTS
 62
     0
100
AcDbPoint
 10
826.9227184913441
 20
141.7416682346162
 30
0.0
  0
POINT
  5
16570
330
15F14
100
AcDbEntity
  8
DEFPOINTS
 62
     0
100
AcDbPoint
 10
826.9227184913441
 20
119.7416682346163
 30
0.0
  0
ENDBLK
  5
15F1F
330
15F14
100
AcDbEntity
  8
0
100
AcDbBlockEnd
  0
BLOCK
  5
15F6D
330
15F63
100
AcDbEntity
  8
0
100
AcDbBlockBegin
  2
*D13
 70
     1
 10
0.0
 20
0.0
 30
0.0
  3
*D13
  1

  0
LINE
  5
1657A
330
15F63
100
AcDbEntity
  8
AM_5
100
AcDbLine
 10
718.047718491344
 20
186.7416682346162
 30
0.0
 11
658.1851141843101
 21
186.7416682346163
 31
0.0
  0
LINE
  5
1657B
330
15F63
100
AcDbEntity
  8
AM_5
100
AcDbLine
 10
718.047718491344
 20
141.7416682346162
 30
0.0
 11
658.1851141843101
 21
141.7416682346162
 31
0.0
  0
LINE
  5
1657C
330
15F63
100
AcDbEntity
  8
AM_5
100
AcDbLine
 10
660.6851141843101
 20
182.9916682346162
 30
0.0
 11
660.6851141843101
 21
145.4916682346163
 31
0.0
  0
SOLID
  5
1657D
330
15F63
100
AcDbEntity
  8
AM_5
100
AcDbTrace
 10
660.06011418431
 20
182.9916682346162
 30
0.0
 11
661.3101141843101
 21
182.9916682346162
 31
0.0
 12
660.6851141843101
 22
186.7416682346163
 32
0.0
 13
660.6851141843101
 23
186.7416682346163
 33
0.0
  0
SOLID
  5
1657E
330
15F63
100
AcDbEntity
  8
AM_5
100
AcDbTrace
 10
660.06011418431
 20
145.4916682346163
 30
0.0
 11
661.3101141843101
 21
145.4916682346163
 31
0.0
 12
660.6851141843101
 22
141.7416682346162
 32
0.0
 13
660.6851141843101
 23
141.7416682346162
 33
0.0
  0
MTEXT
  5
1657F
330
15F63
100
AcDbEntity
  8
AM_5
100
AcDbMText
 10
657.4976141843101
 20
164.2416682346164
 30
0.0
 40
4.375
 41
0.0
 71
     5
 72
     1
  1
45
 11
0.0000000000000001
 21
1.0
 31
0.0
1001
ACAD
1000
MTEXTBEGIN
1070
    73
1070
     1
1070
    44
1040
1.0
1070
    74
1070
     0
1000
MTEXTEND
  0
POINT
  5
16580
330
15F63
100
AcDbEntity
  8
DEFPOINTS
 62
     0
100
AcDbPoint
 10
719.922718491344
 20
186.7416682346162
 30
0.0
  0
POINT
  5
16581
330
15F63
100
AcDbEntity
  8
DEFPOINTS
 62
     0
100
AcDbPoint
 10
719.922718491344
 20
141.7416682346162
 30
0.0
  0
POINT
  5
16582
330
15F63
100
AcDbEntity
  8
DEFPOINTS
 62
     0
100
AcDbPoint
 10
660.6851141843101
 20
141.7416682346162
 30
0.0
  0
ENDBLK
  5
15F6E
330
15F63
100
AcDbEntity
  8
0
100
AcDbBlockEnd
  0
BLOCK
  5
16629
330
16624
100
AcDbEntity
  8
0
100
AcDbBlockBegin
  2
*S14
 70
     1
 10
0.0
 20
0.0
 30
0.0
  3
*S14
  1

  0
LINE
  5
16625
330
16624
100
AcDbEntity
  8
AM_5
100
AcDbLine
 10
830.828051560549
 20
198.5023303462865
 30
0.0
 11
801.6552006913308
 21
198.5023303462865
 31
0.0
  0
LINE
  5
16626
330
16624
100
AcDbEntity
  8
AM_5
100
AcDbLine
 10
801.6552006913308
 20
198.5023303462865
 30
0.0
 11
788.7600377537785
 21
184.7921010574195
 31
0.0
  0
TRACE
  5
16627
330
16624
100
AcDbEntity
  8
AM_5
100
AcDbTrace
 10
788.3284908932989
 20
185.1979926704499
 30
0.0
 11
789.1915846142581
 21
184.3862094443892
 31
0.0
 12
785.6769848510266
 22
181.5141772024721
 32
0.0
 13
785.6769848510266
 23
181.5141772024721
 33
0.0
  0
MTEXT
  5
16628
330
16624
100
AcDbEntity
  8
AM_5
 62
     2
100
AcDbMText
 10
830.828051560549
 20
191.6718844428876
 30
0.0
 40
8.75
 41
0.0
 71
     9
 72
     1
  1

  7
ACISOTS
210
0.0
220
0.0
230
-1.0
 11
-1.0
 21
0.0
 31
0.0
1001
ACAD
1000
MTEXTBEGIN
1070
    73
1070
     1
1070
    44
1040
1.0
1070
    74
1070
     0
1000
MTEXTEND
  0
ENDBLK
  5
1662A
330
16624
100
AcDbEntity
  8
0
100
AcDbBlockEnd
  0
ENDSEC
  0
SECTION
  2
ENTITIES
  0
MTEXT
  5
20A1
330
1F
100
AcDbEntity
  8
AM_REFDIM
100
AcDbMText
 10
561.1885018225272
 20
211.9777653808241
 30
0.0
 40
5.0
 41
0.0
 71
     9
 72
     1
  1

  7
DAYUS
1001
ACAD
1000
MTEXTBEGIN
1070
    73
1070
     1
1070
    44
1040
1.0
1070
    74
1070
     0
1000
MTEXTEND
  0
MTEXT
  5
21E1
330
1F
100
AcDbEntity
  8
AM_REFDIM
100
AcDbMText
 10
755.6608394056113
 20
277.1617022919267
 30
0.0
 40
5.0
 41
0.0
 71
     9
 72
     1
  1

  7
DAYUS
1001
ACAD
1000
MTEXTBEGIN
1070
    73
1070
     1
1070
    44
1040
1.0
1070
    74
1070
     0
1000
MTEXTEND
  0
MTEXT
  5
21E8
330
1F
100
AcDbEntity
  8
AM_REFDIM
100
AcDbMText
 10
749.57448324194
 20
209.4269307825009
 30
0.0
 40
5.0
 41
0.0
 71
     9
 72
     1
  1

  7
DAYUS
1001
ACAD
1000
MTEXTBEGIN
1070
    73
1070
     1
1070
    44
1040
1.0
1070
    74
1070
     0
1000
MTEXTEND
  0
MTEXT
  5
950E
330
1F
100
AcDbEntity
  8
AM_REFDIM
100
AcDbMText
 10
883.1481342807478
 20
-16.56429920726827
 30
0.0
 40
5.0
 41
0.0
 71
     9
 72
     1
  1

  7
DAYUS
1001
ACAD
1000
MTEXTBEGIN
1070
    73
1070
     1
1070
    44
1040
1.0
1070
    74
1070
     0
1000
MTEXTEND
  0
MTEXT
  5
9515
330
1F
100
AcDbEntity
  8
AM_REFDIM
100
AcDbMText
 10
877.0617781170765
 20
-84.29907071669413
 30
0.0
 40
5.0
 41
0.0
 71
     9
 72
     1
  1

  7
DAYUS
1001
ACAD
1000
MTEXTBEGIN
1070
    73
1070
     1
1070
    44
1040
1.0
1070
    74
1070
     0
1000
MTEXTEND
  0
MTEXT
  5
9538
330
1F
100
AcDbEntity
  8
AM_REFDIM
100
AcDbMText
 10
688.6757966976639
 20
-81.74823611837087
 30
0.0
 40
5.0
 41
0.0
 71
     9
 72
     1
  1

  7
DAYUS
1001
ACAD
1000
MTEXTBEGIN
1070
    73
1070
     1
1070
    44
1040
1.0
1070
    74
1070
     0
1000
MTEXTEND
  0
MTEXT
  5
D169
330
1F
100
AcDbEntity
  8
圖層2
100
AcDbMText
 10
715.61673495723
 20
206.7204113137814
 30
0.0
 40
2.4
 41
0.0
 71
     1
 72
     1
  1

  7
DAYUS
1001
ACAD
1000
MTEXTBEGIN
1070
    73
1070
     1
1070
    44
1040
1.0
1070
    74
1070
     0
1000
MTEXTEND
  0
MTEXT
  5
D16D
330
1F
100
AcDbEntity
  8
圖層2
100
AcDbMText
 10
487.3356342227076
 20
201.008806919202
 30
0.0
 40
2.4
 41
0.0
 71
     9
 72
     1
  1

  7
DAYUS
1001
ACAD
1000
MTEXTBEGIN
1070
    73
1070
     1
1070
    44
1040
1.0
1070
    74
1070
     0
1000
MTEXTEND
  0
MTEXT
  5
D622
330
1F
100
AcDbEntity
  8
AM_5
 62
     2
100
AcDbMText
 10
364.1980009625231
 20
217.5933376591914
 30
0.0
 40
3.5
 41
0.0
 71
     7
 72
     1
  1

  7
ACISOTS
1001
ACAD
1000
MTEXTBEGIN
1070
    73
1070
     1
1070
    44
1040
1.0
1070
    74
1070
     0
1000
MTEXTEND
  0
MTEXT
  5
D62D
330
1F
100
AcDbEntity
  8
AM_5
 62
     2
100
AcDbMText
 10
375.2854589832454
 20
224.3263974052412
 30
0.0
 40
3.5
 41
0.0
 71
     9
 72
     1
  1

  7
ACISOTS
1001
ACAD
1000
MTEXTBEGIN
1070
    73
1070
     1
1070
    44
1040
1.0
1070
    74
1070
     0
1000
MTEXTEND
  0
MTEXT
  5
DBAB
330
1F
100
AcDbEntity
  8
圖層2
100
AcDbMText
 10
403.5453401996071
 20
241.6457643110565
 30
0.0
 40
6.0
 41
29.7
 71
     1
 72
     1
  1

  7
ROMAND
1001
ACAD
1000
MTEXTBEGIN
1070
    73
1070
     1
1070
    44
1040
1.0
1070
    74
1070
     0
1000
MTEXTEND
  0
MTEXT
  5
DBAC
330
1F
100
AcDbEntity
  8
圖層2
100
AcDbMText
 10
405.9710179574619
 20
231.7492930806483
 30
0.0
 40
4.3125
 41
25.28999999999999
 71
     1
 72
     1
  1
{\FARIAL.TTF;}
  7
ROMAND
1001
ACAD
1000
MTEXTBEGIN
1070
    73
1070
     1
1070
    44
1040
1.0
1070
    74
1070
     0
1000
MTEXTEND
  0
LINE
  5
1505A
330
1F
100
AcDbEntity
  8
AM_VIS
100
AcDbLine
 10
847.8025279629607
 20
89.63373109091492
 30
0.0
 11
847.1195152610684
 21
89.63373109091492
 31
0.0
  0
LINE
  5
1505B
330
1F
100
AcDbEntity
  8
AM_VIS
100
AcDbLine
 10
848.8695152610686
 20
89.63373109091492
 30
0.0
 11
847.8025279629607
 21
89.63373109091492
 31
0.0
  0
LINE
  5
1505C
330
1F
100
AcDbEntity
  8
AM_VIS
100
AcDbLine
 10
848.8695152610684
 20
89.63373109091492
 30
0.0
 11
850.303916337827
 21
89.63373109091486
 31
0.0
  0
LINE
  5
1505D
330
1F
100
AcDbEntity
  8
AM_VIS
100
AcDbLine
 10
850.303916337827
 20
89.63373109091492
 30
0.0
 11
853.1727184913441
 21
89.63373109091492
 31
0.0
  0
LINE
  5
1505E
330
1F
100
AcDbEntity
  8
AM_VIS
100
AcDbLine
 10
853.6727184913441
 20
89.63373109091492
 30
0.0
 11
853.1727184913441
 21
89.63373109091492
 31
0.0
  0
LINE
  5
1505F
330
1F
100
AcDbEntity
  8
AM_VIS
100
AcDbLine
 10
856.172718491344
 20
89.63373109091492
 30
0.0
 11
853.6727184913441
 21
89.63373109091492
 31
0.0
  0
LINE
  5
15060
330
1F
100
AcDbEntity
  8
AM_VIS
100
AcDbLine
 10
856.6727184913441
 20
89.63373109091492
 30
0.0
 11
856.172718491344
 21
89.63373109091492
 31
0.0
  0
LINE
  5
15061
330
1F
100
AcDbEntity
  8
AM_VIS
100
AcDbLine
 10
856.6727184913441
 20
89.63373109091492
 30
0.0
 11
859.541520644861
 21
89.63373109091492
 31
0.0
  0
LINE
  5
15062
330
1F
100
AcDbEntity
  8
AM_VIS
100
AcDbLine
 10
859.541520644861
 20
89.63373109091486
 30
0.0
 11
860.9759217216197
 21
89.63373109091486
 31
0.0
  0
LINE
  5
15063
330
1F
100
AcDbEntity
  8
AM_VIS
100
AcDbLine
 10
862.0429090197275
 20
89.63373109091486
 30
0.0
 11
860.9759217216197
 21
89.63373109091486
 31
0.0
  0
LINE
  5
15064
330
1F
100
AcDbEntity
  8
AM_VIS
100
AcDbLine
 10
862.7259217216197
 20
89.63373109091486
 30
0.0
 11
862.0429090197275
 21
89.63373109091486
 31
0.0
  0
LINE
  5
15065
330
1F
100
AcDbEntity
  8
AM_VIS
100
AcDbLine
 10
862.7259217216197
 20
89.63373109091486
 30
0.0
 11
864.1603227983781
 21
89.63373109091486
 31
0.0
  0
LINE
  5
15066
330
1F
100
AcDbEntity
  8
AM_VIS
100
AcDbLine
 10
862.7259217216197
 20
95.13373109091487
 30
0.0
 11
864.1603227983781
 21
95.13373109091487
 31
0.0
  0
LINE
  5
15067
330
1F
100
AcDbEntity
  8
AM_VIS
100
AcDbLine
 10
862.0429090197275
 20
95.13373109091487
 30
0.0
 11
862.7259217216195
 21
95.13373109091487
 31
0.0
  0
LINE
  5
15068
330
1F
100
AcDbEntity
  8
AM_VIS
100
AcDbLine
 10
860.9759217216197
 20
95.13373109091487
 30
0.0
 11
862.0429090197275
 21
95.13373109091487
 31
0.0
  0
LINE
  5
15069
330
1F
100
AcDbEntity
  8
AM_VIS
100
AcDbLine
 10
859.541520644861
 20
95.13373109091492
 30
0.0
 11
860.9759217216197
 21
95.13373109091492
 31
0.0
  0
LINE
  5
1506A
330
1F
100
AcDbEntity
  8
AM_VIS
100
AcDbLine
 10
856.6727184913441
 20
95.13373109091492
 30
0.0
 11
859.541520644861
 21
95.13373109091487
 31
0.0
  0
LINE
  5
1506B
330
1F
100
AcDbEntity
  8
AM_VIS
100
AcDbLine
 10
856.1727184913442
 20
95.13373109091487
 30
0.0
 11
856.6727184913442
 21
95.13373109091487
 31
0.0
  0
LINE
  5
1506C
330
1F
100
AcDbEntity
  8
AM_VIS
100
AcDbLine
 10
853.6727184913441
 20
95.13373109091492
 30
0.0
 11
856.1727184913442
 21
95.13373109091492
 31
0.0
  0
LINE
  5
1506D
330
1F
100
AcDbEntity
  8
AM_VIS
100
AcDbLine
 10
853.1727184913442
 20
95.13373109091487
 30
0.0
 11
853.6727184913441
 21
95.13373109091487
 31
0.0
  0
LINE
  5
1506E
330
1F
100
AcDbEntity
  8
AM_VIS
100
AcDbLine
 10
850.303916337827
 20
95.13373109091492
 30
0.0
 11
853.1727184913441
 21
95.13373109091492
 31
0.0
  0
LINE
  5
1506F
330
1F
100
AcDbEntity
  8
AM_VIS
100
AcDbLine
 10
848.8695152610684
 20
95.13373109091487
 30
0.0
 11
850.303916337827
 21
95.13373109091487
 31
0.0
  0
LINE
  5
15070
330
1F
100
AcDbEntity
  8
AM_VIS
100
AcDbLine
 10
847.8025279629607
 20
95.13373109091492
 30
0.0
 11
848.8695152610686
 21
95.13373109091492
 31
0.0
  0
LINE
  5
15071
330
1F
100
AcDbEntity
  8
AM_VIS
100
AcDbLine
 10
847.1195152610684
 20
95.13373109091492
 30
0.0
 11
847.8025279629607
 21
95.13373109091492
 31
0.0
  0
LINE
  5
15072
330
1F
100
AcDbEntity
  8
AM_VIS
100
AcDbLine
 10
845.6851141843099
 20
95.13373109091487
 30
0.0
 11
847.1195152610684
 21
95.13373109091487
 31
0.0
  0
LINE
  5
15073
330
1F
100
AcDbEntity
  8
AM_VIS
100
AcDbLine
 10
863.922718491344
 20
76.0337310909149
 30
0.0
 11
849.2658642418517
 21
76.0337310909149
 31
0.0
  0
LINE
  5
15074
330
1F
100
AcDbEntity
  8
AM_VIS
100
AcDbLine
 10
854.9227184913441
 20
88.0337310909149
 30
0.0
 11
863.922718491344
 21
88.0337310909149
 31
0.0
  0
LINE
  5
15075
330
1F
100
AcDbEntity
  8
AM_VIS
100
AcDbLine
 10
845.9227184913441
 20
88.0337310909149
 30
0.0
 11
854.9227184913441
 21
88.0337310909149
 31
0.0
  0
ARC
  5
15076
330
1F
100
AcDbEntity
  8
AM_VIS
100
AcDbCircle
 10
858.4227184913441
 20
50.5337310909149
 30
0.0
 40
3.5
100
AcDbArc
 50
270.0
 51
0.0000000000004071
  0
ARC
  5
15077
330
1F
100
AcDbEntity
  8
AM_VIS
100
AcDbCircle
 10
858.4227184913441
 20
72.5337310909149
 30
0.0
 40
3.5
100
AcDbArc
 50
0.0
 51
58.5852322907591
  0
LINE
  5
15078
330
1F
100
AcDbEntity
  8
AM_VIS
100
AcDbLine
 10
861.9227184913441
 20
71.0337310909149
 30
0.0
 11
863.922718491344
 21
76.0337310909149
 31
0.0
  0
LINE
  5
15079
330
1F
100
AcDbEntity
  8
AM_VIS
100
AcDbLine
 10
863.922718491344
 20
76.0337310909149
 30
0.0
 11
863.922718491344
 21
88.0337310909149
 31
0.0
  0
LINE
  5
1507A
330
1F
100
AcDbEntity
  8
AM_VIS
100
AcDbLine
 10
845.9227184913441
 20
76.0337310909149
 30
0.0
 11
845.9227184913441
 21
88.0337310909149
 31
0.0
  0
SPLINE
  5
1507B
330
1F
100
AcDbEntity
  8
AM_VIS
100
AcDbSpline
210
0.0
220
0.0
230
1.0
 70
     8
 71
     3
 72
    22
 73
    18
 74
     0
 42
0.0000000001
 43
0.0000000001
 40
9.329211228246744
 40
9.329211228246744
 40
9.329211228246744
 40
9.329211228246744
 40
9.987850373432095
 40
9.987850373432095
 40
11.36034008068873
 40
11.36034008068873
 40
12.73282978794537
 40
12.73282978794537
 40
14.10531949520201
 40
14.10531949520201
 40
15.47780920245866
 40
15.47780920245866
 40
16.85029890971531
 40
16.85029890971531
 40
18.22278861697195
 40
18.22278861697195
 40
18.54268538390729
 40
18.54268538390729
 40
18.54268538390729
 40
18.54268538390729
 10
858.4227184913441
 20
75.82178403271402
 30
0.0
 10
858.2052421793131
 20
75.79255678185919
 30
0.0
 10
857.9835500307256
 20
75.76300552830241
 30
0.0
 10
857.2914275570015
 20
75.67608714514199
 30
0.0
 10
856.8113590641868
 20
75.62377694049835
 30
0.0
 10
855.8557598190736
 20
75.55319204955535
 30
0.0
 10
855.3802150604296
 20
75.53507489538526
 30
0.0
 10
854.4652219222584
 20
75.53507489538526
 30
0.0
 10
853.9896771636145
 20
75.55319204955535
 30
0.0
 10
853.0340779185012
 20
75.62377694049835
 30
0.0
 10
852.5540094256866
 20
75.67608714514199
 30
0.0
 10
851.6186369896095
 20
75.79355343598379
 30
0.0
 10
851.1629661745967
 20
75.85846099460514
 30
0.0
 10
850.3014775894936
 20
75.96804015838031
 30
0.0
 10
849.8956204612007
 20
76.01264175536659
 30
0.0
 10
849.4399669194553
 20
76.0316170782371
 30
0.0
 10
849.3527528100035
 20
76.03373109091487
 30
0.0
 10
849.2658642418517
 20
76.03373109091487
 30
0.0
  0
SPLINE
  5
1507C
330
1F
100
AcDbEntity
  8
AM_VIS
100
AcDbSpline
210
0.0
220
0.0
230
1.0
 70
     8
 71
     3
 72
    18
 73
    14
 74
     0
 42
0.0000000001
 43
0.0000000001
 40
4.975287104260677
 40
4.975287104260677
 40
4.975287104260677
 40
4.975287104260677
 40
5.086400028382842
 40
5.086400028382842
 40
5.588960013482415
 40
5.588960013482415
 40
6.091519998581987
 40
6.091519998581987
 40
6.59407998368156
 40
6.59407998368156
 40
7.096639968781131
 40
7.096639968781131
 40
7.11590156427612
 40
7.11590156427612
 40
7.11590156427612
 40
7.11590156427612
 10
860.247022137228
 20
75.52068877518395
 30
0.0
 10
860.2225230980527
 20
75.53565172116866
 30
0.0
 10
860.1974481222569
 20
75.55020851526518
 30
0.0
 10
860.0559082755651
 20
75.62818239725267
 30
0.0
 10
859.9285524122013
 20
75.68293495798684
 30
0.0
 10
859.6572879510381
 20
75.7703002907358
 30
0.0
 10
859.5132172790931
 20
75.80297003217721
 30
0.0
 10
859.2173755726728
 20
75.845598336054
 30
0.0
 10
859.0656021360672
 20
75.85555474693212
 30
0.0
 10
858.7659332588795
 20
75.85555474693212
 30
0.0
 10
858.6062925451258
 20
75.845598336054
 30
0.0
 10
858.4353590682381
 20
75.82346727750717
 30
0.0
 10
858.4290422690385
 20
75.82263390291507
 30
0.0
 10
858.4227184913441
 20
75.82178403271402
 30
0.0
  0
LINE
  5
1507D
330
1F
100
AcDbEntity
  8
AM_VIS
100
AcDbLine
 10
849.2658642418517
 20
76.0337310909149
 30
0.0
 11
833.4227184913441
 21
76.0337310909149
 31
0.0
  0
LINE
  5
1507E
330
1F
100
AcDbEntity
  8
AM_VIS
100
AcDbLine
 10
861.9227184913441
 20
50.5337310909149
 30
0.0
 11
861.9227184913441
 21
72.5337310909149
 31
0.0
  0
LINE
  5
1507F
330
1F
100
AcDbEntity
  8
AM_VIS
100
AcDbLine
 10
833.4227184913441
 20
47.03373109091489
 30
0.0
 11
858.4227184913441
 21
47.03373109091489
 31
0.0
  0
LINE
  5
15080
330
1F
100
AcDbEntity
  8
AM_VIS
100
AcDbLine
 10
808.922718491344
 20
46.53373109091489
 30
0.0
 11
804.9227184913441
 21
46.53373109091489
 31
0.0
  0
LINE
  5
15081
330
1F
100
AcDbEntity
  8
AM_VIS
100
AcDbLine
 10
804.9227184913441
 20
76.0337310909149
 30
0.0
 11
808.922718491344
 21
76.0337310909149
 31
0.0
  0
LINE
  5
15082
330
1F
100
AcDbEntity
  8
AM_VIS
100
AcDbLine
 10
808.922718491344
 20
46.53373109091489
 30
0.0
 11
833.4227184913441
 21
46.53373109091489
 31
0.0
  0
LINE
  5
15083
330
1F
100
AcDbEntity
  8
AM_VIS
100
AcDbLine
 10
833.4227184913441
 20
46.53373109091489
 30
0.0
 11
833.4227184913441
 21
76.0337310909149
 31
0.0
  0
LINE
  5
15084
330
1F
100
AcDbEntity
  8
AM_VIS
100
AcDbLine
 10
833.4227184913441
 20
76.0337310909149
 30
0.0
 11
808.922718491344
 21
76.0337310909149
 31
0.0
  0
LINE
  5
15085
330
1F
100
AcDbEntity
  8
AM_VIS
100
AcDbLine
 10
804.9227184913441
 20
76.0337310909149
 30
0.0
 11
804.9227184913441
 21
46.53373109091489
 31
0.0
  0
LINE
  5
15086
330
1F
100
AcDbEntity
  8
AM_VIS
100
AcDbLine
 10
826.9227184913441
 20
44.53373109091489
 30
0.0
 11
826.9227184913441
 21
46.53373109091489
 31
0.0
  0
LINE
  5
15087
330
1F
100
AcDbEntity
  8
AM_VIS
100
AcDbLine
 10
826.9227184913441
 20
44.53373109091489
 30
0.0
 11
811.9227184913441
 21
44.53373109091489
 31
0.0
  0
LINE
  5
15088
330
1F
100
AcDbEntity
  8
AM_VIS
100
AcDbLine
 10
804.9227184913441
 20
44.53373109091489
 30
0.0
 11
804.9227184913441
 21
46.53373109091489
 31
0.0
  0
LINE
  5
15089
330
1F
100
AcDbEntity
  8
AM_VIS
100
AcDbLine
 10
811.9227184913441
 20
46.53373109091489
 30
0.0
 11
811.9227184913441
 21
44.53373109091489
 31
0.0
  0
LINE
  5
1508A
330
1F
100
AcDbEntity
  8
AM_VIS
100
AcDbLine
 10
826.9227184913441
 20
46.53373109091489
 30
0.0
 11
811.9227184913441
 21
46.53373109091489
 31
0.0
  0
LINE
  5
1508B
330
1F
100
AcDbEntity
  8
AM_VIS
100
AcDbLine
 10
828.9227184913441
 20
37.23373109091488
 30
0.0
 11
828.9227184913441
 21
36.23373109091488
 31
0.0
  0
LINE
  5
1508C
330
1F
100
AcDbEntity
  8
AM_VIS
100
AcDbLine
 10
828.422718491344
 20
36.23373109091488
 30
0.0
 11
828.422718491344
 21
37.73373109091489
 31
0.0
  0
LINE
  5
1508D
330
1F
100
AcDbEntity
  8
AM_VIS
100
AcDbLine
 10
827.422718491344
 20
36.23373109091491
 30
0.0
 11
827.422718491344
 21
35.23373109091489
 31
0.0
  0
LINE
  5
1508E
330
1F
100
AcDbEntity
  8
AM_VIS
100
AcDbLine
 10
828.9227184913441
 20
35.23373109091489
 30
0.0
 11
828.9227184913441
 21
34.23373109091488
 31
0.0
  0
LINE
  5
1508F
330
1F
100
AcDbEntity
  8
AM_VIS
100
AcDbLine
 10
828.422718491344
 20
33.73373109091488
 30
0.0
 11
828.422718491344
 21
35.23373109091489
 31
0.0
  0
LINE
  5
15090
330
1F
100
AcDbEntity
  8
AM_VIS
100
AcDbLine
 10
828.9227184913441
 20
37.23373109091488
 30
0.0
 11
828.422718491344
 21
37.73373109091489
 31
0.0
  0
LINE
  5
15091
330
1F
100
AcDbEntity
  8
AM_VIS
100
AcDbLine
 10
828.422718491344
 20
37.73373109091489
 30
0.0
 11
826.9227184913441
 21
37.73373109091489
 31
0.0
  0
LINE
  5
15092
330
1F
100
AcDbEntity
  8
AM_VIS
100
AcDbLine
 10
828.422718491344
 20
33.73373109091488
 30
0.0
 11
826.9227184913441
 21
33.73373109091488
 31
0.0
  0
LINE
  5
15093
330
1F
100
AcDbEntity
  8
AM_VIS
100
AcDbLine
 10
828.9227184913441
 20
34.23373109091488
 30
0.0
 11
828.422718491344
 21
33.73373109091488
 31
0.0
  0
LINE
  5
15094
330
1F
100
AcDbEntity
  8
AM_VIS
100
AcDbLine
 10
828.422718491344
 20
36.23373109091488
 30
0.0
 11
828.9227184913441
 21
36.23373109091488
 31
0.0
  0
LINE
  5
15095
330
1F
100
AcDbEntity
  8
AM_VIS
100
AcDbLine
 10
827.422718491344
 20
36.23373109091488
 30
0.0
 11
828.422718491344
 21
36.23373109091488
 31
0.0
  0
LINE
  5
15096
330
1F
100
AcDbEntity
  8
AM_VIS
100
AcDbLine
 10
828.422718491344
 20
35.23373109091489
 30
0.0
 11
827.422718491344
 21
35.23373109091489
 31
0.0
  0
LINE
  5
15097
330
1F
100
AcDbEntity
  8
AM_VIS
100
AcDbLine
 10
828.422718491344
 20
35.23373109091489
 30
0.0
 11
828.9227184913441
 21
35.23373109091489
 31
0.0
  0
LINE
  5
15098
330
1F
100
AcDbEntity
  8
AM_VIS
100
AcDbLine
 10
804.9227184913441
 20
44.53373109091489
 30
0.0
 11
807.4227184913441
 21
44.53373109091489
 31
0.0
  0
LINE
  5
15099
330
1F
100
AcDbEntity
  8
AM_VIS
100
AcDbLine
 10
804.9227184913441
 20
44.53373109091489
 30
0.0
 11
804.9227184913441
 21
29.5337310909149
 31
0.0
  0
LINE
  5
1509A
330
1F
100
AcDbEntity
  8
AM_VIS
100
AcDbLine
 10
826.9227184913441
 20
29.5337310909149
 30
0.0
 11
826.9227184913441
 21
44.53373109091489
 31
0.0
  0
LINE
  5
1509B
330
1F
100
AcDbEntity
  8
AM_VIS
100
AcDbLine
 10
824.4227184913441
 20
44.53373109091489
 30
0.0
 11
807.4227184913441
 21
44.53373109091489
 31
0.0
  0
LINE
  5
1509C
330
1F
100
AcDbEntity
  8
AM_VIS
100
AcDbLine
 10
719.922718491344
 20
4.533731090914898
 30
0.0
 11
719.922718491344
 21
28.5337310909149
 31
0.0
  0
LINE
  5
1509D
330
1F
100
AcDbEntity
  8
AM_VIS
100
AcDbLine
 10
742.9227184913441
 20
18.0337310909149
 30
0.0
 11
743.922718491344
 21
18.0337310909149
 31
0.0
  0
LINE
  5
1509E
330
1F
100
AcDbEntity
  8
AM_VIS
100
AcDbLine
 10
743.922718491344
 20
15.03373109091489
 30
0.0
 11
742.9227184913441
 21
15.03373109091489
 31
0.0
  0
LINE
  5
1509F
330
1F
100
AcDbEntity
  8
AM_VIS
100
AcDbLine
 10
742.9227184913441
 20
15.03373109091489
 30
0.0
 11
742.9227184913441
 21
18.0337310909149
 31
0.0
  0
LINE
  5
150A0
330
1F
100
AcDbEntity
  8
AM_VIS
100
AcDbLine
 10
719.922718491344
 20
3.533731090914898
 30
0.0
 11
743.922718491344
 21
3.533731090914898
 31
0.0
  0
LINE
  5
150A1
330
1F
100
AcDbEntity
  8
AM_VIS
100
AcDbLine
 10
719.922718491344
 20
4.533731090914898
 30
0.0
 11
719.922718491344
 21
3.533731090914898
 31
0.0
  0
LINE
  5
150A3
330
1F
100
AcDbEntity
  8
AM_VIS
100
AcDbLine
 10
743.922718491344
 20
4.533731090914898
 30
0.0
 11
743.922718491344
 21
15.03373109091489
 31
0.0
  0
LINE
  5
150A4
330
1F
100
AcDbEntity
  8
AM_VIS
100
AcDbLine
 10
743.922718491344
 20
18.0337310909149
 30
0.0
 11
743.922718491344
 21
28.5337310909149
 31
0.0
  0
LINE
  5
150A6
330
1F
100
AcDbEntity
  8
AM_VIS
100
AcDbLine
 10
719.922718491344
 20
29.5337310909149
 30
0.0
 11
719.922718491344
 21
28.5337310909149
 31
0.0
  0
LINE
  5
150A7
330
1F
100
AcDbEntity
  8
AM_VIS
100
AcDbLine
 10
743.922718491344
 20
29.5337310909149
 30
0.0
 11
719.922718491344
 21
29.5337310909149
 31
0.0
  0
ARC
  5
150A8
330
1F
100
AcDbEntity
  8
AM_VIS
100
AcDbCircle
 10
723.922718491344
 20
81.63373109091493
 30
0.0
 40
0.75
100
AcDbArc
 50
270.0
 51
318.1896851042179
  0
ARC
  5
150A9
330
1F
100
AcDbEntity
  8
AM_VIS
100
AcDbCircle
 10
723.922718491344
 20
81.63373109091493
 30
0.0
 40
0.75
100
AcDbArc
 50
41.81031489578187
 51
90.0
  0
ARC
  5
150AA
330
1F
100
AcDbEntity
  8
AM_VIS
100
AcDbCircle
 10
737.9227184913441
 20
81.63373109091493
 30
0.0
 40
0.75
100
AcDbArc
 50
90.0
 51
138.1896851042179
  0
ARC
  5
150AB
330
1F
100
AcDbEntity
  8
AM_VIS
100
AcDbCircle
 10
737.9227184913441
 20
81.63373109091493
 30
0.0
 40
0.75
100
AcDbArc
 50
221.810314895782
 51
270.0
  0
LINE
  5
150AC
330
1F
100
AcDbEntity
  8
AM_VIS
100
AcDbLine
 10
737.3944371877009
 20
83.5337310909149
 30
0.0
 11
734.2889529653116
 21
83.5337310909149
 31
0.0
  0
LINE
  5
150AD
330
1F
100
AcDbEntity
  8
AM_VIS
100
AcDbLine
 10
727.5564840173766
 20
83.5337310909149
 30
0.0
 11
724.4509997949871
 21
83.5337310909149
 31
0.0
  0
LINE
  5
150AE
330
1F
100
AcDbEntity
  8
AM_VIS
100
AcDbLine
 10
721.0847653210196
 20
83.5337310909149
 30
0.0
 11
720.9227184913441
 21
83.5337310909149
 31
0.0
  0
LINE
  5
150AF
330
1F
100
AcDbEntity
  8
AM_VIS
100
AcDbLine
 10
740.922718491344
 20
83.5337310909149
 30
0.0
 11
740.7606716616685
 21
83.5337310909149
 31
0.0
  0
LINE
  5
150B0
330
1F
100
AcDbEntity
  8
AM_VIS
100
AcDbLine
 10
737.3944371877009
 20
82.38373109091492
 30
0.0
 11
734.2889529653116
 21
82.38373109091492
 31
0.0
  0
LINE
  5
150B1
330
1F
100
AcDbEntity
  8
AM_VIS
100
AcDbLine
 10
737.3944371877009
 20
82.38373109091492
 30
0.0
 11
740.7606716616686
 21
82.38373109091492
 31
0.0
  0
LINE
  5
150B2
330
1F
100
AcDbEntity
  8
AM_VIS
100
AcDbLine
 10
740.922718491344
 20
82.38373109091492
 30
0.0
 11
740.7606716616685
 21
82.38373109091492
 31
0.0
  0
LINE
  5
150B3
330
1F
100
AcDbEntity
  8
AM_VIS
100
AcDbLine
 10
721.0847653210196
 20
82.38373109091492
 30
0.0
 11
720.9227184913441
 21
82.38373109091492
 31
0.0
  0
LINE
  5
150B4
330
1F
100
AcDbEntity
  8
AM_VIS
100
AcDbLine
 10
721.0847653210196
 20
82.38373109091492
 30
0.0
 11
724.4509997949871
 21
82.38373109091492
 31
0.0
  0
LINE
  5
150B5
330
1F
100
AcDbEntity
  8
AM_VIS
100
AcDbLine
 10
727.5564840173766
 20
82.38373109091492
 30
0.0
 11
724.4509997949871
 21
82.38373109091492
 31
0.0
  0
LINE
  5
150B6
330
1F
100
AcDbEntity
  8
AM_VIS
100
AcDbLine
 10
727.5564840173765
 20
82.38373109091492
 30
0.0
 11
734.2889529653117
 21
82.38373109091492
 31
0.0
  0
LINE
  5
150B7
330
1F
100
AcDbEntity
  8
AM_VIS
100
AcDbLine
 10
724.4509997949871
 20
80.88373109091492
 30
0.0
 11
721.0847653210196
 21
80.88373109091492
 31
0.0
  0
LINE
  5
150B8
330
1F
100
AcDbEntity
  8
AM_VIS
100
AcDbLine
 10
734.2889529653116
 20
80.88373109091492
 30
0.0
 11
727.5564840173765
 21
80.88373109091492
 31
0.0
  0
LINE
  5
150B9
330
1F
100
AcDbEntity
  8
AM_VIS
100
AcDbLine
 10
734.2889529653116
 20
80.88373109091492
 30
0.0
 11
737.3944371877009
 21
80.88373109091492
 31
0.0
  0
LINE
  5
150BA
330
1F
100
AcDbEntity
  8
AM_VIS
100
AcDbLine
 10
724.4509997949871
 20
80.88373109091492
 30
0.0
 11
727.5564840173766
 21
80.88373109091492
 31
0.0
  0
LINE
  5
150BB
330
1F
100
AcDbEntity
  8
AM_VIS
100
AcDbLine
 10
720.9227184913441
 20
80.88373109091492
 30
0.0
 11
721.0847653210196
 21
80.88373109091492
 31
0.0
  0
LINE
  5
150BC
330
1F
100
AcDbEntity
  8
AM_VIS
100
AcDbLine
 10
740.7606716616685
 20
80.88373109091492
 30
0.0
 11
740.922718491344
 21
80.88373109091492
 31
0.0
  0
LINE
  5
150BD
330
1F
100
AcDbEntity
  8
AM_VIS
100
AcDbLine
 10
740.7606716616685
 20
80.88373109091492
 30
0.0
 11
737.3944371877009
 21
80.88373109091492
 31
0.0
  0
LINE
  5
150BE
330
1F
100
AcDbEntity
  8
AM_VIS
100
AcDbLine
 10
737.3944371877009
 20
78.0337310909149
 30
0.0
 11
734.2889529653116
 21
78.0337310909149
 31
0.0
  0
LINE
  5
150BF
330
1F
100
AcDbEntity
  8
AM_VIS
100
AcDbLine
 10
740.922718491344
 20
78.0337310909149
 30
0.0
 11
740.7606716616685
 21
78.0337310909149
 31
0.0
  0
LINE
  5
150C0
330
1F
100
AcDbEntity
  8
AM_VIS
100
AcDbLine
 10
721.0847653210196
 20
78.0337310909149
 30
0.0
 11
720.9227184913441
 21
78.0337310909149
 31
0.0
  0
LINE
  5
150C1
330
1F
100
AcDbEntity
  8
AM_VIS
100
AcDbLine
 10
727.5564840173766
 20
78.0337310909149
 30
0.0
 11
724.4509997949871
 21
78.0337310909149
 31
0.0
  0
LINE
  5
150C2
330
1F
100
AcDbEntity
  8
AM_VIS
100
AcDbLine
 10
730.922718491344
 20
77.83373109091491
 30
0.0
 11
723.422718491344
 21
77.83373109091491
 31
0.0
  0
LINE
  5
150C3
330
1F
100
AcDbEntity
  8
AM_VIS
100
AcDbLine
 10
738.4227184913441
 20
77.83373109091491
 30
0.0
 11
730.922718491344
 21
77.83373109091491
 31
0.0
  0
LINE
  5
150C4
330
1F
100
AcDbEntity
  8
AM_VIS
100
AcDbLine
 10
730.922718491344
 20
77.0337310909149
 30
0.0
 11
723.422718491344
 21
77.0337310909149
 31
0.0
  0
LINE
  5
150C5
330
1F
100
AcDbEntity
  8
AM_VIS
100
AcDbLine
 10
738.4227184913441
 20
77.0337310909149
 30
0.0
 11
730.922718491344
 21
77.0337310909149
 31
0.0
  0
LINE
  5
150C6
330
1F
100
AcDbEntity
  8
AM_VIS
100
AcDbLine
 10
730.922718491344
 20
76.53373109091489
 30
0.0
 11
740.922718491344
 21
76.53373109091489
 31
0.0
  0
LINE
  5
150C7
330
1F
100
AcDbEntity
  8
AM_VIS
100
AcDbLine
 10
720.9227184913441
 20
76.53373109091489
 30
0.0
 11
730.922718491344
 21
76.53373109091489
 31
0.0
  0
LINE
  5
150C8
330
1F
100
AcDbEntity
  8
AM_VIS
100
AcDbLine
 10
740.1242995650758
 20
84.03373109091489
 30
0.0
 11
740.422718491344
 21
84.03373109091489
 31
0.0
  0
LINE
  5
150C9
330
1F
100
AcDbEntity
  8
AM_VIS
100
AcDbLine
 10
737.5694023068676
 20
84.03373109091489
 30
0.0
 11
740.1242995650759
 21
84.03373109091489
 31
0.0
  0
LINE
  5
150CA
330
1F
100
AcDbEntity
  8
AM_VIS
100
AcDbLine
 10
733.4776157495523
 20
84.03373109091489
 30
0.0
 11
737.5694023068676
 21
84.03373109091489
 31
0.0
  0
LINE
  5
150CB
330
1F
100
AcDbEntity
  8
AM_VIS
100
AcDbLine
 10
728.3678212331358
 20
84.03373109091489
 30
0.0
 11
733.4776157495524
 21
84.03373109091489
 31
0.0
  0
LINE
  5
150CC
330
1F
100
AcDbEntity
  8
AM_VIS
100
AcDbLine
 10
724.2760346758207
 20
84.03373109091489
 30
0.0
 11
728.3678212331359
 21
84.03373109091489
 31
0.0
  0
LINE
  5
150CD
330
1F
100
AcDbEntity
  8
AM_VIS
100
AcDbLine
 10
721.7211374176124
 20
84.03373109091489
 30
0.0
 11
724.2760346758207
 21
84.03373109091489
 31
0.0
  0
LINE
  5
150CE
330
1F
100
AcDbEntity
  8
AM_VIS
100
AcDbLine
 10
721.4227184913441
 20
84.03373109091489
 30
0.0
 11
721.7211374176123
 21
84.03373109091489
 31
0.0
  0
LINE
  5
150CF
330
1F
100
AcDbEntity
  8
AM_VIS
100
AcDbLine
 10
721.4227184913441
 20
84.03373109091489
 30
0.0
 11
720.9227184913441
 21
83.5337310909149
 31
0.0
  0
LINE
  5
150D0
330
1F
100
AcDbEntity
  8
AM_VIS
100
AcDbLine
 10
740.422718491344
 20
84.03373109091489
 30
0.0
 11
740.922718491344
 21
83.5337310909149
 31
0.0
  0
LINE
  5
150D1
330
1F
100
AcDbEntity
  8
AM_VIS
100
AcDbLine
 10
720.9227184913441
 20
82.38373109091492
 30
0.0
 11
720.9227184913441
 21
83.5337310909149
 31
0.0
  0
LINE
  5
150D2
330
1F
100
AcDbEntity
  8
AM_VIS
100
AcDbLine
 10
740.922718491344
 20
82.38373109091492
 30
0.0
 11
740.922718491344
 21
83.5337310909149
 31
0.0
  0
LINE
  5
150D3
330
1F
100
AcDbEntity
  8
AM_VIS
100
AcDbLine
 10
720.9227184913441
 20
78.0337310909149
 30
0.0
 11
720.9227184913441
 21
80.88373109091492
 31
0.0
  0
LINE
  5
150D4
330
1F
100
AcDbEntity
  8
AM_VIS
100
AcDbLine
 10
740.922718491344
 20
78.0337310909149
 30
0.0
 11
740.922718491344
 21
80.88373109091492
 31
0.0
  0
LINE
  5
150D5
330
1F
100
AcDbEntity
  8
AM_VIS
100
AcDbLine
 10
738.4227184913441
 20
77.83373109091491
 30
0.0
 11
740.922718491344
 21
78.0337310909149
 31
0.0
  0
LINE
  5
150D6
330
1F
100
AcDbEntity
  8
AM_VIS
100
AcDbLine
 10
723.422718491344
 20
77.83373109091491
 30
0.0
 11
720.9227184913441
 21
78.0337310909149
 31
0.0
  0
LINE
  5
150D7
330
1F
100
AcDbEntity
  8
AM_VIS
100
AcDbLine
 10
723.422718491344
 20
77.0337310909149
 30
0.0
 11
720.9227184913441
 21
76.53373109091489
 31
0.0
  0
LINE
  5
150D8
330
1F
100
AcDbEntity
  8
AM_VIS
100
AcDbLine
 10
738.4227184913441
 20
77.0337310909149
 30
0.0
 11
740.922718491344
 21
76.53373109091489
 31
0.0
  0
LINE
  5
150D9
330
1F
100
AcDbEntity
  8
AM_VIS
100
AcDbLine
 10
738.4227184913441
 20
77.0337310909149
 30
0.0
 11
738.4227184913441
 21
77.83373109091491
 31
0.0
  0
LINE
  5
150DA
330
1F
100
AcDbEntity
  8
AM_VIS
100
AcDbLine
 10
723.422718491344
 20
77.0337310909149
 30
0.0
 11
723.422718491344
 21
77.83373109091491
 31
0.0
  0
LINE
  5
150DB
330
1F
100
AcDbEntity
  8
AM_VIS
100
AcDbLine
 10
740.922718491344
 20
76.0337310909149
 30
0.0
 11
740.922718491344
 21
76.53373109091489
 31
0.0
  0
LINE
  5
150DC
330
1F
100
AcDbEntity
  8
AM_VIS
100
AcDbLine
 10
720.9227184913441
 20
76.0337310909149
 30
0.0
 11
720.9227184913441
 21
76.53373109091489
 31
0.0
  0
LINE
  5
150DD
330
1F
100
AcDbEntity
  8
AM_VIS
100
AcDbLine
 10
721.0847653210196
 20
82.38373109091492
 30
0.0
 11
721.0847653210196
 21
83.5337310909149
 31
0.0
  0
SPLINE
  5
150DE
330
1F
100
AcDbEntity
  8
AM_VIS
100
AcDbSpline
210
0.0
220
0.0
230
1.0
 70
     8
 71
     3
 72
     8
 73
     4
 74
     0
 42
0.0000000001
 43
0.0000000001
 40
1.630155803927018
 40
1.630155803927018
 40
1.630155803927018
 40
1.630155803927018
 40
2.566002662426991
 40
2.566002662426991
 40
2.566002662426991
 40
2.566002662426991
 10
721.0847653210196
 20
83.5337310909149
 30
0.0
 10
721.2995709680187
 20
83.71359232411013
 30
0.0
 10
721.5128297695498
 20
83.88269194548357
 30
0.0
 10
721.7211374176123
 20
84.03373109091491
 30
0.0
  0
SPLINE
  5
150DF
330
1F
100
AcDbEntity
  8
AM_VIS
100
AcDbSpline
210
0.0
220
0.0
230
1.0
 70
     8
 71
     3
 72
     8
 73
     4
 74
     0
 42
0.0000000001
 43
0.0000000001
 40
7.860869802063005
 40
7.860869802063005
 40
7.860869802063005
 40
7.860869802063005
 40
8.796716660561699
 40
8.796716660561699
 40
8.796716660561699
 40
8.796716660561699
 10
724.2760346758205
 20
84.03373109091491
 30
0.0
 10
724.3485351128315
 20
83.88269205488057
 30
0.0
 10
724.4064284332573
 20
83.7135924391363
 30
0.0
 10
724.4509997949871
 20
83.5337310909149
 30
0.0
  0
LINE
  5
150E0
330
1F
100
AcDbEntity
  8
AM_VIS
100
AcDbLine
 10
724.4509997949871
 20
83.5337310909149
 30
0.0
 11
724.4509997949871
 21
82.38373109091492
 31
0.0
  0
LINE
  5
150E1
330
1F
100
AcDbEntity
  8
AM_VIS
100
AcDbLine
 10
737.3944371877009
 20
82.38373109091492
 30
0.0
 11
737.3944371877009
 21
83.5337310909149
 31
0.0
  0
SPLINE
  5
150E2
330
1F
100
AcDbEntity
  8
AM_VIS
100
AcDbSpline
210
0.0
220
0.0
230
1.0
 70
     8
 71
     3
 72
     8
 73
     4
 74
     0
 42
0.0000000001
 43
0.0000000001
 40
1.630155803927018
 40
1.630155803927018
 40
1.630155803927018
 40
1.630155803927018
 40
2.566002662426996
 40
2.566002662426996
 40
2.566002662426996
 40
2.566002662426996
 10
737.3944371877009
 20
83.5337310909149
 30
0.0
 10
737.4390085209263
 20
83.71359232411014
 30
0.0
 10
737.4969018173449
 20
83.88269194548358
 30
0.0
 10
737.5694023068676
 20
84.03373109091491
 30
0.0
  0
SPLINE
  5
150E3
330
1F
100
AcDbEntity
  8
AM_VIS
100
AcDbSpline
210
0.0
220
0.0
230
1.0
 70
     8
 71
     3
 72
     8
 73
     4
 74
     0
 42
0.0000000001
 43
0.0000000001
 40
7.860869802063004
 40
7.860869802063004
 40
7.860869802063004
 40
7.860869802063004
 40
8.796716660561713
 40
8.796716660561713
 40
8.796716660561713
 40
8.796716660561713
 10
740.1242995650758
 20
84.03373109091491
 30
0.0
 10
740.332607062262
 20
83.88269205488061
 30
0.0
 10
740.5458658772952
 20
83.71359243913634
 30
0.0
 10
740.7606716616685
 20
83.5337310909149
 30
0.0
  0
LINE
  5
150E4
330
1F
100
AcDbEntity
  8
AM_VIS
100
AcDbLine
 10
740.7606716616685
 20
83.5337310909149
 30
0.0
 11
740.7606716616685
 21
82.38373109091492
 31
0.0
  0
LINE
  5
150E5
330
1F
100
AcDbEntity
  8
AM_VIS
100
AcDbLine
 10
727.5564840173765
 20
82.38373109091492
 30
0.0
 11
727.5564840173765
 21
83.5337310909149
 31
0.0
  0
SPLINE
  5
150E6
330
1F
100
AcDbEntity
  8
AM_VIS
100
AcDbSpline
210
0.0
220
0.0
230
1.0
 70
     8
 71
     3
 72
     8
 73
     4
 74
     0
 42
0.0000000001
 43
0.0000000001
 40
1.63015580392704
 40
1.63015580392704
 40
1.63015580392704
 40
1.63015580392704
 40
2.566002662427006
 40
2.566002662427006
 40
2.566002662427006
 40
2.566002662427006
 10
727.5564840173765
 20
83.5337310909149
 30
0.0
 10
727.815860997601
 20
83.71359232411014
 30
0.0
 10
728.0870130955507
 20
83.88269194548357
 30
0.0
 10
728.3678212331358
 20
84.03373109091491
 30
0.0
  0
SPLINE
  5
150E7
330
1F
100
AcDbEntity
  8
AM_VIS
100
AcDbSpline
210
0.0
220
0.0
230
1.0
 70
     8
 71
     3
 72
     8
 73
     4
 74
     0
 42
0.0000000001
 43
0.0000000001
 40
7.860869802062977
 40
7.860869802062977
 40
7.860869802062977
 40
7.860869802062977
 40
8.796716660561656
 40
8.796716660561656
 40
8.796716660561656
 40
8.796716660561656
 10
733.4776157495523
 20
84.03373109091491
 30
0.0
 10
733.7584236837493
 20
83.88269205488059
 30
0.0
 10
734.0295758192085
 20
83.7135924391363
 30
0.0
 10
734.2889529653116
 20
83.5337310909149
 30
0.0
  0
LINE
  5
150E8
330
1F
100
AcDbEntity
  8
AM_VIS
100
AcDbLine
 10
734.2889529653116
 20
83.5337310909149
 30
0.0
 11
734.2889529653116
 21
82.38373109091492
 31
0.0
  0
LINE
  5
150E9
330
1F
100
AcDbEntity
  8
AM_VIS
100
AcDbLine
 10
734.2889529653116
 20
80.88373109091492
 30
0.0
 11
734.2889529653116
 21
78.0337310909149
 31
0.0
  0
LINE
  5
150EA
330
1F
100
AcDbEntity
  8
AM_VIS
100
AcDbLine
 10
724.4509997949871
 20
80.88373109091492
 30
0.0
 11
724.4509997949871
 21
78.0337310909149
 31
0.0
  0
LINE
  5
150EB
330
1F
100
AcDbEntity
  8
AM_VIS
100
AcDbLine
 10
727.5564840173765
 20
78.0337310909149
 30
0.0
 11
727.5564840173765
 21
80.88373109091492
 31
0.0
  0
LINE
  5
150EC
330
1F
100
AcDbEntity
  8
AM_VIS
100
AcDbLine
 10
721.0847653210196
 20
78.0337310909149
 30
0.0
 11
721.0847653210196
 21
80.88373109091492
 31
0.0
  0
LINE
  5
150ED
330
1F
100
AcDbEntity
  8
AM_VIS
100
AcDbLine
 10
737.3944371877009
 20
78.0337310909149
 30
0.0
 11
737.3944371877009
 21
80.88373109091492
 31
0.0
  0
LINE
  5
150EE
330
1F
100
AcDbEntity
  8
AM_VIS
100
AcDbLine
 10
740.7606716616685
 20
80.88373109091492
 30
0.0
 11
740.7606716616685
 21
78.0337310909149
 31
0.0
  0
SPLINE
  5
150EF
330
1F
100
AcDbEntity
  8
AM_VIS
100
AcDbSpline
210
0.0
220
0.0
230
1.0
 70
     8
 71
     3
 72
    14
 73
    10
 74
     0
 42
0.0000000001
 43
0.0000000001
 40
13.28006742556181
 40
13.28006742556181
 40
13.28006742556181
 40
13.28006742556181
 40
14.27448381305596
 40
14.27448381305596
 40
16.65382904986482
 40
16.65382904986482
 40
19.03317428667365
 40
19.03317428667365
 40
20.0275906741677
 40
20.0275906741677
 40
20.0275906741677
 40
20.0275906741677
 10
740.7606716616685
 20
78.03373109091491
 30
0.0
 10
740.4957496715785
 20
78.015985115796
 30
0.0
 10
740.2429433411216
 20
78.00020952209246
 30
0.0
 10
739.4321755341918
 20
77.95500071018202
 30
0.0
 10
738.9402995841153
 20
77.93773109091491
 30
0.0
 10
738.1471845051789
 20
77.93773109091493
 30
0.0
 10
737.8297951146227
 20
77.95500071018202
 30
0.0
 10
737.5225695899248
 20
78.00020952209246
 30
0.0
 10
737.4494074664807
 20
78.015985115796
 30
0.0
 10
737.3944371877009
 20
78.03373109091491
 30
0.0
  0
SPLINE
  5
150F0
330
1F
100
AcDbEntity
  8
AM_VIS
100
AcDbSpline
210
0.0
220
0.0
230
1.0
 70
     8
 71
     3
 72
    14
 73
    10
 74
     0
 42
0.0000000001
 43
0.0000000001
 40
13.2800674255618
 40
13.2800674255618
 40
13.2800674255618
 40
13.2800674255618
 40
14.27448381305591
 40
14.27448381305591
 40
16.65382904986476
 40
16.65382904986476
 40
19.03317428667361
 40
19.03317428667361
 40
20.02759067416769
 40
20.02759067416769
 40
20.02759067416769
 40
20.02759067416769
 10
724.4509997949871
 20
78.03373109091491
 30
0.0
 10
724.3960295162073
 20
78.015985115796
 30
0.0
 10
724.3228673927633
 20
78.00020952209246
 30
0.0
 10
724.0156418680655
 20
77.95500071018202
 30
0.0
 10
723.6982524775092
 20
77.93773109091491
 30
0.0
 10
722.9051373985728
 20
77.93773109091493
 30
0.0
 10
722.4132614484963
 20
77.95500071018202
 30
0.0
 10
721.6024936415665
 20
78.00020952209246
 30
0.0
 10
721.3496873111096
 20
78.015985115796
 30
0.0
 10
721.0847653210196
 20
78.03373109091491
 30
0.0
  0
ARC
  5
150F1
330
1F
100
AcDbEntity
  8
AM_VIS
100
AcDbCircle
 10
730.922718491344
 20
137.209535922139
 30
0.0
 40
59.27135386823208
100
AcDbArc
 50
266.7442201741542
 51
273.2557798258457
  0
SPLINE
  5
150F2
330
1F
100
AcDbEntity
  8
AM_VIS
100
AcDbSpline
210
0.0
220
0.0
230
1.0
 70
    11
 71
     3
 72
    58
 73
    54
 74
     0
 42
0.0000000001
 43
0.0000000001
 40
-3.363896419255587
 40
-3.363896419255587
 40
-3.363896419255587
 40
-3.363896419255587
 40
-3.330080057210193
 40
-3.330080057210193
 40
-3.276087946180991
 40
-3.276087946180991
 40
-3.130129325405927
 40
-3.130129325405927
 40
-2.864475625747458
 40
-2.864475625747458
 40
-2.670984402726474
 40
-2.670984402726474
 40
-2.529876972632633
 40
-2.529876972632633
 40
-2.39414607930529
 40
-2.39414607930529
 40
-2.234845146690002
 40
-2.234845146690002
 40
-1.995446372975766
 40
-1.995446372975766
 40
-1.792732498499779
 40
-1.792732498499779
 40
-1.655061186031255
 40
-1.655061186031255
 40
-1.604023047347052
 40
-1.604023047347052
 40
-1.569394244758093
 40
-1.569394244758093
 40
-1.535224675064294
 40
-1.535224675064294
 40
-1.486406949001721
 40
-1.486406949001721
 40
-1.367760828147406
 40
-1.367760828147406
 40
-1.211422564713941
 40
-1.211422564713941
 40
-1.00947781381898
 40
-1.00947781381898
 40
-0.8308451467036132
 40
-0.8308451467036132
 40
-0.6546659190622926
 40
-0.6546659190622926
 40
-0.4706948992192896
 40
-0.4706948992192896
 40
-0.3083260207238461
 40
-0.3083260207238461
 40
-0.1833529844742129
 40
-0.1833529844742129
 40
-0.0782943285735388
 40
-0.0782943285735388
 40
-0.0333492537450304
 40
-0.0333492537450304
 40
0.0
 40
0.0
 40
0.0
 40
0.0
 10
724.8001159337096
 20
82.13373109091492
 30
0.0
 10
724.8036160580453
 20
82.13373109091492
 30
0.0
 10
724.8074332407818
 20
82.13338693718139
 30
0.0
 10
724.8181035855625
 20
82.13165423464435
 30
0.0
 10
724.8253748291205
 20
82.12977143034686
 30
0.0
 10
724.854397159879
 20
82.12013411175524
 30
0.0
 10
724.8798497647481
 20
82.10780503351093
 30
0.0
 10
724.9551060631446
 20
82.06235268120439
 30
0.0
 10
725.0104190168638
 20
82.01881263399648
 30
0.0
 10
725.0943791081897
 20
81.92398468994497
 30
0.0
 10
725.1275346332947
 20
81.87658480919745
 30
0.0
 10
725.1702926001775
 20
81.7829426957665
 30
0.0
 10
725.1836559133196
 20
81.74020800893066
 30
0.0
 10
725.1963579051967
 20
81.65139582567825
 30
0.0
 10
725.1958947190829
 20
81.60764581789271
 30
0.0
 10
725.1807036930833
 20
81.51384872266413
 30
0.0
 10
725.1640018208242
 20
81.46685651558389
 30
0.0
 10
725.1095481260515
 20
81.36043220615865
 30
0.0
 10
725.064856664691
 20
81.30553830980316
 30
0.0
 10
724.9786520153231
 20
81.22391867684539
 30
0.0
 10
724.936994364881
 20
81.19350382750281
 30
0.0
 10
724.8743702331121
 20
81.15691313573767
 30
0.0
 10
724.8504912994085
 20
81.14574897259613
 30
0.0
 10
724.8233087329932
 20
81.13713556366647
 30
0.0
 10
724.8165182651035
 20
81.1354795337063
 30
0.0
 10
724.8062419777375
 20
81.1339421681375
 30
0.0
 10
724.8024072060156
 20
81.13366334185668
 30
0.0
 10
724.7954653642799
 20
81.13382552405443
 30
0.0
 10
724.7923594740032
 20
81.1342567549148
 30
0.0
 10
724.7856692552109
 20
81.13619051987221
 30
0.0
 10
724.7824732435749
 20
81.13806597060122
 30
0.0
 10
724.7739997046949
 20
81.1471368817004
 30
0.0
 10
724.772473661555
 20
81.15792021049861
 30
0.0
 10
724.7764798618925
 20
81.1928507059618
 30
0.0
 10
724.7842420734971
 20
81.21965833451886
 30
0.0
 10
724.8057485869578
 20
81.29392592188009
 30
0.0
 10
724.8209484934998
 20
81.34642499724755
 30
0.0
 10
724.843741025724
 20
81.46230471086566
 30
0.0
 10
724.8514962860847
 20
81.52142052064137
 30
0.0
 10
724.8569553804856
 20
81.64319542568833
 30
0.0
 10
724.8547170020303
 20
81.70377386829116
 30
0.0
 10
724.8413160303287
 20
81.82276294846952
 30
0.0
 10
724.8299407399415
 20
81.87923814761759
 30
0.0
 10
724.8064241682757
 20
81.97282105790772
 30
0.0
 10
724.7946330342297
 20
82.01110292706955
 30
0.0
 10
724.7791936371368
 20
82.06645464531977
 30
0.0
 10
724.7743826245367
 20
82.08627145972592
 30
0.0
 10
724.7730037988799
 20
82.11377983777964
 30
0.0
 10
724.7752864372921
 20
82.12265127074726
 30
0.0
 10
724.7837516473945
 20
82.13019710327918
 30
0.0
 10
724.786919921966
 20
82.13177205830161
 30
0.0
 10
724.7935227844359
 20
82.13339646190975
 30
0.0
 10
724.7966641568908
 20
82.13373109091492
 30
0.0
 10
724.8001159337096
 20
82.13373109091492
 30
0.0
  0
CIRCLE
  5
150F3
330
1F
100
AcDbEntity
  8
AM_VIS
100
AcDbCircle
 10
729.672718491344
 20
81.63373109091493
 30
0.0
 40
0.5000000000000005
  0
SPLINE
  5
150F4
330
1F
100
AcDbEntity
  8
AM_VIS
100
AcDbSpline
210
0.0
220
0.0
230
1.0
 70
    11
 71
     3
 72
    58
 73
    54
 74
     0
 42
0.0000000001
 43
0.0000000001
 40
-3.310941722020734
 40
-3.310941722020734
 40
-3.310941722020734
 40
-3.310941722020734
 40
-3.295630163505362
 40
-3.295630163505362
 40
-3.25888521683784
 40
-3.25888521683784
 40
-3.197166102513703
 40
-3.197166102513703
 40
-3.038165220175974
 40
-3.038165220175974
 40
-2.856291614867816
 40
-2.856291614867816
 40
-2.666842086896373
 40
-2.666842086896373
 40
-2.492578752008394
 40
-2.492578752008394
 40
-2.312125783734214
 40
-2.312125783734214
 40
-2.13451249378157
 40
-2.13451249378157
 40
-1.991913706757117
 40
-1.991913706757117
 40
-1.842368186774402
 40
-1.842368186774402
 40
-1.791323432477104
 40
-1.791323432477104
 40
-1.757111173270509
 40
-1.757111173270509
 40
-1.723565230364853
 40
-1.723565230364853
 40
-1.676146471114944
 40
-1.676146471114944
 40
-1.5592641658533
 40
-1.5592641658533
 40
-1.304423753588805
 40
-1.304423753588805
 40
-1.102534997063944
 40
-1.102534997063944
 40
-0.9616332280833521
 40
-0.9616332280833521
 40
-0.8335600122414829
 40
-0.8335600122414829
 40
-0.6887403587885041
 40
-0.6887403587885041
 40
-0.4760113448049901
 40
-0.4760113448049901
 40
-0.2570316117964575
 40
-0.2570316117964575
 40
-0.0905362468527244
 40
-0.0905362468527244
 40
-0.0354113089023832
 40
-0.0354113089023832
 40
0.0
 40
0.0
 40
0.0
 40
0.0
 10
737.0453210489784
 20
82.13373109091492
 30
0.0
 10
737.046905854538
 20
82.13373109091492
 30
0.0
 10
737.0484243673754
 20
82.13366049105024
 30
0.0
 10
737.0533559908205
 20
82.13317422029239
 30
0.0
 10
737.0564297989273
 20
82.13241574219573
 30
0.0
 10
737.0635550197532
 20
82.1292223842034
 30
0.0
 10
737.0668076425999
 20
82.12601917992813
 30
0.0
 10
737.0743399740336
 20
82.11007896942058
 30
0.0
 10
737.0718902704104
 20
82.09073157697455
 30
0.0
 10
737.0578943251409
 20
82.03415696043379
 30
0.0
 10
737.0451168867382
 20
81.99444352432875
 30
0.0
 10
737.0192294398593
 20
81.89603380095936
 30
0.0
 10
737.0066948556537
 20
81.83822066715062
 30
0.0
 10
736.9917395818188
 20
81.71822419326355
 30
0.0
 10
736.9887296049192
 20
81.6582416184662
 30
0.0
 10
736.992543661587
 20
81.53606123745063
 30
0.0
 10
736.9996587289749
 20
81.47602077685224
 30
0.0
 10
737.020100904805
 20
81.36611121006243
 30
0.0
 10
737.033178884459
 20
81.31698587832021
 30
0.0
 10
737.0545830029954
 20
81.24217621918758
 30
0.0
 10
737.0632965769383
 20
81.2137614992485
 30
0.0
 10
737.0731396962865
 20
81.16777490239186
 30
0.0
 10
737.0736434939824
 20
81.15125560372439
 30
0.0
 10
737.0642081288295
 20
81.13897140539123
 30
0.0
 10
737.060975903508
 20
81.13675346320304
 30
0.0
 10
737.0541791551102
 20
81.13447289590382
 30
0.0
 10
737.0510912676329
 20
81.13394624913789
 30
0.0
 10
737.0442944518645
 20
81.13362648175678
 30
0.0
 10
737.0406091426206
 20
81.13381981502206
 30
0.0
 10
737.0310042668677
 20
81.13507692465917
 30
0.0
 10
737.0248046048297
 20
81.13646550659996
 30
0.0
 10
737.0016639235709
 20
81.14330370208731
 30
0.0
 10
736.9822658767218
 20
81.15172317723917
 30
0.0
 10
736.9164112810803
 20
81.18707656591476
 30
0.0
 10
736.8622384285495
 20
81.22565691091338
 30
0.0
 10
736.7727371563994
 20
81.315791247328
 30
0.0
 10
736.7344772707035
 20
81.36429542533464
 30
0.0
 10
736.684497051481
 20
81.46015913107438
 30
0.0
 10
736.6682922183592
 20
81.50341441893592
 30
0.0
 10
736.6508636217767
 20
81.59200180021745
 30
0.0
 10
736.6487775296511
 20
81.63499398588781
 30
0.0
 10
736.6582531231345
 20
81.72669934382609
 30
0.0
 10
736.6713239222804
 20
81.77259018572319
 30
0.0
 10
736.7169529864327
 20
81.8770201573017
 30
0.0
 10
736.7551980165349
 20
81.93030907097233
 30
0.0
 10
736.837040169087
 20
82.01896843475861
 30
0.0
 10
736.8826532602159
 20
82.05569006523928
 30
0.0
 10
736.955811075052
 20
82.10290361864005
 30
0.0
 10
736.9861977610614
 20
82.11832519343548
 30
0.0
 10
737.0189909725472
 20
82.1294749055658
 30
0.0
 10
737.0265241251839
 20
82.13147683745336
 30
0.0
 10
737.037637090447
 20
82.13335369919207
 30
0.0
 10
737.0416558414708
 20
82.13373109091492
 30
0.0
 10
737.0453210489784
 20
82.13373109091492
 30
0.0
  0
CIRCLE
  5
150F5
330
1F
100
AcDbEntity
  8
AM_VIS
100
AcDbCircle
 10
732.1727184913441
 20
81.63373109091493
 30
0.0
 40
0.5000000000000011
  0
ARC
  5
150F6
330
1F
100
AcDbEntity
  8
AM_VIS
100
AcDbCircle
 10
723.9916958888668
 20
81.63375061960596
 30
0.0
 40
0.6997982445396608
100
AcDbArc
 50
314.4224702407679
 51
45.5752923890451
  0
ARC
  5
150F7
330
1F
100
AcDbEntity
  8
AM_VIS
100
AcDbCircle
 10
737.8537464215347
 20
81.6336926663962
 30
0.0
 40
0.6998062945020366
100
AcDbArc
 50
134.42169926757
 51
225.5738984971956
  0
LINE
  5
150F8
330
1F
100
AcDbEntity
  8
AM_VIS
100
AcDbLine
 10
685.1727184913441
 20
89.63373109091492
 30
0.0
 11
685.1727184913441
 21
88.0337310909149
 31
0.0
  0
LINE
  5
150F9
330
1F
100
AcDbEntity
  8
AM_VIS
100
AcDbLine
 10
698.6727184913441
 20
89.63373109091492
 30
0.0
 11
698.6727184913441
 21
88.03373109091495
 31
0.0
  0
LINE
  5
150FA
330
1F
100
AcDbEntity
  8
AM_VIS
100
AcDbLine
 10
693.6727184913441
 20
95.13373109091492
 30
0.0
 11
693.6727184913441
 21
89.63373109091492
 31
0.0
  0
LINE
  5
150FB
330
1F
100
AcDbEntity
  8
AM_VIS
100
AcDbLine
 10
690.1727184913441
 20
89.63373109091492
 30
0.0
 11
690.1727184913441
 21
95.13373109091492
 31
0.0
  0
LINE
  5
150FC
330
1F
100
AcDbEntity
  8
AM_VIS
100
AcDbLine
 10
690.6727184913441
 20
95.13373109091492
 30
0.0
 11
690.6727184913441
 21
89.63373109091492
 31
0.0
  0
LINE
  5
150FD
330
1F
100
AcDbEntity
  8
AM_VIS
100
AcDbLine
 10
693.1727184913441
 20
95.13373109091492
 30
0.0
 11
693.1727184913441
 21
89.63373109091492
 31
0.0
  0
LINE
  5
150FE
330
1F
100
AcDbEntity
  8
AM_VIS
100
AcDbLine
 10
696.5415206448611
 20
95.13373109091492
 30
0.0
 11
696.5415206448611
 21
89.63373109091492
 31
0.0
  0
LINE
  5
150FF
330
1F
100
AcDbEntity
  8
AM_VIS
100
AcDbLine
 10
701.1603227983782
 20
95.13373109091492
 30
0.0
 11
701.1603227983782
 21
89.63373109091492
 31
0.0
  0
LINE
  5
15100
330
1F
100
AcDbEntity
  8
AM_VIS
100
AcDbLine
 10
699.0429090197274
 20
95.13373109091492
 30
0.0
 11
699.0429090197274
 21
89.63373109091492
 31
0.0
  0
LINE
  5
15101
330
1F
100
AcDbEntity
  8
AM_VIS
100
AcDbLine
 10
699.7259217216196
 20
95.13373109091492
 30
0.0
 11
699.7259217216196
 21
89.63373109091492
 31
0.0
  0
LINE
  5
15102
330
1F
100
AcDbEntity
  8
AM_VIS
100
AcDbLine
 10
697.9759217216196
 20
89.63373109091492
 30
0.0
 11
697.9759217216196
 21
95.13373109091492
 31
0.0
  0
LINE
  5
15103
330
1F
100
AcDbEntity
  8
AM_VIS
100
AcDbLine
 10
682.68511418431
 20
95.13373109091492
 30
0.0
 11
682.68511418431
 21
89.63373109091492
 31
0.0
  0
LINE
  5
15104
330
1F
100
AcDbEntity
  8
AM_VIS
100
AcDbLine
 10
687.3039163378271
 20
89.63373109091492
 30
0.0
 11
690.1727184913441
 21
89.63373109091492
 31
0.0
  0
LINE
  5
15105
330
1F
100
AcDbEntity
  8
AM_VIS
100
AcDbLine
 10
690.6727184913441
 20
89.63373109091492
 30
0.0
 11
690.1727184913441
 21
89.63373109091492
 31
0.0
  0
LINE
  5
15106
330
1F
100
AcDbEntity
  8
AM_VIS
100
AcDbLine
 10
693.1727184913441
 20
89.63373109091492
 30
0.0
 11
690.6727184913441
 21
89.63373109091492
 31
0.0
  0
LINE
  5
15107
330
1F
100
AcDbEntity
  8
AM_VIS
100
AcDbLine
 10
693.6727184913441
 20
89.63373109091492
 30
0.0
 11
693.1727184913441
 21
89.63373109091492
 31
0.0
  0
LINE
  5
15108
330
1F
100
AcDbEntity
  8
AM_VIS
100
AcDbLine
 10
693.6727184913441
 20
89.63373109091492
 30
0.0
 11
696.5415206448611
 21
89.63373109091492
 31
0.0
  0
LINE
  5
15109
330
1F
100
AcDbEntity
  8
AM_VIS
100
AcDbLine
 10
696.5415206448611
 20
89.63373109091492
 30
0.0
 11
697.9759217216196
 21
89.63373109091492
 31
0.0
  0
LINE
  5
1510A
330
1F
100
AcDbEntity
  8
AM_VIS
100
AcDbLine
 10
699.0429090197274
 20
89.63373109091492
 30
0.0
 11
697.9759217216195
 21
89.63373109091492
 31
0.0
  0
LINE
  5
1510B
330
1F
100
AcDbEntity
  8
AM_VIS
100
AcDbLine
 10
699.7259217216196
 20
89.63373109091492
 30
0.0
 11
699.0429090197274
 21
89.63373109091492
 31
0.0
  0
LINE
  5
1510C
330
1F
100
AcDbEntity
  8
AM_VIS
100
AcDbLine
 10
699.7259217216196
 20
89.63373109091492
 30
0.0
 11
701.1603227983782
 21
89.63373109091492
 31
0.0
  0
LINE
  5
1510D
330
1F
100
AcDbEntity
  8
AM_VIS
100
AcDbLine
 10
682.6851141843101
 20
89.63373109091492
 30
0.0
 11
684.1195152610686
 21
89.63373109091492
 31
0.0
  0
LINE
  5
1510E
330
1F
100
AcDbEntity
  8
AM_VIS
100
AcDbLine
 10
687.3039163378271
 20
95.13373109091492
 30
0.0
 11
687.3039163378271
 21
89.63373109091492
 31
0.0
  0
LINE
  5
1510F
330
1F
100
AcDbEntity
  8
AM_VIS
100
AcDbLine
 10
685.8695152610685
 20
89.63373109091492
 30
0.0
 11
687.3039163378271
 21
89.63373109091492
 31
0.0
  0
LINE
  5
15110
330
1F
100
AcDbEntity
  8
AM_VIS
100
AcDbLine
 10
682.6851141843101
 20
95.13373109091492
 30
0.0
 11
684.1195152610686
 21
95.13373109091492
 31
0.0
  0
LINE
  5
15111
330
1F
100
AcDbEntity
  8
AM_VIS
100
AcDbLine
 10
699.7259217216196
 20
95.13373109091492
 30
0.0
 11
701.1603227983782
 21
95.13373109091492
 31
0.0
  0
LINE
  5
15112
330
1F
100
AcDbEntity
  8
AM_VIS
100
AcDbLine
 10
699.0429090197274
 20
95.13373109091492
 30
0.0
 11
699.7259217216196
 21
95.13373109091492
 31
0.0
  0
LINE
  5
15113
330
1F
100
AcDbEntity
  8
AM_VIS
100
AcDbLine
 10
697.9759217216195
 20
95.13373109091492
 30
0.0
 11
699.0429090197274
 21
95.13373109091492
 31
0.0
  0
LINE
  5
15114
330
1F
100
AcDbEntity
  8
AM_VIS
100
AcDbLine
 10
696.5415206448611
 20
95.13373109091492
 30
0.0
 11
697.9759217216196
 21
95.13373109091492
 31
0.0
  0
LINE
  5
15115
330
1F
100
AcDbEntity
  8
AM_VIS
100
AcDbLine
 10
693.6727184913441
 20
95.13373109091492
 30
0.0
 11
696.5415206448611
 21
95.13373109091492
 31
0.0
  0
LINE
  5
15116
330
1F
100
AcDbEntity
  8
AM_VIS
100
AcDbLine
 10
693.1727184913441
 20
95.13373109091492
 30
0.0
 11
693.6727184913441
 21
95.13373109091492
 31
0.0
  0
LINE
  5
15117
330
1F
100
AcDbEntity
  8
AM_VIS
100
AcDbLine
 10
690.6727184913441
 20
95.13373109091492
 30
0.0
 11
693.1727184913441
 21
95.13373109091492
 31
0.0
  0
LINE
  5
15118
330
1F
100
AcDbEntity
  8
AM_VIS
100
AcDbLine
 10
690.1727184913441
 20
95.13373109091492
 30
0.0
 11
690.6727184913441
 21
95.13373109091492
 31
0.0
  0
LINE
  5
15119
330
1F
100
AcDbEntity
  8
AM_VIS
100
AcDbLine
 10
687.3039163378271
 20
95.13373109091492
 30
0.0
 11
690.1727184913441
 21
95.13373109091492
 31
0.0
  0
LINE
  5
1511A
330
1F
100
AcDbEntity
  8
AM_VIS
100
AcDbLine
 10
685.8695152610685
 20
95.13373109091492
 30
0.0
 11
687.3039163378271
 21
95.13373109091492
 31
0.0
  0
LINE
  5
1511B
330
1F
100
AcDbEntity
  8
AM_VIS
100
AcDbLine
 10
685.8695152610687
 20
95.13373109091492
 30
0.0
 11
685.8695152610687
 21
89.63373109091492
 31
0.0
  0
LINE
  5
1511C
330
1F
100
AcDbEntity
  8
AM_VIS
100
AcDbLine
 10
684.1195152610686
 20
89.63373109091492
 30
0.0
 11
684.1195152610686
 21
95.13373109091492
 31
0.0
  0
LINE
  5
1511D
330
1F
100
AcDbEntity
  8
AM_VIS
100
AcDbLine
 10
684.1195152610687
 20
95.13373109091492
 30
0.0
 11
684.8025279629609
 21
95.13373109091492
 31
0.0
  0
LINE
  5
1511E
330
1F
100
AcDbEntity
  8
AM_VIS
100
AcDbLine
 10
684.8025279629609
 20
89.63373109091492
 30
0.0
 11
684.1195152610687
 21
89.63373109091492
 31
0.0
  0
LINE
  5
1511F
330
1F
100
AcDbEntity
  8
AM_VIS
100
AcDbLine
 10
684.8025279629609
 20
95.13373109091492
 30
0.0
 11
684.8025279629609
 21
89.63373109091492
 31
0.0
  0
LINE
  5
15120
330
1F
100
AcDbEntity
  8
AM_VIS
100
AcDbLine
 10
684.8025279629609
 20
95.13373109091492
 30
0.0
 11
685.8695152610687
 21
95.13373109091492
 31
0.0
  0
LINE
  5
15121
330
1F
100
AcDbEntity
  8
AM_VIS
100
AcDbLine
 10
685.8695152610687
 20
89.63373109091492
 30
0.0
 11
684.8025279629609
 21
89.63373109091492
 31
0.0
  0
ARC
  5
15122
330
1F
100
AcDbEntity
  8
AM_VIS
100
AcDbCircle
 10
688.4227184913441
 20
72.5337310909149
 30
0.0
 40
3.5
100
AcDbArc
 50
121.4147677092408
 51
180.0
  0
LINE
  5
15123
330
1F
100
AcDbEntity
  8
AM_VIS
100
AcDbLine
 10
697.5795727408365
 20
76.0337310909149
 30
0.0
 11
682.9227184913441
 21
76.0337310909149
 31
0.0
  0
LINE
  5
15124
330
1F
100
AcDbEntity
  8
AM_VIS
100
AcDbLine
 10
682.9227184913441
 20
88.0337310909149
 30
0.0
 11
700.9227184913441
 21
88.0337310909149
 31
0.0
  0
ARC
  5
15125
330
1F
100
AcDbEntity
  8
AM_VIS
100
AcDbCircle
 10
688.4227184913441
 20
50.5337310909149
 30
0.0
 40
3.5
100
AcDbArc
 50
180.0
 51
270.0
  0
LINE
  5
15126
330
1F
100
AcDbEntity
  8
AM_VIS
100
AcDbLine
 10
684.922718491344
 20
71.0337310909149
 30
0.0
 11
682.9227184913441
 21
76.0337310909149
 31
0.0
  0
LINE
  5
15127
330
1F
100
AcDbEntity
  8
AM_VIS
100
AcDbLine
 10
700.9227184913441
 20
76.0337310909149
 30
0.0
 11
700.9227184913441
 21
88.0337310909149
 31
0.0
  0
LINE
  5
15128
330
1F
100
AcDbEntity
  8
AM_VIS
100
AcDbLine
 10
682.9227184913441
 20
76.0337310909149
 30
0.0
 11
682.9227184913441
 21
88.0337310909149
 31
0.0
  0
SPLINE
  5
15129
330
1F
100
AcDbEntity
  8
AM_VIS
100
AcDbSpline
210
0.0
220
0.0
230
1.0
 70
     8
 71
     3
 72
    22
 73
    18
 74
     0
 42
0.0000000001
 43
0.0000000001
 40
6.922974191987643
 40
6.922974191987643
 40
6.922974191987643
 40
6.922974191987643
 40
7.242870958922999
 40
7.242870958922999
 40
8.615360666179645
 40
8.615360666179645
 40
9.987850373436291
 40
9.987850373436291
 40
11.36034008069293
 40
11.36034008069293
 40
12.73282978794958
 40
12.73282978794958
 40
14.10531949520622
 40
14.10531949520622
 40
15.47780920246286
 40
15.47780920246286
 40
16.1364483476482
 40
16.1364483476482
 40
16.1364483476482
 40
16.1364483476482
 10
697.5795727408365
 20
76.0337310909149
 30
0.0
 10
697.4926841726847
 20
76.0337310909149
 30
0.0
 10
697.4054700632327
 20
76.03161707823716
 30
0.0
 10
696.9498165214875
 20
76.01264175536667
 30
0.0
 10
696.5439593931945
 20
75.9680401583804
 30
0.0
 10
695.6824708080914
 20
75.85846099460519
 30
0.0
 10
695.2267999930785
 20
75.79355343598385
 30
0.0
 10
694.2914275570014
 20
75.67608714514207
 30
0.0
 10
693.8113590641868
 20
75.62377694049837
 30
0.0
 10
692.8557598190736
 20
75.55319204955537
 30
0.0
 10
692.3802150604297
 20
75.53507489538532
 30
0.0
 10
691.4652219222585
 20
75.53507489538532
 30
0.0
 10
690.9896771636145
 20
75.55319204955537
 30
0.0
 10
690.0340779185013
 20
75.62377694049837
 30
0.0
 10
689.5540094256866
 20
75.67608714514207
 30
0.0
 10
688.8618869519624
 20
75.76300552830247
 30
0.0
 10
688.640194803375
 20
75.79255678185927
 30
0.0
 10
688.4227184913441
 20
75.82178403271408
 30
0.0
  0
SPLINE
  5
1512A
330
1F
100
AcDbEntity
  8
AM_VIS
100
AcDbSpline
210
0.0
220
0.0
230
1.0
 70
     8
 71
     3
 72
    18
 73
    14
 74
     0
 42
0.0000000001
 43
0.0000000001
 40
6.072258403086962
 40
6.072258403086962
 40
6.072258403086962
 40
6.072258403086962
 40
6.091519998582311
 40
6.091519998582311
 40
6.594079983681931
 40
6.594079983681931
 40
7.096639968781531
 40
7.096639968781531
 40
7.59919995388113
 40
7.59919995388113
 40
8.101759938980729
 40
8.101759938980729
 40
8.212872863102431
 40
8.212872863102431
 40
8.212872863102431
 40
8.212872863102431
 10
688.4227184913441
 20
75.82178403271408
 30
0.0
 10
688.4163947136494
 20
75.82263390291515
 30
0.0
 10
688.4100779144496
 20
75.82346727750726
 30
0.0
 10
688.2391444375619
 20
75.84559833605405
 30
0.0
 10
688.0795037238081
 20
75.8555547469322
 30
0.0
 10
687.7798348466204
 20
75.85555474693217
 30
0.0
 10
687.6280614100148
 20
75.845598336054
 30
0.0
 10
687.3322197035945
 20
75.8029700321772
 30
0.0
 10
687.1881490316497
 20
75.77030029073577
 30
0.0
 10
686.9168845704865
 20
75.68293495798676
 30
0.0
 10
686.7895287071226
 20
75.62818239725254
 30
0.0
 10
686.6479888604309
 20
75.5502085152651
 30
0.0
 10
686.6229138846352
 20
75.53565172116865
 30
0.0
 10
686.5984148454599
 20
75.520688775184
 30
0.0
  0
LINE
  5
1512B
330
1F
100
AcDbEntity
  8
AM_VIS
100
AcDbLine
 10
713.4227184913441
 20
76.0337310909149
 30
0.0
 11
697.5795727408365
 21
76.0337310909149
 31
0.0
  0
LINE
  5
1512C
330
1F
100
AcDbEntity
  8
AM_VIS
100
AcDbLine
 10
684.922718491344
 20
72.5337310909149
 30
0.0
 11
684.922718491344
 21
50.5337310909149
 31
0.0
  0
LINE
  5
1512D
330
1F
100
AcDbEntity
  8
AM_VIS
100
AcDbLine
 10
688.4227184913441
 20
47.03373109091495
 30
0.0
 11
713.4227184913441
 21
47.03373109091495
 31
0.0
  0
LINE
  5
1512E
330
1F
100
AcDbEntity
  8
AM_VIS
100
AcDbLine
 10
737.9227184913441
 20
76.0337310909149
 30
0.0
 11
741.9227184913441
 21
76.0337310909149
 31
0.0
  0
LINE
  5
1512F
330
1F
100
AcDbEntity
  8
AM_VIS
100
AcDbLine
 10
713.4227184913441
 20
46.53373109091489
 30
0.0
 11
737.9227184913441
 21
46.53373109091489
 31
0.0
  0
LINE
  5
15130
330
1F
100
AcDbEntity
  8
AM_VIS
100
AcDbLine
 10
713.4227184913441
 20
46.53373109091489
 30
0.0
 11
713.4227184913441
 21
76.0337310909149
 31
0.0
  0
LINE
  5
15131
330
1F
100
AcDbEntity
  8
AM_VIS
100
AcDbLine
 10
737.9227184913441
 20
76.0337310909149
 30
0.0
 11
713.4227184913441
 21
76.0337310909149
 31
0.0
  0
LINE
  5
15132
330
1F
100
AcDbEntity
  8
AM_VIS
100
AcDbLine
 10
741.9227184913441
 20
46.53373109091489
 30
0.0
 11
741.9227184913441
 21
76.0337310909149
 31
0.0
  0
LINE
  5
15133
330
1F
100
AcDbEntity
  8
AM_VIS
100
AcDbLine
 10
741.9227184913441
 20
44.53373109091489
 30
0.0
 11
741.6227184913441
 21
44.53373109091489
 31
0.0
  0
LINE
  5
15134
330
1F
100
AcDbEntity
  8
AM_VIS
100
AcDbLine
 10
741.6227184913441
 20
46.53373109091489
 30
0.0
 11
741.9227184913441
 21
46.53373109091489
 31
0.0
  0
LINE
  5
15135
330
1F
100
AcDbEntity
  8
AM_VIS
100
AcDbLine
 10
741.9227184913441
 20
44.53373109091489
 30
0.0
 11
741.9227184913441
 21
46.53373109091489
 31
0.0
  0
LINE
  5
15136
330
1F
100
AcDbEntity
  8
AM_VIS
100
AcDbLine
 10
741.6227184913441
 20
44.53373109091489
 30
0.0
 11
726.922718491344
 21
44.53373109091489
 31
0.0
  0
LINE
  5
15137
330
1F
100
AcDbEntity
  8
AM_VIS
100
AcDbLine
 10
741.6227184913441
 20
46.53373109091489
 30
0.0
 11
726.922718491344
 21
46.53373109091489
 31
0.0
  0
LINE
  5
15138
330
1F
100
AcDbEntity
  8
AM_VIS
100
AcDbLine
 10
726.922718491344
 20
46.53373109091489
 30
0.0
 11
726.922718491344
 21
44.53373109091489
 31
0.0
  0
LINE
  5
15139
330
1F
100
AcDbEntity
  8
AM_VIS
100
AcDbLine
 10
719.922718491344
 20
44.53373109091489
 30
0.0
 11
719.922718491344
 21
46.53373109091489
 31
0.0
  0
LINE
  5
1513A
330
1F
100
AcDbEntity
  8
AM_VIS
100
AcDbLine
 10
717.9227184913441
 20
36.23373109091491
 30
0.0
 11
717.9227184913441
 21
37.23373109091491
 31
0.0
  0
LINE
  5
1513B
330
1F
100
AcDbEntity
  8
AM_VIS
100
AcDbLine
 10
719.422718491344
 20
35.23373109091494
 30
0.0
 11
719.422718491344
 21
36.23373109091494
 31
0.0
  0
LINE
  5
1513C
330
1F
100
AcDbEntity
  8
AM_VIS
100
AcDbLine
 10
718.422718491344
 20
37.73373109091494
 30
0.0
 11
718.422718491344
 21
36.23373109091494
 31
0.0
  0
LINE
  5
1513D
330
1F
100
AcDbEntity
  8
AM_VIS
100
AcDbLine
 10
717.9227184913441
 20
34.23373109091494
 30
0.0
 11
717.9227184913441
 21
35.23373109091494
 31
0.0
  0
LINE
  5
1513E
330
1F
100
AcDbEntity
  8
AM_VIS
100
AcDbLine
 10
718.422718491344
 20
35.23373109091494
 30
0.0
 11
718.422718491344
 21
33.73373109091494
 31
0.0
  0
LINE
  5
1513F
330
1F
100
AcDbEntity
  8
AM_VIS
100
AcDbLine
 10
717.9227184913441
 20
37.23373109091494
 30
0.0
 11
718.422718491344
 21
37.73373109091494
 31
0.0
  0
LINE
  5
15140
330
1F
100
AcDbEntity
  8
AM_VIS
100
AcDbLine
 10
718.422718491344
 20
33.73373109091494
 30
0.0
 11
719.922718491344
 21
33.73373109091494
 31
0.0
  0
LINE
  5
15141
330
1F
100
AcDbEntity
  8
AM_VIS
100
AcDbLine
 10
718.422718491344
 20
37.73373109091494
 30
0.0
 11
719.922718491344
 21
37.73373109091494
 31
0.0
  0
LINE
  5
15142
330
1F
100
AcDbEntity
  8
AM_VIS
100
AcDbLine
 10
717.9227184913441
 20
34.23373109091494
 30
0.0
 11
718.422718491344
 21
33.73373109091494
 31
0.0
  0
LINE
  5
15143
330
1F
100
AcDbEntity
  8
AM_VIS
100
AcDbLine
 10
717.9227184913441
 20
36.23373109091494
 30
0.0
 11
718.422718491344
 21
36.23373109091494
 31
0.0
  0
LINE
  5
15144
330
1F
100
AcDbEntity
  8
AM_VIS
100
AcDbLine
 10
718.422718491344
 20
36.23373109091494
 30
0.0
 11
719.422718491344
 21
36.23373109091494
 31
0.0
  0
LINE
  5
15145
330
1F
100
AcDbEntity
  8
AM_VIS
100
AcDbLine
 10
719.422718491344
 20
35.23373109091494
 30
0.0
 11
718.422718491344
 21
35.23373109091494
 31
0.0
  0
LINE
  5
15146
330
1F
100
AcDbEntity
  8
AM_VIS
100
AcDbLine
 10
717.9227184913441
 20
35.23373109091494
 30
0.0
 11
718.422718491344
 21
35.23373109091494
 31
0.0
  0
LINE
  5
15147
330
1F
100
AcDbEntity
  8
AM_VIS
100
AcDbLine
 10
719.922718491344
 20
44.53373109091489
 30
0.0
 11
722.422718491344
 21
44.53373109091489
 31
0.0
  0
LINE
  5
15148
330
1F
100
AcDbEntity
  8
AM_VIS
100
AcDbLine
 10
719.922718491344
 20
44.53373109091489
 30
0.0
 11
719.922718491344
 21
29.5337310909149
 31
0.0
  0
LINE
  5
15149
330
1F
100
AcDbEntity
  8
AM_VIS
100
AcDbLine
 10
741.9227184913441
 20
29.5337310909149
 30
0.0
 11
741.9227184913441
 21
44.53373109091489
 31
0.0
  0
LINE
  5
1514A
330
1F
100
AcDbEntity
  8
AM_VIS
100
AcDbLine
 10
739.422718491344
 20
44.53373109091489
 30
0.0
 11
722.422718491344
 21
44.53373109091489
 31
0.0
  0
CIRCLE
  5
1514B
330
1F
100
AcDbEntity
  8
AM_VIS
100
AcDbCircle
 10
764.422718491344
 20
178.2416682346162
 30
0.0
 40
4.75
  0
CIRCLE
  5
1514C
330
1F
100
AcDbEntity
  8
AM_VIS
100
AcDbCircle
 10
764.422718491344
 20
178.2416682346162
 30
0.0
 40
2.6
  0
CIRCLE
  5
1514D
330
1F
100
AcDbEntity
  8
AM_VIS
100
AcDbCircle
 10
782.422718491344
 20
178.2416682346162
 30
0.0
 40
4.75
  0
CIRCLE
  5
1514E
330
1F
100
AcDbEntity
  8
AM_VIS
100
AcDbCircle
 10
782.422718491344
 20
178.2416682346162
 30
0.0
 40
2.6
  0
CIRCLE
  5
1514F
330
1F
100
AcDbEntity
  8
AM_VIS
100
AcDbCircle
 10
755.4227184913441
 20
150.2416682346162
 30
0.0
 40
4.75
  0
CIRCLE
  5
15150
330
1F
100
AcDbEntity
  8
AM_VIS
100
AcDbCircle
 10
755.4227184913441
 20
150.2416682346162
 30
0.0
 40
2.6
  0
CIRCLE
  5
15151
330
1F
100
AcDbEntity
  8
AM_VIS
100
AcDbCircle
 10
791.4227184913441
 20
150.2416682346162
 30
0.0
 40
4.75
  0
CIRCLE
  5
15152
330
1F
100
AcDbEntity
  8
AM_VIS
100
AcDbCircle
 10
791.4227184913441
 20
150.2416682346162
 30
0.0
 40
2.6
  0
LINE
  5
15153
330
1F
100
AcDbEntity
  8
AM_VIS
100
AcDbLine
 10
802.9227184913441
 20
141.7416682346162
 30
0.0
 11
743.922718491344
 21
141.7416682346162
 31
0.0
  0
LINE
  5
15154
330
1F
100
AcDbEntity
  8
AM_VIS
100
AcDbLine
 10
802.9227184913441
 20
186.7416682346162
 30
0.0
 11
743.922718491344
 21
186.7416682346162
 31
0.0
  0
LINE
  5
15155
330
1F
100
AcDbEntity
  8
AM_VIS
100
AcDbLine
 10
802.9227184913441
 20
186.7416682346162
 30
0.0
 11
802.9227184913441
 21
141.7416682346162
 31
0.0
  0
LINE
  5
15156
330
1F
100
AcDbEntity
  8
AM_VIS
100
AcDbLine
 10
743.922718491344
 20
186.7416682346162
 30
0.0
 11
743.922718491344
 21
141.7416682346162
 31
0.0
  0
LINE
  5
15157
330
1F
100
AcDbEntity
  8
AM_VIS
100
AcDbLine
 10
826.9227184913441
 20
141.7416682346162
 30
0.0
 11
826.9227184913441
 21
142.7416682346162
 31
0.0
  0
LINE
  5
15158
330
1F
100
AcDbEntity
  8
AM_VIS
100
AcDbLine
 10
802.9227184913441
 20
141.7416682346162
 30
0.0
 11
826.9227184913441
 21
141.7416682346162
 31
0.0
  0
LINE
  5
15159
330
1F
100
AcDbEntity
  8
AM_VIS
100
AcDbLine
 10
826.9227184913441
 20
147.7416682346162
 30
0.0
 11
826.9227184913441
 21
142.7416682346162
 31
0.0
  0
LINE
  5
1515A
330
1F
100
AcDbEntity
  8
AM_VIS
100
AcDbLine
 10
826.9227184913441
 20
185.7416682346162
 30
0.0
 11
826.9227184913441
 21
169.7416682346162
 31
0.0
  0
LINE
  5
1515C
330
1F
100
AcDbEntity
  8
AM_VIS
100
AcDbLine
 10
802.9227184913441
 20
185.7416682346162
 30
0.0
 11
802.9227184913441
 21
142.7416682346162
 31
0.0
  0
LINE
  5
1515D
330
1F
100
AcDbEntity
  8
AM_VIS
100
AcDbLine
 10
826.9227184913441
 20
186.7416682346162
 30
0.0
 11
802.9227184913441
 21
186.7416682346162
 31
0.0
  0
LINE
  5
1515E
330
1F
100
AcDbEntity
  8
AM_VIS
100
AcDbLine
 10
826.9227184913441
 20
185.7416682346162
 30
0.0
 11
826.9227184913441
 21
186.7416682346162
 31
0.0
  0
ARC
  5
15160
330
1F
100
AcDbEntity
  8
AM_VIS
100
AcDbCircle
 10
815.922718491344
 20
158.7416682346162
 30
0.0
 40
10.0
100
AcDbArc
 50
109.6712892167062
 51
130.3287107832936
  0
ARC
  5
15161
330
1F
100
AcDbEntity
  8
AM_VIS
100
AcDbCircle
 10
815.922718491344
 20
158.7416682346162
 30
0.0
 40
10.0
100
AcDbArc
 50
49.67128921670667
 51
70.32871078329384
  0
ARC
  5
15162
330
1F
100
AcDbEntity
  8
AM_VIS
100
AcDbCircle
 10
815.922718491344
 20
158.7416682346162
 30
0.0
 40
10.0
100
AcDbArc
 50
349.6712892167075
 51
10.32871078329286
  0
ARC
  5
15163
330
1F
100
AcDbEntity
  8
AM_VIS
100
AcDbCircle
 10
815.922718491344
 20
158.7416682346162
 30
0.0
 40
10.0
100
AcDbArc
 50
169.6712892167079
 51
190.3287107832928
  0
ARC
  5
15164
330
1F
100
AcDbEntity
  8
AM_VIS
100
AcDbCircle
 10
815.922718491344
 20
158.7416682346162
 30
0.0
 40
10.0
100
AcDbArc
 50
289.6712892167062
 51
310.3287107832938
  0
ARC
  5
15165
330
1F
100
AcDbEntity
  8
AM_VIS
100
AcDbCircle
 10
815.922718491344
 20
158.7416682346162
 30
0.0
 40
10.0
100
AcDbArc
 50
229.6712892167069
 51
250.3287107832937
  0
ARC
  5
15166
330
1F
100
AcDbEntity
  8
AM_VIS
100
AcDbCircle
 10
815.922718491344
 20
158.7416682346162
 30
0.0
 40
10.0
100
AcDbArc
 50
90.0
 51
109.6712892167062
  0
ARC
  5
15167
330
1F
100
AcDbEntity
  8
AM_VIS
100
AcDbCircle
 10
815.922718491344
 20
158.7416682346162
 30
0.0
 40
10.0
100
AcDbArc
 50
130.3287107832936
 51
169.6712892167079
  0
ARC
  5
15168
330
1F
100
AcDbEntity
  8
AM_VIS
100
AcDbCircle
 10
815.922718491344
 20
158.7416682346162
 30
0.0
 40
10.0
100
AcDbArc
 50
190.3287107832928
 51
229.6712892167069
  0
ARC
  5
15169
330
1F
100
AcDbEntity
  8
AM_VIS
100
AcDbCircle
 10
815.922718491344
 20
158.7416682346162
 30
0.0
 40
10.0
100
AcDbArc
 50
250.3287107832937
 51
289.6712892167062
  0
ARC
  5
1516A
330
1F
100
AcDbEntity
  8
AM_VIS
100
AcDbCircle
 10
815.922718491344
 20
158.7416682346162
 30
0.0
 40
10.0
100
AcDbArc
 50
310.3287107832938
 51
349.6712892167075
  0
ARC
  5
1516B
330
1F
100
AcDbEntity
  8
AM_VIS
100
AcDbCircle
 10
815.922718491344
 20
158.7416682346162
 30
0.0
 40
10.0
100
AcDbArc
 50
10.32871078329286
 51
49.67128921670667
  0
ARC
  5
1516C
330
1F
100
AcDbEntity
  8
AM_VIS
100
AcDbCircle
 10
815.922718491344
 20
158.7416682346162
 30
0.0
 40
10.0
100
AcDbArc
 50
70.32871078329384
 51
90.0
  0
ARC
  5
1516D
330
1F
100
AcDbEntity
  8
AM_VIS
100
AcDbCircle
 10
815.922718491344
 20
158.7416682346162
 30
0.0
 40
9.5
100
AcDbArc
 50
165.6009953934891
 51
194.3990046065116
  0
ARC
  5
1516E
330
1F
100
AcDbEntity
  8
AM_VIS
100
AcDbCircle
 10
800.0744536020887
 20
167.891668234616
 30
0.0
 40
9.5
100
AcDbArc
 50
314.3990046065109
 51
345.6009953934891
  0
ARC
  5
1516F
330
1F
100
AcDbEntity
  8
AM_VIS
100
AcDbCircle
 10
815.922718491344
 20
158.7416682346162
 30
0.0
 40
9.5
100
AcDbArc
 50
105.6009953934866
 51
134.3990046065114
  0
ARC
  5
15170
330
1F
100
AcDbEntity
  8
AM_VIS
100
AcDbCircle
 10
815.9227184913438
 20
177.0416682346162
 30
0.0
 40
9.5
100
AcDbArc
 50
254.3990046065133
 51
285.6009953934866
  0
ARC
  5
15171
330
1F
100
AcDbEntity
  8
AM_VIS
100
AcDbCircle
 10
815.922718491344
 20
158.7416682346162
 30
0.0
 40
9.5
100
AcDbArc
 50
45.60099539348896
 51
74.39900460651334
  0
ARC
  5
15172
330
1F
100
AcDbEntity
  8
AM_VIS
100
AcDbCircle
 10
831.7709833805992
 20
167.8916682346162
 30
0.0
 40
9.500000000000001
100
AcDbArc
 50
194.399004606512
 51
225.6009953934888
  0
ARC
  5
15173
330
1F
100
AcDbEntity
  8
AM_VIS
100
AcDbCircle
 10
815.922718491344
 20
158.7416682346162
 30
0.0
 40
9.5
100
AcDbArc
 50
345.6009953934883
 51
14.39900460651163
  0
ARC
  5
15174
330
1F
100
AcDbEntity
  8
AM_VIS
100
AcDbCircle
 10
831.7709833805993
 20
149.5916682346162
 30
0.0
 40
9.5
100
AcDbArc
 50
134.3990046065111
 51
165.6009953934883
  0
ARC
  5
15175
330
1F
100
AcDbEntity
  8
AM_VIS
100
AcDbCircle
 10
815.922718491344
 20
158.7416682346162
 30
0.0
 40
9.5
100
AcDbArc
 50
285.6009953934866
 51
314.3990046065114
  0
ARC
  5
15176
330
1F
100
AcDbEntity
  8
AM_VIS
100
AcDbCircle
 10
815.922718491344
 20
140.4416682346162
 30
0.0
 40
9.5
100
AcDbArc
 50
74.39900460651326
 51
105.6009953934866
  0
ARC
  5
15177
330
1F
100
AcDbEntity
  8
AM_VIS
100
AcDbCircle
 10
815.922718491344
 20
158.7416682346162
 30
0.0
 40
9.5
100
AcDbArc
 50
225.6009953934891
 51
254.3990046065133
  0
ARC
  5
15178
330
1F
100
AcDbEntity
  8
AM_VIS
100
AcDbCircle
 10
800.0744536020889
 20
149.591668234616
 30
0.0
 40
9.5
100
AcDbArc
 50
14.39900460651124
 51
45.60099539348914
  0
CIRCLE
  5
15179
330
1F
100
AcDbEntity
  8
AM_VIS
100
AcDbCircle
 10
815.922718491344
 20
158.7416682346162
 30
0.0
 40
1.25
  0
SPLINE
  5
1517A
330
1F
100
AcDbEntity
  8
AM_VIS
100
AcDbSpline
210
0.0
220
0.0
230
1.0
 70
     8
 71
     3
 72
     8
 73
     4
 74
     0
 42
0.0000000001
 43
0.0000000001
 40
1.629958734905461
 40
1.629958734905461
 40
1.629958734905461
 40
1.629958734905461
 40
2.565803457021723
 40
2.565803457021723
 40
2.565803457021723
 40
2.565803457021723
 10
812.5564840173765
 20
149.3252747919933
 30
0.0
 10
812.8158604838704
 20
149.4235594242097
 30
0.0
 10
813.0870126667225
 20
149.5132598153364
 30
0.0
 10
813.3678212331357
 20
149.5916682346162
 30
0.0
  0
SPLINE
  5
1517B
330
1F
100
AcDbEntity
  8
AM_VIS
100
AcDbSpline
210
0.0
220
0.0
230
1.0
 70
     8
 71
     3
 72
     8
 73
     4
 74
     0
 42
0.0000000001
 43
0.0000000001
 40
7.8606508081159
 40
7.8606508081159
 40
7.8606508081159
 40
7.8606508081159
 40
8.796495530230886
 40
8.796495530230886
 40
8.796495530230886
 40
8.796495530230886
 10
818.4776157495523
 20
149.5916682346162
 30
0.0
 10
818.7584241121353
 20
149.5132598722506
 30
0.0
 10
819.0295763325494
 20
149.4235594872132
 30
0.0
 10
819.2889529653117
 20
149.3252747919933
 30
0.0
  0
SPLINE
  5
1517C
330
1F
100
AcDbEntity
  8
AM_VIS
100
AcDbSpline
210
0.0
220
0.0
230
1.0
 70
     8
 71
     3
 72
     8
 73
     4
 74
     0
 42
0.0000000001
 43
0.0000000001
 40
1.630155802117218
 40
1.630155802117218
 40
1.630155802117218
 40
1.630155802117218
 40
2.566002660597602
 40
2.566002660597602
 40
2.566002660597602
 40
2.566002660597602
 10
822.394437187701
 20
151.118226943754
 30
0.0
 10
822.4390085209256
 20
151.3919964112216
 30
0.0
 10
822.4969018173439
 20
151.6716711744362
 30
0.0
 10
822.5694023068676
 20
151.9540623049487
 30
0.0
  0
SPLINE
  5
1517D
330
1F
100
AcDbEntity
  8
AM_VIS
100
AcDbSpline
210
0.0
220
0.0
230
1.0
 70
     8
 71
     3
 72
     8
 73
     4
 74
     0
 42
0.0000000001
 43
0.0000000001
 40
7.860869800051694
 40
7.860869800051694
 40
7.860869800051694
 40
7.860869800051694
 40
8.796716658530822
 40
8.796716658530822
 40
8.796716658530822
 40
8.796716658530822
 10
825.1242995650757
 20
156.3792741642837
 30
0.0
 10
825.3326070622648
 20
156.5832568475104
 30
0.0
 10
825.545865877299
 20
156.7732313300415
 30
0.0
 10
825.7606716616685
 20
156.9487160828556
 30
0.0
  0
SPLINE
  5
1517E
330
1F
100
AcDbEntity
  8
AM_VIS
100
AcDbSpline
210
0.0
220
0.0
230
1.0
 70
     8
 71
     3
 72
     8
 73
     4
 74
     0
 42
0.0000000001
 43
0.0000000001
 40
1.630155803927002
 40
1.630155803927002
 40
1.630155803927002
 40
1.630155803927002
 40
2.566002662426968
 40
2.566002662426968
 40
2.566002662426968
 40
2.566002662426968
 10
806.0847653210196
 20
156.9487160828555
 30
0.0
 10
806.2995709680187
 20
156.7732314422655
 30
0.0
 10
806.5128297695498
 20
156.5832569952514
 30
0.0
 10
806.7211374176121
 20
156.3792741642837
 30
0.0
  0
SPLINE
  5
1517F
330
1F
100
AcDbEntity
  8
AM_VIS
100
AcDbSpline
210
0.0
220
0.0
230
1.0
 70
     8
 71
     3
 72
     8
 73
     4
 74
     0
 42
0.0000000001
 43
0.0000000001
 40
7.860869802063071
 40
7.860869802063071
 40
7.860869802063071
 40
7.860869802063071
 40
8.796716660561775
 40
8.796716660561775
 40
8.796716660561775
 40
8.796716660561775
 10
809.2760346758208
 20
151.9540623049485
 30
0.0
 10
809.3485351128315
 20
151.6716713789747
 30
0.0
 10
809.4064284332572
 20
151.3919965863094
 30
0.0
 10
809.4509997949872
 20
151.1182269437538
 30
0.0
  0
SPLINE
  5
15180
330
1F
100
AcDbEntity
  8
AM_VIS
100
AcDbSpline
210
0.0
220
0.0
230
1.0
 70
     8
 71
     3
 72
     8
 73
     4
 74
     0
 42
0.0000000001
 43
0.0000000001
 40
1.630155803927018
 40
1.630155803927018
 40
1.630155803927018
 40
1.630155803927018
 40
2.566002662426991
 40
2.566002662426991
 40
2.566002662426991
 40
2.566002662426991
 10
825.7606716616685
 20
160.5346203863769
 30
0.0
 10
825.5458660146693
 20
160.7101050269669
 30
0.0
 10
825.3326072131383
 20
160.900079473981
 30
0.0
 10
825.1242995650757
 20
161.1040623049487
 30
0.0
  0
SPLINE
  5
15181
330
1F
100
AcDbEntity
  8
AM_VIS
100
AcDbSpline
210
0.0
220
0.0
230
1.0
 70
     8
 71
     3
 72
     8
 73
     4
 74
     0
 42
0.0000000001
 43
0.0000000001
 40
7.860869802063005
 40
7.860869802063005
 40
7.860869802063005
 40
7.860869802063005
 40
8.796716660561699
 40
8.796716660561699
 40
8.796716660561699
 40
8.796716660561699
 10
822.5694023068674
 20
165.5292741642838
 30
0.0
 10
822.4969018698566
 20
165.8116650902576
 30
0.0
 10
822.4390085494308
 20
166.0913398829229
 30
0.0
 10
822.3944371877008
 20
166.3651095254786
 30
0.0
  0
SPLINE
  5
15182
330
1F
100
AcDbEntity
  8
AM_VIS
100
AcDbSpline
210
0.0
220
0.0
230
1.0
 70
     8
 71
     3
 72
     8
 73
     4
 74
     0
 42
0.0000000001
 43
0.0000000001
 40
1.630155803927018
 40
1.630155803927018
 40
1.630155803927018
 40
1.630155803927018
 40
2.566002662426996
 40
2.566002662426996
 40
2.566002662426996
 40
2.566002662426996
 10
809.450999794987
 20
166.3651095254785
 30
0.0
 10
809.4064284617617
 20
166.0913400580058
 30
0.0
 10
809.3485351653431
 20
165.8116652947922
 30
0.0
 10
809.2760346758204
 20
165.5292741642837
 30
0.0
  0
SPLINE
  5
15183
330
1F
100
AcDbEntity
  8
AM_VIS
100
AcDbSpline
210
0.0
220
0.0
230
1.0
 70
     8
 71
     3
 72
     8
 73
     4
 74
     0
 42
0.0000000001
 43
0.0000000001
 40
7.860869802063004
 40
7.860869802063004
 40
7.860869802063004
 40
7.860869802063004
 40
8.796716660561713
 40
8.796716660561713
 40
8.796716660561713
 40
8.796716660561713
 10
806.7211374176121
 20
161.1040623049485
 30
0.0
 10
806.512829920426
 20
160.9000796217248
 30
0.0
 10
806.2995711053927
 20
160.7101051391939
 30
0.0
 10
806.0847653210196
 20
160.5346203863767
 30
0.0
  0
SPLINE
  5
15184
330
1F
100
AcDbEntity
  8
AM_VIS
100
AcDbSpline
210
0.0
220
0.0
230
1.0
 70
     8
 71
     3
 72
     8
 73
     4
 74
     0
 42
0.0000000001
 43
0.0000000001
 40
1.63015580392704
 40
1.63015580392704
 40
1.63015580392704
 40
1.63015580392704
 40
2.566002662427006
 40
2.566002662427006
 40
2.566002662427006
 40
2.566002662427006
 10
819.2889529653113
 20
168.1580616772392
 30
0.0
 10
819.029575985087
 20
168.0597768503566
 30
0.0
 10
818.7584238871373
 20
167.9700765341571
 30
0.0
 10
818.4776157495521
 20
167.8916682346162
 30
0.0
  0
SPLINE
  5
15185
330
1F
100
AcDbEntity
  8
AM_VIS
100
AcDbSpline
210
0.0
220
0.0
230
1.0
 70
     8
 71
     3
 72
     8
 73
     4
 74
     0
 42
0.0000000001
 43
0.0000000001
 40
7.860869802062977
 40
7.860869802062977
 40
7.860869802062977
 40
7.860869802062977
 40
8.796716660561656
 40
8.796716660561656
 40
8.796716660561656
 40
8.796716660561656
 10
813.3678212331357
 20
167.8916682346162
 30
0.0
 10
813.0870132989386
 20
167.9700764773663
 30
0.0
 10
812.8158611634797
 20
168.0597767875006
 30
0.0
 10
812.5564840173764
 20
168.1580616772391
 30
0.0
  0
CIRCLE
  5
15186
330
1F
100
AcDbEntity
  8
AM_VIS
100
AcDbCircle
 10
854.9227184913441
 20
158.7416682346162
 30
0.0
 40
5.25
  0
LINE
  5
15187
330
1F
100
AcDbEntity
  8
AM_VIS
100
AcDbLine
 10
864.1603227983781
 20
158.7416682346162
 30
0.0
 11
862.7259217216193
 21
161.2261237779936
 31
0.0
  0
LINE
  5
15188
330
1F
100
AcDbEntity
  8
AM_VIS
100
AcDbLine
 10
862.7259217216197
 20
156.257212691239
 30
0.0
 11
864.1603227983781
 21
158.7416682346162
 31
0.0
  0
LINE
  5
15189
330
1F
100
AcDbEntity
  8
AM_VIS
100
AcDbLine
 10
862.0429090197275
 20
156.0741999893468
 30
0.0
 11
862.7259217216195
 21
156.257212691239
 31
0.0
  0
LINE
  5
1518A
330
1F
100
AcDbEntity
  8
AM_VIS
100
AcDbLine
 10
860.7929090197274
 20
153.9091364798857
 30
0.0
 11
862.0429090197275
 21
156.0741999893468
 31
0.0
  0
LINE
  5
1518B
330
1F
100
AcDbEntity
  8
AM_VIS
100
AcDbLine
 10
860.9759217216197
 20
153.2261237779935
 30
0.0
 11
860.7929090197274
 21
153.9091364798857
 31
0.0
  0
LINE
  5
1518C
330
1F
100
AcDbEntity
  8
AM_VIS
100
AcDbLine
 10
859.541520644861
 20
150.7416682346162
 30
0.0
 11
860.9759217216197
 21
153.2261237779935
 31
0.0
  0
LINE
  5
1518D
330
1F
100
AcDbEntity
  8
AM_VIS
100
AcDbLine
 10
856.6727184913441
 20
150.7416682346162
 30
0.0
 11
859.541520644861
 21
150.7416682346162
 31
0.0
  0
LINE
  5
1518E
330
1F
100
AcDbEntity
  8
AM_VIS
100
AcDbLine
 10
856.1727184913442
 20
151.2416682346162
 30
0.0
 11
856.6727184913442
 21
150.7416682346162
 31
0.0
  0
LINE
  5
1518F
330
1F
100
AcDbEntity
  8
AM_VIS
100
AcDbLine
 10
853.6727184913441
 20
151.2416682346162
 30
0.0
 11
856.1727184913442
 21
151.2416682346162
 31
0.0
  0
LINE
  5
15190
330
1F
100
AcDbEntity
  8
AM_VIS
100
AcDbLine
 10
853.1727184913442
 20
150.7416682346162
 30
0.0
 11
853.6727184913441
 21
151.2416682346162
 31
0.0
  0
LINE
  5
15191
330
1F
100
AcDbEntity
  8
AM_VIS
100
AcDbLine
 10
850.303916337827
 20
150.7416682346162
 30
0.0
 11
853.1727184913441
 21
150.7416682346162
 31
0.0
  0
LINE
  5
15192
330
1F
100
AcDbEntity
  8
AM_VIS
100
AcDbLine
 10
848.8695152610684
 20
153.2261237779934
 30
0.0
 11
850.303916337827
 21
150.7416682346162
 31
0.0
  0
LINE
  5
15193
330
1F
100
AcDbEntity
  8
AM_VIS
100
AcDbLine
 10
849.0525279629608
 20
153.9091364798856
 30
0.0
 11
848.8695152610686
 21
153.2261237779934
 31
0.0
  0
LINE
  5
15194
330
1F
100
AcDbEntity
  8
AM_VIS
100
AcDbLine
 10
847.8025279629607
 20
156.0741999893467
 30
0.0
 11
849.0525279629608
 21
153.9091364798856
 31
0.0
  0
LINE
  5
15195
330
1F
100
AcDbEntity
  8
AM_VIS
100
AcDbLine
 10
847.1195152610684
 20
156.2572126912389
 30
0.0
 11
847.8025279629607
 21
156.0741999893467
 31
0.0
  0
LINE
  5
15196
330
1F
100
AcDbEntity
  8
AM_VIS
100
AcDbLine
 10
845.6851141843099
 20
158.7416682346162
 30
0.0
 11
847.1195152610684
 21
156.2572126912389
 31
0.0
  0
LINE
  5
15197
330
1F
100
AcDbEntity
  8
AM_VIS
100
AcDbLine
 10
847.1195152610684
 20
161.2261237779933
 30
0.0
 11
845.6851141843099
 21
158.7416682346162
 31
0.0
  0
LINE
  5
15198
330
1F
100
AcDbEntity
  8
AM_VIS
100
AcDbLine
 10
847.8025279629607
 20
161.4091364798856
 30
0.0
 11
847.1195152610684
 21
161.2261237779933
 31
0.0
  0
LINE
  5
15199
330
1F
100
AcDbEntity
  8
AM_VIS
100
AcDbLine
 10
849.0525279629608
 20
163.5741999893467
 30
0.0
 11
847.8025279629607
 21
161.4091364798856
 31
0.0
  0
LINE
  5
1519A
330
1F
100
AcDbEntity
  8
AM_VIS
100
AcDbLine
 10
848.8695152610684
 20
164.2572126912389
 30
0.0
 11
849.0525279629608
 21
163.5741999893467
 31
0.0
  0
LINE
  5
1519B
330
1F
100
AcDbEntity
  8
AM_VIS
100
AcDbLine
 10
850.3039163378272
 20
166.7416682346162
 30
0.0
 11
848.8695152610684
 21
164.2572126912389
 31
0.0
  0
LINE
  5
1519C
330
1F
100
AcDbEntity
  8
AM_VIS
100
AcDbLine
 10
853.1727184913439
 20
166.7416682346162
 30
0.0
 11
850.303916337827
 21
166.7416682346162
 31
0.0
  0
LINE
  5
1519D
330
1F
100
AcDbEntity
  8
AM_VIS
100
AcDbLine
 10
853.6727184913441
 20
166.2416682346162
 30
0.0
 11
853.1727184913441
 21
166.7416682346162
 31
0.0
  0
LINE
  5
1519E
330
1F
100
AcDbEntity
  8
AM_VIS
100
AcDbLine
 10
856.172718491344
 20
166.2416682346162
 30
0.0
 11
853.672718491344
 21
166.2416682346162
 31
0.0
  0
LINE
  5
1519F
330
1F
100
AcDbEntity
  8
AM_VIS
100
AcDbLine
 10
856.6727184913441
 20
166.7416682346162
 30
0.0
 11
856.172718491344
 21
166.2416682346162
 31
0.0
  0
LINE
  5
151A0
330
1F
100
AcDbEntity
  8
AM_VIS
100
AcDbLine
 10
859.541520644861
 20
166.7416682346162
 30
0.0
 11
856.6727184913439
 21
166.7416682346162
 31
0.0
  0
LINE
  5
151A1
330
1F
100
AcDbEntity
  8
AM_VIS
100
AcDbLine
 10
860.9759217216193
 20
164.2572126912391
 30
0.0
 11
859.541520644861
 21
166.7416682346162
 31
0.0
  0
LINE
  5
151A2
330
1F
100
AcDbEntity
  8
AM_VIS
100
AcDbLine
 10
860.7929090197272
 20
163.5741999893468
 30
0.0
 11
860.9759217216193
 21
164.2572126912391
 31
0.0
  0
LINE
  5
151A3
330
1F
100
AcDbEntity
  8
AM_VIS
100
AcDbLine
 10
862.7259217216193
 20
161.2261237779936
 30
0.0
 11
862.0429090197273
 21
161.4091364798858
 31
0.0
  0
LINE
  5
151A4
330
1F
100
AcDbEntity
  8
AM_VIS
100
AcDbLine
 10
862.0429090197271
 20
161.4091364798857
 30
0.0
 11
860.7929090197272
 21
163.5741999893468
 31
0.0
  0
ARC
  5
151A5
330
1F
100
AcDbEntity
  8
AM_VIS
100
AcDbCircle
 10
854.9227184913441
 20
158.7416682346162
 30
0.0
 40
9.0
100
AcDbArc
 50
270.0
 51
297.2660444507321
  0
ARC
  5
151A6
330
1F
100
AcDbEntity
  8
AM_VIS
100
AcDbCircle
 10
854.9227184913441
 20
158.7416682346162
 30
0.0
 40
9.0
100
AcDbArc
 50
302.7339555492701
 51
357.2660444507326
  0
ARC
  5
151A7
330
1F
100
AcDbEntity
  8
AM_VIS
100
AcDbCircle
 10
854.9227184913441
 20
158.7416682346162
 30
0.0
 40
9.0
100
AcDbArc
 50
2.733955549267002
 51
57.26604445072992
  0
ARC
  5
151A8
330
1F
100
AcDbEntity
  8
AM_VIS
100
AcDbCircle
 10
854.9227184913441
 20
158.7416682346162
 30
0.0
 40
9.0
100
AcDbArc
 50
62.73395554926783
 51
117.2660444507321
  0
ARC
  5
151A9
330
1F
100
AcDbEntity
  8
AM_VIS
100
AcDbCircle
 10
854.9227184913441
 20
158.7416682346162
 30
0.0
 40
9.0
100
AcDbArc
 50
122.7339555492646
 51
177.2660444507329
  0
ARC
  5
151AA
330
1F
100
AcDbEntity
  8
AM_VIS
100
AcDbCircle
 10
854.9227184913441
 20
158.7416682346162
 30
0.0
 40
9.0
100
AcDbArc
 50
182.7339555492674
 51
237.2660444507298
  0
ARC
  5
151AB
330
1F
100
AcDbEntity
  8
AM_VIS
100
AcDbCircle
 10
854.9227184913441
 20
158.7416682346162
 30
0.0
 40
9.0
100
AcDbArc
 50
242.7339555492678
 51
270.0
  0
ARC
  5
151AC
330
1F
100
AcDbEntity
  8
AM_VIS
100
AcDbCircle
 10
858.4227184913441
 20
151.7416682346162
 30
0.0
 40
3.5
100
AcDbArc
 50
270.0
 51
0.0
  0
ARC
  5
151AD
330
1F
100
AcDbEntity
  8
AM_VIS
100
AcDbCircle
 10
858.4227184913441
 20
165.7416682346162
 30
0.0
 40
3.5
100
AcDbArc
 50
0.0
 51
90.0
  0
CIRCLE
  5
151AE
330
1F
100
AcDbEntity
  8
AM_VIS
100
AcDbCircle
 10
854.9227184913441
 20
158.7416682346162
 30
0.0
 40
5.0
  0
LINE
  5
151AF
330
1F
100
AcDbEntity
  8
AM_VIS
100
AcDbLine
 10
858.4227184913441
 20
169.2416682346162
 30
0.0
 11
833.4227184913441
 21
169.2416682346162
 31
0.0
  0
LINE
  5
151B0
330
1F
100
AcDbEntity
  8
AM_VIS
100
AcDbLine
 10
833.4227184913441
 20
165.7416682346162
 30
0.0
 11
833.4227184913441
 21
151.7416682346162
 31
0.0
  0
LINE
  5
151B1
330
1F
100
AcDbEntity
  8
AM_VIS
100
AcDbLine
 10
861.9227184913441
 20
164.3985224841086
 30
0.0
 11
861.9227184913441
 21
165.7416682346162
 31
0.0
  0
LINE
  5
151B2
330
1F
100
AcDbEntity
  8
AM_VIS
100
AcDbLine
 10
861.9227184913441
 20
151.7416682346162
 30
0.0
 11
861.9227184913441
 21
153.0848139851238
 31
0.0
  0
LINE
  5
151B3
330
1F
100
AcDbEntity
  8
AM_VIS
100
AcDbLine
 10
833.4227184913441
 20
148.2416682346162
 30
0.0
 11
858.4227184913441
 21
148.2416682346162
 31
0.0
  0
ARC
  5
151B4
330
1F
100
AcDbEntity
  8
AM_VIS
100
AcDbCircle
 10
808.922718491344
 20
165.7416682346162
 30
0.0
 40
3.999999999999999
100
AcDbArc
 50
90.0
 51
180.0
  0
ARC
  5
151B5
330
1F
100
AcDbEntity
  8
AM_VIS
100
AcDbCircle
 10
808.922718491344
 20
151.7416682346162
 30
0.0
 40
3.999999999999999
100
AcDbArc
 50
180.0
 51
270.0
  0
LINE
  5
151B6
330
1F
100
AcDbEntity
  8
AM_VIS
100
AcDbLine
 10
808.922718491344
 20
169.7416682346162
 30
0.0
 11
833.4227184913441
 21
169.7416682346162
 31
0.0
  0
LINE
  5
151B7
330
1F
100
AcDbEntity
  8
AM_VIS
100
AcDbLine
 10
833.4227184913441
 20
169.7416682346162
 30
0.0
 11
833.4227184913441
 21
147.7416682346162
 31
0.0
  0
LINE
  5
151B8
330
1F
100
AcDbEntity
  8
AM_VIS
100
AcDbLine
 10
833.4227184913441
 20
147.7416682346162
 30
0.0
 11
808.922718491344
 21
147.7416682346162
 31
0.0
  0
LINE
  5
151B9
330
1F
100
AcDbEntity
  8
AM_VIS
100
AcDbLine
 10
804.9227184913441
 20
151.7416682346162
 30
0.0
 11
804.9227184913441
 21
165.7416682346162
 31
0.0
  0
ARC
  5
151BA
330
1F
100
AcDbEntity
  8
AM_VIS
100
AcDbCircle
 10
805.2227184913441
 20
169.4416682346162
 30
0.0
 40
0.2999999999999999
100
AcDbArc
 50
90.0
 51
180.0
  0
LINE
  5
151BB
330
1F
100
AcDbEntity
  8
AM_VIS
100
AcDbLine
 10
804.9227184913441
 20
165.7416682346162
 30
0.0
 11
804.9227184913441
 21
169.4416682346162
 31
0.0
  0
LINE
  5
151BC
330
1F
100
AcDbEntity
  8
AM_VIS
100
AcDbLine
 10
805.2227184913441
 20
169.7416682346162
 30
0.0
 11
808.922718491344
 21
169.7416682346162
 31
0.0
  0
ARC
  5
151BD
330
1F
100
AcDbEntity
  8
AM_VIS
100
AcDbCircle
 10
807.4227184913441
 20
150.2416682346162
 30
0.0
 40
2.5
100
AcDbArc
 50
180.0
 51
270.0
  0
LINE
  5
151BE
330
1F
100
AcDbEntity
  8
AM_VIS
100
AcDbLine
 10
808.922718491344
 20
147.7416682346162
 30
0.0
 11
807.4227184913441
 21
147.7416682346162
 31
0.0
  0
LINE
  5
151BF
330
1F
100
AcDbEntity
  8
AM_VIS
100
AcDbLine
 10
804.9227184913441
 20
150.2416682346162
 30
0.0
 11
804.9227184913441
 21
151.7416682346162
 31
0.0
  0
LINE
  5
151C0
330
1F
100
AcDbEntity
  8
AM_VIS
100
AcDbLine
 10
719.922718491344
 20
186.7416682346162
 30
0.0
 11
719.922718491344
 21
185.7416682346162
 31
0.0
  0
LINE
  5
151C1
330
1F
100
AcDbEntity
  8
AM_VIS
100
AcDbLine
 10
743.922718491344
 20
186.7416682346162
 30
0.0
 11
719.922718491344
 21
186.7416682346162
 31
0.0
  0
LINE
  5
151C2
330
1F
100
AcDbEntity
  8
AM_VIS
100
AcDbLine
 10
719.922718491344
 20
180.7416682346162
 30
0.0
 11
719.922718491344
 21
185.7416682346162
 31
0.0
  0
LINE
  5
151C3
330
1F
100
AcDbEntity
  8
AM_VIS
100
AcDbLine
 10
719.922718491344
 20
142.7416682346162
 30
0.0
 11
719.922718491344
 21
158.7416682346162
 31
0.0
  0
LINE
  5
151C5
330
1F
100
AcDbEntity
  8
AM_VIS
100
AcDbLine
 10
743.922718491344
 20
142.7416682346162
 30
0.0
 11
743.922718491344
 21
185.7416682346162
 31
0.0
  0
LINE
  5
151C6
330
1F
100
AcDbEntity
  8
AM_VIS
100
AcDbLine
 10
719.922718491344
 20
141.7416682346162
 30
0.0
 11
743.922718491344
 21
141.7416682346162
 31
0.0
  0
LINE
  5
151C7
330
1F
100
AcDbEntity
  8
AM_VIS
100
AcDbLine
 10
719.922718491344
 20
142.7416682346162
 30
0.0
 11
719.922718491344
 21
141.7416682346162
 31
0.0
  0
ARC
  5
151C9
330
1F
100
AcDbEntity
  8
AM_VIS
100
AcDbCircle
 10
730.922718491344
 20
169.7416682346162
 30
0.0
 40
10.0
100
AcDbArc
 50
289.6712892167062
 51
310.3287107832936
  0
ARC
  5
151CA
330
1F
100
AcDbEntity
  8
AM_VIS
100
AcDbCircle
 10
730.922718491344
 20
169.7416682346162
 30
0.0
 40
10.0
100
AcDbArc
 50
229.6712892167067
 51
250.3287107832938
  0
ARC
  5
151CB
330
1F
100
AcDbEntity
  8
AM_VIS
100
AcDbCircle
 10
730.922718491344
 20
169.7416682346162
 30
0.0
 40
10.0
100
AcDbArc
 50
169.6712892167075
 51
190.3287107832928
  0
ARC
  5
151CC
330
1F
100
AcDbEntity
  8
AM_VIS
100
AcDbCircle
 10
730.922718491344
 20
169.7416682346162
 30
0.0
 40
10.0
100
AcDbArc
 50
349.6712892167079
 51
10.32871078329286
  0
ARC
  5
151CD
330
1F
100
AcDbEntity
  8
AM_VIS
100
AcDbCircle
 10
730.922718491344
 20
169.7416682346162
 30
0.0
 40
10.0
100
AcDbArc
 50
109.6712892167062
 51
130.3287107832937
  0
ARC
  5
151CE
330
1F
100
AcDbEntity
  8
AM_VIS
100
AcDbCircle
 10
730.922718491344
 20
169.7416682346162
 30
0.0
 40
10.0
100
AcDbArc
 50
49.67128921670685
 51
70.32871078329375
  0
ARC
  5
151CF
330
1F
100
AcDbEntity
  8
AM_VIS
100
AcDbCircle
 10
730.922718491344
 20
169.7416682346162
 30
0.0
 40
10.0
100
AcDbArc
 50
270.0
 51
289.6712892167062
  0
ARC
  5
151D0
330
1F
100
AcDbEntity
  8
AM_VIS
100
AcDbCircle
 10
730.922718491344
 20
169.7416682346162
 30
0.0
 40
10.0
100
AcDbArc
 50
310.3287107832936
 51
349.6712892167079
  0
ARC
  5
151D1
330
1F
100
AcDbEntity
  8
AM_VIS
100
AcDbCircle
 10
730.922718491344
 20
169.7416682346162
 30
0.0
 40
10.0
100
AcDbArc
 50
10.32871078329286
 51
49.6712892167069
  0
ARC
  5
151D2
330
1F
100
AcDbEntity
  8
AM_VIS
100
AcDbCircle
 10
730.922718491344
 20
169.7416682346162
 30
0.0
 40
10.0
100
AcDbArc
 50
70.32871078329375
 51
109.6712892167062
  0
ARC
  5
151D3
330
1F
100
AcDbEntity
  8
AM_VIS
100
AcDbCircle
 10
730.922718491344
 20
169.7416682346162
 30
0.0
 40
10.0
100
AcDbArc
 50
130.3287107832936
 51
169.6712892167071
  0
ARC
  5
151D4
330
1F
100
AcDbEntity
  8
AM_VIS
100
AcDbCircle
 10
730.922718491344
 20
169.7416682346162
 30
0.0
 40
10.0
100
AcDbArc
 50
190.3287107832928
 51
229.6712892167064
  0
ARC
  5
151D5
330
1F
100
AcDbEntity
  8
AM_VIS
100
AcDbCircle
 10
730.922718491344
 20
169.7416682346162
 30
0.0
 40
10.0
100
AcDbArc
 50
250.3287107832938
 51
270.0
  0
ARC
  5
151D6
330
1F
100
AcDbEntity
  8
AM_VIS
100
AcDbCircle
 10
730.922718491344
 20
169.7416682346162
 30
0.0
 40
9.5
100
AcDbArc
 50
345.6009953934888
 51
14.39900460651163
  0
ARC
  5
151D7
330
1F
100
AcDbEntity
  8
AM_VIS
100
AcDbCircle
 10
746.7709833805993
 20
160.5916682346163
 30
0.0
 40
9.5
100
AcDbArc
 50
134.3990046065109
 51
165.6009953934891
  0
ARC
  5
151D8
330
1F
100
AcDbEntity
  8
AM_VIS
100
AcDbCircle
 10
730.922718491344
 20
169.7416682346162
 30
0.0
 40
9.5
100
AcDbArc
 50
285.6009953934866
 51
314.3990046065114
  0
ARC
  5
151D9
330
1F
100
AcDbEntity
  8
AM_VIS
100
AcDbCircle
 10
730.9227184913441
 20
151.4416682346162
 30
0.0
 40
9.5
100
AcDbArc
 50
74.39900460651331
 51
105.6009953934867
  0
ARC
  5
151DA
330
1F
100
AcDbEntity
  8
AM_VIS
100
AcDbCircle
 10
730.922718491344
 20
169.7416682346162
 30
0.0
 40
9.5
100
AcDbArc
 50
225.6009953934888
 51
254.3990046065133
  0
ARC
  5
151DB
330
1F
100
AcDbEntity
  8
AM_VIS
100
AcDbCircle
 10
715.0744536020888
 20
160.5916682346161
 30
0.0
 40
9.500000000000001
100
AcDbArc
 50
14.39900460651163
 51
45.60099539348877
  0
ARC
  5
151DC
330
1F
100
AcDbEntity
  8
AM_VIS
100
AcDbCircle
 10
730.922718491344
 20
169.7416682346162
 30
0.0
 40
9.5
100
AcDbArc
 50
165.6009953934883
 51
194.3990046065116
  0
ARC
  5
151DD
330
1F
100
AcDbEntity
  8
AM_VIS
100
AcDbCircle
 10
715.0744536020888
 20
178.8916682346162
 30
0.0
 40
9.5
100
AcDbArc
 50
314.3990046065112
 51
345.6009953934883
  0
ARC
  5
151DE
330
1F
100
AcDbEntity
  8
AM_VIS
100
AcDbCircle
 10
730.922718491344
 20
169.7416682346162
 30
0.0
 40
9.5
100
AcDbArc
 50
105.6009953934866
 51
134.3990046065114
  0
ARC
  5
151DF
330
1F
100
AcDbEntity
  8
AM_VIS
100
AcDbCircle
 10
730.922718491344
 20
188.0416682346162
 30
0.0
 40
9.5
100
AcDbArc
 50
254.3990046065132
 51
285.6009953934866
  0
ARC
  5
151E0
330
1F
100
AcDbEntity
  8
AM_VIS
100
AcDbCircle
 10
730.922718491344
 20
169.7416682346162
 30
0.0
 40
9.5
100
AcDbArc
 50
45.60099539348914
 51
74.39900460651331
  0
ARC
  5
151E1
330
1F
100
AcDbEntity
  8
AM_VIS
100
AcDbCircle
 10
746.7709833805992
 20
178.8916682346164
 30
0.0
 40
9.5
100
AcDbArc
 50
194.3990046065112
 51
225.6009953934891
  0
CIRCLE
  5
151E2
330
1F
100
AcDbEntity
  8
AM_VIS
100
AcDbCircle
 10
730.922718491344
 20
169.7416682346162
 30
0.0
 40
1.25
  0
SPLINE
  5
151E3
330
1F
100
AcDbEntity
  8
AM_VIS
100
AcDbSpline
210
0.0
220
0.0
230
1.0
 70
     8
 71
     3
 72
     8
 73
     4
 74
     0
 42
0.0000000001
 43
0.0000000001
 40
1.629958734905461
 40
1.629958734905461
 40
1.629958734905461
 40
1.629958734905461
 40
2.565803457021723
 40
2.565803457021723
 40
2.565803457021723
 40
2.565803457021723
 10
734.2889529653116
 20
179.1580616772391
 30
0.0
 10
734.0295764988177
 20
179.0597770450226
 30
0.0
 10
733.7584243159656
 20
178.970076653896
 30
0.0
 10
733.4776157495523
 20
178.8916682346162
 30
0.0
  0
SPLINE
  5
151E4
330
1F
100
AcDbEntity
  8
AM_VIS
100
AcDbSpline
210
0.0
220
0.0
230
1.0
 70
     8
 71
     3
 72
     8
 73
     4
 74
     0
 42
0.0000000001
 43
0.0000000001
 40
7.8606508081159
 40
7.8606508081159
 40
7.8606508081159
 40
7.8606508081159
 40
8.796495530230886
 40
8.796495530230886
 40
8.796495530230886
 40
8.796495530230886
 10
728.3678212331358
 20
178.8916682346162
 30
0.0
 10
728.0870128705528
 20
178.9700765969818
 30
0.0
 10
727.8158606501388
 20
179.0597769820192
 30
0.0
 10
727.5564840173765
 20
179.1580616772391
 30
0.0
  0
SPLINE
  5
151E5
330
1F
100
AcDbEntity
  8
AM_VIS
100
AcDbSpline
210
0.0
220
0.0
230
1.0
 70
     8
 71
     3
 72
     8
 73
     4
 74
     0
 42
0.0000000001
 43
0.0000000001
 40
1.630155802117218
 40
1.630155802117218
 40
1.630155802117218
 40
1.630155802117218
 40
2.566002660597602
 40
2.566002660597602
 40
2.566002660597602
 40
2.566002660597602
 10
724.4509997949871
 20
177.3651095254784
 30
0.0
 10
724.4064284617625
 20
177.0913400580108
 30
0.0
 10
724.3485351653442
 20
176.8116652947962
 30
0.0
 10
724.2760346758204
 20
176.5292741642837
 30
0.0
  0
SPLINE
  5
151E6
330
1F
100
AcDbEntity
  8
AM_VIS
100
AcDbSpline
210
0.0
220
0.0
230
1.0
 70
     8
 71
     3
 72
     8
 73
     4
 74
     0
 42
0.0000000001
 43
0.0000000001
 40
7.860869800051694
 40
7.860869800051694
 40
7.860869800051694
 40
7.860869800051694
 40
8.796716658530822
 40
8.796716658530822
 40
8.796716658530822
 40
8.796716658530822
 10
721.7211374176123
 20
172.1040623049486
 30
0.0
 10
721.5128299204232
 20
171.900079621722
 30
0.0
 10
721.2995711053889
 20
171.7101051391908
 30
0.0
 10
721.0847653210196
 20
171.5346203863768
 30
0.0
  0
SPLINE
  5
151E7
330
1F
100
AcDbEntity
  8
AM_VIS
100
AcDbSpline
210
0.0
220
0.0
230
1.0
 70
     8
 71
     3
 72
     8
 73
     4
 74
     0
 42
0.0000000001
 43
0.0000000001
 40
1.630155803927002
 40
1.630155803927002
 40
1.630155803927002
 40
1.630155803927002
 40
2.566002662426968
 40
2.566002662426968
 40
2.566002662426968
 40
2.566002662426968
 10
740.7606716616685
 20
171.5346203863769
 30
0.0
 10
740.5458660146694
 20
171.7101050269669
 30
0.0
 10
740.3326072131383
 20
171.900079473981
 30
0.0
 10
740.1242995650758
 20
172.1040623049487
 30
0.0
  0
SPLINE
  5
151E8
330
1F
100
AcDbEntity
  8
AM_VIS
100
AcDbSpline
210
0.0
220
0.0
230
1.0
 70
     8
 71
     3
 72
     8
 73
     4
 74
     0
 42
0.0000000001
 43
0.0000000001
 40
7.860869802063071
 40
7.860869802063071
 40
7.860869802063071
 40
7.860869802063071
 40
8.796716660561775
 40
8.796716660561775
 40
8.796716660561775
 40
8.796716660561775
 10
737.5694023068675
 20
176.5292741642839
 30
0.0
 10
737.4969018698566
 20
176.8116650902577
 30
0.0
 10
737.4390085494308
 20
177.0913398829229
 30
0.0
 10
737.3944371877009
 20
177.3651095254786
 30
0.0
  0
SPLINE
  5
151E9
330
1F
100
AcDbEntity
  8
AM_VIS
100
AcDbSpline
210
0.0
220
0.0
230
1.0
 70
     8
 71
     3
 72
     8
 73
     4
 74
     0
 42
0.0000000001
 43
0.0000000001
 40
1.630155803927018
 40
1.630155803927018
 40
1.630155803927018
 40
1.630155803927018
 40
2.566002662426991
 40
2.566002662426991
 40
2.566002662426991
 40
2.566002662426991
 10
721.0847653210196
 20
167.9487160828555
 30
0.0
 10
721.2995709680187
 20
167.7732314422655
 30
0.0
 10
721.5128297695498
 20
167.5832569952514
 30
0.0
 10
721.7211374176123
 20
167.3792741642837
 30
0.0
  0
SPLINE
  5
151EA
330
1F
100
AcDbEntity
  8
AM_VIS
100
AcDbSpline
210
0.0
220
0.0
230
1.0
 70
     8
 71
     3
 72
     8
 73
     4
 74
     0
 42
0.0000000001
 43
0.0000000001
 40
7.860869802063005
 40
7.860869802063005
 40
7.860869802063005
 40
7.860869802063005
 40
8.796716660561699
 40
8.796716660561699
 40
8.796716660561699
 40
8.796716660561699
 10
724.2760346758205
 20
162.9540623049486
 30
0.0
 10
724.3485351128315
 20
162.6716713789747
 30
0.0
 10
724.4064284332573
 20
162.3919965863095
 30
0.0
 10
724.4509997949871
 20
162.1182269437538
 30
0.0
  0
SPLINE
  5
151EB
330
1F
100
AcDbEntity
  8
AM_VIS
100
AcDbSpline
210
0.0
220
0.0
230
1.0
 70
     8
 71
     3
 72
     8
 73
     4
 74
     0
 42
0.0000000001
 43
0.0000000001
 40
1.630155803927018
 40
1.630155803927018
 40
1.630155803927018
 40
1.630155803927018
 40
2.566002662426996
 40
2.566002662426996
 40
2.566002662426996
 40
2.566002662426996
 10
737.3944371877009
 20
162.1182269437539
 30
0.0
 10
737.4390085209263
 20
162.3919964112265
 30
0.0
 10
737.4969018173449
 20
162.6716711744401
 30
0.0
 10
737.5694023068676
 20
162.9540623049487
 30
0.0
  0
SPLINE
  5
151EC
330
1F
100
AcDbEntity
  8
AM_VIS
100
AcDbSpline
210
0.0
220
0.0
230
1.0
 70
     8
 71
     3
 72
     8
 73
     4
 74
     0
 42
0.0000000001
 43
0.0000000001
 40
7.860869802063004
 40
7.860869802063004
 40
7.860869802063004
 40
7.860869802063004
 40
8.796716660561713
 40
8.796716660561713
 40
8.796716660561713
 40
8.796716660561713
 10
740.1242995650758
 20
167.3792741642838
 30
0.0
 10
740.332607062262
 20
167.5832568475076
 30
0.0
 10
740.5458658772952
 20
167.7732313300384
 30
0.0
 10
740.7606716616685
 20
167.9487160828556
 30
0.0
  0
SPLINE
  5
151ED
330
1F
100
AcDbEntity
  8
AM_VIS
100
AcDbSpline
210
0.0
220
0.0
230
1.0
 70
     8
 71
     3
 72
     8
 73
     4
 74
     0
 42
0.0000000001
 43
0.0000000001
 40
1.63015580392704
 40
1.63015580392704
 40
1.63015580392704
 40
1.63015580392704
 40
2.566002662427006
 40
2.566002662427006
 40
2.566002662427006
 40
2.566002662427006
 10
727.5564840173765
 20
160.3252747919932
 30
0.0
 10
727.815860997601
 20
160.4235596188758
 30
0.0
 10
728.0870130955507
 20
160.5132599350753
 30
0.0
 10
728.3678212331358
 20
160.5916682346162
 30
0.0
  0
SPLINE
  5
151EE
330
1F
100
AcDbEntity
  8
AM_VIS
100
AcDbSpline
210
0.0
220
0.0
230
1.0
 70
     8
 71
     3
 72
     8
 73
     4
 74
     0
 42
0.0000000001
 43
0.0000000001
 40
7.860869802062977
 40
7.860869802062977
 40
7.860869802062977
 40
7.860869802062977
 40
8.796716660561656
 40
8.796716660561656
 40
8.796716660561656
 40
8.796716660561656
 10
733.4776157495523
 20
160.5916682346162
 30
0.0
 10
733.7584236837493
 20
160.5132599918661
 30
0.0
 10
734.0295758192085
 20
160.4235596817317
 30
0.0
 10
734.2889529653116
 20
160.3252747919932
 30
0.0
  0
CIRCLE
  5
151EF
330
1F
100
AcDbEntity
  8
AM_VIS
100
AcDbCircle
 10
691.9227184913441
 20
169.7416682346162
 30
0.0
 40
5.25
  0
LINE
  5
151F0
330
1F
100
AcDbEntity
  8
AM_VIS
100
AcDbLine
 10
682.6851141843101
 20
169.7416682346162
 30
0.0
 11
684.1195152610686
 21
167.2572126912388
 31
0.0
  0
LINE
  5
151F1
330
1F
100
AcDbEntity
  8
AM_VIS
100
AcDbLine
 10
684.1195152610684
 20
172.2261237779934
 30
0.0
 11
682.68511418431
 21
169.7416682346162
 31
0.0
  0
LINE
  5
151F2
330
1F
100
AcDbEntity
  8
AM_VIS
100
AcDbLine
 10
684.8025279629608
 20
172.4091364798856
 30
0.0
 11
684.1195152610684
 21
172.2261237779934
 31
0.0
  0
LINE
  5
151F3
330
1F
100
AcDbEntity
  8
AM_VIS
100
AcDbLine
 10
686.0525279629607
 20
174.5741999893467
 30
0.0
 11
684.8025279629608
 21
172.4091364798856
 31
0.0
  0
LINE
  5
151F4
330
1F
100
AcDbEntity
  8
AM_VIS
100
AcDbLine
 10
685.8695152610684
 20
175.2572126912389
 30
0.0
 11
686.0525279629607
 21
174.5741999893467
 31
0.0
  0
LINE
  5
151F5
330
1F
100
AcDbEntity
  8
AM_VIS
100
AcDbLine
 10
687.3039163378271
 20
177.7416682346162
 30
0.0
 11
685.8695152610684
 21
175.2572126912389
 31
0.0
  0
LINE
  5
151F6
330
1F
100
AcDbEntity
  8
AM_VIS
100
AcDbLine
 10
690.172718491344
 20
177.7416682346162
 30
0.0
 11
687.3039163378271
 21
177.7416682346162
 31
0.0
  0
LINE
  5
151F7
330
1F
100
AcDbEntity
  8
AM_VIS
100
AcDbLine
 10
690.672718491344
 20
177.2416682346162
 30
0.0
 11
690.172718491344
 21
177.7416682346162
 31
0.0
  0
LINE
  5
151F8
330
1F
100
AcDbEntity
  8
AM_VIS
100
AcDbLine
 10
693.1727184913439
 20
177.2416682346162
 30
0.0
 11
690.672718491344
 21
177.2416682346162
 31
0.0
  0
LINE
  5
151F9
330
1F
100
AcDbEntity
  8
AM_VIS
100
AcDbLine
 10
693.6727184913439
 20
177.7416682346162
 30
0.0
 11
693.1727184913439
 21
177.2416682346162
 31
0.0
  0
LINE
  5
151FA
330
1F
100
AcDbEntity
  8
AM_VIS
100
AcDbLine
 10
696.5415206448612
 20
177.7416682346162
 30
0.0
 11
693.6727184913439
 21
177.7416682346162
 31
0.0
  0
LINE
  5
151FB
330
1F
100
AcDbEntity
  8
AM_VIS
100
AcDbLine
 10
697.9759217216195
 20
175.257212691239
 30
0.0
 11
696.5415206448611
 21
177.7416682346162
 31
0.0
  0
LINE
  5
151FC
330
1F
100
AcDbEntity
  8
AM_VIS
100
AcDbLine
 10
697.7929090197273
 20
174.5741999893468
 30
0.0
 11
697.9759217216194
 21
175.257212691239
 31
0.0
  0
LINE
  5
151FD
330
1F
100
AcDbEntity
  8
AM_VIS
100
AcDbLine
 10
699.0429090197273
 20
172.4091364798857
 30
0.0
 11
697.7929090197273
 21
174.5741999893468
 31
0.0
  0
LINE
  5
151FE
330
1F
100
AcDbEntity
  8
AM_VIS
100
AcDbLine
 10
699.7259217216195
 20
172.2261237779935
 30
0.0
 11
699.0429090197274
 21
172.4091364798857
 31
0.0
  0
LINE
  5
151FF
330
1F
100
AcDbEntity
  8
AM_VIS
100
AcDbLine
 10
701.160322798378
 20
169.7416682346162
 30
0.0
 11
699.7259217216195
 21
172.2261237779935
 31
0.0
  0
LINE
  5
15200
330
1F
100
AcDbEntity
  8
AM_VIS
100
AcDbLine
 10
699.7259217216196
 20
167.257212691239
 30
0.0
 11
701.1603227983782
 21
169.7416682346162
 31
0.0
  0
LINE
  5
15201
330
1F
100
AcDbEntity
  8
AM_VIS
100
AcDbLine
 10
699.0429090197274
 20
167.0741999893468
 30
0.0
 11
699.7259217216196
 21
167.257212691239
 31
0.0
  0
LINE
  5
15202
330
1F
100
AcDbEntity
  8
AM_VIS
100
AcDbLine
 10
697.7929090197274
 20
164.9091364798857
 30
0.0
 11
699.0429090197274
 21
167.0741999893468
 31
0.0
  0
LINE
  5
15203
330
1F
100
AcDbEntity
  8
AM_VIS
100
AcDbLine
 10
697.9759217216196
 20
164.2261237779935
 30
0.0
 11
697.7929090197274
 21
164.9091364798857
 31
0.0
  0
LINE
  5
15204
330
1F
100
AcDbEntity
  8
AM_VIS
100
AcDbLine
 10
696.5415206448611
 20
161.7416682346162
 30
0.0
 11
697.9759217216196
 21
164.2261237779935
 31
0.0
  0
LINE
  5
15205
330
1F
100
AcDbEntity
  8
AM_VIS
100
AcDbLine
 10
693.6727184913441
 20
161.7416682346162
 30
0.0
 11
696.5415206448611
 21
161.7416682346162
 31
0.0
  0
LINE
  5
15206
330
1F
100
AcDbEntity
  8
AM_VIS
100
AcDbLine
 10
693.1727184913441
 20
162.2416682346162
 30
0.0
 11
693.6727184913441
 21
161.7416682346162
 31
0.0
  0
LINE
  5
15207
330
1F
100
AcDbEntity
  8
AM_VIS
100
AcDbLine
 10
690.6727184913441
 20
162.2416682346162
 30
0.0
 11
693.1727184913441
 21
162.2416682346162
 31
0.0
  0
LINE
  5
15208
330
1F
100
AcDbEntity
  8
AM_VIS
100
AcDbLine
 10
690.1727184913441
 20
161.7416682346162
 30
0.0
 11
690.6727184913441
 21
162.2416682346162
 31
0.0
  0
LINE
  5
15209
330
1F
100
AcDbEntity
  8
AM_VIS
100
AcDbLine
 10
687.3039163378271
 20
161.7416682346162
 30
0.0
 11
690.1727184913441
 21
161.7416682346162
 31
0.0
  0
LINE
  5
1520A
330
1F
100
AcDbEntity
  8
AM_VIS
100
AcDbLine
 10
685.8695152610685
 20
164.2261237779933
 30
0.0
 11
687.3039163378271
 21
161.7416682346162
 31
0.0
  0
LINE
  5
1520B
330
1F
100
AcDbEntity
  8
AM_VIS
100
AcDbLine
 10
686.0525279629609
 20
164.9091364798856
 30
0.0
 11
685.8695152610687
 21
164.2261237779933
 31
0.0
  0
LINE
  5
1520C
330
1F
100
AcDbEntity
  8
AM_VIS
100
AcDbLine
 10
684.1195152610687
 20
167.2572126912388
 30
0.0
 11
684.8025279629609
 21
167.0741999893466
 31
0.0
  0
LINE
  5
1520D
330
1F
100
AcDbEntity
  8
AM_VIS
100
AcDbLine
 10
684.8025279629609
 20
167.0741999893466
 30
0.0
 11
686.0525279629609
 21
164.9091364798856
 31
0.0
  0
ARC
  5
1520E
330
1F
100
AcDbEntity
  8
AM_VIS
100
AcDbCircle
 10
691.9227184913441
 20
169.7416682346162
 30
0.0
 40
9.0
100
AcDbArc
 50
90.0
 51
117.2660444507321
  0
ARC
  5
1520F
330
1F
100
AcDbEntity
  8
AM_VIS
100
AcDbCircle
 10
691.9227184913441
 20
169.7416682346162
 30
0.0
 40
9.0
100
AcDbArc
 50
122.7339555492701
 51
177.2660444507325
  0
ARC
  5
15210
330
1F
100
AcDbEntity
  8
AM_VIS
100
AcDbCircle
 10
691.9227184913441
 20
169.7416682346162
 30
0.0
 40
9.0
100
AcDbArc
 50
182.7339555492674
 51
237.2660444507298
  0
ARC
  5
15211
330
1F
100
AcDbEntity
  8
AM_VIS
100
AcDbCircle
 10
691.9227184913441
 20
169.7416682346162
 30
0.0
 40
9.0
100
AcDbArc
 50
242.7339555492678
 51
297.266044450732
  0
ARC
  5
15212
330
1F
100
AcDbEntity
  8
AM_VIS
100
AcDbCircle
 10
691.9227184913441
 20
169.7416682346162
 30
0.0
 40
9.0
100
AcDbArc
 50
302.7339555492702
 51
357.2660444507326
  0
ARC
  5
15213
330
1F
100
AcDbEntity
  8
AM_VIS
100
AcDbCircle
 10
691.9227184913441
 20
169.7416682346162
 30
0.0
 40
9.0
100
AcDbArc
 50
2.733955549267409
 51
57.26604445072992
  0
ARC
  5
15214
330
1F
100
AcDbEntity
  8
AM_VIS
100
AcDbCircle
 10
691.9227184913441
 20
169.7416682346162
 30
0.0
 40
9.0
100
AcDbArc
 50
62.73395554926792
 51
90.0
  0
ARC
  5
15215
330
1F
100
AcDbEntity
  8
AM_VIS
100
AcDbCircle
 10
688.4227184913441
 20
176.7416682346162
 30
0.0
 40
3.5
100
AcDbArc
 50
90.0
 51
180.0
  0
ARC
  5
15216
330
1F
100
AcDbEntity
  8
AM_VIS
100
AcDbCircle
 10
688.4227184913441
 20
162.7416682346162
 30
0.0
 40
3.5
100
AcDbArc
 50
180.0
 51
270.0
  0
CIRCLE
  5
15217
330
1F
100
AcDbEntity
  8
AM_VIS
100
AcDbCircle
 10
691.9227184913441
 20
169.7416682346162
 30
0.0
 40
5.0
  0
LINE
  5
15218
330
1F
100
AcDbEntity
  8
AM_VIS
100
AcDbLine
 10
688.4227184913441
 20
159.2416682346162
 30
0.0
 11
713.4227184913441
 21
159.2416682346162
 31
0.0
  0
LINE
  5
15219
330
1F
100
AcDbEntity
  8
AM_VIS
100
AcDbLine
 10
713.4227184913441
 20
162.7416682346162
 30
0.0
 11
713.4227184913441
 21
176.7416682346162
 31
0.0
  0
LINE
  5
1521A
330
1F
100
AcDbEntity
  8
AM_VIS
100
AcDbLine
 10
684.922718491344
 20
164.0848139851239
 30
0.0
 11
684.922718491344
 21
162.7416682346162
 31
0.0
  0
LINE
  5
1521B
330
1F
100
AcDbEntity
  8
AM_VIS
100
AcDbLine
 10
684.922718491344
 20
176.7416682346162
 30
0.0
 11
684.922718491344
 21
175.3985224841086
 31
0.0
  0
LINE
  5
1521C
330
1F
100
AcDbEntity
  8
AM_VIS
100
AcDbLine
 10
713.4227184913441
 20
180.2416682346162
 30
0.0
 11
688.4227184913441
 21
180.2416682346162
 31
0.0
  0
ARC
  5
1521D
330
1F
100
AcDbEntity
  8
AM_VIS
100
AcDbCircle
 10
737.9227184913441
 20
162.7416682346162
 30
0.0
 40
3.999999999999999
100
AcDbArc
 50
270.0
 51
0.0
  0
ARC
  5
1521E
330
1F
100
AcDbEntity
  8
AM_VIS
100
AcDbCircle
 10
737.9227184913441
 20
176.7416682346162
 30
0.0
 40
3.999999999999999
100
AcDbArc
 50
0.0
 51
90.0
  0
LINE
  5
1521F
330
1F
100
AcDbEntity
  8
AM_VIS
100
AcDbLine
 10
737.9227184913441
 20
158.7416682346162
 30
0.0
 11
713.4227184913441
 21
158.7416682346162
 31
0.0
  0
LINE
  5
15220
330
1F
100
AcDbEntity
  8
AM_VIS
100
AcDbLine
 10
713.4227184913441
 20
158.7416682346162
 30
0.0
 11
713.4227184913441
 21
180.7416682346162
 31
0.0
  0
LINE
  5
15221
330
1F
100
AcDbEntity
  8
AM_VIS
100
AcDbLine
 10
713.4227184913441
 20
180.7416682346162
 30
0.0
 11
737.9227184913441
 21
180.7416682346162
 31
0.0
  0
LINE
  5
15222
330
1F
100
AcDbEntity
  8
AM_VIS
100
AcDbLine
 10
741.9227184913441
 20
176.7416682346162
 30
0.0
 11
741.9227184913441
 21
162.7416682346162
 31
0.0
  0
ARC
  5
15223
330
1F
100
AcDbEntity
  8
AM_VIS
100
AcDbCircle
 10
741.6227184913441
 20
159.0416682346162
 30
0.0
 40
0.2999999999999999
100
AcDbArc
 50
270.0
 51
0.0
  0
LINE
  5
15224
330
1F
100
AcDbEntity
  8
AM_VIS
100
AcDbLine
 10
741.9227184913441
 20
162.7416682346162
 30
0.0
 11
741.9227184913441
 21
159.0416682346162
 31
0.0
  0
LINE
  5
15225
330
1F
100
AcDbEntity
  8
AM_VIS
100
AcDbLine
 10
741.6227184913441
 20
158.7416682346162
 30
0.0
 11
737.9227184913441
 21
158.7416682346162
 31
0.0
  0
ARC
  5
15226
330
1F
100
AcDbEntity
  8
AM_VIS
100
AcDbCircle
 10
739.422718491344
 20
178.2416682346162
 30
0.0
 40
2.499999999999999
100
AcDbArc
 50
0.0
 51
90.0
  0
LINE
  5
15227
330
1F
100
AcDbEntity
  8
AM_VIS
100
AcDbLine
 10
737.9227184913441
 20
180.7416682346162
 30
0.0
 11
739.422718491344
 21
180.7416682346162
 31
0.0
  0
LINE
  5
15228
330
1F
100
AcDbEntity
  8
AM_VIS
100
AcDbLine
 10
741.9227184913441
 20
178.2416682346162
 30
0.0
 11
741.9227184913441
 21
176.7416682346162
 31
0.0
  0
CIRCLE
  5
15229
330
1F
100
AcDbEntity
  8
AM_VIS
100
AcDbCircle
 10
773.422718491344
 20
16.53373109091489
 30
0.0
 40
1.399999999999999
  0
LINE
  5
1522A
330
1F
100
AcDbEntity
  8
AM_VIS
100
AcDbLine
 10
802.9227184913441
 20
29.5337310909149
 30
0.0
 11
743.922718491344
 21
29.5337310909149
 31
0.0
  0
LINE
  5
1522B
330
1F
100
AcDbEntity
  8
AM_VIS
100
AcDbLine
 10
802.9227184913441
 20
3.533731090914898
 30
0.0
 11
743.922718491344
 21
3.533731090914898
 31
0.0
  0
LINE
  5
1522C
330
1F
100
AcDbEntity
  8
AM_VIS
100
AcDbLine
 10
802.9227184913441
 20
29.5337310909149
 30
0.0
 11
802.9227184913441
 21
3.533731090914898
 31
0.0
  0
LINE
  5
1522D
330
1F
100
AcDbEntity
  8
AM_VIS
100
AcDbLine
 10
743.922718491344
 20
29.5337310909149
 30
0.0
 11
743.922718491344
 21
3.533731090914898
 31
0.0
  0
CIRCLE
  5
1522E
330
1F
100
AcDbEntity
  8
AM_VIS
100
AcDbCircle
 10
815.922718491344
 20
16.53373109091489
 30
0.0
 40
1.399999999999999
  0
LINE
  5
1522F
330
1F
100
AcDbEntity
  8
AM_VIS
100
AcDbLine
 10
826.9227184913441
 20
28.5337310909149
 30
0.0
 11
826.9227184913441
 21
4.533731090914898
 31
0.0
  0
LINE
  5
15230
330
1F
100
AcDbEntity
  8
AM_VIS
100
AcDbLine
 10
826.9227184913441
 20
28.5337310909149
 30
0.0
 11
826.9227184913441
 21
29.5337310909149
 31
0.0
  0
LINE
  5
15233
330
1F
100
AcDbEntity
  8
AM_VIS
100
AcDbLine
 10
826.9227184913441
 20
3.533731090914898
 30
0.0
 11
826.9227184913441
 21
4.533731090914898
 31
0.0
  0
LINE
  5
15234
330
1F
100
AcDbEntity
  8
AM_VIS
100
AcDbLine
 10
802.9227184913441
 20
3.533731090914898
 30
0.0
 11
826.9227184913441
 21
3.533731090914898
 31
0.0
  0
LINE
  5
15235
330
1F
100
AcDbEntity
  8
AM_VIS
100
AcDbLine
 10
802.9227184913441
 20
28.5337310909149
 30
0.0
 11
802.9227184913441
 21
4.533731090914898
 31
0.0
  0
LINE
  5
15236
330
1F
100
AcDbEntity
  8
AM_VIS
100
AcDbLine
 10
826.9227184913441
 20
29.5337310909149
 30
0.0
 11
802.9227184913441
 21
29.5337310909149
 31
0.0
  0
LINE
  5
15237
330
1F
100
AcDbEntity
  8
AM_VIS
100
AcDbLine
 10
774.4227184913441
 20
15.55393519380163
 30
0.0
 11
774.4227184913441
 21
17.51352698802816
 31
0.0
  0
LINE
  5
15238
330
1F
100
AcDbEntity
  8
AM_VIS
100
AcDbLine
 10
774.3227184913441
 20
17.60611162039128
 30
0.0
 11
774.3227184913441
 21
15.46135056143853
 31
0.0
  0
LINE
  5
15239
330
1F
100
AcDbEntity
  8
AM_VIS
100
AcDbLine
 10
773.222718491344
 20
17.9193717369701
 30
0.0
 11
773.222718491344
 21
15.1480904448598
 31
0.0
  0
ARC
  5
1523A
330
1F
100
AcDbEntity
  8
AM_VIS
100
AcDbCircle
 10
808.922718491344
 20
81.63373109091493
 30
0.0
 40
0.75
100
AcDbArc
 50
270.0
 51
318.1896851042179
  0
ARC
  5
1523B
330
1F
100
AcDbEntity
  8
AM_VIS
100
AcDbCircle
 10
808.922718491344
 20
81.63373109091493
 30
0.0
 40
0.75
100
AcDbArc
 50
41.81031489577443
 51
90.0
  0
ARC
  5
1523C
330
1F
100
AcDbEntity
  8
AM_VIS
100
AcDbCircle
 10
822.922718491344
 20
81.63373109091493
 30
0.0
 40
0.75
100
AcDbArc
 50
90.0
 51
138.1896851042179
  0
ARC
  5
1523D
330
1F
100
AcDbEntity
  8
AM_VIS
100
AcDbCircle
 10
822.922718491344
 20
81.63373109091493
 30
0.0
 40
0.75
100
AcDbArc
 50
221.810314895782
 51
270.0
  0
LINE
  5
1523E
330
1F
100
AcDbEntity
  8
AM_VIS
100
AcDbLine
 10
825.922718491344
 20
83.5337310909149
 30
0.0
 11
825.7606716616685
 21
83.5337310909149
 31
0.0
  0
LINE
  5
1523F
330
1F
100
AcDbEntity
  8
AM_VIS
100
AcDbLine
 10
806.0847653210196
 20
83.5337310909149
 30
0.0
 11
805.922718491344
 21
83.5337310909149
 31
0.0
  0
LINE
  5
15240
330
1F
100
AcDbEntity
  8
AM_VIS
100
AcDbLine
 10
822.394437187701
 20
83.5337310909149
 30
0.0
 11
819.2889529653117
 21
83.5337310909149
 31
0.0
  0
LINE
  5
15241
330
1F
100
AcDbEntity
  8
AM_VIS
100
AcDbLine
 10
812.5564840173765
 20
83.5337310909149
 30
0.0
 11
809.4509997949872
 21
83.5337310909149
 31
0.0
  0
LINE
  5
15242
330
1F
100
AcDbEntity
  8
AM_VIS
100
AcDbLine
 10
806.0847653210196
 20
82.38373109091492
 30
0.0
 11
805.922718491344
 21
82.38373109091492
 31
0.0
  0
LINE
  5
15243
330
1F
100
AcDbEntity
  8
AM_VIS
100
AcDbLine
 10
806.0847653210196
 20
82.38373109091492
 30
0.0
 11
809.4509997949872
 21
82.38373109091487
 31
0.0
  0
LINE
  5
15244
330
1F
100
AcDbEntity
  8
AM_VIS
100
AcDbLine
 10
812.5564840173765
 20
82.38373109091492
 30
0.0
 11
809.4509997949872
 21
82.38373109091492
 31
0.0
  0
LINE
  5
15245
330
1F
100
AcDbEntity
  8
AM_VIS
100
AcDbLine
 10
812.5564840173765
 20
82.38373109091492
 30
0.0
 11
819.2889529653117
 21
82.38373109091492
 31
0.0
  0
LINE
  5
15246
330
1F
100
AcDbEntity
  8
AM_VIS
100
AcDbLine
 10
822.394437187701
 20
82.38373109091492
 30
0.0
 11
819.2889529653117
 21
82.38373109091492
 31
0.0
  0
LINE
  5
15247
330
1F
100
AcDbEntity
  8
AM_VIS
100
AcDbLine
 10
822.394437187701
 20
82.38373109091492
 30
0.0
 11
825.7606716616685
 21
82.38373109091487
 31
0.0
  0
LINE
  5
15248
330
1F
100
AcDbEntity
  8
AM_VIS
100
AcDbLine
 10
825.922718491344
 20
82.38373109091492
 30
0.0
 11
825.7606716616685
 21
82.38373109091492
 31
0.0
  0
LINE
  5
15249
330
1F
100
AcDbEntity
  8
AM_VIS
100
AcDbLine
 10
825.7606716616685
 20
80.88373109091492
 30
0.0
 11
822.394437187701
 21
80.88373109091492
 31
0.0
  0
LINE
  5
1524A
330
1F
100
AcDbEntity
  8
AM_VIS
100
AcDbLine
 10
825.7606716616685
 20
80.88373109091492
 30
0.0
 11
825.922718491344
 21
80.88373109091492
 31
0.0
  0
LINE
  5
1524B
330
1F
100
AcDbEntity
  8
AM_VIS
100
AcDbLine
 10
819.2889529653117
 20
80.88373109091492
 30
0.0
 11
822.394437187701
 21
80.88373109091492
 31
0.0
  0
LINE
  5
1524C
330
1F
100
AcDbEntity
  8
AM_VIS
100
AcDbLine
 10
809.4509997949872
 20
80.88373109091492
 30
0.0
 11
812.5564840173765
 21
80.88373109091492
 31
0.0
  0
LINE
  5
1524D
330
1F
100
AcDbEntity
  8
AM_VIS
100
AcDbLine
 10
805.922718491344
 20
80.88373109091492
 30
0.0
 11
806.0847653210196
 21
80.88373109091492
 31
0.0
  0
LINE
  5
1524E
330
1F
100
AcDbEntity
  8
AM_VIS
100
AcDbLine
 10
819.2889529653117
 20
80.88373109091492
 30
0.0
 11
812.5564840173762
 21
80.88373109091492
 31
0.0
  0
LINE
  5
1524F
330
1F
100
AcDbEntity
  8
AM_VIS
100
AcDbLine
 10
809.4509997949872
 20
80.88373109091492
 30
0.0
 11
806.0847653210196
 21
80.88373109091492
 31
0.0
  0
LINE
  5
15250
330
1F
100
AcDbEntity
  8
AM_VIS
100
AcDbLine
 10
806.0847653210196
 20
78.0337310909149
 30
0.0
 11
805.922718491344
 21
78.0337310909149
 31
0.0
  0
LINE
  5
15251
330
1F
100
AcDbEntity
  8
AM_VIS
100
AcDbLine
 10
812.5564840173765
 20
78.0337310909149
 30
0.0
 11
809.4509997949872
 21
78.0337310909149
 31
0.0
  0
LINE
  5
15252
330
1F
100
AcDbEntity
  8
AM_VIS
100
AcDbLine
 10
822.394437187701
 20
78.0337310909149
 30
0.0
 11
819.2889529653117
 21
78.0337310909149
 31
0.0
  0
LINE
  5
15253
330
1F
100
AcDbEntity
  8
AM_VIS
100
AcDbLine
 10
825.922718491344
 20
78.0337310909149
 30
0.0
 11
825.7606716616685
 21
78.0337310909149
 31
0.0
  0
LINE
  5
15254
330
1F
100
AcDbEntity
  8
AM_VIS
100
AcDbLine
 10
823.4227184913441
 20
77.83373109091491
 30
0.0
 11
808.4227184913441
 21
77.83373109091491
 31
0.0
  0
LINE
  5
15255
330
1F
100
AcDbEntity
  8
AM_VIS
100
AcDbLine
 10
823.4227184913441
 20
77.0337310909149
 30
0.0
 11
808.4227184913441
 21
77.0337310909149
 31
0.0
  0
LINE
  5
15256
330
1F
100
AcDbEntity
  8
AM_VIS
100
AcDbLine
 10
805.922718491344
 20
76.53373109091489
 30
0.0
 11
825.922718491344
 21
76.53373109091489
 31
0.0
  0
LINE
  5
15257
330
1F
100
AcDbEntity
  8
AM_VIS
100
AcDbLine
 10
806.4227184913441
 20
84.03373109091489
 30
0.0
 11
806.7211374176121
 21
84.03373109091489
 31
0.0
  0
LINE
  5
15258
330
1F
100
AcDbEntity
  8
AM_VIS
100
AcDbLine
 10
825.1242995650757
 20
84.03373109091489
 30
0.0
 11
825.4227184913441
 21
84.03373109091489
 31
0.0
  0
LINE
  5
15259
330
1F
100
AcDbEntity
  8
AM_VIS
100
AcDbLine
 10
822.5694023068676
 20
84.03373109091489
 30
0.0
 11
825.1242995650757
 21
84.03373109091489
 31
0.0
  0
LINE
  5
1525A
330
1F
100
AcDbEntity
  8
AM_VIS
100
AcDbLine
 10
818.4776157495523
 20
84.03373109091489
 30
0.0
 11
822.5694023068676
 21
84.03373109091489
 31
0.0
  0
LINE
  5
1525B
330
1F
100
AcDbEntity
  8
AM_VIS
100
AcDbLine
 10
813.3678212331357
 20
84.03373109091489
 30
0.0
 11
818.4776157495523
 21
84.03373109091489
 31
0.0
  0
LINE
  5
1525C
330
1F
100
AcDbEntity
  8
AM_VIS
100
AcDbLine
 10
809.2760346758208
 20
84.03373109091489
 30
0.0
 11
813.3678212331357
 21
84.03373109091489
 31
0.0
  0
LINE
  5
1525D
330
1F
100
AcDbEntity
  8
AM_VIS
100
AcDbLine
 10
806.7211374176123
 20
84.03373109091489
 30
0.0
 11
809.2760346758208
 21
84.03373109091489
 31
0.0
  0
LINE
  5
1525E
330
1F
100
AcDbEntity
  8
AM_VIS
100
AcDbLine
 10
825.4227184913441
 20
84.03373109091489
 30
0.0
 11
825.922718491344
 21
83.5337310909149
 31
0.0
  0
LINE
  5
1525F
330
1F
100
AcDbEntity
  8
AM_VIS
100
AcDbLine
 10
806.4227184913441
 20
84.03373109091489
 30
0.0
 11
805.922718491344
 21
83.5337310909149
 31
0.0
  0
LINE
  5
15260
330
1F
100
AcDbEntity
  8
AM_VIS
100
AcDbLine
 10
825.922718491344
 20
82.38373109091487
 30
0.0
 11
825.922718491344
 21
83.5337310909149
 31
0.0
  0
LINE
  5
15261
330
1F
100
AcDbEntity
  8
AM_VIS
100
AcDbLine
 10
805.922718491344
 20
82.38373109091492
 30
0.0
 11
805.922718491344
 21
83.5337310909149
 31
0.0
  0
LINE
  5
15262
330
1F
100
AcDbEntity
  8
AM_VIS
100
AcDbLine
 10
825.922718491344
 20
78.0337310909149
 30
0.0
 11
825.922718491344
 21
80.88373109091486
 31
0.0
  0
LINE
  5
15263
330
1F
100
AcDbEntity
  8
AM_VIS
100
AcDbLine
 10
805.922718491344
 20
78.0337310909149
 30
0.0
 11
805.922718491344
 21
80.88373109091492
 31
0.0
  0
LINE
  5
15264
330
1F
100
AcDbEntity
  8
AM_VIS
100
AcDbLine
 10
823.4227184913441
 20
77.83373109091485
 30
0.0
 11
825.922718491344
 21
78.0337310909149
 31
0.0
  0
LINE
  5
15265
330
1F
100
AcDbEntity
  8
AM_VIS
100
AcDbLine
 10
808.4227184913441
 20
77.83373109091485
 30
0.0
 11
805.922718491344
 21
78.0337310909149
 31
0.0
  0
LINE
  5
15266
330
1F
100
AcDbEntity
  8
AM_VIS
100
AcDbLine
 10
808.4227184913441
 20
77.0337310909149
 30
0.0
 11
805.922718491344
 21
76.53373109091489
 31
0.0
  0
LINE
  5
15267
330
1F
100
AcDbEntity
  8
AM_VIS
100
AcDbLine
 10
823.4227184913441
 20
77.0337310909149
 30
0.0
 11
825.922718491344
 21
76.53373109091489
 31
0.0
  0
LINE
  5
15268
330
1F
100
AcDbEntity
  8
AM_VIS
100
AcDbLine
 10
823.4227184913441
 20
77.0337310909149
 30
0.0
 11
823.4227184913441
 21
77.83373109091491
 31
0.0
  0
LINE
  5
15269
330
1F
100
AcDbEntity
  8
AM_VIS
100
AcDbLine
 10
808.4227184913441
 20
77.0337310909149
 30
0.0
 11
808.4227184913441
 21
77.83373109091491
 31
0.0
  0
LINE
  5
1526A
330
1F
100
AcDbEntity
  8
AM_VIS
100
AcDbLine
 10
825.922718491344
 20
76.0337310909149
 30
0.0
 11
825.922718491344
 21
76.53373109091489
 31
0.0
  0
LINE
  5
1526B
330
1F
100
AcDbEntity
  8
AM_VIS
100
AcDbLine
 10
805.922718491344
 20
76.0337310909149
 30
0.0
 11
805.922718491344
 21
76.53373109091489
 31
0.0
  0
LINE
  5
1526C
330
1F
100
AcDbEntity
  8
AM_VIS
100
AcDbLine
 10
812.5564840173765
 20
82.38373109091492
 30
0.0
 11
812.5564840173765
 21
83.5337310909149
 31
0.0
  0
SPLINE
  5
1526D
330
1F
100
AcDbEntity
  8
AM_VIS
100
AcDbSpline
210
0.0
220
0.0
230
1.0
 70
     8
 71
     3
 72
     8
 73
     4
 74
     0
 42
0.0000000001
 43
0.0000000001
 40
1.629958734905461
 40
1.629958734905461
 40
1.629958734905461
 40
1.629958734905461
 40
2.565803457021723
 40
2.565803457021723
 40
2.565803457021723
 40
2.565803457021723
 10
812.5564840173765
 20
83.5337310909149
 30
0.0
 10
812.8158604838704
 20
83.71359196787105
 30
0.0
 10
813.0870126667225
 20
83.88269171482845
 30
0.0
 10
813.3678212331357
 20
84.03373109091489
 30
0.0
  0
SPLINE
  5
1526E
330
1F
100
AcDbEntity
  8
AM_VIS
100
AcDbSpline
210
0.0
220
0.0
230
1.0
 70
     8
 71
     3
 72
     8
 73
     4
 74
     0
 42
0.0000000001
 43
0.0000000001
 40
7.8606508081159
 40
7.8606508081159
 40
7.8606508081159
 40
7.8606508081159
 40
8.796495530230886
 40
8.796495530230886
 40
8.796495530230886
 40
8.796495530230886
 10
818.4776157495523
 20
84.03373109091489
 30
0.0
 10
818.7584241121353
 20
83.88269182446324
 30
0.0
 10
819.0295763325494
 20
83.71359208316741
 30
0.0
 10
819.2889529653117
 20
83.5337310909149
 30
0.0
  0
LINE
  5
1526F
330
1F
100
AcDbEntity
  8
AM_VIS
100
AcDbLine
 10
819.2889529653117
 20
83.5337310909149
 30
0.0
 11
819.2889529653117
 21
82.38373109091492
 31
0.0
  0
LINE
  5
15270
330
1F
100
AcDbEntity
  8
AM_VIS
100
AcDbLine
 10
822.394437187701
 20
82.38373109091492
 30
0.0
 11
822.394437187701
 21
83.5337310909149
 31
0.0
  0
SPLINE
  5
15271
330
1F
100
AcDbEntity
  8
AM_VIS
100
AcDbSpline
210
0.0
220
0.0
230
1.0
 70
     8
 71
     3
 72
     8
 73
     4
 74
     0
 42
0.0000000001
 43
0.0000000001
 40
1.630155802117218
 40
1.630155802117218
 40
1.630155802117218
 40
1.630155802117218
 40
2.566002660597602
 40
2.566002660597602
 40
2.566002660597602
 40
2.566002660597602
 10
822.394437187701
 20
83.5337310909149
 30
0.0
 10
822.4390085209256
 20
83.71359232410686
 30
0.0
 10
822.4969018173439
 20
83.88269194548142
 30
0.0
 10
822.5694023068676
 20
84.03373109091489
 30
0.0
  0
SPLINE
  5
15272
330
1F
100
AcDbEntity
  8
AM_VIS
100
AcDbSpline
210
0.0
220
0.0
230
1.0
 70
     8
 71
     3
 72
     8
 73
     4
 74
     0
 42
0.0000000001
 43
0.0000000001
 40
7.860869800051694
 40
7.860869800051694
 40
7.860869800051694
 40
7.860869800051694
 40
8.796716658530822
 40
8.796716658530822
 40
8.796716658530822
 40
8.796716658530822
 10
825.1242995650757
 20
84.03373109091489
 30
0.0
 10
825.3326070622648
 20
83.88269205487844
 30
0.0
 10
825.545865877299
 20
83.71359243913303
 30
0.0
 10
825.7606716616685
 20
83.5337310909149
 30
0.0
  0
LINE
  5
15273
330
1F
100
AcDbEntity
  8
AM_VIS
100
AcDbLine
 10
825.7606716616685
 20
83.5337310909149
 30
0.0
 11
825.7606716616685
 21
82.38373109091492
 31
0.0
  0
LINE
  5
15274
330
1F
100
AcDbEntity
  8
AM_VIS
100
AcDbLine
 10
806.0847653210196
 20
82.38373109091492
 30
0.0
 11
806.0847653210196
 21
83.5337310909149
 31
0.0
  0
SPLINE
  5
15275
330
1F
100
AcDbEntity
  8
AM_VIS
100
AcDbSpline
210
0.0
220
0.0
230
1.0
 70
     8
 71
     3
 72
     8
 73
     4
 74
     0
 42
0.0000000001
 43
0.0000000001
 40
1.630155803927002
 40
1.630155803927002
 40
1.630155803927002
 40
1.630155803927002
 40
2.566002662426968
 40
2.566002662426968
 40
2.566002662426968
 40
2.566002662426968
 10
806.0847653210196
 20
83.5337310909149
 30
0.0
 10
806.2995709680187
 20
83.71359232411013
 30
0.0
 10
806.5128297695498
 20
83.88269194548357
 30
0.0
 10
806.7211374176121
 20
84.03373109091489
 30
0.0
  0
SPLINE
  5
15276
330
1F
100
AcDbEntity
  8
AM_VIS
100
AcDbSpline
210
0.0
220
0.0
230
1.0
 70
     8
 71
     3
 72
     8
 73
     4
 74
     0
 42
0.0000000001
 43
0.0000000001
 40
7.860869802063071
 40
7.860869802063071
 40
7.860869802063071
 40
7.860869802063071
 40
8.796716660561775
 40
8.796716660561775
 40
8.796716660561775
 40
8.796716660561775
 10
809.2760346758208
 20
84.03373109091489
 30
0.0
 10
809.3485351128315
 20
83.88269205488057
 30
0.0
 10
809.4064284332572
 20
83.7135924391363
 30
0.0
 10
809.4509997949872
 20
83.5337310909149
 30
0.0
  0
LINE
  5
15277
330
1F
100
AcDbEntity
  8
AM_VIS
100
AcDbLine
 10
809.4509997949872
 20
83.5337310909149
 30
0.0
 11
809.4509997949872
 21
82.38373109091492
 31
0.0
  0
LINE
  5
15278
330
1F
100
AcDbEntity
  8
AM_VIS
100
AcDbLine
 10
825.7606716616685
 20
80.88373109091492
 30
0.0
 11
825.7606716616685
 21
78.0337310909149
 31
0.0
  0
LINE
  5
15279
330
1F
100
AcDbEntity
  8
AM_VIS
100
AcDbLine
 10
822.394437187701
 20
78.0337310909149
 30
0.0
 11
822.394437187701
 21
80.88373109091492
 31
0.0
  0
LINE
  5
1527A
330
1F
100
AcDbEntity
  8
AM_VIS
100
AcDbLine
 10
812.5564840173765
 20
78.0337310909149
 30
0.0
 11
812.5564840173765
 21
80.88373109091492
 31
0.0
  0
LINE
  5
1527B
330
1F
100
AcDbEntity
  8
AM_VIS
100
AcDbLine
 10
819.2889529653117
 20
80.88373109091492
 30
0.0
 11
819.2889529653117
 21
78.0337310909149
 31
0.0
  0
LINE
  5
1527C
330
1F
100
AcDbEntity
  8
AM_VIS
100
AcDbLine
 10
806.0847653210196
 20
78.0337310909149
 30
0.0
 11
806.0847653210196
 21
80.88373109091492
 31
0.0
  0
LINE
  5
1527D
330
1F
100
AcDbEntity
  8
AM_VIS
100
AcDbLine
 10
809.4509997949872
 20
80.88373109091492
 30
0.0
 11
809.4509997949872
 21
78.0337310909149
 31
0.0
  0
SPLINE
  5
1527E
330
1F
100
AcDbEntity
  8
AM_VIS
100
AcDbSpline
210
0.0
220
0.0
230
1.0
 70
     8
 71
     3
 72
    14
 73
    10
 74
     0
 42
0.0000000001
 43
0.0000000001
 40
13.28006742556183
 40
13.28006742556183
 40
13.28006742556183
 40
13.28006742556183
 40
14.274483813056
 40
14.274483813056
 40
16.65382904986486
 40
16.65382904986486
 40
19.03317428667369
 40
19.03317428667369
 40
20.02759067416779
 40
20.02759067416779
 40
20.02759067416779
 40
20.02759067416779
 10
809.4509997949872
 20
78.0337310909149
 30
0.0
 10
809.3960295162075
 20
78.01598511579598
 30
0.0
 10
809.3228673927635
 20
78.00020952209244
 30
0.0
 10
809.0156418680654
 20
77.95500071018199
 30
0.0
 10
808.6982524775091
 20
77.93773109091489
 30
0.0
 10
807.9051373985729
 20
77.93773109091489
 30
0.0
 10
807.4132614484962
 20
77.95500071018199
 30
0.0
 10
806.6024936415665
 20
78.00020952209246
 30
0.0
 10
806.3496873111096
 20
78.01598511579598
 30
0.0
 10
806.0847653210196
 20
78.0337310909149
 30
0.0
  0
ARC
  5
1527F
330
1F
100
AcDbEntity
  8
AM_VIS
100
AcDbCircle
 10
815.922718491344
 20
137.2095359221378
 30
0.0
 40
59.27135386823091
100
AcDbArc
 50
266.7442201741542
 51
273.2557798258457
  0
SPLINE
  5
15280
330
1F
100
AcDbEntity
  8
AM_VIS
100
AcDbSpline
210
0.0
220
0.0
230
1.0
 70
     8
 71
     3
 72
    14
 73
    10
 74
     0
 42
0.0000000001
 43
0.0000000001
 40
13.28006742556176
 40
13.28006742556176
 40
13.28006742556176
 40
13.28006742556176
 40
14.27448381305588
 40
14.27448381305588
 40
16.65382904986474
 40
16.65382904986474
 40
19.03317428667358
 40
19.03317428667358
 40
20.02759067416758
 40
20.02759067416758
 40
20.02759067416758
 40
20.02759067416758
 10
825.7606716616685
 20
78.0337310909149
 30
0.0
 10
825.4957496715785
 20
78.01598511579597
 30
0.0
 10
825.2429433411217
 20
78.00020952209244
 30
0.0
 10
824.4321755341918
 20
77.95500071018199
 30
0.0
 10
823.9402995841151
 20
77.93773109091489
 30
0.0
 10
823.1471845051789
 20
77.93773109091489
 30
0.0
 10
822.8297951146227
 20
77.95500071018199
 30
0.0
 10
822.5225695899249
 20
78.00020952209244
 30
0.0
 10
822.4494074664807
 20
78.01598511579598
 30
0.0
 10
822.394437187701
 20
78.0337310909149
 30
0.0
  0
SPLINE
  5
15281
330
1F
100
AcDbEntity
  8
AM_VIS
100
AcDbSpline
210
0.0
220
0.0
230
1.0
 70
    11
 71
     3
 72
    58
 73
    54
 74
     0
 42
0.0000000001
 43
0.0000000001
 40
-3.310941722041909
 40
-3.310941722041909
 40
-3.310941722041909
 40
-3.310941722041909
 40
-3.295630163526127
 40
-3.295630163526127
 40
-3.258885216857127
 40
-3.258885216857127
 40
-3.197166102530552
 40
-3.197166102530552
 40
-3.038165220187092
 40
-3.038165220187092
 40
-2.856291614874425
 40
-2.856291614874425
 40
-2.666842086900363
 40
-2.666842086900363
 40
-2.492578752010307
 40
-2.492578752010307
 40
-2.312125783734306
 40
-2.312125783734306
 40
-2.134512493780222
 40
-2.134512493780222
 40
-1.991913706755022
 40
-1.991913706755022
 40
-1.842368186772041
 40
-1.842368186772041
 40
-1.791323432474765
 40
-1.791323432474765
 40
-1.757111173267642
 40
-1.757111173267642
 40
-1.723565230360897
 40
-1.723565230360897
 40
-1.676146471110933
 40
-1.676146471110933
 40
-1.559264165848294
 40
-1.559264165848294
 40
-1.304423753582546
 40
-1.304423753582546
 40
-1.102534997057311
 40
-1.102534997057311
 40
-0.9616332280766684
 40
-0.9616332280766684
 40
-0.8335600122348491
 40
-0.8335600122348491
 40
-0.6887403587823754
 40
-0.6887403587823754
 40
-0.4760113448005606
 40
-0.4760113448005606
 40
-0.2570316117940582
 40
-0.2570316117940582
 40
-0.0905362468526998
 40
-0.0905362468526998
 40
-0.0354113089024487
 40
-0.0354113089024487
 40
0.0
 40
0.0
 40
0.0
 40
0.0
 10
822.0453210489784
 20
82.1337310909149
 30
0.0
 10
822.0469058545381
 20
82.1337310909149
 30
0.0
 10
822.0484243673753
 20
82.13366049105022
 30
0.0
 10
822.0533559908203
 20
82.13317422029238
 30
0.0
 10
822.0564297989271
 20
82.13241574219571
 30
0.0
 10
822.0635550197531
 20
82.12922238420338
 30
0.0
 10
822.0668076425999
 20
82.12601917992811
 30
0.0
 10
822.0743399740335
 20
82.11007896942055
 30
0.0
 10
822.0718902704104
 20
82.09073157697451
 30
0.0
 10
822.0578943251409
 20
82.03415696043402
 30
0.0
 10
822.0451168867382
 20
81.99444352432916
 30
0.0
 10
822.0192294398593
 20
81.89603380095929
 30
0.0
 10
822.0066948556537
 20
81.83822066715057
 30
0.0
 10
821.9917395818187
 20
81.7182241932635
 30
0.0
 10
821.9887296049192
 20
81.65824161846616
 30
0.0
 10
821.992543661587
 20
81.53606123745056
 30
0.0
 10
821.9996587289749
 20
81.47602077685215
 30
0.0
 10
822.020100904805
 20
81.36611121006239
 30
0.0
 10
822.0331788844589
 20
81.31698587832017
 30
0.0
 10
822.0545830029955
 20
81.24217621918754
 30
0.0
 10
822.0632965769382
 20
81.21376149924847
 30
0.0
 10
822.0731396962863
 20
81.16777490239186
 30
0.0
 10
822.0736434939825
 20
81.15125560372437
 30
0.0
 10
822.0642081288294
 20
81.13897140539121
 30
0.0
 10
822.0609759035081
 20
81.13675346320302
 30
0.0
 10
822.05417915511
 20
81.13447289590379
 30
0.0
 10
822.0510912676328
 20
81.13394624913786
 30
0.0
 10
822.0442944518644
 20
81.13362648175675
 30
0.0
 10
822.0406091426207
 20
81.13381981502202
 30
0.0
 10
822.0310042668677
 20
81.13507692465915
 30
0.0
 10
822.0248046048295
 20
81.13646550659996
 30
0.0
 10
822.0016639235709
 20
81.14330370208728
 30
0.0
 10
821.9822658767219
 20
81.15172317723915
 30
0.0
 10
821.9164112810803
 20
81.1870765659148
 30
0.0
 10
821.8622384285495
 20
81.22565691091338
 30
0.0
 10
821.7727371563995
 20
81.31579124732793
 30
0.0
 10
821.7344772707035
 20
81.36429542533457
 30
0.0
 10
821.6844970514809
 20
81.46015913107445
 30
0.0
 10
821.6682922183592
 20
81.50341441893592
 30
0.0
 10
821.6508636217767
 20
81.59200180021747
 30
0.0
 10
821.6487775296512
 20
81.63499398588779
 30
0.0
 10
821.6582531231344
 20
81.726699343826
 30
0.0
 10
821.6713239222801
 20
81.77259018572305
 30
0.0
 10
821.7169529864326
 20
81.8770201573017
 30
0.0
 10
821.755198016535
 20
81.93030907097238
 30
0.0
 10
821.8370401690869
 20
82.01896843475855
 30
0.0
 10
821.8826532602159
 20
82.05569006523925
 30
0.0
 10
821.955811075052
 20
82.10290361863997
 30
0.0
 10
821.9861977610612
 20
82.11832519343545
 30
0.0
 10
822.0189909725474
 20
82.12947490556581
 30
0.0
 10
822.0265241251841
 20
82.13147683745333
 30
0.0
 10
822.0376370904471
 20
82.13335369919205
 30
0.0
 10
822.0416558414708
 20
82.1337310909149
 30
0.0
 10
822.0453210489784
 20
82.1337310909149
 30
0.0
  0
CIRCLE
  5
15282
330
1F
100
AcDbEntity
  8
AM_VIS
100
AcDbCircle
 10
817.1727184913441
 20
81.63373109091493
 30
0.0
 40
0.4999999999999966
  0
SPLINE
  5
15283
330
1F
100
AcDbEntity
  8
AM_VIS
100
AcDbSpline
210
0.0
220
0.0
230
1.0
 70
    11
 71
     3
 72
    58
 73
    54
 74
     0
 42
0.0000000001
 43
0.0000000001
 40
-3.363896419206848
 40
-3.363896419206848
 40
-3.363896419206848
 40
-3.363896419206848
 40
-3.330080057161157
 40
-3.330080057161157
 40
-3.276087946130379
 40
-3.276087946130379
 40
-3.130129325352126
 40
-3.130129325352126
 40
-2.864475625688879
 40
-2.864475625688879
 40
-2.670984402665324
 40
-2.670984402665324
 40
-2.529876972570241
 40
-2.529876972570241
 40
-2.394146079242185
 40
-2.394146079242185
 40
-2.234845146626472
 40
-2.234845146626472
 40
-1.995446372912342
 40
-1.995446372912342
 40
-1.792732498438366
 40
-1.792732498438366
 40
-1.655061185971928
 40
-1.655061185971928
 40
-1.604023047287223
 40
-1.604023047287223
 40
-1.569394244699424
 40
-1.569394244699424
 40
-1.535224675006395
 40
-1.535224675006395
 40
-1.486406948944837
 40
-1.486406948944837
 40
-1.367760828093762
 40
-1.367760828093762
 40
-1.211422564665596
 40
-1.211422564665596
 40
-1.00947781377736
 40
-1.00947781377736
 40
-0.8308451466681658
 40
-0.8308451466681658
 40
-0.6546659190334039
 40
-0.6546659190334039
 40
-0.4706948991975911
 40
-0.4706948991975911
 40
-0.3083260207092203
 40
-0.3083260207092203
 40
-0.1833529844650886
 40
-0.1833529844650886
 40
-0.0782943285699142
 40
-0.0782943285699142
 40
-0.0333492537438367
 40
-0.0333492537438367
 40
0.0
 40
0.0
 40
0.0
 40
0.0
 10
809.8001159337096
 20
82.1337310909149
 30
0.0
 10
809.8036160580454
 20
82.1337310909149
 30
0.0
 10
809.8074332407819
 20
82.13338693718133
 30
0.0
 10
809.8181035855626
 20
82.13165423464431
 30
0.0
 10
809.8253748291204
 20
82.12977143034686
 30
0.0
 10
809.854397159879
 20
82.12013411175522
 30
0.0
 10
809.879849764748
 20
82.10780503351095
 30
0.0
 10
809.9551060631448
 20
82.06235268120426
 30
0.0
 10
810.0104190168639
 20
82.01881263399622
 30
0.0
 10
810.0943791081901
 20
81.92398468994438
 30
0.0
 10
810.127534633295
 20
81.87658480919694
 30
0.0
 10
810.1702926001776
 20
81.78294269576616
 30
0.0
 10
810.1836559133197
 20
81.7402080089303
 30
0.0
 10
810.1963579051965
 20
81.65139582567784
 30
0.0
 10
810.1958947190828
 20
81.60764581789226
 30
0.0
 10
810.1807036930832
 20
81.51384872266362
 30
0.0
 10
810.1640018208239
 20
81.46685651558332
 30
0.0
 10
810.1095481260511
 20
81.36043220615819
 30
0.0
 10
810.0648566646906
 20
81.30553830980259
 30
0.0
 10
809.9786520153227
 20
81.22391867684497
 30
0.0
 10
809.9369943648806
 20
81.19350382750246
 30
0.0
 10
809.8743702331118
 20
81.15691313573751
 30
0.0
 10
809.8504912994084
 20
81.14574897259604
 30
0.0
 10
809.8233087329928
 20
81.13713556366638
 30
0.0
 10
809.8165182651035
 20
81.13547953370627
 30
0.0
 10
809.8062419777376
 20
81.13394216813754
 30
0.0
 10
809.8024072060157
 20
81.13366334185664
 30
0.0
 10
809.7954653642798
 20
81.13382552405441
 30
0.0
 10
809.7923594740032
 20
81.1342567549148
 30
0.0
 10
809.785669255211
 20
81.13619051987219
 30
0.0
 10
809.7824732435746
 20
81.13806597060118
 30
0.0
 10
809.7739997046948
 20
81.14713688170047
 30
0.0
 10
809.772473661555
 20
81.15792021049875
 30
0.0
 10
809.7764798618927
 20
81.19285070596214
 30
0.0
 10
809.7842420734972
 20
81.21965833451922
 30
0.0
 10
809.8057485869581
 20
81.29392592188077
 30
0.0
 10
809.8209484935001
 20
81.34642499724836
 30
0.0
 10
809.843741025724
 20
81.46230471086624
 30
0.0
 10
809.8514962860848
 20
81.52142052064197
 30
0.0
 10
809.8569553804857
 20
81.64319542568906
 30
0.0
 10
809.8547170020303
 20
81.70377386829192
 30
0.0
 10
809.8413160303286
 20
81.82276294847016
 30
0.0
 10
809.8299407399412
 20
81.8792381476182
 30
0.0
 10
809.8064241682754
 20
81.97282105790817
 30
0.0
 10
809.7946330342294
 20
82.0111029270699
 30
0.0
 10
809.7791936371365
 20
82.06645464532007
 30
0.0
 10
809.7743826245364
 20
82.08627145972613
 30
0.0
 10
809.7730037988799
 20
82.11377983777964
 30
0.0
 10
809.7752864372921
 20
82.12265127074727
 30
0.0
 10
809.7837516473944
 20
82.13019710327918
 30
0.0
 10
809.786919921966
 20
82.13177205830158
 30
0.0
 10
809.7935227844359
 20
82.13339646190975
 30
0.0
 10
809.7966641568909
 20
82.1337310909149
 30
0.0
 10
809.8001159337096
 20
82.1337310909149
 30
0.0
  0
CIRCLE
  5
15284
330
1F
100
AcDbEntity
  8
AM_VIS
100
AcDbCircle
 10
814.6727184913441
 20
81.63373109091493
 30
0.0
 40
0.5000000000000059
  0
ARC
  5
15285
330
1F
100
AcDbEntity
  8
AM_VIS
100
AcDbCircle
 10
822.8537464215348
 20
81.63369266639614
 30
0.0
 40
0.6998062945021038
100
AcDbArc
 50
134.4216992675783
 51
225.573898497194
  0
ARC
  5
15286
330
1F
100
AcDbEntity
  8
AM_VIS
100
AcDbCircle
 10
808.9916958888668
 20
81.63375061960591
 30
0.0
 40
0.6997982445397298
100
AcDbArc
 50
314.4224702407691
 51
45.57529238903449
  0
LINE
  5
15287
330
1F
100
AcDbEntity
  8
AM_VIS
100
AcDbLine
 10
848.172718491344
 20
89.63373109091492
 30
0.0
 11
848.172718491344
 21
88.0337310909149
 31
0.0
  0
LINE
  5
15288
330
1F
100
AcDbEntity
  8
AM_VIS
100
AcDbLine
 10
861.672718491344
 20
89.63373109091492
 30
0.0
 11
861.672718491344
 21
88.0337310909149
 31
0.0
  0
LINE
  5
15289
330
1F
100
AcDbEntity
  8
AM_VIS
100
AcDbLine
 10
845.6851141843099
 20
95.13373109091492
 30
0.0
 11
845.6851141843099
 21
89.63373109091492
 31
0.0
  0
LINE
  5
1528A
330
1F
100
AcDbEntity
  8
AM_VIS
100
AcDbLine
 10
850.303916337827
 20
95.13373109091492
 30
0.0
 11
850.303916337827
 21
89.63373109091492
 31
0.0
  0
LINE
  5
1528B
330
1F
100
AcDbEntity
  8
AM_VIS
100
AcDbLine
 10
848.8695152610684
 20
95.13373109091492
 30
0.0
 11
848.8695152610684
 21
89.63373109091492
 31
0.0
  0
LINE
  5
1528C
330
1F
100
AcDbEntity
  8
AM_VIS
100
AcDbLine
 10
847.1195152610684
 20
89.63373109091492
 30
0.0
 11
847.1195152610684
 21
95.13373109091492
 31
0.0
  0
LINE
  5
1528D
330
1F
100
AcDbEntity
  8
AM_VIS
100
AcDbLine
 10
847.8025279629607
 20
95.13373109091492
 30
0.0
 11
847.8025279629607
 21
89.63373109091492
 31
0.0
  0
LINE
  5
1528E
330
1F
100
AcDbEntity
  8
AM_VIS
100
AcDbLine
 10
859.541520644861
 20
95.13373109091487
 30
0.0
 11
859.541520644861
 21
89.63373109091486
 31
0.0
  0
LINE
  5
1528F
330
1F
100
AcDbEntity
  8
AM_VIS
100
AcDbLine
 10
856.6727184913441
 20
95.13373109091487
 30
0.0
 11
856.6727184913441
 21
89.63373109091486
 31
0.0
  0
LINE
  5
15290
330
1F
100
AcDbEntity
  8
AM_VIS
100
AcDbLine
 10
853.1727184913441
 20
89.63373109091492
 30
0.0
 11
853.1727184913441
 21
95.13373109091492
 31
0.0
  0
LINE
  5
15291
330
1F
100
AcDbEntity
  8
AM_VIS
100
AcDbLine
 10
853.6727184913441
 20
95.13373109091492
 30
0.0
 11
853.6727184913441
 21
89.63373109091492
 31
0.0
  0
LINE
  5
15292
330
1F
100
AcDbEntity
  8
AM_VIS
100
AcDbLine
 10
856.172718491344
 20
95.13373109091487
 30
0.0
 11
856.172718491344
 21
89.63373109091486
 31
0.0
  0
LINE
  5
15293
330
1F
100
AcDbEntity
  8
AM_VIS
100
AcDbLine
 10
864.1603227983781
 20
95.13373109091487
 30
0.0
 11
864.1603227983781
 21
89.63373109091486
 31
0.0
  0
LINE
  5
15294
330
1F
100
AcDbEntity
  8
AM_VIS
100
AcDbLine
 10
862.7259217216197
 20
95.13373109091487
 30
0.0
 11
862.7259217216197
 21
89.63373109091486
 31
0.0
  0
LINE
  5
15295
330
1F
100
AcDbEntity
  8
AM_VIS
100
AcDbLine
 10
860.9759217216197
 20
89.63373109091486
 30
0.0
 11
860.9759217216197
 21
95.13373109091487
 31
0.0
  0
LINE
  5
15296
330
1F
100
AcDbEntity
  8
AM_VIS
100
AcDbLine
 10
862.0429090197275
 20
95.13373109091487
 30
0.0
 11
862.0429090197275
 21
89.63373109091486
 31
0.0
  0
LINE
  5
15297
330
1F
100
AcDbEntity
  8
AM_VIS
100
AcDbLine
 10
845.6851141843099
 20
89.63373109091492
 30
0.0
 11
847.1195152610684
 21
89.63373109091492
 31
0.0
  0
LINE
  5
15298
330
1F
100
AcDbEntity
  8
AM_VIS
100
AcDbLine
 10
952.7071244039959
 20
7.722231090914903
 30
0.0
 11
954.6898272236271
 21
7.722231090914903
 31
0.0
  0
ELLIPSE
  5
15299
330
1F
100
AcDbEntity
  8
AM_VIS
100
AcDbEllipse
 10
950.5049871064239
 20
8.033731090914898
 30
0.0
 11
0.0
 21
5.924134808644344
 31
0.0
210
0.0
220
0.0
230
1.0
 40
0.7073838514706498
 41
4.6597832026669
 42
4.764994758102479
  0
LINE
  5
1529A
330
1F
100
AcDbEntity
  8
AM_VIS
100
AcDbLine
 10
954.6898272236271
 20
8.345231090914893
 30
0.0
 11
952.7071244039959
 21
8.345231090914893
 31
0.0
  0
LINE
  5
1529B
330
1F
100
AcDbEntity
  8
AM_VIS
100
AcDbLine
 10
952.084124403996
 20
8.345231090914893
 30
0.0
 11
950.1014215843609
 21
8.345231090914893
 31
0.0
  0
ELLIPSE
  5
1529C
330
1F
100
AcDbEntity
  8
AM_VIS
100
AcDbEllipse
 10
954.2862617015641
 20
8.033731090914898
 30
0.0
 11
0.0
 21
5.924134808644344
 31
0.0
210
0.0
220
0.0
230
1.0
 40
0.70738385147065
 41
1.518190549077107
 42
1.623402104512687
  0
LINE
  5
1529D
330
1F
100
AcDbEntity
  8
AM_VIS
100
AcDbLine
 10
950.1014215843609
 20
7.722231090914903
 30
0.0
 11
952.084124403996
 21
7.722231090914903
 31
0.0
  0
LINE
  5
1529E
330
1F
100
AcDbEntity
  8
AM_VIS
100
AcDbLine
 10
952.7071244039959
 20
5.739528271281756
 30
0.0
 11
952.7071244039959
 21
7.722231090914903
 31
0.0
  0
ELLIPSE
  5
1529F
330
1F
100
AcDbEntity
  8
AM_VIS
100
AcDbEllipse
 10
952.3956244039942
 20
6.143093793344725
 30
0.0
 11
-5.924134808644345
 21
0.0
 31
0.0
210
0.0
220
0.0
230
1.0
 40
0.7073838514706484
 41
4.659783202666564
 42
4.764994758102141
  0
LINE
  5
152A0
330
1F
100
AcDbEntity
  8
AM_VIS
100
AcDbLine
 10
952.084124403996
 20
7.722231090914874
 30
0.0
 11
952.084124403996
 21
5.739528271281614
 31
0.0
  0
LINE
  5
152A1
330
1F
100
AcDbEntity
  8
AM_VIS
100
AcDbLine
 10
952.084124403996
 20
10.32793391054818
 30
0.0
 11
952.084124403996
 21
8.345231090914893
 31
0.0
  0
ELLIPSE
  5
152A2
330
1F
100
AcDbEntity
  8
AM_VIS
100
AcDbEllipse
 10
952.3956244039942
 20
9.924368388485063
 30
0.0
 11
-5.924134808644347
 21
0.0
 31
0.0
210
0.0
220
0.0
230
1.0
 40
0.7073838514706481
 41
1.518190549077444
 42
1.623402104513021
  0
LINE
  5
152A3
330
1F
100
AcDbEntity
  8
AM_VIS
100
AcDbLine
 10
952.7071244039959
 20
8.345231090914893
 30
0.0
 11
952.7071244039959
 21
10.32793391054804
 31
0.0
  0
LINE
  5
152A4
330
1F
100
AcDbEntity
  8
AM_VIS
100
AcDbLine
 10
952.3956244039942
 20
8.345231090914893
 30
0.0
 11
952.3956244039942
 21
8.033731090914898
 31
0.0
  0
LINE
  5
152A5
330
1F
100
AcDbEntity
  8
AM_VIS
100
AcDbLine
 10
952.3956244039942
 20
8.033731090914898
 30
0.0
 11
952.3956244039942
 21
7.722231090914903
 31
0.0
  0
LINE
  5
152A6
330
1F
100
AcDbEntity
  8
AM_VIS
100
AcDbLine
 10
952.3956244039942
 20
8.033731090914898
 30
0.0
 11
952.7071244039946
 21
8.345231090915547
 31
0.0
  0
LINE
  5
152A7
330
1F
100
AcDbEntity
  8
AM_VIS
100
AcDbLine
 10
952.0841244039948
 20
8.345231090914239
 30
0.0
 11
952.3956244039942
 21
8.033731090914898
 31
0.0
  0
LINE
  5
152A8
330
1F
100
AcDbEntity
  8
AM_VIS
100
AcDbLine
 10
952.7071244039959
 20
8.345231090914893
 30
0.0
 11
952.084124403996
 21
8.345231090914893
 31
0.0
  0
LINE
  5
152A9
330
1F
100
AcDbEntity
  8
AM_VIS
100
AcDbLine
 10
952.084124403996
 20
7.722231090914903
 30
0.0
 11
952.084124403996
 21
8.345231090914921
 31
0.0
  0
LINE
  5
152AA
330
1F
100
AcDbEntity
  8
AM_VIS
100
AcDbLine
 10
952.7071244039959
 20
8.033731090914898
 30
0.0
 11
952.395624403994
 21
8.033731090914898
 31
0.0
  0
LINE
  5
152AB
330
1F
100
AcDbEntity
  8
AM_VIS
100
AcDbLine
 10
952.7071244039946
 20
7.722231090914249
 30
0.0
 11
952.3956244039942
 21
8.033731090914898
 31
0.0
  0
LINE
  5
152AC
330
1F
100
AcDbEntity
  8
AM_VIS
100
AcDbLine
 10
952.084124403996
 20
7.722231090914903
 30
0.0
 11
952.7071244039959
 21
7.722231090914903
 31
0.0
  0
LINE
  5
152AD
330
1F
100
AcDbEntity
  8
AM_VIS
100
AcDbLine
 10
952.3956244039942
 20
8.033731090914898
 30
0.0
 11
952.084124403996
 21
8.033731090914898
 31
0.0
  0
LINE
  5
152AE
330
1F
100
AcDbEntity
  8
AM_VIS
100
AcDbLine
 10
952.3956244039942
 20
8.033731090914898
 30
0.0
 11
952.0841244039948
 21
7.722231090915556
 31
0.0
  0
LINE
  5
152AF
330
1F
100
AcDbEntity
  8
AM_VIS
100
AcDbLine
 10
952.7071244039959
 20
8.345231090914893
 30
0.0
 11
952.7071244039959
 21
7.722231090914903
 31
0.0
  0
LINE
  5
152B0
330
1F
100
AcDbEntity
  8
AM_VIS
100
AcDbLine
 10
916.7071244039959
 20
24.72223109091487
 30
0.0
 11
918.6898272236273
 21
24.72223109091487
 31
0.0
  0
ELLIPSE
  5
152B1
330
1F
100
AcDbEntity
  8
AM_VIS
100
AcDbEllipse
 10
914.5049871064239
 20
25.03373109091489
 30
0.0
 11
0.0
 21
5.924134808644344
 31
0.0
210
0.0
220
0.0
230
1.0
 40
0.7073838514706498
 41
4.6597832026669
 42
4.764994758102479
  0
LINE
  5
152B2
330
1F
100
AcDbEntity
  8
AM_VIS
100
AcDbLine
 10
918.6898272236273
 20
25.34523109091489
 30
0.0
 11
916.7071244039959
 21
25.34523109091489
 31
0.0
  0
LINE
  5
152B3
330
1F
100
AcDbEntity
  8
AM_VIS
100
AcDbLine
 10
916.0841244039961
 20
25.34523109091489
 30
0.0
 11
914.1014215843609
 21
25.34523109091489
 31
0.0
  0
ELLIPSE
  5
152B4
330
1F
100
AcDbEntity
  8
AM_VIS
100
AcDbEllipse
 10
918.2862617015642
 20
25.03373109091489
 30
0.0
 11
0.0
 21
5.924134808644344
 31
0.0
210
0.0
220
0.0
230
1.0
 40
0.70738385147065
 41
1.518190549077107
 42
1.623402104512686
  0
LINE
  5
152B5
330
1F
100
AcDbEntity
  8
AM_VIS
100
AcDbLine
 10
914.1014215843609
 20
24.72223109091487
 30
0.0
 11
916.0841244039961
 21
24.72223109091487
 31
0.0
  0
LINE
  5
152B6
330
1F
100
AcDbEntity
  8
AM_VIS
100
AcDbLine
 10
916.7071244039959
 20
22.73952827128175
 30
0.0
 11
916.7071244039959
 21
24.72223109091487
 31
0.0
  0
ELLIPSE
  5
152B7
330
1F
100
AcDbEntity
  8
AM_VIS
100
AcDbEllipse
 10
916.395624403994
 20
23.14309379334472
 30
0.0
 11
-5.924134808644345
 21
0.0
 31
0.0
210
0.0
220
0.0
230
1.0
 40
0.7073838514706484
 41
4.659783202666565
 42
4.764994758102141
  0
LINE
  5
152B8
330
1F
100
AcDbEntity
  8
AM_VIS
100
AcDbLine
 10
916.0841244039961
 20
24.72223109091487
 30
0.0
 11
916.0841244039961
 21
22.73952827128161
 31
0.0
  0
LINE
  5
152B9
330
1F
100
AcDbEntity
  8
AM_VIS
100
AcDbLine
 10
916.0841244039961
 20
27.32793391054815
 30
0.0
 11
916.0841244039961
 21
25.34523109091489
 31
0.0
  0
ELLIPSE
  5
152BA
330
1F
100
AcDbEntity
  8
AM_VIS
100
AcDbEllipse
 10
916.395624403994
 20
26.92436838848506
 30
0.0
 11
-5.924134808644347
 21
0.0
 31
0.0
210
0.0
220
0.0
230
1.0
 40
0.7073838514706481
 41
1.518190549077444
 42
1.623402104513021
  0
LINE
  5
152BB
330
1F
100
AcDbEntity
  8
AM_VIS
100
AcDbLine
 10
916.7071244039959
 20
25.34523109091489
 30
0.0
 11
916.7071244039959
 21
27.32793391054804
 31
0.0
  0
LINE
  5
152BC
330
1F
100
AcDbEntity
  8
AM_VIS
100
AcDbLine
 10
916.395624403994
 20
25.34523109091489
 30
0.0
 11
916.395624403994
 21
25.03373109091489
 31
0.0
  0
LINE
  5
152BD
330
1F
100
AcDbEntity
  8
AM_VIS
100
AcDbLine
 10
916.395624403994
 20
25.03373109091489
 30
0.0
 11
916.395624403994
 21
24.7222310909149
 31
0.0
  0
LINE
  5
152BE
330
1F
100
AcDbEntity
  8
AM_VIS
100
AcDbLine
 10
916.395624403994
 20
25.03373109091489
 30
0.0
 11
916.7071244039947
 21
25.34523109091554
 31
0.0
  0
LINE
  5
152BF
330
1F
100
AcDbEntity
  8
AM_VIS
100
AcDbLine
 10
916.0841244039948
 20
25.34523109091423
 30
0.0
 11
916.395624403994
 21
25.03373109091489
 31
0.0
  0
LINE
  5
152C0
330
1F
100
AcDbEntity
  8
AM_VIS
100
AcDbLine
 10
916.7071244039959
 20
25.34523109091489
 30
0.0
 11
916.0841244039961
 21
25.34523109091489
 31
0.0
  0
LINE
  5
152C1
330
1F
100
AcDbEntity
  8
AM_VIS
100
AcDbLine
 10
916.0841244039961
 20
24.72223109091487
 30
0.0
 11
916.0841244039961
 21
25.34523109091489
 31
0.0
  0
LINE
  5
152C2
330
1F
100
AcDbEntity
  8
AM_VIS
100
AcDbLine
 10
916.7071244039959
 20
25.03373109091489
 30
0.0
 11
916.395624403994
 21
25.03373109091489
 31
0.0
  0
LINE
  5
152C3
330
1F
100
AcDbEntity
  8
AM_VIS
100
AcDbLine
 10
916.7071244039947
 20
24.72223109091422
 30
0.0
 11
916.395624403994
 21
25.03373109091489
 31
0.0
  0
LINE
  5
152C4
330
1F
100
AcDbEntity
  8
AM_VIS
100
AcDbLine
 10
916.0841244039961
 20
24.72223109091487
 30
0.0
 11
916.7071244039959
 21
24.72223109091487
 31
0.0
  0
LINE
  5
152C5
330
1F
100
AcDbEntity
  8
AM_VIS
100
AcDbLine
 10
916.395624403994
 20
25.03373109091489
 30
0.0
 11
916.0841244039961
 21
25.03373109091489
 31
0.0
  0
LINE
  5
152C6
330
1F
100
AcDbEntity
  8
AM_VIS
100
AcDbLine
 10
916.395624403994
 20
25.03373109091489
 30
0.0
 11
916.0841244039948
 21
24.72223109091555
 31
0.0
  0
LINE
  5
152C7
330
1F
100
AcDbEntity
  8
AM_VIS
100
AcDbLine
 10
916.7071244039959
 20
25.34523109091489
 30
0.0
 11
916.7071244039959
 21
24.7222310909149
 31
0.0
  0
LINE
  5
152C8
330
1F
100
AcDbEntity
  8
AM_VIS
100
AcDbLine
 10
912.895624403994
 20
29.5337310909149
 30
0.0
 11
911.895624403994
 21
29.5337310909149
 31
0.0
  0
LINE
  5
152C9
330
1F
100
AcDbEntity
  8
AM_VIS
100
AcDbLine
 10
956.8956244039942
 20
29.5337310909149
 30
0.0
 11
955.8956244039942
 21
29.5337310909149
 31
0.0
  0
LINE
  5
152CA
330
1F
100
AcDbEntity
  8
AM_VIS
100
AcDbLine
 10
956.8956244039942
 20
28.5337310909149
 30
0.0
 11
956.8956244039942
 21
29.5337310909149
 31
0.0
  0
LINE
  5
152CB
330
1F
100
AcDbEntity
  8
AM_VIS
100
AcDbLine
 10
956.8956244039942
 20
3.533731090914898
 30
0.0
 11
956.8956244039942
 21
4.533731090914898
 31
0.0
  0
LINE
  5
152CC
330
1F
100
AcDbEntity
  8
AM_VIS
100
AcDbLine
 10
955.8956244039942
 20
3.533731090914898
 30
0.0
 11
956.8956244039942
 21
3.533731090914898
 31
0.0
  0
LINE
  5
152CD
330
1F
100
AcDbEntity
  8
AM_VIS
100
AcDbLine
 10
911.895624403994
 20
3.533731090914898
 30
0.0
 11
912.895624403994
 21
3.533731090914898
 31
0.0
  0
LINE
  5
152CE
330
1F
100
AcDbEntity
  8
AM_VIS
100
AcDbLine
 10
911.895624403994
 20
4.533731090914898
 30
0.0
 11
911.895624403994
 21
3.533731090914898
 31
0.0
  0
LINE
  5
152CF
330
1F
100
AcDbEntity
  8
AM_VIS
100
AcDbLine
 10
911.895624403994
 20
29.5337310909149
 30
0.0
 11
911.895624403994
 21
28.5337310909149
 31
0.0
  0
CIRCLE
  5
152D0
330
1F
100
AcDbEntity
  8
AM_VIS
100
AcDbCircle
 10
952.3956244039942
 20
8.033731090914898
 30
0.0
 40
3.699999999999999
  0
CIRCLE
  5
152D1
330
1F
100
AcDbEntity
  8
AM_VIS
100
AcDbCircle
 10
916.395624403994
 20
25.03373109091489
 30
0.0
 40
3.699999999999999
  0
LINE
  5
152D2
330
1F
100
AcDbEntity
  8
AM_VIS
100
AcDbLine
 10
911.895624403994
 20
28.5337310909149
 30
0.0
 11
911.895624403994
 21
4.533731090914898
 31
0.0
  0
LINE
  5
152D3
330
1F
100
AcDbEntity
  8
AM_VIS
100
AcDbLine
 10
956.8956244039942
 20
4.533731090914898
 30
0.0
 11
956.8956244039942
 21
28.5337310909149
 31
0.0
  0
LINE
  5
152D4
330
1F
100
AcDbEntity
  8
AM_VIS
100
AcDbLine
 10
911.895624403994
 20
28.5337310909149
 30
0.0
 11
912.895624403994
 21
29.5337310909149
 31
0.0
  0
LINE
  5
152D5
330
1F
100
AcDbEntity
  8
AM_VIS
100
AcDbLine
 10
912.895624403994
 20
3.533731090914898
 30
0.0
 11
911.895624403994
 21
4.533731090914898
 31
0.0
  0
LINE
  5
152D6
330
1F
100
AcDbEntity
  8
AM_VIS
100
AcDbLine
 10
912.895624403994
 20
3.533731090914898
 30
0.0
 11
955.8956244039942
 21
3.533731090914898
 31
0.0
  0
LINE
  5
152D7
330
1F
100
AcDbEntity
  8
AM_VIS
100
AcDbLine
 10
956.8956244039942
 20
4.533731090914898
 30
0.0
 11
955.8956244039942
 21
3.533731090914898
 31
0.0
  0
LINE
  5
152D8
330
1F
100
AcDbEntity
  8
AM_VIS
100
AcDbLine
 10
955.8956244039942
 20
29.5337310909149
 30
0.0
 11
912.895624403994
 21
29.5337310909149
 31
0.0
  0
LINE
  5
152D9
330
1F
100
AcDbEntity
  8
AM_VIS
100
AcDbLine
 10
955.8956244039942
 20
29.5337310909149
 30
0.0
 11
956.8956244039942
 21
28.5337310909149
 31
0.0
  0
LINE
  5
152DA
330
1F
100
AcDbEntity
  8
AM_VIS
100
AcDbLine
 10
938.3120178466171
 20
83.5337310909149
 30
0.0
 11
937.895624403994
 21
83.5337310909149
 31
0.0
  0
LINE
  5
152DB
330
1F
100
AcDbEntity
  8
AM_VIS
100
AcDbLine
 10
919.8956244039941
 20
83.5337310909149
 30
0.0
 11
919.4792309613712
 21
83.5337310909149
 31
0.0
  0
LINE
  5
152DC
330
1F
100
AcDbEntity
  8
AM_VIS
100
AcDbLine
 10
919.8956244039941
 20
82.38373109091492
 30
0.0
 11
919.4792309613712
 21
82.38373109091492
 31
0.0
  0
LINE
  5
152DD
330
1F
100
AcDbEntity
  8
AM_VIS
100
AcDbLine
 10
938.3120178466171
 20
82.38373109091492
 30
0.0
 11
937.895624403994
 21
82.38373109091492
 31
0.0
  0
LINE
  5
152DE
330
1F
100
AcDbEntity
  8
AM_VIS
100
AcDbLine
 10
937.895624403994
 20
80.88373109091492
 30
0.0
 11
938.3120178466169
 21
80.88373109091492
 31
0.0
  0
LINE
  5
152DF
330
1F
100
AcDbEntity
  8
AM_VIS
100
AcDbLine
 10
919.4792309613712
 20
80.88373109091492
 30
0.0
 11
919.8956244039941
 21
80.88373109091492
 31
0.0
  0
LINE
  5
152E0
330
1F
100
AcDbEntity
  8
AM_VIS
100
AcDbLine
 10
919.8956244039941
 20
78.0337310909149
 30
0.0
 11
919.4792309613712
 21
78.0337310909149
 31
0.0
  0
LINE
  5
152E1
330
1F
100
AcDbEntity
  8
AM_VIS
100
AcDbLine
 10
938.3120178466171
 20
78.0337310909149
 30
0.0
 11
937.895624403994
 21
78.0337310909149
 31
0.0
  0
LINE
  5
152E2
330
1F
100
AcDbEntity
  8
AM_VIS
100
AcDbLine
 10
918.8956244039941
 20
76.53373109091489
 30
0.0
 11
919.8956244039941
 21
76.53373109091489
 31
0.0
  0
LINE
  5
152E3
330
1F
100
AcDbEntity
  8
AM_VIS
100
AcDbLine
 10
937.895624403994
 20
76.53373109091489
 30
0.0
 11
938.8956244039942
 21
76.53373109091489
 31
0.0
  0
LINE
  5
152E4
330
1F
100
AcDbEntity
  8
AM_VIS
100
AcDbLine
 10
937.895624403994
 20
84.03373109091489
 30
0.0
 11
938.045624403994
 21
84.03373109091489
 31
0.0
  0
LINE
  5
152E5
330
1F
100
AcDbEntity
  8
AM_VIS
100
AcDbLine
 10
919.745624403994
 20
84.03373109091489
 30
0.0
 11
919.8956244039941
 21
84.03373109091489
 31
0.0
  0
LINE
  5
152E6
330
1F
100
AcDbEntity
  8
AM_VIS
100
AcDbLine
 10
919.8956244039941
 20
76.73373109091489
 30
0.0
 11
918.8956244039941
 21
76.53373109091489
 31
0.0
  0
LINE
  5
152E7
330
1F
100
AcDbEntity
  8
AM_VIS
100
AcDbLine
 10
937.895624403994
 20
76.73373109091489
 30
0.0
 11
938.8956244039942
 21
76.53373109091489
 31
0.0
  0
LINE
  5
152E8
330
1F
100
AcDbEntity
  8
AM_VIS
100
AcDbLine
 10
938.8956244039942
 20
76.0337310909149
 30
0.0
 11
938.8956244039942
 21
76.53373109091489
 31
0.0
  0
LINE
  5
152E9
330
1F
100
AcDbEntity
  8
AM_VIS
100
AcDbLine
 10
918.8956244039941
 20
76.0337310909149
 30
0.0
 11
918.8956244039941
 21
76.53373109091489
 31
0.0
  0
SPLINE
  5
152EA
330
1F
100
AcDbEntity
  8
AM_VIS
100
AcDbSpline
210
0.0
220
0.0
230
1.0
 70
     8
 71
     3
 72
     8
 73
     4
 74
     0
 42
0.0000000001
 43
0.0000000001
 40
7.8606508081159
 40
7.8606508081159
 40
7.8606508081159
 40
7.8606508081159
 40
8.796495530230886
 40
8.796495530230886
 40
8.796495530230886
 40
8.796495530230886
 10
919.745624403994
 20
84.03373109091489
 30
0.0
 10
919.6672160416285
 20
83.88269182446324
 30
0.0
 10
919.5775156565911
 20
83.71359208316741
 30
0.0
 10
919.4792309613712
 20
83.5337310909149
 30
0.0
  0
LINE
  5
152EB
330
1F
100
AcDbEntity
  8
AM_VIS
100
AcDbLine
 10
919.4792309613712
 20
83.5337310909149
 30
0.0
 11
919.4792309613712
 21
82.38373109091492
 31
0.0
  0
LINE
  5
152EC
330
1F
100
AcDbEntity
  8
AM_VIS
100
AcDbLine
 10
938.3120178466171
 20
82.38373109091492
 30
0.0
 11
938.3120178466171
 21
83.5337310909149
 31
0.0
  0
SPLINE
  5
152ED
330
1F
100
AcDbEntity
  8
AM_VIS
100
AcDbSpline
210
0.0
220
0.0
230
1.0
 70
     8
 71
     3
 72
     8
 73
     4
 74
     0
 42
0.0000000001
 43
0.0000000001
 40
1.63015580392704
 40
1.63015580392704
 40
1.63015580392704
 40
1.63015580392704
 40
2.566002662427006
 40
2.566002662427006
 40
2.566002662427006
 40
2.566002662427006
 10
938.3120178466171
 20
83.5337310909149
 30
0.0
 10
938.2137330197345
 20
83.71359232411013
 30
0.0
 10
938.1240327035349
 20
83.88269194548355
 30
0.0
 10
938.045624403994
 20
84.03373109091489
 30
0.0
  0
LINE
  5
152EE
330
1F
100
AcDbEntity
  8
AM_VIS
100
AcDbLine
 10
938.3120178466171
 20
78.0337310909149
 30
0.0
 11
938.3120178466171
 21
80.88373109091492
 31
0.0
  0
LINE
  5
152EF
330
1F
100
AcDbEntity
  8
AM_VIS
100
AcDbLine
 10
919.4792309613712
 20
80.88373109091492
 30
0.0
 11
919.4792309613712
 21
78.0337310909149
 31
0.0
  0
ARC
  5
152F0
330
1F
100
AcDbEntity
  8
AM_VIS
100
AcDbCircle
 10
914.631584782343
 20
44.8376664253575
 30
0.0
 40
33.54815021363942
100
AcDbArc
 50
80.97241426085082
 51
81.69177981886367
  0
ARC
  5
152F1
330
1F
100
AcDbEntity
  8
AM_VIS
100
AcDbCircle
 10
943.1596640255786
 20
44.83766642579166
 30
0.0
 40
33.54815021320014
100
AcDbArc
 50
98.30822018113625
 51
99.02758573915573
  0
LINE
  5
152F2
330
1F
100
AcDbEntity
  8
AM_VIS
100
AcDbLine
 10
922.1456244039941
 20
89.63373109091492
 30
0.0
 11
922.1456244039941
 21
88.0337310909149
 31
0.0
  0
LINE
  5
152F3
330
1F
100
AcDbEntity
  8
AM_VIS
100
AcDbLine
 10
935.6456244039941
 20
89.63373109091492
 30
0.0
 11
935.6456244039941
 21
88.0337310909149
 31
0.0
  0
LINE
  5
152F4
330
1F
100
AcDbEntity
  8
AM_VIS
100
AcDbLine
 10
920.895624403994
 20
95.13373109091487
 30
0.0
 11
920.895624403994
 21
89.63373109091486
 31
0.0
  0
LINE
  5
152F5
330
1F
100
AcDbEntity
  8
AM_VIS
100
AcDbLine
 10
928.895624403994
 20
95.13373109091487
 30
0.0
 11
928.895624403994
 21
89.63373109091486
 31
0.0
  0
LINE
  5
152F6
330
1F
100
AcDbEntity
  8
AM_VIS
100
AcDbLine
 10
926.4111688606169
 20
95.13373109091487
 30
0.0
 11
926.4111688606169
 21
89.63373109091486
 31
0.0
  0
LINE
  5
152F7
330
1F
100
AcDbEntity
  8
AM_VIS
100
AcDbLine
 10
923.3800799473714
 20
89.63373109091486
 30
0.0
 11
923.3800799473714
 21
95.13373109091487
 31
0.0
  0
LINE
  5
152F8
330
1F
100
AcDbEntity
  8
AM_VIS
100
AcDbLine
 10
924.0630926492636
 20
95.13373109091487
 30
0.0
 11
924.0630926492636
 21
89.63373109091486
 31
0.0
  0
LINE
  5
152F9
330
1F
100
AcDbEntity
  8
AM_VIS
100
AcDbLine
 10
926.2281561587247
 20
95.13373109091487
 30
0.0
 11
926.2281561587247
 21
89.63373109091486
 31
0.0
  0
LINE
  5
152FA
330
1F
100
AcDbEntity
  8
AM_VIS
100
AcDbLine
 10
920.895624403994
 20
89.63373109091486
 30
0.0
 11
923.3800799473712
 21
89.63373109091486
 31
0.0
  0
LINE
  5
152FB
330
1F
100
AcDbEntity
  8
AM_VIS
100
AcDbLine
 10
924.0630926492636
 20
89.63373109091486
 30
0.0
 11
923.3800799473714
 21
89.63373109091486
 31
0.0
  0
LINE
  5
152FC
330
1F
100
AcDbEntity
  8
AM_VIS
100
AcDbLine
 10
926.2281561587247
 20
89.63373109091486
 30
0.0
 11
924.0630926492636
 21
89.63373109091486
 31
0.0
  0
LINE
  5
152FD
330
1F
100
AcDbEntity
  8
AM_VIS
100
AcDbLine
 10
926.4111688606169
 20
89.63373109091486
 30
0.0
 11
926.2281561587247
 21
89.63373109091486
 31
0.0
  0
LINE
  5
152FE
330
1F
100
AcDbEntity
  8
AM_VIS
100
AcDbLine
 10
926.4111688606169
 20
89.63373109091486
 30
0.0
 11
928.895624403994
 21
89.63373109091486
 31
0.0
  0
LINE
  5
152FF
330
1F
100
AcDbEntity
  8
AM_VIS
100
AcDbLine
 10
928.895624403994
 20
89.63373109091486
 30
0.0
 11
931.3800799473716
 21
89.63373109091486
 31
0.0
  0
LINE
  5
15300
330
1F
100
AcDbEntity
  8
AM_VIS
100
AcDbLine
 10
936.895624403994
 20
95.13373109091487
 30
0.0
 11
936.895624403994
 21
89.63373109091486
 31
0.0
  0
LINE
  5
15301
330
1F
100
AcDbEntity
  8
AM_VIS
100
AcDbLine
 10
934.4111688606169
 20
89.63373109091486
 30
0.0
 11
936.895624403994
 21
89.63373109091486
 31
0.0
  0
LINE
  5
15302
330
1F
100
AcDbEntity
  8
AM_VIS
100
AcDbLine
 10
928.895624403994
 20
95.13373109091487
 30
0.0
 11
931.3800799473716
 21
95.13373109091487
 31
0.0
  0
LINE
  5
15303
330
1F
100
AcDbEntity
  8
AM_VIS
100
AcDbLine
 10
926.4111688606169
 20
95.13373109091487
 30
0.0
 11
928.895624403994
 21
95.13373109091487
 31
0.0
  0
LINE
  5
15304
330
1F
100
AcDbEntity
  8
AM_VIS
100
AcDbLine
 10
926.2281561587247
 20
95.13373109091487
 30
0.0
 11
926.4111688606169
 21
95.13373109091487
 31
0.0
  0
LINE
  5
15305
330
1F
100
AcDbEntity
  8
AM_VIS
100
AcDbLine
 10
924.0630926492636
 20
95.13373109091487
 30
0.0
 11
926.2281561587247
 21
95.13373109091487
 31
0.0
  0
LINE
  5
15306
330
1F
100
AcDbEntity
  8
AM_VIS
100
AcDbLine
 10
923.3800799473714
 20
95.13373109091487
 30
0.0
 11
924.0630926492636
 21
95.13373109091487
 31
0.0
  0
LINE
  5
15307
330
1F
100
AcDbEntity
  8
AM_VIS
100
AcDbLine
 10
920.895624403994
 20
95.13373109091492
 30
0.0
 11
923.3800799473712
 21
95.13373109091492
 31
0.0
  0
LINE
  5
15308
330
1F
100
AcDbEntity
  8
AM_VIS
100
AcDbLine
 10
934.4111688606169
 20
95.13373109091487
 30
0.0
 11
936.895624403994
 21
95.13373109091487
 31
0.0
  0
LINE
  5
15309
330
1F
100
AcDbEntity
  8
AM_VIS
100
AcDbLine
 10
933.7281561587246
 20
95.13373109091487
 30
0.0
 11
934.4111688606169
 21
95.13373109091487
 31
0.0
  0
LINE
  5
1530A
330
1F
100
AcDbEntity
  8
AM_VIS
100
AcDbLine
 10
934.4111688606172
 20
95.13373109091487
 30
0.0
 11
934.4111688606172
 21
89.63373109091486
 31
0.0
  0
LINE
  5
1530B
330
1F
100
AcDbEntity
  8
AM_VIS
100
AcDbLine
 10
934.4111688606169
 20
89.63373109091486
 30
0.0
 11
933.7281561587246
 21
89.63373109091486
 31
0.0
  0
LINE
  5
1530C
330
1F
100
AcDbEntity
  8
AM_VIS
100
AcDbLine
 10
931.3800799473714
 20
89.63373109091486
 30
0.0
 11
931.3800799473714
 21
95.13373109091487
 31
0.0
  0
LINE
  5
1530D
330
1F
100
AcDbEntity
  8
AM_VIS
100
AcDbLine
 10
931.3800799473716
 20
95.13373109091487
 30
0.0
 11
931.5630926492637
 21
95.13373109091487
 31
0.0
  0
LINE
  5
1530E
330
1F
100
AcDbEntity
  8
AM_VIS
100
AcDbLine
 10
931.5630926492637
 20
89.63373109091486
 30
0.0
 11
931.3800799473716
 21
89.63373109091486
 31
0.0
  0
LINE
  5
1530F
330
1F
100
AcDbEntity
  8
AM_VIS
100
AcDbLine
 10
931.5630926492637
 20
95.13373109091487
 30
0.0
 11
931.5630926492637
 21
89.63373109091486
 31
0.0
  0
LINE
  5
15310
330
1F
100
AcDbEntity
  8
AM_VIS
100
AcDbLine
 10
931.5630926492637
 20
95.13373109091487
 30
0.0
 11
933.7281561587248
 21
95.13373109091487
 31
0.0
  0
LINE
  5
15311
330
1F
100
AcDbEntity
  8
AM_VIS
100
AcDbLine
 10
933.7281561587246
 20
95.13373109091487
 30
0.0
 11
933.7281561587246
 21
89.63373109091486
 31
0.0
  0
LINE
  5
15312
330
1F
100
AcDbEntity
  8
AM_VIS
100
AcDbLine
 10
933.7281561587246
 20
89.63373109091486
 30
0.0
 11
931.5630926492636
 21
89.63373109091486
 31
0.0
  0
ARC
  5
15313
330
1F
100
AcDbEntity
  8
AM_VIS
100
AcDbCircle
 10
935.8956244039941
 20
72.5337310909149
 30
0.0
 40
3.5
100
AcDbArc
 50
0.0
 51
69.95834159142898
  0
LINE
  5
15314
330
1F
100
AcDbEntity
  8
AM_VIS
100
AcDbLine
 10
937.895624403994
 20
76.0337310909149
 30
0.0
 11
919.8956244039941
 21
76.0337310909149
 31
0.0
  0
LINE
  5
15315
330
1F
100
AcDbEntity
  8
AM_VIS
100
AcDbLine
 10
919.8956244039941
 20
88.0337310909149
 30
0.0
 11
937.895624403994
 21
88.0337310909149
 31
0.0
  0
ARC
  5
15316
330
1F
100
AcDbEntity
  8
AM_VIS
100
AcDbCircle
 10
921.8956244039942
 20
50.5337310909149
 30
0.0
 40
3.5
100
AcDbArc
 50
180.0
 51
270.0
  0
ARC
  5
15317
330
1F
100
AcDbEntity
  8
AM_VIS
100
AcDbCircle
 10
921.8956244039942
 20
72.53373109091484
 30
0.0
 40
3.499999999999999
100
AcDbArc
 50
110.0416584085648
 51
180.0
  0
ARC
  5
15318
330
1F
100
AcDbEntity
  8
AM_VIS
100
AcDbCircle
 10
935.8956244039941
 20
50.5337310909149
 30
0.0
 40
3.5
100
AcDbArc
 50
270.0
 51
0.0
  0
CIRCLE
  5
15319
330
1F
100
AcDbEntity
  8
AM_VIS
100
AcDbCircle
 10
928.895624403994
 20
61.53373109091489
 30
0.0
 40
3.5
  0
LINE
  5
1531A
330
1F
100
AcDbEntity
  8
AM_VIS
100
AcDbLine
 10
937.6961619257823
 20
75.53507489538526
 30
0.0
 11
937.895624403994
 21
76.03373109091484
 31
0.0
  0
LINE
  5
1531B
330
1F
100
AcDbEntity
  8
AM_VIS
100
AcDbLine
 10
920.095086882206
 20
75.53507489538526
 30
0.0
 11
919.8956244039941
 21
76.0337310909149
 31
0.0
  0
LINE
  5
1531C
330
1F
100
AcDbEntity
  8
AM_VIS
100
AcDbLine
 10
937.895624403994
 20
76.0337310909149
 30
0.0
 11
937.895624403994
 21
88.0337310909149
 31
0.0
  0
LINE
  5
1531D
330
1F
100
AcDbEntity
  8
AM_VIS
100
AcDbLine
 10
919.8956244039941
 20
76.0337310909149
 30
0.0
 11
919.8956244039941
 21
88.0337310909149
 31
0.0
  0
SPLINE
  5
1531E
330
1F
100
AcDbEntity
  8
AM_VIS
100
AcDbSpline
210
0.0
220
0.0
230
1.0
 70
     8
 71
     3
 72
    18
 73
    14
 74
     0
 42
0.0000000001
 43
0.0000000001
 40
6.072258403086962
 40
6.072258403086962
 40
6.072258403086962
 40
6.072258403086962
 40
6.091519998582311
 40
6.091519998582311
 40
6.594079983681931
 40
6.594079983681931
 40
7.096639968781531
 40
7.096639968781531
 40
7.59919995388113
 40
7.59919995388113
 40
8.101759938980729
 40
8.101759938980729
 40
8.212872863102431
 40
8.212872863102431
 40
8.212872863102431
 40
8.212872863102431
 10
937.09508588813
 20
75.82178403271403
 30
0.0
 10
937.0927561607887
 20
75.8226339029151
 30
0.0
 10
937.0904139502686
 20
75.82346727750721
 30
0.0
 10
937.0266262959914
 20
75.84559833605401
 30
0.0
 10
936.9566400355497
 20
75.85555474693214
 30
0.0
 10
936.8068055969557
 20
75.85555474693212
 30
0.0
 10
936.7210847822176
 20
75.84559833605395
 30
0.0
 10
936.5314062071311
 20
75.80297003217714
 30
0.0
 10
936.4274517098724
 20
75.77030029073572
 30
0.0
 10
936.2076523285958
 20
75.6829349579867
 30
0.0
 10
936.0916911893481
 20
75.62818239725249
 30
0.0
 10
935.9478988276171
 20
75.55020851526504
 30
0.0
 10
935.9217784995987
 20
75.53565172116859
 30
0.0
 10
935.8956244039941
 20
75.52068877518394
 30
0.0
  0
SPLINE
  5
1531F
330
1F
100
AcDbEntity
  8
AM_VIS
100
AcDbSpline
210
0.0
220
0.0
230
1.0
 70
     8
 71
     3
 72
    16
 73
    12
 74
     0
 42
0.0000000001
 43
0.0000000001
 40
1.626271716229691
 40
1.626271716229691
 40
1.626271716229691
 40
1.626271716229691
 40
2.044102946506439
 40
2.044102946506439
 40
3.066154419759659
 40
3.066154419759659
 40
4.088205893012879
 40
4.088205893012879
 40
5.443002653861024
 40
5.443002653861024
 40
6.738847868840626
 40
6.738847868840626
 40
6.738847868840626
 40
6.738847868840626
 10
935.8956244039941
 20
75.52068877518394
 30
0.0
 10
935.7966687362603
 20
75.46407552678286
 30
0.0
 10
935.695028435428
 20
75.40389724688774
 30
0.0
 10
935.3376926884608
 20
75.1862985368001
 30
0.0
 10
935.0715308502886
 20
75.01397955247949
 30
0.0
 10
934.5345949944372
 20
74.65173541222148
 30
0.0
 10
934.263825282891
 20
74.46180232163746
 30
0.0
 10
933.6551848498636
 20
74.02160546242706
 30
0.0
 10
933.2708170108269
 20
73.7335229115086
 30
0.0
 10
932.5272207428543
 20
73.14026453935179
 30
0.0
 10
932.167120383948
 20
72.83726525939861
 30
0.0
 10
931.8553541213839
 20
72.53373109091487
 30
0.0
  0
SPLINE
  5
15320
330
1F
100
AcDbEntity
  8
AM_VIS
100
AcDbSpline
210
0.0
220
0.0
230
1.0
 70
     8
 71
     3
 72
    18
 73
    14
 74
     0
 42
0.0000000001
 43
0.0000000001
 40
4.975287104260677
 40
4.975287104260677
 40
4.975287104260677
 40
4.975287104260677
 40
5.086400028382842
 40
5.086400028382842
 40
5.588960013482415
 40
5.588960013482415
 40
6.091519998581987
 40
6.091519998581987
 40
6.59407998368156
 40
6.59407998368156
 40
7.096639968781131
 40
7.096639968781131
 40
7.11590156427612
 40
7.11590156427612
 40
7.11590156427612
 40
7.11590156427612
 10
921.8956244039942
 20
75.52068877518395
 30
0.0
 10
921.8694703083892
 20
75.53565172116866
 30
0.0
 10
921.8433499803708
 20
75.55020851526518
 30
0.0
 10
921.6995576186398
 20
75.62818239725267
 30
0.0
 10
921.5835964793921
 20
75.68293495798684
 30
0.0
 10
921.3637970981155
 20
75.7703002907358
 30
0.0
 10
921.2598426008568
 20
75.80297003217721
 30
0.0
 10
921.0701640257703
 20
75.845598336054
 30
0.0
 10
920.9844432110322
 20
75.85555474693212
 30
0.0
 10
920.8346087724384
 20
75.85555474693212
 30
0.0
 10
920.7646225119967
 20
75.845598336054
 30
0.0
 10
920.7008348577197
 20
75.82346727750717
 30
0.0
 10
920.6984926471996
 20
75.82263390291507
 30
0.0
 10
920.696162919858
 20
75.82178403271402
 30
0.0
  0
SPLINE
  5
15321
330
1F
100
AcDbEntity
  8
AM_VIS
100
AcDbSpline
210
0.0
220
0.0
230
1.0
 70
     8
 71
     3
 72
    16
 73
    12
 74
     0
 42
0.0000000001
 43
0.0000000001
 40
13.44245735600753
 40
13.44245735600753
 40
13.44245735600753
 40
13.44245735600753
 40
14.73830257098713
 40
14.73830257098713
 40
16.09309933183528
 40
16.09309933183528
 40
17.1151508050885
 40
17.1151508050885
 40
18.13720227834172
 40
18.13720227834172
 40
18.55503350861849
 40
18.55503350861849
 40
18.55503350861849
 40
18.55503350861849
 10
925.9358946866043
 20
72.53373109091487
 30
0.0
 10
925.6241284240402
 20
72.83726525939862
 30
0.0
 10
925.2640280651338
 20
73.14026453935179
 30
0.0
 10
924.5204317971612
 20
73.7335229115086
 30
0.0
 10
924.1360639581246
 20
74.02160546242706
 30
0.0
 10
923.5274235250972
 20
74.46180232163746
 30
0.0
 10
923.2566538135511
 20
74.65173541222148
 30
0.0
 10
922.7197179576995
 20
75.01397955247951
 30
0.0
 10
922.4535561195272
 20
75.1862985368001
 30
0.0
 10
922.0962203725603
 20
75.40389724688772
 30
0.0
 10
921.994580071728
 20
75.46407552678288
 30
0.0
 10
921.8956244039942
 20
75.52068877518395
 30
0.0
  0
LINE
  5
15322
330
1F
100
AcDbEntity
  8
AM_VIS
100
AcDbLine
 10
939.3956244039941
 20
50.5337310909149
 30
0.0
 11
939.3956244039941
 21
72.5337310909149
 31
0.0
  0
SPLINE
  5
15323
330
1F
100
AcDbEntity
  8
AM_VIS
100
AcDbSpline
210
0.0
220
0.0
230
1.0
 70
    12
 71
     2
 72
     6
 73
     3
 74
     0
 42
0.0000000001
 43
0.0000000001
 40
0.0
 40
0.0
 40
0.0
 40
3.381727793507036
 40
3.381727793507036
 40
3.381727793507036
 10
931.8553541213839
 20
72.53373109091487
 30
0.0
 41
1.0
 10
930.314672898633
 20
71.03373109091487
 30
0.0
 41
1.021203771466384
 10
928.895624403994
 20
71.03373109091487
 30
0.0
 41
1.0
  0
SPLINE
  5
15324
330
1F
100
AcDbEntity
  8
AM_VIS
100
AcDbSpline
210
0.0
220
0.0
230
1.0
 70
    12
 71
     2
 72
     6
 73
     3
 74
     0
 42
0.0000000001
 43
0.0000000001
 40
3.381727793507036
 40
3.381727793507036
 40
3.381727793507036
 40
6.763455587014078
 40
6.763455587014078
 40
6.763455587014078
 10
928.895624403994
 20
71.03373109091487
 30
0.0
 41
1.0
 10
927.4765759093552
 20
71.03373109091487
 30
0.0
 41
1.021203771466384
 10
925.9358946866043
 20
72.53373109091487
 30
0.0
 41
1.0
  0
LINE
  5
15325
330
1F
100
AcDbEntity
  8
AM_VIS
100
AcDbLine
 10
921.8956244039942
 20
47.03373109091489
 30
0.0
 11
935.8956244039941
 21
47.03373109091489
 31
0.0
  0
LINE
  5
15326
330
1F
100
AcDbEntity
  8
AM_VIS
100
AcDbLine
 10
918.3956244039942
 20
72.53373109091484
 30
0.0
 11
918.3956244039942
 21
50.5337310909149
 31
0.0
  0
CIRCLE
  5
15327
330
1F
100
AcDbEntity
  8
AM_VIS
100
AcDbCircle
 10
928.895624403994
 20
61.53373109091489
 30
0.0
 40
1.25
  0
LINE
  5
15328
330
1F
100
AcDbEntity
  8
AM_VIS
100
AcDbLine
 10
917.8956244039941
 20
46.53373109091489
 30
0.0
 11
939.8956244039942
 21
46.53373109091489
 31
0.0
  0
LINE
  5
15329
330
1F
100
AcDbEntity
  8
AM_VIS
100
AcDbLine
 10
917.8956244039941
 20
46.53373109091489
 30
0.0
 11
917.8956244039941
 21
76.0337310909149
 31
0.0
  0
LINE
  5
1532A
330
1F
100
AcDbEntity
  8
AM_VIS
100
AcDbLine
 10
939.8956244039942
 20
46.53373109091489
 30
0.0
 11
939.8956244039942
 21
76.0337310909149
 31
0.0
  0
LINE
  5
1532B
330
1F
100
AcDbEntity
  8
AM_VIS
100
AcDbLine
 10
919.8956244039941
 20
76.0337310909149
 30
0.0
 11
917.8956244039941
 21
76.0337310909149
 31
0.0
  0
LINE
  5
1532C
330
1F
100
AcDbEntity
  8
AM_VIS
100
AcDbLine
 10
939.8956244039942
 20
76.0337310909149
 30
0.0
 11
937.895624403994
 21
76.0337310909149
 31
0.0
  0
LINE
  5
1532D
330
1F
100
AcDbEntity
  8
AM_VIS
100
AcDbLine
 10
917.8956244039941
 20
44.53373109091489
 30
0.0
 11
917.8956244039941
 21
46.53373109091489
 31
0.0
  0
LINE
  5
1532E
330
1F
100
AcDbEntity
  8
AM_VIS
100
AcDbLine
 10
932.8956244039941
 20
44.53373109091489
 30
0.0
 11
917.8956244039941
 21
44.53373109091489
 31
0.0
  0
LINE
  5
1532F
330
1F
100
AcDbEntity
  8
AM_VIS
100
AcDbLine
 10
939.8956244039942
 20
46.53373109091489
 30
0.0
 11
939.8956244039942
 21
44.53373109091489
 31
0.0
  0
LINE
  5
15330
330
1F
100
AcDbEntity
  8
AM_VIS
100
AcDbLine
 10
932.8956244039941
 20
44.53373109091489
 30
0.0
 11
932.8956244039941
 21
46.53373109091489
 31
0.0
  0
LINE
  5
15331
330
1F
100
AcDbEntity
  8
AM_VIS
100
AcDbLine
 10
929.3956244039941
 20
37.6702227640186
 30
0.0
 11
929.3956244039941
 21
37.72182062612199
 31
0.0
  0
LINE
  5
15332
330
1F
100
AcDbEntity
  8
AM_VIS
100
AcDbLine
 10
928.3956244039941
 20
37.6702227640186
 30
0.0
 11
928.3956244039941
 21
37.72182062612199
 31
0.0
  0
ARC
  5
15333
330
1F
100
AcDbEntity
  8
AM_VIS
100
AcDbCircle
 10
928.895624403994
 20
35.73373109091488
 30
0.0
 40
1.5
100
AcDbArc
 50
19.47122063448956
 51
160.5287793655103
  0
ARC
  5
15334
330
1F
100
AcDbEntity
  8
AM_VIS
100
AcDbCircle
 10
928.895624403994
 20
35.73373109091488
 30
0.0
 40
2.0
100
AcDbArc
 50
345.5224878140705
 51
14.47751218592945
  0
ARC
  5
15335
330
1F
100
AcDbEntity
  8
AM_VIS
100
AcDbCircle
 10
928.895624403994
 20
35.73373109091488
 30
0.0
 40
2.0
100
AcDbArc
 50
14.47751218592945
 51
165.5224878140705
  0
ARC
  5
15336
330
1F
100
AcDbEntity
  8
AM_VIS
100
AcDbCircle
 10
928.895624403994
 20
35.73373109091488
 30
0.0
 40
2.0
100
AcDbArc
 50
165.5224878140697
 51
194.4775121859294
  0
ARC
  5
15337
330
1F
100
AcDbEntity
  8
AM_VIS
100
AcDbCircle
 10
928.895624403994
 20
35.73373109091488
 30
0.0
 40
1.5
100
AcDbArc
 50
199.4712206344895
 51
340.5287793655104
  0
ARC
  5
15338
330
1F
100
AcDbEntity
  8
AM_VIS
100
AcDbCircle
 10
928.895624403994
 20
35.73373109091488
 30
0.0
 40
2.0
100
AcDbArc
 50
194.4775121859294
 51
345.5224878140705
  0
LINE
  5
15339
330
1F
100
AcDbEntity
  8
AM_VIS
100
AcDbLine
 10
927.481410841621
 20
36.23373109091488
 30
0.0
 11
930.3098379663673
 21
36.23373109091488
 31
0.0
  0
LINE
  5
1533A
330
1F
100
AcDbEntity
  8
AM_VIS
100
AcDbLine
 10
930.3098379663673
 20
36.23373109091488
 30
0.0
 11
930.8321160770979
 21
36.23373109091488
 31
0.0
  0
LINE
  5
1533B
330
1F
100
AcDbEntity
  8
AM_VIS
100
AcDbLine
 10
926.9591327308903
 20
36.23373109091488
 30
0.0
 11
927.481410841621
 21
36.23373109091488
 31
0.0
  0
LINE
  5
1533C
330
1F
100
AcDbEntity
  8
AM_VIS
100
AcDbLine
 10
930.3098379663673
 20
35.23373109091489
 30
0.0
 11
927.481410841621
 21
35.23373109091489
 31
0.0
  0
LINE
  5
1533D
330
1F
100
AcDbEntity
  8
AM_VIS
100
AcDbLine
 10
926.9591327308903
 20
35.23373109091489
 30
0.0
 11
927.481410841621
 21
35.23373109091489
 31
0.0
  0
LINE
  5
1533E
330
1F
100
AcDbEntity
  8
AM_VIS
100
AcDbLine
 10
930.3098379663673
 20
35.23373109091489
 30
0.0
 11
930.8321160770979
 21
35.23373109091489
 31
0.0
  0
CIRCLE
  5
1533F
330
1F
100
AcDbEntity
  8
AM_VIS
100
AcDbCircle
 10
928.895624403994
 20
35.73373109091488
 30
0.0
 40
2.049999999999999
  0
LINE
  5
15340
330
1F
100
AcDbEntity
  8
AM_VIS
100
AcDbLine
 10
937.3956244039941
 20
44.53373109091489
 30
0.0
 11
939.8956244039942
 21
44.53373109091489
 31
0.0
  0
LINE
  5
15341
330
1F
100
AcDbEntity
  8
AM_VIS
100
AcDbLine
 10
939.8956244039942
 20
29.5337310909149
 30
0.0
 11
939.8956244039942
 21
44.53373109091489
 31
0.0
  0
LINE
  5
15342
330
1F
100
AcDbEntity
  8
AM_VIS
100
AcDbLine
 10
937.3956244039941
 20
29.5337310909149
 30
0.0
 11
920.3956244039941
 21
29.5337310909149
 31
0.0
  0
LINE
  5
15343
330
1F
100
AcDbEntity
  8
AM_VIS
100
AcDbLine
 10
917.8956244039941
 20
44.53373109091489
 30
0.0
 11
917.8956244039941
 21
29.5337310909149
 31
0.0
  0
LINE
  5
15344
330
1F
100
AcDbEntity
  8
AM_VIS
100
AcDbLine
 10
937.3956244039941
 20
44.53373109091489
 30
0.0
 11
920.3956244039941
 21
44.53373109091489
 31
0.0
  0
ARC
  5
15345
330
1F
100
AcDbEntity
  8
AM_VIS
100
AcDbCircle
 10
946.8956244039942
 20
81.63373109091493
 30
0.0
 40
0.75
100
AcDbArc
 50
90.0
 51
270.0
  0
LINE
  5
15346
330
1F
100
AcDbEntity
  8
AM_VIS
100
AcDbLine
 10
941.6885765557546
 20
83.5337310909149
 30
0.0
 11
938.3120178466169
 21
83.5337310909149
 31
0.0
  0
LINE
  5
15347
330
1F
100
AcDbEntity
  8
AM_VIS
100
AcDbLine
 10
949.3120178466169
 20
83.5337310909149
 30
0.0
 11
947.5190656948566
 21
83.5337310909149
 31
0.0
  0
LINE
  5
15348
330
1F
100
AcDbEntity
  8
AM_VIS
100
AcDbLine
 10
941.6885765557546
 20
82.38373109091492
 30
0.0
 11
938.3120178466169
 21
82.38373109091492
 31
0.0
  0
LINE
  5
15349
330
1F
100
AcDbEntity
  8
AM_VIS
100
AcDbLine
 10
941.6885765557548
 20
82.38373109091492
 30
0.0
 11
947.5190656948566
 21
82.38373109091492
 31
0.0
  0
LINE
  5
1534A
330
1F
100
AcDbEntity
  8
AM_VIS
100
AcDbLine
 10
949.3120178466169
 20
82.38373109091492
 30
0.0
 11
947.5190656948566
 21
82.38373109091492
 31
0.0
  0
LINE
  5
1534B
330
1F
100
AcDbEntity
  8
AM_VIS
100
AcDbLine
 10
947.5190656948566
 20
80.88373109091492
 30
0.0
 11
949.3120178466169
 21
80.88373109091492
 31
0.0
  0
LINE
  5
1534C
330
1F
100
AcDbEntity
  8
AM_VIS
100
AcDbLine
 10
938.3120178466171
 20
80.88373109091492
 30
0.0
 11
941.6885765557548
 21
80.88373109091492
 31
0.0
  0
LINE
  5
1534D
330
1F
100
AcDbEntity
  8
AM_VIS
100
AcDbLine
 10
947.5190656948566
 20
80.88373109091492
 30
0.0
 11
941.6885765557546
 21
80.88373109091492
 31
0.0
  0
LINE
  5
1534E
330
1F
100
AcDbEntity
  8
AM_VIS
100
AcDbLine
 10
941.6885765557546
 20
78.0337310909149
 30
0.0
 11
938.3120178466169
 21
78.0337310909149
 31
0.0
  0
LINE
  5
1534F
330
1F
100
AcDbEntity
  8
AM_VIS
100
AcDbLine
 10
949.3120178466169
 20
78.0337310909149
 30
0.0
 11
947.5190656948566
 21
78.0337310909149
 31
0.0
  0
LINE
  5
15350
330
1F
100
AcDbEntity
  8
AM_VIS
100
AcDbLine
 10
947.3956244039941
 20
77.83373109091491
 30
0.0
 11
937.895624403994
 21
77.83373109091491
 31
0.0
  0
LINE
  5
15351
330
1F
100
AcDbEntity
  8
AM_VIS
100
AcDbLine
 10
947.3956244039941
 20
77.0337310909149
 30
0.0
 11
937.895624403994
 21
77.0337310909149
 31
0.0
  0
LINE
  5
15352
330
1F
100
AcDbEntity
  8
AM_VIS
100
AcDbLine
 10
938.8956244039942
 20
76.53373109091489
 30
0.0
 11
949.8956244039941
 21
76.53373109091489
 31
0.0
  0
LINE
  5
15353
330
1F
100
AcDbEntity
  8
AM_VIS
100
AcDbLine
 10
938.045624403994
 20
84.03373109091489
 30
0.0
 11
942.2580184743265
 21
84.03373109091489
 31
0.0
  0
LINE
  5
15354
330
1F
100
AcDbEntity
  8
AM_VIS
100
AcDbLine
 10
946.6832303336618
 20
84.03373109091489
 30
0.0
 11
949.0456244039942
 21
84.03373109091489
 31
0.0
  0
LINE
  5
15355
330
1F
100
AcDbEntity
  8
AM_VIS
100
AcDbLine
 10
942.2580184743265
 20
84.03373109091489
 30
0.0
 11
946.6832303336618
 21
84.03373109091489
 31
0.0
  0
LINE
  5
15356
330
1F
100
AcDbEntity
  8
AM_VIS
100
AcDbLine
 10
947.3956244039941
 20
77.83373109091491
 30
0.0
 11
948.6956244039941
 21
77.93773109091489
 31
0.0
  0
LINE
  5
15357
330
1F
100
AcDbEntity
  8
AM_VIS
100
AcDbLine
 10
947.3956244039941
 20
77.0337310909149
 30
0.0
 11
949.8956244039941
 21
76.53373109091489
 31
0.0
  0
LINE
  5
15358
330
1F
100
AcDbEntity
  8
AM_VIS
100
AcDbLine
 10
947.3956244039941
 20
77.0337310909149
 30
0.0
 11
947.3956244039941
 21
77.83373109091491
 31
0.0
  0
LINE
  5
15359
330
1F
100
AcDbEntity
  8
AM_VIS
100
AcDbLine
 10
949.8956244039941
 20
76.0337310909149
 30
0.0
 11
949.8956244039941
 21
76.53373109091489
 31
0.0
  0
LINE
  5
1535A
330
1F
100
AcDbEntity
  8
AM_VIS
100
AcDbLine
 10
949.3120178466169
 20
82.38373109091492
 30
0.0
 11
949.3120178466169
 21
83.5337310909149
 31
0.0
  0
SPLINE
  5
1535B
330
1F
100
AcDbEntity
  8
AM_VIS
100
AcDbSpline
210
0.0
220
0.0
230
1.0
 70
     8
 71
     3
 72
     8
 73
     4
 74
     0
 42
0.0000000001
 43
0.0000000001
 40
1.629958734905461
 40
1.629958734905461
 40
1.629958734905461
 40
1.629958734905461
 40
2.565803457021723
 40
2.565803457021723
 40
2.565803457021723
 40
2.565803457021723
 10
949.3120178466169
 20
83.5337310909149
 30
0.0
 10
949.2137332144006
 20
83.71359196787109
 30
0.0
 10
949.1240328232738
 20
83.88269171482846
 30
0.0
 10
949.0456244039942
 20
84.03373109091491
 30
0.0
  0
LINE
  5
1535C
330
1F
100
AcDbEntity
  8
AM_VIS
100
AcDbLine
 10
941.6885765557548
 20
82.38373109091492
 30
0.0
 11
941.6885765557548
 21
83.5337310909149
 31
0.0
  0
SPLINE
  5
1535D
330
1F
100
AcDbEntity
  8
AM_VIS
100
AcDbSpline
210
0.0
220
0.0
230
1.0
 70
     8
 71
     3
 72
     8
 73
     4
 74
     0
 42
0.0000000001
 43
0.0000000001
 40
1.630155803927002
 40
1.630155803927002
 40
1.630155803927002
 40
1.630155803927002
 40
2.566002662426968
 40
2.566002662426968
 40
2.566002662426968
 40
2.566002662426968
 10
941.6885765557548
 20
83.5337310909149
 30
0.0
 10
941.8640611963448
 20
83.71359232411014
 30
0.0
 10
942.0540356433589
 20
83.8826919454836
 30
0.0
 10
942.2580184743265
 20
84.03373109091491
 30
0.0
  0
SPLINE
  5
1535E
330
1F
100
AcDbEntity
  8
AM_VIS
100
AcDbSpline
210
0.0
220
0.0
230
1.0
 70
     8
 71
     3
 72
     8
 73
     4
 74
     0
 42
0.0000000001
 43
0.0000000001
 40
7.860869802063071
 40
7.860869802063071
 40
7.860869802063071
 40
7.860869802063071
 40
8.796716660561775
 40
8.796716660561775
 40
8.796716660561775
 40
8.796716660561775
 10
946.6832303336618
 20
84.03373109091491
 30
0.0
 10
946.9656212596355
 20
83.88269205488061
 30
0.0
 10
947.2452960523007
 20
83.71359243913632
 30
0.0
 10
947.5190656948566
 20
83.5337310909149
 30
0.0
  0
LINE
  5
1535F
330
1F
100
AcDbEntity
  8
AM_VIS
100
AcDbLine
 10
947.5190656948566
 20
83.5337310909149
 30
0.0
 11
947.5190656948566
 21
82.38373109091492
 31
0.0
  0
LINE
  5
15360
330
1F
100
AcDbEntity
  8
AM_VIS
100
AcDbLine
 10
949.3120178466169
 20
78.0337310909149
 30
0.0
 11
949.3120178466169
 21
80.88373109091492
 31
0.0
  0
LINE
  5
15361
330
1F
100
AcDbEntity
  8
AM_VIS
100
AcDbLine
 10
941.6885765557548
 20
78.0337310909149
 30
0.0
 11
941.6885765557548
 21
80.88373109091492
 31
0.0
  0
LINE
  5
15362
330
1F
100
AcDbEntity
  8
AM_VIS
100
AcDbLine
 10
947.5190656948566
 20
80.88373109091492
 30
0.0
 11
947.5190656948566
 21
78.0337310909149
 31
0.0
  0
ARC
  5
15363
330
1F
100
AcDbEntity
  8
AM_VIS
100
AcDbCircle
 10
944.57254467339
 20
122.063201080393
 30
0.0
 40
44.12572558547801
100
AcDbArc
 50
266.2524305683735
 51
273.8286145433999
  0
ARC
  5
15364
330
1F
100
AcDbEntity
  8
AM_VIS
100
AcDbCircle
 10
953.9518452202283
 20
46.21563102788212
 30
0.0
 40
32.15461848130188
100
AcDbArc
 50
98.29659445534554
 51
99.40819419633506
  0
ARC
  5
15365
330
1F
100
AcDbEntity
  8
AM_VIS
100
AcDbCircle
 10
937.895624403994
 20
81.63373109091493
 30
0.0
 40
0.5
100
AcDbArc
 50
270.0
 51
90.0
  0
CIRCLE
  5
15366
330
1F
100
AcDbEntity
  8
AM_VIS
100
AcDbCircle
 10
941.8956244039941
 20
81.63373109091493
 30
0.0
 40
0.5000000000000007
  0
SPLINE
  5
15367
330
1F
100
AcDbEntity
  8
AM_VIS
100
AcDbSpline
210
0.0
220
0.0
230
1.0
 70
    11
 71
     3
 72
    60
 73
    56
 74
     0
 42
0.0000000001
 43
0.0000000001
 40
-3.310750712816652
 40
-3.310750712816652
 40
-3.310750712816652
 40
-3.310750712816652
 40
-3.302671059125519
 40
-3.302671059125519
 40
-3.271516879648076
 40
-3.271516879648076
 40
-3.222342999562159
 40
-3.222342999562159
 40
-3.075760487521823
 40
-3.075760487521823
 40
-2.908994890068949
 40
-2.908994890068949
 40
-2.706317539053631
 40
-2.706317539053631
 40
-2.531583211411222
 40
-2.531583211411222
 40
-2.354322289708455
 40
-2.354322289708455
 40
-2.162856293862051
 40
-2.162856293862051
 40
-1.995635058289954
 40
-1.995635058289954
 40
-1.870614094148073
 40
-1.870614094148073
 40
-1.77765316190416
 40
-1.77765316190416
 40
-1.737876373527406
 40
-1.737876373527406
 40
-1.708569587915623
 40
-1.708569587915623
 40
-1.67759753243844
 40
-1.67759753243844
 40
-1.629510029901636
 40
-1.629510029901636
 40
-1.49514387547256
 40
-1.49514387547256
 40
-1.274685715457794
 40
-1.274685715457794
 40
-1.0731360304824
 40
-1.0731360304824
 40
-0.9227343317460663
 40
-0.9227343317460663
 40
-0.7786617880805702
 40
-0.7786617880805702
 40
-0.6125360661046729
 40
-0.6125360661046729
 40
-0.3879513966054244
 40
-0.3879513966054244
 40
-0.2081380036627772
 40
-0.2081380036627772
 40
-0.0765520961402888
 40
-0.0765520961402888
 40
-0.030511565745947
 40
-0.030511565745947
 40
0.0
 40
0.0
 40
0.0
 40
0.0
 10
946.2141497128577
 20
82.13373109091492
 30
0.0
 10
946.2146723849977
 20
82.13373109091492
 30
0.0
 10
946.2151749704185
 20
82.13371015132969
 30
0.0
 10
946.2175171448247
 20
82.13350590707946
 30
0.0
 10
946.2190717684277
 20
82.13303027377532
 30
0.0
 10
946.2222848009698
 20
82.13097407002905
 30
0.0
 10
946.2234685202068
 20
82.12892304769113
 30
0.0
 10
946.2252029080312
 20
82.11754726763743
 30
0.0
 10
946.2197559043749
 20
82.10216310299289
 30
0.0
 10
946.2001379303229
 20
82.05630888682822
 30
0.0
 10
946.1851440097934
 20
82.02431796654694
 30
0.0
 10
946.1518019232444
 20
81.94014323507522
 30
0.0
 10
946.1334006939926
 20
81.88487796369955
 30
0.0
 10
946.1091275121631
 20
81.77005992959243
 30
0.0
 10
946.1020589687846
 20
81.71322958269582
 30
0.0
 10
946.0993308716602
 20
81.59544142780351
 30
0.0
 10
946.1038972463221
 20
81.53677454891981
 30
0.0
 10
946.1236015063027
 20
81.4206760429052
 30
0.0
 10
946.1392761316233
 20
81.36549268066625
 30
0.0
 10
946.1712180609367
 20
81.27593635152337
 30
0.0
 10
946.1871145971665
 20
81.23989200506182
 30
0.0
 10
946.2095382029422
 20
81.18936034758892
 30
0.0
 10
946.2173733410361
 20
81.17171831884888
 30
0.0
 10
946.2242532652444
 20
81.14914958210746
 30
0.0
 10
946.224978931813
 20
81.14225188990397
 30
0.0
 10
946.2220429137023
 20
81.13639910963755
 30
0.0
 10
946.2206634554219
 20
81.13517343943911
 30
0.0
 10
946.2173857754068
 20
81.13394111849862
 30
0.0
 10
946.2157247966869
 20
81.13370054541332
 30
0.0
 10
946.211763457223
 20
81.13376972914485
 30
0.0
 10
946.2094379448215
 20
81.13411143029054
 30
0.0
 10
946.2027989538558
 20
81.13573457396112
 30
0.0
 10
946.1981134875308
 20
81.13742641857191
 30
0.0
 10
946.1782090077029
 20
81.14631823140582
 30
0.0
 10
946.1592503354504
 20
81.15790687652632
 30
0.0
 10
946.1044323680999
 20
81.19867927986668
 30
0.0
 10
946.0646601298899
 20
81.23511495740457
 30
0.0
 10
945.9943005956761
 20
81.32159269136264
 30
0.0
 10
945.9621779465567
 20
81.37138083561499
 30
0.0
 10
945.9199459096859
 20
81.4713627514355
 30
0.0
 10
945.9065127714882
 20
81.51782533303194
 30
0.0
 10
945.8937788512036
 20
81.61434350997424
 30
0.0
 10
945.8942110568139
 20
81.66199002658496
 30
0.0
 10
945.9093105450694
 20
81.76317166250631
 30
0.0
 10
945.9257014472829
 20
81.81365731864014
 30
0.0
 10
945.9760830007066
 20
81.92102816147723
 30
0.0
 10
946.0140116422058
 20
81.97347355882442
 30
0.0
 10
946.0825971635685
 20
82.0487154130585
 30
0.0
 10
946.114091288426
 20
82.07628924823845
 30
0.0
 10
946.1618100271909
 20
82.11118952646902
 30
0.0
 10
946.1801220419367
 20
82.12218245618412
 30
0.0
 10
946.1991674339911
 20
82.13042976442087
 30
0.0
 10
946.2035792805496
 20
82.1319634020206
 30
0.0
 10
946.2099188521124
 20
82.13343267090925
 30
0.0
 10
946.2121759221517
 20
82.13373109091492
 30
0.0
 10
946.2141497128577
 20
82.13373109091492
 30
0.0
  0
CIRCLE
  5
15368
330
1F
100
AcDbEntity
  8
AM_VIS
100
AcDbCircle
 10
939.8956244039942
 20
81.63373109091493
 30
0.0
 40
0.5
  0
LINE
  5
15369
330
1F
100
AcDbEntity
  8
AM_VIS
100
AcDbLine
 10
946.6456244039941
 20
89.63373109091492
 30
0.0
 11
946.6456244039941
 21
88.0337310909149
 31
0.0
  0
LINE
  5
1536A
330
1F
100
AcDbEntity
  8
AM_VIS
100
AcDbLine
 10
939.8956244039942
 20
95.13373109091492
 30
0.0
 11
939.8956244039942
 21
89.63373109091492
 31
0.0
  0
LINE
  5
1536B
330
1F
100
AcDbEntity
  8
AM_VIS
100
AcDbLine
 10
937.2281561587247
 20
95.13373109091492
 30
0.0
 11
937.2281561587247
 21
89.63373109091492
 31
0.0
  0
LINE
  5
1536C
330
1F
100
AcDbEntity
  8
AM_VIS
100
AcDbLine
 10
937.411168860617
 20
95.13373109091492
 30
0.0
 11
937.411168860617
 21
89.63373109091492
 31
0.0
  0
LINE
  5
1536D
330
1F
100
AcDbEntity
  8
AM_VIS
100
AcDbLine
 10
947.8956244039942
 20
95.13373109091492
 30
0.0
 11
947.8956244039942
 21
89.63373109091492
 31
0.0
  0
LINE
  5
1536E
330
1F
100
AcDbEntity
  8
AM_VIS
100
AcDbLine
 10
945.411168860617
 20
95.13373109091492
 30
0.0
 11
945.411168860617
 21
89.63373109091492
 31
0.0
  0
LINE
  5
1536F
330
1F
100
AcDbEntity
  8
AM_VIS
100
AcDbLine
 10
942.3800799473713
 20
89.63373109091492
 30
0.0
 11
942.3800799473713
 21
95.13373109091492
 31
0.0
  0
LINE
  5
15370
330
1F
100
AcDbEntity
  8
AM_VIS
100
AcDbLine
 10
942.5630926492635
 20
95.13373109091492
 30
0.0
 11
942.5630926492635
 21
89.63373109091492
 31
0.0
  0
LINE
  5
15371
330
1F
100
AcDbEntity
  8
AM_VIS
100
AcDbLine
 10
944.7281561587246
 20
95.13373109091492
 30
0.0
 11
944.7281561587246
 21
89.63373109091492
 31
0.0
  0
LINE
  5
15372
330
1F
100
AcDbEntity
  8
AM_VIS
100
AcDbLine
 10
937.2281561587247
 20
89.63373109091492
 30
0.0
 11
936.895624403994
 21
89.63373109091492
 31
0.0
  0
LINE
  5
15373
330
1F
100
AcDbEntity
  8
AM_VIS
100
AcDbLine
 10
937.411168860617
 20
89.63373109091492
 30
0.0
 11
937.2281561587247
 21
89.63373109091492
 31
0.0
  0
LINE
  5
15374
330
1F
100
AcDbEntity
  8
AM_VIS
100
AcDbLine
 10
937.411168860617
 20
89.63373109091492
 30
0.0
 11
939.8956244039942
 21
89.63373109091492
 31
0.0
  0
LINE
  5
15375
330
1F
100
AcDbEntity
  8
AM_VIS
100
AcDbLine
 10
939.8956244039942
 20
89.63373109091492
 30
0.0
 11
942.3800799473713
 21
89.63373109091492
 31
0.0
  0
LINE
  5
15376
330
1F
100
AcDbEntity
  8
AM_VIS
100
AcDbLine
 10
942.5630926492635
 20
89.63373109091492
 30
0.0
 11
942.3800799473713
 21
89.63373109091492
 31
0.0
  0
LINE
  5
15377
330
1F
100
AcDbEntity
  8
AM_VIS
100
AcDbLine
 10
944.7281561587246
 20
89.63373109091492
 30
0.0
 11
942.5630926492635
 21
89.63373109091492
 31
0.0
  0
LINE
  5
15378
330
1F
100
AcDbEntity
  8
AM_VIS
100
AcDbLine
 10
945.411168860617
 20
89.63373109091492
 30
0.0
 11
944.7281561587246
 21
89.63373109091492
 31
0.0
  0
LINE
  5
15379
330
1F
100
AcDbEntity
  8
AM_VIS
100
AcDbLine
 10
945.411168860617
 20
89.63373109091492
 30
0.0
 11
947.8956244039942
 21
89.63373109091492
 31
0.0
  0
LINE
  5
1537A
330
1F
100
AcDbEntity
  8
AM_VIS
100
AcDbLine
 10
945.411168860617
 20
95.13373109091492
 30
0.0
 11
947.8956244039942
 21
95.13373109091492
 31
0.0
  0
LINE
  5
1537B
330
1F
100
AcDbEntity
  8
AM_VIS
100
AcDbLine
 10
944.7281561587246
 20
95.13373109091492
 30
0.0
 11
945.411168860617
 21
95.13373109091492
 31
0.0
  0
LINE
  5
1537C
330
1F
100
AcDbEntity
  8
AM_VIS
100
AcDbLine
 10
942.5630926492635
 20
95.13373109091492
 30
0.0
 11
944.7281561587246
 21
95.13373109091492
 31
0.0
  0
LINE
  5
1537D
330
1F
100
AcDbEntity
  8
AM_VIS
100
AcDbLine
 10
942.3800799473713
 20
95.13373109091492
 30
0.0
 11
942.5630926492635
 21
95.13373109091492
 31
0.0
  0
LINE
  5
1537E
330
1F
100
AcDbEntity
  8
AM_VIS
100
AcDbLine
 10
939.8956244039942
 20
95.13373109091492
 30
0.0
 11
942.3800799473713
 21
95.13373109091492
 31
0.0
  0
LINE
  5
1537F
330
1F
100
AcDbEntity
  8
AM_VIS
100
AcDbLine
 10
937.411168860617
 20
95.13373109091492
 30
0.0
 11
939.8956244039942
 21
95.13373109091492
 31
0.0
  0
LINE
  5
15380
330
1F
100
AcDbEntity
  8
AM_VIS
100
AcDbLine
 10
937.2281561587247
 20
95.13373109091492
 30
0.0
 11
937.411168860617
 21
95.13373109091492
 31
0.0
  0
LINE
  5
15381
330
1F
100
AcDbEntity
  8
AM_VIS
100
AcDbLine
 10
936.895624403994
 20
95.13373109091492
 30
0.0
 11
937.2281561587247
 21
95.13373109091492
 31
0.0
  0
LINE
  5
15382
330
1F
100
AcDbEntity
  8
AM_VIS
100
AcDbLine
 10
937.895624403994
 20
88.0337310909149
 30
0.0
 11
948.8956244039941
 21
88.0337310909149
 31
0.0
  0
LINE
  5
15383
330
1F
100
AcDbEntity
  8
AM_VIS
100
AcDbLine
 10
948.8956244039941
 20
84.03373109091489
 30
0.0
 11
948.8956244039941
 21
88.0337310909149
 31
0.0
  0
LINE
  5
15384
330
1F
100
AcDbEntity
  8
AM_VIS
100
AcDbLine
 10
948.8956244039941
 20
80.88373109091492
 30
0.0
 11
948.8956244039941
 21
82.38373109091492
 31
0.0
  0
LINE
  5
15385
330
1F
100
AcDbEntity
  8
AM_VIS
100
AcDbLine
 10
948.8956244039941
 20
76.73373109091494
 30
0.0
 11
948.8956244039941
 21
77.9702526452499
 31
0.0
  0
LINE
  5
15386
330
1F
100
AcDbEntity
  8
AM_VIS
100
AcDbLine
 10
950.8956244039941
 20
46.53373109091489
 30
0.0
 11
946.8956244039942
 21
46.53373109091489
 31
0.0
  0
LINE
  5
15387
330
1F
100
AcDbEntity
  8
AM_VIS
100
AcDbLine
 10
946.8956244039942
 20
76.0337310909149
 30
0.0
 11
950.8956244039941
 21
76.0337310909149
 31
0.0
  0
LINE
  5
15388
330
1F
100
AcDbEntity
  8
AM_VIS
100
AcDbLine
 10
939.8956244039942
 20
46.53373109091489
 30
0.0
 11
946.8956244039942
 21
46.53373109091489
 31
0.0
  0
LINE
  5
15389
330
1F
100
AcDbEntity
  8
AM_VIS
100
AcDbLine
 10
946.8956244039942
 20
76.0337310909149
 30
0.0
 11
939.8956244039942
 21
76.0337310909149
 31
0.0
  0
LINE
  5
1538A
330
1F
100
AcDbEntity
  8
AM_VIS
100
AcDbLine
 10
950.8956244039941
 20
46.53373109091489
 30
0.0
 11
950.8956244039941
 21
76.0337310909149
 31
0.0
  0
LINE
  5
1538B
330
1F
100
AcDbEntity
  8
AM_VIS
100
AcDbLine
 10
943.8956244039941
 20
44.53373109091489
 30
0.0
 11
939.8956244039942
 21
44.53373109091489
 31
0.0
  0
LINE
  5
1538C
330
1F
100
AcDbEntity
  8
AM_VIS
100
AcDbLine
 10
943.8956244039941
 20
44.53373109091489
 30
0.0
 11
943.8956244039941
 21
46.53373109091489
 31
0.0
  0
LINE
  5
1538D
330
1F
100
AcDbEntity
  8
AM_VIS
100
AcDbLine
 10
950.8956244039941
 20
46.53373109091489
 30
0.0
 11
950.8956244039941
 21
44.53373109091489
 31
0.0
  0
LINE
  5
1538E
330
1F
100
AcDbEntity
  8
AM_VIS
100
AcDbLine
 10
943.8956244039941
 20
46.53373109091489
 30
0.0
 11
939.8956244039942
 21
46.53373109091489
 31
0.0
  0
LINE
  5
1538F
330
1F
100
AcDbEntity
  8
AM_VIS
100
AcDbLine
 10
948.3956244039941
 20
44.53373109091489
 30
0.0
 11
950.8956244039941
 21
44.53373109091489
 31
0.0
  0
LINE
  5
15390
330
1F
100
AcDbEntity
  8
AM_VIS
100
AcDbLine
 10
950.8956244039941
 20
29.5337310909149
 30
0.0
 11
950.8956244039941
 21
44.53373109091489
 31
0.0
  0
LINE
  5
15391
330
1F
100
AcDbEntity
  8
AM_VIS
100
AcDbLine
 10
948.3956244039941
 20
44.53373109091489
 30
0.0
 11
939.8956244039942
 21
44.53373109091489
 31
0.0
  0
LINE
  5
15429
330
1F
100
AcDbEntity
  8
AM_7
  6
AM_ISO08W050X2
100
AcDbLine
 10
764.422718491344
 20
178.2416682346162
 30
0.0
 11
771.172718491344
 21
178.2416682346162
 31
0.0
1001
GENIUS_GENOREF_13
1005
1542D
  0
LINE
  5
1542A
330
1F
100
AcDbEntity
  8
AM_7
  6
AM_ISO08W050X2
100
AcDbLine
 10
764.422718491344
 20
178.2416682346162
 30
0.0
 11
764.422718491344
 21
184.9916682346162
 31
0.0
1001
GENIUS_GENOREF_13
1005
1542D
  0
LINE
  5
1542B
330
1F
100
AcDbEntity
  8
AM_7
  6
AM_ISO08W050X2
100
AcDbLine
 10
764.422718491344
 20
178.2416682346162
 30
0.0
 11
757.672718491344
 21
178.2416682346162
 31
0.0
1001
GENIUS_GENOREF_13
1005
1542D
  0
LINE
  5
1542C
330
1F
100
AcDbEntity
  8
AM_7
  6
AM_ISO08W050X2
100
AcDbLine
 10
764.422718491344
 20
178.2416682346162
 30
0.0
 11
764.422718491344
 21
171.4916682346162
 31
0.0
1001
GENIUS_GENOREF_13
1005
1542D
  0
POINT
  5
1542D
330
1F
100
AcDbEntity
  8
0
 60
     1
100
AcDbPoint
 10
0.0
 20
0.0
 30
0.0
1001
GENIUS_GENODEF_13
1002
{
1000
HIER
1070
    10
1002
}
1002
{
1000
MANEDIT
1070
     0
1002
}
1002
{
1000
NOSEL
1070
     0
1002
}
1002
{
1000
BEHIND
1070
     0
1002
}
1002
{
1000
OTHER
1070
     0
1002
}
1002
{
1000
REACTOR
1002
}
1001
GENIUS_GENOENT_13
1002
{
1000
MYREF
1005
1542D
1002
}
1002
{
1000
GRP
1005
0
1002
}
1001
GENIUS_GENOBJ-N-CRS_13
1002
{
1000
OWNER
1000
GEN
1002
}
1001
GENIUS_GENOLIS_13
1002
{
1000
ENT
1005
1542C
1005
1542B
1005
1542A
1005
15429
1002
}
  0
LINE
  5
1543B
330
1F
100
AcDbEntity
  8
AM_7
  6
AM_ISO08W050X2
100
AcDbLine
 10
782.422718491344
 20
178.2416682346162
 30
0.0
 11
789.1727184913441
 21
178.2416682346162
 31
0.0
1001
GENIUS_GENOREF_13
1005
1543F
  0
LINE
  5
1543C
330
1F
100
AcDbEntity
  8
AM_7
  6
AM_ISO08W050X2
100
AcDbLine
 10
782.422718491344
 20
178.2416682346162
 30
0.0
 11
782.422718491344
 21
184.9916682346162
 31
0.0
1001
GENIUS_GENOREF_13
1005
1543F
  0
LINE
  5
1543D
330
1F
100
AcDbEntity
  8
AM_7
  6
AM_ISO08W050X2
100
AcDbLine
 10
782.422718491344
 20
178.2416682346162
 30
0.0
 11
775.672718491344
 21
178.2416682346162
 31
0.0
1001
GENIUS_GENOREF_13
1005
1543F
  0
LINE
  5
1543E
330
1F
100
AcDbEntity
  8
AM_7
  6
AM_ISO08W050X2
100
AcDbLine
 10
782.422718491344
 20
178.2416682346162
 30
0.0
 11
782.422718491344
 21
171.4916682346162
 31
0.0
1001
GENIUS_GENOREF_13
1005
1543F
  0
POINT
  5
1543F
330
1F
100
AcDbEntity
  8
0
 60
     1
100
AcDbPoint
 10
0.0
 20
0.0
 30
0.0
1001
GENIUS_GENOLIS_13
1002
{
1000
ENT
1005
1543E
1005
1543D
1005
1543C
1005
1543B
1002
}
1001
GENIUS_GENOENT_13
1002
{
1000
MYREF
1005
1543F
1002
}
1002
{
1000
GRP
1005
0
1002
}
1001
GENIUS_GENOBJ-N-CRS_13
1002
{
1000
OWNER
1000
GEN
1002
}
1001
GENIUS_GENODEF_13
1002
{
1000
HIER
1070
    10
1002
}
1002
{
1000
MANEDIT
1070
     0
1002
}
1002
{
1000
NOSEL
1070
     0
1002
}
1002
{
1000
BEHIND
1070
     0
1002
}
1002
{
1000
OTHER
1070
     0
1002
}
1002
{
1000
REACTOR
1002
}
  0
LINE
  5
1544D
330
1F
100
AcDbEntity
  8
AM_7
  6
AM_ISO08W050X2
100
AcDbLine
 10
755.4227184913441
 20
150.2416682346162
 30
0.0
 11
762.172718491344
 21
150.2416682346162
 31
0.0
1001
GENIUS_GENOREF_13
1005
15451
  0
LINE
  5
1544E
330
1F
100
AcDbEntity
  8
AM_7
  6
AM_ISO08W050X2
100
AcDbLine
 10
755.4227184913441
 20
150.2416682346162
 30
0.0
 11
755.4227184913441
 21
156.9916682346162
 31
0.0
1001
GENIUS_GENOREF_13
1005
15451
  0
LINE
  5
1544F
330
1F
100
AcDbEntity
  8
AM_7
  6
AM_ISO08W050X2
100
AcDbLine
 10
755.4227184913441
 20
150.2416682346162
 30
0.0
 11
748.6727184913441
 21
150.2416682346162
 31
0.0
1001
GENIUS_GENOREF_13
1005
15451
  0
LINE
  5
15450
330
1F
100
AcDbEntity
  8
AM_7
  6
AM_ISO08W050X2
100
AcDbLine
 10
755.4227184913441
 20
150.2416682346162
 30
0.0
 11
755.4227184913441
 21
143.4916682346162
 31
0.0
1001
GENIUS_GENOREF_13
1005
15451
  0
POINT
  5
15451
330
1F
100
AcDbEntity
  8
0
 60
     1
100
AcDbPoint
 10
0.0
 20
0.0
 30
0.0
1001
GENIUS_GENODEF_13
1002
{
1000
HIER
1070
    10
1002
}
1002
{
1000
MANEDIT
1070
     0
1002
}
1002
{
1000
NOSEL
1070
     0
1002
}
1002
{
1000
BEHIND
1070
     0
1002
}
1002
{
1000
OTHER
1070
     0
1002
}
1002
{
1000
REACTOR
1002
}
1001
GENIUS_GENOBJ-N-CRS_13
1002
{
1000
OWNER
1000
GEN
1002
}
1001
GENIUS_GENOENT_13
1002
{
1000
MYREF
1005
15451
1002
}
1002
{
1000
GRP
1005
0
1002
}
1001
GENIUS_GENOLIS_13
1002
{
1000
ENT
1005
15450
1005
1544F
1005
1544E
1005
1544D
1002
}
  0
LINE
  5
1545F
330
1F
100
AcDbEntity
  8
AM_7
  6
AM_ISO08W050X2
100
AcDbLine
 10
791.4227184913441
 20
150.2416682346162
 30
0.0
 11
798.1727184913441
 21
150.2416682346162
 31
0.0
1001
GENIUS_GENOREF_13
1005
15463
  0
LINE
  5
15460
330
1F
100
AcDbEntity
  8
AM_7
  6
AM_ISO08W050X2
100
AcDbLine
 10
791.4227184913441
 20
150.2416682346162
 30
0.0
 11
791.4227184913441
 21
156.9916682346162
 31
0.0
1001
GENIUS_GENOREF_13
1005
15463
  0
LINE
  5
15461
330
1F
100
AcDbEntity
  8
AM_7
  6
AM_ISO08W050X2
100
AcDbLine
 10
791.4227184913441
 20
150.2416682346162
 30
0.0
 11
784.6727184913441
 21
150.2416682346162
 31
0.0
1001
GENIUS_GENOREF_13
1005
15463
  0
LINE
  5
15462
330
1F
100
AcDbEntity
  8
AM_7
  6
AM_ISO08W050X2
100
AcDbLine
 10
791.4227184913441
 20
150.2416682346162
 30
0.0
 11
791.4227184913441
 21
143.4916682346162
 31
0.0
1001
GENIUS_GENOREF_13
1005
15463
  0
POINT
  5
15463
330
1F
100
AcDbEntity
  8
0
 60
     1
100
AcDbPoint
 10
0.0
 20
0.0
 30
0.0
1001
GENIUS_GENODEF_13
1002
{
1000
HIER
1070
    10
1002
}
1002
{
1000
MANEDIT
1070
     0
1002
}
1002
{
1000
NOSEL
1070
     0
1002
}
1002
{
1000
BEHIND
1070
     0
1002
}
1002
{
1000
OTHER
1070
     0
1002
}
1002
{
1000
REACTOR
1002
}
1001
GENIUS_GENOENT_13
1002
{
1000
MYREF
1005
15463
1002
}
1002
{
1000
GRP
1005
0
1002
}
1001
GENIUS_GENOBJ-N-CRS_13
1002
{
1000
OWNER
1000
GEN
1002
}
1001
GENIUS_GENOLIS_13
1002
{
1000
ENT
1005
15462
1005
15461
1005
15460
1005
1545F
1002
}
  0
LINE
  5
1547B
330
1F
100
AcDbEntity
  8
AM_7
100
AcDbLine
 10
691.9227184913441
 20
169.7416682346162
 30
0.0
 11
702.922718491344
 21
169.7416682346162
 31
0.0
1001
GENIUS_GENOREF_13
1005
1547F
  0
LINE
  5
1547C
330
1F
100
AcDbEntity
  8
AM_7
100
AcDbLine
 10
691.9227184913441
 20
169.7416682346162
 30
0.0
 11
691.9227184913441
 21
180.7416682346162
 31
0.0
1001
GENIUS_GENOREF_13
1005
1547F
  0
LINE
  5
1547D
330
1F
100
AcDbEntity
  8
AM_7
100
AcDbLine
 10
691.9227184913441
 20
169.7416682346162
 30
0.0
 11
680.922718491344
 21
169.7416682346162
 31
0.0
1001
GENIUS_GENOREF_13
1005
1547F
  0
LINE
  5
1547E
330
1F
100
AcDbEntity
  8
AM_7
100
AcDbLine
 10
691.9227184913441
 20
169.7416682346162
 30
0.0
 11
691.9227184913441
 21
158.7416682346162
 31
0.0
1001
GENIUS_GENOREF_13
1005
1547F
  0
POINT
  5
1547F
330
1F
100
AcDbEntity
  8
0
 60
     1
100
AcDbPoint
 10
0.0
 20
0.0
 30
0.0
1001
GENIUS_GENODEF_13
1002
{
1000
HIER
1070
    10
1002
}
1002
{
1000
MANEDIT
1070
     0
1002
}
1002
{
1000
NOSEL
1070
     0
1002
}
1002
{
1000
BEHIND
1070
     0
1002
}
1002
{
1000
OTHER
1070
     0
1002
}
1002
{
1000
REACTOR
1002
}
1001
GENIUS_GENOLIS_13
1002
{
1000
ENT
1005
1547E
1005
1547D
1005
1547C
1005
1547B
1002
}
1001
GENIUS_GENOENT_13
1002
{
1000
MYREF
1005
1547F
1002
}
1002
{
1000
GRP
1005
0
1002
}
1001
GENIUS_GENOBJ-N-CRS_13
1002
{
1000
OWNER
1000
GEN
1002
}
  0
LINE
  5
1548D
330
1F
100
AcDbEntity
  8
AM_7
100
AcDbLine
 10
854.9227184913441
 20
158.7416682346162
 30
0.0
 11
865.922718491344
 21
158.7416682346162
 31
0.0
1001
GENIUS_GENOREF_13
1005
15491
  0
LINE
  5
1548E
330
1F
100
AcDbEntity
  8
AM_7
100
AcDbLine
 10
854.9227184913441
 20
158.7416682346162
 30
0.0
 11
854.9227184913441
 21
169.7416682346162
 31
0.0
1001
GENIUS_GENOREF_13
1005
15491
  0
LINE
  5
1548F
330
1F
100
AcDbEntity
  8
AM_7
100
AcDbLine
 10
854.9227184913441
 20
158.7416682346162
 30
0.0
 11
843.9227184913441
 21
158.7416682346162
 31
0.0
1001
GENIUS_GENOREF_13
1005
15491
  0
LINE
  5
15490
330
1F
100
AcDbEntity
  8
AM_7
100
AcDbLine
 10
854.9227184913441
 20
158.7416682346162
 30
0.0
 11
854.9227184913441
 21
147.7416682346162
 31
0.0
1001
GENIUS_GENOREF_13
1005
15491
  0
POINT
  5
15491
330
1F
100
AcDbEntity
  8
0
 60
     1
100
AcDbPoint
 10
0.0
 20
0.0
 30
0.0
1001
GENIUS_GENOLIS_13
1002
{
1000
ENT
1005
15490
1005
1548F
1005
1548E
1005
1548D
1002
}
1001
GENIUS_GENOENT_13
1002
{
1000
MYREF
1005
15491
1002
}
1002
{
1000
GRP
1005
0
1002
}
1001
GENIUS_GENOBJ-N-CRS_13
1002
{
1000
OWNER
1000
GEN
1002
}
1001
GENIUS_GENODEF_13
1002
{
1000
HIER
1070
    10
1002
}
1002
{
1000
MANEDIT
1070
     0
1002
}
1002
{
1000
NOSEL
1070
     0
1002
}
1002
{
1000
BEHIND
1070
     0
1002
}
1002
{
1000
OTHER
1070
     0
1002
}
1002
{
1000
REACTOR
1002
}
  0
DIMENSION
  5
156BA
330
1F
100
AcDbEntity
  8
AM_5
100
AcDbDimension
  2
*D2
 10
670.6851141843102
 20
178.2416682346163
 30
0.0
 11
667.497183574074
 21
164.2416682346164
 31
0.0
 70
    32
  3
STANDARD
100
AcDbAlignedDimension
 13
748.6727184913441
 23
150.2416682346162
 33
0.0
 14
757.672718491344
 24
178.2416682346162
 34
0.0
 50
90.0
100
AcDbRotatedDimension
1001
ACAD
1000
DSTYLE
1002
{
1070
    40
1040
1.25
1002
}
  0
DIMENSION
  5
156DE
330
1F
100
AcDbEntity
  8
AM_5
100
AcDbDimension
  2
*D3
 10
782.422718491344
 20
198.7416692346162
 30
0.0
 11
773.422718491344
 21
201.9291692346162
 31
0.0
 70
    32
  3
STANDARD
100
AcDbAlignedDimension
 13
764.422718491344
 23
184.9916682346162
 33
0.0
 14
782.422718491344
 24
184.9916682346162
 34
0.0
100
AcDbRotatedDimension
1001
ACAD
1000
DSTYLE
1002
{
1070
    40
1040
1.25
1002
}
  0
DIMENSION
  5
15702
330
1F
100
AcDbEntity
  8
AM_5
100
AcDbDimension
  2
*D4
 10
791.4227184913441
 20
129.7416682346162
 30
0.0
 11
773.422718491344
 21
132.9291682346162
 31
0.0
 70
    32
  3
STANDARD
100
AcDbAlignedDimension
 13
755.4227184913441
 23
143.4916682346162
 33
0.0
 14
791.4227184913441
 24
143.4916682346162
 34
0.0
 50
0.0000000000002036
100
AcDbRotatedDimension
1001
ACAD
1000
DSTYLE
1002
{
1070
    40
1040
1.25
1002
}
  0
DIMENSION
  5
15726
330
1F
100
AcDbEntity
  8
AM_5
100
AcDbDimension
  2
*D5
 10
876.1603227983782
 20
147.7416682346162
 30
0.0
 11
872.9728227983782
 21
144.7416682346163
 31
0.0
 70
    32
  3
STANDARD
100
AcDbAlignedDimension
 13
826.9227184913441
 23
141.7416682346162
 33
0.0
 14
833.4227184913441
 24
147.7416682346162
 34
0.0
 50
90.0
100
AcDbRotatedDimension
1001
ACAD
1000
DSTYLE
1002
{
1070
    40
1040
1.25
1070
   173
1070
     1
1070
     7
1000
GENDOT
1002
}
  0
DIMENSION
  5
15758
330
1F
100
AcDbEntity
  8
AM_5
100
AcDbDimension
  2
*D6
 10
876.1603227983782
 20
147.7416682346162
 30
0.0
 11
872.9723921881419
 21
158.7416682346163
 31
0.0
 70
    32
  3
STANDARD
100
AcDbAlignedDimension
 13
833.4227184913441
 23
169.7416682346162
 33
0.0
 14
833.4227184913441
 24
147.7416682346162
 34
0.0
 50
90.0
100
AcDbRotatedDimension
1001
ACAD
1000
DSTYLE
1002
{
1070
    40
1040
1.25
1070
   173
1070
     1
1070
     7
1000
GENDOT
1002
}
  0
DIMENSION
  5
157A9
330
1F
100
AcDbEntity
  8
AM_5
100
AcDbDimension
  2
*D7
 10
670.9227184913441
 20
84.03373109091493
 30
0.0
 11
667.735218491344
 21
43.78373109091502
 31
0.0
 70
    32
  3
STANDARD
100
AcDbAlignedDimension
 13
719.922718491344
 23
3.533731090914905
 33
0.0
 14
721.4227184913441
 24
84.03373109091491
 34
0.0
 50
90.0
100
AcDbRotatedDimension
1001
ACAD
1000
DSTYLE
1002
{
1070
    40
1040
1.25
1002
}
  0
DIMENSION
  5
157CD
330
1F
100
AcDbEntity
  8
AM_5
100
AcDbDimension
  2
*D8
 10
863.922718491344
 20
-8.46626890908498
 30
0.0
 11
773.422718491344
 21
-5.27876890908498
 31
0.0
 70
    32
  3
STANDARD
100
AcDbAlignedDimension
 13
682.9227184913441
 23
76.03373109091492
 33
0.0
 14
863.922718491344
 24
76.03373109091487
 34
0.0
 50
0.0000000000001018
100
AcDbRotatedDimension
1001
ACAD
1000
DSTYLE
1002
{
1070
    40
1040
1.25
1002
}
  0
DIMENSION
  5
1581B
330
1F
100
AcDbEntity
  8
AM_5
100
AcDbDimension
  2
*D9
 10
899.8956244039941
 20
29.5337310909149
 30
0.0
 11
896.7076937937578
 21
16.53373109091504
 31
0.0
 70
    32
  3
STANDARD
100
AcDbAlignedDimension
 13
911.895624403994
 23
3.533731090914898
 33
0.0
 14
911.895624403994
 24
29.5337310909149
 34
0.0
 50
90.0
100
AcDbRotatedDimension
1001
ACAD
1000
DSTYLE
1002
{
1070
    40
1040
1.25
1002
}
  0
DIMENSION
  5
1583F
330
1F
100
AcDbEntity
  8
AM_5
100
AcDbDimension
  2
*D10
 10
889.8956244039942
 20
95.13373109091489
 30
0.0
 11
886.7066364459022
 21
49.33373109091504
 31
0.0
 70
    32
  3
STANDARD
100
AcDbAlignedDimension
 13
911.895624403994
 23
3.533731090914898
 33
0.0
 14
920.895624403994
 24
95.13373109091489
 34
0.0
 50
90.0
100
AcDbRotatedDimension
1001
ACAD
1000
DSTYLE
1002
{
1070
    40
1040
1.25
1070
   271
1070
     0
1002
}
  0
INSERT
  5
15C72
330
1F
100
AcDbEntity
  8
AM_5
100
AcDbBlockReference
  2
*S14
 10
0.0
 20
0.0
 30
0.0
  0
TEXT
  5
15C73
330
1F
100
AcDbEntity
  8
圖層4
 62
     5
100
AcDbText
 10
801.798107844298
 20
199.7336649981936
 30
0.0
 40
4.4
  1
4-%%c5.2 通孔
 41
0.9
100
AcDbText
  0
TEXT
  5
15C74
330
1F
100
AcDbEntity
  8
圖層4
 62
     5
100
AcDbText
 10
801.798107844298
 20
192.6560846091301
 30
0.0
 40
4.4
  1
4-%%c9.5x7 深
 41
0.9
100
AcDbText
  0
DIMENSION
  5
15F13
330
1F
100
AcDbEntity
  8
AM_5
100
AcDbDimension
  2
*D12
 10
826.9227184913441
 20
119.7416682346163
 30
0.0
 11
773.422718491344
 21
122.9291682346163
 31
0.0
 70
    32
  3
STANDARD
100
AcDbAlignedDimension
 13
719.922718491344
 23
141.7416682346162
 33
0.0
 14
826.9227184913441
 24
141.7416682346162
 34
0.0
 50
0.0000000000001018
100
AcDbRotatedDimension
1001
ACAD
1000
DSTYLE
1002
{
1070
    40
1040
1.25
1002
}
  0
DIMENSION
  5
15F62
330
1F
100
AcDbEntity
  8
AM_5
100
AcDbDimension
  2
*D13
 10
660.6851141843101
 20
141.7416682346162
 30
0.0
 11
657.4976141843101
 21
164.2416682346164
 31
0.0
 70
    32
  3
STANDARD
100
AcDbAlignedDimension
 13
719.922718491344
 23
186.7416682346162
 33
0.0
 14
719.922718491344
 24
141.7416682346162
 34
0.0
 50
90.00000000000003
100
AcDbRotatedDimension
1001
ACAD
1000
DSTYLE
1002
{
1070
    40
1040
1.25
1002
}
  0
POLYLINE
  5
16463
330
1F
100
AcDbEntity
  8
0
 62
     4
100
AcDb2dPolyline
 66
     1
 10
0.0
 20
0.0
 30
0.0
 70
     1
  0
VERTEX
  5
166D4
330
16463
100
AcDbEntity
  8
0
 62
     4
100
AcDbVertex
100
AcDb2dVertex
 10
650.46608371472
 20
263.7474219576365
 30
0.0
  0
VERTEX
  5
166D5
330
16463
100
AcDbEntity
  8
0
 62
     4
100
AcDbVertex
100
AcDb2dVertex
 10
969.0704818568777
 20
263.7474219576365
 30
0.0
  0
VERTEX
  5
166D6
330
16463
100
AcDbEntity
  8
0
 62
     4
100
AcDbVertex
100
AcDb2dVertex
 10
969.0704818568777
 20
-28.90305078455753
 30
0.0
  0
VERTEX
  5
166D7
330
16463
100
AcDbEntity
  8
0
 62
     4
100
AcDbVertex
100
AcDb2dVertex
 10
650.46608371472
 20
-28.90305078455753
 30
0.0
  0
SEQEND
  5
166D8
330
16463
100
AcDbEntity
  8
0
 62
     4
  0
LINE
  5
16464
330
1F
100
AcDbEntity
  8
0
 62
     7
100
AcDbLine
 10
863.6014346562092
 20
227.2198040267763
 30
0.0
 11
909.4693383227058
 21
227.2198040267763
 31
0.0
  0
LINE
  5
16465
330
1F
100
AcDbEntity
  8
0
 62
     7
100
AcDbLine
 10
849.5176208134131
 20
243.0764121062771
 30
0.0
 11
923.5531521655021
 21
243.0764121062771
 31
0.0
  0
TEXT
  5
16466
330
1F
100
AcDbEntity
  8
0
100
AcDbText
 10
668.4361123611649
 20
239.5465041278611
 30
0.0
 40
10.0
  1
MVSI-450-4E2
  7
ROMAND
100
AcDbText
  0
TEXT
  5
16467
330
1F
100
AcDbEntity
  8
0
 62
     7
100
AcDbText
 10
865.1879271553543
 20
244.0962795492592
 30
0.0
 40
5.76
  1
A
  7
ROMANS
100
AcDbText
  0
LINE
  5
16468
330
1F
100
AcDbEntity
  8
0
 62
     7
100
AcDbLine
 10
871.0118431180895
 20
230.4394171866935
 30
0.0
 11
866.7462325709193
 21
230.4394171866935
 31
0.0
  0
TEXT
  5
16469
330
1F
100
AcDbEntity
  8
0
 62
     7
100
AcDbText
 10
863.1341630194429
 20
220.0430611394996
 30
0.0
 40
5.76
  1
R
  7
ROMANS
100
AcDbText
  0
LINE
  5
1646A
330
1F
100
AcDbEntity
  8
0
 62
     7
100
AcDbLine
 10
858.2935325273757
 20
243.0764121062771
 30
0.0
 11
858.2935325273757
 21
235.1481080665263
 31
0.0
  0
LINE
  5
1646B
330
1F
100
AcDbEntity
  8
0
 62
     7
100
AcDbLine
 10
862.5105474122033
 20
239.112260086402
 30
0.0
 11
858.2935325273757
 21
235.1481080665263
 31
0.0
  0
LINE
  5
1646C
330
1F
100
AcDbEntity
  8
0
 62
     7
100
AcDbLine
 10
849.5176208134131
 20
235.1481080665267
 30
0.0
 11
849.5176208134131
 21
243.0764121062771
 31
0.0
  0
LINE
  5
1646D
330
1F
100
AcDbEntity
  8
0
 62
     7
100
AcDbLine
 10
856.0140841128081
 20
243.0764121062771
 30
0.0
 11
852.3531518106242
 21
235.1481080665267
 31
0.0
  0
LINE
  5
1646E
330
1F
100
AcDbEntity
  8
0
 62
     7
100
AcDbLine
 10
863.6014346562092
 20
243.0764121062771
 30
0.0
 11
863.6014346562092
 21
227.2198040267763
 31
0.0
  0
LINE
  5
1646F
330
1F
100
AcDbEntity
  8
0
 62
     7
100
AcDbLine
 10
863.6014346562092
 20
235.1481080665267
 30
0.0
 11
849.5176208134131
 21
235.1481080665267
 31
0.0
  0
LINE
  5
16470
330
1F
100
AcDbEntity
  8
0
 62
     7
100
AcDbLine
 10
862.5105474122033
 20
239.112260086402
 30
0.0
 11
858.2935325273757
 21
243.0764121062771
 31
0.0
  0
LINE
  5
16471
330
1F
100
AcDbEntity
  8
0
 62
     7
100
AcDbLine
 10
886.5353864894577
 20
243.0764121062771
 30
0.0
 11
886.5353864894577
 21
227.2198040267763
 31
0.0
  0
LINE
  5
16472
330
1F
100
AcDbEntity
  8
0
 62
     7
100
AcDbLine
 10
872.1352214034423
 20
237.5126793468522
 30
0.0
 11
874.893189033251
 21
227.2198040267763
 31
0.0
  0
LINE
  5
16473
330
1F
100
AcDbEntity
  8
0
 62
     7
100
AcDbLine
 10
879.5962586916767
 20
232.7835367862018
 30
0.0
 11
876.8382910618679
 21
243.0764121062771
 31
0.0
  0
TEXT
  5
16474
330
1F
100
AcDbEntity
  8
0
 62
     7
100
AcDbText
 10
872.0996333819789
 20
220.0257882716233
 30
0.0
 40
5.76
  1
P
  7
ROMANS
100
AcDbText
  0
TEXT
  5
16475
330
1F
100
AcDbEntity
  8
0
 62
     7
100
AcDbText
 10
868.3955927104397
 20
220.3269818962709
 30
0.0
 40
3.839999999999999
  1
1
  7
ROMANS
100
AcDbText
  0
LINE
  5
16476
330
1F
100
AcDbEntity
  8
0
 62
     7
100
AcDbLine
 10
868.8790378445041
 20
230.4394171866935
 30
0.0
 11
868.8790378445041
 21
227.2198040267763
 31
0.0
  0
TEXT
  5
16477
330
1F
100
AcDbEntity
  8
0
 62
     7
100
AcDbText
 10
878.8928532161472
 20
219.9120548709198
 30
0.0
 40
5.76
  1
R
  7
ROMANS
100
AcDbText
  0
TEXT
  5
16478
330
1F
100
AcDbEntity
  8
0
 62
     7
100
AcDbText
 10
885.0231831184906
 20
219.993931541596
 30
0.0
 40
3.839999999999999
  1
2
  7
ROMANS
100
AcDbText
  0
SOLID
  5
16479
330
1F
100
AcDbEntity
  8
0
 62
     7
100
AcDbTrace
 10
878.6689698984391
 20
232.5350705029033
 30
0.0
 11
880.5235474849141
 21
233.0320030694998
 31
0.0
 12
881.0870563914672
 22
227.2198040267768
 32
0.0
 13
881.0870563914672
 23
227.2198040267768
 33
0.0
  0
TEXT
  5
1647A
330
1F
100
AcDbEntity
  8
0
 62
     7
100
AcDbText
 10
876.1281707254971
 20
244.2236974806238
 30
0.0
 40
5.76
  1
B
  7
ROMANS
100
AcDbText
  0
SOLID
  5
1647B
330
1F
100
AcDbEntity
  8
0
 62
     7
100
AcDbTrace
 10
871.2079326102047
 20
237.2642130635536
 30
0.0
 11
873.0625101966797
 21
237.7611456301502
 31
0.0
 12
870.6444237036517
 22
243.0764121062771
 32
0.0
 13
870.6444237036517
 23
243.0764121062771
 33
0.0
  0
LINE
  5
1647C
330
1F
100
AcDbEntity
  8
0
 62
     7
100
AcDbLine
 10
910.5602255667118
 20
239.112260086402
 30
0.0
 11
914.7772404515395
 21
235.1481080665263
 31
0.0
  0
LINE
  5
1647D
330
1F
100
AcDbEntity
  8
0
 62
     7
100
AcDbLine
 10
910.5602255667118
 20
239.112260086402
 30
0.0
 11
914.7772404515395
 21
243.0764121062771
 31
0.0
  0
LINE
  5
1647E
330
1F
100
AcDbEntity
  8
0
 62
     7
100
AcDbLine
 10
909.4693383227058
 20
235.1481080665267
 30
0.0
 11
923.5531521655021
 21
235.1481080665267
 31
0.0
  0
LINE
  5
1647F
330
1F
100
AcDbEntity
  8
0
 62
     7
100
AcDbLine
 10
898.4552243985618
 20
237.3164121062774
 30
0.0
 11
898.4552243985618
 21
227.2198040267763
 31
0.0
  0
LINE
  5
16480
330
1F
100
AcDbEntity
  8
0
 62
     7
100
AcDbLine
 10
909.4693383227058
 20
243.0764121062771
 30
0.0
 11
909.4693383227058
 21
227.2198040267763
 31
0.0
  0
LINE
  5
16481
330
1F
100
AcDbEntity
  8
0
 62
     7
100
AcDbLine
 10
891.836173549505
 20
232.9798040267766
 30
0.0
 11
891.836173549505
 21
243.0764121062771
 31
0.0
  0
SOLID
  5
16482
330
1F
100
AcDbEntity
  8
0
 62
     7
100
AcDbTrace
 10
892.7961735495051
 20
232.9798040267766
 30
0.0
 11
890.8761735495049
 21
232.9798040267766
 31
0.0
 12
891.836173549505
 22
227.2198040267768
 32
0.0
 13
891.836173549505
 23
227.2198040267768
 33
0.0
  0
LINE
  5
16483
330
1F
100
AcDbEntity
  8
0
 62
     7
100
AcDbLine
 10
902.058929860826
 20
230.4394171866935
 30
0.0
 11
906.3245404079957
 21
230.4394171866935
 31
0.0
  0
LINE
  5
16484
330
1F
100
AcDbEntity
  8
0
 62
     7
100
AcDbLine
 10
904.1917351344109
 20
230.4394171866935
 30
0.0
 11
904.1917351344109
 21
227.2198040267763
 31
0.0
  0
SOLID
  5
16485
330
1F
100
AcDbEntity
  8
0
 62
     7
100
AcDbTrace
 10
899.4152243985618
 20
237.3164121062774
 30
0.0
 11
897.4952243985617
 21
237.3164121062774
 31
0.0
 12
898.4552243985618
 22
243.0764121062771
 32
0.0
 13
898.4552243985618
 23
243.0764121062771
 33
0.0
  0
LINE
  5
16486
330
1F
100
AcDbEntity
  8
0
 62
     7
100
AcDbLine
 10
923.5531521655021
 20
235.1481080665267
 30
0.0
 11
923.5531521655021
 21
243.0764121062771
 31
0.0
  0
LINE
  5
16487
330
1F
100
AcDbEntity
  8
0
 62
     7
100
AcDbLine
 10
914.7772404515395
 20
243.0764121062771
 30
0.0
 11
914.7772404515395
 21
235.1481080665263
 31
0.0
  0
LINE
  5
16488
330
1F
100
AcDbEntity
  8
0
 62
     7
100
AcDbLine
 10
917.0566888661069
 20
243.0764121062771
 30
0.0
 11
920.7176211682913
 21
235.1481080665267
 31
0.0
  0
TEXT
  5
16489
330
1F
100
AcDbEntity
  8
LOGO
  6
CONTINUOUS
 62
     5
100
AcDbText
 10
653.4307749900481
 20
-66.25736240998219
 30
0.0
 40
3.917267190272429
  1
MINDMAN INDUSTRIAL CO.,LTD
 41
0.85
  7
CHINESET
100
AcDbText
  0
TEXT
  5
1648A
330
1F
100
AcDbEntity
  8
LOGO
  6
CONTINUOUS
 62
     5
100
AcDbText
 10
651.7482714056513
 20
-60.38031040870805
 30
0.0
 40
5.875900785408644
  1
金器工業股份有限公司
 41
0.8
  7
LOGO
100
AcDbText
  0
LINE
  5
1648B
330
1F
100
AcDbEntity
  8
LOGO
 62
     1
100
AcDbLine
 10
969.0704818568777
 20
-68.07572268728183
 30
0.0
 11
650.46608371472
 21
-68.07572268728183
 31
0.0
  0
LINE
  5
1648C
330
1F
100
AcDbEntity
  8
LOGO
 62
     1
100
AcDbLine
 10
969.0704818568777
 20
-28.90305078455753
 30
0.0
 11
650.46608371472
 21
-28.90305078455753
 31
0.0
  0
TEXT
  5
1648D
330
1F
100
AcDbEntity
  8
LOGO
 62
     6
100
AcDbText
 10
683.7920011652967
 20
-42.55838331573974
 30
0.0
 40
3.917267190272429
  1
投影 View:
 41
0.9
  7
CHINESET
 72
     4
 11
694.8617785378075
 21
-40.65485235537482
 31
0.0
100
AcDbText
  0
LINE
  5
1648E
330
1F
100
AcDbEntity
  8
LOGO
 62
     1
100
AcDbLine
 10
736.6459619007135
 20
-52.40665392619206
 30
0.0
 11
650.46608371472
 21
-52.40665392619206
 31
0.0
  0
LINE
  5
1648F
330
1F
100
AcDbEntity
  8
LOGO
 62
     1
100
AcDbLine
 10
736.6459619007135
 20
-44.57211954564724
 30
0.0
 11
679.1927097767179
 21
-44.57211954564724
 31
0.0
  0
LINE
  5
16490
330
1F
100
AcDbEntity
  8
LOGO
 62
     1
100
AcDbLine
 10
736.6459619007135
 20
-36.73758516510241
 30
0.0
 11
679.1927097767179
 21
-36.73758516510241
 31
0.0
  0
TEXT
  5
16491
330
1F
100
AcDbEntity
  8
LOGO
 62
     6
100
AcDbText
 10
682.422706428697
 20
-34.77702378099457
 30
0.0
 40
3.917267190272429
  1
比例 Scale:
 41
0.9
  7
CHINESET
 72
     4
 11
694.8617785378075
 21
-32.82031797482995
 31
0.0
100
AcDbText
  0
TEXT
  5
16492
330
1F
100
AcDbEntity
  8
LOGO
 62
     6
100
AcDbText
 10
684.1749839843457
 20
-50.44802033105592
 30
0.0
 40
3.917267190272429
  1
單位 Unit:
 41
0.9
  7
CHINESET
 72
     4
 11
694.8617785378075
 21
-48.48938673591971
 31
0.0
100
AcDbText
  0
SOLID
  5
16493
330
1F
100
AcDbEntity
  8
LOGO
 62
     2
100
AcDbTrace
 10
664.9846738565679
 20
-45.89475480144176
 30
0.0
 11
665.6855249782165
 21
-45.89475480144176
 31
0.0
 12
673.745312877168
 22
-29.83358326367426
 32
0.0
 13
674.4461639988166
 23
-29.83358326367545
 33
0.0
  0
POLYLINE
  5
16494
330
1F
100
AcDbEntity
  8
LOGO
 62
     5
100
AcDb2dPolyline
 66
     1
 10
0.0
 20
0.0
 30
0.0
 70
     1
 40
0.5849785670806828
 41
0.5849785670806828
  0
VERTEX
  5
166D9
330
16494
100
AcDbEntity
  8
LOGO
 62
     5
100
AcDbVertex
100
AcDb2dVertex
 10
670.4923094009487
 20
-50.27507431174218
 30
0.0
 42
1.0
  0
VERTEX
  5
166DA
330
16494
100
AcDbEntity
  8
LOGO
 62
     5
100
AcDbVertex
100
AcDb2dVertex
 10
672.8322236692713
 20
-50.27507431174218
 30
0.0
 42
1.0
  0
SEQEND
  5
166DB
330
16494
100
AcDbEntity
  8
LOGO
 62
     5
  0
SOLID
  5
16495
330
1F
100
AcDbEntity
  8
LOGO
 62
     5
100
AcDbTrace
 10
665.6855249782165
 20
-45.89475480144176
 30
0.0
 11
667.3792485221988
 21
-45.89475480144176
 31
0.0
 12
673.745312877168
 22
-31.11847698669623
 32
0.0
 13
672.0515893331853
 23
-37.32879664796655
 33
0.0
  0
SOLID
  5
16496
330
1F
100
AcDbEntity
  8
LOGO
 62
     5
100
AcDbTrace
 10
665.6855249782165
 20
-44.60986107842091
 30
0.0
 11
667.3792485221988
 21
-38.39954141715065
 31
0.0
 12
673.745312877168
 22
-29.83358326367426
 32
0.0
 13
672.0515893331853
 23
-29.83358326367426
 33
0.0
  0
CIRCLE
  5
16497
330
1F
100
AcDbEntity
  8
LOGO
 62
     5
100
AcDbCircle
 10
671.6622665351103
 20
-50.27507431174189
 30
0.0
 40
0.8760639020600308
  0
POLYLINE
  5
16498
330
1F
100
AcDbEntity
  8
LOGO
 62
     5
100
AcDb2dPolyline
 66
     1
 10
0.0
 20
0.0
 30
0.0
 70
     1
  0
VERTEX
  5
166DC
330
16498
100
AcDbEntity
  8
LOGO
 62
     5
100
AcDbVertex
100
AcDb2dVertex
 10
670.7862026330501
 20
-50.27507431174189
 30
0.0
 42
1.000000057330635
  0
VERTEX
  5
166DD
330
16498
100
AcDbEntity
  8
LOGO
 62
     5
100
AcDbVertex
100
AcDb2dVertex
 10
672.5383304371705
 20
-50.27507431174189
 30
0.0
 42
1.000000057330635
  0
SEQEND
  5
166DE
330
16498
100
AcDbEntity
  8
LOGO
 62
     5
  0
SOLID
  5
16499
330
1F
100
AcDbEntity
  8
LOGO
 62
     2
100
AcDbTrace
 10
664.9846738565679
 20
-29.83358326367545
 30
0.0
 11
665.6855249782165
 21
-29.83358326367545
 31
0.0
 12
664.9846738565679
 22
-45.89475480144176
 32
0.0
 13
665.6855249782165
 23
-45.89475480144176
 33
0.0
  0
SOLID
  5
1649A
330
1F
100
AcDbEntity
  8
LOGO
 62
     2
100
AcDbTrace
 10
656.2240348359673
 20
-45.89475480144239
 30
0.0
 11
656.9248859576164
 21
-45.89475480144176
 31
0.0
 12
664.9846738565679
 22
-29.83358326367545
 32
0.0
 13
665.6855249782165
 23
-29.83358326367545
 33
0.0
  0
SOLID
  5
1649B
330
1F
100
AcDbEntity
  8
LOGO
 62
     5
100
AcDbTrace
 10
665.6855249782165
 20
-29.83358326367545
 30
0.0
 11
667.3792485221988
 21
-29.83358326367426
 31
0.0
 12
665.6855249782165
 22
-44.60986107842091
 32
0.0
 13
667.3792485221988
 23
-38.39954141715065
 33
0.0
  0
SOLID
  5
1649C
330
1F
100
AcDbEntity
  8
LOGO
 62
     5
100
AcDbTrace
 10
663.2909503125854
 20
-45.89475480144176
 30
0.0
 11
664.9846738565679
 21
-45.89475480144176
 31
0.0
 12
663.2909503125854
 22
-37.32879664796655
 32
0.0
 13
664.9846738565679
 23
-31.11847698669623
 33
0.0
  0
SOLID
  5
1649D
330
1F
100
AcDbEntity
  8
LOGO
 62
     5
100
AcDbTrace
 10
656.9248859576164
 20
-45.89475480144176
 30
0.0
 11
658.6186095015989
 21
-45.89475480144176
 31
0.0
 12
664.9846738565679
 22
-31.11847698669623
 32
0.0
 13
663.2909503125854
 23
-37.32879664796655
 33
0.0
  0
SOLID
  5
1649E
330
1F
100
AcDbEntity
  8
LOGO
 62
     5
100
AcDbTrace
 10
654.5303112919846
 20
-45.89475480144176
 30
0.0
 11
656.2240348359673
 21
-45.89475480144239
 31
0.0
 12
663.2909503125854
 22
-29.83358326367426
 32
0.0
 13
664.9846738565679
 23
-29.83358326367545
 33
0.0
  0
LINE
  5
1649F
330
1F
100
AcDbEntity
  8
LOGO
 62
     1
100
AcDbLine
 10
650.46608371472
 20
-68.07572268728183
 30
0.0
 11
650.46608371472
 21
-28.90305078455753
 31
0.0
  0
POLYLINE
  5
164A0
330
1F
100
AcDbEntity
  8
LOGO
 62
     5
100
AcDb2dPolyline
 66
     1
 10
0.0
 20
0.0
 30
0.0
 40
0.5849785670806828
 41
0.5849785670806828
  0
VERTEX
  5
166DF
330
164A0
100
AcDbEntity
  8
LOGO
 62
     5
100
AcDbVertex
100
AcDb2dVertex
 10
660.858765549744
 20
-49.98305301105546
 30
0.0
 42
1.0
  0
VERTEX
  5
166E0
330
164A0
100
AcDbEntity
  8
LOGO
 62
     5
100
AcDbVertex
100
AcDb2dVertex
 10
659.1038298485018
 20
-49.98305301105546
 30
0.0
 42
1.0
  0
SEQEND
  5
166E1
330
164A0
100
AcDbEntity
  8
LOGO
 62
     5
  0
SOLID
  5
164A1
330
1F
100
AcDbEntity
  8
LOGO
 62
     5
100
AcDbTrace
 10
654.043609124174
 20
-51.73518081517499
 30
0.0
 11
654.6276517255469
 21
-51.73518081517499
 31
0.0
 12
656.2723611492588
 22
-48.81496780830872
 32
0.0
 13
656.8564037506316
 23
-48.81496780830872
 33
0.0
  0
SOLID
  5
164A2
330
1F
100
AcDbEntity
  8
LOGO
 62
     5
100
AcDbTrace
 10
654.043609124174
 20
-48.81496780830872
 30
0.0
 11
654.6276517255469
 21
-48.81496780830872
 31
0.0
 12
654.043609124174
 22
-51.73518081517499
 32
0.0
 13
654.6276517255469
 23
-51.73518081517499
 33
0.0
  0
SOLID
  5
164A3
330
1F
100
AcDbEntity
  8
LOGO
 62
     5
100
AcDbTrace
 10
651.8148570990897
 20
-51.73518081517499
 30
0.0
 11
652.3988997004637
 21
-51.73518081517499
 31
0.0
 12
654.043609124174
 22
-48.81496780830872
 32
0.0
 13
654.6276517255469
 23
-48.81496780830872
 33
0.0
  0
SOLID
  5
164A4
330
1F
100
AcDbEntity
  8
LOGO
 62
     5
100
AcDbTrace
 10
658.8132124963768
 20
-48.81496780830872
 30
0.0
 11
659.3972550977493
 21
-48.81496780830872
 31
0.0
 12
658.8132124963768
 22
-51.73518081517499
 32
0.0
 13
659.3972550977493
 23
-51.73518081517499
 33
0.0
  0
SOLID
  5
164A5
330
1F
100
AcDbEntity
  8
LOGO
 62
     5
100
AcDbTrace
 10
657.5477673919804
 20
-48.81496780830872
 30
0.0
 11
658.1318099933548
 21
-48.81496780830872
 31
0.0
 12
657.5477673919804
 22
-51.73518081517613
 32
0.0
 13
658.1318099933548
 23
-51.73518081517499
 33
0.0
  0
SOLID
  5
164A6
330
1F
100
AcDbEntity
  8
LOGO
 62
     5
100
AcDbTrace
 10
657.5477673919804
 20
-48.40613798734762
 30
0.0
 11
658.1318099933548
 21
-48.40613798734762
 31
0.0
 12
657.5477673919804
 22
-47.93890390624835
 32
0.0
 13
658.1318099933548
 23
-47.93890390624835
 33
0.0
  0
SOLID
  5
164A7
330
1F
100
AcDbEntity
  8
LOGO
 62
     5
100
AcDbTrace
 10
656.2723611492588
 20
-48.81496780830872
 30
0.0
 11
656.8564037506316
 21
-48.81496780830872
 31
0.0
 12
656.2723611492588
 22
-51.73518081517499
 32
0.0
 13
656.8564037506316
 23
-51.73518081517499
 33
0.0
  0
POLYLINE
  5
164A8
330
1F
100
AcDbEntity
  8
LOGO
 62
     5
100
AcDb2dPolyline
 66
     1
 10
0.0
 20
0.0
 30
0.0
 40
0.5849785670806828
 41
0.5849785670806828
  0
VERTEX
  5
166E2
330
164A8
100
AcDbEntity
  8
LOGO
 62
     5
100
AcDbVertex
100
AcDb2dVertex
 10
667.4779539681492
 20
-49.98305301105546
 30
0.0
 42
1.0
  0
VERTEX
  5
166E3
330
164A8
100
AcDbEntity
  8
LOGO
 62
     5
100
AcDbVertex
100
AcDb2dVertex
 10
665.723018266907
 20
-49.98305301105546
 30
0.0
 42
1.0
  0
SEQEND
  5
166E4
330
164A8
100
AcDbEntity
  8
LOGO
 62
     5
  0
SOLID
  5
164A9
330
1F
100
AcDbEntity
  8
LOGO
 62
     5
100
AcDbTrace
 10
665.4324009147817
 20
-48.81496780830872
 30
0.0
 11
666.0164435161545
 21
-48.81496780830872
 31
0.0
 12
665.4324009147817
 22
-51.73518081517499
 32
0.0
 13
666.0164435161545
 23
-51.73518081517499
 33
0.0
  0
SOLID
  5
164AA
330
1F
100
AcDbEntity
  8
LOGO
 62
     5
100
AcDbTrace
 10
664.1669558103858
 20
-47.93890390624835
 30
0.0
 11
664.7509984117585
 21
-47.93890390624835
 31
0.0
 12
664.1669558103858
 22
-51.73518081517499
 32
0.0
 13
664.7509984117585
 23
-51.73518081517499
 33
0.0
  0
POLYLINE
  5
164AB
330
1F
100
AcDbEntity
  8
LOGO
 62
     5
100
AcDb2dPolyline
 66
     1
 10
0.0
 20
0.0
 30
0.0
 70
     1
 40
0.5849785670806828
 41
0.5849785670806828
  0
VERTEX
  5
166E5
330
164AB
100
AcDbEntity
  8
LOGO
 62
     5
100
AcDbVertex
100
AcDb2dVertex
 10
662.1209931784237
 20
-50.27507431174218
 30
0.0
 42
1.0
  0
VERTEX
  5
166E6
330
164AB
100
AcDbEntity
  8
LOGO
 62
     5
100
AcDbVertex
100
AcDb2dVertex
 10
664.4609074467464
 20
-50.27507431174218
 30
0.0
 42
1.0
  0
SEQEND
  5
166E7
330
164AB
100
AcDbEntity
  8
LOGO
 62
     5
  0
SOLID
  5
164AC
330
1F
100
AcDbEntity
  8
LOGO
 62
     5
100
AcDbTrace
 10
660.565340300496
 20
-49.98305301105546
 30
0.0
 11
661.14938290187
 21
-49.98305301105546
 31
0.0
 12
660.565340300496
 22
-51.73518081517499
 32
0.0
 13
661.14938290187
 23
-51.73518081517499
 33
0.0
  0
SOLID
  5
164AD
330
1F
100
AcDbEntity
  8
LOGO
 62
     5
100
AcDbTrace
 10
668.9366565230211
 20
-49.98305301105546
 30
0.0
 11
669.520699124394
 21
-49.98305301105546
 31
0.0
 12
668.9366565230211
 22
-51.73518081517613
 32
0.0
 13
669.520699124394
 23
-51.73518081517613
 33
0.0
  0
SOLID
  5
164AE
330
1F
100
AcDbEntity
  8
LOGO
 62
     5
100
AcDbTrace
 10
667.1845287189015
 20
-49.98305301105546
 30
0.0
 11
667.7685713202743
 21
-49.98305301105546
 31
0.0
 12
667.1845287189015
 22
-51.73518081517499
 32
0.0
 13
667.7685713202743
 23
-51.73518081517499
 33
0.0
  0
POLYLINE
  5
164AF
330
1F
100
AcDbEntity
  8
LOGO
 62
     5
100
AcDb2dPolyline
 66
     1
 10
0.0
 20
0.0
 30
0.0
 40
0.5849785670806828
 41
0.5849785670806828
  0
VERTEX
  5
166E8
330
164AF
100
AcDbEntity
  8
LOGO
 62
     5
100
AcDbVertex
100
AcDb2dVertex
 10
669.2300817722687
 20
-49.98305301105546
 30
0.0
 42
1.0
  0
VERTEX
  5
166E9
330
164AF
100
AcDbEntity
  8
LOGO
 62
     5
100
AcDbVertex
100
AcDb2dVertex
 10
667.4751460710267
 20
-49.98305301105546
 30
0.0
 42
1.0
  0
SEQEND
  5
166EA
330
164AF
100
AcDbEntity
  8
LOGO
 62
     5
  0
SOLID
  5
164B0
330
1F
100
AcDbEntity
  8
LOGO
 62
     2
100
AcDbTrace
 10
673.745312877168
 20
-29.83358326367426
 30
0.0
 11
674.4461639988166
 21
-29.83358326367545
 31
0.0
 12
673.745312877168
 22
-45.89475480144239
 32
0.0
 13
674.4461639988166
 23
-45.89475480144239
 33
0.0
  0
SOLID
  5
164B1
330
1F
100
AcDbEntity
  8
LOGO
 62
     5
100
AcDbTrace
 10
674.4461639988166
 20
-45.89475480144239
 30
0.0
 11
676.139887542799
 21
-45.89475480144239
 31
0.0
 12
674.4461639988166
 22
-29.83358326367545
 32
0.0
 13
676.139887542799
 23
-29.83358326367426
 33
0.0
  0
SOLID
  5
164B2
330
1F
100
AcDbEntity
  8
LOGO
 62
     5
100
AcDbTrace
 10
673.745312877168
 20
-31.11847698669623
 30
0.0
 11
672.0515893331853
 21
-37.32879664796655
 31
0.0
 12
673.745312877168
 22
-45.89475480144239
 32
0.0
 13
672.0515893331853
 23
-45.89475480144239
 33
0.0
  0
LINE
  5
164B3
330
1F
100
AcDbEntity
  8
LOGO
 62
     1
100
AcDbLine
 10
679.1927097767179
 20
-52.40665392619212
 30
0.0
 11
679.1927097767179
 21
-28.90305078455753
 31
0.0
  0
SOLID
  5
164B4
330
1F
100
AcDbEntity
  8
LOGO
 62
     5
100
AcDbTrace
 10
675.5558449414263
 20
-49.98305301105546
 30
0.0
 11
676.139887542799
 21
-49.98305301105557
 31
0.0
 12
675.5558449414263
 22
-51.73518081517499
 32
0.0
 13
676.139887542799
 23
-51.73518081517499
 33
0.0
  0
SOLID
  5
164B5
330
1F
100
AcDbEntity
  8
LOGO
 62
     5
100
AcDbTrace
 10
673.8037171373057
 20
-51.73518081517499
 30
0.0
 11
674.3877597386795
 21
-51.73518081517499
 31
0.0
 12
673.8037171373057
 22
-48.81496780830872
 32
0.0
 13
674.3877597386795
 23
-48.81496780830872
 33
0.0
  0
SOLID
  5
164B6
330
1F
100
AcDbEntity
  8
LOGO
 62
     5
100
AcDbTrace
 10
672.5382720329112
 20
-48.81496780830872
 30
0.0
 11
673.122314634284
 21
-48.81496780830872
 31
0.0
 12
672.5382720329112
 22
-51.73518081517499
 32
0.0
 13
673.122314634284
 23
-51.73518081517499
 33
0.0
  0
POLYLINE
  5
164B7
330
1F
100
AcDbEntity
  8
LOGO
 62
     5
100
AcDb2dPolyline
 66
     1
 10
0.0
 20
0.0
 30
0.0
 40
0.5849785670806828
 41
0.5849785670806828
  0
VERTEX
  5
166EB
330
164B7
100
AcDbEntity
  8
LOGO
 62
     5
100
AcDbVertex
100
AcDb2dVertex
 10
675.8492701906739
 20
-49.98305301105546
 30
0.0
 42
1.0
  0
VERTEX
  5
166EC
330
164B7
100
AcDbEntity
  8
LOGO
 62
     5
100
AcDbVertex
100
AcDb2dVertex
 10
674.0943344894319
 20
-49.98305301105546
 30
0.0
 42
1.0
  0
SEQEND
  5
166ED
330
164B7
100
AcDbEntity
  8
LOGO
 62
     5
  0
LINE
  5
164B8
330
1F
100
AcDbEntity
  8
LOGO
 62
     5
100
AcDbLine
 10
676.139887542799
 20
-51.73518081517499
 30
0.0
 11
676.139887542799
 21
-49.98305301105546
 31
0.0
  0
LINE
  5
164B9
330
1F
100
AcDbEntity
  8
LOGO
  6
CONTINUOUS
 62
     7
100
AcDbLine
 10
861.9341181766255
 20
-38.73784549862603
 30
0.0
 11
867.123284946113
 21
-38.73784549862603
 31
0.0
  0
TEXT
  5
164BA
330
1F
100
AcDbEntity
  8
LOGO
  6
CONTINUOUS
 62
     6
100
AcDbText
 10
860.6732479159097
 20
-62.63507381190343
 30
0.0
 40
3.264389325227024
  1
4 Way
 41
0.8
  7
CHINESET
 72
     4
 11
866.5802381234634
 21
-61.54694403682777
 31
0.0
100
AcDbText
  0
LINE
  5
164BB
330
1F
100
AcDbEntity
  8
LOGO
 62
     6
100
AcDbLine
 10
877.0624560206087
 20
-64.81133336205471
 30
0.0
 11
856.0980202263181
 21
-64.81133336205482
 31
0.0
  0
TEXT
  5
164BC
330
1F
100
AcDbEntity
  8
LOGO
 62
     6
100
AcDbText
 10
857.7593918253679
 20
-57.61168414948715
 30
0.0
 40
5.223022920363239
  1
4 方向
 41
0.9
  7
CHINESET
 72
     4
 11
866.5802381234634
 21
-55.0181653863737
 31
0.0
100
AcDbText
  0
LINE
  5
164BD
330
1F
100
AcDbEntity
  8
LOGO
 62
     6
100
AcDbLine
 10
877.0624560206087
 20
-50.44802033105582
 30
0.0
 11
856.0980202263181
 21
-50.44802033105582
 31
0.0
  0
TEXT
  5
164BE
330
1F
100
AcDbEntity
  8
LOGO
 62
     7
100
AcDbText
 10
738.9153830750867
 20
-46.06393176516934
 30
0.0
 40
5.223022920363239
  1
Order example:
 41
0.8
  7
CHINESET
100
AcDbText
  0
LINE
  5
164BF
330
1F
100
AcDbEntity
  8
LOGO
 62
     1
100
AcDbLine
 10
710.5308472988972
 20
-52.40665392619212
 30
0.0
 11
710.5308472988972
 21
-28.90305078455753
 31
0.0
  0
LINE
  5
164C0
330
1F
100
AcDbEntity
  8
LOGO
 62
     6
100
AcDbLine
 10
732.0771125184032
 20
-42.92093082493721
 30
0.0
 11
732.0771125184032
 21
-38.37201575944078
 31
0.0
  0
LINE
  5
164C1
330
1F
100
AcDbEntity
  8
LOGO
  6
CONTINUOUS
 62
     6
100
AcDbLine
 10
724.9468187133295
 20
-41.97910406004598
 30
0.0
 11
732.0771125184032
 21
-42.92093082493721
 31
0.0
  0
CIRCLE
  5
164C2
330
1F
100
AcDbEntity
  8
LOGO
  6
CONTINUOUS
 62
     6
100
AcDbCircle
 10
717.7841574657218
 20
-40.646473292189
 30
0.0
 40
2.27445753274822
  0
TEXT
  5
164C3
330
1F
100
AcDbEntity
  8
LOGO
 62
     6
100
AcDbText
 10
716.4073939897037
 20
-50.44802033105592
 30
0.0
 40
3.917267190272429
  1
m/m
  7
CHINESET
 72
     1
 11
723.309245705898
 21
-48.48938673591971
 31
0.0
100
AcDbText
 73
     2
  0
LINE
  5
164C4
330
1F
100
AcDbEntity
  8
LOGO
  6
CONTINUOUS
 62
     6
100
AcDbLine
 10
724.9468187133295
 20
-39.31384252433201
 30
0.0
 11
732.0771125184032
 21
-38.37201575944078
 31
0.0
  0
TEXT
  5
164C5
330
1F
100
AcDbEntity
  8
LOGO
 62
     6
100
AcDbText
 10
716.4073939897037
 20
-34.77895156996616
 30
0.0
 40
3.917267190272429
  1
1 : 1
  7
CHINESET
 72
     1
 11
723.309245705898
 21
-32.82031797482995
 31
0.0
100
AcDbText
 73
     2
  0
CIRCLE
  5
164C6
330
1F
100
AcDbEntity
  8
LOGO
  6
CONTINUOUS
 62
     6
100
AcDbCircle
 10
717.7841574657218
 20
-40.646473292189
 30
0.0
 40
1.332630767856986
  0
LINE
  5
164C7
330
1F
100
AcDbEntity
  8
LOGO
 62
     6
100
AcDbLine
 10
724.9468187133295
 20
-41.97910406004598
 30
0.0
 11
724.9468187133295
 21
-39.31384252433201
 31
0.0
  0
TEXT
  5
164C8
330
1F
100
AcDbEntity
  8
LOGO
 62
     7
100
AcDbText
 10
739.8524365796419
 20
-38.7109969339927
 30
0.0
 40
7.834534380544859
  1
訂購代號:
  7
CHINESET
100
AcDbText
  0
LINE
  5
164C9
330
1F
100
AcDbEntity
  8
LOGO
 62
     1
100
AcDbLine
 10
736.6459619007135
 20
-68.07572268728183
 30
0.0
 11
736.6459619007135
 21
-28.90305078455753
 31
0.0
  0
LINE
  5
164CA
330
1F
100
AcDbEntity
  8
LOGO
 62
     6
100
AcDbLine
 10
819.2528595934712
 20
-64.81133336205482
 30
0.0
 11
793.1377449916549
 21
-64.81133336205482
 31
0.0
  0
LINE
  5
164CB
330
1F
100
AcDbEntity
  8
LOGO
 62
     6
100
AcDbLine
 10
819.2528595934712
 20
-50.44802033105589
 30
0.0
 11
793.1377449916549
 21
-50.44802033105589
 31
0.0
  0
LINE
  5
164CC
330
1F
100
AcDbEntity
  8
LOGO
 62
     6
100
AcDbLine
 10
821.8643710536525
 20
-44.57211954564724
 30
0.0
 11
790.5262335314732
 21
-44.57211954564724
 31
0.0
  0
LINE
  5
164CD
330
1F
100
AcDbEntity
  8
LOGO
 62
     6
100
AcDbLine
 10
821.8643710536525
 20
-32.82031797482995
 30
0.0
 11
790.5262335314732
 21
-32.82031797482995
 31
0.0
  0
TEXT
  5
164CE
330
1F
100
AcDbEntity
  8
LOGO
  6
CONTINUOUS
 62
     7
100
AcDbText
 10
796.2466872061567
 20
-41.96060808546561
 30
0.0
 40
6.528778650454048
  1
MVSI
  7
CHINESET
 72
     1
 11
806.195302292563
 21
-38.69621876023859
 31
0.0
100
AcDbText
 73
     2
  0
TEXT
  5
164CF
330
1F
100
AcDbEntity
  8
LOGO
  6
CONTINUOUS
 62
     6
100
AcDbText
 10
799.977417863559
 20
-63.17913869944128
 30
0.0
 40
3.264389325227024
  1
Model
  7
CHINESET
 72
     4
 11
806.195302292563
 21
-61.54694403682777
 31
0.0
100
AcDbText
  0
LINE
  5
164D0
330
1F
100
AcDbEntity
  8
LOGO
 62
     6
100
AcDbLine
 10
790.5262335314732
 20
-32.82031797482995
 30
0.0
 11
790.5262335314732
 21
-44.57211954564724
 31
0.0
  0
LINE
  5
164D1
330
1F
100
AcDbEntity
  8
LOGO
 62
     6
100
AcDbLine
 10
793.1377449916549
 20
-50.44802033105589
 30
0.0
 11
793.1377449916549
 21
-64.81133336205482
 31
0.0
  0
LINE
  5
164D2
330
1F
100
AcDbEntity
  8
LOGO
 62
     6
100
AcDbLine
 10
821.8643710536525
 20
-32.82031797482995
 30
0.0
 11
821.8643710536525
 21
-44.57211954564724
 31
0.0
  0
TEXT
  5
164D3
330
1F
100
AcDbEntity
  8
LOGO
 62
     6
100
AcDbText
 10
800.9722793721996
 20
-57.4960168111917
 30
0.0
 40
5.223022920363239
  1
型式
  7
CHINESET
 72
     4
 11
806.195302292563
 21
-55.0181653863737
 31
0.0
100
AcDbText
  0
LINE
  5
164D4
330
1F
100
AcDbEntity
  8
LOGO
 62
     6
100
AcDbLine
 10
806.195302292563
 20
-44.57211954564724
 30
0.0
 11
806.195302292563
 21
-50.44802033105589
 31
0.0
  0
LINE
  5
164D5
330
1F
100
AcDbEntity
  8
LOGO
 62
     6
100
AcDbLine
 10
819.2528595934712
 20
-50.44802033105589
 30
0.0
 11
819.2528595934712
 21
-64.81133336205482
 31
0.0
  0
LINE
  5
164D6
330
1F
100
AcDbEntity
  8
LOGO
 62
     6
100
AcDbLine
 10
845.5099742904394
 20
-47.51006993835159
 30
0.0
 11
837.6754399098945
 21
-47.51006993835159
 31
0.0
  0
TEXT
  5
164D7
330
1F
100
AcDbEntity
  8
LOGO
  6
CONTINUOUS
 62
     7
100
AcDbText
 10
837.1158303112842
 20
-42.03464484675825
 30
0.0
 40
6.528778650454048
  1
450
  7
CHINESET
 72
     1
 11
845.5099742904394
 21
-38.77025552153122
 31
0.0
100
AcDbText
 73
     2
  0
TEXT
  5
164D8
330
1F
100
AcDbEntity
  8
LOGO
  6
CONTINUOUS
 62
     6
100
AcDbText
 10
824.6178826089863
 20
-62.63507381190344
 30
0.0
 40
3.264389325227024
  1
Body width
  7
CHINESET
 72
     4
 11
837.6754399098945
 21
-61.54694403682777
 31
0.0
100
AcDbText
  0
LINE
  5
164D9
330
1F
100
AcDbEntity
  8
LOGO
 62
     6
100
AcDbLine
 10
859.9094593778572
 20
-32.82031797482989
 30
0.0
 11
831.1104892030217
 21
-32.82031797482995
 31
0.0
  0
TEXT
  5
164DA
330
1F
100
AcDbEntity
  8
LOGO
 62
     6
100
AcDbText
 10
827.229394069168
 20
-57.53778557224284
 30
0.0
 40
5.223022920363239
  1
本體寬幅
  7
CHINESET
 72
     4
 11
837.6754399098945
 21
-55.0181653863737
 31
0.0
100
AcDbText
  0
LINE
  5
164DB
330
1F
100
AcDbEntity
  8
LOGO
 62
     6
100
AcDbLine
 10
859.9094593778572
 20
-44.57211954564724
 30
0.0
 11
831.1104892030217
 21
-44.57211954564724
 31
0.0
  0
LINE
  5
164DC
330
1F
100
AcDbEntity
  8
LOGO
 62
     6
100
AcDbLine
 10
852.0749249973123
 20
-50.44802033105589
 30
0.0
 11
823.2759548224766
 21
-50.44802033105589
 31
0.0
  0
LINE
  5
164DD
330
1F
100
AcDbEntity
  8
LOGO
 62
     6
100
AcDbLine
 10
852.0749249973123
 20
-64.81133336205482
 30
0.0
 11
823.2759548224766
 21
-64.81133336205482
 31
0.0
  0
LINE
  5
164DE
330
1F
100
AcDbEntity
  8
LOGO
 62
     6
100
AcDbLine
 10
831.1104892030217
 20
-32.82031797482995
 30
0.0
 11
831.1104892030217
 21
-44.57211954564724
 31
0.0
  0
LINE
  5
164DF
330
1F
100
AcDbEntity
  8
LOGO
 62
     6
100
AcDbLine
 10
823.2759548224766
 20
-50.44802033105589
 30
0.0
 11
823.2759548224766
 21
-64.81133336205482
 31
0.0
  0
LINE
  5
164E0
330
1F
100
AcDbEntity
  8
LOGO
 62
     6
100
AcDbLine
 10
837.6754399098945
 20
-50.44802033105589
 30
0.0
 11
837.6754399098945
 21
-47.51006993835159
 31
0.0
  0
LINE
  5
164E1
330
1F
100
AcDbEntity
  8
LOGO
  6
CONTINUOUS
 62
     7
100
AcDbLine
 10
823.8890298524211
 20
-38.73784549862608
 30
0.0
 11
829.0781966219086
 21
-38.73784549862608
 31
0.0
  0
LINE
  5
164E2
330
1F
100
AcDbEntity
  8
LOGO
 62
     6
100
AcDbLine
 10
859.9094593778572
 20
-32.82031797482989
 30
0.0
 11
859.9094593778572
 21
-44.57211954564724
 31
0.0
  0
LINE
  5
164E3
330
1F
100
AcDbEntity
  8
LOGO
 62
     6
100
AcDbLine
 10
852.0749249973123
 20
-50.44802033105589
 30
0.0
 11
852.0749249973123
 21
-64.81133336205482
 31
0.0
  0
LINE
  5
164E4
330
1F
100
AcDbEntity
  8
LOGO
 62
     6
100
AcDbLine
 10
845.5099742904394
 20
-44.57211954564724
 30
0.0
 11
845.5099742904394
 21
-47.51006993835159
 31
0.0
  0
LINE
  5
164E5
330
1F
100
AcDbEntity
  8
LOGO
 62
     6
100
AcDbLine
 10
856.0980202263181
 20
-50.44802033105582
 30
0.0
 11
856.0980202263181
 21
-64.81133336205471
 31
0.0
  0
TEXT
  5
164E6
330
1F
100
AcDbEntity
  8
LOGO
  6
CONTINUOUS
 62
     6
100
AcDbText
 10
937.2739935746995
 20
-63.17913869944117
 30
0.0
 40
3.264389325227024
  1
LED indicator
 41
0.8
  7
CHINESET
 72
     4
 11
950.2071931870275
 21
-61.54694403682765
 31
0.0
100
AcDbText
  0
LINE
  5
164E7
330
1F
100
AcDbEntity
  8
LOGO
 62
     6
100
AcDbLine
 10
963.9538004093999
 20
-64.81133336205459
 30
0.0
 11
936.4605859646552
 21
-64.81133336205465
 31
0.0
  0
LINE
  5
164E8
330
1F
100
AcDbEntity
  8
LOGO
 62
     6
100
AcDbLine
 10
963.9538004093999
 20
-50.44802033105566
 30
0.0
 11
936.4605859646552
 21
-50.44802033105566
 31
0.0
  0
TEXT
  5
164E9
330
1F
100
AcDbEntity
  8
LOGO
 62
     6
100
AcDbText
 10
943.2050780844155
 20
-57.57527035780142
 30
0.0
 40
5.223022920363239
  1
附燈型
 41
0.9
  7
CHINESET
 72
     4
 11
950.2071931870275
 21
-55.0181653863736
 31
0.0
100
AcDbText
  0
LINE
  5
164EA
330
1F
100
AcDbEntity
  8
LOGO
 62
     6
100
AcDbLine
 10
953.5077548697604
 20
-32.82031797482966
 30
0.0
 11
945.6008763763779
 21
-32.82031797482972
 31
0.0
  0
LINE
  5
164EB
330
1F
100
AcDbEntity
  8
LOGO
 62
     6
100
AcDbLine
 10
953.5077548697604
 20
-44.57211954564701
 30
0.0
 11
945.6008763763779
 21
-44.57211954564701
 31
0.0
  0
LINE
  5
164EC
330
1F
100
AcDbEntity
  8
LOGO
 62
     6
100
AcDbLine
 10
936.3547582270088
 20
-32.82031797482972
 30
0.0
 11
902.8534456348147
 21
-32.82031797482972
 31
0.0
  0
LINE
  5
164ED
330
1F
100
AcDbEntity
  8
LOGO
 62
     6
100
AcDbLine
 10
936.3547582270088
 20
-44.57211954564712
 30
0.0
 11
902.8534456348147
 21
-44.57211954564712
 31
0.0
  0
LINE
  5
164EE
330
1F
100
AcDbEntity
  8
LOGO
 62
     6
100
AcDbLine
 10
909.2603268276246
 20
-64.81133336205465
 30
0.0
 11
878.3682117506996
 21
-64.81133336205465
 31
0.0
  0
LINE
  5
164EF
330
1F
100
AcDbEntity
  8
LOGO
 62
     6
100
AcDbLine
 10
909.2603268276246
 20
-50.44802033105577
 30
0.0
 11
878.3682117506996
 21
-50.44802033105577
 31
0.0
  0
LINE
  5
164F0
330
1F
100
AcDbEntity
  8
LOGO
 62
     6
100
AcDbLine
 10
885.3268570435718
 20
-47.51006993835142
 30
0.0
 11
893.814269289162
 21
-47.51006993835142
 31
0.0
  0
TEXT
  5
164F1
330
1F
100
AcDbEntity
  8
LOGO
  6
CONTINUOUS
 62
     7
100
AcDbText
 10
880.8064552318553
 20
-42.03464484675813
 30
0.0
 40
6.528778650454048
  1
E2
  7
CHINESET
 72
     1
 11
885.9362098857834
 21
-38.77025552153111
 31
0.0
100
AcDbText
 73
     2
  0
TEXT
  5
164F2
330
1F
100
AcDbEntity
  8
LOGO
  6
CONTINUOUS
 62
     6
100
AcDbText
 10
879.8862081681933
 20
-63.17913869944117
 30
0.0
 40
3.264389325227024
  1
Duble solenoid
 41
0.8
  7
CHINESET
 72
     4
 11
893.814269289162
 21
-61.54694403682765
 31
0.0
100
AcDbText
  0
LINE
  5
164F3
330
1F
100
AcDbEntity
  8
LOGO
 62
     6
100
AcDbLine
 10
892.2855023364441
 20
-32.82031797482983
 30
0.0
 11
878.3682117506996
 21
-32.82031797482983
 31
0.0
  0
LINE
  5
164F4
330
1F
100
AcDbEntity
  8
LOGO
 62
     6
100
AcDbLine
 10
892.2855023364441
 20
-44.57211954564712
 30
0.0
 11
878.3682117506996
 21
-44.57211954564712
 31
0.0
  0
LINE
  5
164F5
330
1F
100
AcDbEntity
  8
LOGO
 62
     6
100
AcDbLine
 10
878.3682117506996
 20
-32.82031797482983
 30
0.0
 11
878.3682117506996
 21
-44.57211954564718
 31
0.0
  0
LINE
  5
164F6
330
1F
100
AcDbEntity
  8
LOGO
 62
     6
100
AcDbLine
 10
877.0624560206087
 20
-32.82031797482983
 30
0.0
 11
877.0624560206087
 21
-44.57211954564718
 31
0.0
  0
LINE
  5
164F7
330
1F
100
AcDbEntity
  8
LOGO
 62
     6
100
AcDbLine
 10
869.1555775272263
 20
-32.82031797482989
 30
0.0
 11
869.1555775272263
 21
-44.57211954564718
 31
0.0
  0
LINE
  5
164F8
330
1F
100
AcDbEntity
  8
LOGO
 62
     6
100
AcDbLine
 10
877.0624560206087
 20
-44.57211954564718
 30
0.0
 11
869.1555775272263
 21
-44.57211954564718
 31
0.0
  0
LINE
  5
164F9
330
1F
100
AcDbEntity
  8
LOGO
 62
     6
100
AcDbLine
 10
873.1090164728307
 20
-47.51006993835147
 30
0.0
 11
866.5802381234634
 21
-47.51006993835147
 31
0.0
  0
LINE
  5
164FA
330
1F
100
AcDbEntity
  8
LOGO
 62
     6
100
AcDbLine
 10
866.5802381234634
 20
-50.44802033105582
 30
0.0
 11
866.5802381234634
 21
-47.51006993835147
 31
0.0
  0
LINE
  5
164FB
330
1F
100
AcDbEntity
  8
LOGO
 62
     6
100
AcDbLine
 10
873.1090164728307
 20
-44.57211954564718
 30
0.0
 11
873.1090164728307
 21
-47.51006993835147
 31
0.0
  0
LINE
  5
164FC
330
1F
100
AcDbEntity
  8
LOGO
 62
     6
100
AcDbLine
 10
877.0624560206087
 20
-50.44802033105582
 30
0.0
 11
877.0624560206087
 21
-64.81133336205465
 31
0.0
  0
LINE
  5
164FD
330
1F
100
AcDbEntity
  8
LOGO
 62
     6
100
AcDbLine
 10
878.3682117506996
 20
-50.44802033105577
 30
0.0
 11
878.3682117506996
 21
-64.81133336205465
 31
0.0
  0
LINE
  5
164FE
330
1F
100
AcDbEntity
  8
LOGO
 62
     6
100
AcDbLine
 10
885.3268570435718
 20
-44.57211954564712
 30
0.0
 11
885.3268570435718
 21
-47.51006993835142
 31
0.0
  0
LINE
  5
164FF
330
1F
100
AcDbEntity
  8
LOGO
 62
     6
100
AcDbLine
 10
877.0624560206087
 20
-32.82031797482983
 30
0.0
 11
869.1555775272263
 21
-32.82031797482989
 31
0.0
  0
TEXT
  5
16500
330
1F
100
AcDbEntity
  8
LOGO
  6
CONTINUOUS
 62
     7
100
AcDbText
 10
870.7773101130412
 20
-41.96060808546556
 30
0.0
 40
6.528778650454048
  1
4
  7
CHINESET
 72
     1
 11
873.1090167739175
 21
-38.69621876023853
 31
0.0
100
AcDbText
 73
     2
  0
LINE
  5
16501
330
1F
100
AcDbEntity
  8
LOGO
 62
     6
100
AcDbLine
 10
902.8534456348145
 20
-32.77869123644228
 30
0.0
 11
902.8534456348145
 21
-44.53049280725963
 31
0.0
  0
LINE
  5
16502
330
1F
100
AcDbEntity
  8
LOGO
 62
     6
100
AcDbLine
 10
892.2855023364441
 20
-32.82031797482983
 30
0.0
 11
892.2855023364441
 21
-44.57211954564712
 31
0.0
  0
TEXT
  5
16503
330
1F
100
AcDbEntity
  8
LOGO
 62
     6
100
AcDbText
 10
886.8611200264284
 20
-57.40476813320296
 30
0.0
 40
5.223022920363239
  1
雙線圈
 41
0.9
  7
CHINESET
 72
     4
 11
893.814269289162
 21
-55.0181653863736
 31
0.0
100
AcDbText
  0
LINE
  5
16504
330
1F
100
AcDbEntity
  8
LOGO
 62
     6
100
AcDbLine
 10
893.814269289162
 20
-50.44802033105577
 30
0.0
 11
893.814269289162
 21
-47.51006993835142
 31
0.0
  0
LINE
  5
16505
330
1F
100
AcDbEntity
  8
LOGO
  6
CONTINUOUS
 62
     7
100
AcDbLine
 10
895.7327244152166
 20
-38.69621876023837
 30
0.0
 11
900.9218911847041
 21
-38.69621876023837
 31
0.0
  0
LINE
  5
16506
330
1F
100
AcDbEntity
  8
LOGO
 62
     6
100
AcDbLine
 10
931.3385907264365
 20
-50.44802033105577
 30
0.0
 11
914.037327302733
 21
-50.44802033105577
 31
0.0
  0
LINE
  5
16507
330
1F
100
AcDbEntity
  8
LOGO
 62
     6
100
AcDbLine
 10
931.3385907264365
 20
-64.81133336205465
 30
0.0
 11
914.037327302733
 21
-64.81133336205465
 31
0.0
  0
TEXT
  5
16508
330
1F
100
AcDbEntity
  8
LOGO
  6
CONTINUOUS
 62
     6
100
AcDbText
 10
915.7861072983903
 20
-62.63507381190333
 30
0.0
 40
3.264389325227024
  1
Voltage
 41
0.8
  7
CHINESET
 72
     4
 11
922.6879590145847
 21
-61.54694403682765
 31
0.0
100
AcDbText
  0
TEXT
  5
16509
330
1F
100
AcDbEntity
  8
LOGO
 62
     6
100
AcDbText
 10
917.9382725463794
 20
-57.57398516515371
 30
0.0
 40
5.223022920363239
  1
電壓
 41
0.9
  7
CHINESET
 72
     4
 11
922.6879590145847
 21
-55.0181653863736
 31
0.0
100
AcDbText
  0
LINE
  5
1650A
330
1F
100
AcDbEntity
  8
LOGO
 62
     6
100
AcDbLine
 10
914.037327302733
 20
-50.44802033105577
 30
0.0
 11
914.037327302733
 21
-64.86549257617895
 31
0.0
  0
LINE
  5
1650B
330
1F
100
AcDbEntity
  8
LOGO
 62
     6
100
AcDbLine
 10
909.2603268276246
 20
-50.44802033105577
 30
0.0
 11
909.2603268276246
 21
-64.86549257617895
 31
0.0
  0
LINE
  5
1650C
330
1F
100
AcDbEntity
  8
LOGO
 62
     6
100
AcDbLine
 10
919.6041019309118
 20
-44.57211954564712
 30
0.0
 11
919.6041019309118
 21
-47.51006993835142
 31
0.0
  0
LINE
  5
1650D
330
1F
100
AcDbEntity
  8
LOGO
 62
     6
100
AcDbLine
 10
919.6041019309118
 20
-47.51006993835142
 30
0.0
 11
922.6879590145847
 21
-47.51006993835142
 31
0.0
  0
LINE
  5
1650E
330
1F
100
AcDbEntity
  8
LOGO
 62
     6
100
AcDbLine
 10
922.6879590145847
 20
-47.51006993835142
 30
0.0
 11
922.6879590145847
 21
-50.44802033105577
 31
0.0
  0
TEXT
  5
1650F
330
1F
100
AcDbEntity
  8
LOGO
  6
CONTINUOUS
 62
     7
100
AcDbText
 10
918.4139603468482
 20
-42.03464484675813
 30
0.0
 40
6.528778650454048
  1
?
  7
CHINESET
 72
     1
 11
920.1238785648243
 21
-38.77025552153111
 31
0.0
100
AcDbText
 73
     2
  0
LINE
  5
16510
330
1F
100
AcDbEntity
  8
LOGO
 62
     6
100
AcDbLine
 10
945.6008763763779
 20
-32.82031797482972
 30
0.0
 11
945.6008763763779
 21
-44.57211954564701
 31
0.0
  0
LINE
  5
16511
330
1F
100
AcDbEntity
  8
LOGO
 62
     6
100
AcDbLine
 10
936.3547582270088
 20
-32.82031797482972
 30
0.0
 11
936.3547582270088
 21
-44.57211954564712
 31
0.0
  0
LINE
  5
16512
330
1F
100
AcDbEntity
  8
LOGO
 62
     6
100
AcDbLine
 10
936.4605859646552
 20
-50.44802033105577
 30
0.0
 11
936.4605859646552
 21
-64.81133336205465
 31
0.0
  0
LINE
  5
16513
330
1F
100
AcDbEntity
  8
LOGO
 62
     6
100
AcDbLine
 10
931.3385907264365
 20
-50.44802033105577
 30
0.0
 11
931.3385907264365
 21
-64.81133336205465
 31
0.0
  0
LINE
  5
16514
330
1F
100
AcDbEntity
  8
LOGO
 62
     6
100
AcDbLine
 10
949.5543156230692
 20
-44.57211954564701
 30
0.0
 11
949.5543156230692
 21
-50.44802033105566
 31
0.0
  0
LINE
  5
16515
330
1F
100
AcDbEntity
  8
LOGO
  6
CONTINUOUS
 62
     7
100
AcDbLine
 10
938.3794170257772
 20
-38.73784549862586
 30
0.0
 11
943.5685837952647
 21
-38.73784549862586
 31
0.0
  0
TEXT
  5
16516
330
1F
100
AcDbEntity
  8
LOGO
  6
CONTINUOUS
 62
     7
100
AcDbText
 10
947.6889502943681
 20
-41.96060808546539
 30
0.0
 40
6.528778650454048
  1
L
  7
CHINESET
 72
     1
 11
949.5543156230692
 21
-38.69621876023837
 31
0.0
100
AcDbText
 73
     2
  0
LINE
  5
16517
330
1F
100
AcDbEntity
  8
LOGO
 62
     6
100
AcDbLine
 10
953.5077548697604
 20
-32.82031797482966
 30
0.0
 11
953.5077548697604
 21
-44.57211954564701
 31
0.0
  0
LINE
  5
16518
330
1F
100
AcDbEntity
  8
LOGO
 62
     1
100
AcDbLine
 10
969.0704818568777
 20
-68.07572268728183
 30
0.0
 11
969.0704818568777
 21
-28.90305078455753
 31
0.0
  0
LINE
  5
16519
330
1F
100
AcDbEntity
  8
LOGO
 62
     6
100
AcDbLine
 10
963.9538004093999
 20
-50.44802033105566
 30
0.0
 11
963.9538004093999
 21
-64.81133336205449
 31
0.0
  0
ENDSEC
  0
SECTION
  2
OBJECTS
  0
DICTIONARY
  5
C
330
0
100
AcDbDictionary
  3
ACAD_GROUP
350
D
  3
ACAD_IMAGE_DICT
350
1129C
  3
ACAD_IMAGE_VARS
350
1129D
  3
ACAD_LAYOUT
350
1A
  3
ACAD_MLINESTYLE
350
17
  3
ACAD_PLOTSETTINGS
350
19
  3
ACMDICTIONARY
350
43
  3
AMG
350
2B
  3
AMGSNAPSETTINGS
350
240
  3
DWGPROPS
350
1664E
1001
ACAD
1000
TREAT_AS_HARD
1070
     0
  0
DICTIONARY
  5
3A4
330
1F
100
AcDbDictionary
  3
ACAD_INDEX
350
1343A
  3
ACAD_LAYOUTSELFREF
350
166CF
1001
ACAD
1000
TREAT_AS_HARD
1070
     1
  0
DICTIONARY
  5
165A2
330
1B
100
AcDbDictionary
  3
ACAD_LAYOUTSELFREF
350
166CE
1001
ACAD
1000
TREAT_AS_HARD
1070
     1
  0
DICTIONARY
  5
D
102
{ACAD_REACTORS
330
C
102
}
330
C
100
AcDbDictionary
1001
ACAD
1000
TREAT_AS_HARD
1070
     0
  0
DICTIONARY
  5
1129C
102
{ACAD_REACTORS
330
C
102
}
330
C
100
AcDbDictionary
1001
ACAD
1000
TREAT_AS_HARD
1070
     0
  0
RASTERVARIABLES
  5
1129D
102
{ACAD_REACTORS
330
C
102
}
330
C
100
AcDbRasterVariables
 90
        0
 70
     1
 71
     1
 72
     1
  0
DICTIONARY
  5
1A
102
{ACAD_REACTORS
330
C
102
}
330
C
100
AcDbDictionary
1001
ACAD
1000
TREAT_AS_HARD
1070
     0
  0
DICTIONARY
  5
17
102
{ACAD_REACTORS
330
C
102
}
330
C
100
AcDbDictionary
  3
STANDARD
350
18
1001
ACAD
1000
TREAT_AS_HARD
1070
     0
  0
DICTIONARY
  5
19
102
{ACAD_REACTORS
330
C
102
}
330
C
100
AcDbDictionary
1001
ACAD
1000
TREAT_AS_HARD
1070
     0
  0
DICTIONARY
  5
43
102
{ACAD_REACTORS
330
C
102
}
330
C
100
AcDbDictionary
  3
ACMSTDDICTIONARY
350
1440
1001
ACAD
1000
TREAT_AS_HARD
1070
     0
  0
DICTIONARY
  5
2B
102
{ACAD_REACTORS
330
C
102
}
330
C
100
AcDbDictionary
  3
ACMGSETTINGS
350
2C
1001
ACAD
1000
TREAT_AS_HARD
1070
     0
  0
DICTIONARY
  5
240
102
{ACAD_REACTORS
330
C
102
}
330
C
100
AcDbDictionary
1001
ACAD
1000
TREAT_AS_HARD
1070
     0
  0
XRECORD
  5
1664E
102
{ACAD_REACTORS
330
C
102
}
330
C
100
AcDbXrecord
  1
DWGPROPS COOKIE
  2

  3

  4

  6

  7

  8

  9

300
AmdtFileType=84
301
=
302
=
303
=
304
=
305
=
306
=
307
=
308
=
309
=
 40
2.484626747685185
 41
2452292.457678333
 42
2452984.50171853
  1

 90
        1
  0
DICTIONARY
  5
1343A
102
{ACAD_REACTORS
330
3A4
102
}
330
3A4
100
AcDbDictionary
  3
*A1
350
1343B
1001
ACAD
1000
TREAT_AS_HARD
1070
     0
  0
XRECORD
  5
166CF
102
{ACAD_REACTORS
330
3A4
102
}
330
3A4
100
AcDbXrecord
340
1F
  0
XRECORD
  5
166CE
102
{ACAD_REACTORS
330
165A2
102
}
330
165A2
100
AcDbXrecord
340
1B
  0
MLINESTYLE
  5
18
102
{ACAD_REACTORS
330
17
102
}
330
17
100
AcDbMlineStyle
  2
STANDARD
 70
     0
  3

 62
   256
 51
90.0
 52
90.0
 71
     2
 49
0.5
 62
   256
  6
BYLAYER
 49
-0.5
 62
   256
  6
BYLAYER
  0
DICTIONARY
  5
1440
102
{ACAD_REACTORS
330
43
102
}
330
43
100
AcDbDictionary
1001
ACAD
1000
TREAT_AS_HARD
1070
     0
  0
DICTIONARY
  5
2C
102
{ACAD_REACTORS
330
2B
102
}
330
2B
100
AcDbDictionary
  3
DWGSETTINGS
350
1663A
1001
ACAD
1000
TREAT_AS_HARD
1070
     0
  0
LAYER_INDEX
  5
1343B
102
{ACAD_REACTORS
330
1343A
102
}
330
1343A
100
AcDbIndex
 40
2453057.564765081
100
AcDbLayerIndex
  8
0
360
1343C
 90
       44
  8
圖層2
360
1343E
 90
        4
  8
Defpoints
360
1343F
 90
        0
  8
AM_5
360
13440
 90
       14
  8
AM_REFDIM
360
13441
 90
        6
  8
AM_7
360
13443
 90
       24
  8
圖層4
360
13444
 90
        2
  8
AM_VIS
360
153AE
 90
      816
  8
LOGO
360
1651B
 90
      145
  0
XRECORD
  5
1663A
102
{ACAD_REACTORS
330
2C
102
}
330
2C
100
AcDbXrecord
  1
VERSION
140
15.0
  1
PRODUCT
  2
AutoCAD Mechanical 2000
  0
IDBUFFER
  5
1343C
330
0
100
AcDbIdBuffer
330
1542D
330
1543F
330
15451
330
15463
330
1547F
330
15491
330
16463
330
16464
330
16465
330
16466
330
16467
330
16468
330
16469
330
1646A
330
1646B
330
1646C
330
1646D
330
1646E
330
1646F
330
16470
330
16471
330
16472
330
16473
330
16474
330
16475
330
16476
330
16477
330
16478
330
16479
330
1647A
330
1647B
330
1647C
330
1647D
330
1647E
330
1647F
330
16480
330
16481
330
16482
330
16483
330
16484
330
16485
330
16486
330
16487
330
16488
  0
IDBUFFER
  5
1343E
330
0
100
AcDbIdBuffer
330
D169
330
D16D
330
DBAB
330
DBAC
  0
IDBUFFER
  5
1343F
330
0
100
AcDbIdBuffer
  0
IDBUFFER
  5
13440
330
0
100
AcDbIdBuffer
330
D622
330
D62D
330
156BA
330
156DE
330
15702
330
15726
330
15758
330
157A9
330
157CD
330
1581B
330
1583F
330
15C72
330
15F13
330
15F62
  0
IDBUFFER
  5
13441
330
0
100
AcDbIdBuffer
330
20A1
330
21E1
330
21E8
330
950E
330
9515
330
9538
  0
IDBUFFER
  5
13443
330
0
100
AcDbIdBuffer
330
15429
330
1542A
330
1542B
330
1542C
330
1543B
330
1543C
330
1543D
330
1543E
330
1544D
330
1544E
330
1544F
330
15450
330
1545F
330
15460
330
15461
330
15462
330
1547B
330
1547C
330
1547D
330
1547E
330
1548D
330
1548E
330
1548F
330
15490
  0
IDBUFFER
  5
13444
330
0
100
AcDbIdBuffer
330
15C73
330
15C74
  0
IDBUFFER
  5
153AE
330
0
100
AcDbIdBuffer
330
1505A
330
1505B
330
1505C
330
1505D
330
1505E
330
1505F
330
15060
330
15061
330
15062
330
15063
330
15064
330
15065
330
15066
330
15067
330
15068
330
15069
330
1506A
330
1506B
330
1506C
330
1506D
330
1506E
330
1506F
330
15070
330
15071
330
15072
330
15073
330
15074
330
15075
330
15076
330
15077
330
15078
330
15079
330
1507A
330
1507B
330
1507C
330
1507D
330
1507E
330
1507F
330
15080
330
15081
330
15082
330
15083
330
15084
330
15085
330
15086
330
15087
330
15088
330
15089
330
1508A
330
1508B
330
1508C
330
1508D
330
1508E
330
1508F
330
15090
330
15091
330
15092
330
15093
330
15094
330
15095
330
15096
330
15097
330
15098
330
15099
330
1509A
330
1509B
330
1509C
330
1509D
330
1509E
330
1509F
330
150A0
330
150A1
330
150A3
330
150A4
330
150A6
330
150A7
330
150A8
330
150A9
330
150AA
330
150AB
330
150AC
330
150AD
330
150AE
330
150AF
330
150B0
330
150B1
330
150B2
330
150B3
330
150B4
330
150B5
330
150B6
330
150B7
330
150B8
330
150B9
330
150BA
330
150BB
330
150BC
330
150BD
330
150BE
330
150BF
330
150C0
330
150C1
330
150C2
330
150C3
330
150C4
330
150C5
330
150C6
330
150C7
330
150C8
330
150C9
330
150CA
330
150CB
330
150CC
330
150CD
330
150CE
330
150CF
330
150D0
330
150D1
330
150D2
330
150D3
330
150D4
330
150D5
330
150D6
330
150D7
330
150D8
330
150D9
330
150DA
330
150DB
330
150DC
330
150DD
330
150DE
330
150DF
330
150E0
330
150E1
330
150E2
330
150E3
330
150E4
330
150E5
330
150E6
330
150E7
330
150E8
330
150E9
330
150EA
330
150EB
330
150EC
330
150ED
330
150EE
330
150EF
330
150F0
330
150F1
330
150F2
330
150F3
330
150F4
330
150F5
330
150F6
330
150F7
330
150F8
330
150F9
330
150FA
330
150FB
330
150FC
330
150FD
330
150FE
330
150FF
330
15100
330
15101
330
15102
330
15103
330
15104
330
15105
330
15106
330
15107
330
15108
330
15109
330
1510A
330
1510B
330
1510C
330
1510D
330
1510E
330
1510F
330
15110
330
15111
330
15112
330
15113
330
15114
330
15115
330
15116
330
15117
330
15118
330
15119
330
1511A
330
1511B
330
1511C
330
1511D
330
1511E
330
1511F
330
15120
330
15121
330
15122
330
15123
330
15124
330
15125
330
15126
330
15127
330
15128
330
15129
330
1512A
330
1512B
330
1512C
330
1512D
330
1512E
330
1512F
330
15130
330
15131
330
15132
330
15133
330
15134
330
15135
330
15136
330
15137
330
15138
330
15139
330
1513A
330
1513B
330
1513C
330
1513D
330
1513E
330
1513F
330
15140
330
15141
330
15142
330
15143
330
15144
330
15145
330
15146
330
15147
330
15148
330
15149
330
1514A
330
1514B
330
1514C
330
1514D
330
1514E
330
1514F
330
15150
330
15151
330
15152
330
15153
330
15154
330
15155
330
15156
330
15157
330
15158
330
15159
330
1515A
330
1515C
330
1515D
330
1515E
330
15160
330
15161
330
15162
330
15163
330
15164
330
15165
330
15166
330
15167
330
15168
330
15169
330
1516A
330
1516B
330
1516C
330
1516D
330
1516E
330
1516F
330
15170
330
15171
330
15172
330
15173
330
15174
330
15175
330
15176
330
15177
330
15178
330
15179
330
1517A
330
1517B
330
1517C
330
1517D
330
1517E
330
1517F
330
15180
330
15181
330
15182
330
15183
330
15184
330
15185
330
15186
330
15187
330
15188
330
15189
330
1518A
330
1518B
330
1518C
330
1518D
330
1518E
330
1518F
330
15190
330
15191
330
15192
330
15193
330
15194
330
15195
330
15196
330
15197
330
15198
330
15199
330
1519A
330
1519B
330
1519C
330
1519D
330
1519E
330
1519F
330
151A0
330
151A1
330
151A2
330
151A3
330
151A4
330
151A5
330
151A6
330
151A7
330
151A8
330
151A9
330
151AA
330
151AB
330
151AC
330
151AD
330
151AE
330
151AF
330
151B0
330
151B1
330
151B2
330
151B3
330
151B4
330
151B5
330
151B6
330
151B7
330
151B8
330
151B9
330
151BA
330
151BB
330
151BC
330
151BD
330
151BE
330
151BF
330
151C0
330
151C1
330
151C2
330
151C3
330
151C5
330
151C6
330
151C7
330
151C9
330
151CA
330
151CB
330
151CC
330
151CD
330
151CE
330
151CF
330
151D0
330
151D1
330
151D2
330
151D3
330
151D4
330
151D5
330
151D6
330
151D7
330
151D8
330
151D9
330
151DA
330
151DB
330
151DC
330
151DD
330
151DE
330
151DF
330
151E0
330
151E1
330
151E2
330
151E3
330
151E4
330
151E5
330
151E6
330
151E7
330
151E8
330
151E9
330
151EA
330
151EB
330
151EC
330
151ED
330
151EE
330
151EF
330
151F0
330
151F1
330
151F2
330
151F3
330
151F4
330
151F5
330
151F6
330
151F7
330
151F8
330
151F9
330
151FA
330
151FB
330
151FC
330
151FD
330
151FE
330
151FF
330
15200
330
15201
330
15202
330
15203
330
15204
330
15205
330
15206
330
15207
330
15208
330
15209
330
1520A
330
1520B
330
1520C
330
1520D
330
1520E
330
1520F
330
15210
330
15211
330
15212
330
15213
330
15214
330
15215
330
15216
330
15217
330
15218
330
15219
330
1521A
330
1521B
330
1521C
330
1521D
330
1521E
330
1521F
330
15220
330
15221
330
15222
330
15223
330
15224
330
15225
330
15226
330
15227
330
15228
330
15229
330
1522A
330
1522B
330
1522C
330
1522D
330
1522E
330
1522F
330
15230
330
15233
330
15234
330
15235
330
15236
330
15237
330
15238
330
15239
330
1523A
330
1523B
330
1523C
330
1523D
330
1523E
330
1523F
330
15240
330
15241
330
15242
330
15243
330
15244
330
15245
330
15246
330
15247
330
15248
330
15249
330
1524A
330
1524B
330
1524C
330
1524D
330
1524E
330
1524F
330
15250
330
15251
330
15252
330
15253
330
15254
330
15255
330
15256
330
15257
330
15258
330
15259
330
1525A
330
1525B
330
1525C
330
1525D
330
1525E
330
1525F
330
15260
330
15261
330
15262
330
15263
330
15264
330
15265
330
15266
330
15267
330
15268
330
15269
330
1526A
330
1526B
330
1526C
330
1526D
330
1526E
330
1526F
330
15270
330
15271
330
15272
330
15273
330
15274
330
15275
330
15276
330
15277
330
15278
330
15279
330
1527A
330
1527B
330
1527C
330
1527D
330
1527E
330
1527F
330
15280
330
15281
330
15282
330
15283
330
15284
330
15285
330
15286
330
15287
330
15288
330
15289
330
1528A
330
1528B
330
1528C
330
1528D
330
1528E
330
1528F
330
15290
330
15291
330
15292
330
15293
330
15294
330
15295
330
15296
330
15297
330
15298
330
15299
330
1529A
330
1529B
330
1529C
330
1529D
330
1529E
330
1529F
330
152A0
330
152A1
330
152A2
330
152A3
330
152A4
330
152A5
330
152A6
330
152A7
330
152A8
330
152A9
330
152AA
330
152AB
330
152AC
330
152AD
330
152AE
330
152AF
330
152B0
330
152B1
330
152B2
330
152B3
330
152B4
330
152B5
330
152B6
330
152B7
330
152B8
330
152B9
330
152BA
330
152BB
330
152BC
330
152BD
330
152BE
330
152BF
330
152C0
330
152C1
330
152C2
330
152C3
330
152C4
330
152C5
330
152C6
330
152C7
330
152C8
330
152C9
330
152CA
330
152CB
330
152CC
330
152CD
330
152CE
330
152CF
330
152D0
330
152D1
330
152D2
330
152D3
330
152D4
330
152D5
330
152D6
330
152D7
330
152D8
330
152D9
330
152DA
330
152DB
330
152DC
330
152DD
330
152DE
330
152DF
330
152E0
330
152E1
330
152E2
330
152E3
330
152E4
330
152E5
330
152E6
330
152E7
330
152E8
330
152E9
330
152EA
330
152EB
330
152EC
330
152ED
330
152EE
330
152EF
330
152F0
330
152F1
330
152F2
330
152F3
330
152F4
330
152F5
330
152F6
330
152F7
330
152F8
330
152F9
330
152FA
330
152FB
330
152FC
330
152FD
330
152FE
330
152FF
330
15300
330
15301
330
15302
330
15303
330
15304
330
15305
330
15306
330
15307
330
15308
330
15309
330
1530A
330
1530B
330
1530C
330
1530D
330
1530E
330
1530F
330
15310
330
15311
330
15312
330
15313
330
15314
330
15315
330
15316
330
15317
330
15318
330
15319
330
1531A
330
1531B
330
1531C
330
1531D
330
1531E
330
1531F
330
15320
330
15321
330
15322
330
15323
330
15324
330
15325
330
15326
330
15327
330
15328
330
15329
330
1532A
330
1532B
330
1532C
330
1532D
330
1532E
330
1532F
330
15330
330
15331
330
15332
330
15333
330
15334
330
15335
330
15336
330
15337
330
15338
330
15339
330
1533A
330
1533B
330
1533C
330
1533D
330
1533E
330
1533F
330
15340
330
15341
330
15342
330
15343
330
15344
330
15345
330
15346
330
15347
330
15348
330
15349
330
1534A
330
1534B
330
1534C
330
1534D
330
1534E
330
1534F
330
15350
330
15351
330
15352
330
15353
330
15354
330
15355
330
15356
330
15357
330
15358
330
15359
330
1535A
330
1535B
330
1535C
330
1535D
330
1535E
330
1535F
330
15360
330
15361
330
15362
330
15363
330
15364
330
15365
330
15366
330
15367
330
15368
330
15369
330
1536A
330
1536B
330
1536C
330
1536D
330
1536E
330
1536F
330
15370
330
15371
330
15372
330
15373
330
15374
330
15375
330
15376
330
15377
330
15378
330
15379
330
1537A
330
1537B
330
1537C
330
1537D
330
1537E
330
1537F
330
15380
330
15381
330
15382
330
15383
330
15384
330
15385
330
15386
330
15387
330
15388
330
15389
330
1538A
330
1538B
330
1538C
330
1538D
330
1538E
330
1538F
330
15390
330
15391
  0
IDBUFFER
  5
1651B
330
0
100
AcDbIdBuffer
330
164F9
330
164FA
330
164FB
330
164FC
330
164FD
330
164FE
330
164FF
330
16500
330
16501
330
16502
330
16503
330
16504
330
16505
330
16506
330
16507
330
16508
330
16509
330
1650A
330
1650B
330
1650C
330
1650D
330
1650E
330
1650F
330
16510
330
16511
330
16512
330
16513
330
16514
330
16515
330
16516
330
16517
330
16518
330
16519
330
16489
330
1648A
330
1648B
330
1648C
330
1648D
330
1648E
330
1648F
330
16490
330
16491
330
16492
330
16493
330
16494
330
16495
330
16496
330
16497
330
16498
330
16499
330
1649A
330
1649B
330
1649C
330
1649D
330
1649E
330
1649F
330
164A0
330
164A1
330
164A2
330
164A3
330
164A4
330
164A5
330
164A6
330
164A7
330
164A8
330
164A9
330
164AA
330
164AB
330
164AC
330
164AD
330
164AE
330
164AF
330
164B0
330
164B1
330
164B2
330
164B3
330
164B4
330
164B5
330
164B6
330
164B7
330
164B8
330
164B9
330
164BA
330
164BB
330
164BC
330
164BD
330
164BE
330
164BF
330
164C0
330
164C1
330
164C2
330
164C3
330
164C4
330
164C5
330
164C6
330
164C7
330
164C8
330
164C9
330
164CA
330
164CB
330
164CC
330
164CD
330
164CE
330
164CF
330
164D0
330
164D1
330
164D2
330
164D3
330
164D4
330
164D5
330
164D6
330
164D7
330
164D8
330
164D9
330
164DA
330
164DB
330
164DC
330
164DD
330
164DE
330
164DF
330
164E0
330
164E1
330
164E2
330
164E3
330
164E4
330
164E5
330
164E6
330
164E7
330
164E8
330
164E9
330
164EA
330
164EB
330
164EC
330
164ED
330
164EE
330
164EF
330
164F0
330
164F1
330
164F2
330
164F3
330
164F4
330
164F5
330
164F6
330
164F7
330
164F8
  0
ENDSEC
  0
EOF
