  0
SECTION
  2
HEADER
  9
$ACADVER
  1
AC1015
  9
$ACADMAINTVER
 70
    20
  9
$DWGCODEPAGE
  3
ANSI_950
  9
$INSBASE
 10
0.0
 20
0.0
 30
0.0
  9
$EXTMIN
 10
117.384372937016
 20
2.56624584049166
 30
-0.0145900007271962
  9
$EXTMAX
 10
477.4126511381987
 20
497.5933259266676
 30
235.9087538914475
  9
$LIMMIN
 10
0.0
 20
0.0
  9
$LIMMAX
 10
420.0
 20
297.0
  9
$ORTHOMODE
 70
     0
  9
$REGENMODE
 70
     1
  9
$FILLMODE
 70
     1
  9
$QTEXTMODE
 70
     0
  9
$MIRRTEXT
 70
     1
  9
$LTSCALE
 40
1.0
  9
$ATTMODE
 70
     1
  9
$TEXTSIZE
 40
3.0
  9
$TRACEWID
 40
1.0
  9
$TEXTSTYLE
  7
STANDARD
  9
$CLAYER
  8
0
  9
$CELTYPE
  6
ByLayer
  9
$CECOLOR
 62
   256
  9
$CELTSCALE
 40
1.0
  9
$DISPSILH
 70
     0
  9
$DIMSCALE
 40
1.0
  9
$DIMASZ
 40
3.0
  9
$DIMEXO
 40
1.0
  9
$DIMDLI
 40
8.0
  9
$DIMRND
 40
0.0
  9
$DIMDLE
 40
0.0
  9
$DIMEXE
 40
1.5
  9
$DIMTP
 40
0.1
  9
$DIMTM
 40
0.1
  9
$DIMTXT
 40
3.5
  9
$DIMCEN
 40
0.0
  9
$DIMTSZ
 40
0.0
  9
$DIMTOL
 70
     0
  9
$DIMLIM
 70
     0
  9
$DIMTIH
 70
     0
  9
$DIMTOH
 70
     0
  9
$DIMSE1
 70
     0
  9
$DIMSE2
 70
     0
  9
$DIMTAD
 70
     1
  9
$DIMZIN
 70
     8
  9
$DIMBLK
  1

  9
$DIMASO
 70
     1
  9
$DIMSHO
 70
     1
  9
$DIMPOST
  1

  9
$DIMAPOST
  1
"
  9
$DIMALT
 70
     0
  9
$DIMALTD
 70
     2
  9
$DIMALTF
 40
0.0393701
  9
$DIMLFAC
 40
1.0
  9
$DIMTOFL
 70
     1
  9
$DIMTVP
 40
0.0
  9
$DIMTIX
 70
     0
  9
$DIMSOXD
 70
     0
  9
$DIMSAH
 70
     0
  9
$DIMBLK1
  1

  9
$DIMBLK2
  1

  9
$DIMSTYLE
  2
AM_ISO
  9
$DIMCLRD
 70
   256
  9
$DIMCLRE
 70
   256
  9
$DIMCLRT
 70
   256
  9
$DIMTFAC
 40
0.6
  9
$DIMGAP
 40
0.7
  9
$DIMJUST
 70
     0
  9
$DIMSD1
 70
     0
  9
$DIMSD2
 70
     0
  9
$DIMTOLJ
 70
     0
  9
$DIMTZIN
 70
     8
  9
$DIMALTZ
 70
     0
  9
$DIMALTTZ
 70
     0
  9
$DIMUPT
 70
     0
  9
$DIMDEC
 70
     0
  9
$DIMTDEC
 70
     8
  9
$DIMALTU
 70
     2
  9
$DIMALTTD
 70
     2
  9
$DIMTXSTY
  7
STANDARD
  9
$DIMAUNIT
 70
     0
  9
$DIMADEC
 70
     0
  9
$DIMALTRND
 40
0.0
  9
$DIMAZIN
 70
     2
  9
$DIMDSEP
 70
    46
  9
$DIMATFIT
 70
     3
  9
$DIMFRAC
 70
     0
  9
$DIMLDRBLK
  1

  9
$DIMLUNIT
 70
     2
  9
$DIMLWD
 70
    -1
  9
$DIMLWE
 70
    -1
  9
$DIMTMOVE
 70
     0
  9
$LUNITS
 70
     2
  9
$LUPREC
 70
     2
  9
$SKETCHINC
 40
1.0
  9
$FILLETRAD
 40
2.5
  9
$AUNITS
 70
     0
  9
$AUPREC
 70
     0
  9
$MENU
  1
.
  9
$ELEVATION
 40
0.0
  9
$PELEVATION
 40
0.0
  9
$THICKNESS
 40
0.0
  9
$LIMCHECK
 70
     0
  9
$CHAMFERA
 40
2.5
  9
$CHAMFERB
 40
2.5
  9
$CHAMFERC
 40
20.0
  9
$CHAMFERD
 40
0.0
  9
$SKPOLY
 70
     0
  9
$TDCREATE
 40
2454231.379438473
  9
$TDUCREATE
 40
2454231.046105139
  9
$TDUPDATE
 40
2454231.392864040
  9
$TDUUPDATE
 40
2454231.059530706
  9
$TDINDWG
 40
0.0130070833
  9
$TDUSRTIMER
 40
0.0130070833
  9
$USRTIMER
 70
     1
  9
$ANGBASE
 50
0.0
  9
$ANGDIR
 70
     0
  9
$PDMODE
 70
     0
  9
$PDSIZE
 40
0.0
  9
$PLINEWID
 40
0.0
  9
$SPLFRAME
 70
     0
  9
$SPLINETYPE
 70
     6
  9
$SPLINESEGS
 70
     8
  9
$HANDSEED
  5
18CB
  9
$SURFTAB1
 70
     6
  9
$SURFTAB2
 70
     6
  9
$SURFTYPE
 70
     6
  9
$SURFU
 70
     6
  9
$SURFV
 70
     6
  9
$UCSBASE
  2

  9
$UCSNAME
  2

  9
$UCSORG
 10
0.0
 20
0.0
 30
0.0
  9
$UCSXDIR
 10
1.0
 20
0.0
 30
0.0
  9
$UCSYDIR
 10
0.0
 20
1.0
 30
0.0
  9
$UCSORTHOREF
  2

  9
$UCSORTHOVIEW
 70
     0
  9
$UCSORGTOP
 10
0.0
 20
0.0
 30
0.0
  9
$UCSORGBOTTOM
 10
0.0
 20
0.0
 30
0.0
  9
$UCSORGLEFT
 10
0.0
 20
0.0
 30
0.0
  9
$UCSORGRIGHT
 10
0.0
 20
0.0
 30
0.0
  9
$UCSORGFRONT
 10
0.0
 20
0.0
 30
0.0
  9
$UCSORGBACK
 10
0.0
 20
0.0
 30
0.0
  9
$PUCSBASE
  2

  9
$PUCSNAME
  2

  9
$PUCSORG
 10
0.0
 20
0.0
 30
0.0
  9
$PUCSXDIR
 10
1.0
 20
0.0
 30
0.0
  9
$PUCSYDIR
 10
0.0
 20
1.0
 30
0.0
  9
$PUCSORTHOREF
  2

  9
$PUCSORTHOVIEW
 70
     0
  9
$PUCSORGTOP
 10
0.0
 20
0.0
 30
0.0
  9
$PUCSORGBOTTOM
 10
0.0
 20
0.0
 30
0.0
  9
$PUCSORGLEFT
 10
0.0
 20
0.0
 30
0.0
  9
$PUCSORGRIGHT
 10
0.0
 20
0.0
 30
0.0
  9
$PUCSORGFRONT
 10
0.0
 20
0.0
 30
0.0
  9
$PUCSORGBACK
 10
0.0
 20
0.0
 30
0.0
  9
$USERI1
 70
     0
  9
$USERI2
 70
     0
  9
$USERI3
 70
     0
  9
$USERI4
 70
     0
  9
$USERI5
 70
     0
  9
$USERR1
 40
0.0
  9
$USERR2
 40
0.0
  9
$USERR3
 40
0.0
  9
$USERR4
 40
0.0
  9
$USERR5
 40
0.0
  9
$WORLDVIEW
 70
     1
  9
$SHADEDGE
 70
     3
  9
$SHADEDIF
 70
    70
  9
$TILEMODE
 70
     1
  9
$MAXACTVP
 70
    64
  9
$PINSBASE
 10
0.0
 20
0.0
 30
0.0
  9
$PLIMCHECK
 70
     0
  9
$PEXTMIN
 10
1.000000000000000E+20
 20
1.000000000000000E+20
 30
1.000000000000000E+20
  9
$PEXTMAX
 10
-1.000000000000000E+20
 20
-1.000000000000000E+20
 30
-1.000000000000000E+20
  9
$PLIMMIN
 10
0.0
 20
0.0
  9
$PLIMMAX
 10
420.0
 20
297.0
  9
$UNITMODE
 70
     0
  9
$VISRETAIN
 70
     1
  9
$PLINEGEN
 70
     0
  9
$PSLTSCALE
 70
     1
  9
$TREEDEPTH
 70
  3020
  9
$CMLSTYLE
  2
Standard
  9
$CMLJUST
 70
     0
  9
$CMLSCALE
 40
20.0
  9
$PROXYGRAPHICS
 70
     1
  9
$MEASUREMENT
 70
     1
  9
$CELWEIGHT
370
    -1
  9
$ENDCAPS
280
     0
  9
$JOINSTYLE
280
     0
  9
$LWDISPLAY
290
     0
  9
$INSUNITS
 70
     4
  9
$HYPERLINKBASE
  1

  9
$STYLESHEET
  1
彩色出圖.ctb
  9
$XEDIT
290
     1
  9
$CEPSNTYPE
380
     0
  9
$PSTYLEMODE
290
     1
  9
$FINGERPRINTGUID
  2
{0D17D8FD-471F-4C3A-8779-6B5EE0311669}
  9
$VERSIONGUID
  2
{4B0A7D63-5270-4EEA-A1C2-26B071C936C5}
  9
$EXTNAMES
290
     1
  9
$PSVPSCALE
 40
0.0
  9
$OLESTARTUP
290
     0
  0
ENDSEC
  0
SECTION
  2
CLASSES
  0
CLASS
  1
ACDBDICTIONARYWDFLT
  2
AcDbDictionaryWithDefault
  3
ObjectDBX Classes
 90
        0
280
     0
281
     0
  0
CLASS
  1
ACDBPLACEHOLDER
  2
AcDbPlaceHolder
  3
ObjectDBX Classes
 90
        0
280
     0
281
     0
  0
CLASS
  1
LAYOUT
  2
AcDbLayout
  3
ObjectDBX Classes
 90
        0
280
     0
281
     0
  0
CLASS
  1
ACME_DOCUMENT
  2
AcMeDbDoc
  3
AcMeServices
 90
        0
280
     0
281
     0
  0
CLASS
  1
AMGSETTINGSOBJ
  2
AmgSettingsObj
  3
"AcadM|Product Description: AutoCAD Mechanical 2000|Company: Autodesk"
 90
        0
280
     0
281
     0
  0
CLASS
  1
ACMESCOPE
  2
AcMeScope
  3
AcMeServices
 90
        0
280
     0
281
     0
  0
CLASS
  1
ACMECOMMANDHISTORY
  2
AcMeCommandHistory
  3
AcMeServices
 90
        0
280
     0
281
     0
  0
CLASS
  1
ACIMSYSVARMAN
  2
AcImSysVarManager
  3
AcMeServices
 90
        0
280
     0
281
     0
  0
CLASS
  1
ACIMREALSYSVAR
  2
AcImRealSysVar
  3
AcMeServices
 90
        0
280
     0
281
     0
  0
CLASS
  1
ACIMINTSYSVAR
  2
AcImIntSysVar
  3
AcMeServices
 90
        0
280
     0
281
     0
  0
CLASS
  1
ACMEDRAWINGMAN
  2
AcMeDrawingMan
  3
AcMeServices
 90
        0
280
     0
281
     0
  0
CLASS
  1
ACMEVIEW
  2
AcMeView
  3
AcMeServices
 90
        0
280
     0
281
     0
  0
CLASS
  1
ACDBENTITYCACHE
  2
AcMeEntityCache
  3
AcMeServices
 90
        0
280
     0
281
     0
  0
CLASS
  1
GSMANAGER
  2
AcMeGSManager
  3
AcMeServices
 90
        0
280
     0
281
     0
  0
CLASS
  1
AMDTINTERNALREACTOR
  2
AmdtInternalReactor
  3
AcMeServices
 90
        0
280
     0
281
     0
  0
CLASS
  1
ACMESTATEMGR
  2
AcMeStateMgr
  3
AcMeServices
 90
        0
280
     0
281
     0
  0
CLASS
  1
ACGREFMASTER
  2
AcGrefMaster
  3
AcAttribServices
 90
        0
280
     0
281
     0
  0
CLASS
  1
ACME_DATABASE
  2
AcMeDbDatabase
  3
AcMeServices
 90
        0
280
     0
281
     0
  0
CLASS
  1
ACRFINSADJUSTERMGR
  2
AcRfInsAdjusterMgr
  3
AcMeServices
 90
        0
280
     0
281
     0
  0
CLASS
  1
ACGREFACADMASTER
  2
AcGrefacadMaster
  3
AcGrefServices
 90
        0
280
     0
281
     0
  0
CLASS
  1
AMIMASTER
  2
AmiMaster
  3
AmiServices
 90
        0
280
     0
281
     0
  0
CLASS
  1
ACMDATADICTIONARY
  2
AcmDataDictionary
  3
"AcmSymBB|Product Description: AutoCAD Mechanical 2004 DX|Company: Autodesk"
 90
        0
280
     0
281
     0
  0
CLASS
  1
ACMDATAENTRYBLOCK
  2
AcmDataEntryBlock
  3
"AcmSymBB|Product Description: AutoCAD Mechanical 2004 DX|Company: Autodesk"
 90
        0
280
     0
281
     0
  0
CLASS
  1
ACIMSTRSYSVAR
  2
AcImStrSysVar
  3
AcMeServices
 90
        0
280
     0
281
     0
  0
CLASS
  1
ACMSTANDARDISO
  2
AcmStandardISO
  3
"Amdt_StdImp|Product Description: AutoCAD Mechanical 2004 DX|Company: Autodesk"
 90
        0
280
     0
281
     0
  0
CLASS
  1
AMGOBJPROPCFG
  2
AmgObjPropCfg
  3
"AmgLay|Product Description: AutoCAD Mechanical 2000|Company: Autodesk"
 90
        1
280
     0
281
     0
  0
CLASS
  1
AMDTEDGESTANDARDISO
  2
AmdtEdgeStdISO
  3
"Amdt_StdImp|Product Description: AutoCAD Mechanical 2004 DX|Company: Autodesk"
 90
        0
280
     0
281
     0
  0
CLASS
  1
ACMSURFSTANDARDISO
  2
AcmSurfTextStdISO
  3
"Amdt_StdImp|Product Description: AutoCAD Mechanical 2004 DX|Company: Autodesk"
 90
        0
280
     0
281
     0
  0
CLASS
  1
ACMFCFSTANDARDISO
  2
AcmFCFStdISO
  3
"Amdt_StdImp|Product Description: AutoCAD Mechanical 2004 DX|Company: Autodesk"
 90
        0
280
     0
281
     0
  0
CLASS
  1
ACMWELDSTANDARDISO
  2
AcmWeldingStdISO
  3
"Amdt_StdImp|Product Description: AutoCAD Mechanical 2004 DX|Company: Autodesk"
 90
        0
280
     0
281
     0
  0
CLASS
  1
ACMIDSTANDARDISO
  2
AcmIdStdISO
  3
"Amdt_StdImp|Product Description: AutoCAD Mechanical 2004 DX|Company: Autodesk"
 90
        0
280
     0
281
     0
  0
CLASS
  1
ACMDATUMSTANDARDISO
  2
AcmDatumStdISO
  3
"Amdt_StdImp|Product Description: AutoCAD Mechanical 2004 DX|Company: Autodesk"
 90
        0
280
     0
281
     0
  0
CLASS
  1
ACMBOMSTANDARDISO
  2
AcmBOMStdISO
  3
"Amdt_StdImp|Product Description: AutoCAD Mechanical 2004 DX|Company: Autodesk"
 90
        0
280
     0
281
     0
  0
CLASS
  1
ACMDETAILSTANDARDISO
  2
AmdtDetailSymStdISO
  3
"Amdt_StdImp|Product Description: AutoCAD Mechanical 2004 DX|Company: Autodesk"
 90
        0
280
     0
281
     0
  0
CLASS
  1
ACMSECTIONSTANDARDISO
  2
AmdtSectionSymStdISO
  3
"Amdt_StdImp|Product Description: AutoCAD Mechanical 2004 DX|Company: Autodesk"
 90
        0
280
     0
281
     0
  0
CLASS
  1
ACMCENTERLINESTANDARDISO
  2
AmdtCenterLineStdISO
  3
"Amdt_StdImp|Product Description: AutoCAD Mechanical 2004 DX|Company: Autodesk"
 90
        0
280
     0
281
     0
  0
CLASS
  1
ACMNOTESTANDARDISO
  2
AmdtNoteStdISO
  3
"Amdt_StdImp|Product Description: AutoCAD Mechanical 2004 DX|Company: Autodesk"
 90
        0
280
     0
281
     0
  0
CLASS
  1
ACAMGLAYSTD
  2
AcAmgLayStd
  3
"AcAmgLayStd|Product Description: AutoCAD Mechanical 2000|Company: Autodesk"
 90
        0
280
     0
281
     0
  0
CLASS
  1
ACAMGDIMSTD
  2
AcAmgDimStd
  3
"AcAmgDimStd|Product Description: AutoCAD Mechanical 2000|Company: Autodesk"
 90
        0
280
     0
281
     0
  0
CLASS
  1
ACAMGHOLECHARTSTDISO
  2
AcAmgHoleChartStdISO
  3
ACMSYMBB_MODULE_NAME
 90
        0
280
     0
281
     0
  0
CLASS
  1
ACAMGTITLESTD
  2
AcAmgTitleStd
  3
"TITLEAPP"
 90
        0
280
     0
281
     0
  0
CLASS
  1
LAYER_INDEX
  2
AcDbLayerIndex
  3
ObjectDBX Classes
 90
    32768
280
     0
281
     0
  0
CLASS
  1
IDBUFFER
  2
AcDbIdBuffer
  3
ObjectDBX Classes
 90
    32768
280
     0
281
     0
  0
CLASS
  1
DICTIONARYVAR
  2
AcDbDictionaryVar
  3
ObjectDBX Classes
 90
        0
280
     0
281
     0
  0
CLASS
  1
AM_DRAWING_MGR
  2
AcDmDwgMgr
  3
AcMechDwgViewMgmt
 90
        0
280
     0
281
     0
  0
CLASS
  1
AM_DWG_DOCUMENT
  2
AcDmDwgDocument
  3
AcMechDwgViewMgmt
 90
        0
280
     0
281
     0
  0
CLASS
  1
AM_DWG_SHEET
  2
AcDmSheet
  3
AcMechDwgViewMgmt
 90
        0
280
     0
281
     0
  0
CLASS
  1
AM_VIEWDIMPARMAP
  2
AcDmViewDimParMap
  3
AcMechDwgViewMgmt
 90
        0
280
     0
281
     0
  0
CLASS
  1
AM_DWGMGR_NAME
  2
AcDmDwgMgrName
  3
AcMechDwgViewMgmt
 90
        0
280
     0
281
     0
  0
CLASS
  1
AMDTMENUSTATEMGR
  2
AmdtMenuStateMgr
  3
McadcomServices
 90
        0
280
     0
281
     0
  0
CLASS
  1
AMDTMCOMMENUSTATE
  2
AmdtMcomMenuState
  3
McadcomServices
 90
        0
280
     0
281
     0
  0
CLASS
  1
MAPIAMMOUDLE
  2
MApiAmModule
  3
MApiAmServices
 90
        0
280
     0
281
     0
  0
CLASS
  1
AMDTADMENUSTATE
  2
AmdtAdMenuState
  3
DesignerServices
 90
        0
280
     0
281
     0
  0
CLASS
  1
ADAPPL
  2
AcAdAppl
  3
DesignerServices
 90
        0
280
     0
281
     0
  0
CLASS
  1
DEPMGR
  2
AcAdDepMgr
  3
DesignerServices
 90
        0
280
     0
281
     0
  0
CLASS
  1
PARAMMGR
  2
AcAdParamMgr
  3
DesignerServices
 90
        0
280
     0
281
     0
  0
CLASS
  1
PARAMSCOPE
  2
AcAdParamScope
  3
DesignerServices
 90
        0
280
     0
281
     0
  0
CLASS
  1
NAMEDAPPL
  2
AcAdNamedAppl
  3
DesignerServices
 90
        0
280
     0
281
     0
  0
CLASS
  1
AMDTDMMENUSTATE
  2
AmdtDmMenuState
  3
AcMechDwgViewMgmt
 90
        0
280
     0
281
     0
  0
CLASS
  1
AMDTAMMENUSTATE
  2
AmdtAmMenuState
  3
DesignerAssemblies
 90
        0
280
     0
281
     0
  0
CLASS
  1
ACAMPROJECT
  2
AcAmProject
  3
DesignerAssemblies
 90
        0
280
     0
281
     0
  0
CLASS
  1
ACAMGRCOMPDEF
  2
AcAmGrCompDef
  3
DesignerAssemblies
 90
        0
280
     0
281
     0
  0
CLASS
  1
ACCMCONTEXT
  2
AcCmContext
  3
DesignerAssemblies
 90
        0
280
     0
281
     0
  0
CLASS
  1
ACAMCOMPDEF
  2
AcAmCompDef
  3
DesignerAssemblies
 90
        0
280
     0
281
     0
  0
CLASS
  1
ACAMCOMPDEFMGR
  2
AcAmCompDefMgr
  3
DesignerAssemblies
 90
        0
280
     0
281
     0
  0
CLASS
  1
AMCONTEXTMGR
  2
AcAmContextMgr
  3
DesignerAssemblies
 90
        0
280
     0
281
     0
  0
CLASS
  1
ACAMCONTEXTMODELER
  2
AcAmContextModeler
  3
DesignerAssemblies
 90
        0
280
     0
281
     0
  0
CLASS
  1
ACMTHREADLINESTANDARDISO
  2
AmdtThreadLineStdISO
  3
"Amdt_StdImp|Product Description: AutoCAD Mechanical 2004 DX|Company: Autodesk"
 90
        0
280
     0
281
     0
  0
CLASS
  1
CATALOGSTATE
  2
AcAmCatalogState
  3
DesignerAssemblies
 90
        0
280
     0
281
     0
  0
CLASS
  1
ACAMGRCOMPDEFSET
  2
AcAmGrCompDefSet
  3
DesignerAssemblies
 90
        0
280
     0
281
     0
  0
CLASS
  1
AMDTBROWSERDBTAB
  2
AmdtBrowserDbTab
  3
McadcomServices
 90
        0
280
     0
281
     0
  0
CLASS
  1
CBROWSERAPPOBJECT
  2
CBrowserAppObject
  3
McadcomServices
 90
        0
280
     0
281
     0
  0
CLASS
  1
DM_PLACEHOLDER
  2
AcDmSelsetPlaceholder
  3
AcMechDwgViewMgmt
 90
        0
280
     0
281
     0
  0
CLASS
  1
TABLESTYLE
  2
AcDbTableStyle
  3
ObjectDBX Classes
 90
     2047
280
     0
281
     0
  0
CLASS
  1
VAACXREFPANELOBJECT
  2
VaAcXREFPanelObject
  3
VAAC_ADDIN
 90
    32768
280
     0
281
     0
  0
CLASS
  1
VAACIMAGEINVENTORY
  2
VaAcImageInventory
  3
VAAC_ADDIN
 90
    32768
280
     0
281
     0
  0
CLASS
  1
AMDTNOTETEMPLATEDB
  2
AmdtNoteTemplateDB
  3
AMDT_STDIMP_MODULE_NAME
 90
        0
280
     0
281
     0
  0
CLASS
  1
ACMBOM
  2
AcmBom
  3
"AcmSymBB|Product Description: AutoCAD Mechanical 2004 DX|Company: Autodesk"
 90
    32768
280
     0
281
     0
  0
CLASS
  1
AMDTFORMULAUPDATEDISPATCHER
  2
AmdtFormulaUpdateDispatcher
  3
AcMeServices
 90
        0
280
     0
281
     0
  0
CLASS
  1
ACMPARTLIST
  2
AcmPartList
  3
"AcmSymBB|Product Description: AutoCAD Mechanical 2004 DX|Company: Autodesk"
 90
    33791
280
     0
281
     1
  0
CLASS
  1
ACAMGFILTERDAT
  2
AcAmgFilterDat
  3
"AcadM|Product Description: AutoCAD Mechanical 2000|Company: Autodesk"
 90
        0
280
     0
281
     0
  0
CLASS
  1
DIMASSOC
  2
AcDbDimAssoc
  3
"AcDbDimAssoc|Product Desc:     AcDim ARX App For Dimension|Company:          Autodesk, Inc.|WEB Address:      www.autodesk.com"
 90
        0
280
     0
281
     0
  0
CLASS
  1
AMDTNOTE
  2
AmdtNote
  3
"AcmSymBB|Product Description: AutoCAD Mechanical 2004 DX|Company: Autodesk"
 90
     1023
280
     0
281
     1
  0
CLASS
  1
SORTENTSTABLE
  2
AcDbSortentsTable
  3
ObjectDBX Classes
 90
    32768
280
     0
281
     0
  0
CLASS
  1
ACRFATTGENMGR
  2
AcRfAttGeneralMgr
  3
AcAttribServices
 90
        0
280
     0
281
     0
  0
ENDSEC
  0
SECTION
  2
TABLES
  0
TABLE
  2
VPORT
  5
8
330
0
100
AcDbSymbolTable
 70
     3
  0
VPORT
  5
18C2
330
8
100
AcDbSymbolTableRecord
100
AcDbViewportTableRecord
  2
*Active
 70
     0
 10
0.0
 20
0.0
 11
1.0
 21
1.0
 12
297.40753414798
 22
250.0568623665297
 13
0.0
 23
0.0
 14
2.5
 24
2.5
 15
10.0
 25
10.0
 16
0.0
 26
0.0
 36
1.0
 17
0.0
 27
0.0
 37
0.0
 40
499.0727522353689
 41
1.661684782608695
 42
50.0
 43
0.0
 44
0.0
 50
0.0
 51
0.0
 71
     0
 72
   100
 73
     1
 74
     3
 75
     0
 76
     0
 77
     0
 78
     0
281
     0
 65
     1
110
0.0
120
0.0
130
0.0
111
1.0
121
0.0
131
0.0
112
0.0
122
1.0
132
0.0
 79
     0
146
0.0
  0
ENDTAB
  0
TABLE
  2
LTYPE
  5
5
330
0
100
AcDbSymbolTable
 70
    14
  0
LTYPE
  5
14
330
5
100
AcDbSymbolTableRecord
100
AcDbLinetypeTableRecord
  2
ByBlock
 70
     0
  3

 72
    65
 73
     0
 40
0.0
  0
LTYPE
  5
15
330
5
100
AcDbSymbolTableRecord
100
AcDbLinetypeTableRecord
  2
ByLayer
 70
     0
  3

 72
    65
 73
     0
 40
0.0
  0
LTYPE
  5
16
330
5
100
AcDbSymbolTableRecord
100
AcDbLinetypeTableRecord
  2
Continuous
 70
     0
  3
Solid line
 72
    65
 73
     0
 40
0.0
  0
LTYPE
  5
64
330
5
100
AcDbSymbolTableRecord
100
AcDbLinetypeTableRecord
  2
AM_ISO02W050
 70
     0
  3
__ __ __ __ __ __ __ __ __ __ __ __ __ __ __
 72
    65
 73
     2
 40
7.5
 49
6.0
 74
     0
 49
-1.5
 74
     0
  0
LTYPE
  5
65
330
5
100
AcDbSymbolTableRecord
100
AcDbLinetypeTableRecord
  2
AM_ISO08W050
 70
     0
  3
____ . ____ . ____ . ____ . ____ . ____ . ____
 72
    65
 73
     4
 40
18.0
 49
12.0
 74
     0
 49
-1.5
 74
     0
 49
3.0
 74
     0
 49
-1.5
 74
     0
  0
LTYPE
  5
66
330
5
100
AcDbSymbolTableRecord
100
AcDbLinetypeTableRecord
  2
AM_ISO09W050
 70
     0
  3
_____ . . _____ . . _____ . . ____ .. ____
 72
    65
 73
     6
 40
22.5
 49
12.0
 74
     0
 49
-1.5
 74
     0
 49
3.0
 74
     0
 49
-1.5
 74
     0
 49
3.0
 74
     0
 49
-1.5
 74
     0
  0
LTYPE
  5
67
330
5
100
AcDbSymbolTableRecord
100
AcDbLinetypeTableRecord
  2
Amconstr
 70
     0
  3
_______________________
 72
    65
 73
     2
 40
9999.0
 49
9999.0
 74
     0
 49
0.0
 74
     0
  0
LTYPE
  5
68
330
5
100
AcDbSymbolTableRecord
100
AcDbLinetypeTableRecord
  2
AM_ISO08W050x2
 70
     0
  3
__ . __ . __ . __ . __ . __
 72
    65
 73
     4
 40
9.0
 49
6.0
 74
     0
 49
-0.75
 74
     0
 49
1.5
 74
     0
 49
-0.75
 74
     0
  0
LTYPE
  5
69
330
5
100
AcDbSymbolTableRecord
100
AcDbLinetypeTableRecord
  2
AM_ISO02W050x2
 70
     0
  3
 _ _ _ _ _ _ _ _ _ _ _ _
 72
    65
 73
     2
 40
3.75
 49
3.0
 74
     0
 49
-0.75
 74
     0
  0
LTYPE
  5
6C
330
5
100
AcDbSymbolTableRecord
100
AcDbLinetypeTableRecord
  2
Amzigzag
 70
     0
  3
/\/-/\/-/\/-/\/-/\/-/\/
 72
    65
 73
     2
 40
11.0001
 49
0.0001
 74
     4
 75
   135
340
6B
 46
0.04
 50
0.0
 44
0.0
 45
0.0
 49
-11.0
 74
     0
  0
LTYPE
  5
7A
330
5
100
AcDbSymbolTableRecord
100
AcDbLinetypeTableRecord
  2
ACISOWELD
 70
     0
  3
_ _ _ _ _
 72
    65
 73
     2
 40
2.0
 49
2.0
 74
     0
 49
-1.0
 74
     0
  0
LTYPE
  5
7B
330
5
100
AcDbSymbolTableRecord
100
AcDbLinetypeTableRecord
  2
ACISOTGB
 70
     0
  3
__ . . __ . .
 72
    65
 73
     6
 40
9.0
 49
4.0
 74
     0
 49
-1.0
 74
     0
 49
1.0
 74
     0
 49
-1.0
 74
     0
 49
1.0
 74
     0
 49
-1.0
 74
     0
  0
LTYPE
  5
7C
330
5
100
AcDbSymbolTableRecord
100
AcDbLinetypeTableRecord
  2
ACISOTGL
 70
     0
  3
_ _ _ _ _
 72
    65
 73
     2
 40
3.0
 49
2.0
 74
     0
 49
-1.0
 74
     0
  0
LTYPE
  5
7E
330
5
100
AcDbSymbolTableRecord
100
AcDbLinetypeTableRecord
  2
CENTER
 70
     0
  3
__ . __
 72
    65
 73
     4
 40
7.0
 49
4.0
 74
     0
 49
-1.0
 74
     0
 49
1.0
 74
     0
 49
-1.0
 74
     0
  0
LTYPE
  5
D8
330
5
100
AcDbSymbolTableRecord
100
AcDbLinetypeTableRecord
  2
HIDDEN
 70
     0
  3
Hidden __ __ __ __ __ __ __ __ __ __ __ __ __ _
 72
    65
 73
     2
 40
9.524999999999998
 49
6.349999999999999
 74
     0
 49
-3.174999999999999
 74
     0
  0
LTYPE
  5
D9
330
5
100
AcDbSymbolTableRecord
100
AcDbLinetypeTableRecord
  2
PHANTOM2
 70
     0
  3
Phantom (.5x) ___ _ _ ___ _ _ ___ _ _ ___ _ _
 72
    65
 73
     6
 40
31.75
 49
15.875
 74
     0
 49
-3.174999999999999
 74
     0
 49
3.174999999999999
 74
     0
 49
-3.174999999999999
 74
     0
 49
3.174999999999999
 74
     0
 49
-3.174999999999999
 74
     0
  0
ENDTAB
  0
TABLE
  2
LAYER
  5
2
102
{ACAD_XDICTIONARY
360
3F9
102
}
330
0
100
AcDbSymbolTable
 70
     6
  0
LAYER
  5
10
330
2
100
AcDbSymbolTableRecord
100
AcDbLayerTableRecord
  2
0
 70
     0
 62
     7
  6
Continuous
370
    -3
390
F
  0
LAYER
  5
A80
330
2
100
AcDbSymbolTableRecord
100
AcDbLayerTableRecord
  2
AM_VIS
 70
     0
 62
     7
  6
Continuous
370
    50
390
F
  0
LAYER
  5
1241
330
2
100
AcDbSymbolTableRecord
100
AcDbLayerTableRecord
  2
AM_7
 70
     0
 62
     1
  6
CENTER
370
    25
390
F
  0
LAYER
  5
1313
330
2
100
AcDbSymbolTableRecord
100
AcDbLayerTableRecord
  2
AM_5
 70
     0
 62
     5
  6
Continuous
370
    50
390
F
  0
LAYER
  5
1327
330
2
100
AcDbSymbolTableRecord
100
AcDbLayerTableRecord
  2
Defpoints
 70
     0
 62
     7
  6
Continuous
290
     0
370
    -3
390
F
  0
LAYER
  5
16D8
330
2
100
AcDbSymbolTableRecord
100
AcDbLayerTableRecord
  2
LOGO
 70
     0
 62
     7
  6
Continuous
370
    -3
390
F
  0
ENDTAB
  0
TABLE
  2
STYLE
  5
3
330
0
100
AcDbSymbolTable
 70
     7
  0
STYLE
  5
11
330
3
100
AcDbSymbolTableRecord
100
AcDbTextStyleTableRecord
  2
STANDARD
 70
     0
 40
0.0
 41
1.0
 50
0.0
 71
     0
 42
3.0
  3
ISOCP.SHX
  4
CHINESET.SHX
  0
STYLE
  5
6B
330
3
100
AcDbSymbolTableRecord
100
AcDbTextStyleTableRecord
  2

 70
     1
 40
0.0
 41
1.0
 50
0.0
 71
     0
 42
2.5
  3
ltypeshp.shx
  4

  0
STYLE
  5
6D
330
3
100
AcDbSymbolTableRecord
100
AcDbTextStyleTableRecord
  2
ACISOTS
 70
     0
 40
1.0
 41
1.0
 50
0.0
 71
     0
 42
1.0
  3
isocp.shx
  4
chineset.shx
  0
STYLE
  5
79
330
3
100
AcDbSymbolTableRecord
100
AcDbTextStyleTableRecord
  2
ACISOGDT
 70
     0
 40
0.0
 41
1.0
 50
0.0
 71
     0
 42
2.5
  3
amgdt.shx
  4
chineset.shx
  0
STYLE
  5
16D9
330
3
100
AcDbSymbolTableRecord
100
AcDbTextStyleTableRecord
  2
CHINESET
 70
     0
 40
0.0
 41
1.0
 50
0.0
 71
     0
 42
3.0
  3
simplex.shx
  4
CHINESET.SHX
  0
ENDTAB
  0
TABLE
  2
VIEW
  5
6
330
0
100
AcDbSymbolTable
 70
     0
  0
ENDTAB
  0
TABLE
  2
UCS
  5
7
330
0
100
AcDbSymbolTable
 70
     0
  0
ENDTAB
  0
TABLE
  2
APPID
  5
9
330
0
100
AcDbSymbolTable
 70
    20
  0
APPID
  5
12
330
9
100
AcDbSymbolTableRecord
100
AcDbRegAppTableRecord
  2
ACAD
 70
     0
  0
APPID
  5
46
330
9
100
AcDbSymbolTableRecord
100
AcDbRegAppTableRecord
  2
MCAD_NO_VIS
 70
     0
  0
APPID
  5
47
330
9
100
AcDbSymbolTableRecord
100
AcDbRegAppTableRecord
  2
ACAD_TEMP_GRAPHIC
 70
     0
  0
APPID
  5
58
330
9
100
AcDbSymbolTableRecord
100
AcDbRegAppTableRecord
  2
ACATTRIBSERVICES
 70
     0
  0
APPID
  5
EE
330
9
100
AcDbSymbolTableRecord
100
AcDbRegAppTableRecord
  2
AD_DRAW
 70
     0
  0
APPID
  5
10C
330
9
100
AcDbSymbolTableRecord
100
AcDbRegAppTableRecord
  2
DESIGNERASSEMBLIES
 70
     0
  0
APPID
  5
111
330
9
100
AcDbSymbolTableRecord
100
AcDbRegAppTableRecord
  2
ACADM_DIM_EDIT
 70
     0
  0
APPID
  5
112
330
9
100
AcDbSymbolTableRecord
100
AcDbRegAppTableRecord
  2
AMDT_DM_ADJ
 70
     0
  0
APPID
  5
22C
330
9
100
AcDbSymbolTableRecord
100
AcDbRegAppTableRecord
  2
ACAD_DSTYLE_DIMTEXT_FILL
 70
     0
  0
APPID
  5
452
330
9
100
AcDbSymbolTableRecord
100
AcDbRegAppTableRecord
  2
GENIUS_GENOENT_13
 70
     0
  0
APPID
  5
453
330
9
100
AcDbSymbolTableRecord
100
AcDbRegAppTableRecord
  2
GENIUS_GENOBJ-N-CRS_13
 70
     0
  0
APPID
  5
454
330
9
100
AcDbSymbolTableRecord
100
AcDbRegAppTableRecord
  2
GENIUS_GENOLIS_13
 70
     0
  0
APPID
  5
455
330
9
100
AcDbSymbolTableRecord
100
AcDbRegAppTableRecord
  2
GENIUS_GENODEF_13
 70
     0
  0
APPID
  5
456
330
9
100
AcDbSymbolTableRecord
100
AcDbRegAppTableRecord
  2
GENIUS_GENOREF_13
 70
     0
  0
APPID
  5
6F3
330
9
100
AcDbSymbolTableRecord
100
AcDbRegAppTableRecord
  2
ACAD_PSEXT
 70
     0
  0
APPID
  5
808
330
9
100
AcDbSymbolTableRecord
100
AcDbRegAppTableRecord
  2
GENIUS_GENDTOL_13
 70
     0
  0
APPID
  5
12F6
330
9
100
AcDbSymbolTableRecord
100
AcDbRegAppTableRecord
  2
GENIUS_GENOBJ-N-CEN_13
 70
     0
  0
APPID
  5
12F7
330
9
100
AcDbSymbolTableRecord
100
AcDbRegAppTableRecord
  2
GENIUS_GENCEN_19
 70
     0
  0
APPID
  5
16DA
330
9
100
AcDbSymbolTableRecord
100
AcDbRegAppTableRecord
  2
GENIUS_GENREC_14
 70
     0
  0
APPID
  5
16DB
330
9
100
AcDbSymbolTableRecord
100
AcDbRegAppTableRecord
  2
GENIUS_GENOBJ-N-REC_13
 70
     0
  0
ENDTAB
  0
TABLE
  2
DIMSTYLE
  5
A
330
0
100
AcDbSymbolTable
 70
    10
100
AcDbDimStyleTable
 71
     3
340
81
340
8B
340
86
  0
DIMSTYLE
105
81
330
A
100
AcDbSymbolTableRecord
100
AcDbDimStyleTableRecord
  2
AM_ISO
 70
     0
  4
"
 41
3.0
 42
1.0
 43
8.0
 44
1.5
 47
0.1
 48
0.1
 73
     0
 74
     0
 77
     1
 78
     8
 79
     2
140
3.5
141
0.0
143
0.0393701
146
0.6
147
0.7
172
     1
176
   256
177
   256
178
   256
271
     2
272
     2
283
     0
284
     8
340
11
371
    -1
372
    -1
  0
DIMSTYLE
105
82
330
A
100
AcDbSymbolTableRecord
100
AcDbDimStyleTableRecord
  2
AM_ISO$3
 70
     0
  4
"
 41
3.0
 42
1.0
 43
8.0
 44
1.5
 47
0.1
 48
0.1
 73
     0
 77
     1
 78
     8
 79
     2
140
3.5
141
0.0
143
0.0393701
146
0.6
147
0.7
176
   256
177
   256
178
   256
271
     2
272
     2
283
     0
284
     8
288
     1
289
     0
340
11
371
    -1
372
    -1
  0
DIMSTYLE
105
83
330
A
100
AcDbSymbolTableRecord
100
AcDbDimStyleTableRecord
  2
AM_ISO$4
 70
     0
  4
"
 41
3.0
 42
1.0
 43
8.0
 44
1.5
 47
0.1
 48
0.1
 73
     0
 77
     1
 78
     8
 79
     2
140
3.5
141
0.0
143
0.0393701
146
0.6
147
0.7
176
   256
177
   256
178
   256
271
     2
272
     2
283
     0
284
     8
288
     1
289
     0
340
11
371
    -1
372
    -1
  0
DIMSTYLE
105
84
330
A
100
AcDbSymbolTableRecord
100
AcDbDimStyleTableRecord
  2
AM_ISO$6
 70
     0
  4
"
 41
3.0
 42
1.0
 43
8.0
 44
1.5
 47
0.1
 48
0.1
 73
     0
 74
     0
 78
     8
 79
     2
140
3.5
141
0.0
143
0.0393701
146
0.6
147
0.7
172
     1
176
   256
177
   256
178
   256
271
     2
272
     2
283
     0
284
     8
340
11
371
    -1
372
    -1
  0
DIMSTYLE
105
85
330
A
100
AcDbSymbolTableRecord
100
AcDbDimStyleTableRecord
  2
AM_ISO$7
 70
     0
  4
"
 41
3.0
 42
1.0
 43
8.0
 44
1.5
 47
0.1
 48
0.1
 73
     0
 74
     0
 77
     1
 78
     8
 79
     2
140
5.0
141
0.0
143
0.0393701
146
0.6
147
0.7
172
     1
176
   256
177
   256
178
   256
271
     2
272
     2
283
     0
284
     8
340
11
371
    -1
372
    -1
  0
DIMSTYLE
105
86
330
A
100
AcDbSymbolTableRecord
100
AcDbDimStyleTableRecord
  2
AM_ISO$SF
 70
     0
  4
"
 41
2.5
 42
1.0
 43
10.0
 44
1.0
 47
0.1
 48
0.1
 73
     0
 74
     0
 75
     1
 76
     1
 77
     1
 78
     8
 79
     2
140
3.5
141
0.0
143
0.0393701
146
0.71
147
1.5
172
     1
176
   256
177
   256
178
     2
271
     2
272
     3
274
     4
283
     0
284
     8
340
11
371
    -1
372
    -1
  0
DIMSTYLE
105
8B
330
A
100
AcDbSymbolTableRecord
100
AcDbDimStyleTableRecord
  2
AM_ISO$SH
 70
     0
  4
"
 41
2.5
 42
1.0
 43
10.0
 44
1.0
 47
0.1
 48
0.1
 73
     0
 74
     0
 75
     1
 76
     1
 77
     1
 78
     8
 79
     2
140
3.5
141
0.0
143
0.0393701
144
2.0
146
0.71
147
1.5
172
     1
173
     1
176
   256
177
   256
178
     2
271
     2
272
     3
274
     4
283
     0
284
     8
340
11
343
87
371
    -1
372
    -1
  0
DIMSTYLE
105
40B
102
{ACAD_REACTORS
330
1326
330
1363
330
1389
330
13AF
330
13D5
330
13FF
330
1425
330
144B
330
1471
330
1497
330
14BD
330
14E3
330
153A
102
}
330
A
100
AcDbSymbolTableRecord
100
AcDbDimStyleTableRecord
  2
AM_ISO$0
 70
     0
  4
"
 41
3.0
 42
1.0
 43
8.0
 44
1.5
 47
0.1
 48
0.1
 73
     0
 74
     0
 77
     1
 78
     8
 79
     2
140
3.5
141
0.0
143
0.0393701
146
0.6
147
0.7
172
     1
176
   256
177
   256
178
   256
271
     2
272
     2
283
     0
284
     8
340
11
371
    -1
372
    -1
  0
ENDTAB
  0
TABLE
  2
BLOCK_RECORD
  5
1
330
0
100
AcDbSymbolTable
 70
    21
  0
BLOCK_RECORD
  5
1F
102
{ACAD_XDICTIONARY
360
8F
102
}
330
1
100
AcDbSymbolTableRecord
100
AcDbBlockTableRecord
  2
*Model_Space
340
22
  0
BLOCK_RECORD
  5
1B
330
1
100
AcDbSymbolTableRecord
100
AcDbBlockTableRecord
  2
*Paper_Space
340
1E
  0
BLOCK_RECORD
  5
23
330
1
100
AcDbSymbolTableRecord
100
AcDbBlockTableRecord
  2
*Paper_Space0
340
26
  0
BLOCK_RECORD
  5
87
330
1
100
AcDbSymbolTableRecord
100
AcDbBlockTableRecord
  2
GENAXEH
340
0
  0
BLOCK_RECORD
  5
1328
330
1
100
AcDbSymbolTableRecord
100
AcDbBlockTableRecord
  2
*D3
340
0
  0
BLOCK_RECORD
  5
1364
330
1
100
AcDbSymbolTableRecord
100
AcDbBlockTableRecord
  2
*D4
340
0
  0
BLOCK_RECORD
  5
138A
330
1
100
AcDbSymbolTableRecord
100
AcDbBlockTableRecord
  2
*D5
340
0
  0
BLOCK_RECORD
  5
13B0
330
1
100
AcDbSymbolTableRecord
100
AcDbBlockTableRecord
  2
*D6
340
0
  0
BLOCK_RECORD
  5
13D6
330
1
100
AcDbSymbolTableRecord
100
AcDbBlockTableRecord
  2
*D7
340
0
  0
BLOCK_RECORD
  5
1400
330
1
100
AcDbSymbolTableRecord
100
AcDbBlockTableRecord
  2
*D8
340
0
  0
BLOCK_RECORD
  5
1426
330
1
100
AcDbSymbolTableRecord
100
AcDbBlockTableRecord
  2
*D9
340
0
  0
BLOCK_RECORD
  5
144C
330
1
100
AcDbSymbolTableRecord
100
AcDbBlockTableRecord
  2
*D10
340
0
  0
BLOCK_RECORD
  5
1472
330
1
100
AcDbSymbolTableRecord
100
AcDbBlockTableRecord
  2
*D11
340
0
  0
BLOCK_RECORD
  5
1498
330
1
100
AcDbSymbolTableRecord
100
AcDbBlockTableRecord
  2
*D12
340
0
  0
BLOCK_RECORD
  5
14BE
330
1
100
AcDbSymbolTableRecord
100
AcDbBlockTableRecord
  2
*D13
340
0
  0
BLOCK_RECORD
  5
14E4
330
1
100
AcDbSymbolTableRecord
100
AcDbBlockTableRecord
  2
*D14
340
0
  0
BLOCK_RECORD
  5
153B
330
1
100
AcDbSymbolTableRecord
100
AcDbBlockTableRecord
  2
*D15
340
0
  0
BLOCK_RECORD
  5
18A8
330
1
100
AcDbSymbolTableRecord
100
AcDbBlockTableRecord
  2
*S18
340
0
  0
BLOCK_RECORD
  5
18B0
330
1
100
AcDbSymbolTableRecord
100
AcDbBlockTableRecord
  2
*S19
340
0
  0
BLOCK_RECORD
  5
18B8
330
1
100
AcDbSymbolTableRecord
100
AcDbBlockTableRecord
  2
*S20
340
0
  0
ENDTAB
  0
ENDSEC
  0
SECTION
  2
BLOCKS
  0
BLOCK
  5
20
330
1F
100
AcDbEntity
  8
0
100
AcDbBlockBegin
  2
*Model_Space
 70
     0
 10
0.0
 20
0.0
 30
0.0
  3
*Model_Space
  1

  0
ENDBLK
  5
21
330
1F
100
AcDbEntity
  8
0
100
AcDbBlockEnd
  0
BLOCK
  5
1C
330
1B
100
AcDbEntity
 67
     1
  8
0
100
AcDbBlockBegin
  2
*Paper_Space
 70
     0
 10
0.0
 20
0.0
 30
0.0
  3
*Paper_Space
  1

  0
ENDBLK
  5
1D
330
1B
100
AcDbEntity
 67
     1
  8
0
100
AcDbBlockEnd
  0
BLOCK
  5
24
330
23
100
AcDbEntity
  8
0
100
AcDbBlockBegin
  2
*Paper_Space0
 70
     0
 10
0.0
 20
0.0
 30
0.0
  3
*Paper_Space0
  1

  0
ENDBLK
  5
25
330
23
100
AcDbEntity
  8
0
100
AcDbBlockEnd
  0
BLOCK
  5
89
330
87
100
AcDbEntity
  8
0
100
AcDbBlockBegin
  2
GENAXEH
 70
     0
 10
0.0
 20
0.0
 30
0.0
  3
GENAXEH
  1

  0
LINE
  5
88
330
87
100
AcDbEntity
  8
0
100
AcDbLine
 10
-1.0
 20
0.0
 30
0.0
 11
1.0
 21
0.0
 31
0.0
  0
ENDBLK
  5
8A
330
87
100
AcDbEntity
  8
0
100
AcDbBlockEnd
  0
BLOCK
  5
1332
330
1328
100
AcDbEntity
  8
0
100
AcDbBlockBegin
  2
*D3
 70
     1
 10
0.0
 20
0.0
 30
0.0
  3
*D3
  1

  0
LINE
  5
1348
330
1328
100
AcDbEntity
  8
AM_5
100
AcDbLine
 10
311.0044966692009
 20
301.2634077602137
 30
0.0
 11
225.004495669201
 21
301.2634077602137
 31
0.0
  0
LINE
  5
1349
330
1328
100
AcDbEntity
  8
AM_5
100
AcDbLine
 10
244.5044966692011
 20
372.4634077602137
 30
0.0
 11
225.004495669201
 21
372.4634077602137
 31
0.0
  0
LINE
  5
134A
330
1328
100
AcDbEntity
  8
AM_5
100
AcDbLine
 10
226.504495669201
 20
304.2634077602138
 30
0.0
 11
226.504495669201
 21
369.4634077602137
 31
0.0
  0
SOLID
  5
134B
330
1328
100
AcDbEntity
  8
AM_5
100
AcDbTrace
 10
226.004495669201
 20
304.2634077602138
 30
0.0
 11
227.004495669201
 21
304.2634077602138
 31
0.0
 12
226.504495669201
 22
301.2634077602137
 32
0.0
 13
226.504495669201
 23
301.2634077602137
 33
0.0
  0
SOLID
  5
134C
330
1328
100
AcDbEntity
  8
AM_5
100
AcDbTrace
 10
226.004495669201
 20
369.4634077602137
 30
0.0
 11
227.004495669201
 21
369.4634077602137
 31
0.0
 12
226.504495669201
 22
372.4634077602137
 32
0.0
 13
226.504495669201
 23
372.4634077602137
 33
0.0
  0
MTEXT
  5
134D
330
1328
100
AcDbEntity
  8
AM_5
100
AcDbMText
 10
223.879495669201
 20
336.8634077602138
 30
0.0
 40
3.5
 41
0.0
 71
     5
 72
     1
  1
(71)
 11
0.0000000000000001
 21
1.0
 31
0.0
 73
     1
 44
1.0
1001
ACAD
1000
MTEXTBEGIN
1070
    73
1070
     1
1070
    44
1040
1.0
1070
    74
1070
     0
1000
MTEXTEND
  0
POINT
  5
134E
330
1328
100
AcDbEntity
  8
Defpoints
 62
     0
100
AcDbPoint
 10
312.004496669201
 20
301.2634077602137
 30
0.0
  0
POINT
  5
134F
330
1328
100
AcDbEntity
  8
Defpoints
 62
     0
100
AcDbPoint
 10
245.504496669201
 20
372.4634077602137
 30
0.0
  0
POINT
  5
1350
330
1328
100
AcDbEntity
  8
Defpoints
 62
     0
100
AcDbPoint
 10
226.504495669201
 20
372.4634077602137
 30
0.0
  0
ENDBLK
  5
1333
330
1328
100
AcDbEntity
  8
0
100
AcDbBlockEnd
  0
BLOCK
  5
136E
330
1364
100
AcDbEntity
  8
0
100
AcDbBlockBegin
  2
*D4
 70
     1
 10
0.0
 20
0.0
 30
0.0
  3
*D4
  1

  0
LINE
  5
15CB
330
1364
100
AcDbEntity
  8
AM_5
100
AcDbLine
 10
238.504496669201
 20
217.6009935678326
 30
0.0
 11
238.504496669201
 21
243.8633892607986
 31
0.0
  0
LINE
  5
15CC
330
1364
100
AcDbEntity
  8
AM_5
100
AcDbLine
 10
394.004496669201
 20
222.3633892607984
 30
0.0
 11
394.004496669201
 21
243.8633892607986
 31
0.0
  0
LINE
  5
15CD
330
1364
100
AcDbEntity
  8
AM_5
100
AcDbLine
 10
241.504496669201
 20
242.3633892607985
 30
0.0
 11
391.004496669201
 21
242.3633892607985
 31
0.0
  0
SOLID
  5
15CE
330
1364
100
AcDbEntity
  8
AM_5
100
AcDbTrace
 10
241.504496669201
 20
242.8633892607986
 30
0.0
 11
241.504496669201
 21
241.8633892607986
 31
0.0
 12
238.504496669201
 22
242.3633892607985
 32
0.0
 13
238.504496669201
 23
242.3633892607985
 33
0.0
  0
SOLID
  5
15CF
330
1364
100
AcDbEntity
  8
AM_5
100
AcDbTrace
 10
391.004496669201
 20
242.8633892607986
 30
0.0
 11
391.004496669201
 21
241.8633892607986
 31
0.0
 12
394.004496669201
 22
242.3633892607985
 32
0.0
 13
394.004496669201
 23
242.3633892607985
 33
0.0
  0
MTEXT
  5
15D0
330
1364
100
AcDbEntity
  8
AM_5
100
AcDbMText
 10
316.254496669201
 20
244.8133892607986
 30
0.0
 40
3.5
 41
0.0
 71
     5
 72
     1
  1
156
 73
     1
 44
1.0
1001
ACAD
1000
MTEXTBEGIN
1070
    73
1070
     1
1070
    44
1040
1.0
1070
    74
1070
     0
1000
MTEXTEND
  0
POINT
  5
15D1
330
1364
100
AcDbEntity
  8
Defpoints
 62
     0
100
AcDbPoint
 10
238.504496669201
 20
216.6009935678326
 30
0.0
  0
POINT
  5
15D2
330
1364
100
AcDbEntity
  8
Defpoints
 62
     0
100
AcDbPoint
 10
394.004496669201
 20
221.3633892607984
 30
0.0
  0
POINT
  5
15D3
330
1364
100
AcDbEntity
  8
Defpoints
 62
     0
100
AcDbPoint
 10
394.004496669201
 20
242.3633892607985
 30
0.0
  0
ENDBLK
  5
136F
330
1364
100
AcDbEntity
  8
0
100
AcDbBlockEnd
  0
BLOCK
  5
1394
330
138A
100
AcDbEntity
  8
0
100
AcDbBlockBegin
  2
*D5
 70
     1
 10
0.0
 20
0.0
 30
0.0
  3
*D5
  1

  0
LINE
  5
15E9
330
138A
100
AcDbEntity
  8
AM_5
100
AcDbLine
 10
349.004496669201
 20
197.3867942607986
 30
0.0
 11
349.004496669201
 21
178.8633892607984
 31
0.0
  0
LINE
  5
15EA
330
138A
100
AcDbEntity
  8
AM_5
100
AcDbLine
 10
394.004496669201
 20
192.3633892607984
 30
0.0
 11
394.004496669201
 21
178.8633892607984
 31
0.0
  0
LINE
  5
15EB
330
138A
100
AcDbEntity
  8
AM_5
100
AcDbLine
 10
352.004496669201
 20
180.3633892607984
 30
0.0
 11
391.004496669201
 21
180.3633892607984
 31
0.0
  0
SOLID
  5
15EC
330
138A
100
AcDbEntity
  8
AM_5
100
AcDbTrace
 10
352.004496669201
 20
180.8633892607985
 30
0.0
 11
352.004496669201
 21
179.8633892607985
 31
0.0
 12
349.004496669201
 22
180.3633892607984
 32
0.0
 13
349.004496669201
 23
180.3633892607984
 33
0.0
  0
SOLID
  5
15ED
330
138A
100
AcDbEntity
  8
AM_5
100
AcDbTrace
 10
391.004496669201
 20
180.8633892607985
 30
0.0
 11
391.004496669201
 21
179.8633892607985
 31
0.0
 12
394.004496669201
 22
180.3633892607984
 32
0.0
 13
394.004496669201
 23
180.3633892607984
 33
0.0
  0
MTEXT
  5
15EE
330
138A
100
AcDbEntity
  8
AM_5
100
AcDbMText
 10
371.504496669201
 20
182.8133892607984
 30
0.0
 40
3.5
 41
0.0
 71
     5
 72
     1
  1
45
 73
     1
 44
1.0
1001
ACAD
1000
MTEXTBEGIN
1070
    73
1070
     1
1070
    44
1040
1.0
1070
    74
1070
     0
1000
MTEXTEND
  0
POINT
  5
15EF
330
138A
100
AcDbEntity
  8
Defpoints
 62
     0
100
AcDbPoint
 10
349.004496669201
 20
198.3867942607986
 30
0.0
  0
POINT
  5
15F0
330
138A
100
AcDbEntity
  8
Defpoints
 62
     0
100
AcDbPoint
 10
394.004496669201
 20
193.3633892607984
 30
0.0
  0
POINT
  5
15F1
330
138A
100
AcDbEntity
  8
Defpoints
 62
     0
100
AcDbPoint
 10
394.004496669201
 20
180.3633892607984
 30
0.0
  0
ENDBLK
  5
1395
330
138A
100
AcDbEntity
  8
0
100
AcDbBlockEnd
  0
BLOCK
  5
13BA
330
13B0
100
AcDbEntity
  8
0
100
AcDbBlockBegin
  2
*D6
 70
     1
 10
0.0
 20
0.0
 30
0.0
  3
*D6
  1

  0
LINE
  5
1600
330
13B0
100
AcDbEntity
  8
AM_5
100
AcDbLine
 10
326.504496669201
 20
217.3399842607985
 30
0.0
 11
326.504496669201
 21
235.8633892607985
 31
0.0
  0
LINE
  5
1601
330
13B0
100
AcDbEntity
  8
AM_5
100
AcDbLine
 10
349.004496669201
 20
217.3399842607985
 30
0.0
 11
349.004496669201
 21
235.8633892607985
 31
0.0
  0
LINE
  5
1602
330
13B0
100
AcDbEntity
  8
AM_5
100
AcDbLine
 10
329.504496669201
 20
234.3633892607986
 30
0.0
 11
346.004496669201
 21
234.3633892607986
 31
0.0
  0
SOLID
  5
1603
330
13B0
100
AcDbEntity
  8
AM_5
100
AcDbTrace
 10
329.504496669201
 20
234.8633892607986
 30
0.0
 11
329.504496669201
 21
233.8633892607985
 31
0.0
 12
326.504496669201
 22
234.3633892607986
 32
0.0
 13
326.504496669201
 23
234.3633892607986
 33
0.0
  0
SOLID
  5
1604
330
13B0
100
AcDbEntity
  8
AM_5
100
AcDbTrace
 10
346.004496669201
 20
234.8633892607986
 30
0.0
 11
346.004496669201
 21
233.8633892607985
 31
0.0
 12
349.004496669201
 22
234.3633892607986
 32
0.0
 13
349.004496669201
 23
234.3633892607986
 33
0.0
  0
MTEXT
  5
1605
330
13B0
100
AcDbEntity
  8
AM_5
100
AcDbMText
 10
337.754496669201
 20
236.8137337489875
 30
0.0
 40
3.5
 41
0.0
 71
     5
 72
     1
  1
22.5
 73
     1
 44
1.0
1001
ACAD
1000
MTEXTBEGIN
1070
    73
1070
     1
1070
    44
1040
1.0
1070
    74
1070
     0
1000
MTEXTEND
  0
POINT
  5
1606
330
13B0
100
AcDbEntity
  8
Defpoints
 62
     0
100
AcDbPoint
 10
326.504496669201
 20
216.3399842607985
 30
0.0
  0
POINT
  5
1607
330
13B0
100
AcDbEntity
  8
Defpoints
 62
     0
100
AcDbPoint
 10
349.004496669201
 20
216.3399842607985
 30
0.0
  0
POINT
  5
1608
330
13B0
100
AcDbEntity
  8
Defpoints
 62
     0
100
AcDbPoint
 10
349.004496669201
 20
234.3633892607986
 30
0.0
  0
ENDBLK
  5
13BB
330
13B0
100
AcDbEntity
  8
0
100
AcDbBlockEnd
  0
BLOCK
  5
13E0
330
13D6
100
AcDbEntity
  8
0
100
AcDbBlockBegin
  2
*D7
 70
     1
 10
0.0
 20
0.0
 30
0.0
  3
*D7
  1

  0
LINE
  5
15F6
330
13D6
100
AcDbEntity
  8
AM_5
100
AcDbLine
 10
349.004496669201
 20
217.3399842607985
 30
0.0
 11
349.004496669201
 21
235.8633892607985
 31
0.0
  0
LINE
  5
15F7
330
13D6
100
AcDbEntity
  8
AM_5
100
AcDbLine
 10
371.504496669201
 20
217.3399842607985
 30
0.0
 11
371.504496669201
 21
235.8633892607985
 31
0.0
  0
LINE
  5
15F8
330
13D6
100
AcDbEntity
  8
AM_5
100
AcDbLine
 10
352.004496669201
 20
234.3633892607986
 30
0.0
 11
368.504496669201
 21
234.3633892607986
 31
0.0
  0
SOLID
  5
15F9
330
13D6
100
AcDbEntity
  8
AM_5
100
AcDbTrace
 10
352.004496669201
 20
234.8633892607986
 30
0.0
 11
352.004496669201
 21
233.8633892607985
 31
0.0
 12
349.004496669201
 22
234.3633892607986
 32
0.0
 13
349.004496669201
 23
234.3633892607986
 33
0.0
  0
SOLID
  5
15FA
330
13D6
100
AcDbEntity
  8
AM_5
100
AcDbTrace
 10
368.504496669201
 20
234.8633892607986
 30
0.0
 11
368.504496669201
 21
233.8633892607985
 31
0.0
 12
371.504496669201
 22
234.3633892607986
 32
0.0
 13
371.504496669201
 23
234.3633892607986
 33
0.0
  0
MTEXT
  5
15FB
330
13D6
100
AcDbEntity
  8
AM_5
100
AcDbMText
 10
360.254496669201
 20
236.8137337489875
 30
0.0
 40
3.5
 41
0.0
 71
     5
 72
     1
  1
22.5
 73
     1
 44
1.0
1001
ACAD
1000
MTEXTBEGIN
1070
    73
1070
     1
1070
    44
1040
1.0
1070
    74
1070
     0
1000
MTEXTEND
  0
POINT
  5
15FC
330
13D6
100
AcDbEntity
  8
Defpoints
 62
     0
100
AcDbPoint
 10
349.004496669201
 20
216.3399842607985
 30
0.0
  0
POINT
  5
15FD
330
13D6
100
AcDbEntity
  8
Defpoints
 62
     0
100
AcDbPoint
 10
371.504496669201
 20
216.3399842607985
 30
0.0
  0
POINT
  5
15FE
330
13D6
100
AcDbEntity
  8
Defpoints
 62
     0
100
AcDbPoint
 10
371.504496669201
 20
234.3633892607986
 30
0.0
  0
ENDBLK
  5
13E1
330
13D6
100
AcDbEntity
  8
0
100
AcDbBlockEnd
  0
BLOCK
  5
140A
330
1400
100
AcDbEntity
  8
0
100
AcDbBlockBegin
  2
*D8
 70
     1
 10
0.0
 20
0.0
 30
0.0
  3
*D8
  1

  0
LINE
  5
15DA
330
1400
100
AcDbEntity
  8
AM_5
100
AcDbLine
 10
394.004496669201
 20
192.3633892607984
 30
0.0
 11
407.504496669201
 21
192.3633892607984
 31
0.0
  0
LINE
  5
15DB
330
1400
100
AcDbEntity
  8
AM_5
100
AcDbLine
 10
394.004496669201
 20
222.3633892607984
 30
0.0
 11
407.504496669201
 21
222.3633892607984
 31
0.0
  0
LINE
  5
15DC
330
1400
100
AcDbEntity
  8
AM_5
100
AcDbLine
 10
406.0044966692009
 20
195.3633892607984
 30
0.0
 11
406.0044966692009
 21
219.3633892607984
 31
0.0
  0
SOLID
  5
15DD
330
1400
100
AcDbEntity
  8
AM_5
100
AcDbTrace
 10
405.5044966692009
 20
195.3633892607984
 30
0.0
 11
406.504496669201
 21
195.3633892607984
 31
0.0
 12
406.0044966692009
 22
192.3633892607984
 32
0.0
 13
406.0044966692009
 23
192.3633892607984
 33
0.0
  0
SOLID
  5
15DE
330
1400
100
AcDbEntity
  8
AM_5
100
AcDbTrace
 10
405.5044966692009
 20
219.3633892607984
 30
0.0
 11
406.504496669201
 21
219.3633892607984
 31
0.0
 12
406.0044966692009
 22
222.3633892607984
 32
0.0
 13
406.0044966692009
 23
222.3633892607984
 33
0.0
  0
MTEXT
  5
15DF
330
1400
100
AcDbEntity
  8
AM_5
100
AcDbMText
 10
403.5544966692009
 20
207.3633892607985
 30
0.0
 40
3.5
 41
0.0
 71
     5
 72
     1
  1
30
 11
0.0000000000000001
 21
1.0
 31
0.0
 73
     1
 44
1.0
1001
ACAD
1000
MTEXTBEGIN
1070
    73
1070
     1
1070
    44
1040
1.0
1070
    74
1070
     0
1000
MTEXTEND
  0
POINT
  5
15E0
330
1400
100
AcDbEntity
  8
Defpoints
 62
     0
100
AcDbPoint
 10
393.004496669201
 20
192.3633892607984
 30
0.0
  0
POINT
  5
15E1
330
1400
100
AcDbEntity
  8
Defpoints
 62
     0
100
AcDbPoint
 10
393.004496669201
 20
222.3633892607984
 30
0.0
  0
POINT
  5
15E2
330
1400
100
AcDbEntity
  8
Defpoints
 62
     0
100
AcDbPoint
 10
406.0044966692009
 20
222.3633892607984
 30
0.0
  0
ENDBLK
  5
140B
330
1400
100
AcDbEntity
  8
0
100
AcDbBlockEnd
  0
BLOCK
  5
1430
330
1426
100
AcDbEntity
  8
0
100
AcDbBlockBegin
  2
*D9
 70
     1
 10
0.0
 20
0.0
 30
0.0
  3
*D9
  1

  0
LINE
  5
1577
330
1426
100
AcDbEntity
  8
AM_5
100
AcDbLine
 10
394.0044966692011
 20
301.2634077602137
 30
0.0
 11
394.0044966692011
 21
287.7634077602138
 31
0.0
  0
LINE
  5
1578
330
1426
100
AcDbEntity
  8
AM_5
100
AcDbLine
 10
361.004496669201
 20
312.0634077602137
 30
0.0
 11
361.004496669201
 21
287.7634077602138
 31
0.0
  0
LINE
  5
1579
330
1426
100
AcDbEntity
  8
AM_5
100
AcDbLine
 10
391.004496669201
 20
289.2634077602138
 30
0.0
 11
364.004496669201
 21
289.2634077602138
 31
0.0
  0
SOLID
  5
157A
330
1426
100
AcDbEntity
  8
AM_5
100
AcDbTrace
 10
391.004496669201
 20
289.7634077602138
 30
0.0
 11
391.004496669201
 21
288.7634077602138
 31
0.0
 12
394.0044966692011
 22
289.2634077602138
 32
0.0
 13
394.0044966692011
 23
289.2634077602138
 33
0.0
  0
SOLID
  5
157B
330
1426
100
AcDbEntity
  8
AM_5
100
AcDbTrace
 10
364.004496669201
 20
289.7634077602138
 30
0.0
 11
364.004496669201
 21
288.7634077602138
 31
0.0
 12
361.004496669201
 22
289.2634077602138
 32
0.0
 13
361.004496669201
 23
289.2634077602138
 33
0.0
  0
MTEXT
  5
157C
330
1426
100
AcDbEntity
  8
AM_5
100
AcDbMText
 10
377.504496669201
 20
291.7134077602138
 30
0.0
 40
3.5
 41
0.0
 71
     5
 72
     1
  1
33
 73
     1
 44
1.0
1001
ACAD
1000
MTEXTBEGIN
1070
    73
1070
     1
1070
    44
1040
1.0
1070
    74
1070
     0
1000
MTEXTEND
  0
POINT
  5
157D
330
1426
100
AcDbEntity
  8
Defpoints
 62
     0
100
AcDbPoint
 10
394.0044966692011
 20
302.2634077602138
 30
0.0
  0
POINT
  5
157E
330
1426
100
AcDbEntity
  8
Defpoints
 62
     0
100
AcDbPoint
 10
361.004496669201
 20
313.0634077602138
 30
0.0
  0
POINT
  5
157F
330
1426
100
AcDbEntity
  8
Defpoints
 62
     0
100
AcDbPoint
 10
361.004496669201
 20
289.2634077602138
 30
0.0
  0
ENDBLK
  5
1431
330
1426
100
AcDbEntity
  8
0
100
AcDbBlockEnd
  0
BLOCK
  5
1456
330
144C
100
AcDbEntity
  8
0
100
AcDbBlockBegin
  2
*D10
 70
     1
 10
0.0
 20
0.0
 30
0.0
  3
*D10
  1

  0
LINE
  5
156E
330
144C
100
AcDbEntity
  8
AM_5
100
AcDbLine
 10
361.004496669201
 20
312.0634077602137
 30
0.0
 11
361.004496669201
 21
287.7634077602138
 31
0.0
  0
LINE
  5
156F
330
144C
100
AcDbEntity
  8
AM_5
100
AcDbLine
 10
337.004496669201
 20
300.9634077602137
 30
0.0
 11
337.004496669201
 21
287.7634077602138
 31
0.0
  0
LINE
  5
1570
330
144C
100
AcDbEntity
  8
AM_5
100
AcDbLine
 10
358.004496669201
 20
289.2634077602137
 30
0.0
 11
340.004496669201
 21
289.2634077602137
 31
0.0
  0
SOLID
  5
1571
330
144C
100
AcDbEntity
  8
AM_5
100
AcDbTrace
 10
358.004496669201
 20
289.7634077602138
 30
0.0
 11
358.004496669201
 21
288.7634077602137
 31
0.0
 12
361.004496669201
 22
289.2634077602137
 32
0.0
 13
361.004496669201
 23
289.2634077602137
 33
0.0
  0
SOLID
  5
1572
330
144C
100
AcDbEntity
  8
AM_5
100
AcDbTrace
 10
340.004496669201
 20
289.7634077602138
 30
0.0
 11
340.004496669201
 21
288.7634077602137
 31
0.0
 12
337.004496669201
 22
289.2634077602137
 32
0.0
 13
337.004496669201
 23
289.2634077602137
 33
0.0
  0
MTEXT
  5
1573
330
144C
100
AcDbEntity
  8
AM_5
100
AcDbMText
 10
349.004496669201
 20
291.7137522484027
 30
0.0
 40
3.5
 41
0.0
 71
     5
 72
     1
  1
24
 73
     1
 44
1.0
1001
ACAD
1000
MTEXTBEGIN
1070
    73
1070
     1
1070
    44
1040
1.0
1070
    74
1070
     0
1000
MTEXTEND
  0
POINT
  5
1574
330
144C
100
AcDbEntity
  8
Defpoints
 62
     0
100
AcDbPoint
 10
361.004496669201
 20
313.0634077602138
 30
0.0
  0
POINT
  5
1575
330
144C
100
AcDbEntity
  8
Defpoints
 62
     0
100
AcDbPoint
 10
337.004496669201
 20
301.9634077602137
 30
0.0
  0
POINT
  5
1576
330
144C
100
AcDbEntity
  8
Defpoints
 62
     0
100
AcDbPoint
 10
337.004496669201
 20
289.2634077602137
 30
0.0
  0
ENDBLK
  5
1457
330
144C
100
AcDbEntity
  8
0
100
AcDbBlockEnd
  0
BLOCK
  5
147C
330
1472
100
AcDbEntity
  8
0
100
AcDbBlockBegin
  2
*D11
 70
     1
 10
0.0
 20
0.0
 30
0.0
  3
*D11
  1

  0
LINE
  5
158F
330
1472
100
AcDbEntity
  8
AM_5
100
AcDbLine
 10
368.504496669201
 20
340.4634077602137
 30
0.0
 11
407.504496669201
 21
340.4634077602137
 31
0.0
  0
LINE
  5
1590
330
1472
100
AcDbEntity
  8
AM_5
100
AcDbLine
 10
354.754496669201
 20
308.4634077602137
 30
0.0
 11
407.504496669201
 21
308.4634077602137
 31
0.0
  0
LINE
  5
1591
330
1472
100
AcDbEntity
  8
AM_5
100
AcDbLine
 10
406.0044966692009
 20
337.4634077602137
 30
0.0
 11
406.0044966692009
 21
311.4634077602137
 31
0.0
  0
SOLID
  5
1592
330
1472
100
AcDbEntity
  8
AM_5
100
AcDbTrace
 10
405.5044966692009
 20
337.4634077602137
 30
0.0
 11
406.504496669201
 21
337.4634077602137
 31
0.0
 12
406.0044966692009
 22
340.4634077602137
 32
0.0
 13
406.0044966692009
 23
340.4634077602137
 33
0.0
  0
SOLID
  5
1593
330
1472
100
AcDbEntity
  8
AM_5
100
AcDbTrace
 10
405.5044966692009
 20
311.4634077602137
 30
0.0
 11
406.504496669201
 21
311.4634077602137
 31
0.0
 12
406.0044966692009
 22
308.4634077602137
 32
0.0
 13
406.0044966692009
 23
308.4634077602137
 33
0.0
  0
MTEXT
  5
1594
330
1472
100
AcDbEntity
  8
AM_5
100
AcDbMText
 10
403.5541521810119
 20
324.4634077602138
 30
0.0
 40
3.5
 41
0.0
 71
     5
 72
     1
  1
32
 11
0.0000000000000001
 21
1.0
 31
0.0
 73
     1
 44
1.0
1001
ACAD
1000
MTEXTBEGIN
1070
    73
1070
     1
1070
    44
1040
1.0
1070
    74
1070
     0
1000
MTEXTEND
  0
POINT
  5
1595
330
1472
100
AcDbEntity
  8
Defpoints
 62
     0
100
AcDbPoint
 10
367.504496669201
 20
340.4634077602137
 30
0.0
  0
POINT
  5
1596
330
1472
100
AcDbEntity
  8
Defpoints
 62
     0
100
AcDbPoint
 10
353.754496669201
 20
308.4634077602137
 30
0.0
  0
POINT
  5
1597
330
1472
100
AcDbEntity
  8
Defpoints
 62
     0
100
AcDbPoint
 10
406.0044966692009
 20
308.4634077602137
 30
0.0
  0
ENDBLK
  5
147D
330
1472
100
AcDbEntity
  8
0
100
AcDbBlockEnd
  0
BLOCK
  5
14A2
330
1498
100
AcDbEntity
  8
0
100
AcDbBlockBegin
  2
*D12
 70
     1
 10
0.0
 20
0.0
 30
0.0
  3
*D12
  1

  0
LINE
  5
159E
330
1498
100
AcDbEntity
  8
AM_5
100
AcDbLine
 10
394.0044966692011
 20
347.6634077602138
 30
0.0
 11
394.0044966692011
 21
361.1634077602138
 31
0.0
  0
LINE
  5
159F
330
1498
100
AcDbEntity
  8
AM_5
100
AcDbLine
 10
349.004496669201
 20
346.2134077602137
 30
0.0
 11
349.004496669201
 21
361.1634077602138
 31
0.0
  0
LINE
  5
15A0
330
1498
100
AcDbEntity
  8
AM_5
100
AcDbLine
 10
391.004496669201
 20
359.6634077602138
 30
0.0
 11
352.004496669201
 21
359.6634077602138
 31
0.0
  0
SOLID
  5
15A1
330
1498
100
AcDbEntity
  8
AM_5
100
AcDbTrace
 10
391.004496669201
 20
360.1634077602138
 30
0.0
 11
391.004496669201
 21
359.1634077602138
 31
0.0
 12
394.0044966692011
 22
359.6634077602138
 32
0.0
 13
394.0044966692011
 23
359.6634077602138
 33
0.0
  0
SOLID
  5
15A2
330
1498
100
AcDbEntity
  8
AM_5
100
AcDbTrace
 10
352.004496669201
 20
360.1634077602138
 30
0.0
 11
352.004496669201
 21
359.1634077602138
 31
0.0
 12
349.004496669201
 22
359.6634077602138
 32
0.0
 13
349.004496669201
 23
359.6634077602138
 33
0.0
  0
MTEXT
  5
15A3
330
1498
100
AcDbEntity
  8
AM_5
100
AcDbMText
 10
371.504496669201
 20
362.1134077602138
 30
0.0
 40
3.5
 41
0.0
 71
     5
 72
     1
  1
45
 73
     1
 44
1.0
1001
ACAD
1000
MTEXTBEGIN
1070
    73
1070
     1
1070
    44
1040
1.0
1070
    74
1070
     0
1000
MTEXTEND
  0
POINT
  5
15A4
330
1498
100
AcDbEntity
  8
Defpoints
 62
     0
100
AcDbPoint
 10
394.0044966692011
 20
346.6634077602138
 30
0.0
  0
POINT
  5
15A5
330
1498
100
AcDbEntity
  8
Defpoints
 62
     0
100
AcDbPoint
 10
349.004496669201
 20
345.2134077602137
 30
0.0
  0
POINT
  5
15A6
330
1498
100
AcDbEntity
  8
Defpoints
 62
     0
100
AcDbPoint
 10
349.004496669201
 20
359.6634077602138
 30
0.0
  0
ENDBLK
  5
14A3
330
1498
100
AcDbEntity
  8
0
100
AcDbBlockEnd
  0
BLOCK
  5
14C8
330
14BE
100
AcDbEntity
  8
0
100
AcDbBlockBegin
  2
*D13
 70
     1
 10
0.0
 20
0.0
 30
0.0
  3
*D13
  1

  0
LINE
  5
1586
330
14BE
100
AcDbEntity
  8
AM_5
100
AcDbLine
 10
394.004496669201
 20
301.2634077602137
 30
0.0
 11
415.504496669201
 21
301.2634077602137
 31
0.0
  0
LINE
  5
1587
330
14BE
100
AcDbEntity
  8
AM_5
100
AcDbLine
 10
394.004496669201
 20
347.6634077602138
 30
0.0
 11
415.504496669201
 21
347.6634077602138
 31
0.0
  0
LINE
  5
1588
330
14BE
100
AcDbEntity
  8
AM_5
100
AcDbLine
 10
414.0044966692009
 20
304.2634077602138
 30
0.0
 11
414.0044966692009
 21
344.6634077602138
 31
0.0
  0
SOLID
  5
1589
330
14BE
100
AcDbEntity
  8
AM_5
100
AcDbTrace
 10
413.5044966692009
 20
304.2634077602138
 30
0.0
 11
414.504496669201
 21
304.2634077602138
 31
0.0
 12
414.0044966692009
 22
301.2634077602137
 32
0.0
 13
414.0044966692009
 23
301.2634077602137
 33
0.0
  0
SOLID
  5
158A
330
14BE
100
AcDbEntity
  8
AM_5
100
AcDbTrace
 10
413.5044966692009
 20
344.6634077602138
 30
0.0
 11
414.504496669201
 21
344.6634077602138
 31
0.0
 12
414.0044966692009
 22
347.6634077602138
 32
0.0
 13
414.0044966692009
 23
347.6634077602138
 33
0.0
  0
MTEXT
  5
158B
330
14BE
100
AcDbEntity
  8
AM_5
100
AcDbMText
 10
411.5544966692009
 20
324.4634077602138
 30
0.0
 40
3.5
 41
0.0
 71
     5
 72
     1
  1
46
 11
0.0000000000000001
 21
1.0
 31
0.0
 73
     1
 44
1.0
1001
ACAD
1000
MTEXTBEGIN
1070
    73
1070
     1
1070
    44
1040
1.0
1070
    74
1070
     0
1000
MTEXTEND
  0
POINT
  5
158C
330
14BE
100
AcDbEntity
  8
Defpoints
 62
     0
100
AcDbPoint
 10
393.004496669201
 20
301.2634077602137
 30
0.0
  0
POINT
  5
158D
330
14BE
100
AcDbEntity
  8
Defpoints
 62
     0
100
AcDbPoint
 10
393.004496669201
 20
347.6634077602138
 30
0.0
  0
POINT
  5
158E
330
14BE
100
AcDbEntity
  8
Defpoints
 62
     0
100
AcDbPoint
 10
414.0044966692009
 20
347.6634077602138
 30
0.0
  0
ENDBLK
  5
14C9
330
14BE
100
AcDbEntity
  8
0
100
AcDbBlockEnd
  0
BLOCK
  5
14EE
330
14E4
100
AcDbEntity
  8
0
100
AcDbBlockBegin
  2
*D14
 70
     1
 10
0.0
 20
0.0
 30
0.0
  3
*D14
  1

  0
LINE
  5
1565
330
14E4
100
AcDbEntity
  8
AM_5
100
AcDbLine
 10
394.0044966692011
 20
301.2634077602137
 30
0.0
 11
394.0044966692011
 21
279.7634077602136
 31
0.0
  0
LINE
  5
1566
330
14E4
100
AcDbEntity
  8
AM_5
100
AcDbLine
 10
286.004496669201
 20
300.9134077602137
 30
0.0
 11
286.004496669201
 21
279.7634077602136
 31
0.0
  0
LINE
  5
1567
330
14E4
100
AcDbEntity
  8
AM_5
100
AcDbLine
 10
391.004496669201
 20
281.2634077602136
 30
0.0
 11
289.004496669201
 21
281.2634077602136
 31
0.0
  0
SOLID
  5
1568
330
14E4
100
AcDbEntity
  8
AM_5
100
AcDbTrace
 10
391.004496669201
 20
281.7634077602136
 30
0.0
 11
391.004496669201
 21
280.7634077602136
 31
0.0
 12
394.0044966692011
 22
281.2634077602136
 32
0.0
 13
394.0044966692011
 23
281.2634077602136
 33
0.0
  0
SOLID
  5
1569
330
14E4
100
AcDbEntity
  8
AM_5
100
AcDbTrace
 10
289.004496669201
 20
281.7634077602136
 30
0.0
 11
289.004496669201
 21
280.7634077602136
 31
0.0
 12
286.004496669201
 22
281.2634077602136
 32
0.0
 13
286.004496669201
 23
281.2634077602136
 33
0.0
  0
MTEXT
  5
156A
330
14E4
100
AcDbEntity
  8
AM_5
100
AcDbMText
 10
340.004496669201
 20
283.7134077602136
 30
0.0
 40
3.5
 41
0.0
 71
     5
 72
     1
  1
108
 73
     1
 44
1.0
1001
ACAD
1000
MTEXTBEGIN
1070
    73
1070
     1
1070
    44
1040
1.0
1070
    74
1070
     0
1000
MTEXTEND
  0
POINT
  5
156B
330
14E4
100
AcDbEntity
  8
Defpoints
 62
     0
100
AcDbPoint
 10
394.0044966692011
 20
302.2634077602138
 30
0.0
  0
POINT
  5
156C
330
14E4
100
AcDbEntity
  8
Defpoints
 62
     0
100
AcDbPoint
 10
286.004496669201
 20
301.9134077602137
 30
0.0
  0
POINT
  5
156D
330
14E4
100
AcDbEntity
  8
Defpoints
 62
     0
100
AcDbPoint
 10
286.004496669201
 20
281.2634077602136
 30
0.0
  0
ENDBLK
  5
14EF
330
14E4
100
AcDbEntity
  8
0
100
AcDbBlockEnd
  0
BLOCK
  5
1545
330
153B
100
AcDbEntity
  8
0
100
AcDbBlockBegin
  2
*D15
 70
     1
 10
0.0
 20
0.0
 30
0.0
  3
*D15
  1

  0
LINE
  5
155C
330
153B
100
AcDbEntity
  8
AM_5
100
AcDbLine
 10
248.504496669201
 20
313.9634077602137
 30
0.0
 11
248.504496669201
 21
271.7634077602138
 31
0.0
  0
LINE
  5
155D
330
153B
100
AcDbEntity
  8
AM_5
100
AcDbLine
 10
394.0044966692011
 20
301.2634077602137
 30
0.0
 11
394.0044966692011
 21
271.7634077602138
 31
0.0
  0
LINE
  5
155E
330
153B
100
AcDbEntity
  8
AM_5
100
AcDbLine
 10
251.504496669201
 20
273.2634077602138
 30
0.0
 11
391.004496669201
 21
273.2634077602138
 31
0.0
  0
SOLID
  5
155F
330
153B
100
AcDbEntity
  8
AM_5
100
AcDbTrace
 10
251.504496669201
 20
273.7634077602138
 30
0.0
 11
251.504496669201
 21
272.7634077602139
 31
0.0
 12
248.504496669201
 22
273.2634077602138
 32
0.0
 13
248.504496669201
 23
273.2634077602138
 33
0.0
  0
SOLID
  5
1560
330
153B
100
AcDbEntity
  8
AM_5
100
AcDbTrace
 10
391.004496669201
 20
273.7634077602138
 30
0.0
 11
391.004496669201
 21
272.7634077602139
 31
0.0
 12
394.0044966692011
 22
273.2634077602138
 32
0.0
 13
394.0044966692011
 23
273.2634077602138
 33
0.0
  0
MTEXT
  5
1561
330
153B
100
AcDbEntity
  8
AM_5
100
AcDbMText
 10
321.254496669201
 20
275.7134077602138
 30
0.0
 40
3.5
 41
0.0
 71
     5
 72
     1
  1
146
 73
     1
 44
1.0
1001
ACAD
1000
MTEXTBEGIN
1070
    73
1070
     1
1070
    44
1040
1.0
1070
    74
1070
     0
1000
MTEXTEND
  0
POINT
  5
1562
330
153B
100
AcDbEntity
  8
Defpoints
 62
     0
100
AcDbPoint
 10
248.504496669201
 20
314.9634077602137
 30
0.0
  0
POINT
  5
1563
330
153B
100
AcDbEntity
  8
Defpoints
 62
     0
100
AcDbPoint
 10
394.0044966692011
 20
302.2634077602138
 30
0.0
  0
POINT
  5
1564
330
153B
100
AcDbEntity
  8
Defpoints
 62
     0
100
AcDbPoint
 10
394.0044966692011
 20
273.2634077602138
 30
0.0
  0
ENDBLK
  5
1546
330
153B
100
AcDbEntity
  8
0
100
AcDbBlockEnd
  0
BLOCK
  5
18AD
330
18A8
100
AcDbEntity
  8
0
100
AcDbBlockBegin
  2
*S18
 70
     1
 10
0.0
 20
0.0
 30
0.0
  3
*S18
  1

  0
LINE
  5
18A9
330
18A8
100
AcDbEntity
  8
AM_5
 62
     5
100
AcDbLine
 10
316.5469945679048
 20
179.1464924334423
 30
0.0
 11
334.9324888590516
 21
179.1464924334423
 31
0.0
  0
LINE
  5
18AA
330
18A8
100
AcDbEntity
  8
AM_5
 62
     5
100
AcDbLine
 10
334.9324888590516
 20
179.1464924334423
 30
0.0
 11
343.2644863740319
 21
198.2799043991621
 31
0.0
  0
TRACE
  5
18AB
330
18A8
100
AcDbEntity
  8
AM_5
 62
     5
370
    35
100
AcDbTrace
 10
343.6869513238544
 20
198.0959342364752
 30
0.0
 11
342.8420214242093
 21
198.4638745618489
 31
0.0
 12
344.661878500114
 22
201.4888442935764
 32
0.0
 13
344.661878500114
 23
201.4888442935764
 33
0.0
  0
MTEXT
  5
18AC
330
18A8
100
AcDbEntity
  8
AM_5
 62
     5
100
AcDbMText
 10
332.6469945679048
 20
180.4656466645997
 30
0.0
 40
3.5
 41
0.0
 71
     9
 72
     5
  1
3-PF1/4
  7
ACISOTS
 73
     1
 44
1.0
1001
ACAD
1000
MTEXTBEGIN
1070
    73
1070
     1
1070
    44
1040
1.0
1070
    74
1070
     0
1000
MTEXTEND
  0
ENDBLK
  5
18AE
330
18A8
100
AcDbEntity
  8
0
100
AcDbBlockEnd
  0
BLOCK
  5
18B5
330
18B0
100
AcDbEntity
  8
0
100
AcDbBlockBegin
  2
*S19
 70
     1
 10
0.0
 20
0.0
 30
0.0
  3
*S19
  1

  0
LINE
  5
18B1
330
18B0
100
AcDbEntity
  8
AM_5
 62
     5
100
AcDbLine
 10
302.9533046883313
 20
355.0463671473309
 30
0.0
 11
335.2045298357107
 21
355.0463671473309
 31
0.0
  0
LINE
  5
18B2
330
18B0
100
AcDbEntity
  8
AM_5
 62
     5
100
AcDbLine
 10
335.2045298357107
 20
355.0463671473309
 30
0.0
 11
344.6751587058141
 21
345.0140051193375
 31
0.0
  0
TRACE
  5
18B3
330
18B0
100
AcDbEntity
  8
AM_5
 62
     5
370
    35
100
AcDbTrace
 10
344.3400898563908
 20
344.6976974831133
 30
0.0
 11
345.0102275552374
 21
345.3303127555618
 31
0.0
 12
347.0777537452705
 22
342.4689045169291
 32
0.0
 13
347.0777537452705
 23
342.4689045169291
 33
0.0
  0
MTEXT
  5
18B4
330
18B0
100
AcDbEntity
  8
AM_5
 62
     5
100
AcDbMText
 10
332.919035544564
 20
356.3655213784883
 30
0.0
 40
3.5
 41
0.0
 71
     9
 72
     5
  1
2-%%c5.5x3depth
  7
ACISOTS
 73
     1
 44
1.0
1001
ACAD
1000
MTEXTBEGIN
1070
    73
1070
     1
1070
    44
1040
1.0
1070
    74
1070
     0
1000
MTEXTEND
  0
ENDBLK
  5
18B6
330
18B0
100
AcDbEntity
  8
0
100
AcDbBlockEnd
  0
BLOCK
  5
18BD
330
18B8
100
AcDbEntity
  8
0
100
AcDbBlockBegin
  2
*S20
 70
     1
 10
0.0
 20
0.0
 30
0.0
  3
*S20
  1

  0
LINE
  5
18B9
330
18B8
100
AcDbEntity
  8
AM_5
 62
     5
100
AcDbLine
 10
303.7451817204523
 20
159.564035452229
 30
0.0
 11
328.1695539643549
 21
159.564035452229
 31
0.0
  0
LINE
  5
18BA
330
18B8
100
AcDbEntity
  8
AM_5
 62
     5
100
AcDbLine
 10
328.1695539643549
 20
159.564035452229
 30
0.0
 11
332.6052801825922
 21
150.4380288802619
 31
0.0
  0
TRACE
  5
18BB
330
18B8
100
AcDbEntity
  8
AM_5
 62
     5
370
    35
100
AcDbTrace
 10
332.1908566905601
 20
150.2365969467471
 30
0.0
 11
333.0197036746243
 21
150.6394608137767
 31
0.0
 12
334.1353076268481
 22
147.2901699222043
 32
0.0
 13
334.1353076268481
 23
147.2901699222043
 33
0.0
  0
MTEXT
  5
18BC
330
18B8
100
AcDbEntity
  8
AM_5
 62
     5
100
AcDbMText
 10
325.8840596732082
 20
160.8831896833865
 30
0.0
 40
3.5
 41
0.0
 71
     9
 72
     5
  1
2-%%c5.2thru\P%%C9x3depth
  7
ACISOTS
 73
     1
 44
1.0
1001
ACAD
1000
MTEXTBEGIN
1070
    73
1070
     1
1070
    44
1040
1.0
1070
    74
1070
     0
1000
MTEXTEND
  0
ENDBLK
  5
18BE
330
18B8
100
AcDbEntity
  8
0
100
AcDbBlockEnd
  0
ENDSEC
  0
SECTION
  2
ENTITIES
  0
LINE
  5
E62
102
{ACAD_REACTORS
330
1433
330
14A5
330
14F1
330
1548
102
}
330
1F
100
AcDbEntity
  8
AM_VIS
100
AcDbLine
 10
394.004496669201
 20
302.2634077602138
 30
0.0
 11
394.004496669201
 21
346.6634077602138
 31
0.0
  0
LINE
  5
E63
330
1F
100
AcDbEntity
  8
AM_VIS
100
AcDbLine
 10
386.004496669201
 20
301.2634077602137
 30
0.0
 11
393.004496669201
 21
301.2634077602137
 31
0.0
  0
LINE
  5
E64
330
1F
100
AcDbEntity
  8
AM_VIS
100
AcDbLine
 10
393.004496669201
 20
347.6634077602138
 30
0.0
 11
386.004496669201
 21
347.6634077602138
 31
0.0
  0
LINE
  5
E65
330
1F
100
AcDbEntity
  8
AM_VIS
100
AcDbLine
 10
386.004496669201
 20
302.2634077602138
 30
0.0
 11
386.004496669201
 21
346.6634077602138
 31
0.0
  0
ARC
  5
E66
102
{ACAD_REACTORS
330
14A5
330
14CB
102
}
330
1F
100
AcDbEntity
  8
AM_VIS
100
AcDbCircle
 10
393.004496669201
 20
346.6634077602138
 30
0.0
 40
1.0
100
AcDbArc
 50
0.0
 51
90.0
  0
ARC
  5
E67
102
{ACAD_REACTORS
330
1433
330
14CB
330
14F1
330
1548
102
}
330
1F
100
AcDbEntity
  8
AM_VIS
100
AcDbCircle
 10
393.004496669201
 20
302.2634077602138
 30
0.0
 40
1.0
100
AcDbArc
 50
270.0
 51
0.0
  0
LINE
  5
E68
330
1F
100
AcDbEntity
  8
AM_VIS
100
AcDbLine
 10
238.504496669201
 20
355.4634077602137
 30
0.0
 11
244.004496669201
 21
355.4634077602137
 31
0.0
  0
LINE
  5
E69
330
1F
100
AcDbEntity
  8
AM_VIS
100
AcDbLine
 10
238.504496669201
 20
363.4634077602137
 30
0.0
 11
244.004496669201
 21
363.4634077602137
 31
0.0
  0
LINE
  5
E6A
330
1F
100
AcDbEntity
  8
AM_VIS
100
AcDbLine
 10
238.504496669201
 20
360.7959395149443
 30
0.0
 11
244.004496669201
 21
360.7959395149443
 31
0.0
  0
LINE
  5
E6B
330
1F
100
AcDbEntity
  8
AM_VIS
100
AcDbLine
 10
238.504496669201
 20
360.9789522168366
 30
0.0
 11
244.004496669201
 21
360.9789522168366
 31
0.0
  0
LINE
  5
E6C
330
1F
100
AcDbEntity
  8
AM_VIS
100
AcDbLine
 10
244.004496669201
 20
357.9478633035909
 30
0.0
 11
238.504496669201
 21
357.9478633035909
 31
0.0
  0
LINE
  5
E6D
330
1F
100
AcDbEntity
  8
AM_VIS
100
AcDbLine
 10
238.504496669201
 20
358.6308760054832
 30
0.0
 11
244.004496669201
 21
358.6308760054832
 31
0.0
  0
LINE
  5
E6E
330
1F
100
AcDbEntity
  8
AM_VIS
100
AcDbLine
 10
238.504496669201
 20
371.4634077602137
 30
0.0
 11
244.004496669201
 21
371.4634077602137
 31
0.0
  0
LINE
  5
E6F
330
1F
100
AcDbEntity
  8
AM_VIS
100
AcDbLine
 10
238.504496669201
 20
368.9789522168366
 30
0.0
 11
244.004496669201
 21
368.9789522168366
 31
0.0
  0
LINE
  5
E70
330
1F
100
AcDbEntity
  8
AM_VIS
100
AcDbLine
 10
244.004496669201
 20
365.9478633035909
 30
0.0
 11
238.504496669201
 21
365.9478633035909
 31
0.0
  0
LINE
  5
E71
330
1F
100
AcDbEntity
  8
AM_VIS
100
AcDbLine
 10
238.504496669201
 20
366.1308760054832
 30
0.0
 11
244.004496669201
 21
366.1308760054832
 31
0.0
  0
LINE
  5
E72
330
1F
100
AcDbEntity
  8
AM_VIS
100
AcDbLine
 10
238.504496669201
 20
368.2959395149443
 30
0.0
 11
244.004496669201
 21
368.2959395149443
 31
0.0
  0
LINE
  5
E73
330
1F
100
AcDbEntity
  8
AM_VIS
100
AcDbLine
 10
244.004496669201
 20
355.4634077602137
 30
0.0
 11
244.004496669201
 21
357.9478633035909
 31
0.0
  0
LINE
  5
E74
330
1F
100
AcDbEntity
  8
AM_VIS
100
AcDbLine
 10
244.004496669201
 20
358.6308760054832
 30
0.0
 11
244.004496669201
 21
357.947863303591
 31
0.0
  0
LINE
  5
E75
330
1F
100
AcDbEntity
  8
AM_VIS
100
AcDbLine
 10
244.004496669201
 20
360.7959395149443
 30
0.0
 11
244.004496669201
 21
358.6308760054832
 31
0.0
  0
LINE
  5
E76
330
1F
100
AcDbEntity
  8
AM_VIS
100
AcDbLine
 10
244.004496669201
 20
360.9789522168366
 30
0.0
 11
244.004496669201
 21
360.7959395149443
 31
0.0
  0
LINE
  5
E77
330
1F
100
AcDbEntity
  8
AM_VIS
100
AcDbLine
 10
244.004496669201
 20
360.9789522168365
 30
0.0
 11
244.004496669201
 21
363.4634077602137
 31
0.0
  0
LINE
  5
E78
330
1F
100
AcDbEntity
  8
AM_VIS
100
AcDbLine
 10
244.004496669201
 20
363.4634077602137
 30
0.0
 11
244.004496669201
 21
365.947863303591
 31
0.0
  0
LINE
  5
E79
330
1F
100
AcDbEntity
  8
AM_VIS
100
AcDbLine
 10
244.004496669201
 20
366.1308760054832
 30
0.0
 11
244.004496669201
 21
365.947863303591
 31
0.0
  0
LINE
  5
E7A
330
1F
100
AcDbEntity
  8
AM_VIS
100
AcDbLine
 10
244.004496669201
 20
368.2959395149443
 30
0.0
 11
244.004496669201
 21
366.1308760054832
 31
0.0
  0
LINE
  5
E7B
330
1F
100
AcDbEntity
  8
AM_VIS
100
AcDbLine
 10
244.004496669201
 20
368.9789522168364
 30
0.0
 11
244.004496669201
 21
368.2959395149443
 31
0.0
  0
LINE
  5
E7C
330
1F
100
AcDbEntity
  8
AM_VIS
100
AcDbLine
 10
244.004496669201
 20
368.9789522168365
 30
0.0
 11
244.004496669201
 21
371.4634077602137
 31
0.0
  0
LINE
  5
E7D
330
1F
100
AcDbEntity
  8
AM_VIS
100
AcDbLine
 10
238.504496669201
 20
368.9789522168365
 30
0.0
 11
238.504496669201
 21
371.4634077602137
 31
0.0
  0
LINE
  5
E7E
330
1F
100
AcDbEntity
  8
AM_VIS
100
AcDbLine
 10
238.504496669201
 20
368.2959395149443
 30
0.0
 11
238.504496669201
 21
368.9789522168364
 31
0.0
  0
LINE
  5
E7F
330
1F
100
AcDbEntity
  8
AM_VIS
100
AcDbLine
 10
238.504496669201
 20
366.1308760054832
 30
0.0
 11
238.504496669201
 21
368.2959395149443
 31
0.0
  0
LINE
  5
E80
330
1F
100
AcDbEntity
  8
AM_VIS
100
AcDbLine
 10
238.504496669201
 20
365.947863303591
 30
0.0
 11
238.504496669201
 21
366.1308760054832
 31
0.0
  0
LINE
  5
E81
330
1F
100
AcDbEntity
  8
AM_VIS
100
AcDbLine
 10
238.504496669201
 20
363.4634077602137
 30
0.0
 11
238.504496669201
 21
365.947863303591
 31
0.0
  0
LINE
  5
E82
330
1F
100
AcDbEntity
  8
AM_VIS
100
AcDbLine
 10
238.504496669201
 20
360.9789522168365
 30
0.0
 11
238.504496669201
 21
363.4634077602137
 31
0.0
  0
LINE
  5
E83
330
1F
100
AcDbEntity
  8
AM_VIS
100
AcDbLine
 10
238.504496669201
 20
360.7959395149443
 30
0.0
 11
238.504496669201
 21
360.9789522168366
 31
0.0
  0
LINE
  5
E84
330
1F
100
AcDbEntity
  8
AM_VIS
100
AcDbLine
 10
238.504496669201
 20
358.6308760054832
 30
0.0
 11
238.504496669201
 21
360.7959395149443
 31
0.0
  0
LINE
  5
E85
330
1F
100
AcDbEntity
  8
AM_VIS
100
AcDbLine
 10
238.504496669201
 20
357.947863303591
 30
0.0
 11
238.504496669201
 21
358.6308760054832
 31
0.0
  0
LINE
  5
E86
330
1F
100
AcDbEntity
  8
AM_VIS
100
AcDbLine
 10
238.504496669201
 20
355.4634077602137
 30
0.0
 11
238.504496669201
 21
357.9478633035909
 31
0.0
  0
LINE
  5
E87
330
1F
100
AcDbEntity
  8
AM_VIS
100
AcDbLine
 10
244.004496669201
 20
356.7134077602137
 30
0.0
 11
245.504496669201
 21
356.7134077602137
 31
0.0
  0
LINE
  5
E88
330
1F
100
AcDbEntity
  8
AM_VIS
100
AcDbLine
 10
244.004496669201
 20
370.2134077602137
 30
0.0
 11
245.504496669201
 21
370.2134077602137
 31
0.0
  0
ARC
  5
E89
330
1F
100
AcDbEntity
  8
AM_VIS
100
AcDbCircle
 10
228.2917354187322
 20
363.063600106455
 30
0.0
 40
29.6820140621659
100
AcDbArc
 50
349.7984018296441
 51
7.549704053942986
  0
ARC
  5
E8A
330
1F
100
AcDbEntity
  8
AM_VIS
100
AcDbCircle
 10
260.4772664508332
 20
367.4447423485216
 30
0.0
 40
2.802467679762976
100
AcDbArc
 50
151.3662158824402
 51
189.8898067551399
  0
LINE
  5
E8B
330
1F
100
AcDbEntity
  8
AM_VIS
100
AcDbLine
 10
257.504496669201
 20
357.8065535107213
 30
0.0
 11
257.504496669201
 21
341.9634077602137
 31
0.0
  0
LINE
  5
E8C
330
1F
100
AcDbEntity
  8
AM_VIS
100
AcDbLine
 10
283.004496669201
 20
370.4634077602137
 30
0.0
 11
261.0044966692011
 21
370.4634077602137
 31
0.0
  0
LINE
  5
E8D
330
1F
100
AcDbEntity
  8
AM_VIS
100
AcDbLine
 10
286.504496669201
 20
347.2634077602138
 30
0.0
 11
286.504496669201
 21
366.9634077602137
 31
0.0
  0
LINE
  5
E8E
330
1F
100
AcDbEntity
  8
AM_VIS
100
AcDbLine
 10
262.504496669201
 20
370.4634077602137
 30
0.0
 11
257.504496669201
 21
372.4634077602137
 31
0.0
  0
LINE
  5
E8F
330
1F
100
AcDbEntity
  8
AM_VIS
100
AcDbLine
 10
257.504496669201
 20
372.4634077602137
 30
0.0
 11
245.504496669201
 21
372.4634077602137
 31
0.0
  0
LINE
  5
E90
330
1F
100
AcDbEntity
  8
AM_VIS
100
AcDbLine
 10
257.504496669201
 20
354.4634077602137
 30
0.0
 11
245.504496669201
 21
354.4634077602137
 31
0.0
  0
LINE
  5
E91
330
1F
100
AcDbEntity
  8
AM_VIS
100
AcDbLine
 10
257.504496669201
 20
372.4634077602137
 30
0.0
 11
257.504496669201
 21
357.8065535107213
 31
0.0
  0
LINE
  5
E92
102
{ACAD_REACTORS
330
1335
102
}
330
1F
100
AcDbEntity
  8
AM_VIS
100
AcDbLine
 10
245.504496669201
 20
354.4634077602137
 30
0.0
 11
245.504496669201
 21
372.4634077602137
 31
0.0
  0
ARC
  5
E93
330
1F
100
AcDbEntity
  8
AM_VIS
100
AcDbCircle
 10
283.004496669201
 20
366.9634077602137
 30
0.0
 40
3.5
100
AcDbArc
 50
0.0
 51
90.0
  0
ARC
  5
E94
330
1F
100
AcDbEntity
  8
AM_VIS
100
AcDbCircle
 10
261.0044966692011
 20
366.9634077602137
 30
0.0
 40
3.5
100
AcDbArc
 50
90.0
 51
148.5852322907605
  0
LINE
  5
E95
330
1F
100
AcDbEntity
  8
AM_VIS
100
AcDbLine
 10
250.1544966692009
 20
321.0971732862462
 30
0.0
 11
249.004496669201
 21
321.0971732862462
 31
0.0
  0
SPLINE
  5
E96
330
1F
100
AcDbEntity
  8
AM_VIS
100
AcDbSpline
210
0.0
220
0.0
230
1.0
 70
     8
 71
     3
 72
     8
 73
     4
 74
     0
 42
0.0000000001
 43
0.0000000001
 40
1.629958734905461
 40
1.629958734905461
 40
1.629958734905461
 40
1.629958734905461
 40
2.565803457021723
 40
2.565803457021723
 40
2.565803457021723
 40
2.565803457021723
 10
249.004496669201
 20
321.0971732862462
 30
0.0
 10
248.8246357922448
 20
321.3565497527401
 30
0.0
 10
248.6555360452874
 20
321.6277019355922
 30
0.0
 10
248.504496669201
 20
321.9085105020055
 30
0.0
  0
SPLINE
  5
E97
330
1F
100
AcDbEntity
  8
AM_VIS
100
AcDbSpline
210
0.0
220
0.0
230
1.0
 70
     8
 71
     3
 72
     8
 73
     4
 74
     0
 42
0.0000000001
 43
0.0000000001
 40
7.8606508081159
 40
7.8606508081159
 40
7.8606508081159
 40
7.8606508081159
 40
8.796495530230886
 40
8.796495530230886
 40
8.796495530230886
 40
8.796495530230886
 10
248.504496669201
 20
327.018305018422
 30
0.0
 10
248.6555359356526
 20
327.299113381005
 30
0.0
 10
248.8246356769484
 20
327.5702656014191
 30
0.0
 10
249.004496669201
 20
327.8296422341813
 30
0.0
  0
LINE
  5
E98
330
1F
100
AcDbEntity
  8
AM_VIS
100
AcDbLine
 10
249.004496669201
 20
327.8296422341813
 30
0.0
 11
250.1544966692009
 21
327.8296422341813
 31
0.0
  0
LINE
  5
E99
330
1F
100
AcDbEntity
  8
AM_VIS
100
AcDbLine
 10
250.1544966692009
 20
330.9351264565707
 30
0.0
 11
249.004496669201
 21
330.9351264565707
 31
0.0
  0
SPLINE
  5
E9A
330
1F
100
AcDbEntity
  8
AM_VIS
100
AcDbSpline
210
0.0
220
0.0
230
1.0
 70
     8
 71
     3
 72
     8
 73
     4
 74
     0
 42
0.0000000001
 43
0.0000000001
 40
1.630155802117218
 40
1.630155802117218
 40
1.630155802117218
 40
1.630155802117218
 40
2.566002660597602
 40
2.566002660597602
 40
2.566002660597602
 40
2.566002660597602
 10
249.004496669201
 20
330.9351264565707
 30
0.0
 10
248.824635436009
 20
330.9796977897952
 30
0.0
 10
248.6555358146344
 20
331.0375910862136
 30
0.0
 10
248.504496669201
 20
331.1100915757373
 30
0.0
  0
LINE
  5
E9B
330
1F
100
AcDbEntity
  8
AM_VIS
100
AcDbLine
 10
248.5005081926181
 20
333.6681292992517
 30
0.0
 11
249.0011684692474
 21
334.3039815041505
 31
0.0
  0
LINE
  5
E9C
330
1F
100
AcDbEntity
  8
AM_VIS
100
AcDbLine
 10
249.004496669201
 20
334.3013609305382
 30
0.0
 11
250.1544966692009
 21
334.3013609305382
 31
0.0
  0
LINE
  5
E9D
330
1F
100
AcDbEntity
  8
AM_VIS
100
AcDbLine
 10
250.1544966692009
 20
314.6254545898893
 30
0.0
 11
249.004496669201
 21
314.6254545898893
 31
0.0
  0
LINE
  5
E9E
330
1F
100
AcDbEntity
  8
AM_VIS
100
AcDbLine
 10
248.5005081936248
 20
315.2586862219976
 30
0.0
 11
249.0011684673898
 21
314.6228340148387
 31
0.0
  0
SPLINE
  5
E9F
330
1F
100
AcDbEntity
  8
AM_VIS
100
AcDbSpline
210
0.0
220
0.0
230
1.0
 70
     8
 71
     3
 72
     8
 73
     4
 74
     0
 42
0.0000000001
 43
0.0000000001
 40
7.860869802063071
 40
7.860869802063071
 40
7.860869802063071
 40
7.860869802063071
 40
8.796716660561775
 40
8.796716660561775
 40
8.796716660561775
 40
8.796716660561775
 10
248.504496669201
 20
317.8167239446903
 30
0.0
 10
248.6555357052353
 20
317.8892243817012
 30
0.0
 10
248.8246353209795
 20
317.947117702127
 30
0.0
 10
249.004496669201
 20
317.9916890638569
 30
0.0
  0
LINE
  5
EA0
330
1F
100
AcDbEntity
  8
AM_VIS
100
AcDbLine
 10
249.004496669201
 20
317.9916890638569
 30
0.0
 11
250.1544966692009
 21
317.9916890638569
 31
0.0
  0
LINE
  5
EA1
330
1F
100
AcDbEntity
  8
AM_VIS
100
AcDbLine
 10
251.654496669201
 20
334.3013609305382
 30
0.0
 11
254.504496669201
 21
334.3013609305382
 31
0.0
  0
LINE
  5
EA2
330
1F
100
AcDbEntity
  8
AM_VIS
100
AcDbLine
 10
254.504496669201
 20
330.9351264565707
 30
0.0
 11
251.654496669201
 21
330.9351264565707
 31
0.0
  0
LINE
  5
EA3
330
1F
100
AcDbEntity
  8
AM_VIS
100
AcDbLine
 10
254.504496669201
 20
321.0971732862462
 30
0.0
 11
251.654496669201
 21
321.0971732862462
 31
0.0
  0
LINE
  5
EA4
330
1F
100
AcDbEntity
  8
AM_VIS
100
AcDbLine
 10
251.654496669201
 20
327.8296422341813
 30
0.0
 11
254.504496669201
 21
327.8296422341813
 31
0.0
  0
LINE
  5
EA5
330
1F
100
AcDbEntity
  8
AM_VIS
100
AcDbLine
 10
254.504496669201
 20
314.6254545898893
 30
0.0
 11
251.654496669201
 21
314.6254545898893
 31
0.0
  0
LINE
  5
EA6
330
1F
100
AcDbEntity
  8
AM_VIS
100
AcDbLine
 10
251.654496669201
 20
317.9916890638569
 30
0.0
 11
254.504496669201
 21
317.9916890638569
 31
0.0
  0
ARC
  5
EA7
330
1F
100
AcDbEntity
  8
AM_VIS
100
AcDbCircle
 10
241.2820384590427
 20
316.3085718268732
 30
0.0
 40
13.32915168916668
100
AcDbArc
 50
352.7457013204759
 51
7.254298679524063
  0
SPLINE
  5
EA8
330
1F
100
AcDbEntity
  8
AM_VIS
100
AcDbSpline
210
0.0
220
0.0
230
1.0
 70
     8
 71
     3
 72
    14
 73
    10
 74
     0
 42
0.0000000001
 43
0.0000000001
 40
13.28006742556184
 40
13.28006742556184
 40
13.28006742556184
 40
13.28006742556184
 40
14.27448381305596
 40
14.27448381305596
 40
16.65382904986482
 40
16.65382904986482
 40
19.03317428667365
 40
19.03317428667365
 40
20.02759067416773
 40
20.02759067416773
 40
20.02759067416773
 40
20.02759067416773
 10
254.504496669201
 20
327.8296422341813
 30
0.0
 10
254.5222426443199
 20
327.5097499653115
 30
0.0
 10
254.5380182380234
 20
327.1837815114106
 30
0.0
 10
254.5832270499338
 20
326.0657881797829
 30
0.0
 10
254.6004966692009
 20
325.25652283915
 30
0.0
 10
254.6004966692009
 20
323.6702926812774
 30
0.0
 10
254.5832270499338
 20
322.8610273406446
 30
0.0
 10
254.5380182380234
 20
321.7430340090169
 30
0.0
 10
254.5222426443199
 20
321.417065555116
 30
0.0
 10
254.504496669201
 20
321.0971732862462
 30
0.0
  0
ARC
  5
EA9
330
1F
100
AcDbEntity
  8
AM_VIS
100
AcDbCircle
 10
241.2820384590427
 20
332.6182436935545
 30
0.0
 40
13.32915168916665
100
AcDbArc
 50
352.7457013204759
 51
7.254298679522447
  0
SPLINE
  5
EAA
330
1F
100
AcDbEntity
  8
AM_VIS
100
AcDbSpline
210
0.0
220
0.0
230
1.0
 70
    11
 71
     3
 72
    58
 73
    54
 74
     0
 42
0.0000000001
 43
0.0000000001
 40
-3.310941722041909
 40
-3.310941722041909
 40
-3.310941722041909
 40
-3.310941722041909
 40
-3.295630163526127
 40
-3.295630163526127
 40
-3.258885216857127
 40
-3.258885216857127
 40
-3.197166102530552
 40
-3.197166102530552
 40
-3.038165220187092
 40
-3.038165220187092
 40
-2.856291614874425
 40
-2.856291614874425
 40
-2.666842086900363
 40
-2.666842086900363
 40
-2.492578752010307
 40
-2.492578752010307
 40
-2.312125783734306
 40
-2.312125783734306
 40
-2.134512493780222
 40
-2.134512493780222
 40
-1.991913706755022
 40
-1.991913706755022
 40
-1.842368186772041
 40
-1.842368186772041
 40
-1.791323432474765
 40
-1.791323432474765
 40
-1.757111173267642
 40
-1.757111173267642
 40
-1.723565230360897
 40
-1.723565230360897
 40
-1.676146471110933
 40
-1.676146471110933
 40
-1.559264165848294
 40
-1.559264165848294
 40
-1.304423753582546
 40
-1.304423753582546
 40
-1.102534997057311
 40
-1.102534997057311
 40
-0.9616332280766684
 40
-0.9616332280766684
 40
-0.8335600122348491
 40
-0.8335600122348491
 40
-0.6887403587823754
 40
-0.6887403587823754
 40
-0.4760113448005606
 40
-0.4760113448005606
 40
-0.2570316117940582
 40
-0.2570316117940582
 40
-0.0905362468526998
 40
-0.0905362468526998
 40
-0.0354113089024487
 40
-0.0354113089024487
 40
0.0
 40
0.0
 40
0.0
 40
0.0
 10
250.404496669201
 20
330.5860103178481
 30
0.0
 10
250.404496669201
 20
330.5875951234078
 30
0.0
 10
250.4045672690657
 20
330.5891136362451
 30
0.0
 10
250.4050535398235
 20
330.5940452596901
 30
0.0
 10
250.4058120179201
 20
330.5971190677969
 30
0.0
 10
250.4090053759125
 20
330.6042442886228
 30
0.0
 10
250.4122085801877
 20
330.6074969114697
 30
0.0
 10
250.4281487906953
 20
330.6150292429034
 30
0.0
 10
250.4474961831413
 20
330.6125795392801
 30
0.0
 10
250.5040707996819
 20
330.5985835940106
 30
0.0
 10
250.5437842357867
 20
330.585806155608
 30
0.0
 10
250.6421939591566
 20
330.5599187087291
 30
0.0
 10
250.7000070929653
 20
330.5473841245234
 30
0.0
 10
250.8200035668523
 20
330.5324288506885
 30
0.0
 10
250.8799861416497
 20
330.5294188737889
 30
0.0
 10
251.0021665226653
 20
330.5332329304567
 30
0.0
 10
251.0622069832637
 20
330.5403479978447
 30
0.0
 10
251.1721165500534
 20
330.5607901736747
 30
0.0
 10
251.2212418817957
 20
330.5738681533287
 30
0.0
 10
251.2960515409283
 20
330.5952722718652
 30
0.0
 10
251.3244662608674
 20
330.603985845808
 30
0.0
 10
251.370452857724
 20
330.6138289651561
 30
0.0
 10
251.3869721563915
 20
330.6143327628521
 30
0.0
 10
251.3992563547247
 20
330.6048973976991
 30
0.0
 10
251.4014742969128
 20
330.6016651723777
 30
0.0
 10
251.4037548642121
 20
330.5948684239798
 30
0.0
 10
251.404281510978
 20
330.5917805365025
 30
0.0
 10
251.4046012783591
 20
330.5849837207341
 30
0.0
 10
251.4044079450938
 20
330.5812984114904
 30
0.0
 10
251.4031508354567
 20
330.5716935357373
 30
0.0
 10
251.4017622535159
 20
330.5654938736993
 30
0.0
 10
251.3949240580286
 20
330.5423531924406
 30
0.0
 10
251.3865045828767
 20
330.5229551455915
 30
0.0
 10
251.3511511942011
 20
330.4571005499501
 30
0.0
 10
251.3125708492025
 20
330.4029276974191
 30
0.0
 10
251.2224365127879
 20
330.3134264252692
 30
0.0
 10
251.1739323347813
 20
330.2751665395733
 30
0.0
 10
251.0780686290414
 20
330.2251863203506
 30
0.0
 10
251.0348133411799
 20
330.2089814872289
 30
0.0
 10
250.9462259598984
 20
330.1915528906465
 30
0.0
 10
250.9032337742281
 20
330.1894667985208
 30
0.0
 10
250.8115284162899
 20
330.1989423920041
 30
0.0
 10
250.7656375743928
 20
330.2120131911499
 30
0.0
 10
250.6612076028142
 20
330.2576422553024
 30
0.0
 10
250.6079186891434
 20
330.2958872854047
 30
0.0
 10
250.5192593253573
 20
330.3777294379565
 30
0.0
 10
250.4825376948766
 20
330.4233425290855
 30
0.0
 10
250.4353241414758
 20
330.4965003439217
 30
0.0
 10
250.4199025666804
 20
330.526887029931
 30
0.0
 10
250.40875285455
 20
330.5596802414171
 30
0.0
 10
250.4067509226625
 20
330.5672133940537
 30
0.0
 10
250.4048740609238
 20
330.5783263593168
 30
0.0
 10
250.404496669201
 20
330.5823451103405
 30
0.0
 10
250.404496669201
 20
330.5860103178481
 30
0.0
  0
CIRCLE
  5
EAB
330
1F
100
AcDbEntity
  8
AM_VIS
100
AcDbCircle
 10
250.904496669201
 20
325.7134077602137
 30
0.0
 40
0.5000000000000027
  0
SPLINE
  5
EAC
330
1F
100
AcDbEntity
  8
AM_VIS
100
AcDbSpline
210
0.0
220
0.0
230
1.0
 70
    11
 71
     3
 72
    58
 73
    54
 74
     0
 42
0.0000000001
 43
0.0000000001
 40
-3.363896419206848
 40
-3.363896419206848
 40
-3.363896419206848
 40
-3.363896419206848
 40
-3.330080057161157
 40
-3.330080057161157
 40
-3.276087946130379
 40
-3.276087946130379
 40
-3.130129325352126
 40
-3.130129325352126
 40
-2.864475625688879
 40
-2.864475625688879
 40
-2.670984402665324
 40
-2.670984402665324
 40
-2.529876972570241
 40
-2.529876972570241
 40
-2.394146079242185
 40
-2.394146079242185
 40
-2.234845146626472
 40
-2.234845146626472
 40
-1.995446372912342
 40
-1.995446372912342
 40
-1.792732498438366
 40
-1.792732498438366
 40
-1.655061185971928
 40
-1.655061185971928
 40
-1.604023047287223
 40
-1.604023047287223
 40
-1.569394244699424
 40
-1.569394244699424
 40
-1.535224675006395
 40
-1.535224675006395
 40
-1.486406948944837
 40
-1.486406948944837
 40
-1.367760828093762
 40
-1.367760828093762
 40
-1.211422564665596
 40
-1.211422564665596
 40
-1.00947781377736
 40
-1.00947781377736
 40
-0.8308451466681658
 40
-0.8308451466681658
 40
-0.6546659190334039
 40
-0.6546659190334039
 40
-0.4706948991975911
 40
-0.4706948991975911
 40
-0.3083260207092203
 40
-0.3083260207092203
 40
-0.1833529844650886
 40
-0.1833529844650886
 40
-0.0782943285699142
 40
-0.0782943285699142
 40
-0.0333492537438367
 40
-0.0333492537438367
 40
0.0
 40
0.0
 40
0.0
 40
0.0
 10
250.404496669201
 20
318.3408052025793
 30
0.0
 10
250.404496669201
 20
318.344305326915
 30
0.0
 10
250.4048408229345
 20
318.3481225096516
 30
0.0
 10
250.4065735254715
 20
318.3587928544322
 30
0.0
 10
250.408456329769
 20
318.3660640979902
 30
0.0
 10
250.4180936483606
 20
318.3950864287486
 30
0.0
 10
250.4304227266049
 20
318.4205390336178
 30
0.0
 10
250.4758750789116
 20
318.4957953320144
 30
0.0
 10
250.5194151261196
 20
318.5511082857337
 30
0.0
 10
250.6142430701715
 20
318.6350683770598
 30
0.0
 10
250.6616429509189
 20
318.6682239021646
 30
0.0
 10
250.7552850643496
 20
318.7109818690473
 30
0.0
 10
250.7980197511856
 20
318.7243451821894
 30
0.0
 10
250.886831934438
 20
318.7370471740663
 30
0.0
 10
250.9305819422236
 20
318.7365839879526
 30
0.0
 10
251.0243790374522
 20
318.7213929619528
 30
0.0
 10
251.0713712445325
 20
318.7046910896938
 30
0.0
 10
251.1777955539577
 20
318.6502373949207
 30
0.0
 10
251.2326894503132
 20
318.6055459335603
 30
0.0
 10
251.3143090832709
 20
318.5193412841923
 30
0.0
 10
251.3447239326134
 20
318.4776836337502
 30
0.0
 10
251.3813146243784
 20
318.4150595019815
 30
0.0
 10
251.3924787875198
 20
318.3911805682779
 30
0.0
 10
251.4010921964495
 20
318.3639980018626
 30
0.0
 10
251.4027482264096
 20
318.3572075339731
 30
0.0
 10
251.4042855919783
 20
318.3469312466073
 30
0.0
 10
251.4045644182592
 20
318.3430964748855
 30
0.0
 10
251.4044022360614
 20
318.3361546331495
 30
0.0
 10
251.4039710052011
 20
318.3330487428729
 30
0.0
 10
251.4020372402437
 20
318.3263585240807
 30
0.0
 10
251.4001617895146
 20
318.3231625124445
 30
0.0
 10
251.3910908784154
 20
318.3146889735646
 30
0.0
 10
251.3803075496171
 20
318.3131629304246
 30
0.0
 10
251.3453770541537
 20
318.3171691307623
 30
0.0
 10
251.3185694255966
 20
318.3249313423668
 30
0.0
 10
251.244301838235
 20
318.3464378558277
 30
0.0
 10
251.1918027628675
 20
318.3616377623697
 30
0.0
 10
251.0759230492496
 20
318.3844302945938
 30
0.0
 10
251.0168072394738
 20
318.3921855549545
 30
0.0
 10
250.8950323344268
 20
318.3976446493555
 30
0.0
 10
250.8344538918239
 20
318.3954062709
 30
0.0
 10
250.7154648116457
 20
318.3820052991982
 30
0.0
 10
250.6589896124976
 20
318.370630008811
 30
0.0
 10
250.5654067022077
 20
318.3471134371453
 30
0.0
 10
250.5271248330459
 20
318.3353223030991
 30
0.0
 10
250.4717731147958
 20
318.3198829060063
 30
0.0
 10
250.4519563003897
 20
318.3150718934062
 30
0.0
 10
250.4244479223362
 20
318.3136930677496
 30
0.0
 10
250.4155764893686
 20
318.3159757061618
 30
0.0
 10
250.4080306568367
 20
318.3244409162642
 30
0.0
 10
250.4064557018143
 20
318.3276091908358
 30
0.0
 10
250.4048312982061
 20
318.3342120533057
 30
0.0
 10
250.404496669201
 20
318.3373534257605
 30
0.0
 10
250.404496669201
 20
318.3408052025793
 30
0.0
  0
CIRCLE
  5
EAD
330
1F
100
AcDbEntity
  8
AM_VIS
100
AcDbCircle
 10
250.904496669201
 20
323.2134077602137
 30
0.0
 40
0.5000000000000022
  0
ARC
  5
EAE
330
1F
100
AcDbEntity
  8
AM_VIS
100
AcDbCircle
 10
250.904496669201
 20
331.3912706259226
 30
0.0
 40
0.6978911076631064
100
AcDbArc
 50
224.2383223220011
 51
315.7616776780064
  0
ARC
  5
EAF
330
1F
100
AcDbEntity
  8
AM_VIS
100
AcDbCircle
 10
250.904496669201
 20
317.5355265165013
 30
0.0
 40
0.6979039290995743
100
AcDbArc
 50
44.23940327711263
 51
135.7605967228885
  0
LINE
  5
EB0
330
1F
100
AcDbEntity
  8
AM_VIS
100
AcDbLine
 10
248.504496669201
 20
333.9634077602137
 30
0.0
 11
249.004496669201
 21
334.4634077602137
 31
0.0
  0
LINE
  5
EB1
330
1F
100
AcDbEntity
  8
AM_VIS
100
AcDbLine
 10
248.504496669201
 20
314.9634077602137
 30
0.0
 11
249.004496669201
 21
314.4634077602137
 31
0.0
  0
LINE
  5
EB2
330
1F
100
AcDbEntity
  8
AM_VIS
100
AcDbLine
 10
250.1544966692009
 20
334.4634077602137
 30
0.0
 11
249.004496669201
 21
334.4634077602137
 31
0.0
  0
LINE
  5
EB3
330
1F
100
AcDbEntity
  8
AM_VIS
100
AcDbLine
 10
250.1544966692009
 20
314.4634077602137
 30
0.0
 11
249.004496669201
 21
314.4634077602137
 31
0.0
  0
LINE
  5
EB4
330
1F
100
AcDbEntity
  8
AM_VIS
100
AcDbLine
 10
254.504496669201
 20
334.4634077602137
 30
0.0
 11
251.654496669201
 21
334.4634077602137
 31
0.0
  0
LINE
  5
EB5
330
1F
100
AcDbEntity
  8
AM_VIS
100
AcDbLine
 10
254.504496669201
 20
314.4634077602137
 30
0.0
 11
251.654496669201
 21
314.4634077602137
 31
0.0
  0
LINE
  5
EB6
330
1F
100
AcDbEntity
  8
AM_VIS
100
AcDbLine
 10
254.704496669201
 20
331.9634077602137
 30
0.0
 11
254.504496669201
 21
334.4634077602137
 31
0.0
  0
LINE
  5
EB7
330
1F
100
AcDbEntity
  8
AM_VIS
100
AcDbLine
 10
254.704496669201
 20
316.9634077602137
 30
0.0
 11
254.504496669201
 21
314.4634077602137
 31
0.0
  0
LINE
  5
EB8
330
1F
100
AcDbEntity
  8
AM_VIS
100
AcDbLine
 10
255.504496669201
 20
316.9634077602137
 30
0.0
 11
256.004496669201
 21
314.4634077602137
 31
0.0
  0
LINE
  5
EB9
330
1F
100
AcDbEntity
  8
AM_VIS
100
AcDbLine
 10
255.504496669201
 20
331.9634077602137
 30
0.0
 11
256.004496669201
 21
334.4634077602137
 31
0.0
  0
LINE
  5
EBA
330
1F
100
AcDbEntity
  8
AM_VIS
100
AcDbLine
 10
255.504496669201
 20
331.9634077602137
 30
0.0
 11
254.704496669201
 21
331.9634077602137
 31
0.0
  0
LINE
  5
EBB
330
1F
100
AcDbEntity
  8
AM_VIS
100
AcDbLine
 10
255.504496669201
 20
316.9634077602137
 30
0.0
 11
254.704496669201
 21
316.9634077602137
 31
0.0
  0
LINE
  5
EBC
330
1F
100
AcDbEntity
  8
AM_VIS
100
AcDbLine
 10
256.504496669201
 20
334.4634077602137
 30
0.0
 11
256.004496669201
 21
334.4634077602137
 31
0.0
  0
LINE
  5
EBD
330
1F
100
AcDbEntity
  8
AM_VIS
100
AcDbLine
 10
256.504496669201
 20
314.4634077602137
 30
0.0
 11
256.004496669201
 21
314.4634077602137
 31
0.0
  0
LINE
  5
EBE
330
1F
100
AcDbEntity
  8
AM_VIS
100
AcDbLine
 10
249.004496669201
 20
334.4634077602137
 30
0.0
 11
249.004496669201
 21
334.3013609305382
 31
0.0
  0
LINE
  5
EBF
330
1F
100
AcDbEntity
  8
AM_VIS
100
AcDbLine
 10
249.004496669201
 20
314.6254545898893
 30
0.0
 11
249.004496669201
 21
314.4634077602137
 31
0.0
  0
LINE
  5
EC0
330
1F
100
AcDbEntity
  8
AM_VIS
100
AcDbLine
 10
249.004496669201
 20
330.9351264565707
 30
0.0
 11
249.004496669201
 21
327.8296422341813
 31
0.0
  0
LINE
  5
EC1
330
1F
100
AcDbEntity
  8
AM_VIS
100
AcDbLine
 10
249.004496669201
 20
321.0971732862462
 30
0.0
 11
249.004496669201
 21
317.9916890638569
 31
0.0
  0
LINE
  5
EC2
330
1F
100
AcDbEntity
  8
AM_VIS
100
AcDbLine
 10
250.1544966692009
 20
314.6254545898893
 30
0.0
 11
250.1544966692009
 21
314.4634077602137
 31
0.0
  0
LINE
  5
EC3
330
1F
100
AcDbEntity
  8
AM_VIS
100
AcDbLine
 10
250.1544966692009
 20
314.6254545898893
 30
0.0
 11
250.1544966692009
 21
317.9916890638569
 31
0.0
  0
LINE
  5
EC4
330
1F
100
AcDbEntity
  8
AM_VIS
100
AcDbLine
 10
250.1544966692009
 20
321.0971732862462
 30
0.0
 11
250.1544966692009
 21
317.9916890638569
 31
0.0
  0
LINE
  5
EC5
330
1F
100
AcDbEntity
  8
AM_VIS
100
AcDbLine
 10
250.1544966692009
 20
321.0971732862462
 30
0.0
 11
250.1544966692009
 21
327.8296422341814
 31
0.0
  0
LINE
  5
EC6
330
1F
100
AcDbEntity
  8
AM_VIS
100
AcDbLine
 10
250.1544966692009
 20
330.9351264565707
 30
0.0
 11
250.1544966692009
 21
327.8296422341813
 31
0.0
  0
LINE
  5
EC7
330
1F
100
AcDbEntity
  8
AM_VIS
100
AcDbLine
 10
250.1544966692009
 20
330.9351264565707
 30
0.0
 11
250.1544966692009
 21
334.3013609305383
 31
0.0
  0
LINE
  5
EC8
330
1F
100
AcDbEntity
  8
AM_VIS
100
AcDbLine
 10
250.1544966692009
 20
334.4634077602137
 30
0.0
 11
250.1544966692009
 21
334.3013609305382
 31
0.0
  0
LINE
  5
EC9
330
1F
100
AcDbEntity
  8
AM_VIS
100
AcDbLine
 10
251.654496669201
 20
334.3013609305382
 30
0.0
 11
251.654496669201
 21
330.9351264565707
 31
0.0
  0
LINE
  5
ECA
330
1F
100
AcDbEntity
  8
AM_VIS
100
AcDbLine
 10
251.654496669201
 20
334.3013609305382
 30
0.0
 11
251.654496669201
 21
334.4634077602137
 31
0.0
  0
LINE
  5
ECB
330
1F
100
AcDbEntity
  8
AM_VIS
100
AcDbLine
 10
251.654496669201
 20
327.8296422341813
 30
0.0
 11
251.654496669201
 21
330.9351264565707
 31
0.0
  0
LINE
  5
ECC
330
1F
100
AcDbEntity
  8
AM_VIS
100
AcDbLine
 10
251.654496669201
 20
317.9916890638569
 30
0.0
 11
251.654496669201
 21
321.0971732862462
 31
0.0
  0
LINE
  5
ECD
330
1F
100
AcDbEntity
  8
AM_VIS
100
AcDbLine
 10
251.654496669201
 20
314.4634077602137
 30
0.0
 11
251.654496669201
 21
314.6254545898893
 31
0.0
  0
LINE
  5
ECE
330
1F
100
AcDbEntity
  8
AM_VIS
100
AcDbLine
 10
251.654496669201
 20
327.8296422341813
 30
0.0
 11
251.654496669201
 21
321.0971732862461
 31
0.0
  0
LINE
  5
ECF
330
1F
100
AcDbEntity
  8
AM_VIS
100
AcDbLine
 10
251.654496669201
 20
317.9916890638569
 30
0.0
 11
251.654496669201
 21
314.6254545898892
 31
0.0
  0
LINE
  5
ED0
330
1F
100
AcDbEntity
  8
AM_VIS
100
AcDbLine
 10
254.504496669201
 20
314.6254545898893
 30
0.0
 11
254.504496669201
 21
314.4634077602137
 31
0.0
  0
LINE
  5
ED1
330
1F
100
AcDbEntity
  8
AM_VIS
100
AcDbLine
 10
254.504496669201
 20
321.0971732862462
 30
0.0
 11
254.504496669201
 21
317.9916890638569
 31
0.0
  0
LINE
  5
ED2
330
1F
100
AcDbEntity
  8
AM_VIS
100
AcDbLine
 10
254.504496669201
 20
330.9351264565707
 30
0.0
 11
254.504496669201
 21
327.8296422341813
 31
0.0
  0
LINE
  5
ED3
330
1F
100
AcDbEntity
  8
AM_VIS
100
AcDbLine
 10
254.504496669201
 20
334.4634077602137
 30
0.0
 11
254.504496669201
 21
334.3013609305382
 31
0.0
  0
LINE
  5
ED4
330
1F
100
AcDbEntity
  8
AM_VIS
100
AcDbLine
 10
254.704496669201
 20
331.9634077602137
 30
0.0
 11
254.704496669201
 21
316.9634077602137
 31
0.0
  0
LINE
  5
ED5
330
1F
100
AcDbEntity
  8
AM_VIS
100
AcDbLine
 10
255.504496669201
 20
331.9634077602137
 30
0.0
 11
255.504496669201
 21
316.9634077602137
 31
0.0
  0
LINE
  5
ED6
330
1F
100
AcDbEntity
  8
AM_VIS
100
AcDbLine
 10
256.004496669201
 20
314.4634077602137
 30
0.0
 11
256.004496669201
 21
334.4634077602137
 31
0.0
  0
LINE
  5
ED7
102
{ACAD_REACTORS
330
1548
102
}
330
1F
100
AcDbEntity
  8
AM_VIS
100
AcDbLine
 10
248.504496669201
 20
314.9634077602137
 30
0.0
 11
248.504496669201
 21
315.261826686482
 31
0.0
  0
LINE
  5
ED8
330
1F
100
AcDbEntity
  8
AM_VIS
100
AcDbLine
 10
248.504496669201
 20
333.6649888339455
 30
0.0
 11
248.504496669201
 21
333.9634077602137
 31
0.0
  0
LINE
  5
ED9
330
1F
100
AcDbEntity
  8
AM_VIS
100
AcDbLine
 10
248.504496669201
 20
331.1100915757373
 30
0.0
 11
248.504496669201
 21
333.6649888339455
 31
0.0
  0
LINE
  5
EDA
330
1F
100
AcDbEntity
  8
AM_VIS
100
AcDbLine
 10
248.504496669201
 20
327.018305018422
 30
0.0
 11
248.504496669201
 21
331.1100915757373
 31
0.0
  0
LINE
  5
EDB
330
1F
100
AcDbEntity
  8
AM_VIS
100
AcDbLine
 10
248.504496669201
 20
321.9085105020055
 30
0.0
 11
248.504496669201
 21
327.0183050184221
 31
0.0
  0
LINE
  5
EDC
330
1F
100
AcDbEntity
  8
AM_VIS
100
AcDbLine
 10
248.504496669201
 20
317.8167239446903
 30
0.0
 11
248.504496669201
 21
321.9085105020055
 31
0.0
  0
LINE
  5
EDD
330
1F
100
AcDbEntity
  8
AM_VIS
100
AcDbLine
 10
248.504496669201
 20
315.261826686482
 30
0.0
 11
248.504496669201
 21
317.8167239446903
 31
0.0
  0
ARC
  5
EDE
330
1F
100
AcDbEntity
  8
AM_VIS
100
AcDbCircle
 10
250.904496669201
 20
317.4634077602137
 30
0.0
 40
0.75
100
AcDbArc
 50
0.0
 51
48.18968510421928
  0
ARC
  5
EDF
330
1F
100
AcDbEntity
  8
AM_VIS
100
AcDbCircle
 10
250.904496669201
 20
317.4634077602137
 30
0.0
 40
0.75
100
AcDbArc
 50
131.8103148957807
 51
180.0
  0
ARC
  5
EE0
330
1F
100
AcDbEntity
  8
AM_VIS
100
AcDbCircle
 10
250.904496669201
 20
331.4634077602137
 30
0.0
 40
0.75
100
AcDbArc
 50
180.0
 51
228.1896851042199
  0
ARC
  5
EE1
330
1F
100
AcDbEntity
  8
AM_VIS
100
AcDbCircle
 10
250.904496669201
 20
331.4634077602137
 30
0.0
 40
0.75
100
AcDbArc
 50
311.8103148957802
 51
0.0
  0
LINE
  5
EE2
330
1F
100
AcDbEntity
  8
AM_VIS
100
AcDbLine
 10
286.004496669201
 20
341.9634077602137
 30
0.0
 11
256.504496669201
 21
341.9634077602137
 31
0.0
  0
LINE
  5
EE3
330
1F
100
AcDbEntity
  8
AM_VIS
100
AcDbLine
 10
256.504496669201
 20
341.9634077602137
 30
0.0
 11
256.504496669201
 21
317.4634077602137
 31
0.0
  0
LINE
  5
EE4
330
1F
100
AcDbEntity
  8
AM_VIS
100
AcDbLine
 10
256.504496669201
 20
313.4634077602137
 30
0.0
 11
286.004496669201
 21
313.4634077602137
 31
0.0
  0
LINE
  5
EE5
330
1F
100
AcDbEntity
  8
AM_VIS
100
AcDbLine
 10
256.504496669201
 20
313.4634077602137
 30
0.0
 11
256.504496669201
 21
317.4634077602137
 31
0.0
  0
LINE
  5
EE6
330
1F
100
AcDbEntity
  8
AM_VIS
100
AcDbLine
 10
293.3544966692009
 20
349.5634077602137
 30
0.0
 11
293.3544966692009
 21
347.3378707993024
 31
0.0
  0
LINE
  5
EE7
330
1F
100
AcDbEntity
  8
AM_VIS
100
AcDbLine
 10
300.2544966692009
 20
349.5634077602137
 30
0.0
 11
300.2544966692009
 21
347.4583107473072
 31
0.0
  0
LINE
  5
EE8
330
1F
100
AcDbEntity
  8
AM_VIS
100
AcDbLine
 10
293.3544966692009
 20
349.5634077602137
 30
0.0
 11
300.2544966692009
 21
349.5634077602137
 31
0.0
  0
LINE
  5
EED
330
1F
100
AcDbEntity
  8
AM_VIS
100
AcDbLine
 10
286.004496669201
 20
303.3000769949353
 30
0.0
 11
286.004496669201
 21
307.6267385254921
 31
0.0
  0
LINE
  5
EEF
330
1F
100
AcDbEntity
  8
AM_VIS
100
AcDbLine
 10
312.004496669201
 20
347.6634077602136
 30
0.0
 11
288.0044966692009
 21
347.2444862019365
 31
0.0
  0
LINE
  5
EF0
330
1F
100
AcDbEntity
  8
AM_VIS
100
AcDbLine
 10
312.004496669201
 20
301.2634077602137
 30
0.0
 11
288.0044966692009
 21
301.6823293184909
 31
0.0
  0
LINE
  5
EF1
330
1F
100
AcDbEntity
  8
AM_VIS
100
AcDbLine
 10
288.0044966692009
 20
347.2444862019365
 30
0.0
 11
288.0044966692009
 21
346.8996558167488
 31
0.0
  0
LINE
  5
EF2
330
1F
100
AcDbEntity
  8
AM_VIS
100
AcDbLine
 10
288.0044966692009
 20
302.0271597036786
 30
0.0
 11
288.0044966692009
 21
301.6823293184909
 31
0.0
  0
LINE
  5
EF4
330
1F
100
AcDbEntity
  8
AM_VIS
100
AcDbLine
 10
312.004496669201
 20
347.6634077602137
 30
0.0
 11
312.004496669201
 21
301.2634077602137
 31
0.0
  0
LINE
  5
EF5
330
1F
100
AcDbEntity
  8
AM_VIS
100
AcDbLine
 10
286.004496669201
 20
301.6634077602137
 30
0.0
 11
288.004496669201
 21
301.6634077602137
 31
0.0
  0
LINE
  5
EF6
330
1F
100
AcDbEntity
  8
AM_VIS
100
AcDbLine
 10
288.004496669201
 20
346.7634077602137
 30
0.0
 11
288.004496669201
 21
302.1634077602138
 31
0.0
  0
LINE
  5
EF7
330
1F
100
AcDbEntity
  8
AM_VIS
100
AcDbLine
 10
286.004496669201
 20
303.3000769949353
 30
0.0
 11
286.004496669201
 21
302.1634077602137
 31
0.0
  0
LINE
  5
EF8
330
1F
100
AcDbEntity
  8
AM_VIS
100
AcDbLine
 10
286.004496669201
 20
346.7634077602137
 30
0.0
 11
286.004496669201
 21
307.6267385254921
 31
0.0
  0
LINE
  5
EF9
330
1F
100
AcDbEntity
  8
AM_VIS
100
AcDbLine
 10
288.004496669201
 20
347.2634077602137
 30
0.0
 11
286.004496669201
 21
347.2634077602137
 31
0.0
  0
LINE
  5
EFA
330
1F
100
AcDbEntity
  8
AM_VIS
100
AcDbLine
 10
288.004496669201
 20
301.6823293184909
 30
0.0
 11
288.004496669201
 21
301.6634077602137
 31
0.0
  0
LINE
  5
EFB
330
1F
100
AcDbEntity
  8
AM_VIS
100
AcDbLine
 10
288.004496669201
 20
302.1634077602137
 30
0.0
 11
288.004496669201
 21
302.0271597036786
 31
0.0
  0
LINE
  5
EFC
330
1F
100
AcDbEntity
  8
AM_VIS
100
AcDbLine
 10
286.004496669201
 20
301.6634077602137
 30
0.0
 11
286.004496669201
 21
302.1634077602137
 31
0.0
  0
LINE
  5
EFD
330
1F
100
AcDbEntity
  8
AM_VIS
100
AcDbLine
 10
288.004496669201
 20
346.8996558167488
 30
0.0
 11
288.004496669201
 21
346.7634077602137
 31
0.0
  0
LINE
  5
EFE
330
1F
100
AcDbEntity
  8
AM_VIS
100
AcDbLine
 10
288.004496669201
 20
347.2634077602137
 30
0.0
 11
288.004496669201
 21
347.2444862019365
 31
0.0
  0
LINE
  5
EFF
330
1F
100
AcDbEntity
  8
AM_VIS
100
AcDbLine
 10
286.004496669201
 20
346.7634077602137
 30
0.0
 11
286.004496669201
 21
347.2634077602137
 31
0.0
  0
LINE
  5
F00
330
1F
100
AcDbEntity
  8
AM_VIS
100
AcDbLine
 10
298.7045007997571
 20
347.4314551671311
 30
0.0
 11
298.8044855692728
 21
347.4332004077748
 31
0.0
  0
ARC
  5
F01
330
1F
100
AcDbEntity
  8
AM_VIS
100
AcDbCircle
 10
298.7752541251074
 20
346.2429342974882
 30
0.0
 40
1.190625
100
AcDbArc
 50
88.37431186666785
 51
88.5931702408102
  0
ARC
  5
F02
330
1F
100
AcDbEntity
  8
AM_VIS
100
AcDbCircle
 10
298.7752541251074
 20
346.2429342974882
 30
0.0
 40
1.190625
100
AcDbArc
 50
93.40682975919037
 51
93.62568813333167
  0
LINE
  5
F05
330
1F
100
AcDbEntity
  8
AM_VIS
100
AcDbLine
 10
312.004496669201
 20
347.6634077602137
 30
0.0
 11
386.0044966692009
 21
347.6634077602137
 31
0.0
  0
LINE
  5
F06
330
1F
100
AcDbEntity
  8
AM_VIS
100
AcDbLine
 10
339.004496669201
 20
327.9634077602137
 30
0.0
 11
339.004496669201
 21
320.9634077602137
 31
0.0
  0
LINE
  5
F07
330
1F
100
AcDbEntity
  8
AM_VIS
100
AcDbLine
 10
334.004496669201
 20
320.9634077602137
 30
0.0
 11
334.004496669201
 21
327.9634077602137
 31
0.0
  0
LINE
  5
F08
330
1F
100
AcDbEntity
  8
AM_VIS
100
AcDbLine
 10
364.004496669201
 20
327.9634077602137
 30
0.0
 11
364.004496669201
 21
320.9634077602137
 31
0.0
  0
LINE
  5
F09
330
1F
100
AcDbEntity
  8
AM_VIS
100
AcDbLine
 10
359.004496669201
 20
320.9634077602137
 30
0.0
 11
359.004496669201
 21
327.9634077602137
 31
0.0
  0
LINE
  5
F0A
330
1F
100
AcDbEntity
  8
AM_VIS
100
AcDbLine
 10
312.004496669201
 20
301.2634077602137
 30
0.0
 11
386.0044966692009
 21
301.2634077602137
 31
0.0
  0
LINE
  5
F0D
330
1F
100
AcDbEntity
  8
AM_VIS
100
AcDbLine
 10
386.0044966692009
 20
301.2634077602137
 30
0.0
 11
386.0044966692009
 21
347.6634077602137
 31
0.0
  0
LINE
  5
F0E
102
{ACAD_REACTORS
330
1335
102
}
330
1F
100
AcDbEntity
  8
AM_VIS
100
AcDbLine
 10
312.004496669201
 20
301.2634077602137
 30
0.0
 11
312.004496669201
 21
347.6634077602137
 31
0.0
  0
CIRCLE
  5
F0F
330
1F
100
AcDbEntity
  8
AM_VIS
100
AcDbCircle
 10
349.004496669201
 20
340.4634077602137
 30
0.0
 40
2.75
  0
CIRCLE
  5
F10
330
1F
100
AcDbEntity
  8
AM_VIS
100
AcDbCircle
 10
349.004496669201
 20
308.4634077602137
 30
0.0
 40
2.75
  0
CIRCLE
  5
F11
330
1F
100
AcDbEntity
  8
AM_VIS
100
AcDbCircle
 10
337.004496669201
 20
324.4634077602137
 30
0.0
 40
9.4
  0
CIRCLE
  5
F12
330
1F
100
AcDbEntity
  8
AM_VIS
100
AcDbCircle
 10
361.004496669201
 20
324.4634077602137
 30
0.0
 40
9.4
  0
CIRCLE
  5
F13
330
1F
100
AcDbEntity
  8
AM_VIS
100
AcDbCircle
 10
337.004496669201
 20
324.4634077602137
 30
0.0
 40
6.5
  0
CIRCLE
  5
F14
330
1F
100
AcDbEntity
  8
AM_VIS
100
AcDbCircle
 10
361.004496669201
 20
324.4634077602137
 30
0.0
 40
6.5
  0
ARC
  5
F15
330
1F
100
AcDbEntity
  8
AM_VIS
100
AcDbCircle
 10
336.504496669201
 20
327.9634077602137
 30
0.0
 40
2.5
100
AcDbArc
 50
0.0
 51
180.0
  0
ARC
  5
F16
330
1F
100
AcDbEntity
  8
AM_VIS
100
AcDbCircle
 10
336.504496669201
 20
320.9634077602137
 30
0.0
 40
2.5
100
AcDbArc
 50
180.0
 51
0.0
  0
ARC
  5
F17
330
1F
100
AcDbEntity
  8
AM_VIS
100
AcDbCircle
 10
361.504496669201
 20
327.9634077602137
 30
0.0
 40
2.5
100
AcDbArc
 50
0.0
 51
180.0
  0
ARC
  5
F18
330
1F
100
AcDbEntity
  8
AM_VIS
100
AcDbCircle
 10
361.504496669201
 20
320.9634077602137
 30
0.0
 40
2.5
100
AcDbArc
 50
180.0
 51
0.0
  0
CIRCLE
  5
F19
330
1F
100
AcDbEntity
  8
AM_VIS
100
AcDbCircle
 10
361.004496669201
 20
340.4634077602137
 30
0.0
 40
2.6
  0
CIRCLE
  5
F1A
330
1F
100
AcDbEntity
  8
AM_VIS
100
AcDbCircle
 10
337.004496669201
 20
308.4634077602137
 30
0.0
 40
2.6
  0
LINE
  5
F1C
330
1F
100
AcDbEntity
  8
AM_VIS
100
AcDbLine
 10
386.004496669201
 20
406.3076645717018
 30
0.0
 11
393.004496669201
 21
406.3076645717018
 31
0.0
  0
LINE
  5
F1D
330
1F
100
AcDbEntity
  8
AM_VIS
100
AcDbLine
 10
394.004496669201
 20
407.3076645717017
 30
0.0
 11
394.004496669201
 21
408.8076645717018
 31
0.0
  0
LINE
  5
F1E
330
1F
100
AcDbEntity
  8
AM_VIS
100
AcDbLine
 10
391.004496669201
 20
417.8076645717018
 30
0.0
 11
393.004496669201
 21
417.8076645717018
 31
0.0
  0
LINE
  5
F1F
330
1F
100
AcDbEntity
  8
AM_VIS
100
AcDbLine
 10
394.004496669201
 20
418.8076645717018
 30
0.0
 11
394.004496669201
 21
435.3076645717018
 31
0.0
  0
LINE
  5
F20
330
1F
100
AcDbEntity
  8
AM_VIS
100
AcDbLine
 10
393.004496669201
 20
436.3076645717018
 30
0.0
 11
386.004496669201
 21
436.3076645717018
 31
0.0
  0
LINE
  5
F21
330
1F
100
AcDbEntity
  8
AM_VIS
100
AcDbLine
 10
390.004496669201
 20
410.8076645717018
 30
0.0
 11
390.004496669201
 21
416.8076645717018
 31
0.0
  0
LINE
  5
F22
330
1F
100
AcDbEntity
  8
AM_VIS
100
AcDbLine
 10
393.004496669201
 20
409.8076645717018
 30
0.0
 11
391.004496669201
 21
409.8076645717018
 31
0.0
  0
LINE
  5
F23
330
1F
100
AcDbEntity
  8
AM_VIS
100
AcDbLine
 10
386.004496669201
 20
407.3076645717017
 30
0.0
 11
386.004496669201
 21
435.3076645717018
 31
0.0
  0
ARC
  5
F24
330
1F
100
AcDbEntity
  8
AM_VIS
100
AcDbCircle
 10
393.004496669201
 20
408.8076645717018
 30
0.0
 40
1.0
100
AcDbArc
 50
0.0
 51
90.0
  0
ARC
  5
F25
330
1F
100
AcDbEntity
  8
AM_VIS
100
AcDbCircle
 10
393.004496669201
 20
407.3076645717017
 30
0.0
 40
1.0
100
AcDbArc
 50
270.0
 51
0.0
  0
LINE
  5
F26
330
1F
100
AcDbEntity
  8
AM_VIS
100
AcDbLine
 10
394.004496669201
 20
408.8076645717018
 30
0.0
 11
394.004496669201
 21
418.8076645717018
 31
0.0
  0
ARC
  5
F27
330
1F
100
AcDbEntity
  8
AM_VIS
100
AcDbCircle
 10
393.004496669201
 20
435.3076645717018
 30
0.0
 40
1.0
100
AcDbArc
 50
0.0
 51
90.0
  0
ARC
  5
F28
330
1F
100
AcDbEntity
  8
AM_VIS
100
AcDbCircle
 10
393.004496669201
 20
418.8076645717018
 30
0.0
 40
0.9999999999999998
100
AcDbArc
 50
270.0
 51
0.0
  0
ARC
  5
F29
330
1F
100
AcDbEntity
  8
AM_VIS
100
AcDbCircle
 10
391.004496669201
 20
416.8076645717018
 30
0.0
 40
1.0
100
AcDbArc
 50
90.0
 51
180.0
  0
ARC
  5
F2A
330
1F
100
AcDbEntity
  8
AM_VIS
100
AcDbCircle
 10
391.004496669201
 20
410.8076645717018
 30
0.0
 40
1.0
100
AcDbArc
 50
180.0
 51
270.0
  0
LINE
  5
F2B
330
1F
100
AcDbEntity
  8
AM_VIS
100
AcDbLine
 10
271.639496669201
 20
421.3076645717018
 30
0.0
 11
272.004496669201
 21
421.3076645717018
 31
0.0
  0
LINE
  5
F2C
330
1F
100
AcDbEntity
  8
AM_VIS
100
AcDbLine
 10
272.004496669201
 20
421.3076645717018
 30
0.0
 11
272.369496669201
 21
421.3076645717018
 31
0.0
  0
LINE
  5
F2D
330
1F
100
AcDbEntity
  8
AM_VIS
100
AcDbLine
 10
272.004496669201
 20
421.3076645717018
 30
0.0
 11
271.6394966692005
 21
421.6726645717022
 31
0.0
  0
LINE
  5
F2E
330
1F
100
AcDbEntity
  8
AM_VIS
100
AcDbLine
 10
271.6394966692014
 20
420.9426645717022
 30
0.0
 11
272.004496669201
 21
421.3076645717018
 31
0.0
  0
LINE
  5
F2F
330
1F
100
AcDbEntity
  8
AM_VIS
100
AcDbLine
 10
271.639496669201
 20
421.6726645717038
 30
0.0
 11
271.639496669201
 21
420.9426645717038
 31
0.0
  0
LINE
  5
F30
330
1F
100
AcDbEntity
  8
AM_VIS
100
AcDbLine
 10
272.369496669201
 20
420.9426645717037
 30
0.0
 11
271.639496669201
 21
420.9426645717037
 31
0.0
  0
LINE
  5
F31
330
1F
100
AcDbEntity
  8
AM_VIS
100
AcDbLine
 10
272.004496669201
 20
421.6726645717038
 30
0.0
 11
272.004496669201
 21
421.3076645717018
 31
0.0
  0
LINE
  5
F32
330
1F
100
AcDbEntity
  8
AM_VIS
100
AcDbLine
 10
272.3694966692014
 20
421.6726645717022
 30
0.0
 11
272.004496669201
 21
421.3076645717018
 31
0.0
  0
LINE
  5
F33
330
1F
100
AcDbEntity
  8
AM_VIS
100
AcDbLine
 10
272.369496669201
 20
420.9426645717038
 30
0.0
 11
272.369496669201
 21
421.6726645717038
 31
0.0
  0
LINE
  5
F34
330
1F
100
AcDbEntity
  8
AM_VIS
100
AcDbLine
 10
272.004496669201
 20
421.3076645717018
 30
0.0
 11
272.004496669201
 21
420.9426645717037
 31
0.0
  0
LINE
  5
F35
330
1F
100
AcDbEntity
  8
AM_VIS
100
AcDbLine
 10
272.004496669201
 20
421.3076645717018
 30
0.0
 11
272.3694966692006
 21
420.9426645717022
 31
0.0
  0
LINE
  5
F36
330
1F
100
AcDbEntity
  8
AM_VIS
100
AcDbLine
 10
271.639496669201
 20
421.6726645717037
 30
0.0
 11
272.369496669201
 21
421.6726645717037
 31
0.0
  0
LINE
  5
F37
330
1F
100
AcDbEntity
  8
AM_VIS
100
AcDbLine
 10
271.639496669201
 20
422.1040005560703
 30
0.0
 11
271.639496669201
 21
421.6726645717037
 31
0.0
  0
LINE
  5
F38
330
1F
100
AcDbEntity
  8
AM_VIS
100
AcDbLine
 10
271.2081606848335
 20
421.6726645717037
 30
0.0
 11
271.639496669201
 21
421.6726645717037
 31
0.0
  0
LINE
  5
F39
330
1F
100
AcDbEntity
  8
AM_VIS
100
AcDbLine
 10
271.639496669201
 20
420.9426645717037
 30
0.0
 11
271.639496669201
 21
420.5113285873334
 31
0.0
  0
LINE
  5
F3A
330
1F
100
AcDbEntity
  8
AM_VIS
100
AcDbLine
 10
271.2081606848317
 20
420.9426645717037
 30
0.0
 11
271.639496669201
 21
420.9426645717037
 31
0.0
  0
LINE
  5
F3B
330
1F
100
AcDbEntity
  8
AM_VIS
100
AcDbLine
 10
272.369496669201
 20
420.9426645717037
 30
0.0
 11
272.369496669201
 21
420.5113285873335
 31
0.0
  0
LINE
  5
F3C
330
1F
100
AcDbEntity
  8
AM_VIS
100
AcDbLine
 10
272.369496669201
 20
420.9426645717037
 30
0.0
 11
272.8008326535703
 21
420.9426645717037
 31
0.0
  0
LINE
  5
F3D
330
1F
100
AcDbEntity
  8
AM_VIS
100
AcDbLine
 10
272.369496669201
 20
422.1040005560703
 30
0.0
 11
272.369496669201
 21
421.6726645717037
 31
0.0
  0
LINE
  5
F3E
330
1F
100
AcDbEntity
  8
AM_VIS
100
AcDbLine
 10
272.369496669201
 20
421.6726645717037
 30
0.0
 11
272.8008326535685
 21
421.6726645717037
 31
0.0
  0
CIRCLE
  5
F3F
330
1F
100
AcDbEntity
  8
AM_VIS
100
AcDbCircle
 10
272.004496669201
 20
421.3076645717018
 30
0.0
 40
2.799999999999982
  0
LINE
  5
F40
330
1F
100
AcDbEntity
  8
AM_VIS
100
AcDbLine
 10
271.639496669201
 20
420.5113285873334
 30
0.0
 11
271.639496669201
 21
419.8000703296282
 31
0.0
  0
ELLIPSE
  5
F41
330
1F
100
AcDbEntity
  8
AM_VIS
100
AcDbEllipse
 10
272.004496669201
 20
422.3866070468972
 30
0.0
 11
-4.833742177573079
 21
-0.0000000000000006
 31
0.0
210
0.0
220
0.0
230
1.0
 40
0.5366323605819275
 41
1.495213528926668
 42
1.646379124663124
  0
LINE
  5
F42
330
1F
100
AcDbEntity
  8
AM_VIS
100
AcDbLine
 10
272.369496669201
 20
422.1040005560702
 30
0.0
 11
272.369496669201
 21
422.8152588137755
 31
0.0
  0
ELLIPSE
  5
F43
330
1F
100
AcDbEntity
  8
AM_VIS
100
AcDbEllipse
 10
272.004496669201
 20
420.2287220965063
 30
0.0
 11
-4.833742177573079
 21
-0.0000000000000006
 31
0.0
210
0.0
220
0.0
230
1.0
 40
0.536632360581927
 41
4.636806182516462
 42
4.787971778252916
  0
LINE
  5
F44
330
1F
100
AcDbEntity
  8
AM_VIS
100
AcDbLine
 10
273.5120909112745
 20
421.6726645717037
 30
0.0
 11
272.8008326535685
 21
421.6726645717037
 31
0.0
  0
ELLIPSE
  5
F45
330
1F
100
AcDbEntity
  8
AM_VIS
100
AcDbEllipse
 10
273.0834391443965
 20
421.3076645717018
 30
0.0
 11
0.0000000000000006
 21
-4.833742177573077
 31
0.0
210
0.0
220
0.0
230
1.0
 40
0.5366323605819307
 41
4.636806182516044
 42
4.7879717782525
  0
LINE
  5
F46
330
1F
100
AcDbEntity
  8
AM_VIS
100
AcDbLine
 10
272.8008326535703
 20
420.9426645717037
 30
0.0
 11
273.5120909112747
 21
420.9426645717037
 31
0.0
  0
LINE
  5
F47
330
1F
100
AcDbEntity
  8
AM_VIS
100
AcDbLine
 10
270.4969024271272
 20
420.9426645717037
 30
0.0
 11
271.2081606848316
 21
420.9426645717037
 31
0.0
  0
ELLIPSE
  5
F48
330
1F
100
AcDbEntity
  8
AM_VIS
100
AcDbEllipse
 10
270.9255541940055
 20
421.3076645717018
 30
0.0
 11
0.0000000000000006
 21
-4.833742177573076
 31
0.0
210
0.0
220
0.0
230
1.0
 40
0.5366323605819311
 41
1.495213528927085
 42
1.646379124663541
  0
LINE
  5
F49
330
1F
100
AcDbEntity
  8
AM_VIS
100
AcDbLine
 10
271.2081606848335
 20
421.6726645717037
 30
0.0
 11
270.4969024271274
 21
421.6726645717037
 31
0.0
  0
LINE
  5
F4A
330
1F
100
AcDbEntity
  8
AM_VIS
100
AcDbLine
 10
272.369496669201
 20
419.8000703296282
 30
0.0
 11
272.369496669201
 21
420.5113285873334
 31
0.0
  0
LINE
  5
F4B
330
1F
100
AcDbEntity
  8
AM_VIS
100
AcDbLine
 10
271.639496669201
 20
422.8152588137755
 30
0.0
 11
271.639496669201
 21
422.1040005560702
 31
0.0
  0
ARC
  5
F4C
330
1F
100
AcDbEntity
  8
AM_VIS
100
AcDbCircle
 10
272.004496669201
 20
421.3076645717018
 30
0.0
 40
0.8760000000000047
100
AcDbArc
 50
114.6243183521651
 51
155.375681647695
  0
ARC
  5
F4D
330
1F
100
AcDbEntity
  8
AM_VIS
100
AcDbCircle
 10
272.004496669201
 20
421.3076645717018
 30
0.0
 40
0.8760000000000047
100
AcDbArc
 50
204.6243183520237
 51
245.3756816478349
  0
ARC
  5
F4E
330
1F
100
AcDbEntity
  8
AM_VIS
100
AcDbCircle
 10
272.004496669201
 20
421.3076645717018
 30
0.0
 40
0.8760000000000047
100
AcDbArc
 50
294.6243183521651
 51
335.3756816479763
  0
ARC
  5
F4F
330
1F
100
AcDbEntity
  8
AM_VIS
100
AcDbCircle
 10
272.004496669201
 20
421.3076645717018
 30
0.0
 40
0.8760000000000047
100
AcDbArc
 50
24.62431835230498
 51
65.37568164783492
  0
LINE
  5
F50
330
1F
100
AcDbEntity
  8
AM_VIS
100
AcDbLine
 10
238.504496669201
 20
412.0700602646677
 30
0.0
 11
244.004496669201
 21
412.0700602646677
 31
0.0
  0
LINE
  5
F51
330
1F
100
AcDbEntity
  8
AM_VIS
100
AcDbLine
 10
238.504496669201
 20
416.6888624181847
 30
0.0
 11
244.004496669201
 21
416.6888624181847
 31
0.0
  0
LINE
  5
F52
330
1F
100
AcDbEntity
  8
AM_VIS
100
AcDbLine
 10
238.504496669201
 20
415.2544613414263
 30
0.0
 11
244.004496669201
 21
415.2544613414263
 31
0.0
  0
LINE
  5
F53
330
1F
100
AcDbEntity
  8
AM_VIS
100
AcDbLine
 10
244.004496669201
 20
413.5044613414263
 30
0.0
 11
238.504496669201
 21
413.5044613414263
 31
0.0
  0
LINE
  5
F54
330
1F
100
AcDbEntity
  8
AM_VIS
100
AcDbLine
 10
238.504496669201
 20
414.1874740433186
 30
0.0
 11
244.004496669201
 21
414.1874740433186
 31
0.0
  0
LINE
  5
F55
330
1F
100
AcDbEntity
  8
AM_VIS
100
AcDbLine
 10
238.504496669201
 20
425.9264667252188
 30
0.0
 11
244.004496669201
 21
425.9264667252188
 31
0.0
  0
LINE
  5
F56
330
1F
100
AcDbEntity
  8
AM_VIS
100
AcDbLine
 10
238.504496669201
 20
423.0576645717019
 30
0.0
 11
244.004496669201
 21
423.0576645717019
 31
0.0
  0
LINE
  5
F57
330
1F
100
AcDbEntity
  8
AM_VIS
100
AcDbLine
 10
244.004496669201
 20
419.5576645717019
 30
0.0
 11
238.504496669201
 21
419.5576645717019
 31
0.0
  0
LINE
  5
F58
330
1F
100
AcDbEntity
  8
AM_VIS
100
AcDbLine
 10
238.504496669201
 20
420.0576645717019
 30
0.0
 11
244.004496669201
 21
420.0576645717019
 31
0.0
  0
LINE
  5
F59
330
1F
100
AcDbEntity
  8
AM_VIS
100
AcDbLine
 10
238.504496669201
 20
422.5576645717019
 30
0.0
 11
244.004496669201
 21
422.5576645717019
 31
0.0
  0
LINE
  5
F5A
330
1F
100
AcDbEntity
  8
AM_VIS
100
AcDbLine
 10
238.504496669201
 20
430.5452688787359
 30
0.0
 11
244.004496669201
 21
430.5452688787359
 31
0.0
  0
LINE
  5
F5B
330
1F
100
AcDbEntity
  8
AM_VIS
100
AcDbLine
 10
238.504496669201
 20
429.1108678019774
 30
0.0
 11
244.004496669201
 21
429.1108678019774
 31
0.0
  0
LINE
  5
F5C
330
1F
100
AcDbEntity
  8
AM_VIS
100
AcDbLine
 10
244.004496669201
 20
427.3608678019773
 30
0.0
 11
238.504496669201
 21
427.3608678019773
 31
0.0
  0
LINE
  5
F5D
330
1F
100
AcDbEntity
  8
AM_VIS
100
AcDbLine
 10
238.504496669201
 20
428.4278551000851
 30
0.0
 11
244.004496669201
 21
428.4278551000851
 31
0.0
  0
LINE
  5
F5E
330
1F
100
AcDbEntity
  8
AM_VIS
100
AcDbLine
 10
244.004496669201
 20
412.0700602646677
 30
0.0
 11
244.004496669201
 21
413.5044613414263
 31
0.0
  0
LINE
  5
F5F
330
1F
100
AcDbEntity
  8
AM_VIS
100
AcDbLine
 10
244.004496669201
 20
414.1874740433186
 30
0.0
 11
244.004496669201
 21
413.5044613414263
 31
0.0
  0
LINE
  5
F60
330
1F
100
AcDbEntity
  8
AM_VIS
100
AcDbLine
 10
244.004496669201
 20
415.2544613414263
 30
0.0
 11
244.004496669201
 21
414.1874740433186
 31
0.0
  0
LINE
  5
F61
330
1F
100
AcDbEntity
  8
AM_VIS
100
AcDbLine
 10
244.004496669201
 20
415.2544613414263
 30
0.0
 11
244.004496669201
 21
416.6888624181847
 31
0.0
  0
LINE
  5
F62
330
1F
100
AcDbEntity
  8
AM_VIS
100
AcDbLine
 10
244.004496669201
 20
416.6888624181847
 30
0.0
 11
244.004496669201
 21
419.5576645717019
 31
0.0
  0
LINE
  5
F63
330
1F
100
AcDbEntity
  8
AM_VIS
100
AcDbLine
 10
244.004496669201
 20
420.0576645717019
 30
0.0
 11
244.004496669201
 21
419.5576645717019
 31
0.0
  0
LINE
  5
F64
330
1F
100
AcDbEntity
  8
AM_VIS
100
AcDbLine
 10
244.004496669201
 20
422.5576645717019
 30
0.0
 11
244.004496669201
 21
420.0576645717019
 31
0.0
  0
LINE
  5
F65
330
1F
100
AcDbEntity
  8
AM_VIS
100
AcDbLine
 10
244.004496669201
 20
423.0576645717019
 30
0.0
 11
244.004496669201
 21
422.5576645717019
 31
0.0
  0
LINE
  5
F66
330
1F
100
AcDbEntity
  8
AM_VIS
100
AcDbLine
 10
244.004496669201
 20
423.0576645717019
 30
0.0
 11
244.004496669201
 21
425.9264667252188
 31
0.0
  0
LINE
  5
F67
330
1F
100
AcDbEntity
  8
AM_VIS
100
AcDbLine
 10
244.004496669201
 20
425.9264667252188
 30
0.0
 11
244.004496669201
 21
427.3608678019773
 31
0.0
  0
LINE
  5
F68
330
1F
100
AcDbEntity
  8
AM_VIS
100
AcDbLine
 10
244.004496669201
 20
428.4278551000851
 30
0.0
 11
244.004496669201
 21
427.3608678019773
 31
0.0
  0
LINE
  5
F69
330
1F
100
AcDbEntity
  8
AM_VIS
100
AcDbLine
 10
244.004496669201
 20
429.1108678019774
 30
0.0
 11
244.004496669201
 21
428.4278551000851
 31
0.0
  0
LINE
  5
F6A
330
1F
100
AcDbEntity
  8
AM_VIS
100
AcDbLine
 10
244.004496669201
 20
429.1108678019774
 30
0.0
 11
244.004496669201
 21
430.5452688787359
 31
0.0
  0
LINE
  5
F6B
330
1F
100
AcDbEntity
  8
AM_VIS
100
AcDbLine
 10
238.504496669201
 20
429.1108678019774
 30
0.0
 11
238.504496669201
 21
430.5452688787359
 31
0.0
  0
LINE
  5
F6C
330
1F
100
AcDbEntity
  8
AM_VIS
100
AcDbLine
 10
238.504496669201
 20
428.4278551000851
 30
0.0
 11
238.504496669201
 21
429.1108678019774
 31
0.0
  0
LINE
  5
F6D
330
1F
100
AcDbEntity
  8
AM_VIS
100
AcDbLine
 10
238.504496669201
 20
427.3608678019773
 30
0.0
 11
238.504496669201
 21
428.4278551000851
 31
0.0
  0
LINE
  5
F6E
330
1F
100
AcDbEntity
  8
AM_VIS
100
AcDbLine
 10
238.504496669201
 20
425.9264667252188
 30
0.0
 11
238.504496669201
 21
427.3608678019773
 31
0.0
  0
LINE
  5
F6F
330
1F
100
AcDbEntity
  8
AM_VIS
100
AcDbLine
 10
238.504496669201
 20
423.0576645717019
 30
0.0
 11
238.504496669201
 21
425.9264667252188
 31
0.0
  0
LINE
  5
F70
330
1F
100
AcDbEntity
  8
AM_VIS
100
AcDbLine
 10
238.504496669201
 20
422.5576645717019
 30
0.0
 11
238.504496669201
 21
423.0576645717019
 31
0.0
  0
LINE
  5
F71
330
1F
100
AcDbEntity
  8
AM_VIS
100
AcDbLine
 10
238.504496669201
 20
420.0576645717019
 30
0.0
 11
238.504496669201
 21
422.5576645717019
 31
0.0
  0
LINE
  5
F72
330
1F
100
AcDbEntity
  8
AM_VIS
100
AcDbLine
 10
238.504496669201
 20
419.5576645717019
 30
0.0
 11
238.504496669201
 21
420.0576645717019
 31
0.0
  0
LINE
  5
F73
330
1F
100
AcDbEntity
  8
AM_VIS
100
AcDbLine
 10
238.504496669201
 20
416.6888624181847
 30
0.0
 11
238.504496669201
 21
419.5576645717019
 31
0.0
  0
LINE
  5
F74
330
1F
100
AcDbEntity
  8
AM_VIS
100
AcDbLine
 10
238.504496669201
 20
415.2544613414263
 30
0.0
 11
238.504496669201
 21
416.6888624181847
 31
0.0
  0
LINE
  5
F75
330
1F
100
AcDbEntity
  8
AM_VIS
100
AcDbLine
 10
238.504496669201
 20
414.1874740433186
 30
0.0
 11
238.504496669201
 21
415.2544613414263
 31
0.0
  0
LINE
  5
F76
330
1F
100
AcDbEntity
  8
AM_VIS
100
AcDbLine
 10
238.504496669201
 20
413.5044613414263
 30
0.0
 11
238.504496669201
 21
414.1874740433186
 31
0.0
  0
LINE
  5
F77
330
1F
100
AcDbEntity
  8
AM_VIS
100
AcDbLine
 10
238.504496669201
 20
412.0700602646677
 30
0.0
 11
238.504496669201
 21
413.5044613414263
 31
0.0
  0
LINE
  5
F78
330
1F
100
AcDbEntity
  8
AM_VIS
100
AcDbLine
 10
244.004496669201
 20
414.5576645717018
 30
0.0
 11
245.504496669201
 21
414.5576645717018
 31
0.0
  0
LINE
  5
F79
330
1F
100
AcDbEntity
  8
AM_VIS
100
AcDbLine
 10
244.004496669201
 20
428.0576645717018
 30
0.0
 11
245.504496669201
 21
428.0576645717018
 31
0.0
  0
SPLINE
  5
F7A
330
1F
100
AcDbEntity
  8
AM_VIS
100
AcDbSpline
210
0.0
220
0.0
230
1.0
 70
     8
 71
     3
 72
    18
 73
    14
 74
     0
 42
0.0000000001
 43
0.0000000001
 40
6.072258403086962
 40
6.072258403086962
 40
6.072258403086962
 40
6.072258403086962
 40
6.091519998582311
 40
6.091519998582311
 40
6.594079983681931
 40
6.594079983681931
 40
7.096639968781531
 40
7.096639968781531
 40
7.59919995388113
 40
7.59919995388113
 40
8.101759938980729
 40
8.101759938980729
 40
8.212872863102431
 40
8.212872863102431
 40
8.212872863102431
 40
8.212872863102431
 10
257.7164437274019
 20
429.5071260558379
 30
0.0
 10
257.7155938572008
 20
429.5047963284964
 30
0.0
 10
257.7147604826087
 20
429.5024541179762
 30
0.0
 10
257.6926294240619
 20
429.4386664636991
 30
0.0
 10
257.6826730131838
 20
429.3686802032573
 30
0.0
 10
257.6826730131838
 20
429.2188457646634
 30
0.0
 10
257.692629424062
 20
429.1331249499255
 30
0.0
 10
257.7352577279388
 20
428.9434463748388
 30
0.0
 10
257.7679274693802
 20
428.8394918775801
 30
0.0
 10
257.8552928021292
 20
428.6196924963035
 30
0.0
 10
257.9100453628634
 20
428.5037313570557
 30
0.0
 10
257.9880192448509
 20
428.3599389953248
 30
0.0
 10
258.0025760389473
 20
428.3338186673065
 30
0.0
 10
258.017538984932
 20
428.3076645717017
 30
0.0
  0
ARC
  5
F7B
330
1F
100
AcDbEntity
  8
AM_VIS
100
AcDbCircle
 10
280.0438792653394
 20
441.4674020535368
 30
0.0
 40
25.65810508862866
100
AcDbArc
 50
210.8563986976605
 51
222.0943756774885
  0
SPLINE
  5
F7C
330
1F
100
AcDbEntity
  8
AM_VIS
100
AcDbSpline
210
0.0
220
0.0
230
1.0
 70
     8
 71
     3
 72
    18
 73
    14
 74
     0
 42
0.0000000001
 43
0.0000000001
 40
4.975287104260677
 40
4.975287104260677
 40
4.975287104260677
 40
4.975287104260677
 40
5.086400028382842
 40
5.086400028382842
 40
5.588960013482415
 40
5.588960013482415
 40
6.091519998581987
 40
6.091519998581987
 40
6.59407998368156
 40
6.59407998368156
 40
7.096639968781131
 40
7.096639968781131
 40
7.11590156427612
 40
7.11590156427612
 40
7.11590156427612
 40
7.11590156427612
 10
258.017538984932
 20
414.3076645717018
 30
0.0
 10
258.0025760389473
 20
414.2815104760969
 30
0.0
 10
257.9880192448507
 20
414.2553901480785
 30
0.0
 10
257.9100453628632
 20
414.1115977863476
 30
0.0
 10
257.8552928021291
 20
413.9956366470998
 30
0.0
 10
257.7679274693801
 20
413.7758372658232
 30
0.0
 10
257.7352577279387
 20
413.6718827685646
 30
0.0
 10
257.6926294240619
 20
413.4822041934778
 30
0.0
 10
257.6826730131838
 20
413.3964833787399
 30
0.0
 10
257.6826730131838
 20
413.246648940146
 30
0.0
 10
257.6926294240619
 20
413.1766626797044
 30
0.0
 10
257.7147604826087
 20
413.1128750254273
 30
0.0
 10
257.7155938572008
 20
413.1105328149073
 30
0.0
 10
257.7164437274019
 20
413.1082030875657
 30
0.0
  0
ARC
  5
F7D
330
1F
100
AcDbEntity
  8
AM_VIS
100
AcDbCircle
 10
280.0438792653379
 20
401.1479270898681
 30
0.0
 40
25.6581050886267
100
AcDbArc
 50
137.9056243225115
 51
149.1436013023402
  0
LINE
  5
F7E
330
1F
100
AcDbEntity
  8
AM_VIS
100
AcDbLine
 10
283.004496669201
 20
431.8076645717018
 30
0.0
 11
261.0044966692011
 21
431.8076645717018
 31
0.0
  0
SPLINE
  5
F7F
330
1F
100
AcDbEntity
  8
AM_VIS
100
AcDbSpline
210
0.0
220
0.0
230
1.0
 70
    12
 71
     2
 72
     6
 73
     3
 74
     0
 42
0.0000000001
 43
0.0000000001
 40
0.0
 40
0.0
 40
0.0
 40
3.381727793507036
 40
3.381727793507036
 40
3.381727793507036
 10
261.0044966692011
 20
424.2673942890915
 30
0.0
 41
1.0
 10
262.504496669201
 20
422.7267130663407
 30
0.0
 41
1.021203771466384
 10
262.504496669201
 20
421.3076645717018
 30
0.0
 41
1.0
  0
SPLINE
  5
F80
330
1F
100
AcDbEntity
  8
AM_VIS
100
AcDbSpline
210
0.0
220
0.0
230
1.0
 70
    12
 71
     2
 72
     6
 73
     3
 74
     0
 42
0.0000000001
 43
0.0000000001
 40
3.381727793507036
 40
3.381727793507036
 40
3.381727793507036
 40
6.763455587014078
 40
6.763455587014078
 40
6.763455587014078
 10
262.504496669201
 20
421.3076645717018
 30
0.0
 41
1.0
 10
262.504496669201
 20
419.8886160770629
 30
0.0
 41
1.021203771466384
 10
261.0044966692011
 20
418.347934854312
 30
0.0
 41
1.0
  0
LINE
  5
F81
330
1F
100
AcDbEntity
  8
AM_VIS
100
AcDbLine
 10
286.504496669201
 20
414.3076645717018
 30
0.0
 11
286.504496669201
 21
428.3076645717017
 31
0.0
  0
LINE
  5
F82
330
1F
100
AcDbEntity
  8
AM_VIS
100
AcDbLine
 10
261.0044966692011
 20
410.8076645717018
 30
0.0
 11
283.004496669201
 21
410.8076645717018
 31
0.0
  0
LINE
  5
F83
330
1F
100
AcDbEntity
  8
AM_VIS
100
AcDbLine
 10
258.0031528647306
 20
430.10820209349
 30
0.0
 11
257.504496669201
 21
430.3076645717018
 31
0.0
  0
LINE
  5
F84
330
1F
100
AcDbEntity
  8
AM_VIS
100
AcDbLine
 10
258.0031528647306
 20
412.5071270499137
 30
0.0
 11
257.504496669201
 21
412.3076645717018
 31
0.0
  0
LINE
  5
F85
330
1F
100
AcDbEntity
  8
AM_VIS
100
AcDbLine
 10
257.504496669201
 20
430.3076645717018
 30
0.0
 11
245.504496669201
 21
430.3076645717018
 31
0.0
  0
LINE
  5
F86
330
1F
100
AcDbEntity
  8
AM_VIS
100
AcDbLine
 10
257.504496669201
 20
412.3076645717018
 30
0.0
 11
245.504496669201
 21
412.3076645717018
 31
0.0
  0
ARC
  5
F87
330
1F
100
AcDbEntity
  8
AM_VIS
100
AcDbCircle
 10
261.0044966692011
 20
428.3076645717017
 30
0.0
 40
3.5
100
AcDbArc
 50
90.0
 51
159.9583415914323
  0
LINE
  5
F88
330
1F
100
AcDbEntity
  8
AM_VIS
100
AcDbLine
 10
257.504496669201
 20
430.3076645717018
 30
0.0
 11
257.504496669201
 21
412.3076645717018
 31
0.0
  0
LINE
  5
F89
330
1F
100
AcDbEntity
  8
AM_VIS
100
AcDbLine
 10
245.504496669201
 20
412.3076645717018
 30
0.0
 11
245.504496669201
 21
430.3076645717018
 31
0.0
  0
ARC
  5
F8A
330
1F
100
AcDbEntity
  8
AM_VIS
100
AcDbCircle
 10
283.004496669201
 20
414.3076645717018
 30
0.0
 40
3.5
100
AcDbArc
 50
270.0
 51
0.0
  0
ARC
  5
F8B
330
1F
100
AcDbEntity
  8
AM_VIS
100
AcDbCircle
 10
261.0044966692011
 20
414.3076645717018
 30
0.0
 40
3.499999999999999
100
AcDbArc
 50
200.0416584085669
 51
270.0
  0
ARC
  5
F8C
330
1F
100
AcDbEntity
  8
AM_VIS
100
AcDbCircle
 10
283.004496669201
 20
428.3076645717017
 30
0.0
 40
3.5
100
AcDbArc
 50
0.0
 51
90.0
  0
CIRCLE
  5
F8D
330
1F
100
AcDbEntity
  8
AM_VIS
100
AcDbCircle
 10
272.004496669201
 20
421.3076645717018
 30
0.0
 40
3.5
  0
LINE
  5
F8E
330
1F
100
AcDbEntity
  8
AM_VIS
100
AcDbLine
 10
248.5049918422986
 20
412.1585935226987
 30
0.0
 11
249.0049381782031
 21
411.8920994055535
 31
0.0
  0
LINE
  5
F8F
330
1F
100
AcDbEntity
  8
AM_VIS
100
AcDbLine
 10
249.004496669201
 20
411.8912711290788
 30
0.0
 11
250.1544966692009
 21
411.8912711290788
 31
0.0
  0
LINE
  5
F90
330
1F
100
AcDbEntity
  8
AM_VIS
100
AcDbLine
 10
250.1544966692009
 20
430.7240580143248
 30
0.0
 11
249.004496669201
 21
430.7240580143248
 31
0.0
  0
LINE
  5
F91
330
1F
100
AcDbEntity
  8
AM_VIS
100
AcDbLine
 10
248.5049918427877
 20
430.4567356197929
 30
0.0
 11
249.0049381780182
 21
430.7232297382019
 31
0.0
  0
LINE
  5
F92
330
1F
100
AcDbEntity
  8
AM_VIS
100
AcDbLine
 10
254.504496669201
 20
430.7240580143248
 30
0.0
 11
251.654496669201
 21
430.7240580143248
 31
0.0
  0
LINE
  5
F93
330
1F
100
AcDbEntity
  8
AM_VIS
100
AcDbLine
 10
251.654496669201
 20
411.8912711290788
 30
0.0
 11
254.504496669201
 21
411.8912711290788
 31
0.0
  0
LINE
  5
F94
330
1F
100
AcDbEntity
  8
AM_VIS
100
AcDbLine
 10
254.5042245333602
 20
411.8913125354177
 30
0.0
 11
254.5675829076839
 21
412.3077242472794
 31
0.0
  0
LINE
  5
F95
330
1F
100
AcDbEntity
  8
AM_VIS
100
AcDbLine
 10
254.5042245333602
 20
430.7240166079859
 30
0.0
 11
254.567582907684
 21
430.3076048961242
 31
0.0
  0
LINE
  5
F96
330
1F
100
AcDbEntity
  8
AM_VIS
100
AcDbLine
 10
255.8044966692009
 20
412.3076645717018
 30
0.0
 11
256.004496669201
 21
411.3076645717018
 31
0.0
  0
LINE
  5
F97
330
1F
100
AcDbEntity
  8
AM_VIS
100
AcDbLine
 10
255.8044966692009
 20
430.3076645717018
 30
0.0
 11
256.004496669201
 21
431.3076645717018
 31
0.0
  0
LINE
  5
F98
330
1F
100
AcDbEntity
  8
AM_VIS
100
AcDbLine
 10
256.504496669201
 20
431.3076645717018
 30
0.0
 11
256.004496669201
 21
431.3076645717018
 31
0.0
  0
LINE
  5
F99
330
1F
100
AcDbEntity
  8
AM_VIS
100
AcDbLine
 10
256.504496669201
 20
411.3076645717018
 30
0.0
 11
256.004496669201
 21
411.3076645717018
 31
0.0
  0
LINE
  5
F9A
330
1F
100
AcDbEntity
  8
AM_VIS
100
AcDbLine
 10
249.004496669201
 20
430.7240580143248
 30
0.0
 11
249.004496669201
 21
430.3076645717018
 31
0.0
  0
LINE
  5
F9B
330
1F
100
AcDbEntity
  8
AM_VIS
100
AcDbLine
 10
249.004496669201
 20
412.3076645717018
 30
0.0
 11
249.004496669201
 21
411.8912711290788
 31
0.0
  0
LINE
  5
F9C
330
1F
100
AcDbEntity
  8
AM_VIS
100
AcDbLine
 10
250.1544966692009
 20
412.3076645717018
 30
0.0
 11
250.1544966692009
 21
411.8912711290788
 31
0.0
  0
LINE
  5
F9D
330
1F
100
AcDbEntity
  8
AM_VIS
100
AcDbLine
 10
250.1544966692009
 20
430.7240580143248
 30
0.0
 11
250.1544966692009
 21
430.3076645717018
 31
0.0
  0
LINE
  5
F9E
330
1F
100
AcDbEntity
  8
AM_VIS
100
AcDbLine
 10
251.654496669201
 20
430.3076645717018
 30
0.0
 11
251.654496669201
 21
430.7240580143248
 31
0.0
  0
LINE
  5
F9F
330
1F
100
AcDbEntity
  8
AM_VIS
100
AcDbLine
 10
251.654496669201
 20
411.8912711290788
 30
0.0
 11
251.654496669201
 21
412.3076645717018
 31
0.0
  0
LINE
  5
FA0
330
1F
100
AcDbEntity
  8
AM_VIS
100
AcDbLine
 10
254.504496669201
 20
412.3076645717018
 30
0.0
 11
254.504496669201
 21
411.8912711290788
 31
0.0
  0
LINE
  5
FA1
330
1F
100
AcDbEntity
  8
AM_VIS
100
AcDbLine
 10
254.504496669201
 20
430.7240580143248
 30
0.0
 11
254.504496669201
 21
430.3076645717018
 31
0.0
  0
LINE
  5
FA2
330
1F
100
AcDbEntity
  8
AM_VIS
100
AcDbLine
 10
256.004496669201
 20
430.3076645717018
 30
0.0
 11
256.004496669201
 21
431.3076645717018
 31
0.0
  0
LINE
  5
FA3
330
1F
100
AcDbEntity
  8
AM_VIS
100
AcDbLine
 10
256.004496669201
 20
411.3076645717018
 30
0.0
 11
256.004496669201
 21
412.3076645717018
 31
0.0
  0
LINE
  5
FA4
330
1F
100
AcDbEntity
  8
AM_VIS
100
AcDbLine
 10
248.504496669201
 20
430.3076645717018
 30
0.0
 11
248.504496669201
 21
430.4576645717018
 31
0.0
  0
LINE
  5
FA5
330
1F
100
AcDbEntity
  8
AM_VIS
100
AcDbLine
 10
248.504496669201
 20
412.1576645717018
 30
0.0
 11
248.504496669201
 21
412.3076645717018
 31
0.0
  0
LINE
  5
FA6
330
1F
100
AcDbEntity
  8
AM_VIS
100
AcDbLine
 10
286.004496669201
 20
410.3076645717018
 30
0.0
 11
256.504496669201
 21
410.3076645717018
 31
0.0
  0
LINE
  5
FA7
330
1F
100
AcDbEntity
  8
AM_VIS
100
AcDbLine
 10
286.004496669201
 20
432.3076645717017
 30
0.0
 11
256.504496669201
 21
432.3076645717017
 31
0.0
  0
LINE
  5
FA8
330
1F
100
AcDbEntity
  8
AM_VIS
100
AcDbLine
 10
256.504496669201
 20
432.3076645717017
 30
0.0
 11
256.504496669201
 21
430.3076645717018
 31
0.0
  0
LINE
  5
FA9
330
1F
100
AcDbEntity
  8
AM_VIS
100
AcDbLine
 10
256.504496669201
 20
412.3076645717018
 30
0.0
 11
256.504496669201
 21
410.3076645717018
 31
0.0
  0
LINE
  5
FAA
330
1F
100
AcDbEntity
  8
AM_VIS
100
AcDbLine
 10
392.0634341813288
 20
417.7150195440082
 30
0.0
 11
391.004496669201
 21
417.8076645717018
 31
0.0
  0
LINE
  5
FAB
330
1F
100
AcDbEntity
  8
AM_VIS
100
AcDbLine
 10
392.0634341813288
 20
409.9003095993952
 30
0.0
 11
391.004496669201
 21
409.8076645717018
 31
0.0
  0
LINE
  5
FAC
330
1F
100
AcDbEntity
  8
AM_VIS
100
AcDbLine
 10
391.004496669201
 20
409.8076645717018
 30
0.0
 11
391.004496669201
 21
417.8076645717018
 31
0.0
  0
ARC
  5
FAD
330
1F
100
AcDbEntity
  8
AM_VIS
100
AcDbCircle
 10
387.604496669201
 20
413.8076645717018
 30
0.0
 40
6.481124516625182
100
AcDbArc
 50
340.2804765846993
 51
350.4079483577541
  0
LINE
  5
FAE
330
1F
100
AcDbEntity
  8
AM_VIS
100
AcDbLine
 10
393.7055396935519
 20
411.6208291835167
 30
0.0
 11
393.7208681425501
 21
411.6076645717019
 31
0.0
  0
LINE
  5
FAF
330
1F
100
AcDbEntity
  8
AM_VIS
100
AcDbLine
 10
393.7208681425501
 20
416.0076645717018
 30
0.0
 11
393.7055396935519
 21
415.9944999598868
 31
0.0
  0
ELLIPSE
  5
FB0
330
1F
100
AcDbEntity
  8
AM_VIS
100
AcDbEllipse
 10
389.113467998226
 20
413.8076645717018
 30
0.0
 11
-0.0000000000000007
 21
6.07338170302488
 31
0.0
210
0.0
220
0.0
230
1.0
 40
0.7586218633400569
 41
4.630795282262288
 42
4.793982678507748
  0
LINE
  5
FB1
330
1F
100
AcDbEntity
  8
AM_VIS
100
AcDbLine
 10
393.705539693552
 20
413.3126645717038
 30
0.0
 11
393.9950096376566
 21
413.3126645717038
 31
0.0
  0
LINE
  5
FB2
330
1F
100
AcDbEntity
  8
AM_VIS
100
AcDbLine
 10
393.9950096376566
 20
414.3026645717038
 30
0.0
 11
393.7055396935518
 21
414.3026645717038
 31
0.0
  0
ARC
  5
FB3
330
1F
100
AcDbEntity
  8
AM_VIS
100
AcDbCircle
 10
387.604496669201
 20
413.8076645717018
 30
0.0
 40
6.481124516625182
100
AcDbArc
 50
9.592051642245953
 51
19.71952341530071
  0
LINE
  5
FB4
330
1F
100
AcDbEntity
  8
AM_VIS
100
AcDbLine
 10
393.9950096376567
 20
414.8876270710507
 30
0.0
 11
393.9950096376567
 21
414.3026645717037
 31
0.0
  0
LINE
  5
FB5
330
1F
100
AcDbEntity
  8
AM_VIS
100
AcDbLine
 10
393.9950096376567
 20
413.3126645717037
 30
0.0
 11
393.9950096376567
 21
412.7277020723528
 31
0.0
  0
ARC
  5
FB6
330
1F
100
AcDbEntity
  8
AM_VIS
100
AcDbCircle
 10
391.9239849929325
 20
416.1211080270616
 30
0.0
 40
1.6
100
AcDbArc
 50
28.17273413186441
 51
84.99999999999863
  0
ARC
  5
FB7
330
1F
100
AcDbEntity
  8
AM_VIS
100
AcDbCircle
 10
391.9239849929325
 20
411.494221116342
 30
0.0
 40
1.599999999999999
100
AcDbArc
 50
275.0000000000014
 51
331.8272658681356
  0
ARC
  5
FB8
330
1F
100
AcDbEntity
  8
AM_VIS
100
AcDbCircle
 10
387.604496669201
 20
413.8076645717018
 30
0.0
 40
6.5
100
AcDbArc
 50
19.78317037266085
 51
28.17273413186441
  0
ARC
  5
FB9
330
1F
100
AcDbEntity
  8
AM_VIS
100
AcDbCircle
 10
387.604496669201
 20
413.8076645717018
 30
0.0
 40
6.5
100
AcDbArc
 50
331.8272658681341
 51
340.2168296273378
  0
LINE
  5
FBA
330
1F
100
AcDbEntity
  8
AM_VIS
100
AcDbLine
 10
390.404496669201
 20
410.0076645717018
 30
0.0
 11
391.004496669201
 21
410.0076645717018
 31
0.0
  0
LINE
  5
FBB
330
1F
100
AcDbEntity
  8
AM_VIS
100
AcDbLine
 10
390.404496669201
 20
417.6076645717018
 30
0.0
 11
391.004496669201
 21
417.6076645717018
 31
0.0
  0
LINE
  5
FBC
330
1F
100
AcDbEntity
  8
AM_VIS
100
AcDbLine
 10
297.3044966692009
 20
423.8076645717018
 30
0.0
 11
297.3044966692009
 21
418.8076645717018
 31
0.0
  0
LINE
  5
FBD
330
1F
100
AcDbEntity
  8
AM_VIS
100
AcDbLine
 10
297.3044966692009
 20
418.8076645717018
 30
0.0
 11
296.304496669201
 21
418.8076645717018
 31
0.0
  0
LINE
  5
FBE
330
1F
100
AcDbEntity
  8
AM_VIS
100
AcDbLine
 10
296.304496669201
 20
418.8076645717018
 30
0.0
 11
296.304496669201
 21
423.8076645717018
 31
0.0
  0
LINE
  5
FBF
330
1F
100
AcDbEntity
  8
AM_VIS
100
AcDbLine
 10
296.304496669201
 20
423.8076645717018
 30
0.0
 11
297.3044966692009
 21
423.8076645717018
 31
0.0
  0
LINE
  5
FC1
330
1F
100
AcDbEntity
  8
AM_VIS
100
AcDbLine
 10
299.2044966692009
 20
418.829257825423
 30
0.0
 11
299.2044966692009
 21
418.7601167311304
 31
0.0
  0
LINE
  5
FC6
330
1F
100
AcDbEntity
  8
AM_VIS
100
AcDbLine
 10
312.004496669201
 20
406.3076645717018
 30
0.0
 11
288.004496669201
 21
406.726586129979
 31
0.0
  0
LINE
  5
FC7
330
1F
100
AcDbEntity
  8
AM_VIS
100
AcDbLine
 10
312.004496669201
 20
436.3076645717018
 30
0.0
 11
288.0044966692009
 21
435.8887430134246
 31
0.0
  0
LINE
  5
FC8
330
1F
100
AcDbEntity
  8
AM_VIS
100
AcDbLine
 10
288.0044966692009
 20
435.8902334651001
 30
0.0
 11
288.0898845885049
 21
435.8902334651001
 31
0.0
  0
CIRCLE
  5
FC9
330
1F
100
AcDbEntity
  8
AM_VIS
100
AcDbCircle
 10
296.8044966692009
 20
421.3076645717018
 30
0.0
 40
3.5
  0
LINE
  5
FCA
330
1F
100
AcDbEntity
  8
AM_VIS
100
AcDbLine
 10
294.304496669201
 20
418.930165886108
 30
0.0
 11
294.304496669201
 21
418.8581748289186
 31
0.0
  0
LINE
  5
FCB
330
1F
100
AcDbEntity
  8
AM_VIS
100
AcDbLine
 10
299.3044966692009
 20
418.8581748289186
 30
0.0
 11
299.3044966692009
 21
418.930165886108
 31
0.0
  0
LINE
  5
FCD
330
1F
100
AcDbEntity
  8
AM_VIS
100
AcDbLine
 10
288.0044966692009
 20
435.8887430134246
 30
0.0
 11
288.0044966692009
 21
435.543912628237
 31
0.0
  0
LINE
  5
FCE
330
1F
100
AcDbEntity
  8
AM_VIS
100
AcDbLine
 10
288.0044966692009
 20
407.0714165151666
 30
0.0
 11
288.0044966692009
 21
406.726586129979
 31
0.0
  0
LINE
  5
FCF
330
1F
100
AcDbEntity
  8
AM_VIS
100
AcDbLine
 10
312.004496669201
 20
436.3076645717018
 30
0.0
 11
312.004496669201
 21
406.3076645717018
 31
0.0
  0
LINE
  5
FD0
330
1F
100
AcDbEntity
  8
AM_VIS
100
AcDbLine
 10
288.004496669201
 20
435.4076645717018
 30
0.0
 11
288.004496669201
 21
407.2076645717018
 31
0.0
  0
LINE
  5
FD1
330
1F
100
AcDbEntity
  8
AM_VIS
100
AcDbLine
 10
288.004496669201
 20
435.9076645717018
 30
0.0
 11
286.004496669201
 21
435.9076645717018
 31
0.0
  0
LINE
  5
FD2
330
1F
100
AcDbEntity
  8
AM_VIS
100
AcDbLine
 10
286.004496669201
 20
435.4076645717018
 30
0.0
 11
286.004496669201
 21
430.1104402094339
 31
0.0
  0
LINE
  5
FD3
330
1F
100
AcDbEntity
  8
AM_VIS
100
AcDbLine
 10
286.004496669201
 20
412.5048889339697
 30
0.0
 11
286.004496669201
 21
407.2076645717018
 31
0.0
  0
LINE
  5
FD4
330
1F
100
AcDbEntity
  8
AM_VIS
100
AcDbLine
 10
286.004496669201
 20
406.7076645717018
 30
0.0
 11
288.004496669201
 21
406.7076645717018
 31
0.0
  0
LINE
  5
FD5
330
1F
100
AcDbEntity
  8
AM_VIS
100
AcDbLine
 10
288.004496669201
 20
435.543912628237
 30
0.0
 11
288.004496669201
 21
435.4076645717018
 31
0.0
  0
LINE
  5
FD6
330
1F
100
AcDbEntity
  8
AM_VIS
100
AcDbLine
 10
288.004496669201
 20
435.9076645717018
 30
0.0
 11
288.004496669201
 21
435.8887430134246
 31
0.0
  0
LINE
  5
FD7
330
1F
100
AcDbEntity
  8
AM_VIS
100
AcDbLine
 10
286.004496669201
 20
435.4076645717018
 30
0.0
 11
286.004496669201
 21
435.9076645717018
 31
0.0
  0
LINE
  5
FD8
330
1F
100
AcDbEntity
  8
AM_VIS
100
AcDbLine
 10
288.004496669201
 20
406.726586129979
 30
0.0
 11
288.004496669201
 21
406.7076645717018
 31
0.0
  0
LINE
  5
FD9
330
1F
100
AcDbEntity
  8
AM_VIS
100
AcDbLine
 10
288.004496669201
 20
407.2076645717018
 30
0.0
 11
288.004496669201
 21
407.0714165151666
 31
0.0
  0
LINE
  5
FDA
330
1F
100
AcDbEntity
  8
AM_VIS
100
AcDbLine
 10
286.004496669201
 20
406.7076645717018
 30
0.0
 11
286.004496669201
 21
407.2076645717018
 31
0.0
  0
LINE
  5
FDD
330
1F
100
AcDbEntity
  8
AM_VIS
100
AcDbLine
 10
298.8044855692725
 20
406.5378719241406
 30
0.0
 11
298.7045007997569
 21
406.5396171647844
 31
0.0
  0
ARC
  5
FDE
330
1F
100
AcDbEntity
  8
AM_VIS
100
AcDbCircle
 10
298.7752541251072
 20
407.7281380344273
 30
0.0
 40
1.190625
100
AcDbArc
 50
266.3743118666504
 51
266.5931702408096
  0
ARC
  5
FDF
330
1F
100
AcDbEntity
  8
AM_VIS
100
AcDbCircle
 10
298.7752541251072
 20
407.7281380344273
 30
0.0
 40
1.190625
100
AcDbArc
 50
271.4068297591897
 51
271.6256881333501
  0
LINE
  5
FE0
330
1F
100
AcDbEntity
  8
AM_VIS
100
AcDbLine
 10
312.004496669201
 20
406.3076645717018
 30
0.0
 11
386.004496669201
 21
406.3076645717018
 31
0.0
  0
LINE
  5
FE1
330
1F
100
AcDbEntity
  8
AM_VIS
100
AcDbLine
 10
312.004496669201
 20
436.3076645717018
 30
0.0
 11
386.0044966692009
 21
436.3076645717018
 31
0.0
  0
LINE
  5
FE2
330
1F
100
AcDbEntity
  8
AM_VIS
100
AcDbLine
 10
386.004496669201
 20
406.3076645717018
 30
0.0
 11
386.004496669201
 21
436.3076645717018
 31
0.0
  0
LINE
  5
FE3
330
1F
100
AcDbEntity
  8
AM_VIS
100
AcDbLine
 10
312.004496669201
 20
406.3076645717018
 30
0.0
 11
312.004496669201
 21
436.3076645717018
 31
0.0
  0
LINE
  5
FE4
330
1F
100
AcDbEntity
  8
AM_VIS
100
AcDbLine
 10
162.4019417236796
 20
363.4634077602137
 30
0.0
 11
163.8363428004382
 21
360.9789522168363
 31
0.0
  0
LINE
  5
FE5
330
1F
100
AcDbEntity
  8
AM_VIS
100
AcDbLine
 10
163.836342800438
 20
365.9478633035909
 30
0.0
 11
162.4019417236796
 21
363.4634077602137
 31
0.0
  0
LINE
  5
FE6
330
1F
100
AcDbEntity
  8
AM_VIS
100
AcDbLine
 10
164.5193555023303
 20
366.1308760054831
 30
0.0
 11
163.8363428004381
 21
365.9478633035909
 31
0.0
  0
LINE
  5
FE7
330
1F
100
AcDbEntity
  8
AM_VIS
100
AcDbLine
 10
165.7693555023303
 20
368.2959395149442
 30
0.0
 11
164.5193555023303
 21
366.1308760054831
 31
0.0
  0
LINE
  5
FE8
330
1F
100
AcDbEntity
  8
AM_VIS
100
AcDbLine
 10
165.586342800438
 20
368.9789522168364
 30
0.0
 11
165.7693555023303
 21
368.2959395149442
 31
0.0
  0
LINE
  5
FE9
330
1F
100
AcDbEntity
  8
AM_VIS
100
AcDbLine
 10
167.0207438771966
 20
371.4634077602137
 30
0.0
 11
165.586342800438
 21
368.9789522168364
 31
0.0
  0
LINE
  5
FEA
330
1F
100
AcDbEntity
  8
AM_VIS
100
AcDbLine
 10
169.8895460307135
 20
371.4634077602137
 30
0.0
 11
167.0207438771966
 21
371.4634077602137
 31
0.0
  0
LINE
  5
FEB
330
1F
100
AcDbEntity
  8
AM_VIS
100
AcDbLine
 10
170.3895460307135
 20
370.9634077602137
 30
0.0
 11
169.8895460307135
 21
371.4634077602136
 31
0.0
  0
LINE
  5
FEC
330
1F
100
AcDbEntity
  8
AM_VIS
100
AcDbLine
 10
172.8895460307135
 20
370.9634077602137
 30
0.0
 11
170.3895460307135
 21
370.9634077602137
 31
0.0
  0
LINE
  5
FED
330
1F
100
AcDbEntity
  8
AM_VIS
100
AcDbLine
 10
173.3895460307135
 20
371.4634077602137
 30
0.0
 11
172.8895460307135
 21
370.9634077602137
 31
0.0
  0
LINE
  5
FEE
330
1F
100
AcDbEntity
  8
AM_VIS
100
AcDbLine
 10
176.2583481842307
 20
371.4634077602137
 30
0.0
 11
173.3895460307135
 21
371.4634077602137
 31
0.0
  0
LINE
  5
FEF
330
1F
100
AcDbEntity
  8
AM_VIS
100
AcDbLine
 10
177.6927492609891
 20
368.9789522168365
 30
0.0
 11
176.2583481842306
 21
371.4634077602137
 31
0.0
  0
LINE
  5
FF0
330
1F
100
AcDbEntity
  8
AM_VIS
100
AcDbLine
 10
177.5097365590968
 20
368.2959395149443
 30
0.0
 11
177.6927492609891
 21
368.9789522168364
 31
0.0
  0
LINE
  5
FF1
330
1F
100
AcDbEntity
  8
AM_VIS
100
AcDbLine
 10
178.7597365590968
 20
366.1308760054832
 30
0.0
 11
177.5097365590968
 21
368.2959395149443
 31
0.0
  0
LINE
  5
FF2
330
1F
100
AcDbEntity
  8
AM_VIS
100
AcDbLine
 10
179.4427492609891
 20
365.947863303591
 30
0.0
 11
178.7597365590968
 21
366.1308760054832
 31
0.0
  0
LINE
  5
FF3
330
1F
100
AcDbEntity
  8
AM_VIS
100
AcDbLine
 10
180.8771503377476
 20
363.4634077602137
 30
0.0
 11
179.4427492609891
 21
365.947863303591
 31
0.0
  0
LINE
  5
FF4
330
1F
100
AcDbEntity
  8
AM_VIS
100
AcDbLine
 10
179.4427492609892
 20
360.9789522168365
 30
0.0
 11
180.8771503377476
 21
363.4634077602137
 31
0.0
  0
LINE
  5
FF5
330
1F
100
AcDbEntity
  8
AM_VIS
100
AcDbLine
 10
178.7597365590969
 20
360.7959395149443
 30
0.0
 11
179.4427492609891
 21
360.9789522168366
 31
0.0
  0
LINE
  5
FF6
330
1F
100
AcDbEntity
  8
AM_VIS
100
AcDbLine
 10
177.5097365590969
 20
358.6308760054832
 30
0.0
 11
178.7597365590969
 21
360.7959395149443
 31
0.0
  0
LINE
  5
FF7
330
1F
100
AcDbEntity
  8
AM_VIS
100
AcDbLine
 10
177.6927492609891
 20
357.947863303591
 30
0.0
 11
177.5097365590969
 21
358.6308760054832
 31
0.0
  0
LINE
  5
FF8
330
1F
100
AcDbEntity
  8
AM_VIS
100
AcDbLine
 10
176.2583481842306
 20
355.4634077602137
 30
0.0
 11
177.6927492609891
 21
357.9478633035909
 31
0.0
  0
LINE
  5
FF9
330
1F
100
AcDbEntity
  8
AM_VIS
100
AcDbLine
 10
173.3895460307136
 20
355.4634077602137
 30
0.0
 11
176.2583481842306
 21
355.4634077602137
 31
0.0
  0
LINE
  5
FFA
330
1F
100
AcDbEntity
  8
AM_VIS
100
AcDbLine
 10
172.8895460307136
 20
355.9634077602137
 30
0.0
 11
173.3895460307136
 21
355.4634077602137
 31
0.0
  0
LINE
  5
FFB
330
1F
100
AcDbEntity
  8
AM_VIS
100
AcDbLine
 10
170.3895460307136
 20
355.9634077602137
 30
0.0
 11
172.8895460307136
 21
355.9634077602137
 31
0.0
  0
LINE
  5
FFC
330
1F
100
AcDbEntity
  8
AM_VIS
100
AcDbLine
 10
169.8895460307136
 20
355.4634077602137
 30
0.0
 11
170.3895460307136
 21
355.9634077602137
 31
0.0
  0
LINE
  5
FFD
330
1F
100
AcDbEntity
  8
AM_VIS
100
AcDbLine
 10
167.0207438771966
 20
355.4634077602137
 30
0.0
 11
169.8895460307136
 21
355.4634077602137
 31
0.0
  0
LINE
  5
FFE
330
1F
100
AcDbEntity
  8
AM_VIS
100
AcDbLine
 10
165.5863428004382
 20
357.9478633035908
 30
0.0
 11
167.0207438771966
 21
355.4634077602137
 31
0.0
  0
LINE
  5
FFF
330
1F
100
AcDbEntity
  8
AM_VIS
100
AcDbLine
 10
165.7693555023304
 20
358.630876005483
 30
0.0
 11
165.5863428004382
 21
357.9478633035908
 31
0.0
  0
LINE
  5
1000
330
1F
100
AcDbEntity
  8
AM_VIS
100
AcDbLine
 10
163.8363428004382
 20
360.9789522168363
 30
0.0
 11
164.5193555023304
 21
360.795939514944
 31
0.0
  0
LINE
  5
1001
330
1F
100
AcDbEntity
  8
AM_VIS
100
AcDbLine
 10
164.5193555023304
 20
360.7959395149441
 30
0.0
 11
165.7693555023304
 21
358.630876005483
 31
0.0
  0
LINE
  5
1003
330
1F
100
AcDbEntity
  8
AM_VIS
100
AcDbLine
 10
161.1395460307136
 20
366.9634077602137
 30
0.0
 11
161.1395460307136
 21
341.9634077602137
 31
0.0
  0
LINE
  5
1004
330
1F
100
AcDbEntity
  8
AM_VIS
100
AcDbLine
 10
165.9826917812212
 20
370.4634077602137
 30
0.0
 11
164.6395460307136
 21
370.4634077602137
 31
0.0
  0
LINE
  5
1005
330
1F
100
AcDbEntity
  8
AM_VIS
100
AcDbLine
 10
178.6395460307136
 20
370.4634077602137
 30
0.0
 11
177.296400280206
 21
370.4634077602137
 31
0.0
  0
LINE
  5
1006
330
1F
100
AcDbEntity
  8
AM_VIS
100
AcDbLine
 10
182.1395460307136
 20
341.9634077602137
 30
0.0
 11
182.1395460307136
 21
366.9634077602137
 31
0.0
  0
ARC
  5
1007
330
1F
100
AcDbEntity
  8
AM_VIS
100
AcDbCircle
 10
171.6395460307136
 20
363.4634077602137
 30
0.0
 40
9.0
100
AcDbArc
 50
302.7339555492674
 51
357.266044450732
  0
ARC
  5
1008
330
1F
100
AcDbEntity
  8
AM_VIS
100
AcDbCircle
 10
171.6395460307136
 20
363.4634077602137
 30
0.0
 40
9.0
100
AcDbArc
 50
242.7339555492677
 51
297.2660444507322
  0
ARC
  5
1009
330
1F
100
AcDbEntity
  8
AM_VIS
100
AcDbCircle
 10
171.6395460307136
 20
363.4634077602137
 30
0.0
 40
9.0
100
AcDbArc
 50
182.733955549268
 51
237.2660444507326
  0
ARC
  5
100A
330
1F
100
AcDbEntity
  8
AM_VIS
100
AcDbCircle
 10
171.6395460307136
 20
363.4634077602137
 30
0.0
 40
9.0
100
AcDbArc
 50
122.7339555492678
 51
177.266044450732
  0
ARC
  5
100B
330
1F
100
AcDbEntity
  8
AM_VIS
100
AcDbCircle
 10
171.6395460307136
 20
363.4634077602137
 30
0.0
 40
9.0
100
AcDbArc
 50
62.73395554926633
 51
117.2660444507336
  0
ARC
  5
100C
330
1F
100
AcDbEntity
  8
AM_VIS
100
AcDbCircle
 10
171.6395460307136
 20
363.4634077602137
 30
0.0
 40
9.0
100
AcDbArc
 50
2.733955549267971
 51
57.26604445073306
  0
ARC
  5
100D
330
1F
100
AcDbEntity
  8
AM_VIS
100
AcDbCircle
 10
178.6395460307136
 20
366.9634077602137
 30
0.0
 40
3.5
100
AcDbArc
 50
0.0
 51
90.0
  0
ARC
  5
100E
330
1F
100
AcDbEntity
  8
AM_VIS
100
AcDbCircle
 10
164.6395460307136
 20
366.9634077602137
 30
0.0
 40
3.5
100
AcDbArc
 50
90.0
 51
180.0
  0
CIRCLE
  5
100F
330
1F
100
AcDbEntity
  8
AM_VIS
100
AcDbCircle
 10
171.6395460307136
 20
363.4634077602137
 30
0.0
 40
5.0
  0
LINE
  5
1010
330
1F
100
AcDbEntity
  8
AM_VIS
100
AcDbLine
 10
180.7835629936957
 20
321.9065475125545
 30
0.0
 11
181.0497760502371
 21
321.0951511134784
 31
0.0
  0
LINE
  5
1011
330
1F
100
AcDbEntity
  8
AM_VIS
100
AcDbLine
 10
180.7835629915275
 20
327.0202680086252
 30
0.0
 11
181.0497760530694
 21
327.8316644060619
 31
0.0
  0
LINE
  5
1012
330
1F
100
AcDbEntity
  8
AM_VIS
100
AcDbLine
 10
178.425860439087
 20
331.1039286112502
 30
0.0
 11
179.2616568641987
 21
330.9287776943748
 31
0.0
  0
LINE
  5
1013
330
1F
100
AcDbEntity
  8
AM_VIS
100
AcDbLine
 10
173.4276652239985
 20
334.297034341558
 30
0.0
 11
173.9972485761533
 21
333.6607888599536
 31
0.0
  0
LINE
  5
1014
330
1F
100
AcDbEntity
  8
AM_VIS
100
AcDbLine
 10
173.4276652218187
 20
314.6297811808746
 30
0.0
 11
173.9972485778847
 21
315.2660266589758
 31
0.0
  0
LINE
  5
1015
330
1F
100
AcDbEntity
  8
AM_VIS
100
AcDbLine
 10
178.4258604386555
 20
317.8228869114259
 30
0.0
 11
179.2616568648453
 21
317.9980378231624
 31
0.0
  0
LINE
  5
1016
330
1F
100
AcDbEntity
  8
AM_VIS
100
AcDbLine
 10
169.2818434835425
 20
333.6607888614516
 30
0.0
 11
169.8514268396085
 21
334.2970343395529
 31
0.0
  0
LINE
  5
1017
330
1F
100
AcDbEntity
  8
AM_VIS
100
AcDbLine
 10
164.017435196582
 20
330.9287776972652
 30
0.0
 11
164.8532316227718
 21
331.1039286090016
 31
0.0
  0
LINE
  5
1018
330
1F
100
AcDbEntity
  8
AM_VIS
100
AcDbLine
 10
164.0174351972286
 20
317.9980378260527
 30
0.0
 11
164.8532316223402
 21
317.8228869091774
 31
0.0
  0
LINE
  5
1019
330
1F
100
AcDbEntity
  8
AM_VIS
100
AcDbLine
 10
169.281843485274
 20
315.2660266604738
 30
0.0
 11
169.8514268374287
 21
314.6297811788695
 31
0.0
  0
LINE
  5
101A
330
1F
100
AcDbEntity
  8
AM_VIS
100
AcDbLine
 10
162.2293160061234
 20
327.8316644053918
 30
0.0
 11
162.4955290751691
 21
327.0202680104152
 31
0.0
  0
LINE
  5
101B
330
1F
100
AcDbEntity
  8
AM_VIS
100
AcDbLine
 10
162.2293160032971
 20
321.0951511159209
 30
0.0
 11
162.4955290773322
 21
321.9065475092617
 31
0.0
  0
ARC
  5
101C
330
1F
100
AcDbEntity
  8
AM_VIS
100
AcDbCircle
 10
171.6395460307136
 20
324.4634077602137
 30
0.0
 40
10.0
100
AcDbArc
 50
199.671289216708
 51
220.3287107832935
  0
ARC
  5
101D
330
1F
100
AcDbEntity
  8
AM_VIS
100
AcDbCircle
 10
171.6395460307136
 20
324.4634077602137
 30
0.0
 40
10.0
100
AcDbArc
 50
139.6712892167081
 51
160.3287107832941
  0
ARC
  5
101E
330
1F
100
AcDbEntity
  8
AM_VIS
100
AcDbCircle
 10
171.6395460307136
 20
324.4634077602137
 30
0.0
 40
10.0
100
AcDbArc
 50
79.67128921670713
 51
100.3287107832928
  0
ARC
  5
101F
330
1F
100
AcDbEntity
  8
AM_VIS
100
AcDbCircle
 10
171.6395460307136
 20
324.4634077602137
 30
0.0
 40
10.0
100
AcDbArc
 50
259.6712892167071
 51
280.3287107832929
  0
ARC
  5
1020
330
1F
100
AcDbEntity
  8
AM_VIS
100
AcDbCircle
 10
171.6395460307136
 20
324.4634077602137
 30
0.0
 40
10.0
100
AcDbArc
 50
19.67128921670797
 51
40.32871078329182
  0
ARC
  5
1021
330
1F
100
AcDbEntity
  8
AM_VIS
100
AcDbCircle
 10
171.6395460307136
 20
324.4634077602137
 30
0.0
 40
10.0
100
AcDbArc
 50
319.6712892167082
 51
340.328710783292
  0
ARC
  5
1022
330
1F
100
AcDbEntity
  8
AM_VIS
100
AcDbCircle
 10
171.6395460307136
 20
324.4634077602137
 30
0.0
 40
10.0
100
AcDbArc
 50
100.3287107832928
 51
139.6712892167081
  0
ARC
  5
1023
330
1F
100
AcDbEntity
  8
AM_VIS
100
AcDbCircle
 10
171.6395460307136
 20
324.4634077602137
 30
0.0
 40
10.0
100
AcDbArc
 50
40.32871078329411
 51
79.67128921670713
  0
ARC
  5
1024
330
1F
100
AcDbEntity
  8
AM_VIS
100
AcDbCircle
 10
171.6395460307136
 20
324.4634077602137
 30
0.0
 40
10.0
100
AcDbArc
 50
340.328710783292
 51
19.67128921670797
  0
ARC
  5
1025
330
1F
100
AcDbEntity
  8
AM_VIS
100
AcDbCircle
 10
171.6395460307136
 20
324.4634077602137
 30
0.0
 40
10.0
100
AcDbArc
 50
280.3287107832929
 51
319.6712892167082
  0
ARC
  5
1026
330
1F
100
AcDbEntity
  8
AM_VIS
100
AcDbCircle
 10
171.6395460307136
 20
324.4634077602137
 30
0.0
 40
10.0
100
AcDbArc
 50
220.3287107832935
 51
259.6712892167071
  0
ARC
  5
1027
330
1F
100
AcDbEntity
  8
AM_VIS
100
AcDbCircle
 10
171.6395460307136
 20
324.4634077602137
 30
0.0
 40
10.0
100
AcDbArc
 50
160.3287107832941
 51
199.671289216708
  0
ARC
  5
1028
330
1F
100
AcDbEntity
  8
AM_VIS
100
AcDbCircle
 10
171.6395460307136
 20
324.4634077602137
 30
0.0
 40
9.5
100
AcDbArc
 50
255.6009953934902
 51
284.3990046065116
  0
ARC
  5
1029
330
1F
100
AcDbEntity
  8
AM_VIS
100
AcDbCircle
 10
162.4895460307137
 20
308.6151428709584
 30
0.0
 40
9.5
100
AcDbArc
 50
44.3990046065118
 51
75.60099539348996
  0
ARC
  5
102A
330
1F
100
AcDbEntity
  8
AM_VIS
100
AcDbCircle
 10
171.6395460307136
 20
324.4634077602137
 30
0.0
 40
9.5
100
AcDbArc
 50
195.6009953934891
 51
224.3990046065118
  0
ARC
  5
102B
330
1F
100
AcDbEntity
  8
AM_VIS
100
AcDbCircle
 10
153.3395460307136
 20
324.4634077602136
 30
0.0
 40
9.5
100
AcDbArc
 50
344.3990046065109
 51
15.60099539348988
  0
ARC
  5
102C
330
1F
100
AcDbEntity
  8
AM_VIS
100
AcDbCircle
 10
171.6395460307136
 20
324.4634077602137
 30
0.0
 40
9.5
100
AcDbArc
 50
135.6009953934882
 51
164.3990046065117
  0
ARC
  5
102D
330
1F
100
AcDbEntity
  8
AM_VIS
100
AcDbCircle
 10
162.4895460307135
 20
340.3116726494689
 30
0.0
 40
9.500000000000003
100
AcDbArc
 50
284.3990046065116
 51
315.60099539349
  0
ARC
  5
102E
330
1F
100
AcDbEntity
  8
AM_VIS
100
AcDbCircle
 10
171.6395460307136
 20
324.4634077602137
 30
0.0
 40
9.5
100
AcDbArc
 50
75.60099539348839
 51
104.3990046065116
  0
ARC
  5
102F
330
1F
100
AcDbEntity
  8
AM_VIS
100
AcDbCircle
 10
180.7895460307135
 20
340.311672649469
 30
0.0
 40
9.5
100
AcDbArc
 50
224.3990046065118
 51
255.6009953934884
  0
ARC
  5
1030
330
1F
100
AcDbEntity
  8
AM_VIS
100
AcDbCircle
 10
171.6395460307136
 20
324.4634077602137
 30
0.0
 40
9.5
100
AcDbArc
 50
15.60099539348831
 51
44.3990046065118
  0
ARC
  5
1031
330
1F
100
AcDbEntity
  8
AM_VIS
100
AcDbCircle
 10
189.9395460307136
 20
324.4634077602137
 30
0.0
 40
9.5
100
AcDbArc
 50
164.3990046065101
 51
195.6009953934891
  0
ARC
  5
1032
330
1F
100
AcDbEntity
  8
AM_VIS
100
AcDbCircle
 10
171.6395460307136
 20
324.4634077602137
 30
0.0
 40
9.5
100
AcDbArc
 50
315.60099539349
 51
344.3990046065109
  0
ARC
  5
1033
330
1F
100
AcDbEntity
  8
AM_VIS
100
AcDbCircle
 10
180.7895460307138
 20
308.6151428709586
 30
0.0
 40
9.5
100
AcDbArc
 50
104.3990046065116
 51
135.6009953934905
  0
LINE
  5
1035
330
1F
100
AcDbEntity
  8
AM_VIS
100
AcDbLine
 10
160.6395460307136
 20
317.4634077602137
 30
0.0
 11
160.6395460307136
 21
341.9634077602137
 31
0.0
  0
LINE
  5
1036
330
1F
100
AcDbEntity
  8
AM_VIS
100
AcDbLine
 10
160.6395460307136
 20
341.9634077602137
 30
0.0
 11
182.6395460307136
 21
341.9634077602137
 31
0.0
  0
LINE
  5
1037
330
1F
100
AcDbEntity
  8
AM_VIS
100
AcDbLine
 10
182.6395460307136
 20
341.9634077602137
 30
0.0
 11
182.6395460307136
 21
317.4634077602137
 31
0.0
  0
LINE
  5
1038
330
1F
100
AcDbEntity
  8
AM_VIS
100
AcDbLine
 10
178.6395460307136
 20
313.4634077602137
 30
0.0
 11
164.6395460307136
 21
313.4634077602137
 31
0.0
  0
ARC
  5
1039
330
1F
100
AcDbEntity
  8
AM_VIS
100
AcDbCircle
 10
164.6395460307136
 20
317.4634077602137
 30
0.0
 40
3.999999999999999
100
AcDbArc
 50
180.0
 51
270.0
  0
ARC
  5
103A
330
1F
100
AcDbEntity
  8
AM_VIS
100
AcDbCircle
 10
178.6395460307136
 20
317.4634077602137
 30
0.0
 40
3.999999999999999
100
AcDbArc
 50
270.0
 51
0.0
  0
ARC
  5
103B
330
1F
100
AcDbEntity
  8
AM_VIS
100
AcDbCircle
 10
164.1395460307136
 20
342.4634077602137
 30
0.0
 40
4.199999999999988
100
AcDbArc
 50
135.5846914028054
 51
213.5573097619222
  0
LINE
  5
103C
330
1F
100
AcDbEntity
  8
AM_VIS
100
AcDbLine
 10
183.1345460307136
 20
303.2134077602137
 30
0.0
 11
182.1445460307136
 21
303.2134077602137
 31
0.0
  0
LINE
  5
103D
330
1F
100
AcDbEntity
  8
AM_VIS
100
AcDbLine
 10
182.1445460307136
 20
303.2134077602137
 30
0.0
 11
182.1445460307136
 21
304.58609115574
 31
0.0
  0
LINE
  5
103E
330
1F
100
AcDbEntity
  8
AM_VIS
100
AcDbLine
 10
183.1345460307136
 20
305.4634077602137
 30
0.0
 11
182.6395460307136
 21
305.4634077602137
 31
0.0
  0
LINE
  5
103F
330
1F
100
AcDbEntity
  8
AM_VIS
100
AcDbLine
 10
182.1445460307136
 20
307.7134077602137
 30
0.0
 11
183.1345460307136
 21
307.7134077602137
 31
0.0
  0
LINE
  5
1040
330
1F
100
AcDbEntity
  8
AM_VIS
100
AcDbLine
 10
182.6395460307136
 20
305.4634077602137
 30
0.0
 11
182.1445460307136
 21
305.4634077602137
 31
0.0
  0
LINE
  5
1041
330
1F
100
AcDbEntity
  8
AM_VIS
100
AcDbLine
 10
183.1345460307136
 20
307.7134077602137
 30
0.0
 11
183.1345460307136
 21
306.3407243646875
 31
0.0
  0
LINE
  5
1042
330
1F
100
AcDbEntity
  8
AM_VIS
100
AcDbLine
 10
182.1445460307136
 20
305.9584077602136
 30
0.0
 11
182.1445460307136
 21
304.9684077602136
 31
0.0
  0
LINE
  5
1043
330
1F
100
AcDbEntity
  8
AM_VIS
100
AcDbLine
 10
180.3895460307136
 20
304.9684077602136
 30
0.0
 11
180.3895460307136
 21
305.9584077602136
 31
0.0
  0
LINE
  5
1044
330
1F
100
AcDbEntity
  8
AM_VIS
100
AcDbLine
 10
182.6395460307136
 20
305.4634077602137
 30
0.0
 11
182.1445460307136
 21
305.9584077602137
 31
0.0
  0
LINE
  5
1045
330
1F
100
AcDbEntity
  8
AM_VIS
100
AcDbLine
 10
182.1445460307134
 20
304.9684077602135
 30
0.0
 11
182.6395460307135
 21
305.4634077602137
 31
0.0
  0
LINE
  5
1046
330
1F
100
AcDbEntity
  8
AM_VIS
100
AcDbLine
 10
182.6395460307136
 20
305.4634077602137
 30
0.0
 11
182.6395460307136
 21
305.9584077602136
 31
0.0
  0
LINE
  5
1047
330
1F
100
AcDbEntity
  8
AM_VIS
100
AcDbLine
 10
183.1345460307136
 20
305.9584077602137
 30
0.0
 11
182.6395460307136
 21
305.4634077602137
 31
0.0
  0
LINE
  5
1048
330
1F
100
AcDbEntity
  8
AM_VIS
100
AcDbLine
 10
183.1345460307136
 20
304.9684077602136
 30
0.0
 11
183.1345460307136
 21
305.9584077602136
 31
0.0
  0
LINE
  5
1049
330
1F
100
AcDbEntity
  8
AM_VIS
100
AcDbLine
 10
184.8895460307136
 20
305.9584077602136
 30
0.0
 11
184.8895460307135
 21
304.9684077602136
 31
0.0
  0
LINE
  5
104A
330
1F
100
AcDbEntity
  8
AM_VIS
100
AcDbLine
 10
182.6395460307136
 20
304.9684077602136
 30
0.0
 11
182.6395460307136
 21
305.4634077602137
 31
0.0
  0
LINE
  5
104B
330
1F
100
AcDbEntity
  8
AM_VIS
100
AcDbLine
 10
182.6395460307136
 20
305.4634077602137
 30
0.0
 11
183.1345460307136
 21
304.9684077602137
 31
0.0
  0
LINE
  5
104C
330
1F
100
AcDbEntity
  8
AM_VIS
100
AcDbLine
 10
180.3895460307136
 20
305.9584077602137
 30
0.0
 11
181.7622294262399
 21
305.9584077602136
 31
0.0
  0
LINE
  5
104D
330
1F
100
AcDbEntity
  8
AM_VIS
100
AcDbLine
 10
182.1445460307136
 20
305.9584077602136
 30
0.0
 11
183.1345460307136
 21
305.9584077602136
 31
0.0
  0
LINE
  5
104E
330
1F
100
AcDbEntity
  8
AM_VIS
100
AcDbLine
 10
184.8895460307136
 20
304.9684077602135
 30
0.0
 11
183.5168626351874
 21
304.9684077602136
 31
0.0
  0
LINE
  5
104F
330
1F
100
AcDbEntity
  8
AM_VIS
100
AcDbLine
 10
183.1345460307136
 20
304.9684077602136
 30
0.0
 11
182.1445460307135
 21
304.9684077602136
 31
0.0
  0
LINE
  5
1050
330
1F
100
AcDbEntity
  8
AM_VIS
100
AcDbLine
 10
182.1445460307136
 20
306.3407243646872
 30
0.0
 11
182.1445460307136
 21
307.7134077602137
 31
0.0
  0
LINE
  5
1051
330
1F
100
AcDbEntity
  8
AM_VIS
100
AcDbLine
 10
183.1345460307136
 20
304.5860911557403
 30
0.0
 11
183.1345460307136
 21
303.2134077602137
 31
0.0
  0
LINE
  5
1052
330
1F
100
AcDbEntity
  8
AM_VIS
100
AcDbLine
 10
183.5168626351869
 20
305.9584077602136
 30
0.0
 11
184.8895460307136
 21
305.9584077602135
 31
0.0
  0
LINE
  5
1053
330
1F
100
AcDbEntity
  8
AM_VIS
100
AcDbLine
 10
181.7622294262401
 20
304.9684077602136
 30
0.0
 11
180.3895460307136
 21
304.9684077602137
 31
0.0
  0
LINE
  5
1054
330
1F
100
AcDbEntity
  8
AM_VIS
100
AcDbLine
 10
182.1445460307134
 20
305.9584077602136
 30
0.0
 11
181.7622294262399
 21
305.9584077602136
 31
0.0
  0
LINE
  5
1055
330
1F
100
AcDbEntity
  8
AM_VIS
100
AcDbLine
 10
181.7622294262399
 20
305.9584077602136
 30
0.0
 11
181.0485557730437
 21
307.0543980178833
 31
0.0
  0
LINE
  5
1056
330
1F
100
AcDbEntity
  8
AM_VIS
100
AcDbLine
 10
182.1445460307136
 20
306.3407243646871
 30
0.0
 11
182.1445460307136
 21
305.9584077602135
 31
0.0
  0
LINE
  5
1057
330
1F
100
AcDbEntity
  8
AM_VIS
100
AcDbLine
 10
181.0485557730438
 20
307.0543980178834
 30
0.0
 11
182.1445460307135
 21
305.9584077602135
 31
0.0
  0
LINE
  5
1058
330
1F
100
AcDbEntity
  8
AM_VIS
100
AcDbLine
 10
181.0485557730438
 20
307.0543980178834
 30
0.0
 11
182.1445460307136
 21
306.3407243646872
 31
0.0
  0
LINE
  5
1059
330
1F
100
AcDbEntity
  8
AM_VIS
100
AcDbLine
 10
183.134546030714
 20
304.9684077602135
 30
0.0
 11
183.5168626351874
 21
304.9684077602135
 31
0.0
  0
LINE
  5
105A
330
1F
100
AcDbEntity
  8
AM_VIS
100
AcDbLine
 10
183.5168626351874
 20
304.9684077602135
 30
0.0
 11
184.2305362883834
 21
303.8724175025441
 31
0.0
  0
LINE
  5
105B
330
1F
100
AcDbEntity
  8
AM_VIS
100
AcDbLine
 10
183.1345460307136
 20
304.5860911557404
 30
0.0
 11
183.1345460307136
 21
304.9684077602139
 31
0.0
  0
LINE
  5
105C
330
1F
100
AcDbEntity
  8
AM_VIS
100
AcDbLine
 10
184.2305362883834
 20
303.872417502544
 30
0.0
 11
183.1345460307139
 21
304.9684077602135
 31
0.0
  0
LINE
  5
105D
330
1F
100
AcDbEntity
  8
AM_VIS
100
AcDbLine
 10
184.2305362883834
 20
303.8724175025441
 30
0.0
 11
183.1345460307136
 21
304.5860911557403
 31
0.0
  0
LINE
  5
105E
330
1F
100
AcDbEntity
  8
AM_VIS
100
AcDbLine
 10
183.1345460307136
 20
305.9584077602139
 30
0.0
 11
183.1345460307136
 21
306.3407243646875
 31
0.0
  0
LINE
  5
105F
330
1F
100
AcDbEntity
  8
AM_VIS
100
AcDbLine
 10
183.1345460307136
 20
306.3407243646874
 30
0.0
 11
184.2305362883832
 21
307.0543980178836
 31
0.0
  0
LINE
  5
1060
330
1F
100
AcDbEntity
  8
AM_VIS
100
AcDbLine
 10
183.5168626351869
 20
305.9584077602135
 30
0.0
 11
183.1345460307132
 21
305.9584077602135
 31
0.0
  0
LINE
  5
1061
330
1F
100
AcDbEntity
  8
AM_VIS
100
AcDbLine
 10
184.2305362883833
 20
307.0543980178835
 30
0.0
 11
183.1345460307132
 21
305.9584077602136
 31
0.0
  0
LINE
  5
1062
330
1F
100
AcDbEntity
  8
AM_VIS
100
AcDbLine
 10
184.2305362883832
 20
307.0543980178836
 30
0.0
 11
183.5168626351869
 21
305.9584077602136
 31
0.0
  0
LINE
  5
1063
330
1F
100
AcDbEntity
  8
AM_VIS
100
AcDbLine
 10
182.1445460307136
 20
304.9684077602134
 30
0.0
 11
182.1445460307136
 21
304.5860911557399
 31
0.0
  0
LINE
  5
1064
330
1F
100
AcDbEntity
  8
AM_VIS
100
AcDbLine
 10
182.1445460307136
 20
304.58609115574
 30
0.0
 11
181.0485557730439
 21
303.8724175025439
 31
0.0
  0
LINE
  5
1065
330
1F
100
AcDbEntity
  8
AM_VIS
100
AcDbLine
 10
181.7622294262401
 20
304.9684077602136
 30
0.0
 11
182.1445460307137
 21
304.9684077602136
 31
0.0
  0
LINE
  5
1066
330
1F
100
AcDbEntity
  8
AM_VIS
100
AcDbLine
 10
181.0485557730439
 20
303.8724175025439
 30
0.0
 11
182.1445460307137
 21
304.9684077602136
 31
0.0
  0
LINE
  5
1067
330
1F
100
AcDbEntity
  8
AM_VIS
100
AcDbLine
 10
181.0485557730439
 20
303.8724175025439
 30
0.0
 11
181.7622294262401
 21
304.9684077602136
 31
0.0
  0
CIRCLE
  5
1068
330
1F
100
AcDbEntity
  8
AM_VIS
100
AcDbCircle
 10
182.6395460307136
 20
305.4634077602137
 30
0.0
 40
4.199999999999988
  0
LINE
  5
1069
330
1F
100
AcDbEntity
  8
AM_VIS
100
AcDbLine
 10
186.6395460307136
 20
347.6634077602136
 30
0.0
 11
186.2206244724364
 21
347.2444862019365
 31
0.0
  0
LINE
  5
106A
330
1F
100
AcDbEntity
  8
AM_VIS
100
AcDbLine
 10
186.6395460307136
 20
301.2634077602137
 30
0.0
 11
186.2206244724364
 21
301.6823293184909
 31
0.0
  0
LINE
  5
106B
330
1F
100
AcDbEntity
  8
AM_VIS
100
AcDbLine
 10
156.6395460307136
 20
347.6634077602137
 30
0.0
 11
157.0584675889908
 21
347.2444862019365
 31
0.0
  0
LINE
  5
106C
330
1F
100
AcDbEntity
  8
AM_VIS
100
AcDbLine
 10
156.6395460307136
 20
301.2634077602137
 30
0.0
 11
157.0584675889908
 21
301.6823293184909
 31
0.0
  0
ELLIPSE
  5
106D
330
1F
100
AcDbEntity
  8
AM_VIS
100
AcDbEllipse
 10
182.6395460307136
 20
347.4321281499148
 30
0.0
 11
1.074999999999999
 21
-0.0000000000000002
 31
0.0
210
0.0
220
0.0
230
1.0
 40
0.0174550649282176
 41
4.228623021963979
 42
8.337747592395221
  0
LINE
  5
106E
330
1F
100
AcDbEntity
  8
AM_VIS
100
AcDbLine
 10
157.0584675889908
 20
346.8996558167489
 30
0.0
 11
157.0584675889908
 21
347.2444862019365
 31
0.0
  0
LINE
  5
106F
330
1F
100
AcDbEntity
  8
AM_VIS
100
AcDbLine
 10
157.0584675889908
 20
347.2444862019365
 30
0.0
 11
157.4032979741783
 21
347.2444862019365
 31
0.0
  0
LINE
  5
1070
330
1F
100
AcDbEntity
  8
AM_VIS
100
AcDbLine
 10
185.8757940872488
 20
347.2444862019365
 30
0.0
 11
186.2206244724364
 21
347.2444862019365
 31
0.0
  0
LINE
  5
1071
330
1F
100
AcDbEntity
  8
AM_VIS
100
AcDbLine
 10
186.2206244724364
 20
347.2444862019365
 30
0.0
 11
186.2206244724364
 21
346.8996558167487
 31
0.0
  0
LINE
  5
1072
330
1F
100
AcDbEntity
  8
AM_VIS
100
AcDbLine
 10
186.2206244724364
 20
302.0271597036786
 30
0.0
 11
186.2206244724364
 21
301.6823293184909
 31
0.0
  0
LINE
  5
1073
330
1F
100
AcDbEntity
  8
AM_VIS
100
AcDbLine
 10
186.2206244724364
 20
301.682329318491
 30
0.0
 11
185.8757940872488
 21
301.682329318491
 31
0.0
  0
LINE
  5
1074
330
1F
100
AcDbEntity
  8
AM_VIS
100
AcDbLine
 10
157.4032979741783
 20
301.682329318491
 30
0.0
 11
157.0584675889908
 21
301.682329318491
 31
0.0
  0
LINE
  5
1075
330
1F
100
AcDbEntity
  8
AM_VIS
100
AcDbLine
 10
157.0584675889908
 20
301.682329318491
 30
0.0
 11
157.0584675889908
 21
302.0271597036787
 31
0.0
  0
ELLIPSE
  5
1076
330
1F
100
AcDbEntity
  8
AM_VIS
100
AcDbEllipse
 10
186.4082664204147
 20
324.4634077602137
 30
0.0
 11
-0.0000000000000001
 21
-1.074999999999999
 31
0.0
210
0.0
220
0.0
230
1.0
 40
0.0174550649282185
 41
4.712388980384689
 42
10.99557428756427
  0
LINE
  5
1077
330
1F
100
AcDbEntity
  8
AM_VIS
100
AcDbLine
 10
156.6395460307136
 20
301.2634077602137
 30
0.0
 11
156.6395460307136
 21
322.4634077602137
 31
0.0
  0
LINE
  5
1078
330
1F
100
AcDbEntity
  8
AM_VIS
100
AcDbLine
 10
186.6395460307136
 20
301.2634077602137
 30
0.0
 11
156.6395460307136
 21
301.2634077602137
 31
0.0
  0
LINE
  5
1079
330
1F
100
AcDbEntity
  8
AM_VIS
100
AcDbLine
 10
186.6395460307136
 20
347.6634077602137
 30
0.0
 11
186.6395460307136
 21
306.7440326077003
 31
0.0
  0
LINE
  5
107A
330
1F
100
AcDbEntity
  8
AM_VIS
100
AcDbLine
 10
186.6395460307136
 20
304.1827829127272
 30
0.0
 11
186.6395460307136
 21
301.2634077602137
 31
0.0
  0
LINE
  5
107B
330
1F
100
AcDbEntity
  8
AM_VIS
100
AcDbLine
 10
156.6395460307136
 20
347.6634077602137
 30
0.0
 11
161.1395460307136
 21
347.6634077602137
 31
0.0
  0
LINE
  5
107C
330
1F
100
AcDbEntity
  8
AM_VIS
100
AcDbLine
 10
182.1395460307136
 20
347.6634077602137
 30
0.0
 11
186.6395460307136
 21
347.6634077602137
 31
0.0
  0
LINE
  5
107D
330
1F
100
AcDbEntity
  8
AM_VIS
100
AcDbLine
 10
156.6395460307136
 20
326.4634077602137
 30
0.0
 11
156.6395460307136
 21
347.6634077602137
 31
0.0
  0
LINE
  5
107E
330
1F
100
AcDbEntity
  8
AM_VIS
100
AcDbLine
 10
156.6570010956418
 20
326.4634077602138
 30
0.0
 11
156.6570010956418
 21
322.4634077602138
 31
0.0
  0
LINE
  5
107F
330
1F
100
AcDbEntity
  8
AM_VIS
100
AcDbLine
 10
156.6395460307136
 20
326.4634077602137
 30
0.0
 11
156.6570010956418
 21
326.4634077602137
 31
0.0
  0
LINE
  5
1080
330
1F
100
AcDbEntity
  8
AM_VIS
100
AcDbLine
 10
156.6570010956418
 20
322.4634077602137
 30
0.0
 11
156.6395460307136
 21
322.4634077602137
 31
0.0
  0
LINE
  5
1081
330
1F
100
AcDbEntity
  8
AM_VIS
100
AcDbLine
 10
185.7395460307136
 20
301.6634077602137
 30
0.0
 11
157.5395460307136
 21
301.6634077602137
 31
0.0
  0
LINE
  5
1082
330
1F
100
AcDbEntity
  8
AM_VIS
100
AcDbLine
 10
157.0395460307136
 20
302.1634077602138
 30
0.0
 11
157.0395460307136
 21
346.7634077602137
 31
0.0
  0
LINE
  5
1083
330
1F
100
AcDbEntity
  8
AM_VIS
100
AcDbLine
 10
157.5395460307136
 20
347.2634077602137
 30
0.0
 11
161.1395460307136
 21
347.2634077602137
 31
0.0
  0
LINE
  5
1084
330
1F
100
AcDbEntity
  8
AM_VIS
100
AcDbLine
 10
182.1395460307136
 20
347.2634077602137
 30
0.0
 11
185.7395460307136
 21
347.2634077602137
 31
0.0
  0
LINE
  5
1085
330
1F
100
AcDbEntity
  8
AM_VIS
100
AcDbLine
 10
186.2395460307136
 20
304.4134077602137
 30
0.0
 11
186.2395460307136
 21
302.1634077602138
 31
0.0
  0
LINE
  5
1086
330
1F
100
AcDbEntity
  8
AM_VIS
100
AcDbLine
 10
186.2395460307136
 20
346.7634077602137
 30
0.0
 11
186.2395460307136
 21
306.5134077602138
 31
0.0
  0
ARC
  5
1087
330
1F
100
AcDbEntity
  8
AM_VIS
100
AcDbCircle
 10
164.1395460307136
 20
342.4634077602137
 30
0.0
 40
3.75
100
AcDbArc
 50
143.1301023541543
 51
201.0394697813179
  0
ARC
  5
1088
330
1F
100
AcDbEntity
  8
AM_VIS
100
AcDbCircle
 10
182.6395460307136
 20
305.4634077602137
 30
0.0
 40
3.75
100
AcDbArc
 50
16.26020470831189
 51
343.7397952916882
  0
ARC
  5
1089
330
1F
100
AcDbEntity
  8
AM_VIS
100
AcDbCircle
 10
185.7395460307136
 20
302.1634077602137
 30
0.0
 40
0.5
100
AcDbArc
 50
270.0
 51
0.0
  0
ARC
  5
108A
330
1F
100
AcDbEntity
  8
AM_VIS
100
AcDbCircle
 10
157.5395460307136
 20
302.1634077602137
 30
0.0
 40
0.5
100
AcDbArc
 50
180.0
 51
270.0
  0
ARC
  5
108B
330
1F
100
AcDbEntity
  8
AM_VIS
100
AcDbCircle
 10
157.5395460307136
 20
346.7634077602137
 30
0.0
 40
0.5
100
AcDbArc
 50
90.0
 51
180.0
  0
ARC
  5
108C
330
1F
100
AcDbEntity
  8
AM_VIS
100
AcDbCircle
 10
185.7395460307136
 20
346.7634077602137
 30
0.0
 40
0.5
100
AcDbArc
 50
0.0
 51
90.0
  0
ELLIPSE
  5
108D
330
1F
100
AcDbEntity
  8
AM_VIS
100
AcDbEllipse
 10
182.6395460307136
 20
347.432327787453
 30
0.0
 11
0.0500000000000115
 21
0.0
 31
0.0
210
0.0
220
0.0
230
1.0
 40
0.0174524064372805
 41
-0.0000000000003941
 42
6.283185307179165
  0
ARC
  5
108E
330
1F
100
AcDbEntity
  8
AM_VIS
100
AcDbCircle
 10
182.6395460307136
 20
346.2429342974882
 30
0.0
 40
1.190625
100
AcDbArc
 50
79.53319984616296
 51
87.81063565019517
  0
ARC
  5
108F
330
1F
100
AcDbEntity
  8
AM_VIS
100
AcDbCircle
 10
182.6395460307136
 20
346.2429342974882
 30
0.0
 40
1.190625
100
AcDbArc
 50
92.18936434980484
 51
100.4668001538421
  0
ELLIPSE
  5
1090
330
1F
100
AcDbEntity
  8
AM_VIS
100
AcDbEllipse
 10
186.4084660579529
 20
324.4634077602136
 30
0.0
 11
0.0
 21
-0.0500000000000115
 31
0.0
210
0.0
220
0.0
230
1.0
 40
0.0174524064372849
 41
0.0000000000000162
 42
6.283185307179572
  0
ARC
  5
1091
330
1F
100
AcDbEntity
  8
AM_VIS
100
AcDbCircle
 10
185.2190725679881
 20
324.4634077602136
 30
0.0
 40
1.190625
100
AcDbArc
 50
349.533199846148
 51
357.8106356501952
  0
ARC
  5
1092
330
1F
100
AcDbEntity
  8
AM_VIS
100
AcDbCircle
 10
185.2190725679881
 20
324.4634077602136
 30
0.0
 40
1.190625
100
AcDbArc
 50
2.189364349804829
 51
10.46680015385045
  0
LINE
  5
1093
330
1F
100
AcDbEntity
  8
AM_VIS
100
AcDbLine
 10
156.6395460307136
 20
301.2634077602137
 30
0.0
 11
186.6395460307136
 21
301.2634077602137
 31
0.0
  0
LINE
  5
1094
330
1F
100
AcDbEntity
  8
AM_VIS
100
AcDbLine
 10
156.6395460307136
 20
347.6634077602137
 30
0.0
 11
156.6395460307136
 21
301.2634077602137
 31
0.0
  0
LINE
  5
1095
330
1F
100
AcDbEntity
  8
AM_VIS
100
AcDbLine
 10
186.6395460307136
 20
347.6634077602137
 30
0.0
 11
182.1395460307136
 21
347.6634077602137
 31
0.0
  0
LINE
  5
1096
330
1F
100
AcDbEntity
  8
AM_VIS
100
AcDbLine
 10
161.1395460307136
 20
347.6634077602137
 30
0.0
 11
156.6395460307136
 21
347.6634077602137
 31
0.0
  0
LINE
  5
1097
330
1F
100
AcDbEntity
  8
AM_VIS
100
AcDbLine
 10
186.6395460307136
 20
301.2634077602137
 30
0.0
 11
186.6395460307136
 21
304.1827829127273
 31
0.0
  0
LINE
  5
1098
330
1F
100
AcDbEntity
  8
AM_VIS
100
AcDbLine
 10
186.6395460307136
 20
306.7440326077002
 30
0.0
 11
186.6395460307136
 21
347.6634077602137
 31
0.0
  0
LINE
  5
1099
330
1F
100
AcDbEntity
  8
AM_VIS
100
AcDbLine
 10
393.004496669201
 20
222.3633892607984
 30
0.0
 11
386.004496669201
 21
222.3633892607984
 31
0.0
  0
LINE
  5
109A
330
1F
100
AcDbEntity
  8
AM_VIS
100
AcDbLine
 10
391.004496669201
 20
200.3633892607985
 30
0.0
 11
393.004496669201
 21
200.3633892607985
 31
0.0
  0
LINE
  5
109B
330
1F
100
AcDbEntity
  8
AM_VIS
100
AcDbLine
 10
394.004496669201
 20
201.3633892607984
 30
0.0
 11
394.004496669201
 21
221.3633892607984
 31
0.0
  0
LINE
  5
109C
330
1F
100
AcDbEntity
  8
AM_VIS
100
AcDbLine
 10
394.004496669201
 20
193.3633892607984
 30
0.0
 11
394.004496669201
 21
196.3633892607985
 31
0.0
  0
LINE
  5
109D
330
1F
100
AcDbEntity
  8
AM_VIS
100
AcDbLine
 10
386.004496669201
 20
192.3633892607984
 30
0.0
 11
389.004496669201
 21
192.3633892607984
 31
0.0
  0
LINE
  5
109E
330
1F
100
AcDbEntity
  8
AM_VIS
100
AcDbLine
 10
390.004496669201
 20
193.3633892607984
 30
0.0
 11
390.004496669201
 21
194.3139991076065
 31
0.0
  0
LINE
  5
109F
330
1F
100
AcDbEntity
  8
AM_VIS
100
AcDbLine
 10
390.004496669201
 20
195.7994190265323
 30
0.0
 11
390.004496669201
 21
196.1994190265322
 31
0.0
  0
LINE
  5
10A0
330
1F
100
AcDbEntity
  8
AM_VIS
100
AcDbLine
 10
390.004496669201
 20
198.4127794139905
 30
0.0
 11
390.004496669201
 21
199.3633892607984
 31
0.0
  0
LINE
  5
10A1
330
1F
100
AcDbEntity
  8
AM_VIS
100
AcDbLine
 10
393.004496669201
 20
192.3633892607984
 30
0.0
 11
389.004496669201
 21
192.3633892607984
 31
0.0
  0
LINE
  5
10A2
330
1F
100
AcDbEntity
  8
AM_VIS
100
AcDbLine
 10
386.004496669201
 20
193.3633892607984
 30
0.0
 11
386.004496669201
 21
221.3633892607984
 31
0.0
  0
ARC
  5
10A3
330
1F
100
AcDbEntity
  8
AM_VIS
100
AcDbCircle
 10
393.004496669201
 20
201.3633892607984
 30
0.0
 40
1.0
100
AcDbArc
 50
270.0
 51
0.0
  0
ARC
  5
10A4
102
{ACAD_REACTORS
330
1371
330
140D
102
}
330
1F
100
AcDbEntity
  8
AM_VIS
100
AcDbCircle
 10
393.004496669201
 20
221.3633892607984
 30
0.0
 40
1.0
100
AcDbArc
 50
0.0
 51
90.0
  0
LINE
  5
10A5
330
1F
100
AcDbEntity
  8
AM_VIS
100
AcDbLine
 10
394.004496669201
 20
196.3633892607984
 30
0.0
 11
394.004496669201
 21
201.3633892607984
 31
0.0
  0
ARC
  5
10A6
102
{ACAD_REACTORS
330
1397
330
140D
102
}
330
1F
100
AcDbEntity
  8
AM_VIS
100
AcDbCircle
 10
393.004496669201
 20
193.3633892607984
 30
0.0
 40
1.0
100
AcDbArc
 50
270.0
 51
0.0
  0
ARC
  5
10A7
330
1F
100
AcDbEntity
  8
AM_VIS
100
AcDbCircle
 10
389.004496669201
 20
193.3633892607984
 30
0.0
 40
1.0
100
AcDbArc
 50
270.0
 51
0.0
  0
ARC
  5
10A8
330
1F
100
AcDbEntity
  8
AM_VIS
100
AcDbCircle
 10
391.004496669201
 20
199.3633892607984
 30
0.0
 40
1.0
100
AcDbArc
 50
90.0
 51
180.0
  0
LINE
  5
10A9
330
1F
100
AcDbEntity
  8
AM_VIS
100
AcDbLine
 10
238.504496669201
 20
209.1133892607986
 30
0.0
 11
244.004496669201
 21
209.1133892607986
 31
0.0
  0
LINE
  5
10AA
330
1F
100
AcDbEntity
  8
AM_VIS
100
AcDbLine
 10
244.004496669201
 20
205.6133892607986
 30
0.0
 11
238.504496669201
 21
205.6133892607986
 31
0.0
  0
LINE
  5
10AB
330
1F
100
AcDbEntity
  8
AM_VIS
100
AcDbLine
 10
238.504496669201
 20
206.1133892607986
 30
0.0
 11
244.004496669201
 21
206.1133892607986
 31
0.0
  0
LINE
  5
10AC
330
1F
100
AcDbEntity
  8
AM_VIS
100
AcDbLine
 10
238.504496669201
 20
208.6133892607986
 30
0.0
 11
244.004496669201
 21
208.6133892607986
 31
0.0
  0
LINE
  5
10AD
330
1F
100
AcDbEntity
  8
AM_VIS
100
AcDbLine
 10
238.504496669201
 20
211.9821914143156
 30
0.0
 11
244.004496669201
 21
211.9821914143156
 31
0.0
  0
LINE
  5
10AE
330
1F
100
AcDbEntity
  8
AM_VIS
100
AcDbLine
 10
238.504496669201
 20
216.6009935678326
 30
0.0
 11
244.004496669201
 21
216.6009935678326
 31
0.0
  0
LINE
  5
10AF
330
1F
100
AcDbEntity
  8
AM_VIS
100
AcDbLine
 10
238.504496669201
 20
214.4835797891818
 30
0.0
 11
244.004496669201
 21
214.4835797891818
 31
0.0
  0
LINE
  5
10B0
330
1F
100
AcDbEntity
  8
AM_VIS
100
AcDbLine
 10
238.504496669201
 20
215.1665924910741
 30
0.0
 11
244.004496669201
 21
215.1665924910741
 31
0.0
  0
LINE
  5
10B1
330
1F
100
AcDbEntity
  8
AM_VIS
100
AcDbLine
 10
244.004496669201
 20
213.4165924910741
 30
0.0
 11
238.504496669201
 21
213.4165924910741
 31
0.0
  0
LINE
  5
10B2
330
1F
100
AcDbEntity
  8
AM_VIS
100
AcDbLine
 10
238.504496669201
 20
198.1257849537645
 30
0.0
 11
244.004496669201
 21
198.1257849537645
 31
0.0
  0
LINE
  5
10B3
330
1F
100
AcDbEntity
  8
AM_VIS
100
AcDbLine
 10
244.004496669201
 20
202.7445871072815
 30
0.0
 11
244.004496669201
 21
205.6133892607986
 31
0.0
  0
LINE
  5
10B4
330
1F
100
AcDbEntity
  8
AM_VIS
100
AcDbLine
 10
244.004496669201
 20
206.1133892607986
 30
0.0
 11
244.004496669201
 21
205.6133892607986
 31
0.0
  0
LINE
  5
10B5
330
1F
100
AcDbEntity
  8
AM_VIS
100
AcDbLine
 10
244.004496669201
 20
208.6133892607986
 30
0.0
 11
244.004496669201
 21
206.1133892607986
 31
0.0
  0
LINE
  5
10B6
330
1F
100
AcDbEntity
  8
AM_VIS
100
AcDbLine
 10
244.004496669201
 20
209.1133892607986
 30
0.0
 11
244.004496669201
 21
208.6133892607986
 31
0.0
  0
LINE
  5
10B7
330
1F
100
AcDbEntity
  8
AM_VIS
100
AcDbLine
 10
244.004496669201
 20
209.1133892607986
 30
0.0
 11
244.004496669201
 21
211.9821914143156
 31
0.0
  0
LINE
  5
10B8
330
1F
100
AcDbEntity
  8
AM_VIS
100
AcDbLine
 10
244.004496669201
 20
211.9821914143156
 30
0.0
 11
244.004496669201
 21
213.4165924910741
 31
0.0
  0
LINE
  5
10B9
330
1F
100
AcDbEntity
  8
AM_VIS
100
AcDbLine
 10
244.004496669201
 20
214.4835797891818
 30
0.0
 11
244.004496669201
 21
213.4165924910741
 31
0.0
  0
LINE
  5
10BA
330
1F
100
AcDbEntity
  8
AM_VIS
100
AcDbLine
 10
244.004496669201
 20
215.1665924910741
 30
0.0
 11
244.004496669201
 21
214.4835797891818
 31
0.0
  0
LINE
  5
10BB
330
1F
100
AcDbEntity
  8
AM_VIS
100
AcDbLine
 10
244.004496669201
 20
215.1665924910741
 30
0.0
 11
244.004496669201
 21
216.6009935678326
 31
0.0
  0
LINE
  5
10BC
330
1F
100
AcDbEntity
  8
AM_VIS
100
AcDbLine
 10
244.004496669201
 20
198.1257849537645
 30
0.0
 11
244.004496669201
 21
199.5601860305231
 31
0.0
  0
LINE
  5
10BD
330
1F
100
AcDbEntity
  8
AM_VIS
100
AcDbLine
 10
238.504496669201
 20
202.7445871072815
 30
0.0
 11
244.004496669201
 21
202.7445871072815
 31
0.0
  0
LINE
  5
10BE
330
1F
100
AcDbEntity
  8
AM_VIS
100
AcDbLine
 10
244.004496669201
 20
201.3101860305231
 30
0.0
 11
244.004496669201
 21
202.7445871072815
 31
0.0
  0
LINE
  5
10BF
330
1F
100
AcDbEntity
  8
AM_VIS
100
AcDbLine
 10
238.504496669201
 20
198.1257849537645
 30
0.0
 11
238.504496669201
 21
199.5601860305231
 31
0.0
  0
LINE
  5
10C0
102
{ACAD_REACTORS
330
1371
102
}
330
1F
100
AcDbEntity
  8
AM_VIS
100
AcDbLine
 10
238.504496669201
 20
215.1665924910741
 30
0.0
 11
238.504496669201
 21
216.6009935678326
 31
0.0
  0
LINE
  5
10C1
330
1F
100
AcDbEntity
  8
AM_VIS
100
AcDbLine
 10
238.504496669201
 20
214.4835797891818
 30
0.0
 11
238.504496669201
 21
215.1665924910741
 31
0.0
  0
LINE
  5
10C2
330
1F
100
AcDbEntity
  8
AM_VIS
100
AcDbLine
 10
238.504496669201
 20
213.4165924910741
 30
0.0
 11
238.504496669201
 21
214.4835797891818
 31
0.0
  0
LINE
  5
10C3
330
1F
100
AcDbEntity
  8
AM_VIS
100
AcDbLine
 10
238.504496669201
 20
211.9821914143156
 30
0.0
 11
238.504496669201
 21
213.4165924910741
 31
0.0
  0
LINE
  5
10C4
330
1F
100
AcDbEntity
  8
AM_VIS
100
AcDbLine
 10
238.504496669201
 20
209.1133892607986
 30
0.0
 11
238.504496669201
 21
211.9821914143156
 31
0.0
  0
LINE
  5
10C5
330
1F
100
AcDbEntity
  8
AM_VIS
100
AcDbLine
 10
238.504496669201
 20
208.6133892607986
 30
0.0
 11
238.504496669201
 21
209.1133892607986
 31
0.0
  0
LINE
  5
10C6
330
1F
100
AcDbEntity
  8
AM_VIS
100
AcDbLine
 10
238.504496669201
 20
206.1133892607986
 30
0.0
 11
238.504496669201
 21
208.6133892607986
 31
0.0
  0
LINE
  5
10C7
330
1F
100
AcDbEntity
  8
AM_VIS
100
AcDbLine
 10
238.504496669201
 20
205.6133892607986
 30
0.0
 11
238.504496669201
 21
206.1133892607986
 31
0.0
  0
LINE
  5
10C8
330
1F
100
AcDbEntity
  8
AM_VIS
100
AcDbLine
 10
238.504496669201
 20
202.7445871072815
 30
0.0
 11
238.504496669201
 21
205.6133892607986
 31
0.0
  0
LINE
  5
10C9
330
1F
100
AcDbEntity
  8
AM_VIS
100
AcDbLine
 10
238.504496669201
 20
201.3101860305231
 30
0.0
 11
238.504496669201
 21
202.7445871072815
 31
0.0
  0
LINE
  5
10CA
330
1F
100
AcDbEntity
  8
AM_VIS
100
AcDbLine
 10
238.504496669201
 20
201.3101860305231
 30
0.0
 11
244.004496669201
 21
201.3101860305231
 31
0.0
  0
LINE
  5
10CB
330
1F
100
AcDbEntity
  8
AM_VIS
100
AcDbLine
 10
244.004496669201
 20
199.560186030523
 30
0.0
 11
238.504496669201
 21
199.560186030523
 31
0.0
  0
LINE
  5
10CC
330
1F
100
AcDbEntity
  8
AM_VIS
100
AcDbLine
 10
238.504496669201
 20
199.5601860305231
 30
0.0
 11
238.504496669201
 21
200.2431987324154
 31
0.0
  0
LINE
  5
10CD
330
1F
100
AcDbEntity
  8
AM_VIS
100
AcDbLine
 10
244.004496669201
 20
200.2431987324154
 30
0.0
 11
244.004496669201
 21
199.5601860305231
 31
0.0
  0
LINE
  5
10CE
330
1F
100
AcDbEntity
  8
AM_VIS
100
AcDbLine
 10
238.504496669201
 20
200.2431987324154
 30
0.0
 11
244.004496669201
 21
200.2431987324154
 31
0.0
  0
LINE
  5
10CF
330
1F
100
AcDbEntity
  8
AM_VIS
100
AcDbLine
 10
238.504496669201
 20
200.2431987324154
 30
0.0
 11
238.504496669201
 21
201.3101860305231
 31
0.0
  0
LINE
  5
10D0
330
1F
100
AcDbEntity
  8
AM_VIS
100
AcDbLine
 10
244.004496669201
 20
201.3101860305231
 30
0.0
 11
244.004496669201
 21
200.2431987324154
 31
0.0
  0
LINE
  5
10D1
330
1F
100
AcDbEntity
  8
AM_VIS
100
AcDbLine
 10
244.004496669201
 20
200.6133892607985
 30
0.0
 11
245.504496669201
 21
200.6133892607985
 31
0.0
  0
LINE
  5
10D2
330
1F
100
AcDbEntity
  8
AM_VIS
100
AcDbLine
 10
244.004496669201
 20
214.1133892607986
 30
0.0
 11
245.504496669201
 21
214.1133892607986
 31
0.0
  0
LINE
  5
10D3
330
1F
100
AcDbEntity
  8
AM_VIS
100
AcDbLine
 10
255.8044966692009
 20
216.3633892607986
 30
0.0
 11
254.567975114866
 21
216.3633892607986
 31
0.0
  0
LINE
  5
10D4
330
1F
100
AcDbEntity
  8
AM_VIS
100
AcDbLine
 10
251.654496669201
 20
216.3633892607986
 30
0.0
 11
250.1544966692009
 21
216.3633892607986
 31
0.0
  0
LINE
  5
10D5
330
1F
100
AcDbEntity
  8
AM_VIS
100
AcDbLine
 10
248.504496669201
 20
216.3633892607986
 30
0.0
 11
245.504496669201
 21
216.3633892607986
 31
0.0
  0
LINE
  5
10D6
330
1F
100
AcDbEntity
  8
AM_VIS
100
AcDbLine
 10
255.8044966692009
 20
198.3633892607985
 30
0.0
 11
254.567975114866
 21
198.3633892607985
 31
0.0
  0
LINE
  5
10D7
330
1F
100
AcDbEntity
  8
AM_VIS
100
AcDbLine
 10
251.654496669201
 20
198.3633892607985
 30
0.0
 11
250.1544966692009
 21
198.3633892607985
 31
0.0
  0
LINE
  5
10D8
330
1F
100
AcDbEntity
  8
AM_VIS
100
AcDbLine
 10
248.504496669201
 20
198.3633892607985
 30
0.0
 11
245.504496669201
 21
198.3633892607985
 31
0.0
  0
LINE
  5
10D9
330
1F
100
AcDbEntity
  8
AM_VIS
100
AcDbLine
 10
245.504496669201
 20
198.3633892607985
 30
0.0
 11
245.504496669201
 21
216.3633892607986
 31
0.0
  0
LINE
  5
10DA
330
1F
100
AcDbEntity
  8
AM_VIS
100
AcDbLine
 10
250.1544966692009
 20
216.7797827034215
 30
0.0
 11
249.004496669201
 21
216.7797827034215
 31
0.0
  0
LINE
  5
10DB
330
1F
100
AcDbEntity
  8
AM_VIS
100
AcDbLine
 10
248.5049918421153
 20
216.5124603101424
 30
0.0
 11
249.0049381783913
 21
216.7789544265909
 31
0.0
  0
LINE
  5
10DC
330
1F
100
AcDbEntity
  8
AM_VIS
100
AcDbLine
 10
250.1544966692009
 20
209.1563414125593
 30
0.0
 11
249.004496669201
 21
209.1563414125593
 31
0.0
  0
SPLINE
  5
10DD
330
1F
100
AcDbEntity
  8
AM_VIS
100
AcDbSpline
210
0.0
220
0.0
230
1.0
 70
     8
 71
     3
 72
     8
 73
     4
 74
     0
 42
0.0000000001
 43
0.0000000001
 40
1.630155803927002
 40
1.630155803927002
 40
1.630155803927002
 40
1.630155803927002
 40
2.566002662426968
 40
2.566002662426968
 40
2.566002662426968
 40
2.566002662426968
 10
249.004496669201
 20
209.1563414125593
 30
0.0
 10
248.8246354360057
 20
209.3318260531492
 30
0.0
 10
248.6555358146323
 20
209.5218005001634
 30
0.0
 10
248.504496669201
 20
209.725783331131
 30
0.0
  0
LINE
  5
10DE
330
1F
100
AcDbEntity
  8
AM_VIS
100
AcDbLine
 10
248.4979590684019
 20
214.1549120695982
 30
0.0
 11
248.9985292507033
 21
214.9904058169156
 31
0.0
  0
LINE
  5
10DF
330
1F
100
AcDbEntity
  8
AM_VIS
100
AcDbLine
 10
249.004496669201
 20
214.986830551661
 30
0.0
 11
250.1544966692009
 21
214.986830551661
 31
0.0
  0
LINE
  5
10E0
330
1F
100
AcDbEntity
  8
AM_VIS
100
AcDbLine
 10
250.1544966692009
 20
199.7399479699362
 30
0.0
 11
249.004496669201
 21
199.7399479699362
 31
0.0
  0
LINE
  5
10E1
330
1F
100
AcDbEntity
  8
AM_VIS
100
AcDbLine
 10
248.4979590703259
 20
200.5718664532052
 30
0.0
 11
248.9985292476049
 21
199.736372702874
 31
0.0
  0
SPLINE
  5
10E2
330
1F
100
AcDbEntity
  8
AM_VIS
100
AcDbSpline
210
0.0
220
0.0
230
1.0
 70
     8
 71
     3
 72
     8
 73
     4
 74
     0
 42
0.0000000001
 43
0.0000000001
 40
7.860869802063004
 40
7.860869802063004
 40
7.860869802063004
 40
7.860869802063004
 40
8.796716660561713
 40
8.796716660561713
 40
8.796716660561713
 40
8.796716660561713
 10
248.504496669201
 20
205.0009951904662
 30
0.0
 10
248.6555357052353
 20
205.20497787369
 30
0.0
 10
248.8246353209795
 20
205.3949523562208
 30
0.0
 10
249.004496669201
 20
205.570437109038
 30
0.0
  0
LINE
  5
10E3
330
1F
100
AcDbEntity
  8
AM_VIS
100
AcDbLine
 10
249.004496669201
 20
205.5704371090381
 30
0.0
 11
250.1544966692009
 21
205.5704371090381
 31
0.0
  0
LINE
  5
10E4
330
1F
100
AcDbEntity
  8
AM_VIS
100
AcDbLine
 10
248.5049918429706
 20
198.2143182130473
 30
0.0
 11
249.0049381778304
 21
197.9478240939433
 31
0.0
  0
LINE
  5
10E5
330
1F
100
AcDbEntity
  8
AM_VIS
100
AcDbLine
 10
249.004496669201
 20
197.9469958181756
 30
0.0
 11
250.1544966692009
 21
197.9469958181756
 31
0.0
  0
LINE
  5
10E6
330
1F
100
AcDbEntity
  8
AM_VIS
100
AcDbLine
 10
251.654496669201
 20
197.9469958181756
 30
0.0
 11
254.504496669201
 21
197.9469958181756
 31
0.0
  0
LINE
  5
10E7
330
1F
100
AcDbEntity
  8
AM_VIS
100
AcDbLine
 10
254.504496669201
 20
216.7797827034215
 30
0.0
 11
251.654496669201
 21
216.7797827034215
 31
0.0
  0
LINE
  5
10E8
330
1F
100
AcDbEntity
  8
AM_VIS
100
AcDbLine
 10
254.504496669201
 20
209.1563414125593
 30
0.0
 11
251.654496669201
 21
209.1563414125593
 31
0.0
  0
LINE
  5
10E9
330
1F
100
AcDbEntity
  8
AM_VIS
100
AcDbLine
 10
251.654496669201
 20
214.986830551661
 30
0.0
 11
254.504496669201
 21
214.986830551661
 31
0.0
  0
LINE
  5
10EA
330
1F
100
AcDbEntity
  8
AM_VIS
100
AcDbLine
 10
254.504496669201
 20
199.7399479699362
 30
0.0
 11
251.654496669201
 21
199.7399479699362
 31
0.0
  0
LINE
  5
10EB
330
1F
100
AcDbEntity
  8
AM_VIS
100
AcDbLine
 10
251.654496669201
 20
205.5704371090381
 30
0.0
 11
254.504496669201
 21
205.5704371090381
 31
0.0
  0
LINE
  5
10EC
330
1F
100
AcDbEntity
  8
AM_VIS
100
AcDbLine
 10
254.5471947968186
 20
199.7399131008242
 30
0.0
 11
254.5519562197453
 21
205.5703983515449
 31
0.0
  0
LINE
  5
10ED
330
1F
100
AcDbEntity
  8
AM_VIS
100
AcDbLine
 10
254.5471947968186
 20
214.9868654207731
 30
0.0
 11
254.5519562197453
 21
209.1563801700524
 31
0.0
  0
LINE
  5
10EE
330
1F
100
AcDbEntity
  8
AM_VIS
100
AcDbLine
 10
254.5037995828047
 20
216.7796741156993
 30
0.0
 11
254.5998170419303
 21
216.1632833927489
 31
0.0
  0
LINE
  5
10EF
330
1F
100
AcDbEntity
  8
AM_VIS
100
AcDbLine
 10
254.5037995828047
 20
197.9471044058977
 30
0.0
 11
254.5998170419304
 21
198.5634951288482
 31
0.0
  0
CIRCLE
  5
10F0
330
1F
100
AcDbEntity
  8
AM_VIS
100
AcDbCircle
 10
250.904496669201
 20
205.3633892607985
 30
0.0
 40
0.4999999999999987
  0
CIRCLE
  5
10F1
330
1F
100
AcDbEntity
  8
AM_VIS
100
AcDbCircle
 10
250.904496669201
 20
209.3633892607985
 30
0.0
 40
0.5000000000000009
  0
SPLINE
  5
10F2
330
1F
100
AcDbEntity
  8
AM_VIS
100
AcDbSpline
210
0.0
220
0.0
230
1.0
 70
    11
 71
     3
 72
    60
 73
    56
 74
     0
 42
0.0000000001
 43
0.0000000001
 40
-3.310750712816652
 40
-3.310750712816652
 40
-3.310750712816652
 40
-3.310750712816652
 40
-3.302671059125519
 40
-3.302671059125519
 40
-3.271516879648076
 40
-3.271516879648076
 40
-3.222342999562159
 40
-3.222342999562159
 40
-3.075760487521823
 40
-3.075760487521823
 40
-2.908994890068949
 40
-2.908994890068949
 40
-2.706317539053631
 40
-2.706317539053631
 40
-2.531583211411222
 40
-2.531583211411222
 40
-2.354322289708455
 40
-2.354322289708455
 40
-2.162856293862051
 40
-2.162856293862051
 40
-1.995635058289954
 40
-1.995635058289954
 40
-1.870614094148073
 40
-1.870614094148073
 40
-1.77765316190416
 40
-1.77765316190416
 40
-1.737876373527406
 40
-1.737876373527406
 40
-1.708569587915623
 40
-1.708569587915623
 40
-1.67759753243844
 40
-1.67759753243844
 40
-1.629510029901636
 40
-1.629510029901636
 40
-1.49514387547256
 40
-1.49514387547256
 40
-1.274685715457794
 40
-1.274685715457794
 40
-1.0731360304824
 40
-1.0731360304824
 40
-0.9227343317460663
 40
-0.9227343317460663
 40
-0.7786617880805702
 40
-0.7786617880805702
 40
-0.6125360661046729
 40
-0.6125360661046729
 40
-0.3879513966054244
 40
-0.3879513966054244
 40
-0.2081380036627772
 40
-0.2081380036627772
 40
-0.0765520961402888
 40
-0.0765520961402888
 40
-0.030511565745947
 40
-0.030511565745947
 40
0.0
 40
0.0
 40
0.0
 40
0.0
 10
250.404496669201
 20
213.6819145696622
 30
0.0
 10
250.404496669201
 20
213.6824372418022
 30
0.0
 10
250.4045176087862
 20
213.682939827223
 30
0.0
 10
250.4047218530364
 20
213.6852820016293
 30
0.0
 10
250.4051974863406
 20
213.6868366252322
 30
0.0
 10
250.4072536900868
 20
213.6900496577742
 30
0.0
 10
250.4093047124248
 20
213.6912333770113
 30
0.0
 10
250.4206804924784
 20
213.6929677648357
 30
0.0
 10
250.436064657123
 20
213.6875207611794
 30
0.0
 10
250.4819188732877
 20
213.6679027871274
 30
0.0
 10
250.5139097935689
 20
213.6529088665979
 30
0.0
 10
250.5980845250406
 20
213.6195667800489
 30
0.0
 10
250.6533497964163
 20
213.6011655507972
 30
0.0
 10
250.7681678305234
 20
213.5768923689677
 30
0.0
 10
250.8249981774201
 20
213.5698238255892
 30
0.0
 10
250.9427863323124
 20
213.5670957284648
 30
0.0
 10
251.0014532111961
 20
213.5716621031265
 30
0.0
 10
251.1175517172107
 20
213.5913663631071
 30
0.0
 10
251.1727350794497
 20
213.6070409884279
 30
0.0
 10
251.2622914085925
 20
213.6389829177413
 30
0.0
 10
251.298335755054
 20
213.6548794539711
 30
0.0
 10
251.3488674125269
 20
213.6773030597467
 30
0.0
 10
251.366509441267
 20
213.6851381978405
 30
0.0
 10
251.3890781780084
 20
213.6920181220489
 30
0.0
 10
251.3959758702119
 20
213.6927437886175
 30
0.0
 10
251.4018286504783
 20
213.6898077705068
 30
0.0
 10
251.4030543206767
 20
213.6884283122263
 30
0.0
 10
251.4042866416172
 20
213.6851506322113
 30
0.0
 10
251.4045272147026
 20
213.6834896534914
 30
0.0
 10
251.404458030971
 20
213.6795283140275
 30
0.0
 10
251.4041163298253
 20
213.677202801626
 30
0.0
 10
251.4024931861547
 20
213.6705638106603
 30
0.0
 10
251.4008013415439
 20
213.6658783443354
 30
0.0
 10
251.3919095287101
 20
213.6459738645074
 30
0.0
 10
251.3803208835895
 20
213.6270151922549
 30
0.0
 10
251.3395484802492
 20
213.5721972249044
 30
0.0
 10
251.3031128027113
 20
213.5324249866945
 30
0.0
 10
251.2166350687532
 20
213.4620654524806
 30
0.0
 10
251.1668469245009
 20
213.4299428033612
 30
0.0
 10
251.0668650086804
 20
213.3877107664905
 30
0.0
 10
251.0204024270839
 20
213.3742776282927
 30
0.0
 10
250.9238842501416
 20
213.3615437080081
 30
0.0
 10
250.8762377335309
 20
213.3619759136184
 30
0.0
 10
250.7750560976095
 20
213.377075401874
 30
0.0
 10
250.7245704414757
 20
213.3934663040874
 30
0.0
 10
250.6171995986386
 20
213.4438478575111
 30
0.0
 10
250.5647542012914
 20
213.4817764990104
 30
0.0
 10
250.4895123470574
 20
213.5503620203731
 30
0.0
 10
250.4619385118775
 20
213.5818561452307
 30
0.0
 10
250.4270382336468
 20
213.6295748839954
 30
0.0
 10
250.4160453039318
 20
213.6478868987413
 30
0.0
 10
250.407797995695
 20
213.6669322907955
 30
0.0
 10
250.4062643580953
 20
213.671344137354
 30
0.0
 10
250.4047950892066
 20
213.677683708917
 30
0.0
 10
250.404496669201
 20
213.6799407789562
 30
0.0
 10
250.404496669201
 20
213.6819145696622
 30
0.0
  0
SPLINE
  5
10F3
330
1F
100
AcDbEntity
  8
AM_VIS
100
AcDbSpline
210
0.0
220
0.0
230
1.0
 70
    11
 71
     3
 72
    60
 73
    56
 74
     0
 42
0.0000000001
 43
0.0000000001
 40
-3.339179833650605
 40
-3.339179833650605
 40
-3.339179833650605
 40
-3.339179833650605
 40
-3.338178510341669
 40
-3.338178510341669
 40
-3.307426441093102
 40
-3.307426441093102
 40
-3.260257442848685
 40
-3.260257442848685
 40
-3.131698032149079
 40
-3.131698032149079
 40
-2.911444231468901
 40
-2.911444231468901
 40
-2.707105941030766
 40
-2.707105941030766
 40
-2.555612058899387
 40
-2.555612058899387
 40
-2.411713356363649
 40
-2.411713356363649
 40
-2.246665153548941
 40
-2.246665153548941
 40
-2.021546194443616
 40
-2.021546194443616
 40
-1.783002476135987
 40
-1.783002476135987
 40
-1.683076290570759
 40
-1.683076290570759
 40
-1.640889765310639
 40
-1.640889765310639
 40
-1.610262995428023
 40
-1.610262995428023
 40
-1.578336361562037
 40
-1.578336361562037
 40
-1.529528057337407
 40
-1.529528057337407
 40
-1.393989385708153
 40
-1.393989385708153
 40
-1.223638687617107
 40
-1.223638687617107
 40
-1.012165485955926
 40
-1.012165485955926
 40
-0.8368093096661988
 40
-0.8368093096661988
 40
-0.6617329501248318
 40
-0.6617329501248318
 40
-0.471355778622239
 40
-0.471355778622239
 40
-0.3001652834568147
 40
-0.3001652834568147
 40
-0.1716500352069761
 40
-0.1716500352069761
 40
-0.0705730179427
 40
-0.0705730179427
 40
-0.0295050875768574
 40
-0.0295050875768574
 40
0.0
 40
0.0
 40
0.0
 40
0.0
 10
250.404496669201
 20
201.0448639519349
 30
0.0
 10
250.404496669201
 20
201.0449287274583
 30
0.0
 10
250.4044969908292
 20
201.0449938105351
 30
0.0
 10
250.4045173779907
 20
201.0470674297817
 30
0.0
 10
250.4048398868789
 20
201.0493622587225
 30
0.0
 10
250.4063935445926
 20
201.0558660286621
 30
0.0
 10
250.4080137084169
 20
201.0604275422348
 30
0.0
 10
250.4163928303012
 20
201.0794428096954
 30
0.0
 10
250.4271512788811
 20
201.0973136168256
 30
0.0
 10
250.4660367203383
 20
201.1506009326657
 30
0.0
 10
250.5017570956387
 20
201.1902432247056
 30
0.0
 10
250.5873651361051
 20
201.2612756616422
 30
0.0
 10
250.6372793567391
 20
201.2941644407526
 30
0.0
 10
250.7375316619222
 20
201.3375417014484
 30
0.0
 10
250.7840536370967
 20
201.3514502645167
 30
0.0
 10
250.88048688338
 20
201.3650170042775
 30
0.0
 10
250.9279922480614
 20
201.3650396286491
 30
0.0
 10
251.0288249627651
 20
201.3509600949958
 30
0.0
 10
251.0791404630341
 20
201.3351995481867
 30
0.0
 10
251.1870345610144
 20
201.2858936456936
 30
0.0
 10
251.2400138871768
 20
201.2482517385465
 30
0.0
 10
251.3272111917201
 20
201.1699560657054
 30
0.0
 10
251.3612216028721
 20
201.1282747981006
 30
0.0
 10
251.3904946399023
 20
201.0825607614826
 30
0.0
 10
251.3969207279889
 20
201.0705247551843
 30
0.0
 10
251.4022718743165
 20
201.0567371568994
 30
0.0
 10
251.4033799572939
 20
201.0530731261433
 30
0.0
 10
251.4044121279638
 20
201.0475684628546
 30
0.0
 10
251.4045761937605
 20
201.0455093540834
 30
0.0
 10
251.4043407758852
 20
201.0418482131231
 30
0.0
 10
251.40391747027
 20
201.0402748604703
 30
0.0
 10
251.4020607493214
 20
201.0370513416401
 30
0.0
 10
251.4002192426767
 20
201.0358134172483
 30
0.0
 10
251.3904995192316
 20
201.0337180984815
 30
0.0
 10
251.3779298908502
 20
201.037529492973
 30
0.0
 10
251.3384149912167
 20
201.0536811183136
 30
0.0
 10
251.3089122741922
 20
201.0676899440531
 30
0.0
 10
251.2295023401165
 20
201.1004188858526
 30
0.0
 10
251.1749734764779
 20
201.1200729095234
 30
0.0
 10
251.0590221428218
 20
201.1469207090675
 30
0.0
 10
251.0023381648487
 20
201.1551809977686
 30
0.0
 10
250.8848995274482
 20
201.1602377976085
 30
0.0
 10
250.8264069060562
 20
201.1569523501263
 30
0.0
 10
250.7092268793846
 20
201.1395116968223
 30
0.0
 10
250.6529371428581
 20
201.1247076986014
 30
0.0
 10
250.5594002629294
 20
201.0929563584165
 30
0.0
 10
250.5210100561729
 20
201.0764563556588
 30
0.0
 10
250.4666987912584
 20
201.0524145309505
 30
0.0
 10
250.4475300483928
 20
201.043697251341
 30
0.0
 10
250.4220802730587
 20
201.0351244193123
 30
0.0
 10
250.4140718992135
 20
201.0338540006641
 30
0.0
 10
250.4074717989761
 20
201.0366986399988
 30
0.0
 10
250.4061307886706
 20
201.0380537395826
 30
0.0
 10
250.404775717422
 20
201.0413161653201
 30
0.0
 10
250.404496669201
 20
201.0429552702198
 30
0.0
 10
250.404496669201
 20
201.0448639519349
 30
0.0
  0
CIRCLE
  5
10F4
330
1F
100
AcDbEntity
  8
AM_VIS
100
AcDbCircle
 10
250.904496669201
 20
207.3633892607986
 30
0.0
 40
0.5000000000000016
  0
LINE
  5
10F5
330
1F
100
AcDbEntity
  8
AM_VIS
100
AcDbLine
 10
254.704496669201
 20
214.8633892607985
 30
0.0
 11
254.6004966692009
 21
216.1633892607986
 31
0.0
  0
LINE
  5
10F6
330
1F
100
AcDbEntity
  8
AM_VIS
100
AcDbLine
 10
254.704496669201
 20
199.8633892607985
 30
0.0
 11
254.6004966692009
 21
198.5633892607985
 31
0.0
  0
LINE
  5
10F7
330
1F
100
AcDbEntity
  8
AM_VIS
100
AcDbLine
 10
255.504496669201
 20
199.8633892607985
 30
0.0
 11
256.004496669201
 21
197.3633892607985
 31
0.0
  0
LINE
  5
10F8
330
1F
100
AcDbEntity
  8
AM_VIS
100
AcDbLine
 10
255.504496669201
 20
214.8633892607985
 30
0.0
 11
256.004496669201
 21
217.3633892607985
 31
0.0
  0
LINE
  5
10F9
330
1F
100
AcDbEntity
  8
AM_VIS
100
AcDbLine
 10
255.504496669201
 20
214.8633892607985
 30
0.0
 11
254.704496669201
 21
214.8633892607985
 31
0.0
  0
LINE
  5
10FA
330
1F
100
AcDbEntity
  8
AM_VIS
100
AcDbLine
 10
255.504496669201
 20
199.8633892607985
 30
0.0
 11
254.704496669201
 21
199.8633892607985
 31
0.0
  0
LINE
  5
10FB
330
1F
100
AcDbEntity
  8
AM_VIS
100
AcDbLine
 10
256.504496669201
 20
217.3633892607985
 30
0.0
 11
256.004496669201
 21
217.3633892607985
 31
0.0
  0
LINE
  5
10FC
330
1F
100
AcDbEntity
  8
AM_VIS
100
AcDbLine
 10
256.504496669201
 20
197.3633892607985
 30
0.0
 11
256.004496669201
 21
197.3633892607985
 31
0.0
  0
LINE
  5
10FD
330
1F
100
AcDbEntity
  8
AM_VIS
100
AcDbLine
 10
249.004496669201
 20
199.7399479699362
 30
0.0
 11
249.004496669201
 21
197.9469958181756
 31
0.0
  0
LINE
  5
10FE
330
1F
100
AcDbEntity
  8
AM_VIS
100
AcDbLine
 10
249.004496669201
 20
209.1563414125593
 30
0.0
 11
249.004496669201
 21
205.570437109038
 31
0.0
  0
LINE
  5
10FF
330
1F
100
AcDbEntity
  8
AM_VIS
100
AcDbLine
 10
249.004496669201
 20
216.7797827034215
 30
0.0
 11
249.004496669201
 21
214.986830551661
 31
0.0
  0
LINE
  5
1100
330
1F
100
AcDbEntity
  8
AM_VIS
100
AcDbLine
 10
250.1544966692009
 20
199.7399479699362
 30
0.0
 11
250.1544966692009
 21
197.9469958181756
 31
0.0
  0
LINE
  5
1101
330
1F
100
AcDbEntity
  8
AM_VIS
100
AcDbLine
 10
250.1544966692009
 20
199.7399479699362
 30
0.0
 11
250.1544966692009
 21
205.5704371090381
 31
0.0
  0
LINE
  5
1102
330
1F
100
AcDbEntity
  8
AM_VIS
100
AcDbLine
 10
250.1544966692009
 20
209.1563414125593
 30
0.0
 11
250.1544966692009
 21
205.570437109038
 31
0.0
  0
LINE
  5
1103
330
1F
100
AcDbEntity
  8
AM_VIS
100
AcDbLine
 10
250.1544966692009
 20
209.1563414125593
 30
0.0
 11
250.1544966692009
 21
214.9868305516611
 31
0.0
  0
LINE
  5
1104
330
1F
100
AcDbEntity
  8
AM_VIS
100
AcDbLine
 10
250.1544966692009
 20
216.7797827034215
 30
0.0
 11
250.1544966692009
 21
214.986830551661
 31
0.0
  0
LINE
  5
1105
330
1F
100
AcDbEntity
  8
AM_VIS
100
AcDbLine
 10
251.654496669201
 20
197.9469958181756
 30
0.0
 11
251.654496669201
 21
199.7399479699362
 31
0.0
  0
LINE
  5
1106
330
1F
100
AcDbEntity
  8
AM_VIS
100
AcDbLine
 10
251.654496669201
 20
214.986830551661
 30
0.0
 11
251.654496669201
 21
216.7797827034215
 31
0.0
  0
LINE
  5
1107
330
1F
100
AcDbEntity
  8
AM_VIS
100
AcDbLine
 10
251.654496669201
 20
205.570437109038
 30
0.0
 11
251.654496669201
 21
209.1563414125593
 31
0.0
  0
LINE
  5
1108
330
1F
100
AcDbEntity
  8
AM_VIS
100
AcDbLine
 10
251.654496669201
 20
214.986830551661
 30
0.0
 11
251.654496669201
 21
209.1563414125592
 31
0.0
  0
LINE
  5
1109
330
1F
100
AcDbEntity
  8
AM_VIS
100
AcDbLine
 10
251.654496669201
 20
205.570437109038
 30
0.0
 11
251.654496669201
 21
199.7399479699361
 31
0.0
  0
LINE
  5
110A
330
1F
100
AcDbEntity
  8
AM_VIS
100
AcDbLine
 10
254.504496669201
 20
199.7399479699362
 30
0.0
 11
254.504496669201
 21
197.9469958181756
 31
0.0
  0
LINE
  5
110B
330
1F
100
AcDbEntity
  8
AM_VIS
100
AcDbLine
 10
254.504496669201
 20
209.1563414125593
 30
0.0
 11
254.504496669201
 21
205.570437109038
 31
0.0
  0
LINE
  5
110C
330
1F
100
AcDbEntity
  8
AM_VIS
100
AcDbLine
 10
254.504496669201
 20
216.7797827034215
 30
0.0
 11
254.504496669201
 21
214.986830551661
 31
0.0
  0
LINE
  5
110D
330
1F
100
AcDbEntity
  8
AM_VIS
100
AcDbLine
 10
254.704496669201
 20
214.8633892607985
 30
0.0
 11
254.704496669201
 21
199.8633892607985
 31
0.0
  0
LINE
  5
110E
330
1F
100
AcDbEntity
  8
AM_VIS
100
AcDbLine
 10
255.504496669201
 20
214.8633892607985
 30
0.0
 11
255.504496669201
 21
199.8633892607985
 31
0.0
  0
LINE
  5
110F
330
1F
100
AcDbEntity
  8
AM_VIS
100
AcDbLine
 10
256.004496669201
 20
197.3633892607985
 30
0.0
 11
256.004496669201
 21
217.3633892607985
 31
0.0
  0
LINE
  5
1110
330
1F
100
AcDbEntity
  8
AM_VIS
100
AcDbLine
 10
248.504496669201
 20
205.0009951904662
 30
0.0
 11
248.504496669201
 21
209.725783331131
 31
0.0
  0
LINE
  5
1111
330
1F
100
AcDbEntity
  8
AM_VIS
100
AcDbLine
 10
248.504496669201
 20
200.5757833311311
 30
0.0
 11
248.504496669201
 21
205.0009951904663
 31
0.0
  0
LINE
  5
1112
330
1F
100
AcDbEntity
  8
AM_VIS
100
AcDbLine
 10
248.504496669201
 20
198.2133892607985
 30
0.0
 11
248.504496669201
 21
200.5757833311311
 31
0.0
  0
LINE
  5
1113
330
1F
100
AcDbEntity
  8
AM_VIS
100
AcDbLine
 10
248.504496669201
 20
214.1509951904662
 30
0.0
 11
248.504496669201
 21
216.5133892607986
 31
0.0
  0
LINE
  5
1114
330
1F
100
AcDbEntity
  8
AM_VIS
100
AcDbLine
 10
248.504496669201
 20
209.725783331131
 30
0.0
 11
248.504496669201
 21
214.1509951904664
 31
0.0
  0
ARC
  5
1115
330
1F
100
AcDbEntity
  8
AM_VIS
100
AcDbCircle
 10
250.904496669201
 20
200.3633892607985
 30
0.0
 40
0.75
100
AcDbArc
 50
0.0
 51
180.0
  0
ARC
  5
1116
330
1F
100
AcDbEntity
  8
AM_VIS
100
AcDbCircle
 10
250.904496669201
 20
214.3633892607986
 30
0.0
 40
0.75
100
AcDbArc
 50
180.0
 51
0.0
  0
LINE
  5
1117
330
1F
100
AcDbEntity
  8
AM_VIS
100
AcDbLine
 10
256.504496669201
 20
196.3633892607985
 30
0.0
 11
286.004496669201
 21
196.3633892607985
 31
0.0
  0
LINE
  5
1118
330
1F
100
AcDbEntity
  8
AM_VIS
100
AcDbLine
 10
256.504496669201
 20
214.3633892607986
 30
0.0
 11
256.504496669201
 21
200.3633892607985
 31
0.0
  0
LINE
  5
1119
330
1F
100
AcDbEntity
  8
AM_VIS
100
AcDbLine
 10
286.004496669201
 20
218.3633892607986
 30
0.0
 11
256.504496669201
 21
218.3633892607986
 31
0.0
  0
LINE
  5
111A
330
1F
100
AcDbEntity
  8
AM_VIS
100
AcDbLine
 10
256.504496669201
 20
196.3633892607985
 30
0.0
 11
256.504496669201
 21
200.3633892607985
 31
0.0
  0
LINE
  5
111B
330
1F
100
AcDbEntity
  8
AM_VIS
100
AcDbLine
 10
256.504496669201
 20
214.3633892607986
 30
0.0
 11
256.504496669201
 21
218.3633892607986
 31
0.0
  0
LINE
  5
111C
330
1F
100
AcDbEntity
  8
AM_VIS
100
AcDbLine
 10
391.004496669201
 20
196.5633892607985
 30
0.0
 11
390.0044966692009
 21
196.1994190265323
 31
0.0
  0
LINE
  5
111D
330
1F
100
AcDbEntity
  8
AM_VIS
100
AcDbLine
 10
390.0044966692009
 20
195.7994190265323
 30
0.0
 11
391.004496669201
 21
196.1633892607985
 31
0.0
  0
LINE
  5
111E
330
1F
100
AcDbEntity
  8
AM_VIS
100
AcDbLine
 10
390.0044966692009
 20
192.5633892607985
 30
0.0
 11
391.004496669201
 21
192.5633892607985
 31
0.0
  0
LINE
  5
111F
330
1F
100
AcDbEntity
  8
AM_VIS
100
AcDbLine
 10
390.4044966692011
 20
200.1633892607985
 30
0.0
 11
391.004496669201
 21
200.1633892607985
 31
0.0
  0
LINE
  5
1120
330
1F
100
AcDbEntity
  8
AM_VIS
100
AcDbLine
 10
390.0044966692009
 20
194.3139991076065
 30
0.0
 11
390.0044966692009
 21
195.7994190265323
 31
0.0
  0
LINE
  5
1121
330
1F
100
AcDbEntity
  8
AM_VIS
100
AcDbLine
 10
390.0044966692009
 20
192.5633892607985
 30
0.0
 11
390.0044966692009
 21
193.3633892607984
 31
0.0
  0
LINE
  5
1122
330
1F
100
AcDbEntity
  8
AM_VIS
100
AcDbLine
 10
390.0044966692009
 20
196.1994190265323
 30
0.0
 11
390.0044966692009
 21
198.4127794139905
 31
0.0
  0
LINE
  5
1123
330
1F
100
AcDbEntity
  8
AM_VIS
100
AcDbLine
 10
392.0634341813288
 20
200.270744233105
 30
0.0
 11
391.004496669201
 21
200.3633892607985
 31
0.0
  0
LINE
  5
1124
330
1F
100
AcDbEntity
  8
AM_VIS
100
AcDbLine
 10
392.0634341813288
 20
192.456034288492
 30
0.0
 11
391.004496669201
 21
192.3633892607985
 31
0.0
  0
LINE
  5
1125
330
1F
100
AcDbEntity
  8
AM_VIS
100
AcDbLine
 10
391.004496669201
 20
192.3633892607985
 30
0.0
 11
391.004496669201
 21
200.3633892607985
 31
0.0
  0
LINE
  5
1126
330
1F
100
AcDbEntity
  8
AM_VIS
100
AcDbLine
 10
390.0339116692009
 20
195.8101252109733
 30
0.0
 11
390.0339116692009
 21
196.2101252109732
 31
0.0
  0
LINE
  5
1127
330
1F
100
AcDbEntity
  8
AM_VIS
100
AcDbLine
 10
393.7208681425501
 20
198.5633892607985
 30
0.0
 11
393.7055396935519
 21
198.5502246489835
 31
0.0
  0
ARC
  5
1128
330
1F
100
AcDbEntity
  8
AM_VIS
100
AcDbCircle
 10
387.604496669201
 20
196.3633892607985
 30
0.0
 40
6.481124516625182
100
AcDbArc
 50
340.2804765846993
 51
350.4079483577541
  0
LINE
  5
1129
330
1F
100
AcDbEntity
  8
AM_VIS
100
AcDbLine
 10
393.7055396935519
 20
194.1765538726134
 30
0.0
 11
393.7208681425501
 21
194.1633892607985
 31
0.0
  0
LINE
  5
112A
330
1F
100
AcDbEntity
  8
AM_VIS
100
AcDbLine
 10
393.7055396935518
 20
195.8683892607965
 30
0.0
 11
393.9950096376566
 21
195.8683892607965
 31
0.0
  0
LINE
  5
112B
330
1F
100
AcDbEntity
  8
AM_VIS
100
AcDbLine
 10
393.9950096376566
 20
196.8583892607965
 30
0.0
 11
393.705539693552
 21
196.8583892607965
 31
0.0
  0
ELLIPSE
  5
112C
330
1F
100
AcDbEntity
  8
AM_VIS
100
AcDbEllipse
 10
389.113467998226
 20
196.3633892607985
 30
0.0
 11
0.0000000000000007
 21
6.073381703024877
 31
0.0
210
0.0
220
0.0
230
1.0
 40
0.7586218633400571
 41
4.630795282261631
 42
4.793982678507091
  0
ARC
  5
112D
330
1F
100
AcDbEntity
  8
AM_VIS
100
AcDbCircle
 10
387.604496669201
 20
196.3633892607985
 30
0.0
 40
6.481124516625182
100
AcDbArc
 50
9.592051642245953
 51
19.71952341530071
  0
LINE
  5
112E
330
1F
100
AcDbEntity
  8
AM_VIS
100
AcDbLine
 10
393.9950096376567
 20
197.4433517601474
 30
0.0
 11
393.9950096376567
 21
196.8583892607965
 31
0.0
  0
LINE
  5
112F
330
1F
100
AcDbEntity
  8
AM_VIS
100
AcDbLine
 10
393.9950096376567
 20
195.8683892607965
 30
0.0
 11
393.9950096376567
 21
195.2834267614496
 31
0.0
  0
ARC
  5
1130
330
1F
100
AcDbEntity
  8
AM_VIS
100
AcDbCircle
 10
391.9239849929325
 20
198.6768327161583
 30
0.0
 40
1.6
100
AcDbArc
 50
28.17273413186441
 51
84.99999999999863
  0
ARC
  5
1131
330
1F
100
AcDbEntity
  8
AM_VIS
100
AcDbCircle
 10
391.9239849929325
 20
194.0499458054387
 30
0.0
 40
1.599999999999999
100
AcDbArc
 50
275.0000000000014
 51
331.8272658681356
  0
ARC
  5
1132
330
1F
100
AcDbEntity
  8
AM_VIS
100
AcDbCircle
 10
387.604496669201
 20
196.3633892607985
 30
0.0
 40
6.5
100
AcDbArc
 50
331.8272658681356
 51
340.2168296273391
  0
ARC
  5
1133
330
1F
100
AcDbEntity
  8
AM_VIS
100
AcDbCircle
 10
387.604496669201
 20
196.3633892607985
 30
0.0
 40
6.5
100
AcDbArc
 50
19.78317037266085
 51
28.17273413186518
  0
LINE
  5
1139
330
1F
100
AcDbEntity
  8
AM_VIS
100
AcDbLine
 10
286.004496669201
 20
216.5745348787988
 30
0.0
 11
286.004496669201
 21
220.1522436427983
 31
0.0
  0
LINE
  5
113A
330
1F
100
AcDbEntity
  8
AM_VIS
100
AcDbLine
 10
312.004496669201
 20
222.3633892607986
 30
0.0
 11
288.004496669201
 21
221.9444677025213
 31
0.0
  0
LINE
  5
113B
330
1F
100
AcDbEntity
  8
AM_VIS
100
AcDbLine
 10
312.004496669201
 20
192.3633892607985
 30
0.0
 11
288.0044966692009
 21
192.7823108190757
 31
0.0
  0
LINE
  5
113C
330
1F
100
AcDbEntity
  8
AM_VIS
100
AcDbLine
 10
288.0044966692009
 20
192.7808203674002
 30
0.0
 11
288.0898845885062
 21
192.7808203674002
 31
0.0
  0
LINE
  5
113D
330
1F
100
AcDbEntity
  8
AM_VIS
100
AcDbLine
 10
288.0044966692009
 20
221.9444677025213
 30
0.0
 11
288.0044966692009
 21
221.5996373173338
 31
0.0
  0
LINE
  5
113E
330
1F
100
AcDbEntity
  8
AM_VIS
100
AcDbLine
 10
288.0044966692009
 20
193.1271412042633
 30
0.0
 11
288.0044966692009
 21
192.7823108190757
 31
0.0
  0
LINE
  5
113F
330
1F
100
AcDbEntity
  8
AM_VIS
100
AcDbLine
 10
312.004496669201
 20
222.3633892607985
 30
0.0
 11
312.004496669201
 21
192.3633892607985
 31
0.0
  0
LINE
  5
1140
330
1F
100
AcDbEntity
  8
AM_VIS
100
AcDbLine
 10
286.004496669201
 20
192.7633892607985
 30
0.0
 11
288.004496669201
 21
192.7633892607985
 31
0.0
  0
LINE
  5
1141
330
1F
100
AcDbEntity
  8
AM_VIS
100
AcDbLine
 10
288.004496669201
 20
221.4633892607985
 30
0.0
 11
288.004496669201
 21
193.2633892607985
 31
0.0
  0
LINE
  5
1142
330
1F
100
AcDbEntity
  8
AM_VIS
100
AcDbLine
 10
286.004496669201
 20
221.4633892607985
 30
0.0
 11
286.004496669201
 21
220.1522436427983
 31
0.0
  0
LINE
  5
1143
330
1F
100
AcDbEntity
  8
AM_VIS
100
AcDbLine
 10
286.004496669201
 20
216.5745348787988
 30
0.0
 11
286.004496669201
 21
193.2633892607985
 31
0.0
  0
LINE
  5
1144
330
1F
100
AcDbEntity
  8
AM_VIS
100
AcDbLine
 10
288.004496669201
 20
221.9633892607985
 30
0.0
 11
286.004496669201
 21
221.9633892607985
 31
0.0
  0
LINE
  5
1145
330
1F
100
AcDbEntity
  8
AM_VIS
100
AcDbLine
 10
288.004496669201
 20
192.7823108190757
 30
0.0
 11
288.004496669201
 21
192.7633892607985
 31
0.0
  0
LINE
  5
1146
330
1F
100
AcDbEntity
  8
AM_VIS
100
AcDbLine
 10
288.004496669201
 20
193.2633892607985
 30
0.0
 11
288.004496669201
 21
193.1271412042633
 31
0.0
  0
LINE
  5
1147
330
1F
100
AcDbEntity
  8
AM_VIS
100
AcDbLine
 10
288.004496669201
 20
221.5996373173338
 30
0.0
 11
288.004496669201
 21
221.4633892607985
 31
0.0
  0
LINE
  5
1148
330
1F
100
AcDbEntity
  8
AM_VIS
100
AcDbLine
 10
288.004496669201
 20
221.9633892607985
 30
0.0
 11
288.004496669201
 21
221.9444677025213
 31
0.0
  0
LINE
  5
1149
330
1F
100
AcDbEntity
  8
AM_VIS
100
AcDbLine
 10
286.004496669201
 20
221.4633892607985
 30
0.0
 11
286.004496669201
 21
221.9633892607985
 31
0.0
  0
LINE
  5
114A
330
1F
100
AcDbEntity
  8
AM_VIS
100
AcDbLine
 10
286.004496669201
 20
192.7633892607985
 30
0.0
 11
286.004496669201
 21
193.2633892607985
 31
0.0
  0
LINE
  5
114B
330
1F
100
AcDbEntity
  8
AM_VIS
100
AcDbLine
 10
298.7045007997569
 20
222.131436667716
 30
0.0
 11
298.8044855692725
 21
222.1331819083597
 31
0.0
  0
ARC
  5
114C
330
1F
100
AcDbEntity
  8
AM_VIS
100
AcDbCircle
 10
298.7752541251072
 20
220.942915798073
 30
0.0
 40
1.190625
100
AcDbArc
 50
88.37431186666135
 51
88.5931702408102
  0
ARC
  5
114D
330
1F
100
AcDbEntity
  8
AM_VIS
100
AcDbCircle
 10
298.7752541251072
 20
220.942915798073
 30
0.0
 40
1.190624999999999
100
AcDbArc
 50
93.40682975919037
 51
93.62568813333989
  0
LINE
  5
114E
330
1F
100
AcDbEntity
  8
AM_VIS
100
AcDbLine
 10
312.004496669201
 20
192.3633892607985
 30
0.0
 11
386.0044966692009
 21
192.3633892607985
 31
0.0
  0
LINE
  5
114F
330
1F
100
AcDbEntity
  8
AM_VIS
100
AcDbLine
 10
312.004496669201
 20
222.3633892607986
 30
0.0
 11
386.004496669201
 21
222.3633892607986
 31
0.0
  0
LINE
  5
1150
330
1F
100
AcDbEntity
  8
AM_VIS
100
AcDbLine
 10
375.504496669201
 20
209.8633892607986
 30
0.0
 11
375.504496669201
 21
204.8633892607985
 31
0.0
  0
LINE
  5
1151
330
1F
100
AcDbEntity
  8
AM_VIS
100
AcDbLine
 10
370.504496669201
 20
204.8633892607985
 30
0.0
 11
370.504496669201
 21
209.8633892607986
 31
0.0
  0
LINE
  5
1152
330
1F
100
AcDbEntity
  8
AM_VIS
100
AcDbLine
 10
351.504496669201
 20
210.3633892607986
 30
0.0
 11
351.504496669201
 21
204.3633892607986
 31
0.0
  0
LINE
  5
1153
330
1F
100
AcDbEntity
  8
AM_VIS
100
AcDbLine
 10
346.504496669201
 20
204.3633892607986
 30
0.0
 11
346.504496669201
 21
210.3633892607986
 31
0.0
  0
LINE
  5
1154
330
1F
100
AcDbEntity
  8
AM_VIS
100
AcDbLine
 10
327.504496669201
 20
209.8633892607986
 30
0.0
 11
327.504496669201
 21
204.8633892607985
 31
0.0
  0
LINE
  5
1155
330
1F
100
AcDbEntity
  8
AM_VIS
100
AcDbLine
 10
322.504496669201
 20
204.8633892607985
 30
0.0
 11
322.504496669201
 21
209.8633892607986
 31
0.0
  0
LINE
  5
1156
330
1F
100
AcDbEntity
  8
AM_VIS
100
AcDbLine
 10
386.0044966692009
 20
192.3633892607985
 30
0.0
 11
386.0044966692009
 21
222.3633892607986
 31
0.0
  0
LINE
  5
1157
330
1F
100
AcDbEntity
  8
AM_VIS
100
AcDbLine
 10
312.004496669201
 20
192.3633892607985
 30
0.0
 11
312.004496669201
 21
222.3633892607986
 31
0.0
  0
CIRCLE
  5
1158
330
1F
100
AcDbEntity
  8
AM_VIS
100
AcDbCircle
 10
326.504496669201
 20
207.3633892607986
 30
0.0
 40
5.776595
  0
CIRCLE
  5
1159
330
1F
100
AcDbEntity
  8
AM_VIS
100
AcDbCircle
 10
349.004496669201
 20
207.3633892607986
 30
0.0
 40
5.776595
  0
CIRCLE
  5
115A
330
1F
100
AcDbEntity
  8
AM_VIS
100
AcDbCircle
 10
326.504496669201
 20
207.3633892607986
 30
0.0
 40
6.976594999999998
  0
CIRCLE
  5
115B
330
1F
100
AcDbEntity
  8
AM_VIS
100
AcDbCircle
 10
349.004496669201
 20
207.3633892607986
 30
0.0
 40
6.976595
  0
CIRCLE
  5
115C
330
1F
100
AcDbEntity
  8
AM_VIS
100
AcDbCircle
 10
371.504496669201
 20
207.3633892607986
 30
0.0
 40
6.976594999999998
  0
CIRCLE
  5
115D
330
1F
100
AcDbEntity
  8
AM_VIS
100
AcDbCircle
 10
371.504496669201
 20
207.3633892607986
 30
0.0
 40
5.776595
  0
ARC
  5
115E
330
1F
100
AcDbEntity
  8
AM_VIS
100
AcDbCircle
 10
373.004496669201
 20
209.8633892607986
 30
0.0
 40
2.5
100
AcDbArc
 50
0.0
 51
180.0
  0
ARC
  5
115F
330
1F
100
AcDbEntity
  8
AM_VIS
100
AcDbCircle
 10
373.004496669201
 20
204.8633892607985
 30
0.0
 40
2.5
100
AcDbArc
 50
180.0
 51
0.0
  0
ARC
  5
1160
330
1F
100
AcDbEntity
  8
AM_VIS
100
AcDbCircle
 10
349.004496669201
 20
210.3633892607986
 30
0.0
 40
2.5
100
AcDbArc
 50
0.0
 51
180.0
  0
ARC
  5
1161
330
1F
100
AcDbEntity
  8
AM_VIS
100
AcDbCircle
 10
349.004496669201
 20
204.3633892607986
 30
0.0
 40
2.5
100
AcDbArc
 50
180.0
 51
0.0
  0
ARC
  5
1162
330
1F
100
AcDbEntity
  8
AM_VIS
100
AcDbCircle
 10
325.004496669201
 20
209.8633892607986
 30
0.0
 40
2.5
100
AcDbArc
 50
0.0
 51
180.0
  0
ARC
  5
1163
330
1F
100
AcDbEntity
  8
AM_VIS
100
AcDbCircle
 10
325.004496669201
 20
204.8633892607985
 30
0.0
 40
2.5
100
AcDbArc
 50
180.0
 51
0.0
  0
LINE
  5
1164
330
1F
100
AcDbEntity
  8
AM_VIS
100
AcDbLine
 10
394.004496669201
 20
146.5919281660855
 30
0.0
 11
394.004496669201
 21
149.7919281660856
 31
0.0
  0
LINE
  5
1165
330
1F
100
AcDbEntity
  8
AM_VIS
100
AcDbLine
 10
394.004496669201
 20
105.3919281660855
 30
0.0
 11
394.004496669201
 21
141.5919281660855
 31
0.0
  0
LINE
  5
1166
330
1F
100
AcDbEntity
  8
AM_VIS
100
AcDbLine
 10
389.004496669201
 20
150.7919281660856
 30
0.0
 11
393.004496669201
 21
150.7919281660856
 31
0.0
  0
LINE
  5
1167
330
1F
100
AcDbEntity
  8
AM_VIS
100
AcDbLine
 10
389.004496669201
 20
150.7919281660856
 30
0.0
 11
386.004496669201
 21
150.7919281660856
 31
0.0
  0
LINE
  5
1168
330
1F
100
AcDbEntity
  8
AM_VIS
100
AcDbLine
 10
390.004496669201
 20
143.5919281660856
 30
0.0
 11
390.004496669201
 21
144.2595474081477
 31
0.0
  0
LINE
  5
1169
330
1F
100
AcDbEntity
  8
AM_VIS
100
AcDbLine
 10
390.004496669201
 20
148.9243089240237
 30
0.0
 11
390.004496669201
 21
149.7919281660856
 31
0.0
  0
LINE
  5
116A
330
1F
100
AcDbEntity
  8
AM_VIS
100
AcDbLine
 10
393.004496669201
 20
142.5919281660855
 30
0.0
 11
391.004496669201
 21
142.5919281660855
 31
0.0
  0
LINE
  5
116B
330
1F
100
AcDbEntity
  8
AM_VIS
100
AcDbLine
 10
386.004496669201
 20
104.3919281660855
 30
0.0
 11
393.004496669201
 21
104.3919281660855
 31
0.0
  0
LINE
  5
116C
330
1F
100
AcDbEntity
  8
AM_VIS
100
AcDbLine
 10
386.004496669201
 20
105.3919281660855
 30
0.0
 11
386.004496669201
 21
149.7919281660855
 31
0.0
  0
ARC
  5
116D
330
1F
100
AcDbEntity
  8
AM_VIS
100
AcDbCircle
 10
393.004496669201
 20
149.7919281660856
 30
0.0
 40
1.0
100
AcDbArc
 50
0.0
 51
90.0
  0
LINE
  5
116E
330
1F
100
AcDbEntity
  8
AM_VIS
100
AcDbLine
 10
394.004496669201
 20
141.5919281660855
 30
0.0
 11
394.004496669201
 21
146.5919281660855
 31
0.0
  0
ARC
  5
116F
330
1F
100
AcDbEntity
  8
AM_VIS
100
AcDbCircle
 10
393.004496669201
 20
141.5919281660855
 30
0.0
 40
1.0
100
AcDbArc
 50
0.0
 51
90.0
  0
ARC
  5
1170
330
1F
100
AcDbEntity
  8
AM_VIS
100
AcDbCircle
 10
393.004496669201
 20
105.3919281660855
 30
0.0
 40
1.0
100
AcDbArc
 50
270.0
 51
0.0
  0
ARC
  5
1171
330
1F
100
AcDbEntity
  8
AM_VIS
100
AcDbCircle
 10
389.004496669201
 20
149.7919281660856
 30
0.0
 40
1.0
100
AcDbArc
 50
0.0
 51
90.0
  0
ARC
  5
1172
330
1F
100
AcDbEntity
  8
AM_VIS
100
AcDbCircle
 10
391.004496669201
 20
143.5919281660855
 30
0.0
 40
1.0
100
AcDbArc
 50
180.0
 51
270.0
  0
LINE
  5
1173
330
1F
100
AcDbEntity
  8
AM_VIS
100
AcDbLine
 10
238.504496669201
 20
80.5919281660857
 30
0.0
 11
244.004496669201
 21
80.5919281660857
 31
0.0
  0
LINE
  5
1174
330
1F
100
AcDbEntity
  8
AM_VIS
100
AcDbLine
 10
238.504496669201
 20
88.59192816608572
 30
0.0
 11
244.004496669201
 21
88.59192816608572
 31
0.0
  0
LINE
  5
1175
330
1F
100
AcDbEntity
  8
AM_VIS
100
AcDbLine
 10
238.504496669201
 20
86.10747262270857
 30
0.0
 11
244.004496669201
 21
86.10747262270857
 31
0.0
  0
LINE
  5
1176
330
1F
100
AcDbEntity
  8
AM_VIS
100
AcDbLine
 10
244.004496669201
 20
83.07638370946301
 30
0.0
 11
238.504496669201
 21
83.07638370946301
 31
0.0
  0
LINE
  5
1177
330
1F
100
AcDbEntity
  8
AM_VIS
100
AcDbLine
 10
238.504496669201
 20
83.75939641135522
 30
0.0
 11
244.004496669201
 21
83.75939641135522
 31
0.0
  0
LINE
  5
1178
330
1F
100
AcDbEntity
  8
AM_VIS
100
AcDbLine
 10
238.504496669201
 20
85.92445992081634
 30
0.0
 11
244.004496669201
 21
85.92445992081634
 31
0.0
  0
LINE
  5
1179
330
1F
100
AcDbEntity
  8
AM_VIS
100
AcDbLine
 10
244.004496669201
 20
80.5919281660857
 30
0.0
 11
244.004496669201
 21
83.07638370946301
 31
0.0
  0
LINE
  5
117A
330
1F
100
AcDbEntity
  8
AM_VIS
100
AcDbLine
 10
244.004496669201
 20
83.75939641135522
 30
0.0
 11
244.004496669201
 21
83.07638370946301
 31
0.0
  0
LINE
  5
117B
330
1F
100
AcDbEntity
  8
AM_VIS
100
AcDbLine
 10
244.004496669201
 20
85.92445992081634
 30
0.0
 11
244.004496669201
 21
83.75939641135522
 31
0.0
  0
LINE
  5
117C
330
1F
100
AcDbEntity
  8
AM_VIS
100
AcDbLine
 10
244.004496669201
 20
86.10747262270853
 30
0.0
 11
244.004496669201
 21
85.9244599208163
 31
0.0
  0
LINE
  5
117D
330
1F
100
AcDbEntity
  8
AM_VIS
100
AcDbLine
 10
244.004496669201
 20
86.10747262270853
 30
0.0
 11
244.004496669201
 21
88.59192816608572
 31
0.0
  0
LINE
  5
117E
330
1F
100
AcDbEntity
  8
AM_VIS
100
AcDbLine
 10
244.004496669201
 20
88.59192816608572
 30
0.0
 11
244.004496669201
 21
91.07638370946308
 31
0.0
  0
LINE
  5
117F
330
1F
100
AcDbEntity
  8
AM_VIS
100
AcDbLine
 10
238.504496669201
 20
96.59192816608573
 30
0.0
 11
244.004496669201
 21
96.59192816608573
 31
0.0
  0
LINE
  5
1180
330
1F
100
AcDbEntity
  8
AM_VIS
100
AcDbLine
 10
244.004496669201
 20
94.10747262270863
 30
0.0
 11
244.004496669201
 21
96.59192816608573
 31
0.0
  0
LINE
  5
1181
330
1F
100
AcDbEntity
  8
AM_VIS
100
AcDbLine
 10
238.504496669201
 20
88.59192816608572
 30
0.0
 11
238.504496669201
 21
91.07638370946308
 31
0.0
  0
LINE
  5
1182
330
1F
100
AcDbEntity
  8
AM_VIS
100
AcDbLine
 10
238.504496669201
 20
86.10747262270853
 30
0.0
 11
238.504496669201
 21
88.59192816608572
 31
0.0
  0
LINE
  5
1183
330
1F
100
AcDbEntity
  8
AM_VIS
100
AcDbLine
 10
238.504496669201
 20
85.9244599208163
 30
0.0
 11
238.504496669201
 21
86.10747262270853
 31
0.0
  0
LINE
  5
1184
330
1F
100
AcDbEntity
  8
AM_VIS
100
AcDbLine
 10
238.504496669201
 20
83.75939641135522
 30
0.0
 11
238.504496669201
 21
85.92445992081634
 31
0.0
  0
LINE
  5
1185
330
1F
100
AcDbEntity
  8
AM_VIS
100
AcDbLine
 10
238.504496669201
 20
83.07638370946301
 30
0.0
 11
238.504496669201
 21
83.75939641135522
 31
0.0
  0
LINE
  5
1186
330
1F
100
AcDbEntity
  8
AM_VIS
100
AcDbLine
 10
238.504496669201
 20
80.5919281660857
 30
0.0
 11
238.504496669201
 21
83.07638370946301
 31
0.0
  0
LINE
  5
1187
330
1F
100
AcDbEntity
  8
AM_VIS
100
AcDbLine
 10
238.504496669201
 20
94.10747262270863
 30
0.0
 11
238.504496669201
 21
96.59192816608573
 31
0.0
  0
LINE
  5
1188
330
1F
100
AcDbEntity
  8
AM_VIS
100
AcDbLine
 10
238.504496669201
 20
93.42445992081636
 30
0.0
 11
238.504496669201
 21
94.10747262270859
 31
0.0
  0
LINE
  5
1189
330
1F
100
AcDbEntity
  8
AM_VIS
100
AcDbLine
 10
238.504496669201
 20
94.10747262270872
 30
0.0
 11
244.004496669201
 21
94.10747262270872
 31
0.0
  0
LINE
  5
118A
330
1F
100
AcDbEntity
  8
AM_VIS
100
AcDbLine
 10
244.004496669201
 20
94.10747262270859
 30
0.0
 11
244.004496669201
 21
93.42445992081636
 31
0.0
  0
LINE
  5
118B
330
1F
100
AcDbEntity
  8
AM_VIS
100
AcDbLine
 10
244.004496669201
 20
91.07638370946304
 30
0.0
 11
238.504496669201
 21
91.07638370946304
 31
0.0
  0
LINE
  5
118C
330
1F
100
AcDbEntity
  8
AM_VIS
100
AcDbLine
 10
238.504496669201
 20
91.07638370946309
 30
0.0
 11
238.504496669201
 21
91.25939641135531
 31
0.0
  0
LINE
  5
118D
330
1F
100
AcDbEntity
  8
AM_VIS
100
AcDbLine
 10
244.004496669201
 20
91.25939641135529
 30
0.0
 11
244.004496669201
 21
91.07638370946308
 31
0.0
  0
LINE
  5
118E
330
1F
100
AcDbEntity
  8
AM_VIS
100
AcDbLine
 10
238.504496669201
 20
91.25939641135529
 30
0.0
 11
244.004496669201
 21
91.25939641135529
 31
0.0
  0
LINE
  5
118F
330
1F
100
AcDbEntity
  8
AM_VIS
100
AcDbLine
 10
238.504496669201
 20
91.25939641135529
 30
0.0
 11
238.504496669201
 21
93.42445992081636
 31
0.0
  0
LINE
  5
1190
330
1F
100
AcDbEntity
  8
AM_VIS
100
AcDbLine
 10
238.504496669201
 20
93.42445992081636
 30
0.0
 11
244.004496669201
 21
93.42445992081636
 31
0.0
  0
LINE
  5
1191
330
1F
100
AcDbEntity
  8
AM_VIS
100
AcDbLine
 10
244.004496669201
 20
93.42445992081636
 30
0.0
 11
244.004496669201
 21
91.25939641135529
 31
0.0
  0
LINE
  5
1192
330
1F
100
AcDbEntity
  8
AM_VIS
100
AcDbLine
 10
244.004496669201
 20
81.84192816608572
 30
0.0
 11
245.504496669201
 21
81.84192816608572
 31
0.0
  0
LINE
  5
1193
330
1F
100
AcDbEntity
  8
AM_VIS
100
AcDbLine
 10
244.004496669201
 20
95.34192816608571
 30
0.0
 11
245.504496669201
 21
95.34192816608571
 31
0.0
  0
ARC
  5
1194
330
1F
100
AcDbEntity
  8
AM_VIS
100
AcDbCircle
 10
228.2917354187329
 20
88.99173581984445
 30
0.0
 40
29.68201406216511
100
AcDbArc
 50
352.450295946057
 51
10.20159817035596
  0
ARC
  5
1195
330
1F
100
AcDbEntity
  8
AM_VIS
100
AcDbCircle
 10
260.477266450833
 20
84.61059357777784
 30
0.0
 40
2.802467679762796
100
AcDbArc
 50
170.1101932448585
 51
208.6337841175626
  0
LINE
  5
1196
330
1F
100
AcDbEntity
  8
AM_VIS
100
AcDbLine
 10
257.504496669201
 20
110.0919281660857
 30
0.0
 11
257.504496669201
 21
94.24878241557809
 31
0.0
  0
LINE
  5
1197
330
1F
100
AcDbEntity
  8
AM_VIS
100
AcDbLine
 10
261.0044966692011
 20
81.5919281660857
 30
0.0
 11
283.004496669201
 21
81.5919281660857
 31
0.0
  0
LINE
  5
1198
330
1F
100
AcDbEntity
  8
AM_VIS
100
AcDbLine
 10
286.504496669201
 20
85.09192816608566
 30
0.0
 11
286.504496669201
 21
104.7919281660856
 31
0.0
  0
LINE
  5
1199
330
1F
100
AcDbEntity
  8
AM_VIS
100
AcDbLine
 10
262.504496669201
 20
81.5919281660857
 30
0.0
 11
257.504496669201
 21
79.59192816608569
 31
0.0
  0
LINE
  5
119A
330
1F
100
AcDbEntity
  8
AM_VIS
100
AcDbLine
 10
257.504496669201
 20
97.59192816608569
 30
0.0
 11
245.504496669201
 21
97.59192816608569
 31
0.0
  0
LINE
  5
119B
330
1F
100
AcDbEntity
  8
AM_VIS
100
AcDbLine
 10
257.504496669201
 20
79.59192816608569
 30
0.0
 11
245.504496669201
 21
79.59192816608569
 31
0.0
  0
ARC
  5
119C
330
1F
100
AcDbEntity
  8
AM_VIS
100
AcDbCircle
 10
261.0044966692011
 20
85.09192816608569
 30
0.0
 40
3.5
100
AcDbArc
 50
211.4147677092387
 51
270.0
  0
LINE
  5
119D
330
1F
100
AcDbEntity
  8
AM_VIS
100
AcDbLine
 10
257.504496669201
 20
94.24878241557806
 30
0.0
 11
257.504496669201
 21
79.59192816608569
 31
0.0
  0
LINE
  5
119E
330
1F
100
AcDbEntity
  8
AM_VIS
100
AcDbLine
 10
245.504496669201
 20
79.59192816608569
 30
0.0
 11
245.504496669201
 21
97.59192816608569
 31
0.0
  0
ARC
  5
119F
330
1F
100
AcDbEntity
  8
AM_VIS
100
AcDbCircle
 10
283.004496669201
 20
85.09192816608569
 30
0.0
 40
3.5
100
AcDbArc
 50
270.0
 51
0.0
  0
LINE
  5
11A0
330
1F
100
AcDbEntity
  8
AM_VIS
100
AcDbLine
 10
250.1544966692009
 20
117.7539749957612
 30
0.0
 11
249.004496669201
 21
117.7539749957612
 31
0.0
  0
LINE
  5
11A1
330
1F
100
AcDbEntity
  8
AM_VIS
100
AcDbLine
 10
248.5005081936248
 20
118.3872066278695
 30
0.0
 11
249.0011684673898
 21
117.7513544207106
 31
0.0
  0
SPLINE
  5
11A2
330
1F
100
AcDbEntity
  8
AM_VIS
100
AcDbSpline
210
0.0
220
0.0
230
1.0
 70
     8
 71
     3
 72
     8
 73
     4
 74
     0
 42
0.0000000001
 43
0.0000000001
 40
7.860869802063005
 40
7.860869802063005
 40
7.860869802063005
 40
7.860869802063005
 40
8.796716660561699
 40
8.796716660561699
 40
8.796716660561699
 40
8.796716660561699
 10
248.504496669201
 20
120.9452443505621
 30
0.0
 10
248.6555357052353
 20
121.0177447875731
 30
0.0
 10
248.8246353209795
 20
121.0756381079989
 30
0.0
 10
249.004496669201
 20
121.1202094697287
 30
0.0
  0
LINE
  5
11A3
330
1F
100
AcDbEntity
  8
AM_VIS
100
AcDbLine
 10
249.004496669201
 20
121.1202094697287
 30
0.0
 11
250.1544966692009
 21
121.1202094697287
 31
0.0
  0
LINE
  5
11A4
330
1F
100
AcDbEntity
  8
AM_VIS
100
AcDbLine
 10
250.1544966692009
 20
134.0636468624426
 30
0.0
 11
249.004496669201
 21
134.0636468624426
 31
0.0
  0
SPLINE
  5
11A5
330
1F
100
AcDbEntity
  8
AM_VIS
100
AcDbSpline
210
0.0
220
0.0
230
1.0
 70
     8
 71
     3
 72
     8
 73
     4
 74
     0
 42
0.0000000001
 43
0.0000000001
 40
1.630155803927018
 40
1.630155803927018
 40
1.630155803927018
 40
1.630155803927018
 40
2.566002662426996
 40
2.566002662426996
 40
2.566002662426996
 40
2.566002662426996
 10
249.004496669201
 20
134.0636468624426
 30
0.0
 10
248.8246354360057
 20
134.1082181956679
 30
0.0
 10
248.6555358146323
 20
134.1661114920865
 30
0.0
 10
248.504496669201
 20
134.2386119816091
 30
0.0
  0
LINE
  5
11A6
330
1F
100
AcDbEntity
  8
AM_VIS
100
AcDbLine
 10
248.500508192618
 20
136.7966497051236
 30
0.0
 11
249.0011684692474
 21
137.4325019100223
 31
0.0
  0
LINE
  5
11A7
330
1F
100
AcDbEntity
  8
AM_VIS
100
AcDbLine
 10
249.004496669201
 20
137.4298813364101
 30
0.0
 11
250.1544966692009
 21
137.4298813364101
 31
0.0
  0
LINE
  5
11A8
330
1F
100
AcDbEntity
  8
AM_VIS
100
AcDbLine
 10
250.1544966692009
 20
124.2256936921182
 30
0.0
 11
249.004496669201
 21
124.2256936921182
 31
0.0
  0
SPLINE
  5
11A9
330
1F
100
AcDbEntity
  8
AM_VIS
100
AcDbSpline
210
0.0
220
0.0
230
1.0
 70
     8
 71
     3
 72
     8
 73
     4
 74
     0
 42
0.0000000001
 43
0.0000000001
 40
1.63015580392704
 40
1.63015580392704
 40
1.63015580392704
 40
1.63015580392704
 40
2.566002662427006
 40
2.566002662427006
 40
2.566002662427006
 40
2.566002662427006
 10
249.004496669201
 20
124.2256936921182
 30
0.0
 10
248.8246354360057
 20
124.4850706723427
 30
0.0
 10
248.6555358146323
 20
124.7562227702923
 30
0.0
 10
248.504496669201
 20
125.0370309078775
 30
0.0
  0
SPLINE
  5
11AA
330
1F
100
AcDbEntity
  8
AM_VIS
100
AcDbSpline
210
0.0
220
0.0
230
1.0
 70
     8
 71
     3
 72
     8
 73
     4
 74
     0
 42
0.0000000001
 43
0.0000000001
 40
7.860869802062977
 40
7.860869802062977
 40
7.860869802062977
 40
7.860869802062977
 40
8.796716660561656
 40
8.796716660561656
 40
8.796716660561656
 40
8.796716660561656
 10
248.504496669201
 20
130.1468254242939
 30
0.0
 10
248.6555357052353
 20
130.4276333584909
 30
0.0
 10
248.8246353209795
 20
130.6987854939501
 30
0.0
 10
249.004496669201
 20
130.9581626400532
 30
0.0
  0
LINE
  5
11AB
330
1F
100
AcDbEntity
  8
AM_VIS
100
AcDbLine
 10
249.004496669201
 20
130.9581626400532
 30
0.0
 11
250.1544966692009
 21
130.9581626400532
 31
0.0
  0
LINE
  5
11AC
330
1F
100
AcDbEntity
  8
AM_VIS
100
AcDbLine
 10
251.654496669201
 20
130.9581626400532
 30
0.0
 11
254.504496669201
 21
130.9581626400532
 31
0.0
  0
LINE
  5
11AD
330
1F
100
AcDbEntity
  8
AM_VIS
100
AcDbLine
 10
251.654496669201
 20
121.1202094697287
 30
0.0
 11
254.504496669201
 21
121.1202094697287
 31
0.0
  0
LINE
  5
11AE
330
1F
100
AcDbEntity
  8
AM_VIS
100
AcDbLine
 10
254.504496669201
 20
124.2256936921182
 30
0.0
 11
251.654496669201
 21
124.2256936921182
 31
0.0
  0
LINE
  5
11AF
330
1F
100
AcDbEntity
  8
AM_VIS
100
AcDbLine
 10
254.504496669201
 20
117.7539749957612
 30
0.0
 11
251.654496669201
 21
117.7539749957612
 31
0.0
  0
LINE
  5
11B0
330
1F
100
AcDbEntity
  8
AM_VIS
100
AcDbLine
 10
254.504496669201
 20
134.0636468624426
 30
0.0
 11
251.654496669201
 21
134.0636468624426
 31
0.0
  0
LINE
  5
11B1
330
1F
100
AcDbEntity
  8
AM_VIS
100
AcDbLine
 10
251.654496669201
 20
137.4298813364101
 30
0.0
 11
254.504496669201
 21
137.4298813364101
 31
0.0
  0
ARC
  5
11B2
330
1F
100
AcDbEntity
  8
AM_VIS
100
AcDbCircle
 10
241.2820384590446
 20
135.7467640994264
 30
0.0
 40
13.32915168916472
100
AcDbArc
 50
352.7457013204743
 51
7.254298679524063
  0
ARC
  5
11B3
330
1F
100
AcDbEntity
  8
AM_VIS
100
AcDbCircle
 10
241.2820384590436
 20
119.437092232745
 30
0.0
 40
13.32915168916568
100
AcDbArc
 50
352.7457013204759
 51
7.254298679524063
  0
SPLINE
  5
11B4
330
1F
100
AcDbEntity
  8
AM_VIS
100
AcDbSpline
210
0.0
220
0.0
230
1.0
 70
     8
 71
     3
 72
    14
 73
    10
 74
     0
 42
0.0000000001
 43
0.0000000001
 40
13.28006742556183
 40
13.28006742556183
 40
13.28006742556183
 40
13.28006742556183
 40
14.27448381305591
 40
14.27448381305591
 40
16.65382904986477
 40
16.65382904986477
 40
19.03317428667361
 40
19.03317428667361
 40
20.02759067416768
 40
20.02759067416768
 40
20.02759067416768
 40
20.02759067416768
 10
254.504496669201
 20
130.9581626400532
 30
0.0
 10
254.5222426443199
 20
130.6382703711834
 30
0.0
 10
254.5380182380234
 20
130.3123019172826
 30
0.0
 10
254.5832270499338
 20
129.1943085856549
 30
0.0
 10
254.6004966692009
 20
128.3850432450219
 30
0.0
 10
254.6004966692009
 20
126.7988130871494
 30
0.0
 10
254.5832270499338
 20
125.9895477465165
 30
0.0
 10
254.5380182380234
 20
124.8715544148888
 30
0.0
 10
254.5222426443199
 20
124.545585960988
 30
0.0
 10
254.504496669201
 20
124.2256936921182
 30
0.0
  0
SPLINE
  5
11B5
330
1F
100
AcDbEntity
  8
AM_VIS
100
AcDbSpline
210
0.0
220
0.0
230
1.0
 70
    11
 71
     3
 72
    58
 73
    54
 74
     0
 42
0.0000000001
 43
0.0000000001
 40
-3.363896419255587
 40
-3.363896419255587
 40
-3.363896419255587
 40
-3.363896419255587
 40
-3.330080057210193
 40
-3.330080057210193
 40
-3.276087946180991
 40
-3.276087946180991
 40
-3.130129325405927
 40
-3.130129325405927
 40
-2.864475625747458
 40
-2.864475625747458
 40
-2.670984402726474
 40
-2.670984402726474
 40
-2.529876972632633
 40
-2.529876972632633
 40
-2.39414607930529
 40
-2.39414607930529
 40
-2.234845146690002
 40
-2.234845146690002
 40
-1.995446372975766
 40
-1.995446372975766
 40
-1.792732498499779
 40
-1.792732498499779
 40
-1.655061186031255
 40
-1.655061186031255
 40
-1.604023047347052
 40
-1.604023047347052
 40
-1.569394244758093
 40
-1.569394244758093
 40
-1.535224675064294
 40
-1.535224675064294
 40
-1.486406949001721
 40
-1.486406949001721
 40
-1.367760828147406
 40
-1.367760828147406
 40
-1.211422564713941
 40
-1.211422564713941
 40
-1.00947781381898
 40
-1.00947781381898
 40
-0.8308451467036132
 40
-0.8308451467036132
 40
-0.6546659190622926
 40
-0.6546659190622926
 40
-0.4706948992192896
 40
-0.4706948992192896
 40
-0.3083260207238461
 40
-0.3083260207238461
 40
-0.1833529844742129
 40
-0.1833529844742129
 40
-0.0782943285735388
 40
-0.0782943285735388
 40
-0.0333492537450304
 40
-0.0333492537450304
 40
0.0
 40
0.0
 40
0.0
 40
0.0
 10
250.404496669201
 20
121.4693256084512
 30
0.0
 10
250.404496669201
 20
121.4728257327869
 30
0.0
 10
250.4048408229345
 20
121.4766429155234
 30
0.0
 10
250.4065735254715
 20
121.4873132603041
 30
0.0
 10
250.408456329769
 20
121.4945845038621
 30
0.0
 10
250.4180936483606
 20
121.5236068346206
 30
0.0
 10
250.4304227266049
 20
121.5490594394898
 30
0.0
 10
250.4758750789115
 20
121.6243157378862
 30
0.0
 10
250.5194151261194
 20
121.6796286916054
 30
0.0
 10
250.6142430701709
 20
121.7635887829313
 30
0.0
 10
250.6616429509184
 20
121.7967443080363
 30
0.0
 10
250.7552850643494
 20
121.8395022749191
 30
0.0
 10
250.7980197511852
 20
121.8528655880612
 30
0.0
 10
250.8868319344376
 20
121.8655675799382
 30
0.0
 10
250.9305819422232
 20
121.8651043938245
 30
0.0
 10
251.0243790374517
 20
121.8499133678249
 30
0.0
 10
251.071371244532
 20
121.833211495566
 30
0.0
 10
251.1777955539572
 20
121.7787578007931
 30
0.0
 10
251.2326894503127
 20
121.7340663394326
 30
0.0
 10
251.3143090832705
 20
121.6478616900647
 30
0.0
 10
251.3447239326131
 20
121.6062040396226
 30
0.0
 10
251.3813146243782
 20
121.5435799078538
 30
0.0
 10
251.3924787875197
 20
121.5197009741501
 30
0.0
 10
251.4010921964494
 20
121.4925184077348
 30
0.0
 10
251.4027482264096
 20
121.4857279398451
 30
0.0
 10
251.4042855919783
 20
121.475451652479
 30
0.0
 10
251.4045644182592
 20
121.4716168807574
 30
0.0
 10
251.4044022360614
 20
121.4646750390215
 30
0.0
 10
251.4039710052011
 20
121.4615691487448
 30
0.0
 10
251.4020372402437
 20
121.4548789299525
 30
0.0
 10
251.4001617895146
 20
121.4516829183164
 30
0.0
 10
251.3910908784155
 20
121.4432093794365
 30
0.0
 10
251.3803075496173
 20
121.4416833362966
 30
0.0
 10
251.345377054154
 20
121.4456895366341
 30
0.0
 10
251.318569425597
 20
121.4534517482386
 30
0.0
 10
251.2443018382358
 20
121.4749582616994
 30
0.0
 10
251.1918027628683
 20
121.4901581682414
 30
0.0
 10
251.0759230492502
 20
121.5129507004656
 30
0.0
 10
251.0168072394745
 20
121.5207059608263
 30
0.0
 10
250.8950323344275
 20
121.5261650552274
 30
0.0
 10
250.8344538918247
 20
121.5239266767719
 30
0.0
 10
250.7154648116464
 20
121.5105257050703
 30
0.0
 10
250.6589896124983
 20
121.4991504146831
 30
0.0
 10
250.5654067022081
 20
121.4756338430173
 30
0.0
 10
250.5271248330463
 20
121.4638427089712
 30
0.0
 10
250.4717731147961
 20
121.4484033118783
 30
0.0
 10
250.45195630039
 20
121.4435922992782
 30
0.0
 10
250.4244479223363
 20
121.4422134736215
 30
0.0
 10
250.4155764893686
 20
121.4444961120337
 30
0.0
 10
250.4080306568367
 20
121.4529613221361
 30
0.0
 10
250.4064557018143
 20
121.4561295967077
 30
0.0
 10
250.4048312982061
 20
121.4627324591776
 30
0.0
 10
250.404496669201
 20
121.4658738316323
 30
0.0
 10
250.404496669201
 20
121.4693256084512
 30
0.0
  0
CIRCLE
  5
11B6
330
1F
100
AcDbEntity
  8
AM_VIS
100
AcDbCircle
 10
250.904496669201
 20
126.3419281660856
 30
0.0
 40
0.4999999999999995
  0
SPLINE
  5
11B7
330
1F
100
AcDbEntity
  8
AM_VIS
100
AcDbSpline
210
0.0
220
0.0
230
1.0
 70
    11
 71
     3
 72
    58
 73
    54
 74
     0
 42
0.0000000001
 43
0.0000000001
 40
-3.310941722020734
 40
-3.310941722020734
 40
-3.310941722020734
 40
-3.310941722020734
 40
-3.295630163505362
 40
-3.295630163505362
 40
-3.25888521683784
 40
-3.25888521683784
 40
-3.197166102513703
 40
-3.197166102513703
 40
-3.038165220175974
 40
-3.038165220175974
 40
-2.856291614867816
 40
-2.856291614867816
 40
-2.666842086896373
 40
-2.666842086896373
 40
-2.492578752008394
 40
-2.492578752008394
 40
-2.312125783734214
 40
-2.312125783734214
 40
-2.13451249378157
 40
-2.13451249378157
 40
-1.991913706757117
 40
-1.991913706757117
 40
-1.842368186774402
 40
-1.842368186774402
 40
-1.791323432477104
 40
-1.791323432477104
 40
-1.757111173270509
 40
-1.757111173270509
 40
-1.723565230364853
 40
-1.723565230364853
 40
-1.676146471114944
 40
-1.676146471114944
 40
-1.5592641658533
 40
-1.5592641658533
 40
-1.304423753588805
 40
-1.304423753588805
 40
-1.102534997063944
 40
-1.102534997063944
 40
-0.9616332280833521
 40
-0.9616332280833521
 40
-0.8335600122414829
 40
-0.8335600122414829
 40
-0.6887403587885041
 40
-0.6887403587885041
 40
-0.4760113448049901
 40
-0.4760113448049901
 40
-0.2570316117964575
 40
-0.2570316117964575
 40
-0.0905362468527244
 40
-0.0905362468527244
 40
-0.0354113089023832
 40
-0.0354113089023832
 40
0.0
 40
0.0
 40
0.0
 40
0.0
 10
250.404496669201
 20
133.71453072372
 30
0.0
 10
250.404496669201
 20
133.7161155292796
 30
0.0
 10
250.4045672690657
 20
133.7176340421169
 30
0.0
 10
250.4050535398235
 20
133.722565665562
 30
0.0
 10
250.4058120179201
 20
133.7256394736689
 30
0.0
 10
250.4090053759125
 20
133.7327646944947
 30
0.0
 10
250.4122085801877
 20
133.7360173173415
 30
0.0
 10
250.4281487906953
 20
133.7435496487753
 30
0.0
 10
250.4474961831413
 20
133.741099945152
 30
0.0
 10
250.5040707996821
 20
133.7271039998825
 30
0.0
 10
250.5437842357871
 20
133.7143265614798
 30
0.0
 10
250.6421939591565
 20
133.688439114601
 30
0.0
 10
250.7000070929652
 20
133.6759045303953
 30
0.0
 10
250.8200035668523
 20
133.6609492565604
 30
0.0
 10
250.8799861416497
 20
133.6579392796608
 30
0.0
 10
251.0021665226652
 20
133.6617533363287
 30
0.0
 10
251.0622069832636
 20
133.6688684037166
 30
0.0
 10
251.1721165500535
 20
133.6893105795466
 30
0.0
 10
251.2212418817957
 20
133.7023885592006
 30
0.0
 10
251.2960515409283
 20
133.7237926777371
 30
0.0
 10
251.3244662608674
 20
133.7325062516799
 30
0.0
 10
251.370452857724
 20
133.742349371028
 30
0.0
 10
251.3869721563915
 20
133.742853168724
 30
0.0
 10
251.3992563547247
 20
133.733417803571
 30
0.0
 10
251.4014742969128
 20
133.7301855782496
 30
0.0
 10
251.403754864212
 20
133.7233888298517
 30
0.0
 10
251.404281510978
 20
133.7203009423746
 30
0.0
 10
251.4046012783591
 20
133.7135041266061
 30
0.0
 10
251.4044079450938
 20
133.7098188173622
 30
0.0
 10
251.4031508354567
 20
133.7002139416093
 30
0.0
 10
251.4017622535159
 20
133.6940142795713
 30
0.0
 10
251.3949240580286
 20
133.6708735983125
 30
0.0
 10
251.3865045828767
 20
133.6514755514634
 30
0.0
 10
251.3511511942011
 20
133.585620955822
 30
0.0
 10
251.3125708492025
 20
133.5314481032911
 30
0.0
 10
251.2224365127879
 20
133.4419468311411
 30
0.0
 10
251.1739323347812
 20
133.4036869454452
 30
0.0
 10
251.0780686290415
 20
133.3537067262225
 30
0.0
 10
251.0348133411799
 20
133.3375018931008
 30
0.0
 10
250.9462259598984
 20
133.3200732965184
 30
0.0
 10
250.9032337742281
 20
133.3179872043927
 30
0.0
 10
250.8115284162898
 20
133.327462797876
 30
0.0
 10
250.7656375743926
 20
133.340533597022
 30
0.0
 10
250.6612076028142
 20
133.3861626611743
 30
0.0
 10
250.6079186891436
 20
133.4244076912765
 30
0.0
 10
250.5192593253573
 20
133.5062498438285
 30
0.0
 10
250.4825376948766
 20
133.5518629349574
 30
0.0
 10
250.4353241414758
 20
133.6250207497936
 30
0.0
 10
250.4199025666804
 20
133.6554074358029
 30
0.0
 10
250.4087528545501
 20
133.6882006472889
 30
0.0
 10
250.4067509226625
 20
133.6957337999255
 30
0.0
 10
250.4048740609238
 20
133.7068467651887
 30
0.0
 10
250.404496669201
 20
133.7108655162124
 30
0.0
 10
250.404496669201
 20
133.71453072372
 30
0.0
  0
CIRCLE
  5
11B8
330
1F
100
AcDbEntity
  8
AM_VIS
100
AcDbCircle
 10
250.904496669201
 20
128.8419281660856
 30
0.0
 40
0.5000000000000019
  0
ARC
  5
11B9
330
1F
100
AcDbEntity
  8
AM_VIS
100
AcDbCircle
 10
250.904496669201
 20
120.6640469223732
 30
0.0
 40
0.697903929099588
100
AcDbArc
 50
44.23940327711379
 51
135.7605967228885
  0
ARC
  5
11BA
330
1F
100
AcDbEntity
  8
AM_VIS
100
AcDbCircle
 10
250.904496669201
 20
134.5197910317945
 30
0.0
 40
0.6978911076631097
100
AcDbArc
 50
224.2383223220011
 51
315.7616776780064
  0
LINE
  5
11BB
330
1F
100
AcDbEntity
  8
AM_VIS
100
AcDbLine
 10
248.504496669201
 20
118.0919281660856
 30
0.0
 11
249.004496669201
 21
117.5919281660856
 31
0.0
  0
LINE
  5
11BC
330
1F
100
AcDbEntity
  8
AM_VIS
100
AcDbLine
 10
248.504496669201
 20
137.0919281660856
 30
0.0
 11
249.004496669201
 21
137.5919281660856
 31
0.0
  0
LINE
  5
11BD
330
1F
100
AcDbEntity
  8
AM_VIS
100
AcDbLine
 10
250.1544966692009
 20
117.5919281660856
 30
0.0
 11
249.004496669201
 21
117.5919281660856
 31
0.0
  0
LINE
  5
11BE
330
1F
100
AcDbEntity
  8
AM_VIS
100
AcDbLine
 10
250.1544966692009
 20
137.5919281660856
 30
0.0
 11
249.004496669201
 21
137.5919281660856
 31
0.0
  0
LINE
  5
11BF
330
1F
100
AcDbEntity
  8
AM_VIS
100
AcDbLine
 10
254.504496669201
 20
117.5919281660856
 30
0.0
 11
251.654496669201
 21
117.5919281660856
 31
0.0
  0
LINE
  5
11C0
330
1F
100
AcDbEntity
  8
AM_VIS
100
AcDbLine
 10
254.504496669201
 20
137.5919281660856
 30
0.0
 11
251.654496669201
 21
137.5919281660856
 31
0.0
  0
LINE
  5
11C1
330
1F
100
AcDbEntity
  8
AM_VIS
100
AcDbLine
 10
254.704496669201
 20
135.0919281660856
 30
0.0
 11
254.504496669201
 21
137.5919281660856
 31
0.0
  0
LINE
  5
11C2
330
1F
100
AcDbEntity
  8
AM_VIS
100
AcDbLine
 10
254.704496669201
 20
120.0919281660856
 30
0.0
 11
254.504496669201
 21
117.5919281660856
 31
0.0
  0
LINE
  5
11C3
330
1F
100
AcDbEntity
  8
AM_VIS
100
AcDbLine
 10
255.504496669201
 20
120.0919281660856
 30
0.0
 11
256.004496669201
 21
117.5919281660856
 31
0.0
  0
LINE
  5
11C4
330
1F
100
AcDbEntity
  8
AM_VIS
100
AcDbLine
 10
255.504496669201
 20
135.0919281660856
 30
0.0
 11
256.004496669201
 21
137.5919281660856
 31
0.0
  0
LINE
  5
11C5
330
1F
100
AcDbEntity
  8
AM_VIS
100
AcDbLine
 10
255.504496669201
 20
135.0919281660856
 30
0.0
 11
254.704496669201
 21
135.0919281660856
 31
0.0
  0
LINE
  5
11C6
330
1F
100
AcDbEntity
  8
AM_VIS
100
AcDbLine
 10
255.504496669201
 20
120.0919281660856
 30
0.0
 11
254.704496669201
 21
120.0919281660856
 31
0.0
  0
LINE
  5
11C7
330
1F
100
AcDbEntity
  8
AM_VIS
100
AcDbLine
 10
256.504496669201
 20
137.5919281660856
 30
0.0
 11
256.004496669201
 21
137.5919281660856
 31
0.0
  0
LINE
  5
11C8
330
1F
100
AcDbEntity
  8
AM_VIS
100
AcDbLine
 10
256.504496669201
 20
117.5919281660856
 30
0.0
 11
256.004496669201
 21
117.5919281660856
 31
0.0
  0
LINE
  5
11C9
330
1F
100
AcDbEntity
  8
AM_VIS
100
AcDbLine
 10
249.004496669201
 20
134.0636468624426
 30
0.0
 11
249.004496669201
 21
130.9581626400532
 31
0.0
  0
LINE
  5
11CA
330
1F
100
AcDbEntity
  8
AM_VIS
100
AcDbLine
 10
249.004496669201
 20
124.2256936921182
 30
0.0
 11
249.004496669201
 21
121.1202094697288
 31
0.0
  0
LINE
  5
11CB
330
1F
100
AcDbEntity
  8
AM_VIS
100
AcDbLine
 10
249.004496669201
 20
117.7539749957612
 30
0.0
 11
249.004496669201
 21
117.5919281660856
 31
0.0
  0
LINE
  5
11CC
330
1F
100
AcDbEntity
  8
AM_VIS
100
AcDbLine
 10
249.004496669201
 20
137.5919281660856
 30
0.0
 11
249.004496669201
 21
137.4298813364101
 31
0.0
  0
LINE
  5
11CD
330
1F
100
AcDbEntity
  8
AM_VIS
100
AcDbLine
 10
250.1544966692009
 20
134.0636468624426
 30
0.0
 11
250.1544966692009
 21
130.9581626400532
 31
0.0
  0
LINE
  5
11CE
330
1F
100
AcDbEntity
  8
AM_VIS
100
AcDbLine
 10
250.1544966692009
 20
134.0636468624426
 30
0.0
 11
250.1544966692009
 21
137.4298813364102
 31
0.0
  0
LINE
  5
11CF
330
1F
100
AcDbEntity
  8
AM_VIS
100
AcDbLine
 10
250.1544966692009
 20
137.5919281660856
 30
0.0
 11
250.1544966692009
 21
137.4298813364101
 31
0.0
  0
LINE
  5
11D0
330
1F
100
AcDbEntity
  8
AM_VIS
100
AcDbLine
 10
250.1544966692009
 20
117.7539749957612
 30
0.0
 11
250.1544966692009
 21
117.5919281660856
 31
0.0
  0
LINE
  5
11D1
330
1F
100
AcDbEntity
  8
AM_VIS
100
AcDbLine
 10
250.1544966692009
 20
117.7539749957613
 30
0.0
 11
250.1544966692009
 21
121.1202094697288
 31
0.0
  0
LINE
  5
11D2
330
1F
100
AcDbEntity
  8
AM_VIS
100
AcDbLine
 10
250.1544966692009
 20
124.2256936921182
 30
0.0
 11
250.1544966692009
 21
121.1202094697288
 31
0.0
  0
LINE
  5
11D3
330
1F
100
AcDbEntity
  8
AM_VIS
100
AcDbLine
 10
250.1544966692009
 20
124.2256936921181
 30
0.0
 11
250.1544966692009
 21
130.9581626400533
 31
0.0
  0
LINE
  5
11D4
330
1F
100
AcDbEntity
  8
AM_VIS
100
AcDbLine
 10
251.654496669201
 20
121.1202094697288
 30
0.0
 11
251.654496669201
 21
117.7539749957613
 31
0.0
  0
LINE
  5
11D5
330
1F
100
AcDbEntity
  8
AM_VIS
100
AcDbLine
 10
251.654496669201
 20
130.9581626400532
 30
0.0
 11
251.654496669201
 21
124.225693692118
 31
0.0
  0
LINE
  5
11D6
330
1F
100
AcDbEntity
  8
AM_VIS
100
AcDbLine
 10
251.654496669201
 20
130.9581626400532
 30
0.0
 11
251.654496669201
 21
134.0636468624426
 31
0.0
  0
LINE
  5
11D7
330
1F
100
AcDbEntity
  8
AM_VIS
100
AcDbLine
 10
251.654496669201
 20
121.1202094697288
 30
0.0
 11
251.654496669201
 21
124.2256936921182
 31
0.0
  0
LINE
  5
11D8
330
1F
100
AcDbEntity
  8
AM_VIS
100
AcDbLine
 10
251.654496669201
 20
117.5919281660856
 30
0.0
 11
251.654496669201
 21
117.7539749957612
 31
0.0
  0
LINE
  5
11D9
330
1F
100
AcDbEntity
  8
AM_VIS
100
AcDbLine
 10
251.654496669201
 20
137.4298813364101
 30
0.0
 11
251.654496669201
 21
137.5919281660856
 31
0.0
  0
LINE
  5
11DA
330
1F
100
AcDbEntity
  8
AM_VIS
100
AcDbLine
 10
251.654496669201
 20
137.4298813364101
 30
0.0
 11
251.654496669201
 21
134.0636468624426
 31
0.0
  0
LINE
  5
11DB
330
1F
100
AcDbEntity
  8
AM_VIS
100
AcDbLine
 10
254.504496669201
 20
134.0636468624426
 30
0.0
 11
254.504496669201
 21
130.9581626400532
 31
0.0
  0
LINE
  5
11DC
330
1F
100
AcDbEntity
  8
AM_VIS
100
AcDbLine
 10
254.504496669201
 20
137.5919281660856
 30
0.0
 11
254.504496669201
 21
137.4298813364101
 31
0.0
  0
LINE
  5
11DD
330
1F
100
AcDbEntity
  8
AM_VIS
100
AcDbLine
 10
254.504496669201
 20
117.7539749957612
 30
0.0
 11
254.504496669201
 21
117.5919281660856
 31
0.0
  0
LINE
  5
11DE
330
1F
100
AcDbEntity
  8
AM_VIS
100
AcDbLine
 10
254.504496669201
 20
124.2256936921182
 30
0.0
 11
254.504496669201
 21
121.1202094697288
 31
0.0
  0
LINE
  5
11DF
330
1F
100
AcDbEntity
  8
AM_VIS
100
AcDbLine
 10
254.704496669201
 20
135.0919281660856
 30
0.0
 11
254.704496669201
 21
120.0919281660856
 31
0.0
  0
LINE
  5
11E0
330
1F
100
AcDbEntity
  8
AM_VIS
100
AcDbLine
 10
255.504496669201
 20
135.0919281660856
 30
0.0
 11
255.504496669201
 21
120.0919281660856
 31
0.0
  0
LINE
  5
11E1
330
1F
100
AcDbEntity
  8
AM_VIS
100
AcDbLine
 10
256.004496669201
 20
117.5919281660856
 30
0.0
 11
256.004496669201
 21
137.5919281660856
 31
0.0
  0
LINE
  5
11E2
330
1F
100
AcDbEntity
  8
AM_VIS
100
AcDbLine
 10
248.504496669201
 20
136.7935092398174
 30
0.0
 11
248.504496669201
 21
137.0919281660856
 31
0.0
  0
LINE
  5
11E3
330
1F
100
AcDbEntity
  8
AM_VIS
100
AcDbLine
 10
248.504496669201
 20
134.2386119816092
 30
0.0
 11
248.504496669201
 21
136.7935092398175
 31
0.0
  0
LINE
  5
11E4
330
1F
100
AcDbEntity
  8
AM_VIS
100
AcDbLine
 10
248.504496669201
 20
130.1468254242939
 30
0.0
 11
248.504496669201
 21
134.2386119816092
 31
0.0
  0
LINE
  5
11E5
330
1F
100
AcDbEntity
  8
AM_VIS
100
AcDbLine
 10
248.504496669201
 20
125.0370309078774
 30
0.0
 11
248.504496669201
 21
130.146825424294
 31
0.0
  0
LINE
  5
11E6
330
1F
100
AcDbEntity
  8
AM_VIS
100
AcDbLine
 10
248.504496669201
 20
120.9452443505622
 30
0.0
 11
248.504496669201
 21
125.0370309078775
 31
0.0
  0
LINE
  5
11E7
330
1F
100
AcDbEntity
  8
AM_VIS
100
AcDbLine
 10
248.504496669201
 20
118.390347092354
 30
0.0
 11
248.504496669201
 21
120.9452443505622
 31
0.0
  0
LINE
  5
11E8
330
1F
100
AcDbEntity
  8
AM_VIS
100
AcDbLine
 10
248.504496669201
 20
118.0919281660856
 30
0.0
 11
248.504496669201
 21
118.3903470923539
 31
0.0
  0
ARC
  5
11E9
330
1F
100
AcDbEntity
  8
AM_VIS
100
AcDbCircle
 10
250.904496669201
 20
120.5919281660856
 30
0.0
 40
0.75
100
AcDbArc
 50
0.0
 51
48.18968510421928
  0
ARC
  5
11EA
330
1F
100
AcDbEntity
  8
AM_VIS
100
AcDbCircle
 10
250.904496669201
 20
120.5919281660856
 30
0.0
 40
0.75
100
AcDbArc
 50
131.8103148957807
 51
180.0
  0
ARC
  5
11EB
330
1F
100
AcDbEntity
  8
AM_VIS
100
AcDbCircle
 10
250.904496669201
 20
134.5919281660856
 30
0.0
 40
0.75
100
AcDbArc
 50
180.0
 51
228.1896851042198
  0
ARC
  5
11EC
330
1F
100
AcDbEntity
  8
AM_VIS
100
AcDbCircle
 10
250.904496669201
 20
134.5919281660856
 30
0.0
 40
0.75
100
AcDbArc
 50
311.8103148957802
 51
0.0
  0
LINE
  5
11ED
330
1F
100
AcDbEntity
  8
AM_VIS
100
AcDbLine
 10
286.004496669201
 20
110.0919281660856
 30
0.0
 11
256.504496669201
 21
110.0919281660856
 31
0.0
  0
LINE
  5
11EE
330
1F
100
AcDbEntity
  8
AM_VIS
100
AcDbLine
 10
256.504496669201
 20
134.5919281660856
 30
0.0
 11
256.504496669201
 21
110.0919281660856
 31
0.0
  0
LINE
  5
11EF
330
1F
100
AcDbEntity
  8
AM_VIS
100
AcDbLine
 10
286.004496669201
 20
138.5919281660856
 30
0.0
 11
256.504496669201
 21
138.5919281660856
 31
0.0
  0
LINE
  5
11F0
330
1F
100
AcDbEntity
  8
AM_VIS
100
AcDbLine
 10
256.504496669201
 20
134.5919281660856
 30
0.0
 11
256.504496669201
 21
138.5919281660856
 31
0.0
  0
LINE
  5
11F1
330
1F
100
AcDbEntity
  8
AM_VIS
100
AcDbLine
 10
390.0044966692009
 20
150.3498448196135
 30
0.0
 11
390.0044966692009
 21
150.388388854974
 31
0.0
  0
ELLIPSE
  5
11F2
330
1F
100
AcDbEntity
  8
AM_VIS
100
AcDbEllipse
 10
390.4550011853101
 20
146.5919281660856
 30
0.0
 11
10.44041419392712
 21
0.0
 31
-0.0000000000000001
210
0.0
220
0.0
230
1.0
 40
0.363970234266219
 41
1.51814041853333
 42
1.613959790059094
  0
ELLIPSE
  5
11F3
330
1F
100
AcDbEntity
  8
AM_VIS
100
AcDbEllipse
 10
391.5539921530919
 20
146.5919281660856
 30
0.0
 11
10.44041419392712
 21
0.0
 31
-0.0000000000000001
210
0.0
220
0.0
230
1.0
 40
0.363970234266219
 41
1.623452235056462
 42
1.719759855494742
  0
LINE
  5
11F4
330
1F
100
AcDbEntity
  8
AM_VIS
100
AcDbLine
 10
390.4044966692008
 20
142.7919281660856
 30
0.0
 11
391.004496669201
 21
142.7919281660856
 31
0.0
  0
LINE
  5
11F5
330
1F
100
AcDbEntity
  8
AM_VIS
100
AcDbLine
 10
390.0044966692009
 20
150.3919281660857
 30
0.0
 11
390.4550011853101
 21
150.3919281660857
 31
0.0
  0
LINE
  5
11F6
330
1F
100
AcDbEntity
  8
AM_VIS
100
AcDbLine
 10
390.0044966692009
 20
149.7919281660856
 30
0.0
 11
390.0044966692009
 21
150.3498448196135
 31
0.0
  0
LINE
  5
11F7
330
1F
100
AcDbEntity
  8
AM_VIS
100
AcDbLine
 10
390.0044966692009
 20
144.2595474081477
 30
0.0
 11
390.0044966692009
 21
148.9243089240236
 31
0.0
  0
LINE
  5
11F8
330
1F
100
AcDbEntity
  8
AM_VIS
100
AcDbLine
 10
390.0044966692009
 20
150.388388854974
 30
0.0
 11
390.0044966692009
 21
150.3919281660857
 31
0.0
  0
LINE
  5
11F9
330
1F
100
AcDbEntity
  8
AM_VIS
100
AcDbLine
 10
392.0634341813288
 20
150.4992831383922
 30
0.0
 11
391.004496669201
 21
150.5919281660856
 31
0.0
  0
LINE
  5
11FA
330
1F
100
AcDbEntity
  8
AM_VIS
100
AcDbLine
 10
392.0634341813288
 20
142.6845731937791
 30
0.0
 11
391.004496669201
 21
142.5919281660856
 31
0.0
  0
LINE
  5
11FB
330
1F
100
AcDbEntity
  8
AM_VIS
100
AcDbLine
 10
391.004496669201
 20
142.5919281660856
 30
0.0
 11
391.004496669201
 21
150.5919281660856
 31
0.0
  0
LINE
  5
11FC
330
1F
100
AcDbEntity
  8
AM_VIS
100
AcDbLine
 10
393.9950096376566
 20
147.0869281660856
 30
0.0
 11
393.7055396935519
 21
147.0869281660856
 31
0.0
  0
ELLIPSE
  5
11FD
330
1F
100
AcDbEntity
  8
AM_VIS
100
AcDbEllipse
 10
389.113467998226
 20
146.5919281660856
 30
0.0
 11
0.0
 21
6.073381703024882
 31
0.0
210
0.0
220
0.0
230
1.0
 40
0.7586218633400588
 41
4.630795282261959
 42
4.793982678507419
  0
ARC
  5
11FE
330
1F
100
AcDbEntity
  8
AM_VIS
100
AcDbCircle
 10
387.604496669201
 20
146.5919281660856
 30
0.0
 40
6.48112451662503
100
AcDbArc
 50
9.592051642237924
 51
19.71952341530071
  0
LINE
  5
11FF
330
1F
100
AcDbEntity
  8
AM_VIS
100
AcDbLine
 10
393.7055396935518
 20
144.4050927779007
 30
0.0
 11
393.7208681425502
 21
144.3919281660856
 31
0.0
  0
LINE
  5
1200
330
1F
100
AcDbEntity
  8
AM_VIS
100
AcDbLine
 10
393.7208681425502
 20
148.7919281660857
 30
0.0
 11
393.7055396935518
 21
148.7787635542706
 31
0.0
  0
ARC
  5
1201
330
1F
100
AcDbEntity
  8
AM_VIS
100
AcDbCircle
 10
387.604496669201
 20
146.5919281660856
 30
0.0
 40
6.48112451662503
100
AcDbArc
 50
340.2804765846993
 51
350.4079483577621
  0
LINE
  5
1202
330
1F
100
AcDbEntity
  8
AM_VIS
100
AcDbLine
 10
393.7055396935519
 20
146.0969281660856
 30
0.0
 11
393.9950096376566
 21
146.0969281660856
 31
0.0
  0
LINE
  5
1203
330
1F
100
AcDbEntity
  8
AM_VIS
100
AcDbLine
 10
393.9950096376567
 20
146.0969281660856
 30
0.0
 11
393.9950096376567
 21
145.5119656667376
 31
0.0
  0
LINE
  5
1204
330
1F
100
AcDbEntity
  8
AM_VIS
100
AcDbLine
 10
393.9950096376567
 20
147.6718906654337
 30
0.0
 11
393.9950096376567
 21
147.0869281660856
 31
0.0
  0
ARC
  5
1205
330
1F
100
AcDbEntity
  8
AM_VIS
100
AcDbCircle
 10
391.9239849929325
 20
148.9053716214454
 30
0.0
 40
1.6
100
AcDbArc
 50
28.17273413186298
 51
84.99999999999863
  0
ARC
  5
1206
330
1F
100
AcDbEntity
  8
AM_VIS
100
AcDbCircle
 10
391.9239849929325
 20
144.2784847107259
 30
0.0
 40
1.599999999999999
100
AcDbArc
 50
275.0000000000014
 51
331.8272658681363
  0
ARC
  5
1207
330
1F
100
AcDbEntity
  8
AM_VIS
100
AcDbCircle
 10
387.604496669201
 20
146.5919281660856
 30
0.0
 40
6.5
100
AcDbArc
 50
19.78317037266294
 51
28.17273413186518
  0
ARC
  5
1208
330
1F
100
AcDbEntity
  8
AM_VIS
100
AcDbCircle
 10
387.604496669201
 20
146.5919281660856
 30
0.0
 40
6.5
100
AcDbArc
 50
331.8272658681341
 51
340.2168296273378
  0
LINE
  5
1209
330
1F
100
AcDbEntity
  8
AM_VIS
100
AcDbLine
 10
300.2544966692009
 20
102.4919281660857
 30
0.0
 11
300.2544966692009
 21
104.5970251789922
 31
0.0
  0
LINE
  5
120A
330
1F
100
AcDbEntity
  8
AM_VIS
100
AcDbLine
 10
293.3544966692009
 20
102.4919281660857
 30
0.0
 11
293.3544966692009
 21
104.7174651269969
 31
0.0
  0
LINE
  5
120B
330
1F
100
AcDbEntity
  8
AM_VIS
100
AcDbLine
 10
300.2544966692009
 20
102.4919281660857
 30
0.0
 11
293.3544966692009
 21
102.4919281660857
 31
0.0
  0
LINE
  5
120C
330
1F
100
AcDbEntity
  8
AM_VIS
100
AcDbLine
 10
286.904496669201
 20
150.3919281660857
 30
0.0
 11
286.504496669201
 21
150.7919281660856
 31
0.0
  0
LINE
  5
120D
330
1F
100
AcDbEntity
  8
AM_VIS
100
AcDbLine
 10
286.004496669201
 20
150.7919281660856
 30
0.0
 11
286.504496669201
 21
150.7919281660856
 31
0.0
  0
LINE
  5
120E
330
1F
100
AcDbEntity
  8
AM_VIS
100
AcDbLine
 10
286.504496669201
 20
150.3919281660857
 30
0.0
 11
286.504496669201
 21
150.7919281660856
 31
0.0
  0
LINE
  5
120F
330
1F
100
AcDbEntity
  8
AM_VIS
100
AcDbLine
 10
286.004496669201
 20
150.3919281660857
 30
0.0
 11
286.004496669201
 21
150.7919281660856
 31
0.0
  0
LINE
  5
1210
330
1F
100
AcDbEntity
  8
AM_VIS
100
AcDbLine
 10
312.004496669201
 20
104.3919281660856
 30
0.0
 11
288.0044966692009
 21
104.8108497243628
 31
0.0
  0
LINE
  5
1211
330
1F
100
AcDbEntity
  8
AM_VIS
100
AcDbLine
 10
312.004496669201
 20
150.7919281660856
 30
0.0
 11
288.0044966692009
 21
150.3730066078084
 31
0.0
  0
LINE
  5
1212
330
1F
100
AcDbEntity
  8
AM_VIS
100
AcDbLine
 10
288.0044966692009
 20
149.1300437686893
 30
0.0
 11
288.0898845885062
 21
149.1290758580539
 31
0.0
  0
LINE
  5
1213
330
1F
100
AcDbEntity
  8
AM_VIS
100
AcDbLine
 10
288.0044966692009
 20
149.1290758580538
 30
0.0
 11
288.0898845885062
 21
149.1290758580538
 31
0.0
  0
LINE
  5
1214
330
1F
100
AcDbEntity
  8
AM_VIS
100
AcDbLine
 10
288.0898845885062
 20
149.1290758580538
 30
0.0
 11
288.0044966692009
 21
149.1267807637384
 31
0.0
  0
LINE
  5
1215
330
1F
100
AcDbEntity
  8
AM_VIS
100
AcDbLine
 10
288.0044966692009
 20
106.0570755684328
 30
0.0
 11
288.0898845885049
 21
106.0547804741174
 31
0.0
  0
LINE
  5
1216
330
1F
100
AcDbEntity
  8
AM_VIS
100
AcDbLine
 10
288.0044966692009
 20
106.0547804741174
 30
0.0
 11
288.0898845885049
 21
106.0547804741174
 31
0.0
  0
LINE
  5
1217
330
1F
100
AcDbEntity
  8
AM_VIS
100
AcDbLine
 10
288.0898845885049
 20
106.0547804741174
 30
0.0
 11
288.0044966692009
 21
106.053812563482
 31
0.0
  0
LINE
  5
1218
330
1F
100
AcDbEntity
  8
AM_VIS
100
AcDbLine
 10
288.0044966692009
 20
105.1556801095505
 30
0.0
 11
288.0044966692009
 21
104.8108497243628
 31
0.0
  0
LINE
  5
1219
330
1F
100
AcDbEntity
  8
AM_VIS
100
AcDbLine
 10
288.0044966692009
 20
150.3730066078084
 30
0.0
 11
288.0044966692009
 21
150.0281762226207
 31
0.0
  0
LINE
  5
121A
330
1F
100
AcDbEntity
  8
AM_VIS
100
AcDbLine
 10
312.004496669201
 20
150.7919281660856
 30
0.0
 11
312.004496669201
 21
129.5919281660856
 31
0.0
  0
LINE
  5
121B
330
1F
100
AcDbEntity
  8
AM_VIS
100
AcDbLine
 10
312.004496669201
 20
125.5919281660856
 30
0.0
 11
312.004496669201
 21
104.3919281660856
 31
0.0
  0
LINE
  5
121C
330
1F
100
AcDbEntity
  8
AM_VIS
100
AcDbLine
 10
311.0044966692009
 20
125.5919281660856
 30
0.0
 11
311.0044966692009
 21
129.5919281660856
 31
0.0
  0
LINE
  5
121D
330
1F
100
AcDbEntity
  8
AM_VIS
100
AcDbLine
 10
312.004496669201
 20
125.5919281660856
 30
0.0
 11
311.0044966692009
 21
125.5919281660856
 31
0.0
  0
LINE
  5
121E
330
1F
100
AcDbEntity
  8
AM_VIS
100
AcDbLine
 10
311.0044966692009
 20
129.5919281660856
 30
0.0
 11
312.004496669201
 21
129.5919281660856
 31
0.0
  0
LINE
  5
121F
330
1F
100
AcDbEntity
  8
AM_VIS
100
AcDbLine
 10
286.004496669201
 20
104.7919281660856
 30
0.0
 11
288.004496669201
 21
104.7919281660856
 31
0.0
  0
LINE
  5
1220
330
1F
100
AcDbEntity
  8
AM_VIS
100
AcDbLine
 10
288.004496669201
 20
149.8919281660856
 30
0.0
 11
288.004496669201
 21
105.2919281660856
 31
0.0
  0
LINE
  5
1221
330
1F
100
AcDbEntity
  8
AM_VIS
100
AcDbLine
 10
288.004496669201
 20
150.3919281660857
 30
0.0
 11
286.004496669201
 21
150.3919281660857
 31
0.0
  0
LINE
  5
1222
330
1F
100
AcDbEntity
  8
AM_VIS
100
AcDbLine
 10
286.004496669201
 20
149.8919281660856
 30
0.0
 11
286.004496669201
 21
105.2919281660856
 31
0.0
  0
LINE
  5
1223
330
1F
100
AcDbEntity
  8
AM_VIS
100
AcDbLine
 10
288.004496669201
 20
104.8108497243628
 30
0.0
 11
288.004496669201
 21
104.7919281660856
 31
0.0
  0
LINE
  5
1224
330
1F
100
AcDbEntity
  8
AM_VIS
100
AcDbLine
 10
288.004496669201
 20
105.2919281660856
 30
0.0
 11
288.004496669201
 21
105.1556801095504
 31
0.0
  0
LINE
  5
1225
330
1F
100
AcDbEntity
  8
AM_VIS
100
AcDbLine
 10
288.004496669201
 20
150.0281762226207
 30
0.0
 11
288.004496669201
 21
149.8919281660857
 31
0.0
  0
LINE
  5
1226
330
1F
100
AcDbEntity
  8
AM_VIS
100
AcDbLine
 10
288.004496669201
 20
150.3919281660857
 30
0.0
 11
288.004496669201
 21
150.3730066078084
 31
0.0
  0
LINE
  5
1227
330
1F
100
AcDbEntity
  8
AM_VIS
100
AcDbLine
 10
286.004496669201
 20
149.8919281660857
 30
0.0
 11
286.004496669201
 21
150.3919281660857
 31
0.0
  0
LINE
  5
1228
330
1F
100
AcDbEntity
  8
AM_VIS
100
AcDbLine
 10
286.004496669201
 20
104.7919281660856
 30
0.0
 11
286.004496669201
 21
105.2919281660856
 31
0.0
  0
LINE
  5
1229
330
1F
100
AcDbEntity
  8
AM_VIS
100
AcDbLine
 10
312.004496669201
 20
104.3919281660856
 30
0.0
 11
386.0044966692009
 21
104.3919281660856
 31
0.0
  0
LINE
  5
122A
330
1F
100
AcDbEntity
  8
AM_VIS
100
AcDbLine
 10
312.004496669201
 20
150.7919281660856
 30
0.0
 11
386.0044966692009
 21
150.7919281660856
 31
0.0
  0
LINE
  5
122B
330
1F
100
AcDbEntity
  8
AM_VIS
100
AcDbLine
 10
386.0044966692009
 20
104.3919281660856
 30
0.0
 11
386.0044966692009
 21
150.7919281660856
 31
0.0
  0
LINE
  5
122C
330
1F
100
AcDbEntity
  8
AM_VIS
100
AcDbLine
 10
312.004496669201
 20
104.3919281660856
 30
0.0
 11
312.004496669201
 21
150.7919281660856
 31
0.0
  0
CIRCLE
  5
122D
330
1F
100
AcDbEntity
  8
AM_VIS
100
AcDbCircle
 10
361.004496669201
 20
111.5919281660856
 30
0.0
 40
4.5
  0
CIRCLE
  5
122E
330
1F
100
AcDbEntity
  8
AM_VIS
100
AcDbCircle
 10
361.004496669201
 20
111.5919281660856
 30
0.0
 40
2.6
  0
CIRCLE
  5
122F
330
1F
100
AcDbEntity
  8
AM_VIS
100
AcDbCircle
 10
337.004496669201
 20
143.5919281660856
 30
0.0
 40
4.5
  0
CIRCLE
  5
1230
330
1F
100
AcDbEntity
  8
AM_VIS
100
AcDbCircle
 10
337.004496669201
 20
143.5919281660856
 30
0.0
 40
2.6
  0
CIRCLE
  5
1231
330
1F
100
AcDbEntity
  8
AM_VIS
  6
HIDDEN
 62
     3
 48
0.5
100
AcDbCircle
 10
361.004496669201
 20
340.4634077602137
 30
0.0
 40
4.5
  0
CIRCLE
  5
1232
330
1F
100
AcDbEntity
  8
AM_VIS
  6
HIDDEN
 62
     3
 48
0.5
100
AcDbCircle
 10
337.004496669201
 20
308.4634077602137
 30
0.0
 40
4.5
  0
LINE
  5
1242
330
1F
100
AcDbEntity
  8
AM_7
100
AcDbLine
 10
337.004496669201
 20
324.4634077602137
 30
0.0
 11
348.4044966692009
 21
324.4634077602137
 31
0.0
1001
GENIUS_GENOREF_13
1005
1246
  0
LINE
  5
1243
330
1F
100
AcDbEntity
  8
AM_7
100
AcDbLine
 10
337.004496669201
 20
324.4634077602137
 30
0.0
 11
337.004496669201
 21
335.8634077602137
 31
0.0
1001
GENIUS_GENOREF_13
1005
1246
  0
LINE
  5
1244
330
1F
100
AcDbEntity
  8
AM_7
100
AcDbLine
 10
337.004496669201
 20
324.4634077602137
 30
0.0
 11
325.604496669201
 21
324.4634077602137
 31
0.0
1001
GENIUS_GENOREF_13
1005
1246
  0
LINE
  5
1245
330
1F
100
AcDbEntity
  8
AM_7
100
AcDbLine
 10
337.004496669201
 20
324.4634077602137
 30
0.0
 11
337.004496669201
 21
313.0634077602138
 31
0.0
1001
GENIUS_GENOREF_13
1005
1246
  0
POINT
  5
1246
330
1F
100
AcDbEntity
  8
0
 60
     1
100
AcDbPoint
 10
0.0
 20
0.0
 30
0.0
1001
GENIUS_GENOENT_13
1002
{
1000
MYREF
1005
1246
1002
}
1002
{
1000
GRP
1005
0
1002
}
1001
GENIUS_GENOBJ-N-CRS_13
1002
{
1000
OWNER
1000
GEN
1002
}
1001
GENIUS_GENODEF_13
1002
{
1000
HIER
1070
    10
1002
}
1002
{
1000
MANEDIT
1070
     0
1002
}
1002
{
1000
NOSEL
1070
     0
1002
}
1002
{
1000
BEHIND
1070
     0
1002
}
1002
{
1000
OTHER
1070
     0
1002
}
1002
{
1000
REACTOR
1002
}
1001
GENIUS_GENOLIS_13
1002
{
1000
ENT
1005
1245
1005
1244
1005
1243
1005
1242
1002
}
  0
LINE
  5
1254
330
1F
100
AcDbEntity
  8
AM_7
100
AcDbLine
 10
361.004496669201
 20
324.4634077602137
 30
0.0
 11
372.404496669201
 21
324.4634077602137
 31
0.0
1001
GENIUS_GENOREF_13
1005
1258
  0
LINE
  5
1255
330
1F
100
AcDbEntity
  8
AM_7
100
AcDbLine
 10
361.004496669201
 20
324.4634077602137
 30
0.0
 11
361.004496669201
 21
335.8634077602137
 31
0.0
1001
GENIUS_GENOREF_13
1005
1258
  0
LINE
  5
1256
330
1F
100
AcDbEntity
  8
AM_7
100
AcDbLine
 10
361.004496669201
 20
324.4634077602137
 30
0.0
 11
349.604496669201
 21
324.4634077602137
 31
0.0
1001
GENIUS_GENOREF_13
1005
1258
  0
LINE
  5
1257
102
{ACAD_REACTORS
330
1433
330
1459
102
}
330
1F
100
AcDbEntity
  8
AM_7
100
AcDbLine
 10
361.004496669201
 20
324.4634077602137
 30
0.0
 11
361.004496669201
 21
313.0634077602138
 31
0.0
1001
GENIUS_GENOREF_13
1005
1258
  0
POINT
  5
1258
330
1F
100
AcDbEntity
  8
0
 60
     1
100
AcDbPoint
 10
0.0
 20
0.0
 30
0.0
1001
GENIUS_GENODEF_13
1002
{
1000
HIER
1070
    10
1002
}
1002
{
1000
MANEDIT
1070
     0
1002
}
1002
{
1000
NOSEL
1070
     0
1002
}
1002
{
1000
BEHIND
1070
     0
1002
}
1002
{
1000
OTHER
1070
     0
1002
}
1002
{
1000
REACTOR
1002
}
1001
GENIUS_GENOBJ-N-CRS_13
1002
{
1000
OWNER
1000
GEN
1002
}
1001
GENIUS_GENOLIS_13
1002
{
1000
ENT
1005
1257
1005
1256
1005
1255
1005
1254
1002
}
1001
GENIUS_GENOENT_13
1002
{
1000
MYREF
1005
1258
1002
}
1002
{
1000
GRP
1005
0
1002
}
  0
LINE
  5
1266
102
{ACAD_REACTORS
330
147F
102
}
330
1F
100
AcDbEntity
  8
AM_7
  6
AM_ISO08W050x2
100
AcDbLine
 10
361.004496669201
 20
340.4634077602137
 30
0.0
 11
367.504496669201
 21
340.4634077602137
 31
0.0
1001
GENIUS_GENOREF_13
1005
126A
  0
LINE
  5
1267
330
1F
100
AcDbEntity
  8
AM_7
  6
AM_ISO08W050x2
100
AcDbLine
 10
361.004496669201
 20
340.4634077602137
 30
0.0
 11
361.004496669201
 21
346.9634077602137
 31
0.0
1001
GENIUS_GENOREF_13
1005
126A
  0
LINE
  5
1268
330
1F
100
AcDbEntity
  8
AM_7
  6
AM_ISO08W050x2
100
AcDbLine
 10
361.004496669201
 20
340.4634077602137
 30
0.0
 11
354.504496669201
 21
340.4634077602137
 31
0.0
1001
GENIUS_GENOREF_13
1005
126A
  0
LINE
  5
1269
330
1F
100
AcDbEntity
  8
AM_7
  6
AM_ISO08W050x2
100
AcDbLine
 10
361.004496669201
 20
340.4634077602137
 30
0.0
 11
361.004496669201
 21
333.9634077602137
 31
0.0
1001
GENIUS_GENOREF_13
1005
126A
  0
POINT
  5
126A
330
1F
100
AcDbEntity
  8
0
 60
     1
100
AcDbPoint
 10
0.0
 20
0.0
 30
0.0
1001
GENIUS_GENODEF_13
1002
{
1000
HIER
1070
    10
1002
}
1002
{
1000
MANEDIT
1070
     0
1002
}
1002
{
1000
NOSEL
1070
     0
1002
}
1002
{
1000
BEHIND
1070
     0
1002
}
1002
{
1000
OTHER
1070
     0
1002
}
1002
{
1000
REACTOR
1002
}
1001
GENIUS_GENOENT_13
1002
{
1000
MYREF
1005
126A
1002
}
1002
{
1000
GRP
1005
0
1002
}
1001
GENIUS_GENOBJ-N-CRS_13
1002
{
1000
OWNER
1000
GEN
1002
}
1001
GENIUS_GENOLIS_13
1002
{
1000
ENT
1005
1269
1005
1268
1005
1267
1005
1266
1002
}
  0
LINE
  5
1278
330
1F
100
AcDbEntity
  8
AM_7
  6
AM_ISO08W050x2
100
AcDbLine
 10
349.004496669201
 20
340.4634077602137
 30
0.0
 11
353.754496669201
 21
340.4634077602137
 31
0.0
1001
GENIUS_GENOREF_13
1005
127C
  0
LINE
  5
1279
102
{ACAD_REACTORS
330
14A5
102
}
330
1F
100
AcDbEntity
  8
AM_7
  6
AM_ISO08W050x2
100
AcDbLine
 10
349.004496669201
 20
340.4634077602137
 30
0.0
 11
349.004496669201
 21
345.2134077602137
 31
0.0
1001
GENIUS_GENOREF_13
1005
127C
  0
LINE
  5
127A
330
1F
100
AcDbEntity
  8
AM_7
  6
AM_ISO08W050x2
100
AcDbLine
 10
349.004496669201
 20
340.4634077602137
 30
0.0
 11
344.254496669201
 21
340.4634077602137
 31
0.0
1001
GENIUS_GENOREF_13
1005
127C
  0
LINE
  5
127B
330
1F
100
AcDbEntity
  8
AM_7
  6
AM_ISO08W050x2
100
AcDbLine
 10
349.004496669201
 20
340.4634077602137
 30
0.0
 11
349.004496669201
 21
335.7134077602137
 31
0.0
1001
GENIUS_GENOREF_13
1005
127C
  0
POINT
  5
127C
330
1F
100
AcDbEntity
  8
0
 60
     1
100
AcDbPoint
 10
0.0
 20
0.0
 30
0.0
1001
GENIUS_GENOBJ-N-CRS_13
1002
{
1000
OWNER
1000
GEN
1002
}
1001
GENIUS_GENODEF_13
1002
{
1000
HIER
1070
    10
1002
}
1002
{
1000
MANEDIT
1070
     0
1002
}
1002
{
1000
NOSEL
1070
     0
1002
}
1002
{
1000
BEHIND
1070
     0
1002
}
1002
{
1000
OTHER
1070
     0
1002
}
1002
{
1000
REACTOR
1002
}
1001
GENIUS_GENOLIS_13
1002
{
1000
ENT
1005
127B
1005
127A
1005
1279
1005
1278
1002
}
1001
GENIUS_GENOENT_13
1002
{
1000
MYREF
1005
127C
1002
}
1002
{
1000
GRP
1005
0
1002
}
  0
LINE
  5
128A
102
{ACAD_REACTORS
330
147F
102
}
330
1F
100
AcDbEntity
  8
AM_7
  6
AM_ISO08W050x2
100
AcDbLine
 10
349.004496669201
 20
308.4634077602137
 30
0.0
 11
353.754496669201
 21
308.4634077602137
 31
0.0
1001
GENIUS_GENOREF_13
1005
128E
  0
LINE
  5
128B
330
1F
100
AcDbEntity
  8
AM_7
  6
AM_ISO08W050x2
100
AcDbLine
 10
349.004496669201
 20
308.4634077602137
 30
0.0
 11
349.004496669201
 21
313.2134077602137
 31
0.0
1001
GENIUS_GENOREF_13
1005
128E
  0
LINE
  5
128C
330
1F
100
AcDbEntity
  8
AM_7
  6
AM_ISO08W050x2
100
AcDbLine
 10
349.004496669201
 20
308.4634077602137
 30
0.0
 11
344.254496669201
 21
308.4634077602137
 31
0.0
1001
GENIUS_GENOREF_13
1005
128E
  0
LINE
  5
128D
330
1F
100
AcDbEntity
  8
AM_7
  6
AM_ISO08W050x2
100
AcDbLine
 10
349.004496669201
 20
308.4634077602137
 30
0.0
 11
349.004496669201
 21
303.7134077602137
 31
0.0
1001
GENIUS_GENOREF_13
1005
128E
  0
POINT
  5
128E
330
1F
100
AcDbEntity
  8
0
 60
     1
100
AcDbPoint
 10
0.0
 20
0.0
 30
0.0
1001
GENIUS_GENODEF_13
1002
{
1000
HIER
1070
    10
1002
}
1002
{
1000
MANEDIT
1070
     0
1002
}
1002
{
1000
NOSEL
1070
     0
1002
}
1002
{
1000
BEHIND
1070
     0
1002
}
1002
{
1000
OTHER
1070
     0
1002
}
1002
{
1000
REACTOR
1002
}
1001
GENIUS_GENOENT_13
1002
{
1000
MYREF
1005
128E
1002
}
1002
{
1000
GRP
1005
0
1002
}
1001
GENIUS_GENOBJ-N-CRS_13
1002
{
1000
OWNER
1000
GEN
1002
}
1001
GENIUS_GENOLIS_13
1002
{
1000
ENT
1005
128D
1005
128C
1005
128B
1005
128A
1002
}
  0
LINE
  5
129C
330
1F
100
AcDbEntity
  8
AM_7
  6
AM_ISO08W050x2
100
AcDbLine
 10
337.004496669201
 20
308.4634077602137
 30
0.0
 11
343.504496669201
 21
308.4634077602137
 31
0.0
1001
GENIUS_GENOREF_13
1005
12A0
  0
LINE
  5
129D
330
1F
100
AcDbEntity
  8
AM_7
  6
AM_ISO08W050x2
100
AcDbLine
 10
337.004496669201
 20
308.4634077602137
 30
0.0
 11
337.004496669201
 21
314.9634077602137
 31
0.0
1001
GENIUS_GENOREF_13
1005
12A0
  0
LINE
  5
129E
330
1F
100
AcDbEntity
  8
AM_7
  6
AM_ISO08W050x2
100
AcDbLine
 10
337.004496669201
 20
308.4634077602137
 30
0.0
 11
330.504496669201
 21
308.4634077602137
 31
0.0
1001
GENIUS_GENOREF_13
1005
12A0
  0
LINE
  5
129F
102
{ACAD_REACTORS
330
1459
102
}
330
1F
100
AcDbEntity
  8
AM_7
  6
AM_ISO08W050x2
100
AcDbLine
 10
337.004496669201
 20
308.4634077602137
 30
0.0
 11
337.004496669201
 21
301.9634077602137
 31
0.0
1001
GENIUS_GENOREF_13
1005
12A0
  0
POINT
  5
12A0
330
1F
100
AcDbEntity
  8
0
 60
     1
100
AcDbPoint
 10
0.0
 20
0.0
 30
0.0
1001
GENIUS_GENOLIS_13
1002
{
1000
ENT
1005
129F
1005
129E
1005
129D
1005
129C
1002
}
1001
GENIUS_GENODEF_13
1002
{
1000
HIER
1070
    10
1002
}
1002
{
1000
MANEDIT
1070
     0
1002
}
1002
{
1000
NOSEL
1070
     0
1002
}
1002
{
1000
BEHIND
1070
     0
1002
}
1002
{
1000
OTHER
1070
     0
1002
}
1002
{
1000
REACTOR
1002
}
1001
GENIUS_GENOENT_13
1002
{
1000
MYREF
1005
12A0
1002
}
1002
{
1000
GRP
1005
0
1002
}
1001
GENIUS_GENOBJ-N-CRS_13
1002
{
1000
OWNER
1000
GEN
1002
}
  0
LINE
  5
12AE
330
1F
100
AcDbEntity
  8
AM_7
100
AcDbLine
 10
371.504496669201
 20
207.3633892607986
 30
0.0
 11
380.481091669201
 21
207.3633892607986
 31
0.0
1001
GENIUS_GENOREF_13
1005
12B2
  0
LINE
  5
12AF
102
{ACAD_REACTORS
330
13E3
102
}
330
1F
100
AcDbEntity
  8
AM_7
100
AcDbLine
 10
371.504496669201
 20
207.3633892607986
 30
0.0
 11
371.504496669201
 21
216.3399842607985
 31
0.0
1001
GENIUS_GENOREF_13
1005
12B2
  0
LINE
  5
12B0
330
1F
100
AcDbEntity
  8
AM_7
100
AcDbLine
 10
371.504496669201
 20
207.3633892607986
 30
0.0
 11
362.527901669201
 21
207.3633892607986
 31
0.0
1001
GENIUS_GENOREF_13
1005
12B2
  0
LINE
  5
12B1
330
1F
100
AcDbEntity
  8
AM_7
100
AcDbLine
 10
371.504496669201
 20
207.3633892607986
 30
0.0
 11
371.504496669201
 21
198.3867942607986
 31
0.0
1001
GENIUS_GENOREF_13
1005
12B2
  0
POINT
  5
12B2
330
1F
100
AcDbEntity
  8
0
 60
     1
100
AcDbPoint
 10
0.0
 20
0.0
 30
0.0
1001
GENIUS_GENODEF_13
1002
{
1000
HIER
1070
    10
1002
}
1002
{
1000
MANEDIT
1070
     0
1002
}
1002
{
1000
NOSEL
1070
     0
1002
}
1002
{
1000
BEHIND
1070
     0
1002
}
1002
{
1000
OTHER
1070
     0
1002
}
1002
{
1000
REACTOR
1002
}
1001
GENIUS_GENOENT_13
1002
{
1000
MYREF
1005
12B2
1002
}
1002
{
1000
GRP
1005
0
1002
}
1001
GENIUS_GENOBJ-N-CRS_13
1002
{
1000
OWNER
1000
GEN
1002
}
1001
GENIUS_GENOLIS_13
1002
{
1000
ENT
1005
12B1
1005
12B0
1005
12AF
1005
12AE
1002
}
  0
LINE
  5
12C0
330
1F
100
AcDbEntity
  8
AM_7
100
AcDbLine
 10
349.004496669201
 20
207.3633892607986
 30
0.0
 11
357.981091669201
 21
207.3633892607986
 31
0.0
1001
GENIUS_GENOREF_13
1005
12C4
  0
LINE
  5
12C1
102
{ACAD_REACTORS
330
13BD
330
13E3
102
}
330
1F
100
AcDbEntity
  8
AM_7
100
AcDbLine
 10
349.004496669201
 20
207.3633892607986
 30
0.0
 11
349.004496669201
 21
216.3399842607985
 31
0.0
1001
GENIUS_GENOREF_13
1005
12C4
  0
LINE
  5
12C2
330
1F
100
AcDbEntity
  8
AM_7
100
AcDbLine
 10
349.004496669201
 20
207.3633892607986
 30
0.0
 11
340.027901669201
 21
207.3633892607986
 31
0.0
1001
GENIUS_GENOREF_13
1005
12C4
  0
LINE
  5
12C3
102
{ACAD_REACTORS
330
1397
102
}
330
1F
100
AcDbEntity
  8
AM_7
100
AcDbLine
 10
349.004496669201
 20
207.3633892607986
 30
0.0
 11
349.004496669201
 21
198.3867942607986
 31
0.0
1001
GENIUS_GENOREF_13
1005
12C4
  0
POINT
  5
12C4
330
1F
100
AcDbEntity
  8
0
 60
     1
100
AcDbPoint
 10
0.0
 20
0.0
 30
0.0
1001
GENIUS_GENOENT_13
1002
{
1000
MYREF
1005
12C4
1002
}
1002
{
1000
GRP
1005
0
1002
}
1001
GENIUS_GENOBJ-N-CRS_13
1002
{
1000
OWNER
1000
GEN
1002
}
1001
GENIUS_GENOLIS_13
1002
{
1000
ENT
1005
12C3
1005
12C2
1005
12C1
1005
12C0
1002
}
1001
GENIUS_GENODEF_13
1002
{
1000
HIER
1070
    10
1002
}
1002
{
1000
MANEDIT
1070
     0
1002
}
1002
{
1000
NOSEL
1070
     0
1002
}
1002
{
1000
BEHIND
1070
     0
1002
}
1002
{
1000
OTHER
1070
     0
1002
}
1002
{
1000
REACTOR
1002
}
  0
LINE
  5
12D2
330
1F
100
AcDbEntity
  8
AM_7
100
AcDbLine
 10
326.504496669201
 20
207.3633892607986
 30
0.0
 11
335.481091669201
 21
207.3633892607986
 31
0.0
1001
GENIUS_GENOREF_13
1005
12D6
  0
LINE
  5
12D3
102
{ACAD_REACTORS
330
13BD
102
}
330
1F
100
AcDbEntity
  8
AM_7
100
AcDbLine
 10
326.504496669201
 20
207.3633892607986
 30
0.0
 11
326.504496669201
 21
216.3399842607985
 31
0.0
1001
GENIUS_GENOREF_13
1005
12D6
  0
LINE
  5
12D4
330
1F
100
AcDbEntity
  8
AM_7
100
AcDbLine
 10
326.504496669201
 20
207.3633892607986
 30
0.0
 11
317.527901669201
 21
207.3633892607986
 31
0.0
1001
GENIUS_GENOREF_13
1005
12D6
  0
LINE
  5
12D5
330
1F
100
AcDbEntity
  8
AM_7
100
AcDbLine
 10
326.504496669201
 20
207.3633892607986
 30
0.0
 11
326.504496669201
 21
198.3867942607986
 31
0.0
1001
GENIUS_GENOREF_13
1005
12D6
  0
POINT
  5
12D6
330
1F
100
AcDbEntity
  8
0
 60
     1
100
AcDbPoint
 10
0.0
 20
0.0
 30
0.0
1001
GENIUS_GENODEF_13
1002
{
1000
HIER
1070
    10
1002
}
1002
{
1000
MANEDIT
1070
     0
1002
}
1002
{
1000
NOSEL
1070
     0
1002
}
1002
{
1000
BEHIND
1070
     0
1002
}
1002
{
1000
OTHER
1070
     0
1002
}
1002
{
1000
REACTOR
1002
}
1001
GENIUS_GENOLIS_13
1002
{
1000
ENT
1005
12D5
1005
12D4
1005
12D3
1005
12D2
1002
}
1001
GENIUS_GENOBJ-N-CRS_13
1002
{
1000
OWNER
1000
GEN
1002
}
1001
GENIUS_GENOENT_13
1002
{
1000
MYREF
1005
12D6
1002
}
1002
{
1000
GRP
1005
0
1002
}
  0
LINE
  5
12E4
330
1F
100
AcDbEntity
  8
AM_7
100
AcDbLine
 10
171.6395460307136
 20
363.4634077602137
 30
0.0
 11
182.8771503377477
 21
363.4634077602137
 31
0.0
1001
GENIUS_GENOREF_13
1005
12E8
  0
LINE
  5
12E5
330
1F
100
AcDbEntity
  8
AM_7
100
AcDbLine
 10
171.6395460307136
 20
363.4634077602137
 30
0.0
 11
171.6395460307136
 21
374.7010120672477
 31
0.0
1001
GENIUS_GENOREF_13
1005
12E8
  0
LINE
  5
12E6
330
1F
100
AcDbEntity
  8
AM_7
100
AcDbLine
 10
171.6395460307136
 20
363.4634077602137
 30
0.0
 11
160.4019417236796
 21
363.4634077602137
 31
0.0
1001
GENIUS_GENOREF_13
1005
12E8
  0
LINE
  5
12E7
330
1F
100
AcDbEntity
  8
AM_7
100
AcDbLine
 10
171.6395460307136
 20
363.4634077602137
 30
0.0
 11
171.6395460307136
 21
352.2258034531796
 31
0.0
1001
GENIUS_GENOREF_13
1005
12E8
  0
POINT
  5
12E8
330
1F
100
AcDbEntity
  8
0
 60
     1
100
AcDbPoint
 10
0.0
 20
0.0
 30
0.0
1001
GENIUS_GENOBJ-N-CRS_13
1002
{
1000
OWNER
1000
GEN
1002
}
1001
GENIUS_GENOLIS_13
1002
{
1000
ENT
1005
12E7
1005
12E6
1005
12E5
1005
12E4
1002
}
1001
GENIUS_GENODEF_13
1002
{
1000
HIER
1070
    10
1002
}
1002
{
1000
MANEDIT
1070
     0
1002
}
1002
{
1000
NOSEL
1070
     0
1002
}
1002
{
1000
BEHIND
1070
     0
1002
}
1002
{
1000
OTHER
1070
     0
1002
}
1002
{
1000
REACTOR
1002
}
1001
GENIUS_GENOENT_13
1002
{
1000
MYREF
1005
12E8
1002
}
1002
{
1000
GRP
1005
0
1002
}
  0
LINE
  5
12F5
330
1F
100
AcDbEntity
  8
AM_7
  6
AM_ISO08W050x2
100
AcDbLine
 10
246.504496669201
 20
324.4634077602138
 30
0.0
 11
259.6639023308054
 21
324.4634077602138
 31
0.0
1001
GENIUS_GENOBJ-N-CEN_13
1002
{
1000
OWNER
1000
GEN
1002
}
1001
GENIUS_GENODEF_13
1002
{
1000
HIER
1070
     0
1002
}
1002
{
1000
MANEDIT
1070
     0
1002
}
1002
{
1000
NOSEL
1070
     0
1002
}
1002
{
1000
BEHIND
1070
     0
1002
}
1002
{
1000
OTHER
1070
     0
1002
}
1002
{
1000
REACTOR
1002
}
1001
GENIUS_GENCEN_19
1002
{
1040
2.0
1002
}
  0
LINE
  5
1304
330
1F
100
AcDbEntity
  8
AM_7
  6
AM_ISO08W050x2
100
AcDbLine
 10
236.504496669201
 20
364.7056355319023
 30
0.0
 11
248.9528517028867
 21
364.7056355319023
 31
0.0
1001
GENIUS_GENODEF_13
1002
{
1000
HIER
1070
     0
1002
}
1002
{
1000
MANEDIT
1070
     0
1002
}
1002
{
1000
NOSEL
1070
     0
1002
}
1002
{
1000
BEHIND
1070
     0
1002
}
1002
{
1000
OTHER
1070
     0
1002
}
1002
{
1000
REACTOR
1002
}
1001
GENIUS_GENOBJ-N-CEN_13
1002
{
1000
OWNER
1000
GEN
1002
}
1001
GENIUS_GENCEN_19
1002
{
1040
2.0
1002
}
  0
LINE
  5
1311
330
1F
100
AcDbEntity
  8
AM_7
100
AcDbLine
 10
233.9959744424187
 20
207.3633892607985
 30
0.0
 11
396.7021243359385
 21
207.3633892607985
 31
0.0
1001
GENIUS_GENODEF_13
1002
{
1000
HIER
1070
     0
1002
}
1002
{
1000
MANEDIT
1070
     0
1002
}
1002
{
1000
NOSEL
1070
     0
1002
}
1002
{
1000
BEHIND
1070
     0
1002
}
1002
{
1000
OTHER
1070
     0
1002
}
1002
{
1000
REACTOR
1002
}
1001
GENIUS_GENOBJ-N-CEN_13
1002
{
1000
OWNER
1000
GEN
1002
}
1001
GENIUS_GENCEN_19
1002
{
1040
2.0
1002
}
  0
DIMENSION
  5
1326
102
{ACAD_XDICTIONARY
360
1334
102
}
102
{ACAD_REACTORS
330
1335
102
}
330
1F
100
AcDbEntity
  8
AM_5
100
AcDbDimension
  2
*D3
 10
226.504495669201
 20
372.4634077602137
 30
0.0
 11
223.879495669201
 21
336.8634077602138
 31
0.0
 70
    32
  1
(<>)
 71
     5
 42
71.19999999999999
  3
AM_ISO$0
100
AcDbAlignedDimension
 13
312.004496669201
 23
301.2634077602137
 33
0.0
 14
245.504496669201
 24
372.4634077602137
 34
0.0
 50
90.0
100
AcDbRotatedDimension
1001
ACAD
1000
DSTYLE
1002
{
1070
   271
1070
     0
1070
   272
1070
     8
1002
}
  0
DIMENSION
  5
1363
102
{ACAD_XDICTIONARY
360
1370
102
}
102
{ACAD_REACTORS
330
1371
102
}
330
1F
100
AcDbEntity
  8
AM_5
100
AcDbDimension
  2
*D4
 10
394.004496669201
 20
242.3633892607985
 30
0.0
 11
316.254496669201
 21
244.8133892607986
 31
0.0
 70
    32
 71
     5
 42
155.4999999999999
  3
AM_ISO$0
100
AcDbAlignedDimension
 13
238.504496669201
 23
216.6009935678326
 33
0.0
 14
394.004496669201
 24
221.3633892607984
 34
0.0
100
AcDbRotatedDimension
1001
ACAD
1000
DSTYLE
1002
{
1070
    40
1040
1.0
1070
   144
1040
1.0
1070
   271
1070
     0
1070
   272
1070
     8
1002
}
  0
DIMENSION
  5
1389
102
{ACAD_XDICTIONARY
360
1396
102
}
102
{ACAD_REACTORS
330
1397
102
}
330
1F
100
AcDbEntity
  8
AM_5
100
AcDbDimension
  2
*D5
 10
394.004496669201
 20
180.3633892607984
 30
0.0
 11
371.504496669201
 21
182.8133892607984
 31
0.0
 70
    32
 71
     5
 42
45.0
  3
AM_ISO$0
100
AcDbAlignedDimension
 13
349.004496669201
 23
198.3867942607986
 33
0.0
 14
394.004496669201
 24
193.3633892607984
 34
0.0
 50
0.0000000000002036
100
AcDbRotatedDimension
1001
ACAD
1000
DSTYLE
1002
{
1070
    40
1040
1.0
1070
   144
1040
1.0
1070
   271
1070
     0
1070
   272
1070
     8
1002
}
  0
DIMENSION
  5
13AF
102
{ACAD_XDICTIONARY
360
13BC
102
}
102
{ACAD_REACTORS
330
13BD
102
}
330
1F
100
AcDbEntity
  8
AM_5
100
AcDbDimension
  2
*D6
 10
349.004496669201
 20
234.3633892607986
 30
0.0
 11
337.754496669201
 21
236.8137337489875
 31
0.0
 70
    32
 71
     5
 42
22.5
  3
AM_ISO$0
100
AcDbAlignedDimension
 13
326.504496669201
 23
216.3399842607985
 33
0.0
 14
349.004496669201
 24
216.3399842607985
 34
0.0
100
AcDbRotatedDimension
1001
ACAD
1000
DSTYLE
1002
{
1070
   272
1070
     8
1002
}
  0
DIMENSION
  5
13D5
102
{ACAD_XDICTIONARY
360
13E2
102
}
102
{ACAD_REACTORS
330
13E3
102
}
330
1F
100
AcDbEntity
  8
AM_5
100
AcDbDimension
  2
*D7
 10
371.504496669201
 20
234.3633892607986
 30
0.0
 11
360.254496669201
 21
236.8137337489875
 31
0.0
 70
    32
 71
     5
 42
22.5
  3
AM_ISO$0
100
AcDbAlignedDimension
 13
349.004496669201
 23
216.3399842607985
 33
0.0
 14
371.504496669201
 24
216.3399842607985
 34
0.0
100
AcDbRotatedDimension
1001
ACAD
1000
DSTYLE
1002
{
1070
   272
1070
     8
1002
}
  0
DIMENSION
  5
13FF
102
{ACAD_XDICTIONARY
360
140C
102
}
102
{ACAD_REACTORS
330
140D
102
}
330
1F
100
AcDbEntity
  8
AM_5
100
AcDbDimension
  2
*D8
 10
406.0044966692009
 20
222.3633892607984
 30
0.0
 11
403.5544966692009
 21
207.3633892607985
 31
0.0
 70
    32
 71
     5
 42
29.99999999999995
  3
AM_ISO$0
100
AcDbAlignedDimension
 13
393.004496669201
 23
192.3633892607984
 33
0.0
 14
393.004496669201
 24
222.3633892607984
 34
0.0
 50
90.00000000000003
100
AcDbRotatedDimension
1001
ACAD
1000
DSTYLE
1002
{
1070
    40
1040
1.0
1070
   144
1040
1.0
1070
   271
1070
     0
1070
   272
1070
     8
1002
}
  0
DIMENSION
  5
1425
102
{ACAD_XDICTIONARY
360
1432
102
}
102
{ACAD_REACTORS
330
1433
102
}
330
1F
100
AcDbEntity
  8
AM_5
100
AcDbDimension
  2
*D9
 10
361.004496669201
 20
289.2634077602138
 30
0.0
 11
377.504496669201
 21
291.7134077602138
 31
0.0
 70
    32
 71
     5
 42
33.00000000000006
  3
AM_ISO$0
100
AcDbAlignedDimension
 13
394.0044966692011
 23
302.2634077602138
 33
0.0
 14
361.004496669201
 24
313.0634077602138
 34
0.0
 50
0.0000000000001132
100
AcDbRotatedDimension
1001
ACAD
1000
DSTYLE
1002
{
1070
    40
1040
1.0
1070
   144
1040
1.0
1070
   271
1070
     0
1070
   272
1070
     8
1002
}
  0
DIMENSION
  5
144B
102
{ACAD_XDICTIONARY
360
1458
102
}
102
{ACAD_REACTORS
330
1459
102
}
330
1F
100
AcDbEntity
  8
AM_5
100
AcDbDimension
  2
*D10
 10
337.004496669201
 20
289.2634077602137
 30
0.0
 11
349.004496669201
 21
291.7137522484027
 31
0.0
 70
    32
 71
     5
 42
24.0
  3
AM_ISO$0
100
AcDbAlignedDimension
 13
361.004496669201
 23
313.0634077602138
 33
0.0
 14
337.004496669201
 24
301.9634077602137
 34
0.0
 50
0.0000000000001132
100
AcDbRotatedDimension
1001
ACAD
1000
DSTYLE
1002
{
1070
    40
1040
1.0
1070
   144
1040
1.0
1070
   271
1070
     0
1070
   272
1070
     8
1002
}
  0
DIMENSION
  5
1471
102
{ACAD_XDICTIONARY
360
147E
102
}
102
{ACAD_REACTORS
330
147F
102
}
330
1F
100
AcDbEntity
  8
AM_5
100
AcDbDimension
  2
*D11
 10
406.0044966692009
 20
308.4634077602137
 30
0.0
 11
403.5541521810119
 21
324.4634077602138
 31
0.0
 70
    32
 71
     5
 42
32.0
  3
AM_ISO$0
100
AcDbAlignedDimension
 13
367.504496669201
 23
340.4634077602137
 33
0.0
 14
353.754496669201
 24
308.4634077602137
 34
0.0
 50
90.00000000000003
100
AcDbRotatedDimension
1001
ACAD
1000
DSTYLE
1002
{
1070
    40
1040
1.0
1070
   144
1040
1.0
1070
   271
1070
     0
1070
   272
1070
     8
1002
}
  0
DIMENSION
  5
1497
102
{ACAD_XDICTIONARY
360
14A4
102
}
102
{ACAD_REACTORS
330
14A5
102
}
330
1F
100
AcDbEntity
  8
AM_5
100
AcDbDimension
  2
*D12
 10
349.004496669201
 20
359.6634077602138
 30
0.0
 11
371.504496669201
 21
362.1134077602138
 31
0.0
 70
    32
 71
     5
 42
45.00000000000006
  3
AM_ISO$0
100
AcDbAlignedDimension
 13
394.0044966692011
 23
346.6634077602138
 33
0.0
 14
349.004496669201
 24
345.2134077602137
 34
0.0
100
AcDbRotatedDimension
1001
ACAD
1000
DSTYLE
1002
{
1070
    40
1040
1.0
1070
   144
1040
1.0
1070
   271
1070
     0
1070
   272
1070
     8
1002
}
  0
DIMENSION
  5
14BD
102
{ACAD_XDICTIONARY
360
14CA
102
}
102
{ACAD_REACTORS
330
14CB
102
}
330
1F
100
AcDbEntity
  8
AM_5
100
AcDbDimension
  2
*D13
 10
414.0044966692009
 20
347.6634077602138
 30
0.0
 11
411.5544966692009
 21
324.4634077602138
 31
0.0
 70
    32
 71
     5
 42
46.40000000000003
  3
AM_ISO$0
100
AcDbAlignedDimension
 13
393.004496669201
 23
301.2634077602137
 33
0.0
 14
393.004496669201
 24
347.6634077602138
 34
0.0
 50
90.00000000000003
100
AcDbRotatedDimension
1001
ACAD
1000
DSTYLE
1002
{
1070
    40
1040
1.0
1070
   144
1040
1.0
1070
   271
1070
     0
1070
   272
1070
     8
1002
}
  0
DIMENSION
  5
14E3
102
{ACAD_XDICTIONARY
360
14F0
102
}
102
{ACAD_REACTORS
330
14F1
102
}
330
1F
100
AcDbEntity
  8
AM_5
100
AcDbDimension
  2
*D14
 10
286.004496669201
 20
281.2634077602136
 30
0.0
 11
340.004496669201
 21
283.7134077602136
 31
0.0
 70
    32
 71
     5
 42
108.0
  3
AM_ISO$0
100
AcDbAlignedDimension
 13
394.0044966692011
 23
302.2634077602138
 33
0.0
 14
286.004496669201
 24
301.9134077602137
 34
0.0
 50
0.0000000000001132
100
AcDbRotatedDimension
1001
ACAD
1000
DSTYLE
1002
{
1070
    40
1040
1.0
1070
   144
1040
1.0
1070
   271
1070
     0
1070
   272
1070
     8
1002
}
  0
DIMENSION
  5
153A
102
{ACAD_XDICTIONARY
360
1547
102
}
102
{ACAD_REACTORS
330
1548
102
}
330
1F
100
AcDbEntity
  8
AM_5
100
AcDbDimension
  2
*D15
 10
394.0044966692011
 20
273.2634077602138
 30
0.0
 11
321.254496669201
 21
275.7134077602138
 31
0.0
 70
    32
 71
     5
 42
145.5000000000001
  3
AM_ISO$0
100
AcDbAlignedDimension
 13
248.504496669201
 23
314.9634077602137
 33
0.0
 14
394.0044966692011
 24
302.2634077602138
 34
0.0
 50
0.0000000000001132
100
AcDbRotatedDimension
1001
ACAD
1000
DSTYLE
1002
{
1070
    40
1040
1.0
1070
   144
1040
1.0
1070
   271
1070
     0
1070
   272
1070
     8
1002
}
  0
INSERT
  5
15F2
330
1F
100
AcDbEntity
  8
AM_5
100
AcDbBlockReference
  2
*S18
 10
0.0
 20
0.0
 30
0.0
  0
INSERT
  5
1609
330
1F
100
AcDbEntity
  8
AM_5
100
AcDbBlockReference
  2
*S19
 10
0.0
 20
0.0
 30
0.0
  0
INSERT
  5
160B
330
1F
100
AcDbEntity
  8
AM_5
100
AcDbBlockReference
  2
*S20
 10
0.0
 20
0.0
 30
0.0
  0
LINE
  5
1619
330
1F
100
AcDbEntity
  8
AM_7
  6
AM_ISO08W050x2
100
AcDbLine
 10
337.004496669201
 20
143.5919281660856
 30
0.0
 11
343.504496669201
 21
143.5919281660856
 31
0.0
1001
GENIUS_GENOREF_13
1005
161D
  0
LINE
  5
161A
330
1F
100
AcDbEntity
  8
AM_7
  6
AM_ISO08W050x2
100
AcDbLine
 10
337.004496669201
 20
143.5919281660856
 30
0.0
 11
337.004496669201
 21
150.0919281660856
 31
0.0
1001
GENIUS_GENOREF_13
1005
161D
  0
LINE
  5
161B
330
1F
100
AcDbEntity
  8
AM_7
  6
AM_ISO08W050x2
100
AcDbLine
 10
337.004496669201
 20
143.5919281660856
 30
0.0
 11
330.504496669201
 21
143.5919281660856
 31
0.0
1001
GENIUS_GENOREF_13
1005
161D
  0
LINE
  5
161C
330
1F
100
AcDbEntity
  8
AM_7
  6
AM_ISO08W050x2
100
AcDbLine
 10
337.004496669201
 20
143.5919281660856
 30
0.0
 11
337.004496669201
 21
137.0919281660856
 31
0.0
1001
GENIUS_GENOREF_13
1005
161D
  0
POINT
  5
161D
330
1F
100
AcDbEntity
  8
0
 60
     1
100
AcDbPoint
 10
0.0
 20
0.0
 30
0.0
1001
GENIUS_GENOLIS_13
1002
{
1000
ENT
1005
161C
1005
161B
1005
161A
1005
1619
1002
}
1001
GENIUS_GENOENT_13
1002
{
1000
MYREF
1005
161D
1002
}
1002
{
1000
GRP
1005
0
1002
}
1001
GENIUS_GENODEF_13
1002
{
1000
HIER
1070
    10
1002
}
1002
{
1000
MANEDIT
1070
     0
1002
}
1002
{
1000
NOSEL
1070
     0
1002
}
1002
{
1000
BEHIND
1070
     0
1002
}
1002
{
1000
OTHER
1070
     0
1002
}
1002
{
1000
REACTOR
1002
}
1001
GENIUS_GENOBJ-N-CRS_13
1002
{
1000
OWNER
1000
GEN
1002
}
  0
LINE
  5
162B
330
1F
100
AcDbEntity
  8
AM_7
  6
AM_ISO08W050x2
100
AcDbLine
 10
361.004496669201
 20
111.5919281660856
 30
0.0
 11
367.504496669201
 21
111.5919281660856
 31
0.0
1001
GENIUS_GENOREF_13
1005
162F
  0
LINE
  5
162C
330
1F
100
AcDbEntity
  8
AM_7
  6
AM_ISO08W050x2
100
AcDbLine
 10
361.004496669201
 20
111.5919281660856
 30
0.0
 11
361.004496669201
 21
118.0919281660856
 31
0.0
1001
GENIUS_GENOREF_13
1005
162F
  0
LINE
  5
162D
330
1F
100
AcDbEntity
  8
AM_7
  6
AM_ISO08W050x2
100
AcDbLine
 10
361.004496669201
 20
111.5919281660856
 30
0.0
 11
354.504496669201
 21
111.5919281660856
 31
0.0
1001
GENIUS_GENOREF_13
1005
162F
  0
LINE
  5
162E
330
1F
100
AcDbEntity
  8
AM_7
  6
AM_ISO08W050x2
100
AcDbLine
 10
361.004496669201
 20
111.5919281660856
 30
0.0
 11
361.004496669201
 21
105.0919281660856
 31
0.0
1001
GENIUS_GENOREF_13
1005
162F
  0
POINT
  5
162F
330
1F
100
AcDbEntity
  8
0
 60
     1
100
AcDbPoint
 10
0.0
 20
0.0
 30
0.0
1001
GENIUS_GENOENT_13
1002
{
1000
MYREF
1005
162F
1002
}
1002
{
1000
GRP
1005
0
1002
}
1001
GENIUS_GENOLIS_13
1002
{
1000
ENT
1005
162E
1005
162D
1005
162C
1005
162B
1002
}
1001
GENIUS_GENODEF_13
1002
{
1000
HIER
1070
    10
1002
}
1002
{
1000
MANEDIT
1070
     0
1002
}
1002
{
1000
NOSEL
1070
     0
1002
}
1002
{
1000
BEHIND
1070
     0
1002
}
1002
{
1000
OTHER
1070
     0
1002
}
1002
{
1000
REACTOR
1002
}
1001
GENIUS_GENOBJ-N-CRS_13
1002
{
1000
OWNER
1000
GEN
1002
}
  0
LINE
  5
163F
330
1F
100
AcDbEntity
  8
AM_7
  6
AM_ISO08W050x2
100
AcDbLine
 10
246.504496669201
 20
127.5919281660857
 30
0.0
 11
259.7797172573407
 21
127.5919281660857
 31
0.0
1001
GENIUS_GENODEF_13
1002
{
1000
HIER
1070
     0
1002
}
1002
{
1000
MANEDIT
1070
     0
1002
}
1002
{
1000
NOSEL
1070
     0
1002
}
1002
{
1000
BEHIND
1070
     0
1002
}
1002
{
1000
OTHER
1070
     0
1002
}
1002
{
1000
REACTOR
1002
}
1001
GENIUS_GENOBJ-N-CEN_13
1002
{
1000
OWNER
1000
GEN
1002
}
1001
GENIUS_GENCEN_19
1002
{
1040
2.0
1002
}
  0
LINE
  5
164C
330
1F
100
AcDbEntity
  8
AM_7
  6
AM_ISO08W050x2
100
AcDbLine
 10
236.504496669201
 20
88.59192816608572
 30
0.0
 11
248.5731148632299
 21
88.59192816608572
 31
0.0
1001
GENIUS_GENODEF_13
1002
{
1000
HIER
1070
     0
1002
}
1002
{
1000
MANEDIT
1070
     0
1002
}
1002
{
1000
NOSEL
1070
     0
1002
}
1002
{
1000
BEHIND
1070
     0
1002
}
1002
{
1000
OTHER
1070
     0
1002
}
1002
{
1000
REACTOR
1002
}
1001
GENIUS_GENOBJ-N-CEN_13
1002
{
1000
OWNER
1000
GEN
1002
}
1001
GENIUS_GENCEN_19
1002
{
1040
2.0
1002
}
  0
LINE
  5
1659
330
1F
100
AcDbEntity
  8
AM_7
100
AcDbLine
 10
236.504496669201
 20
421.3076645717019
 30
0.0
 11
398.3655878123973
 21
421.3076645717019
 31
0.0
1001
GENIUS_GENODEF_13
1002
{
1000
HIER
1070
     0
1002
}
1002
{
1000
MANEDIT
1070
     0
1002
}
1002
{
1000
NOSEL
1070
     0
1002
}
1002
{
1000
BEHIND
1070
     0
1002
}
1002
{
1000
OTHER
1070
     0
1002
}
1002
{
1000
REACTOR
1002
}
1001
GENIUS_GENOBJ-N-CEN_13
1002
{
1000
OWNER
1000
GEN
1002
}
1001
GENIUS_GENCEN_19
1002
{
1040
2.0
1002
}
  0
LINE
  5
1670
330
1F
100
AcDbEntity
  8
AM_7
100
AcDbLine
 10
171.6395460307136
 20
365.4634077602137
 30
0.0
 11
171.6395460307136
 21
295.6880622514662
 31
0.0
1001
GENIUS_GENODEF_13
1002
{
1000
HIER
1070
     0
1002
}
1002
{
1000
MANEDIT
1070
     0
1002
}
1002
{
1000
NOSEL
1070
     0
1002
}
1002
{
1000
BEHIND
1070
     0
1002
}
1002
{
1000
OTHER
1070
     0
1002
}
1002
{
1000
REACTOR
1002
}
1001
GENIUS_GENOBJ-N-CEN_13
1002
{
1000
OWNER
1000
GEN
1002
}
1001
GENIUS_GENCEN_19
1002
{
1040
2.0
1002
}
  0
LINE
  5
167E
330
1F
100
AcDbEntity
  8
AM_7
  6
AM_ISO08W050x2
100
AcDbLine
 10
389.0044966692009
 20
146.5919281660856
 30
0.0
 11
395.0173227517091
 21
146.5919281660856
 31
0.0
1001
GENIUS_GENODEF_13
1002
{
1000
HIER
1070
     0
1002
}
1002
{
1000
MANEDIT
1070
     0
1002
}
1002
{
1000
NOSEL
1070
     0
1002
}
1002
{
1000
BEHIND
1070
     0
1002
}
1002
{
1000
OTHER
1070
     0
1002
}
1002
{
1000
REACTOR
1002
}
1001
GENIUS_GENOBJ-N-CEN_13
1002
{
1000
OWNER
1000
GEN
1002
}
1001
GENIUS_GENCEN_19
1002
{
1040
2.0
1002
}
  0
LINE
  5
1698
330
1F
100
AcDbEntity
  8
AM_7
  6
AM_ISO08W050x2
100
AcDbLine
 10
389.0044966692009
 20
196.3633892607985
 30
0.0
 11
395.8490421579193
 21
196.3633892607985
 31
0.0
1001
GENIUS_GENOBJ-N-CEN_13
1002
{
1000
OWNER
1000
GEN
1002
}
1001
GENIUS_GENODEF_13
1002
{
1000
HIER
1070
     0
1002
}
1002
{
1000
MANEDIT
1070
     0
1002
}
1002
{
1000
NOSEL
1070
     0
1002
}
1002
{
1000
BEHIND
1070
     0
1002
}
1002
{
1000
OTHER
1070
     0
1002
}
1002
{
1000
REACTOR
1002
}
1001
GENIUS_GENCEN_19
1002
{
1040
2.0
1002
}
  0
LINE
  5
16A5
330
1F
100
AcDbEntity
  8
AM_7
  6
AM_ISO08W050x2
100
AcDbLine
 10
389.0044966692009
 20
413.8076645717018
 30
0.0
 11
396.004496669201
 21
413.8076645717018
 31
0.0
1001
GENIUS_GENODEF_13
1002
{
1000
HIER
1070
     0
1002
}
1002
{
1000
MANEDIT
1070
     0
1002
}
1002
{
1000
NOSEL
1070
     0
1002
}
1002
{
1000
BEHIND
1070
     0
1002
}
1002
{
1000
OTHER
1070
     0
1002
}
1002
{
1000
REACTOR
1002
}
1001
GENIUS_GENOBJ-N-CEN_13
1002
{
1000
OWNER
1000
GEN
1002
}
1001
GENIUS_GENCEN_19
1002
{
1040
2.0
1002
}
  0
LINE
  5
16B2
330
1F
100
AcDbEntity
  8
AM_7
  6
AM_ISO08W050x2
100
AcDbLine
 10
296.8044966692009
 20
351.5634077602137
 30
0.0
 11
296.8044966692009
 21
344.1943507430873
 31
0.0
1001
GENIUS_GENODEF_13
1002
{
1000
HIER
1070
     0
1002
}
1002
{
1000
MANEDIT
1070
     0
1002
}
1002
{
1000
NOSEL
1070
     0
1002
}
1002
{
1000
BEHIND
1070
     0
1002
}
1002
{
1000
OTHER
1070
     0
1002
}
1002
{
1000
REACTOR
1002
}
1001
GENIUS_GENOBJ-N-CEN_13
1002
{
1000
OWNER
1000
GEN
1002
}
1001
GENIUS_GENCEN_19
1002
{
1040
2.0
1002
}
  0
LINE
  5
16C0
330
1F
100
AcDbEntity
  8
AM_7
100
AcDbLine
 10
171.6395460307136
 20
324.4634077602137
 30
0.0
 11
183.6395460307136
 21
324.4634077602137
 31
0.0
1001
GENIUS_GENOREF_13
1005
16C4
  0
LINE
  5
16C1
330
1F
100
AcDbEntity
  8
AM_7
100
AcDbLine
 10
171.6395460307136
 20
324.4634077602137
 30
0.0
 11
171.6395460307136
 21
336.4634077602137
 31
0.0
1001
GENIUS_GENOREF_13
1005
16C4
  0
LINE
  5
16C2
330
1F
100
AcDbEntity
  8
AM_7
100
AcDbLine
 10
171.6395460307136
 20
324.4634077602137
 30
0.0
 11
159.6395460307136
 21
324.4634077602137
 31
0.0
1001
GENIUS_GENOREF_13
1005
16C4
  0
LINE
  5
16C3
330
1F
100
AcDbEntity
  8
AM_7
100
AcDbLine
 10
171.6395460307136
 20
324.4634077602137
 30
0.0
 11
171.6395460307136
 21
312.4634077602137
 31
0.0
1001
GENIUS_GENOREF_13
1005
16C4
  0
POINT
  5
16C4
330
1F
100
AcDbEntity
  8
0
 60
     1
100
AcDbPoint
 10
0.0
 20
0.0
 30
0.0
1001
GENIUS_GENOLIS_13
1002
{
1000
ENT
1005
16C3
1005
16C2
1005
16C1
1005
16C0
1002
}
1001
GENIUS_GENODEF_13
1002
{
1000
HIER
1070
    10
1002
}
1002
{
1000
MANEDIT
1070
     0
1002
}
1002
{
1000
NOSEL
1070
     0
1002
}
1002
{
1000
BEHIND
1070
     0
1002
}
1002
{
1000
OTHER
1070
     0
1002
}
1002
{
1000
REACTOR
1002
}
1001
GENIUS_GENOBJ-N-CRS_13
1002
{
1000
OWNER
1000
GEN
1002
}
1001
GENIUS_GENOENT_13
1002
{
1000
MYREF
1005
16C4
1002
}
1002
{
1000
GRP
1005
0
1002
}
  0
LINE
  5
16D5
330
1F
100
AcDbEntity
  8
AM_7
  6
AM_ISO08W050x2
100
AcDbLine
 10
296.8044966692009
 20
100.4919281660857
 30
0.0
 11
296.8044966692009
 21
107.5655642261617
 31
0.0
1001
GENIUS_GENOBJ-N-CEN_13
1002
{
1000
OWNER
1000
GEN
1002
}
1001
GENIUS_GENODEF_13
1002
{
1000
HIER
1070
     0
1002
}
1002
{
1000
MANEDIT
1070
     0
1002
}
1002
{
1000
NOSEL
1070
     0
1002
}
1002
{
1000
BEHIND
1070
     0
1002
}
1002
{
1000
OTHER
1070
     0
1002
}
1002
{
1000
REACTOR
1002
}
1001
GENIUS_GENCEN_19
1002
{
1040
2.0
1002
}
  0
LINE
  5
178B
330
1F
100
AcDbEntity
  8
LOGO
 62
     4
100
AcDbLine
 10
477.3908915828046
 20
38.5614386118591
 30
0.0
 11
117.3908915828046
 21
38.5614386118591
 31
0.0
  0
LWPOLYLINE
  5
178C
330
1F
100
AcDbEntity
  8
LOGO
 62
     4
100
AcDbPolyline
 90
        4
 70
     1
 43
0.0
 10
117.3908915828047
 20
38.5614386118591
 10
477.3908915828045
 20
38.5614386118591
 10
477.3908915828045
 20
497.5666512815417
 10
117.3908915828047
 20
497.5666512815417
1001
GENIUS_GENREC_14
1002
{
1000
PYDIR
1011
117.3908915828047
1021
497.5666512815417
1031
0.0
1002
}
1002
{
1000
PXDIR
1011
477.3908915828045
1021
38.5614386118591
1031
0.0
1002
}
1002
{
1000
PORI
1011
117.3908915828047
1021
38.5614386118591
1031
0.0
1002
}
1002
{
1000
PINS
1011
117.3908915828047
1021
38.5614386118591
1031
0.0
1002
}
1002
{
1000
PINS2
1011
477.3908915828045
1021
497.5666512815417
1031
0.0
1002
}
1002
{
1000
C
1070
     1
1002
}
1001
GENIUS_GENODEF_13
1002
{
1000
HIER
1070
     0
1002
}
1002
{
1000
MANEDIT
1070
     0
1002
}
1002
{
1000
NOSEL
1070
     0
1002
}
1002
{
1000
BEHIND
1070
     0
1002
}
1002
{
1000
OTHER
1070
     0
1002
}
1002
{
1000
REACTOR
1002
}
1001
GENIUS_GENOBJ-N-REC_13
1002
{
1000
OWNER
1000
GEN
1002
}
  0
LWPOLYLINE
  5
178D
330
1F
100
AcDbEntity
  8
LOGO
 62
     4
100
AcDbPolyline
 90
        4
 70
     1
 43
0.0
 10
117.3908915828047
 20
38.5614386118591
 10
477.3908915828045
 20
38.5614386118591
 10
477.3908915828045
 20
2.566651281541714
 10
117.3908915828047
 20
2.566651281541714
1001
GENIUS_GENREC_14
1002
{
1000
PYDIR
1011
117.3908915828047
1021
2.566651281541714
1031
0.0
1002
}
1002
{
1000
PXDIR
1011
477.3908915828045
1021
38.5614386118591
1031
0.0
1002
}
1002
{
1000
PORI
1011
117.3908915828047
1021
38.5614386118591
1031
0.0
1002
}
1002
{
1000
PINS
1011
117.3908915828047
1021
38.5614386118591
1031
0.0
1002
}
1002
{
1000
PINS2
1011
477.3908915828045
1021
2.566651281541714
1031
0.0
1002
}
1002
{
1000
C
1070
     1
1002
}
1001
GENIUS_GENOBJ-N-REC_13
1002
{
1000
OWNER
1000
GEN
1002
}
1001
GENIUS_GENODEF_13
1002
{
1000
HIER
1070
     0
1002
}
1002
{
1000
MANEDIT
1070
     0
1002
}
1002
{
1000
NOSEL
1070
     0
1002
}
1002
{
1000
BEHIND
1070
     0
1002
}
1002
{
1000
OTHER
1070
     0
1002
}
1002
{
1000
REACTOR
1002
}
  0
TEXT
  5
178E
330
1F
100
AcDbEntity
  8
LOGO
 62
     7
100
AcDbText
 10
198.6647380004779
 20
22.79273478609207
 30
0.0
 40
4.799304977375565
  1
Order example:
 41
0.8
  7
CHINESET
100
AcDbText
  0
TEXT
  5
178F
330
1F
100
AcDbEntity
  8
LOGO
 62
     7
100
AcDbText
 10
199.5257730020566
 20
29.54916248546169
 30
0.0
 40
7.198957466063347
  1
訂購代號：
  7
CHINESET
100
AcDbText
  0
LINE
  5
1790
330
1F
100
AcDbEntity
  8
LOGO
 62
     4
100
AcDbLine
 10
196.5794237095015
 20
2.566651281542135
 30
0.0
 11
196.5794237095015
 21
38.5614386118591
 31
0.0
  0
TEXT
  5
1791
330
1F
100
AcDbEntity
  8
LOGO
  6
Continuous
100
AcDbText
 10
130.320380991554
 20
9.637772931712561
 30
0.0
 40
5.399218099547511
  1
金器工業股份有限公司
  7
CHINESET
100
AcDbText
  0
TEXT
  5
1792
330
1F
100
AcDbEntity
  8
LOGO
  6
Continuous
100
AcDbText
 10
120.4030855253091
 20
4.237497008732617
 30
0.0
 40
3.599478733031673
  1
MINDMAN INDUSTRIAL CO., LTD.
 41
0.85
  7
CHINESET
100
AcDbText
  0
LINE
  5
1793
330
1F
100
AcDbEntity
  8
LOGO
 62
     4
100
AcDbLine
 10
196.5794237095015
 20
31.36248114579573
 30
0.0
 11
143.7870689583701
 21
31.36248114579573
 31
0.0
  0
LINE
  5
1794
330
1F
100
AcDbEntity
  8
LOGO
 62
     4
100
AcDbLine
 10
196.5794237095015
 20
24.16352367973231
 30
0.0
 11
143.7870689583701
 21
24.16352367973231
 31
0.0
  0
LINE
  5
1795
330
1F
100
AcDbEntity
  8
LOGO
 62
     4
100
AcDbLine
 10
196.5794237095015
 20
16.96456621366931
 30
0.0
 11
117.3908915828046
 21
16.96456621366931
 31
0.0
  0
LINE
  5
1796
330
1F
100
AcDbEntity
  8
LOGO
 62
     4
100
AcDbLine
 10
143.7870689583701
 20
16.96456621366931
 30
0.0
 11
143.7870689583701
 21
38.5614386118591
 31
0.0
  0
TEXT
  5
1797
330
1F
100
AcDbEntity
  8
LOGO
100
AcDbText
 10
179.8681516695785
 20
18.76430558018457
 30
0.0
 40
3.599478733031673
  1
mm
  7
CHINESET
 72
     1
 11
184.32464914857
 21
20.56404494670041
 31
0.0
100
AcDbText
 73
     2
  0
TEXT
  5
1798
330
1F
100
AcDbEntity
  8
LOGO
100
AcDbText
 10
177.9827104284666
 20
33.16222051231136
 30
0.0
 40
3.599478733031673
  1
1 : 1
  7
CHINESET
 72
     1
 11
184.32464914857
 21
34.9619598788272
 31
0.0
100
AcDbText
 73
     2
  0
LINE
  5
1799
330
1F
100
AcDbEntity
  8
LOGO
 62
     4
100
AcDbLine
 10
172.5828988226236
 20
16.96456621366931
 30
0.0
 11
172.5828988226236
 21
38.5614386118591
 31
0.0
  0
TEXT
  5
179A
330
1F
100
AcDbEntity
  8
LOGO
100
AcDbText
 10
146.7550320029726
 20
33.16399190932565
 30
235.9039063680897
 40
3.599478733031673
  1
比例 Scale:
 41
0.9
  7
CHINESET
 72
     4
 11
158.1849838904968
 21
34.9619598788272
 31
235.9039063680897
100
AcDbText
  0
TEXT
  5
179B
330
1F
100
AcDbEntity
  8
LOGO
100
AcDbText
 10
146.5477405937935
 20
26.01389547757303
 30
235.9039063680897
 40
3.599478733031673
  1
投影  View:
 41
0.9
  7
CHINESET
 72
     4
 11
158.1849838904968
 21
27.76300241276383
 31
235.9039063680897
100
AcDbText
  0
TEXT
  5
179C
330
1F
100
AcDbEntity
  8
LOGO
100
AcDbText
 10
146.8996539163533
 20
18.76430558018457
 30
235.9039063680897
 40
3.599478733031673
  1
單位  Unit:
 41
0.9
  7
CHINESET
 72
     4
 11
158.1849838904968
 21
20.56404494670041
 31
235.9039063680897
100
AcDbText
  0
SOLID
  5
179D
330
1F
100
AcDbEntity
  8
LOGO
 62
     5
100
AcDbTrace
 10
121.1254085355647
 20
22.94818726188146
 30
0.0
 11
122.6817286894056
 21
22.94818726188103
 31
0.0
 12
129.175340365776
 22
37.70639561727002
 32
0.0
 13
130.7316605196178
 23
37.70639561726921
 33
0.0
  0
SOLID
  5
179E
330
1F
100
AcDbEntity
  8
LOGO
 62
     5
100
AcDbTrace
 10
123.3257232358242
 20
22.94818726188146
 30
0.0
 11
124.8820433896651
 21
22.94818726188146
 31
0.0
 12
130.7316605196178
 22
36.52573894883835
 32
0.0
 13
129.175340365776
 23
30.8192317180881
 33
0.0
  0
SOLID
  5
179F
330
1F
100
AcDbEntity
  8
LOGO
 62
     2
100
AcDbTrace
 10
122.6817286894056
 20
22.94818726188103
 30
0.0
 11
123.3257232358242
 21
22.94818726188146
 31
0.0
 12
130.7316605196178
 22
37.70639561726921
 32
0.0
 13
131.3756550660355
 23
37.70639561726921
 33
0.0
  0
SOLID
  5
17A0
330
1F
100
AcDbEntity
  8
LOGO
 62
     5
100
AcDbTrace
 10
118.6302456725056
 20
17.58156604174064
 30
0.0
 11
119.1669077945203
 21
17.58156604174064
 31
0.0
 12
120.6781901005533
 22
20.26487665181084
 32
0.0
 13
121.2148522225664
 23
20.26487665181084
 33
0.0
  0
SOLID
  5
17A1
330
1F
100
AcDbEntity
  8
LOGO
 62
     5
100
AcDbTrace
 10
120.6781901005533
 20
20.26487665181084
 30
0.0
 11
121.2148522225664
 21
20.26487665181084
 31
0.0
 12
120.6781901005533
 22
17.58156604174064
 32
0.0
 13
121.2148522225664
 23
17.58156604174064
 33
0.0
  0
SOLID
  5
17A2
330
1F
100
AcDbEntity
  8
LOGO
 62
     5
100
AcDbTrace
 10
120.6781901005533
 20
17.58156604174064
 30
0.0
 11
121.2148522225664
 21
17.58156604174064
 31
0.0
 12
122.7261345286019
 22
20.26487665181084
 32
0.0
 13
123.2627966506158
 23
20.26487665181084
 33
0.0
  0
SOLID
  5
17A3
330
1F
100
AcDbEntity
  8
LOGO
 62
     5
100
AcDbTrace
 10
122.7261345286019
 20
20.26487665181084
 30
0.0
 11
123.2627966506158
 21
20.26487665181084
 31
0.0
 12
122.7261345286019
 22
17.58156604174064
 32
0.0
 13
123.2627966506158
 23
17.58156604174064
 33
0.0
  0
POLYLINE
  5
17A4
330
1F
100
AcDbEntity
  8
LOGO
 62
     5
100
AcDb2dPolyline
 66
     1
 10
0.0
 20
0.0
 30
0.0
 40
0.5375221574660633
 41
0.5375221574660633
  0
VERTEX
  5
17A5
330
17A4
100
AcDbEntity
  8
LOGO
 62
     5
100
AcDbVertex
100
AcDb2dVertex
 10
140.714866042259
 20
19.19155240778266
 30
0.0
 42
1.0
  0
VERTEX
  5
17A6
330
17A4
100
AcDbEntity
  8
LOGO
 62
     5
100
AcDbVertex
100
AcDb2dVertex
 10
139.1022995698604
 20
19.19155240778266
 30
0.0
 42
1.0
  0
SEQEND
  5
17A7
330
17A4
100
AcDbEntity
  8
LOGO
 62
     5
  0
POLYLINE
  5
17A8
330
1F
100
AcDbEntity
  8
LOGO
 62
     5
100
AcDb2dPolyline
 66
     1
 10
0.0
 20
0.0
 30
0.0
 70
     1
  0
VERTEX
  5
17A9
330
17A8
100
AcDbEntity
  8
LOGO
 62
     5
100
AcDbVertex
100
AcDb2dVertex
 10
136.0625400424323
 20
18.92322134677533
 30
0.0
 42
1.000000057330635
  0
VERTEX
  5
17AA
330
17A8
100
AcDbEntity
  8
LOGO
 62
     5
100
AcDbVertex
100
AcDb2dVertex
 10
137.6725264084747
 20
18.92322134677533
 30
0.0
 42
1.000000057330635
  0
SEQEND
  5
17AB
330
17A8
100
AcDbEntity
  8
LOGO
 62
     5
  0
CIRCLE
  5
17AC
330
1F
100
AcDbEntity
  8
LOGO
 62
     5
100
AcDbCircle
 10
136.8675332254547
 20
18.92322134677533
 30
0.0
 40
0.8049931830211765
  0
POLYLINE
  5
17AD
330
1F
100
AcDbEntity
  8
LOGO
 62
     5
100
AcDb2dPolyline
 66
     1
 10
0.0
 20
0.0
 30
0.0
 70
     1
 40
0.5375221574660633
 41
0.5375221574660633
  0
VERTEX
  5
17AE
330
17AD
100
AcDbEntity
  8
LOGO
 62
     5
100
AcDbVertex
100
AcDb2dVertex
 10
135.7924889105218
 20
18.92322134677533
 30
0.0
 42
1.0
  0
VERTEX
  5
17AF
330
17AD
100
AcDbEntity
  8
LOGO
 62
     5
100
AcDbVertex
100
AcDb2dVertex
 10
137.942577540386
 20
18.92322134677533
 30
0.0
 42
1.0
  0
SEQEND
  5
17B0
330
17AD
100
AcDbEntity
  8
LOGO
 62
     5
  0
LINE
  5
17B1
330
1F
100
AcDbEntity
  8
LOGO
100
AcDbLine
 10
140.9819070500871
 20
17.58156604174064
 30
0.0
 11
140.9819070500871
 21
19.19155240778266
 31
0.0
  0
SOLID
  5
17B2
330
1F
100
AcDbEntity
  8
LOGO
 62
     5
100
AcDbTrace
 10
137.6724727422649
 20
20.26487665181084
 30
0.0
 11
138.209134864278
 21
20.26487665181084
 31
0.0
 12
137.6724727422649
 22
17.58156604174064
 32
0.0
 13
138.209134864278
 23
17.58156604174064
 33
0.0
  0
SOLID
  5
17B3
330
1F
100
AcDbEntity
  8
LOGO
 62
     5
100
AcDbTrace
 10
138.8352585620307
 20
17.58156604174064
 30
0.0
 11
139.3719206840455
 21
17.58156604174064
 31
0.0
 12
138.8352585620307
 22
20.26487665181084
 32
0.0
 13
139.3719206840455
 23
20.26487665181084
 33
0.0
  0
SOLID
  5
17B4
330
1F
100
AcDbEntity
  8
LOGO
 62
     5
100
AcDbTrace
 10
140.445244928074
 20
19.19155240778266
 30
0.0
 11
140.9819070500871
 21
19.19155240778266
 31
0.0
 12
140.445244928074
 22
17.58156604174064
 32
0.0
 13
140.9819070500871
 23
17.58156604174064
 33
0.0
  0
SOLID
  5
17B5
330
1F
100
AcDbEntity
  8
LOGO
 62
     5
100
AcDbTrace
 10
138.7815923498292
 20
36.52573894883835
 30
0.0
 11
137.2252721959891
 21
30.8192317180881
 31
0.0
 12
138.7815923498292
 22
22.94818726188103
 32
0.0
 13
137.2252721959891
 23
22.94818726188103
 33
0.0
  0
SOLID
  5
17B6
330
1F
100
AcDbEntity
  8
LOGO
 62
     5
100
AcDbTrace
 10
139.425586896247
 20
22.94818726188103
 30
0.0
 11
140.9819070500871
 21
22.94818726188103
 31
0.0
 12
139.425586896247
 22
37.70639561726921
 32
0.0
 13
140.9819070500871
 23
37.70639561727002
 33
0.0
  0
SOLID
  5
17B7
330
1F
100
AcDbEntity
  8
LOGO
 62
     2
100
AcDbTrace
 10
138.7815923498292
 20
37.70639561727002
 30
0.0
 11
139.425586896247
 21
37.70639561726921
 31
0.0
 12
138.7815923498292
 22
22.94818726188103
 32
0.0
 13
139.425586896247
 23
22.94818726188103
 33
0.0
  0
POLYLINE
  5
17B8
330
1F
100
AcDbEntity
  8
LOGO
 62
     5
100
AcDb2dPolyline
 66
     1
 10
0.0
 20
0.0
 30
0.0
 40
0.5375221574660633
 41
0.5375221574660633
  0
VERTEX
  5
17B9
330
17B8
100
AcDbEntity
  8
LOGO
 62
     5
100
AcDbVertex
100
AcDb2dVertex
 10
133.0226731825819
 20
19.19155240778266
 30
0.0
 42
1.0
  0
VERTEX
  5
17BA
330
17B8
100
AcDbEntity
  8
LOGO
 62
     5
100
AcDbVertex
100
AcDb2dVertex
 10
131.4101067101835
 20
19.19155240778266
 30
0.0
 42
1.0
  0
SEQEND
  5
17BB
330
17B8
100
AcDbEntity
  8
LOGO
 62
     5
  0
POLYLINE
  5
17BC
330
1F
100
AcDbEntity
  8
LOGO
 62
     5
100
AcDb2dPolyline
 66
     1
 10
0.0
 20
0.0
 30
0.0
 40
0.5375221574660633
 41
0.5375221574660633
  0
VERTEX
  5
17BD
330
17BC
100
AcDbEntity
  8
LOGO
 62
     5
100
AcDbVertex
100
AcDb2dVertex
 10
134.6326595486228
 20
19.19155240778266
 30
0.0
 42
1.0
  0
VERTEX
  5
17BE
330
17BC
100
AcDbEntity
  8
LOGO
 62
     5
100
AcDbVertex
100
AcDb2dVertex
 10
133.0200930762251
 20
19.19155240778266
 30
0.0
 42
1.0
  0
SEQEND
  5
17BF
330
17BC
100
AcDbEntity
  8
LOGO
 62
     5
  0
POLYLINE
  5
17C0
330
1F
100
AcDbEntity
  8
LOGO
 62
     5
100
AcDb2dPolyline
 66
     1
 10
0.0
 20
0.0
 30
0.0
 40
0.5375221574660633
 41
0.5375221574660633
  0
VERTEX
  5
17C1
330
17C0
100
AcDbEntity
  8
LOGO
 62
     5
100
AcDbVertex
100
AcDb2dVertex
 10
126.9404666889458
 20
19.19155240778266
 30
0.0
 42
1.0
  0
VERTEX
  5
17C2
330
17C0
100
AcDbEntity
  8
LOGO
 62
     5
100
AcDbVertex
100
AcDb2dVertex
 10
125.3279002165481
 20
19.19155240778266
 30
0.0
 42
1.0
  0
SEQEND
  5
17C3
330
17C0
100
AcDbEntity
  8
LOGO
 62
     5
  0
SOLID
  5
17C4
330
1F
100
AcDbEntity
  8
LOGO
 62
     5
100
AcDbTrace
 10
125.0608592087192
 20
20.26487665181084
 30
0.0
 11
125.5975213307322
 21
20.26487665181084
 31
0.0
 12
125.0608592087192
 22
17.58156604174064
 32
0.0
 13
125.5975213307322
 23
17.58156604174064
 33
0.0
  0
SOLID
  5
17C5
330
1F
100
AcDbEntity
  8
LOGO
 62
     5
100
AcDbTrace
 10
126.6708455747616
 20
19.19155240778266
 30
0.0
 11
127.2075076967763
 21
19.19155240778266
 31
0.0
 12
126.6708455747616
 22
17.58156604174064
 32
0.0
 13
127.2075076967763
 23
17.58156604174064
 33
0.0
  0
POLYLINE
  5
17C6
330
1F
100
AcDbEntity
  8
LOGO
 62
     5
100
AcDb2dPolyline
 66
     1
 10
0.0
 20
0.0
 30
0.0
 70
     1
 40
0.5375221574660633
 41
0.5375221574660633
  0
VERTEX
  5
17C7
330
17C6
100
AcDbEntity
  8
LOGO
 62
     5
100
AcDbVertex
100
AcDb2dVertex
 10
128.100296050844
 20
18.92322134677533
 30
0.0
 42
1.0
  0
VERTEX
  5
17C8
330
17C6
100
AcDbEntity
  8
LOGO
 62
     5
100
AcDbVertex
100
AcDb2dVertex
 10
130.2503846807089
 20
18.92322134677533
 30
0.0
 42
1.0
  0
SEQEND
  5
17C9
330
17C6
100
AcDbEntity
  8
LOGO
 62
     5
  0
SOLID
  5
17CA
330
1F
100
AcDbEntity
  8
LOGO
 62
     5
100
AcDbTrace
 10
129.9802798825862
 20
21.06986983483249
 30
0.0
 11
130.5169420046002
 21
21.06986983483249
 31
0.0
 12
129.9802798825862
 22
17.58156604174064
 32
0.0
 13
130.5169420046002
 23
17.58156604174064
 33
0.0
  0
SOLID
  5
17CB
330
1F
100
AcDbEntity
  8
LOGO
 62
     5
100
AcDbTrace
 10
131.1430657023554
 20
20.26487665181084
 30
0.0
 11
131.6797278243684
 21
20.26487665181084
 31
0.0
 12
131.1430657023554
 22
17.58156604174064
 32
0.0
 13
131.6797278243684
 23
17.58156604174064
 33
0.0
  0
SOLID
  5
17CC
330
1F
100
AcDbEntity
  8
LOGO
 62
     5
100
AcDbTrace
 10
132.7530520683962
 20
19.19155240778266
 30
0.0
 11
133.2897141904109
 21
19.19155240778266
 31
0.0
 12
132.7530520683962
 22
17.58156604174064
 32
0.0
 13
133.2897141904109
 23
17.58156604174064
 33
0.0
  0
SOLID
  5
17CD
330
1F
100
AcDbEntity
  8
LOGO
 62
     5
100
AcDbTrace
 10
134.3630384344387
 20
19.19155240778266
 30
0.0
 11
134.8997005564525
 21
19.19155240778266
 31
0.0
 12
134.3630384344387
 22
17.58156604173983
 32
0.0
 13
134.8997005564525
 23
17.58156604173983
 33
0.0
  0
SOLID
  5
17CE
330
1F
100
AcDbEntity
  8
LOGO
 62
     5
100
AcDbTrace
 10
123.8980733889509
 20
20.6405401372209
 30
0.0
 11
124.4347355109664
 21
20.6405401372209
 31
0.0
 12
123.8980733889509
 22
21.06986983483249
 32
0.0
 13
124.4347355109664
 23
21.06986983483249
 33
0.0
  0
SOLID
  5
17CF
330
1F
100
AcDbEntity
  8
LOGO
 62
     5
100
AcDbTrace
 10
123.8980733889509
 20
20.26487665181084
 30
0.0
 11
124.4347355109664
 21
20.26487665181084
 31
0.0
 12
123.8980733889509
 22
17.58156604173983
 32
0.0
 13
124.4347355109664
 23
17.58156604174064
 33
0.0
  0
SOLID
  5
17D0
330
1F
100
AcDbEntity
  8
LOGO
 62
     5
100
AcDbTrace
 10
129.175340365776
 20
22.94818726188146
 30
0.0
 11
130.7316605196178
 21
22.94818726188146
 31
0.0
 12
129.175340365776
 22
30.8192317180881
 32
0.0
 13
130.7316605196178
 23
36.52573894883835
 33
0.0
  0
SOLID
  5
17D1
330
1F
100
AcDbEntity
  8
LOGO
 62
     5
100
AcDbTrace
 10
131.3756550660355
 20
37.70639561726921
 30
0.0
 11
132.9319752198757
 21
37.70639561727002
 31
0.0
 12
131.3756550660355
 22
24.12884393031232
 32
0.0
 13
132.9319752198757
 23
29.83535116106256
 33
0.0
  0
SOLID
  5
17D2
330
1F
100
AcDbEntity
  8
LOGO
 62
     2
100
AcDbTrace
 10
130.7316605196178
 20
37.70639561726921
 30
0.0
 11
131.3756550660355
 21
37.70639561726921
 31
0.0
 12
130.7316605196178
 22
22.94818726188146
 32
0.0
 13
131.3756550660355
 23
22.94818726188146
 33
0.0
  0
SOLID
  5
17D3
330
1F
100
AcDbEntity
  8
LOGO
 62
     5
100
AcDbTrace
 10
131.3756550660355
 20
24.12884393031232
 30
0.0
 11
132.9319752198757
 21
29.83535116106256
 31
0.0
 12
138.7815923498292
 22
37.70639561727002
 32
0.0
 13
137.2252721959891
 23
37.70639561727002
 33
0.0
  0
SOLID
  5
17D4
330
1F
100
AcDbEntity
  8
LOGO
 62
     5
100
AcDbTrace
 10
131.3756550660355
 20
22.94818726188146
 30
0.0
 11
132.9319752198757
 21
22.94818726188146
 31
0.0
 12
138.7815923498292
 22
36.52573894883835
 32
0.0
 13
137.2252721959891
 23
30.8192317180881
 33
0.0
  0
SOLID
  5
17D5
330
1F
100
AcDbEntity
  8
LOGO
 62
     2
100
AcDbTrace
 10
130.7316605196178
 20
22.94818726188146
 30
0.0
 11
131.3756550660355
 21
22.94818726188146
 31
0.0
 12
138.7815923498292
 22
37.70639561727002
 32
0.0
 13
139.425586896247
 23
37.70639561726921
 33
0.0
  0
LINE
  5
17D6
330
1F
100
AcDbEntity
  8
LOGO
 62
     4
100
AcDbLine
 10
263.1584385975001
 20
18.76430558018526
 30
0.0
 11
263.1584385975001
 21
5.566216892401797
 31
0.0
  0
LINE
  5
17D7
330
1F
100
AcDbEntity
  8
LOGO
 62
     4
100
AcDbLine
 10
246.0886561525917
 20
18.76430558018526
 30
0.0
 11
246.0886561525917
 21
5.566216892401797
 31
0.0
  0
LINE
  5
17D8
330
1F
100
AcDbEntity
  8
LOGO
 62
     4
100
AcDbLine
 10
263.1584385975001
 20
5.566216892401797
 30
0.0
 11
246.0886561525917
 21
5.566216892401797
 31
0.0
  0
LINE
  5
17D9
330
1F
100
AcDbEntity
  8
LOGO
 62
     4
100
AcDbLine
 10
274.646734464303
 20
34.9619598788272
 30
0.0
 11
246.0886561525917
 21
34.9619598788272
 31
0.0
  0
LINE
  5
17DA
330
1F
100
AcDbEntity
  8
LOGO
 62
     4
100
AcDbLine
 10
274.646734464303
 20
24.16352367973231
 30
0.0
 11
246.0886561525917
 21
24.16352367973231
 31
0.0
  0
LINE
  5
17DB
330
1F
100
AcDbEntity
  8
LOGO
 62
     4
100
AcDbLine
 10
246.0886561525917
 20
34.9619598788272
 30
0.0
 11
246.0886561525917
 21
24.16352367973231
 31
0.0
  0
LINE
  5
17DC
330
1F
100
AcDbEntity
  8
LOGO
 62
     4
100
AcDbLine
 10
274.646734464303
 20
34.9619598788272
 30
0.0
 11
274.646734464303
 21
24.16352367973231
 31
0.0
  0
LINE
  5
17DD
330
1F
100
AcDbEntity
  8
LOGO
 62
     4
100
AcDbLine
 10
259.3389344768563
 20
24.16352367973231
 30
0.0
 11
259.3389344768563
 21
18.76430558018526
 31
0.0
  0
TEXT
  5
17DE
330
1F
100
AcDbEntity
  8
LOGO
  6
Continuous
100
AcDbText
 10
248.0073691464958
 20
26.41768144898128
 30
0.0
 40
6.299999999999999
  1
MVSN
  7
CHINESET
100
AcDbText
  0
LINE
  5
17DF
330
1F
100
AcDbEntity
  8
LOGO
 62
     4
100
AcDbLine
 10
263.1584385975001
 20
18.76430558018526
 30
0.0
 11
246.0886561525917
 21
18.76430558018526
 31
0.0
  0
TEXT
  5
17E0
330
1F
100
AcDbEntity
  8
LOGO
  6
Continuous
100
AcDbText
 10
250.9500640047992
 20
7.429099123485201
 30
235.9039063680897
 40
2.699999999999999
  1
Model
 41
0.8
  7
CHINESET
100
AcDbText
  0
TEXT
  5
17E1
330
1F
100
AcDbEntity
  8
LOGO
100
AcDbText
 10
250.2314117764008
 20
12.43431723195444
 30
235.9039063680897
 40
4.5
  1
型號
  7
CHINESET
100
AcDbText
  0
LINE
  5
17E2
330
1F
100
AcDbEntity
  8
LOGO
  6
Continuous
100
AcDbLine
 10
275.7946974801134
 20
29.52449201170647
 30
0.0
 11
280.5628928882046
 21
29.52449201170647
 31
0.0
  0
LINE
  5
17E3
330
1F
100
AcDbEntity
  8
LOGO
 62
     4
100
AcDbLine
 10
287.8344547081693
 20
18.76430558018526
 30
0.0
 11
287.8344547081693
 21
5.566216892401797
 31
0.0
  0
LINE
  5
17E4
330
1F
100
AcDbEntity
  8
LOGO
 62
     4
100
AcDbLine
 10
265.9704899972843
 20
18.76430558018526
 30
0.0
 11
265.9704899972843
 21
5.566216892401797
 31
0.0
  0
LINE
  5
17E5
330
1F
100
AcDbEntity
  8
LOGO
 62
     4
100
AcDbLine
 10
287.8344547081693
 20
5.566216892401797
 30
0.0
 11
265.9704899972843
 21
5.566216892401797
 31
0.0
  0
LINE
  5
17E6
330
1F
100
AcDbEntity
  8
LOGO
 62
     4
100
AcDbLine
 10
295.0197175761078
 20
34.9619598788272
 30
0.0
 11
282.0670071928775
 21
34.9619598788272
 31
0.0
  0
LINE
  5
17E7
330
1F
100
AcDbEntity
  8
LOGO
 62
     4
100
AcDbLine
 10
295.0197175761078
 20
24.16352367973231
 30
0.0
 11
282.0670071928775
 21
24.16352367973231
 31
0.0
  0
LINE
  5
17E8
330
1F
100
AcDbEntity
  8
LOGO
 62
     4
100
AcDbLine
 10
282.0670071928775
 20
34.9619598788272
 30
0.0
 11
282.0670071928775
 21
24.16352367973231
 31
0.0
  0
LINE
  5
17E9
330
1F
100
AcDbEntity
  8
LOGO
 62
     4
100
AcDbLine
 10
295.0197175761078
 20
34.9619598788272
 30
0.0
 11
295.0197175761078
 21
24.16352367973231
 31
0.0
  0
LINE
  5
17EA
330
1F
100
AcDbEntity
  8
LOGO
 62
     4
100
AcDbLine
 10
288.5433623844928
 20
24.16352367973231
 30
0.0
 11
288.5433623844928
 21
21.46391462995881
 31
0.0
  0
TEXT
  5
17EB
330
1F
100
AcDbEntity
  8
LOGO
  6
Continuous
100
AcDbText
 10
283.8223666515864
 20
26.41768144898128
 30
0.0
 40
6.299999999999999
  1
300
  7
CHINESET
100
AcDbText
  0
LINE
  5
17EC
330
1F
100
AcDbEntity
  8
LOGO
 62
     4
100
AcDbLine
 10
287.8344547081693
 20
18.76430558018526
 30
0.0
 11
265.9704899972843
 21
18.76430558018526
 31
0.0
  0
LINE
  5
17ED
330
1F
100
AcDbEntity
  8
LOGO
  6
Continuous
100
AcDbLine
 10
302.321435551119
 20
29.52449201170647
 30
0.0
 11
307.0896309592103
 21
29.52449201170647
 31
0.0
  0
LINE
  5
17EE
330
1F
100
AcDbEntity
  8
LOGO
 62
     4
100
AcDbLine
 10
308.7880007381978
 20
18.76430558018526
 30
0.0
 11
308.7880007381978
 21
5.566216892401797
 31
0.0
  0
LINE
  5
17EF
330
1F
100
AcDbEntity
  8
LOGO
 62
     4
100
AcDbLine
 10
290.7624186930622
 20
18.76430558018526
 30
0.0
 11
290.7624186930622
 21
5.566216892401797
 31
0.0
  0
LINE
  5
17F0
330
1F
100
AcDbEntity
  8
LOGO
 62
     4
100
AcDbLine
 10
308.7880007381978
 20
5.566216892401797
 30
0.0
 11
290.7624186930622
 21
5.566216892401797
 31
0.0
  0
LINE
  5
17F1
330
1F
100
AcDbEntity
  8
LOGO
 62
     4
100
AcDbLine
 10
316.259373661591
 20
34.9619598788272
 30
0.0
 11
308.5937452638833
 21
34.9619598788272
 31
0.0
  0
LINE
  5
17F2
330
1F
100
AcDbEntity
  8
LOGO
 62
     4
100
AcDbLine
 10
316.259373661591
 20
24.16352367973231
 30
0.0
 11
308.5937452638833
 21
24.16352367973231
 31
0.0
  0
LINE
  5
17F3
330
1F
100
AcDbEntity
  8
LOGO
 62
     4
100
AcDbLine
 10
308.5937452638833
 20
34.9619598788272
 30
0.0
 11
308.5937452638833
 21
24.16352367973231
 31
0.0
  0
LINE
  5
17F4
330
1F
100
AcDbEntity
  8
LOGO
 62
     4
100
AcDbLine
 10
316.259373661591
 20
34.9619598788272
 30
0.0
 11
316.259373661591
 21
24.16352367973231
 31
0.0
  0
LINE
  5
17F5
330
1F
100
AcDbEntity
  8
LOGO
 62
     4
100
AcDbLine
 10
312.4265594627372
 20
24.16352367973231
 30
0.0
 11
312.4265594627372
 21
21.46391462995881
 31
0.0
  0
TEXT
  5
17F6
330
1F
100
AcDbEntity
  8
LOGO
  6
Continuous
100
AcDbText
 10
310.0309882469837
 20
26.41768144898128
 30
0.0
 40
6.299999999999999
  1
4
  7
CHINESET
100
AcDbText
  0
LINE
  5
17F7
330
1F
100
AcDbEntity
  8
LOGO
 62
     4
100
AcDbLine
 10
308.7880007381978
 20
18.76430558018526
 30
0.0
 11
290.7624186930622
 21
18.76430558018526
 31
0.0
  0
LINE
  5
17F8
330
1F
100
AcDbEntity
  8
LOGO
 62
     4
100
AcDbLine
 10
341.8782800297794
 20
18.76430558018526
 30
0.0
 11
341.8782800297794
 21
5.566216892401797
 31
0.0
  0
LINE
  5
17F9
330
1F
100
AcDbEntity
  8
LOGO
 62
     4
100
AcDbLine
 10
312.4436584295564
 20
18.76430558018526
 30
0.0
 11
312.4436584295564
 21
5.566216892401797
 31
0.0
  0
LINE
  5
17FA
330
1F
100
AcDbEntity
  8
LOGO
 62
     4
100
AcDbLine
 10
341.8782800297794
 20
5.566216892401797
 30
0.0
 11
312.4436584295564
 21
5.566216892401797
 31
0.0
  0
LINE
  5
17FB
330
1F
100
AcDbEntity
  8
LOGO
 62
     4
100
AcDbLine
 10
332.6199904287929
 20
34.9619598788272
 30
0.0
 11
318.3731479260732
 21
34.9619598788272
 31
0.0
  0
LINE
  5
17FC
330
1F
100
AcDbEntity
  8
LOGO
 62
     4
100
AcDbLine
 10
332.6199904287929
 20
24.16352367973231
 30
0.0
 11
318.3731479260732
 21
24.16352367973231
 31
0.0
  0
LINE
  5
17FD
330
1F
100
AcDbEntity
  8
LOGO
 62
     4
100
AcDbLine
 10
318.3731479260732
 20
34.9619598788272
 30
0.0
 11
318.3731479260732
 21
24.16352367973231
 31
0.0
  0
LINE
  5
17FE
330
1F
100
AcDbEntity
  8
LOGO
 62
     4
100
AcDbLine
 10
332.6199904287929
 20
34.9619598788272
 30
0.0
 11
332.6199904287929
 21
24.16352367973231
 31
0.0
  0
LINE
  5
17FF
330
1F
100
AcDbEntity
  8
LOGO
 62
     4
100
AcDbLine
 10
325.4965691774331
 20
24.16352367973231
 30
0.0
 11
325.4965691774331
 21
18.76430558018526
 31
0.0
  0
TEXT
  5
1800
330
1F
100
AcDbEntity
  8
LOGO
  6
Continuous
100
AcDbText
 10
320.9219170966363
 20
26.41768144898128
 30
0.0
 40
6.299999999999999
  1
E1
  7
CHINESET
100
AcDbText
  0
LINE
  5
1801
330
1F
100
AcDbEntity
  8
LOGO
 62
     4
100
AcDbLine
 10
341.8782800297794
 20
18.76430558018526
 30
0.0
 11
312.4436584295564
 21
18.76430558018526
 31
0.0
  0
TEXT
  5
1802
330
1F
100
AcDbEntity
  8
LOGO
  6
Continuous
100
AcDbText
 10
267.6859770241236
 20
7.429099123485201
 30
235.9039063680897
 40
2.699999999999999
  1
Body width
 41
0.8
  7
CHINESET
100
AcDbText
  0
TEXT
  5
1803
330
1F
100
AcDbEntity
  8
LOGO
100
AcDbText
 10
267.6605420889831
 20
12.43431723195444
 30
235.9039063680897
 40
4.5
  1
本體寬度
  7
CHINESET
100
AcDbText
  0
TEXT
  5
1804
330
1F
100
AcDbEntity
  8
LOGO
  6
Continuous
100
AcDbText
 10
295.7887098928082
 20
7.429099123485201
 30
235.9039063680897
 40
2.699999999999999
  1
4 Way
 41
0.8
  7
CHINESET
100
AcDbText
  0
TEXT
  5
1805
330
1F
100
AcDbEntity
  8
LOGO
100
AcDbText
 10
293.1552321330319
 20
12.43431723195444
 30
235.9039063680897
 40
4.5
  1
4方向
  7
CHINESET
100
AcDbText
  0
TEXT
  5
1806
330
1F
100
AcDbEntity
  8
LOGO
  6
Continuous
100
AcDbText
 10
314.9449097290744
 20
7.429099123485201
 30
235.9039063680897
 40
2.699999999999999
  1
Single solenoid
 41
0.8
  7
CHINESET
100
AcDbText
  0
TEXT
  5
1807
330
1F
100
AcDbEntity
  8
LOGO
100
AcDbText
 10
319.7623211347459
 20
12.43431723195444
 30
235.9039063680897
 40
4.5
  1
單線圈
  7
CHINESET
100
AcDbText
  0
LINE
  5
1808
330
1F
100
AcDbEntity
  8
LOGO
 62
     4
100
AcDbLine
 10
357.5471820340212
 20
34.9619598788272
 30
0.0
 11
340.4754200466635
 21
34.9619598788272
 31
0.0
  0
LINE
  5
1809
330
1F
100
AcDbEntity
  8
LOGO
 62
     4
100
AcDbLine
 10
357.5471820340212
 20
24.16352367973231
 30
0.0
 11
340.4754200466635
 21
24.16352367973231
 31
0.0
  0
LINE
  5
180A
330
1F
100
AcDbEntity
  8
LOGO
 62
     4
100
AcDbLine
 10
340.4754200466635
 20
34.9619598788272
 30
0.0
 11
340.4754200466635
 21
24.16352367973231
 31
0.0
  0
LINE
  5
180B
330
1F
100
AcDbEntity
  8
LOGO
 62
     4
100
AcDbLine
 10
357.5471820340212
 20
34.9619598788272
 30
0.0
 11
357.5471820340212
 21
24.16352367973231
 31
0.0
  0
TEXT
  5
180C
330
1F
100
AcDbEntity
  8
LOGO
  6
Continuous
100
AcDbText
 10
347.3287639504747
 20
26.41768144898128
 30
0.0
 40
6.299999999999999
  1
?
  7
CHINESET
100
AcDbText
  0
LINE
  5
180D
330
1F
100
AcDbEntity
  8
LOGO
 62
     4
100
AcDbLine
 10
364.2505979103429
 20
18.76430558018526
 30
0.0
 11
364.2505979103429
 21
5.566216892401797
 31
0.0
  0
LINE
  5
180E
330
1F
100
AcDbEntity
  8
LOGO
 62
     4
100
AcDbLine
 10
344.7016028371848
 20
18.76430558018526
 30
0.0
 11
344.7016028371848
 21
5.566216892401797
 31
0.0
  0
LINE
  5
180F
330
1F
100
AcDbEntity
  8
LOGO
 62
     4
100
AcDbLine
 10
364.2505979103429
 20
5.566216892401797
 30
0.0
 11
344.7016028371848
 21
5.566216892401797
 31
0.0
  0
LINE
  5
1810
330
1F
100
AcDbEntity
  8
LOGO
 62
     4
100
AcDbLine
 10
364.2505979103429
 20
18.76430558018526
 30
0.0
 11
344.7016028371848
 21
18.76430558018526
 31
0.0
  0
TEXT
  5
1811
330
1F
100
AcDbEntity
  8
LOGO
  6
Continuous
100
AcDbText
 10
348.9510512572591
 20
7.429099123485201
 30
235.9039063680897
 40
2.699999999999999
  1
Voltage
 41
0.8
  7
CHINESET
100
AcDbText
  0
TEXT
  5
1812
330
1F
100
AcDbEntity
  8
LOGO
100
AcDbText
 10
350.5360814303676
 20
12.43431723195444
 30
235.9039063680897
 40
4.5
  1
電壓
  7
CHINESET
100
AcDbText
  0
LINE
  5
1813
330
1F
100
AcDbEntity
  8
LOGO
 62
     4
100
AcDbLine
 10
349.0113010403433
 20
24.16352367973231
 30
0.0
 11
349.0113010403433
 21
18.76430558018548
 31
0.0
  0
TEXT
  5
1814
330
1F
100
AcDbEntity
  8
LOGO
100
AcDbText
 10
198.2471877737295
 20
4.481559760600575
 30
0.0
 40
3.6
  1
10705100
 41
0.7
  7
CHINESET
 72
     1
 11
207.0071877737295
 21
4.481559760600575
 31
0.0
100
AcDbText
  0
LINE
  5
1815
330
1F
100
AcDbEntity
  8
LOGO
 62
     4
100
AcDbLine
 10
218.1794237095
 20
9.765608747606364
 30
0.0
 11
218.1794237095015
 21
2.566651281542561
 31
0.0
  0
LINE
  5
1816
330
1F
100
AcDbEntity
  8
LOGO
 62
     4
100
AcDbLine
 10
218.1794237095
 20
9.765608747606364
 30
0.0
 11
196.5794237095015
 21
9.765608747606364
 31
0.0
  0
CIRCLE
  5
1817
330
1F
100
AcDbEntity
  8
LOGO
  6
Continuous
100
AcDbCircle
 10
179.2477839125145
 20
27.77070172411439
 30
0.0
 40
2.089942074577136
  0
CIRCLE
  5
1818
330
1F
100
AcDbEntity
  8
LOGO
  6
Continuous
100
AcDbCircle
 10
179.2477839125145
 20
27.77070172411439
 30
0.0
 40
1.224521043598074
  0
LINE
  5
1819
330
1F
100
AcDbEntity
  8
LOGO
100
AcDbLine
 10
192.3812224157803
 20
25.68075964953687
 30
0.0
 11
192.3812224157803
 21
29.86064379869196
 31
0.0
  0
LINE
  5
181A
330
1F
100
AcDbEntity
  8
LOGO
100
AcDbLine
 10
185.8293739803807
 20
26.54618068051653
 30
0.0
 11
185.8293739803807
 21
28.99522276771268
 31
0.0
  0
LINE
  5
181B
330
1F
100
AcDbEntity
  8
LOGO
  6
Continuous
100
AcDbLine
 10
185.8293739803807
 20
28.99522276771268
 30
0.0
 11
192.3812224157803
 21
29.86064379869196
 31
0.0
  0
LINE
  5
181C
330
1F
100
AcDbEntity
  8
LOGO
  6
Continuous
100
AcDbLine
 10
185.8293739803807
 20
26.54618068051653
 30
0.0
 11
192.3812224157803
 21
25.68075964953687
 31
0.0
  0
LINE
  5
181D
330
1F
100
AcDbEntity
  8
LOGO
  6
AM_ISO08W050x2
 48
0.3
100
AcDbLine
 10
176.3667674682916
 20
27.77070172411439
 30
0.0
 11
182.1288003567374
 21
27.77070172411439
 31
0.0
1001
GENIUS_GENOREF_13
1005
1834
  0
LINE
  5
181E
330
1F
100
AcDbEntity
  8
LOGO
  6
AM_ISO08W050x2
 48
0.3
100
AcDbLine
 10
179.2477839125145
 20
24.88968527989154
 30
0.0
 11
179.2477839125145
 21
30.65171816833728
 31
0.0
1001
GENIUS_GENOREF_13
1005
1833
  0
LINE
  5
181F
330
1F
100
AcDbEntity
  8
LOGO
  6
CENTER
 48
0.5
100
AcDbLine
 10
185.3054082133239
 20
27.77070172411439
 30
0.0
 11
193.0409723437982
 21
27.77070172411439
 31
0.0
1001
GENIUS_GENOREF_13
1005
1832
  0
LINE
  5
1820
330
1F
100
AcDbEntity
  8
LOGO
  6
Continuous
100
AcDbLine
 10
359.5736111339026
 20
29.52449201170647
 30
0.0
 11
364.3418065419938
 21
29.52449201170647
 31
0.0
  0
LINE
  5
1821
330
1F
100
AcDbEntity
  8
LOGO
 62
     4
100
AcDbLine
 10
375.3516665143224
 20
34.9619598788272
 30
0.0
 11
365.8459208466669
 21
34.9619598788272
 31
0.0
  0
LINE
  5
1822
330
1F
100
AcDbEntity
  8
LOGO
 62
     4
100
AcDbLine
 10
375.3516665143224
 20
24.16352367973231
 30
0.0
 11
365.8459208466669
 21
24.16352367973231
 31
0.0
  0
LINE
  5
1823
330
1F
100
AcDbEntity
  8
LOGO
 62
     4
100
AcDbLine
 10
365.8459208466669
 20
34.9619598788272
 30
0.0
 11
365.8459208466669
 21
24.16352367973231
 31
0.0
  0
LINE
  5
1824
330
1F
100
AcDbEntity
  8
LOGO
 62
     4
100
AcDbLine
 10
375.3516665143224
 20
34.9619598788272
 30
0.0
 11
375.3516665143224
 21
24.16352367973231
 31
0.0
  0
LINE
  5
1825
330
1F
100
AcDbEntity
  8
LOGO
 62
     4
100
AcDbLine
 10
370.5987936804945
 20
24.16352367973231
 30
0.0
 11
370.5987936804945
 21
18.76430558018509
 31
0.0
  0
LINE
  5
1826
330
1F
100
AcDbEntity
  8
LOGO
 62
     4
100
AcDbLine
 10
288.5433623844928
 20
21.46391462995881
 30
0.0
 11
276.9024723527264
 21
21.46391462995881
 31
0.0
  0
LINE
  5
1827
330
1F
100
AcDbEntity
  8
LOGO
 62
     4
100
AcDbLine
 10
276.9024723527264
 20
18.76430558018526
 30
0.0
 11
276.9024723527264
 21
21.46391462995881
 31
0.0
  0
LINE
  5
1828
330
1F
100
AcDbEntity
  8
LOGO
 62
     4
100
AcDbLine
 10
312.4265594627372
 20
21.46391462995881
 30
0.0
 11
299.7752097156304
 21
21.46391462995881
 31
0.0
  0
LINE
  5
1829
330
1F
100
AcDbEntity
  8
LOGO
 62
     4
100
AcDbLine
 10
299.7752097156304
 20
18.76430558018526
 30
0.0
 11
299.7752097156304
 21
21.46391462995881
 31
0.0
  0
LINE
  5
182A
330
1F
100
AcDbEntity
  8
LOGO
 62
     4
100
AcDbLine
 10
394.4574421978673
 20
18.76430558018526
 30
0.0
 11
394.4574421978673
 21
5.566216892401797
 31
0.0
  0
LINE
  5
182B
330
1F
100
AcDbEntity
  8
LOGO
 62
     4
100
AcDbLine
 10
367.2231931703026
 20
18.76430558018526
 30
0.0
 11
367.2231931703026
 21
5.566216892401797
 31
0.0
  0
LINE
  5
182C
330
1F
100
AcDbEntity
  8
LOGO
 62
     4
100
AcDbLine
 10
394.4574421978673
 20
5.566216892401797
 30
0.0
 11
367.2231931703026
 21
5.566216892401797
 31
0.0
  0
LINE
  5
182D
330
1F
100
AcDbEntity
  8
LOGO
 62
     4
100
AcDbLine
 10
394.4574421978673
 20
18.76430558018526
 30
0.0
 11
367.2231931703026
 21
18.76430558018526
 31
0.0
  0
TEXT
  5
182E
330
1F
100
AcDbEntity
  8
LOGO
  6
Continuous
100
AcDbText
 10
369.9200643346549
 20
7.429099123485201
 30
235.9039063680897
 40
2.699999999999999
  1
DIN connector
 41
0.8
  7
CHINESET
100
AcDbText
  0
TEXT
  5
182F
330
1F
100
AcDbEntity
  8
LOGO
100
AcDbText
 10
377.2046694457153
 20
12.43431723195444
 30
235.9039063680897
 40
4.5
  1
端子型
  7
CHINESET
100
AcDbText
  0
TEXT
  5
1830
330
1F
100
AcDbEntity
  8
LOGO
  6
Continuous
100
AcDbText
 10
369.8482435495166
 20
12.95323901126802
 30
235.9039063680897
 40
3.6
  1
DIN
 41
0.8
  7
CHINESET
100
AcDbText
  0
LINE
  5
1831
330
1F
100
AcDbEntity
  8
LOGO
  6
Continuous
100
AcDbLine
 10
334.3397916483949
 20
29.52449201170647
 30
0.0
 11
339.107987056486
 21
29.52449201170647
 31
0.0
  0
POINT
  5
1832
330
1F
100
AcDbEntity
  8
0
 60
     1
100
AcDbPoint
 10
-1951.792830805612
 20
-747.9186667228908
 30
0.0
1001
GENIUS_GENOBJ-N-CRS_13
1002
{
1000
OWNER
1000
GEN
1002
}
1001
GENIUS_GENOLIS_13
1002
{
1000
ENT
1005
0
1005
0
1005
0
1005
181F
1002
}
1001
GENIUS_GENOENT_13
1002
{
1000
MYREF
1005
1832
1002
}
1002
{
1000
GRP
1005
0
1002
}
1001
GENIUS_GENODEF_13
1002
{
1000
HIER
1070
    10
1002
}
1002
{
1000
MANEDIT
1070
     1
1002
}
1002
{
1000
NOSEL
1070
     0
1002
}
1002
{
1000
BEHIND
1070
     0
1002
}
1002
{
1000
OTHER
1070
     0
1002
}
1002
{
1000
REACTOR
1002
}
  0
POINT
  5
1833
330
1F
100
AcDbEntity
  8
0
 60
     1
100
AcDbPoint
 10
-1963.117416028467
 20
-739.0430802442544
 30
0.0
1001
GENIUS_GENOBJ-N-CRS_13
1002
{
1000
OWNER
1000
GEN
1002
}
1001
GENIUS_GENOLIS_13
1002
{
1000
ENT
1005
0
1005
0
1005
0
1005
181E
1002
}
1001
GENIUS_GENOENT_13
1002
{
1000
MYREF
1005
1833
1002
}
1002
{
1000
GRP
1005
0
1002
}
1001
GENIUS_GENODEF_13
1002
{
1000
HIER
1070
    10
1002
}
1002
{
1000
MANEDIT
1070
     1
1002
}
1002
{
1000
NOSEL
1070
     0
1002
}
1002
{
1000
BEHIND
1070
     0
1002
}
1002
{
1000
OTHER
1070
     0
1002
}
1002
{
1000
REACTOR
1002
}
  0
POINT
  5
1834
330
1F
100
AcDbEntity
  8
0
 60
     1
100
AcDbPoint
 10
-1956.75874233063
 20
-747.9186667228908
 30
0.0
1001
GENIUS_GENOBJ-N-CRS_13
1002
{
1000
OWNER
1000
GEN
1002
}
1001
GENIUS_GENOLIS_13
1002
{
1000
ENT
1005
0
1005
0
1005
0
1005
181D
1002
}
1001
GENIUS_GENOENT_13
1002
{
1000
MYREF
1005
1834
1002
}
1002
{
1000
GRP
1005
0
1002
}
1001
GENIUS_GENODEF_13
1002
{
1000
HIER
1070
    10
1002
}
1002
{
1000
MANEDIT
1070
     1
1002
}
1002
{
1000
NOSEL
1070
     0
1002
}
1002
{
1000
BEHIND
1070
     0
1002
}
1002
{
1000
OTHER
1070
     0
1002
}
1002
{
1000
REACTOR
1002
}
  0
ENDSEC
  0
SECTION
  2
OBJECTS
  0
DICTIONARY
  5
C
330
0
100
AcDbDictionary
281
     1
  3
ACAD_COLOR
350
BE
  3
ACAD_GROUP
350
D
  3
ACAD_LAYOUT
350
1A
  3
ACAD_MATERIAL
350
BD
  3
ACAD_MLINESTYLE
350
17
  3
ACAD_PLOTSETTINGS
350
19
  3
ACAD_PLOTSTYLENAME
350
E
  3
ACAD_TABLESTYLE
350
11A
  3
ACDBHEADERROUNDTRIPXREC
350
18C4
  3
AcDbVariableDictionary
350
94
  3
AcmDictionary
350
5B
  3
AMG
350
41
  3
AMGSNAPSETTINGS
350
1B8
  3
DWGPROPS
350
18C3
  0
DICTIONARY
  5
3F9
330
2
100
AcDbDictionary
280
     1
281
     1
  3
ACAD_LAYERFILTERS
360
5B7
  3
ACAD_LAYERSTATES
360
A84
  3
ACLYDICTIONARY
360
5B6
  0
DICTIONARY
  5
8F
330
1F
100
AcDbDictionary
280
     1
281
     1
  0
DICTIONARY
  5
1334
330
1326
100
AcDbDictionary
280
     1
281
     1
  3
ACAD_DIMASSOC
360
1335
  0
DICTIONARY
  5
1370
330
1363
100
AcDbDictionary
280
     1
281
     1
  3
ACAD_DIMASSOC
360
1371
  0
DICTIONARY
  5
1396
330
1389
100
AcDbDictionary
280
     1
281
     1
  3
ACAD_DIMASSOC
360
1397
  0
DICTIONARY
  5
13BC
330
13AF
100
AcDbDictionary
280
     1
281
     1
  3
ACAD_DIMASSOC
360
13BD
  0
DICTIONARY
  5
13E2
330
13D5
100
AcDbDictionary
280
     1
281
     1
  3
ACAD_DIMASSOC
360
13E3
  0
DICTIONARY
  5
140C
330
13FF
100
AcDbDictionary
280
     1
281
     1
  3
ACAD_DIMASSOC
360
140D
  0
DICTIONARY
  5
1432
330
1425
100
AcDbDictionary
280
     1
281
     1
  3
ACAD_DIMASSOC
360
1433
  0
DICTIONARY
  5
1458
330
144B
100
AcDbDictionary
280
     1
281
     1
  3
ACAD_DIMASSOC
360
1459
  0
DICTIONARY
  5
147E
330
1471
100
AcDbDictionary
280
     1
281
     1
  3
ACAD_DIMASSOC
360
147F
  0
DICTIONARY
  5
14A4
330
1497
100
AcDbDictionary
280
     1
281
     1
  3
ACAD_DIMASSOC
360
14A5
  0
DICTIONARY
  5
14CA
330
14BD
100
AcDbDictionary
280
     1
281
     1
  3
ACAD_DIMASSOC
360
14CB
  0
DICTIONARY
  5
14F0
330
14E3
100
AcDbDictionary
280
     1
281
     1
  3
ACAD_DIMASSOC
360
14F1
  0
DICTIONARY
  5
1547
330
153A
100
AcDbDictionary
280
     1
281
     1
  3
ACAD_DIMASSOC
360
1548
  0
DICTIONARY
  5
BE
102
{ACAD_REACTORS
330
C
102
}
330
C
100
AcDbDictionary
281
     1
  0
DICTIONARY
  5
D
102
{ACAD_REACTORS
330
C
102
}
330
C
100
AcDbDictionary
281
     1
  0
DICTIONARY
  5
1A
102
{ACAD_REACTORS
330
C
102
}
330
C
100
AcDbDictionary
281
     1
  3
Model
350
22
  3
配置1
350
1E
  3
配置2
350
26
  0
DICTIONARY
  5
BD
102
{ACAD_REACTORS
330
C
102
}
330
C
100
AcDbDictionary
281
     1
  0
DICTIONARY
  5
17
102
{ACAD_REACTORS
330
C
102
}
330
C
100
AcDbDictionary
281
     1
  3
Standard
350
18
  0
DICTIONARY
  5
19
102
{ACAD_REACTORS
330
C
102
}
330
C
100
AcDbDictionary
281
     1
  0
ACDBDICTIONARYWDFLT
  5
E
102
{ACAD_REACTORS
330
C
102
}
330
C
100
AcDbDictionary
281
     1
  3
Normal
350
F
100
AcDbDictionaryWithDefault
340
F
  0
DICTIONARY
  5
11A
102
{ACAD_REACTORS
330
C
102
}
330
C
100
AcDbDictionary
281
     1
  3
Standard
350
11B
  0
DICTIONARY
  5
18C4
102
{ACAD_REACTORS
330
C
102
}
330
C
100
AcDbDictionary
281
     1
  0
DICTIONARY
  5
94
102
{ACAD_REACTORS
330
C
102
}
330
C
100
AcDbDictionary
281
     1
  3
CTABLESTYLE
350
138
  3
DIMASSOC
350
96
  3
INDEXCTL
350
95
  3
PROJECTNAME
350
18C1
  0
DICTIONARY
  5
5B
102
{ACAD_REACTORS
330
C
102
}
330
C
100
AcDbDictionary
281
     1
  3
AcmBOM
350
1B5
  3
AcmStdDictionary
350
61
  3
AMDTSECTSYM_ARROWCOLOR
350
123
  0
DICTIONARY
  5
41
102
{ACAD_REACTORS
330
C
102
}
330
C
100
AcDbDictionary
281
     1
  0
DICTIONARY
  5
1B8
102
{ACAD_REACTORS
330
C
102
}
330
C
100
AcDbDictionary
281
     1
  0
XRECORD
  5
18C3
102
{ACAD_REACTORS
330
C
102
}
330
C
100
AcDbXrecord
280
     1
  1
DWGPROPS COOKIE
  2

  3

  4

  6

  7

  8

  9

300
AmdtFileType=84
301
=
302
=
303
=
304
=
305
=
306
=
307
=
308
=
309
=
 40
0.0130067245370371
 41
2454231.379438473
 42
2454231.39286404
  1

 90
        1
  0
DICTIONARY
  5
5B7
102
{ACAD_REACTORS
330
3F9
102
}
330
3F9
100
AcDbDictionary
281
     1
  0
DICTIONARY
  5
A84
102
{ACAD_REACTORS
330
3F9
102
}
330
3F9
100
AcDbDictionary
281
     1
  0
DICTIONARY
  5
5B6
102
{ACAD_REACTORS
330
3F9
102
}
330
3F9
100
AcDbDictionary
281
     1
1001
ACAD
1000
<All
  0
DIMASSOC
  5
1335
102
{ACAD_REACTORS
330
1334
102
}
330
1334
100
AcDbDimAssoc
330
1326
 90
        3
 70
     0
 71
     0
  1
AcDbOsnapPointRef
 72
    13
331
F0E
 73
     0
 91
        0
 40
0.0
 10
0.0
 20
0.0
 30
2.000000000000000E+50
 75
     0
  1
AcDbOsnapPointRef
 72
     1
331
E92
 73
     0
 91
        0
 40
0.0
 10
0.0
 20
0.0
 30
2.000000000000000E+50
 75
     0
  0
DIMASSOC
  5
1371
102
{ACAD_REACTORS
330
1370
102
}
330
1370
100
AcDbDimAssoc
330
1363
 90
        3
 70
     0
 71
     0
  1
AcDbOsnapPointRef
 72
     1
331
10C0
 73
     0
 91
        0
 40
0.0
 10
0.0
 20
0.0
 30
2.000000000000000E+50
 75
     0
  1
AcDbOsnapPointRef
 72
    13
331
10A4
 73
     0
 91
        0
 40
0.0
 10
0.0
 20
0.0
 30
2.000000000000000E+50
 75
     0
  0
DIMASSOC
  5
1397
102
{ACAD_REACTORS
330
1396
102
}
330
1396
100
AcDbDimAssoc
330
1389
 90
        3
 70
     0
 71
     0
  1
AcDbOsnapPointRef
 72
     1
331
12C3
 73
     0
 91
        0
 40
0.0
 10
0.0
 20
0.0
 30
2.000000000000000E+50
 75
     0
  1
AcDbOsnapPointRef
 72
     1
331
10A6
 73
     0
 91
        0
 40
0.0
 10
0.0
 20
0.0
 30
2.000000000000000E+50
 75
     0
  0
DIMASSOC
  5
13BD
102
{ACAD_REACTORS
330
13BC
102
}
330
13BC
100
AcDbDimAssoc
330
13AF
 90
        3
 70
     0
 71
     0
  1
AcDbOsnapPointRef
 72
     1
331
12D3
 73
     0
 91
        0
 40
0.0
 10
0.0
 20
0.0
 30
2.000000000000000E+50
 75
     0
  1
AcDbOsnapPointRef
 72
     1
331
12C1
 73
     0
 91
        0
 40
0.0
 10
0.0
 20
0.0
 30
2.000000000000000E+50
 75
     0
  0
DIMASSOC
  5
13E3
102
{ACAD_REACTORS
330
13E2
102
}
330
13E2
100
AcDbDimAssoc
330
13D5
 90
        3
 70
     0
 71
     0
  1
AcDbOsnapPointRef
 72
     1
331
12C1
 73
     0
 91
        0
 40
0.0
 10
0.0
 20
0.0
 30
2.000000000000000E+50
 75
     0
  1
AcDbOsnapPointRef
 72
     1
331
12AF
 73
     0
 91
        0
 40
0.0
 10
0.0
 20
0.0
 30
2.000000000000000E+50
 75
     0
  0
DIMASSOC
  5
140D
102
{ACAD_REACTORS
330
140C
102
}
330
140C
100
AcDbDimAssoc
330
13FF
 90
        3
 70
     0
 71
     0
  1
AcDbOsnapPointRef
 72
    13
331
10A6
 73
     0
 91
        0
 40
0.0
 10
0.0
 20
0.0
 30
2.000000000000000E+50
 75
     0
  1
AcDbOsnapPointRef
 72
     1
331
10A4
 73
     0
 91
        0
 40
0.0
 10
0.0
 20
0.0
 30
2.000000000000000E+50
 75
     0
  0
DIMASSOC
  5
1433
102
{ACAD_REACTORS
330
1432
102
}
330
1432
100
AcDbDimAssoc
330
1425
 90
        3
 70
     0
 71
     0
  1
AcDbOsnapPointRef
 72
     6
331
E62
 73
     0
 91
        0
 40
0.0
 10
0.0
 20
0.0
 30
0.0
332
E67
 74
     0
 92
        0
 75
     0
  1
AcDbOsnapPointRef
 72
     1
331
1257
 73
     0
 91
        0
 40
0.0
 10
0.0
 20
0.0
 30
2.000000000000000E+50
 75
     0
  0
DIMASSOC
  5
1459
102
{ACAD_REACTORS
330
1458
102
}
330
1458
100
AcDbDimAssoc
330
144B
 90
        3
 70
     0
 71
     0
  1
AcDbOsnapPointRef
 72
     1
331
1257
 73
     0
 91
        0
 40
0.0
 10
0.0
 20
0.0
 30
2.000000000000000E+50
 75
     0
  1
AcDbOsnapPointRef
 72
     1
331
129F
 73
     0
 91
        0
 40
0.0
 10
0.0
 20
0.0
 30
2.000000000000000E+50
 75
     0
  0
DIMASSOC
  5
147F
102
{ACAD_REACTORS
330
147E
102
}
330
147E
100
AcDbDimAssoc
330
1471
 90
        3
 70
     0
 71
     0
  1
AcDbOsnapPointRef
 72
     1
331
1266
 73
     0
 91
        0
 40
0.0
 10
0.0
 20
0.0
 30
2.000000000000000E+50
 75
     0
  1
AcDbOsnapPointRef
 72
     1
331
128A
 73
     0
 91
        0
 40
0.0
 10
0.0
 20
0.0
 30
2.000000000000000E+50
 75
     0
  0
DIMASSOC
  5
14A5
102
{ACAD_REACTORS
330
14A4
102
}
330
14A4
100
AcDbDimAssoc
330
1497
 90
        3
 70
     0
 71
     0
  1
AcDbOsnapPointRef
 72
     6
331
E62
 73
     0
 91
        0
 40
1.0
 10
0.0
 20
0.0
 30
0.0
332
E66
 74
     0
 92
        0
 75
     0
  1
AcDbOsnapPointRef
 72
     1
331
1279
 73
     0
 91
        0
 40
0.0
 10
0.0
 20
0.0
 30
2.000000000000000E+50
 75
     0
  0
DIMASSOC
  5
14CB
102
{ACAD_REACTORS
330
14CA
102
}
330
14CA
100
AcDbDimAssoc
330
14BD
 90
        3
 70
     0
 71
     0
  1
AcDbOsnapPointRef
 72
    13
331
E67
 73
     0
 91
        0
 40
0.0
 10
0.0
 20
0.0
 30
2.000000000000000E+50
 75
     0
  1
AcDbOsnapPointRef
 72
     1
331
E66
 73
     0
 91
        0
 40
0.0
 10
0.0
 20
0.0
 30
2.000000000000000E+50
 75
     0
  0
DIMASSOC
  5
14F1
102
{ACAD_REACTORS
330
14F0
102
}
330
14F0
100
AcDbDimAssoc
330
14E3
 90
        1
 70
     0
 71
     0
  1
AcDbOsnapPointRef
 72
     6
331
E62
 73
     0
 91
        0
 40
0.0
 10
0.0
 20
0.0
 30
0.0
332
E67
 74
     0
 92
        0
 75
     0
  0
DIMASSOC
  5
1548
102
{ACAD_REACTORS
330
1547
102
}
330
1547
100
AcDbDimAssoc
330
153A
 90
        3
 70
     0
 71
     0
  1
AcDbOsnapPointRef
 72
    13
331
ED7
 73
     0
 91
        0
 40
0.0
 10
0.0
 20
0.0
 30
2.000000000000000E+50
 75
     0
  1
AcDbOsnapPointRef
 72
     6
331
E62
 73
     0
 91
        0
 40
0.0
 10
0.0
 20
0.0
 30
0.0
332
E67
 74
     0
 92
        0
 75
     0
  0
LAYOUT
  5
22
102
{ACAD_XDICTIONARY
360
18C7
102
}
102
{ACAD_REACTORS
330
1A
102
}
330
1A
100
AcDbPlotSettings
  1

  2
\\RD\EPSON Stylus C63 Series單色
  4
A4
  6

 40
3.757083177566528
 41
3.757076978683471
 42
3.757080078125
 43
3.757080078125
 44
209.9733276367187
 45
296.9683227539062
 46
0.0
 47
0.0
 48
0.0
 49
0.0
140
0.0
141
0.0
142
1.0
143
0.3405120737814363
 70
 11952
 72
     1
 73
     0
 74
     0
  7
彩色出圖.ctb
 75
     0
147
2.936753428137963
148
-2047.07469463503
149
-1261.649717473083
100
AcDbLayout
  1
Model
 70
     1
 71
     0
 10
0.0
 20
0.0
 11
12.0
 21
9.0
 12
0.0
 22
0.0
 32
0.0
 14
0.0
 24
0.0
 34
0.0
 15
0.0
 25
0.0
 35
0.0
146
0.0
 13
0.0
 23
0.0
 33
0.0
 16
1.0
 26
0.0
 36
0.0
 17
0.0
 27
1.0
 37
0.0
 76
     0
330
1F
1001
ACAD_PSEXT
1000
\\RD\EPSON Stylus C63 Series單色
1000
EPSON Stylus C63 Series
1000
\\RD
1000

1070
     0
  0
LAYOUT
  5
1E
102
{ACAD_XDICTIONARY
360
18C5
102
}
102
{ACAD_REACTORS
330
1A
102
}
330
1A
100
AcDbPlotSettings
  1

  2

  4

  6

 40
0.0
 41
0.0
 42
0.0
 43
0.0
 44
0.0
 45
0.0
 46
0.0
 47
0.0
 48
0.0
 49
0.0
140
0.0
141
0.0
142
1.0
143
1.0
 70
   688
 72
     0
 73
     0
 74
     5
  7
彩色出圖.ctb
 75
    16
147
1.0
148
0.0
149
0.0
100
AcDbLayout
  1
配置1
 70
     1
 71
     1
 10
0.0
 20
0.0
 11
420.0
 21
297.0
 12
0.0
 22
0.0
 32
0.0
 14
1.000000000000000E+20
 24
1.000000000000000E+20
 34
1.000000000000000E+20
 15
-1.000000000000000E+20
 25
-1.000000000000000E+20
 35
-1.000000000000000E+20
146
0.0
 13
0.0
 23
0.0
 33
0.0
 16
1.0
 26
0.0
 36
0.0
 17
0.0
 27
1.0
 37
0.0
 76
     0
330
1B
  0
LAYOUT
  5
26
102
{ACAD_XDICTIONARY
360
18C9
102
}
102
{ACAD_REACTORS
330
1A
102
}
330
1A
100
AcDbPlotSettings
  1

  2

  4

  6

 40
0.0
 41
0.0
 42
0.0
 43
0.0
 44
0.0
 45
0.0
 46
0.0
 47
0.0
 48
0.0
 49
0.0
140
0.0
141
0.0
142
1.0
143
1.0
 70
   688
 72
     0
 73
     0
 74
     5
  7
彩色出圖.ctb
 75
    16
147
1.0
148
0.0
149
0.0
100
AcDbLayout
  1
配置2
 70
     1
 71
     2
 10
0.0
 20
0.0
 11
12.0
 21
9.0
 12
0.0
 22
0.0
 32
0.0
 14
0.0
 24
0.0
 34
0.0
 15
0.0
 25
0.0
 35
0.0
146
0.0
 13
0.0
 23
0.0
 33
0.0
 16
1.0
 26
0.0
 36
0.0
 17
0.0
 27
1.0
 37
0.0
 76
     0
330
23
  0
MLINESTYLE
  5
18
102
{ACAD_REACTORS
330
17
102
}
330
17
100
AcDbMlineStyle
  2
STANDARD
 70
     0
  3

 62
   256
 51
90.0
 52
90.0
 71
     2
 49
0.5
 62
   256
  6
BYLAYER
 49
-0.5
 62
   256
  6
BYLAYER
  0
ACDBPLACEHOLDER
  5
F
102
{ACAD_REACTORS
330
E
102
}
330
E
  0
TABLESTYLE
  5
11B
102
{ACAD_REACTORS
330
11A
102
}
330
11A
100
AcDbTableStyle
  3
Standard
 70
     0
 71
     0
 40
1.5
 41
1.5
280
     0
281
     0
  7
STANDARD
140
4.5
170
     2
 62
     0
 63
     7
283
     0
274
    -2
284
     1
 64
     0
275
    -2
285
     1
 65
     0
276
    -2
286
     1
 66
     0
277
    -2
287
     1
 67
     0
278
    -2
288
     1
 68
     0
279
    -2
289
     1
 69
     0
  7
STANDARD
140
6.0
170
     5
 62
     0
 63
     7
283
     0
274
    -2
284
     1
 64
     0
275
    -2
285
     1
 65
     0
276
    -2
286
     1
 66
     0
277
    -2
287
     1
 67
     0
278
    -2
288
     1
 68
     0
279
    -2
289
     1
 69
     0
  7
STANDARD
140
4.5
170
     5
 62
     0
 63
     7
283
     0
274
    -2
284
     1
 64
     0
275
    -2
285
     1
 65
     0
276
    -2
286
     1
 66
     0
277
    -2
287
     1
 67
     0
278
    -2
288
     1
 68
     0
279
    -2
289
     1
 69
     0
  0
DICTIONARYVAR
  5
138
102
{ACAD_REACTORS
330
94
102
}
330
94
100
DictionaryVariables
280
     0
  1
STANDARD
  0
DICTIONARYVAR
  5
96
102
{ACAD_REACTORS
330
94
102
}
330
94
100
DictionaryVariables
280
     0
  1
2
  0
DICTIONARYVAR
  5
95
102
{ACAD_REACTORS
330
94
102
}
330
94
100
DictionaryVariables
280
     0
  1
0
  0
DICTIONARYVAR
  5
18C1
102
{ACAD_REACTORS
330
94
102
}
330
94
100
DictionaryVariables
280
     0
  1

  0
DICTIONARY
  5
1B5
102
{ACAD_REACTORS
330
5B
102
}
330
5B
100
AcDbDictionary
281
     1
  0
DICTIONARY
  5
61
102
{ACAD_REACTORS
330
5B
102
}
330
5B
100
AcDbDictionary
281
     1
  0
XRECORD
  5
123
102
{ACAD_REACTORS
330
5B
102
}
330
5B
100
AcDbXrecord
280
     1
 90
-1023410169
  0
DICTIONARY
  5
18C7
330
22
100
AcDbDictionary
280
     1
281
     1
  3
ACAD_XREC_ROUNDTRIP
360
18C8
  0
DICTIONARY
  5
18C5
330
1E
100
AcDbDictionary
280
     1
281
     1
  3
ACAD_XREC_ROUNDTRIP
360
18C6
  0
DICTIONARY
  5
18C9
330
26
100
AcDbDictionary
280
     1
281
     1
  3
ACAD_XREC_ROUNDTRIP
360
18CA
  0
XRECORD
  5
18C8
102
{ACAD_REACTORS
330
18C7
102
}
330
18C7
100
AcDbXrecord
280
     1
102
SHADEPLOT
 70
     0
102
SHADEPLOTRESLEVEL
 70
     2
102
SHADEPLOTCUSTOMDPI
 70
   300
  0
XRECORD
  5
18C6
102
{ACAD_REACTORS
330
18C5
102
}
330
18C5
100
AcDbXrecord
280
     1
102
SHADEPLOT
 70
     0
102
SHADEPLOTRESLEVEL
 70
     2
102
SHADEPLOTCUSTOMDPI
 70
   300
  0
XRECORD
  5
18CA
102
{ACAD_REACTORS
330
18C9
102
}
330
18C9
100
AcDbXrecord
280
     1
102
SHADEPLOT
 70
     0
102
SHADEPLOTRESLEVEL
 70
     2
102
SHADEPLOTCUSTOMDPI
 70
   300
  0
ENDSEC
  0
EOF
