  0
SECTION
  2
HEADER
  9
$ACADVER
  1
AC1015
  9
$ACADMAINTVER
 70
    20
  9
$DWGCODEPAGE
  3
ANSI_950
  9
$INSBASE
 10
0.0
 20
0.0
 30
0.0
  9
$EXTMIN
 10
109.9923717114054
 20
80.43145830467279
 30
-0.0079987625891818
  9
$EXTMAX
 10
385.0213632418558
 20
280.4451148079768
 30
131.0657257432464
  9
$LIMMIN
 10
0.0
 20
0.0
  9
$LIMMAX
 10
420.0
 20
297.0
  9
$ORTHOMODE
 70
     1
  9
$REGENMODE
 70
     1
  9
$FILLMODE
 70
     1
  9
$QTEXTMODE
 70
     0
  9
$MIRRTEXT
 70
     1
  9
$LTSCALE
 40
1.0
  9
$ATTMODE
 70
     1
  9
$TEXTSIZE
 40
3.0
  9
$TRACEWID
 40
1.0
  9
$TEXTSTYLE
  7
STANDARD
  9
$CLAYER
  8
0
  9
$CELTYPE
  6
ByLayer
  9
$CECOLOR
 62
   256
  9
$CELTSCALE
 40
1.0
  9
$DISPSILH
 70
     0
  9
$DIMSCALE
 40
1.0
  9
$DIMASZ
 40
3.0
  9
$DIMEXO
 40
1.0
  9
$DIMDLI
 40
6.0
  9
$DIMRND
 40
0.0
  9
$DIMDLE
 40
0.0
  9
$DIMEXE
 40
1.5
  9
$DIMTP
 40
0.1
  9
$DIMTM
 40
0.1
  9
$DIMTXT
 40
3.5
  9
$DIMCEN
 40
0.0
  9
$DIMTSZ
 40
0.0
  9
$DIMTOL
 70
     0
  9
$DIMLIM
 70
     0
  9
$DIMTIH
 70
     0
  9
$DIMTOH
 70
     0
  9
$DIMSE1
 70
     0
  9
$DIMSE2
 70
     0
  9
$DIMTAD
 70
     1
  9
$DIMZIN
 70
     8
  9
$DIMBLK
  1

  9
$DIMASO
 70
     1
  9
$DIMSHO
 70
     1
  9
$DIMPOST
  1

  9
$DIMAPOST
  1
"
  9
$DIMALT
 70
     0
  9
$DIMALTD
 70
     2
  9
$DIMALTF
 40
0.0393701
  9
$DIMLFAC
 40
1.0
  9
$DIMTOFL
 70
     1
  9
$DIMTVP
 40
0.0
  9
$DIMTIX
 70
     0
  9
$DIMSOXD
 70
     0
  9
$DIMSAH
 70
     0
  9
$DIMBLK1
  1

  9
$DIMBLK2
  1

  9
$DIMSTYLE
  2
AM_ISO
  9
$DIMCLRD
 70
   256
  9
$DIMCLRE
 70
   256
  9
$DIMCLRT
 70
   256
  9
$DIMTFAC
 40
0.6
  9
$DIMGAP
 40
1.0
  9
$DIMJUST
 70
     0
  9
$DIMSD1
 70
     0
  9
$DIMSD2
 70
     0
  9
$DIMTOLJ
 70
     0
  9
$DIMTZIN
 70
     8
  9
$DIMALTZ
 70
     0
  9
$DIMALTTZ
 70
     0
  9
$DIMUPT
 70
     0
  9
$DIMDEC
 70
     2
  9
$DIMTDEC
 70
     8
  9
$DIMALTU
 70
     2
  9
$DIMALTTD
 70
     2
  9
$DIMTXSTY
  7
STANDARD
  9
$DIMAUNIT
 70
     0
  9
$DIMADEC
 70
     0
  9
$DIMALTRND
 40
0.0
  9
$DIMAZIN
 70
     2
  9
$DIMDSEP
 70
    46
  9
$DIMATFIT
 70
     3
  9
$DIMFRAC
 70
     0
  9
$DIMLDRBLK
  1

  9
$DIMLUNIT
 70
     2
  9
$DIMLWD
 70
    -1
  9
$DIMLWE
 70
    -1
  9
$DIMTMOVE
 70
     0
  9
$LUNITS
 70
     2
  9
$LUPREC
 70
     2
  9
$SKETCHINC
 40
1.0
  9
$FILLETRAD
 40
2.5
  9
$AUNITS
 70
     0
  9
$AUPREC
 70
     0
  9
$MENU
  1
.
  9
$ELEVATION
 40
0.0
  9
$PELEVATION
 40
0.0
  9
$THICKNESS
 40
0.0
  9
$LIMCHECK
 70
     0
  9
$CHAMFERA
 40
2.5
  9
$CHAMFERB
 40
2.5
  9
$CHAMFERC
 40
20.0
  9
$CHAMFERD
 40
0.0
  9
$SKPOLY
 70
     0
  9
$TDCREATE
 40
2454340.590681783
  9
$TDUCREATE
 40
2454340.257348449
  9
$TDUPDATE
 40
2454354.638424479
  9
$TDUUPDATE
 40
2454354.305091146
  9
$TDINDWG
 40
0.0315657523
  9
$TDUSRTIMER
 40
0.0315657523
  9
$USRTIMER
 70
     1
  9
$ANGBASE
 50
0.0
  9
$ANGDIR
 70
     0
  9
$PDMODE
 70
     0
  9
$PDSIZE
 40
0.0
  9
$PLINEWID
 40
0.0
  9
$SPLFRAME
 70
     0
  9
$SPLINETYPE
 70
     6
  9
$SPLINESEGS
 70
     8
  9
$HANDSEED
  5
33A9
  9
$SURFTAB1
 70
     6
  9
$SURFTAB2
 70
     6
  9
$SURFTYPE
 70
     6
  9
$SURFU
 70
     6
  9
$SURFV
 70
     6
  9
$UCSBASE
  2

  9
$UCSNAME
  2

  9
$UCSORG
 10
0.0
 20
0.0
 30
0.0
  9
$UCSXDIR
 10
1.0
 20
0.0
 30
0.0
  9
$UCSYDIR
 10
0.0
 20
1.0
 30
0.0
  9
$UCSORTHOREF
  2

  9
$UCSORTHOVIEW
 70
     0
  9
$UCSORGTOP
 10
0.0
 20
0.0
 30
0.0
  9
$UCSORGBOTTOM
 10
0.0
 20
0.0
 30
0.0
  9
$UCSORGLEFT
 10
0.0
 20
0.0
 30
0.0
  9
$UCSORGRIGHT
 10
0.0
 20
0.0
 30
0.0
  9
$UCSORGFRONT
 10
0.0
 20
0.0
 30
0.0
  9
$UCSORGBACK
 10
0.0
 20
0.0
 30
0.0
  9
$PUCSBASE
  2

  9
$PUCSNAME
  2

  9
$PUCSORG
 10
0.0
 20
0.0
 30
0.0
  9
$PUCSXDIR
 10
1.0
 20
0.0
 30
0.0
  9
$PUCSYDIR
 10
0.0
 20
1.0
 30
0.0
  9
$PUCSORTHOREF
  2

  9
$PUCSORTHOVIEW
 70
     0
  9
$PUCSORGTOP
 10
0.0
 20
0.0
 30
0.0
  9
$PUCSORGBOTTOM
 10
0.0
 20
0.0
 30
0.0
  9
$PUCSORGLEFT
 10
0.0
 20
0.0
 30
0.0
  9
$PUCSORGRIGHT
 10
0.0
 20
0.0
 30
0.0
  9
$PUCSORGFRONT
 10
0.0
 20
0.0
 30
0.0
  9
$PUCSORGBACK
 10
0.0
 20
0.0
 30
0.0
  9
$USERI1
 70
     0
  9
$USERI2
 70
     0
  9
$USERI3
 70
     0
  9
$USERI4
 70
     0
  9
$USERI5
 70
     0
  9
$USERR1
 40
0.0
  9
$USERR2
 40
0.0
  9
$USERR3
 40
0.0
  9
$USERR4
 40
0.0
  9
$USERR5
 40
0.0
  9
$WORLDVIEW
 70
     1
  9
$SHADEDGE
 70
     3
  9
$SHADEDIF
 70
    70
  9
$TILEMODE
 70
     1
  9
$MAXACTVP
 70
    64
  9
$PINSBASE
 10
0.0
 20
0.0
 30
0.0
  9
$PLIMCHECK
 70
     0
  9
$PEXTMIN
 10
1.000000000000000E+20
 20
1.000000000000000E+20
 30
1.000000000000000E+20
  9
$PEXTMAX
 10
-1.000000000000000E+20
 20
-1.000000000000000E+20
 30
-1.000000000000000E+20
  9
$PLIMMIN
 10
0.0
 20
0.0
  9
$PLIMMAX
 10
420.0
 20
297.0
  9
$UNITMODE
 70
     0
  9
$VISRETAIN
 70
     1
  9
$PLINEGEN
 70
     0
  9
$PSLTSCALE
 70
     1
  9
$TREEDEPTH
 70
  3020
  9
$CMLSTYLE
  2
Standard
  9
$CMLJUST
 70
     0
  9
$CMLSCALE
 40
20.0
  9
$PROXYGRAPHICS
 70
     1
  9
$MEASUREMENT
 70
     1
  9
$CELWEIGHT
370
    -1
  9
$ENDCAPS
280
     0
  9
$JOINSTYLE
280
     0
  9
$LWDISPLAY
290
     0
  9
$INSUNITS
 70
     4
  9
$HYPERLINKBASE
  1

  9
$STYLESHEET
  1
彩色出圖.ctb
  9
$XEDIT
290
     1
  9
$CEPSNTYPE
380
     0
  9
$PSTYLEMODE
290
     1
  9
$FINGERPRINTGUID
  2
{F7B34519-8F36-4D71-A375-EC441924F7F5}
  9
$VERSIONGUID
  2
{12D51267-9D94-413D-9CD9-E35511DDE1C0}
  9
$EXTNAMES
290
     1
  9
$PSVPSCALE
 40
0.0
  9
$OLESTARTUP
290
     0
  0
ENDSEC
  0
SECTION
  2
CLASSES
  0
CLASS
  1
ACDBDICTIONARYWDFLT
  2
AcDbDictionaryWithDefault
  3
ObjectDBX Classes
 90
        0
280
     0
281
     0
  0
CLASS
  1
ACDBPLACEHOLDER
  2
AcDbPlaceHolder
  3
ObjectDBX Classes
 90
        0
280
     0
281
     0
  0
CLASS
  1
LAYOUT
  2
AcDbLayout
  3
ObjectDBX Classes
 90
        0
280
     0
281
     0
  0
CLASS
  1
ACME_DOCUMENT
  2
AcMeDbDoc
  3
AcMeServices
 90
        0
280
     0
281
     0
  0
CLASS
  1
AMGSETTINGSOBJ
  2
AmgSettingsObj
  3
"AcadM|Product Description: AutoCAD Mechanical 2000|Company: Autodesk"
 90
        0
280
     0
281
     0
  0
CLASS
  1
ACMESCOPE
  2
AcMeScope
  3
AcMeServices
 90
        0
280
     0
281
     0
  0
CLASS
  1
ACMECOMMANDHISTORY
  2
AcMeCommandHistory
  3
AcMeServices
 90
        0
280
     0
281
     0
  0
CLASS
  1
ACIMSYSVARMAN
  2
AcImSysVarManager
  3
AcMeServices
 90
        0
280
     0
281
     0
  0
CLASS
  1
ACIMREALSYSVAR
  2
AcImRealSysVar
  3
AcMeServices
 90
        0
280
     0
281
     0
  0
CLASS
  1
ACIMINTSYSVAR
  2
AcImIntSysVar
  3
AcMeServices
 90
        0
280
     0
281
     0
  0
CLASS
  1
ACMEDRAWINGMAN
  2
AcMeDrawingMan
  3
AcMeServices
 90
        0
280
     0
281
     0
  0
CLASS
  1
ACMEVIEW
  2
AcMeView
  3
AcMeServices
 90
        0
280
     0
281
     0
  0
CLASS
  1
ACDBENTITYCACHE
  2
AcMeEntityCache
  3
AcMeServices
 90
        0
280
     0
281
     0
  0
CLASS
  1
GSMANAGER
  2
AcMeGSManager
  3
AcMeServices
 90
        0
280
     0
281
     0
  0
CLASS
  1
AMDTINTERNALREACTOR
  2
AmdtInternalReactor
  3
AcMeServices
 90
        0
280
     0
281
     0
  0
CLASS
  1
ACMESTATEMGR
  2
AcMeStateMgr
  3
AcMeServices
 90
        0
280
     0
281
     0
  0
CLASS
  1
ACGREFMASTER
  2
AcGrefMaster
  3
AcAttribServices
 90
        0
280
     0
281
     0
  0
CLASS
  1
ACME_DATABASE
  2
AcMeDbDatabase
  3
AcMeServices
 90
        0
280
     0
281
     0
  0
CLASS
  1
ACRFINSADJUSTERMGR
  2
AcRfInsAdjusterMgr
  3
AcMeServices
 90
        0
280
     0
281
     0
  0
CLASS
  1
ACGREFACADMASTER
  2
AcGrefacadMaster
  3
AcGrefServices
 90
        0
280
     0
281
     0
  0
CLASS
  1
AMIMASTER
  2
AmiMaster
  3
AmiServices
 90
        0
280
     0
281
     0
  0
CLASS
  1
ACMDATADICTIONARY
  2
AcmDataDictionary
  3
"AcmSymBB|Product Description: AutoCAD Mechanical 2004 DX|Company: Autodesk"
 90
        0
280
     0
281
     0
  0
CLASS
  1
ACMDATAENTRYBLOCK
  2
AcmDataEntryBlock
  3
"AcmSymBB|Product Description: AutoCAD Mechanical 2004 DX|Company: Autodesk"
 90
        0
280
     0
281
     0
  0
CLASS
  1
ACIMSTRSYSVAR
  2
AcImStrSysVar
  3
AcMeServices
 90
        0
280
     0
281
     0
  0
CLASS
  1
ACMSTANDARDISO
  2
AcmStandardISO
  3
"Amdt_StdImp|Product Description: AutoCAD Mechanical 2004 DX|Company: Autodesk"
 90
        0
280
     0
281
     0
  0
CLASS
  1
AMGOBJPROPCFG
  2
AmgObjPropCfg
  3
"AmgLay|Product Description: AutoCAD Mechanical 2000|Company: Autodesk"
 90
        1
280
     0
281
     0
  0
CLASS
  1
AMDTEDGESTANDARDISO
  2
AmdtEdgeStdISO
  3
"Amdt_StdImp|Product Description: AutoCAD Mechanical 2004 DX|Company: Autodesk"
 90
        0
280
     0
281
     0
  0
CLASS
  1
ACMSURFSTANDARDISO
  2
AcmSurfTextStdISO
  3
"Amdt_StdImp|Product Description: AutoCAD Mechanical 2004 DX|Company: Autodesk"
 90
        0
280
     0
281
     0
  0
CLASS
  1
ACMFCFSTANDARDISO
  2
AcmFCFStdISO
  3
"Amdt_StdImp|Product Description: AutoCAD Mechanical 2004 DX|Company: Autodesk"
 90
        0
280
     0
281
     0
  0
CLASS
  1
ACMWELDSTANDARDISO
  2
AcmWeldingStdISO
  3
"Amdt_StdImp|Product Description: AutoCAD Mechanical 2004 DX|Company: Autodesk"
 90
        0
280
     0
281
     0
  0
CLASS
  1
ACMIDSTANDARDISO
  2
AcmIdStdISO
  3
"Amdt_StdImp|Product Description: AutoCAD Mechanical 2004 DX|Company: Autodesk"
 90
        0
280
     0
281
     0
  0
CLASS
  1
ACMDATUMSTANDARDISO
  2
AcmDatumStdISO
  3
"Amdt_StdImp|Product Description: AutoCAD Mechanical 2004 DX|Company: Autodesk"
 90
        0
280
     0
281
     0
  0
CLASS
  1
ACMBOMSTANDARDISO
  2
AcmBOMStdISO
  3
"Amdt_StdImp|Product Description: AutoCAD Mechanical 2004 DX|Company: Autodesk"
 90
        0
280
     0
281
     0
  0
CLASS
  1
ACMDETAILSTANDARDISO
  2
AmdtDetailSymStdISO
  3
"Amdt_StdImp|Product Description: AutoCAD Mechanical 2004 DX|Company: Autodesk"
 90
        0
280
     0
281
     0
  0
CLASS
  1
ACMSECTIONSTANDARDISO
  2
AmdtSectionSymStdISO
  3
"Amdt_StdImp|Product Description: AutoCAD Mechanical 2004 DX|Company: Autodesk"
 90
        0
280
     0
281
     0
  0
CLASS
  1
ACMCENTERLINESTANDARDISO
  2
AmdtCenterLineStdISO
  3
"Amdt_StdImp|Product Description: AutoCAD Mechanical 2004 DX|Company: Autodesk"
 90
        0
280
     0
281
     0
  0
CLASS
  1
ACMNOTESTANDARDISO
  2
AmdtNoteStdISO
  3
"Amdt_StdImp|Product Description: AutoCAD Mechanical 2004 DX|Company: Autodesk"
 90
        0
280
     0
281
     0
  0
CLASS
  1
ACAMGLAYSTD
  2
AcAmgLayStd
  3
"AcAmgLayStd|Product Description: AutoCAD Mechanical 2000|Company: Autodesk"
 90
        0
280
     0
281
     0
  0
CLASS
  1
ACAMGDIMSTD
  2
AcAmgDimStd
  3
"AcAmgDimStd|Product Description: AutoCAD Mechanical 2000|Company: Autodesk"
 90
        0
280
     0
281
     0
  0
CLASS
  1
ACAMGHOLECHARTSTDISO
  2
AcAmgHoleChartStdISO
  3
ACMSYMBB_MODULE_NAME
 90
        0
280
     0
281
     0
  0
CLASS
  1
ACAMGTITLESTD
  2
AcAmgTitleStd
  3
"TITLEAPP"
 90
        0
280
     0
281
     0
  0
CLASS
  1
LAYER_INDEX
  2
AcDbLayerIndex
  3
ObjectDBX Classes
 90
    32768
280
     0
281
     0
  0
CLASS
  1
IDBUFFER
  2
AcDbIdBuffer
  3
ObjectDBX Classes
 90
    32768
280
     0
281
     0
  0
CLASS
  1
DICTIONARYVAR
  2
AcDbDictionaryVar
  3
ObjectDBX Classes
 90
        0
280
     0
281
     0
  0
CLASS
  1
AM_DRAWING_MGR
  2
AcDmDwgMgr
  3
AcMechDwgViewMgmt
 90
        0
280
     0
281
     0
  0
CLASS
  1
AM_DWG_DOCUMENT
  2
AcDmDwgDocument
  3
AcMechDwgViewMgmt
 90
        0
280
     0
281
     0
  0
CLASS
  1
AM_DWG_SHEET
  2
AcDmSheet
  3
AcMechDwgViewMgmt
 90
        0
280
     0
281
     0
  0
CLASS
  1
AM_VIEWDIMPARMAP
  2
AcDmViewDimParMap
  3
AcMechDwgViewMgmt
 90
        0
280
     0
281
     0
  0
CLASS
  1
AM_DWGMGR_NAME
  2
AcDmDwgMgrName
  3
AcMechDwgViewMgmt
 90
        0
280
     0
281
     0
  0
CLASS
  1
AMDTMENUSTATEMGR
  2
AmdtMenuStateMgr
  3
McadcomServices
 90
        0
280
     0
281
     0
  0
CLASS
  1
AMDTMCOMMENUSTATE
  2
AmdtMcomMenuState
  3
McadcomServices
 90
        0
280
     0
281
     0
  0
CLASS
  1
MAPIAMMOUDLE
  2
MApiAmModule
  3
MApiAmServices
 90
        0
280
     0
281
     0
  0
CLASS
  1
AMDTADMENUSTATE
  2
AmdtAdMenuState
  3
DesignerServices
 90
        0
280
     0
281
     0
  0
CLASS
  1
ADAPPL
  2
AcAdAppl
  3
DesignerServices
 90
        0
280
     0
281
     0
  0
CLASS
  1
DEPMGR
  2
AcAdDepMgr
  3
DesignerServices
 90
        0
280
     0
281
     0
  0
CLASS
  1
PARAMMGR
  2
AcAdParamMgr
  3
DesignerServices
 90
        0
280
     0
281
     0
  0
CLASS
  1
PARAMSCOPE
  2
AcAdParamScope
  3
DesignerServices
 90
        0
280
     0
281
     0
  0
CLASS
  1
NAMEDAPPL
  2
AcAdNamedAppl
  3
DesignerServices
 90
        0
280
     0
281
     0
  0
CLASS
  1
AMDTDMMENUSTATE
  2
AmdtDmMenuState
  3
AcMechDwgViewMgmt
 90
        0
280
     0
281
     0
  0
CLASS
  1
AMDTAMMENUSTATE
  2
AmdtAmMenuState
  3
DesignerAssemblies
 90
        0
280
     0
281
     0
  0
CLASS
  1
ACAMPROJECT
  2
AcAmProject
  3
DesignerAssemblies
 90
        0
280
     0
281
     0
  0
CLASS
  1
ACAMGRCOMPDEF
  2
AcAmGrCompDef
  3
DesignerAssemblies
 90
        0
280
     0
281
     0
  0
CLASS
  1
ACCMCONTEXT
  2
AcCmContext
  3
DesignerAssemblies
 90
        0
280
     0
281
     0
  0
CLASS
  1
ACAMCOMPDEF
  2
AcAmCompDef
  3
DesignerAssemblies
 90
        0
280
     0
281
     0
  0
CLASS
  1
ACAMCOMPDEFMGR
  2
AcAmCompDefMgr
  3
DesignerAssemblies
 90
        0
280
     0
281
     0
  0
CLASS
  1
AMCONTEXTMGR
  2
AcAmContextMgr
  3
DesignerAssemblies
 90
        0
280
     0
281
     0
  0
CLASS
  1
ACAMCONTEXTMODELER
  2
AcAmContextModeler
  3
DesignerAssemblies
 90
        0
280
     0
281
     0
  0
CLASS
  1
ACMTHREADLINESTANDARDISO
  2
AmdtThreadLineStdISO
  3
"Amdt_StdImp|Product Description: AutoCAD Mechanical 2004 DX|Company: Autodesk"
 90
        0
280
     0
281
     0
  0
CLASS
  1
CATALOGSTATE
  2
AcAmCatalogState
  3
DesignerAssemblies
 90
        0
280
     0
281
     0
  0
CLASS
  1
ACAMGRCOMPDEFSET
  2
AcAmGrCompDefSet
  3
DesignerAssemblies
 90
        0
280
     0
281
     0
  0
CLASS
  1
AMDTBROWSERDBTAB
  2
AmdtBrowserDbTab
  3
McadcomServices
 90
        0
280
     0
281
     0
  0
CLASS
  1
CBROWSERAPPOBJECT
  2
CBrowserAppObject
  3
McadcomServices
 90
        0
280
     0
281
     0
  0
CLASS
  1
DM_PLACEHOLDER
  2
AcDmSelsetPlaceholder
  3
AcMechDwgViewMgmt
 90
        0
280
     0
281
     0
  0
CLASS
  1
TABLESTYLE
  2
AcDbTableStyle
  3
ObjectDBX Classes
 90
     2047
280
     0
281
     0
  0
CLASS
  1
VAACXREFPANELOBJECT
  2
VaAcXREFPanelObject
  3
VAAC_ADDIN
 90
    32768
280
     0
281
     0
  0
CLASS
  1
VAACIMAGEINVENTORY
  2
VaAcImageInventory
  3
VAAC_ADDIN
 90
    32768
280
     0
281
     0
  0
CLASS
  1
AMDTNOTETEMPLATEDB
  2
AmdtNoteTemplateDB
  3
AMDT_STDIMP_MODULE_NAME
 90
        0
280
     0
281
     0
  0
CLASS
  1
ACMBOM
  2
AcmBom
  3
"AcmSymBB|Product Description: AutoCAD Mechanical 2004 DX|Company: Autodesk"
 90
    32768
280
     0
281
     0
  0
CLASS
  1
AMDTFORMULAUPDATEDISPATCHER
  2
AmdtFormulaUpdateDispatcher
  3
AcMeServices
 90
        0
280
     0
281
     0
  0
CLASS
  1
ACMPARTLIST
  2
AcmPartList
  3
"AcmSymBB|Product Description: AutoCAD Mechanical 2004 DX|Company: Autodesk"
 90
    33791
280
     0
281
     1
  0
CLASS
  1
ACAMGFILTERDAT
  2
AcAmgFilterDat
  3
"AcadM|Product Description: AutoCAD Mechanical 2000|Company: Autodesk"
 90
        0
280
     0
281
     0
  0
CLASS
  1
DIMASSOC
  2
AcDbDimAssoc
  3
"AcDbDimAssoc|Product Desc:     AcDim ARX App For Dimension|Company:          Autodesk, Inc.|WEB Address:      www.autodesk.com"
 90
    32768
280
     0
281
     0
  0
CLASS
  1
SORTENTSTABLE
  2
AcDbSortentsTable
  3
ObjectDBX Classes
 90
        0
280
     0
281
     0
  0
CLASS
  1
STDPART2D
  2
AmgStdPart
  3
"AmgStdPart|Product Description: AutoCAD Mechanical 2000|Company: Autodesk"
 90
    33791
280
     0
281
     1
  0
CLASS
  1
ACAMSTDPCOMPDEF
  2
AcAmStdpCompDef
  3
DesignerAssemblies
 90
    32768
280
     0
281
     0
  0
CLASS
  1
ACRFATTGENMGR
  2
AcRfAttGeneralMgr
  3
AcAttribServices
 90
        0
280
     0
281
     0
  0
CLASS
  1
ACRFOBJATTMGR
  2
AcRfObjAttGroupMgr
  3
AcAttribServices
 90
    32768
280
     0
281
     0
  0
CLASS
  1
ACRFMCADAPIATTHOLDER
  2
AcRfMCADAPIAttHolder
  3
AcAttribServices
 90
    32768
280
     0
281
     0
  0
CLASS
  1
AMDTSYSATTR
  2
AmdtSystemAttribute
  3
AcAttribServices
 90
    32768
280
     0
281
     0
  0
CLASS
  1
ACAMCOMP
  2
AcAmComp
  3
DesignerAssemblies
 90
    32768
280
     0
281
     0
  0
CLASS
  1
AC_AM_STDP_VIEW_DEF
  2
AcAmStdpViewDef
  3
DesignerAssemblies
 90
    32768
280
     0
281
     0
  0
CLASS
  1
AC_AM_MVD_DEP_MGR
  2
AcAmMVDdepMgr
  3
DesignerAssemblies
 90
        0
280
     0
281
     0
  0
CLASS
  1
AC_AM_MASTER_VIEW_DEF
  2
AcAmMasterViewDef
  3
DesignerAssemblies
 90
        0
280
     0
281
     0
  0
CLASS
  1
AC_AM_DIRTY_NODES
  2
AcAmDirtyNodes
  3
DesignerAssemblies
 90
        0
280
     0
281
     0
  0
CLASS
  1
AC_AM_MAPPER_CACHE
  2
AcAmMapperCache
  3
DesignerAssemblies
 90
        0
280
     0
281
     0
  0
CLASS
  1
ACAMMVDBACKUPOBJECT
  2
AcAmMVDBackupObject
  3
DesignerAssemblies
 90
        0
280
     0
281
     0
  0
CLASS
  1
AC_AM_COMP_VIEW_INST
  2
AcAmCompView
  3
DesignerAssemblies
 90
    32768
280
     0
281
     0
  0
CLASS
  1
AC_AM_2D_XREF_MGR
  2
AcAmXrefMgr2d
  3
DesignerAssemblies
 90
        0
280
     0
281
     0
  0
CLASS
  1
AMDTNOTE
  2
AmdtNote
  3
"AcmSymBB|Product Description: AutoCAD Mechanical 2004 DX|Company: Autodesk"
 90
     1023
280
     0
281
     1
  0
ENDSEC
  0
SECTION
  2
TABLES
  0
TABLE
  2
VPORT
  5
8
330
0
100
AcDbSymbolTable
 70
     3
  0
VPORT
  5
33A0
330
8
100
AcDbSymbolTableRecord
100
AcDbViewportTableRecord
  2
*Active
 70
     0
 10
0.0
 20
0.0
 11
1.0
 21
1.0
 12
254.0014793218838
 22
180.4382865563248
 13
0.0
 23
0.0
 14
2.5
 24
2.5
 15
10.0
 25
10.0
 16
0.0
 26
0.0
 36
1.0
 17
0.0
 27
0.0
 37
0.0
 40
203.2649200780407
 41
1.425271739130434
 42
50.0
 43
0.0
 44
0.0
 50
0.0
 51
0.0
 71
     0
 72
   100
 73
     1
 74
     3
 75
     0
 76
     0
 77
     0
 78
     0
281
     0
 65
     1
110
0.0
120
0.0
130
0.0
111
1.0
121
0.0
131
0.0
112
0.0
122
1.0
132
0.0
 79
     0
146
0.0
  0
ENDTAB
  0
TABLE
  2
LTYPE
  5
5
330
0
100
AcDbSymbolTable
 70
    14
  0
LTYPE
  5
14
330
5
100
AcDbSymbolTableRecord
100
AcDbLinetypeTableRecord
  2
ByBlock
 70
     0
  3

 72
    65
 73
     0
 40
0.0
  0
LTYPE
  5
15
330
5
100
AcDbSymbolTableRecord
100
AcDbLinetypeTableRecord
  2
ByLayer
 70
     0
  3

 72
    65
 73
     0
 40
0.0
  0
LTYPE
  5
16
330
5
100
AcDbSymbolTableRecord
100
AcDbLinetypeTableRecord
  2
Continuous
 70
     0
  3
Solid line
 72
    65
 73
     0
 40
0.0
  0
LTYPE
  5
64
330
5
100
AcDbSymbolTableRecord
100
AcDbLinetypeTableRecord
  2
AM_ISO02W050
 70
     0
  3
__ __ __ __ __ __ __ __ __ __ __ __ __ __ __
 72
    65
 73
     2
 40
7.5
 49
6.0
 74
     0
 49
-1.5
 74
     0
  0
LTYPE
  5
65
330
5
100
AcDbSymbolTableRecord
100
AcDbLinetypeTableRecord
  2
AM_ISO08W050
 70
     0
  3
____ . ____ . ____ . ____ . ____ . ____ . ____
 72
    65
 73
     4
 40
18.0
 49
12.0
 74
     0
 49
-1.5
 74
     0
 49
3.0
 74
     0
 49
-1.5
 74
     0
  0
LTYPE
  5
66
330
5
100
AcDbSymbolTableRecord
100
AcDbLinetypeTableRecord
  2
AM_ISO09W050
 70
     0
  3
_____ . . _____ . . _____ . . ____ .. ____
 72
    65
 73
     6
 40
22.5
 49
12.0
 74
     0
 49
-1.5
 74
     0
 49
3.0
 74
     0
 49
-1.5
 74
     0
 49
3.0
 74
     0
 49
-1.5
 74
     0
  0
LTYPE
  5
67
330
5
100
AcDbSymbolTableRecord
100
AcDbLinetypeTableRecord
  2
Amconstr
 70
     0
  3
_______________________
 72
    65
 73
     2
 40
9999.0
 49
9999.0
 74
     0
 49
0.0
 74
     0
  0
LTYPE
  5
68
330
5
100
AcDbSymbolTableRecord
100
AcDbLinetypeTableRecord
  2
AM_ISO08W050x2
 70
     0
  3
__ . __ . __ . __ . __ . __
 72
    65
 73
     4
 40
9.0
 49
6.0
 74
     0
 49
-0.75
 74
     0
 49
1.5
 74
     0
 49
-0.75
 74
     0
  0
LTYPE
  5
69
330
5
100
AcDbSymbolTableRecord
100
AcDbLinetypeTableRecord
  2
AM_ISO02W050x2
 70
     0
  3
 _ _ _ _ _ _ _ _ _ _ _ _
 72
    65
 73
     2
 40
3.75
 49
3.0
 74
     0
 49
-0.75
 74
     0
  0
LTYPE
  5
6C
330
5
100
AcDbSymbolTableRecord
100
AcDbLinetypeTableRecord
  2
Amzigzag
 70
     0
  3
/\/-/\/-/\/-/\/-/\/-/\/
 72
    65
 73
     2
 40
11.0001
 49
0.0001
 74
     4
 75
   135
340
6B
 46
0.04
 50
0.0
 44
0.0
 45
0.0
 49
-11.0
 74
     0
  0
LTYPE
  5
7A
330
5
100
AcDbSymbolTableRecord
100
AcDbLinetypeTableRecord
  2
ACISOWELD
 70
     0
  3
_ _ _ _ _
 72
    65
 73
     2
 40
2.0
 49
2.0
 74
     0
 49
-1.0
 74
     0
  0
LTYPE
  5
7B
330
5
100
AcDbSymbolTableRecord
100
AcDbLinetypeTableRecord
  2
ACISOTGB
 70
     0
  3
__ . . __ . .
 72
    65
 73
     6
 40
9.0
 49
4.0
 74
     0
 49
-1.0
 74
     0
 49
1.0
 74
     0
 49
-1.0
 74
     0
 49
1.0
 74
     0
 49
-1.0
 74
     0
  0
LTYPE
  5
7C
330
5
100
AcDbSymbolTableRecord
100
AcDbLinetypeTableRecord
  2
ACISOTGL
 70
     0
  3
_ _ _ _ _
 72
    65
 73
     2
 40
3.0
 49
2.0
 74
     0
 49
-1.0
 74
     0
  0
LTYPE
  5
7E
330
5
100
AcDbSymbolTableRecord
100
AcDbLinetypeTableRecord
  2
CENTER
 70
     0
  3
__ . __
 72
    65
 73
     4
 40
7.0
 49
4.0
 74
     0
 49
-1.0
 74
     0
 49
1.0
 74
     0
 49
-1.0
 74
     0
  0
LTYPE
  5
D8
330
5
100
AcDbSymbolTableRecord
100
AcDbLinetypeTableRecord
  2
HIDDEN
 70
     0
  3
Hidden __ __ __ __ __ __ __ __ __ __ __ __ __ _
 72
    65
 73
     2
 40
9.524999999999998
 49
6.349999999999999
 74
     0
 49
-3.174999999999999
 74
     0
  0
LTYPE
  5
D9
330
5
100
AcDbSymbolTableRecord
100
AcDbLinetypeTableRecord
  2
PHANTOM2
 70
     0
  3
Phantom (.5x) ___ _ _ ___ _ _ ___ _ _ ___ _ _
 72
    65
 73
     6
 40
31.75
 49
15.875
 74
     0
 49
-3.174999999999999
 74
     0
 49
3.174999999999999
 74
     0
 49
-3.174999999999999
 74
     0
 49
3.174999999999999
 74
     0
 49
-3.174999999999999
 74
     0
  0
ENDTAB
  0
TABLE
  2
LAYER
  5
2
102
{ACAD_XDICTIONARY
360
3F9
102
}
330
0
100
AcDbSymbolTable
 70
     8
  0
LAYER
  5
10
330
2
100
AcDbSymbolTableRecord
100
AcDbLayerTableRecord
  2
0
 70
     0
 62
     7
  6
Continuous
370
    -3
390
F
  0
LAYER
  5
AA7
330
2
100
AcDbSymbolTableRecord
100
AcDbLayerTableRecord
  2
AM_VIS
 70
     0
 62
     7
  6
Continuous
370
    50
390
F
  0
LAYER
  5
AA8
330
2
100
AcDbSymbolTableRecord
100
AcDbLayerTableRecord
  2
AM_4
 70
     0
 62
     3
  6
Continuous
370
    25
390
F
  0
LAYER
  5
AA9
330
2
100
AcDbSymbolTableRecord
100
AcDbLayerTableRecord
  2
AM_5
 70
     0
 62
     5
  6
Continuous
370
    50
390
F
  0
LAYER
  5
131A
330
2
100
AcDbSymbolTableRecord
100
AcDbLayerTableRecord
  2
Defpoints
 70
     0
 62
     7
  6
Continuous
290
     0
370
    -3
390
F
  0
LAYER
  5
131B
330
2
100
AcDbSymbolTableRecord
100
AcDbLayerTableRecord
  2
AM_7
 70
     0
 62
     1
  6
CENTER
370
    25
390
F
  0
LAYER
  5
131C
330
2
100
AcDbSymbolTableRecord
100
AcDbLayerTableRecord
  2
AM_0
 70
     0
 62
     7
  6
Continuous
370
    50
390
F
  0
LAYER
  5
2343
330
2
100
AcDbSymbolTableRecord
100
AcDbLayerTableRecord
  2
LOGO
 70
     0
 62
     7
  6
Continuous
370
    -3
390
F
  0
ENDTAB
  0
TABLE
  2
STYLE
  5
3
330
0
100
AcDbSymbolTable
 70
     6
  0
STYLE
  5
11
330
3
100
AcDbSymbolTableRecord
100
AcDbTextStyleTableRecord
  2
STANDARD
 70
     0
 40
0.0
 41
1.0
 50
0.0
 71
     0
 42
3.0
  3
ISOCP.SHX
  4
CHINESET.SHX
  0
STYLE
  5
6B
330
3
100
AcDbSymbolTableRecord
100
AcDbTextStyleTableRecord
  2

 70
     1
 40
0.0
 41
1.0
 50
0.0
 71
     0
 42
2.5
  3
ltypeshp.shx
  4

  0
STYLE
  5
6D
330
3
100
AcDbSymbolTableRecord
100
AcDbTextStyleTableRecord
  2
ACISOTS
 70
     0
 40
1.0
 41
1.0
 50
0.0
 71
     0
 42
1.0
  3
isocp.shx
  4
chineset.shx
  0
STYLE
  5
79
330
3
100
AcDbSymbolTableRecord
100
AcDbTextStyleTableRecord
  2
ACISOGDT
 70
     0
 40
0.0
 41
1.0
 50
0.0
 71
     0
 42
2.5
  3
amgdt.shx
  4
chineset.shx
  0
STYLE
  5
2344
330
3
100
AcDbSymbolTableRecord
100
AcDbTextStyleTableRecord
  2
CHINESET
 70
     0
 40
0.0
 41
1.0
 50
0.0
 71
     0
 42
3.0
  3
simplex.shx
  4
CHINESET.SHX
  0
ENDTAB
  0
TABLE
  2
VIEW
  5
6
330
0
100
AcDbSymbolTable
 70
     0
  0
ENDTAB
  0
TABLE
  2
UCS
  5
7
330
0
100
AcDbSymbolTable
 70
     0
  0
ENDTAB
  0
TABLE
  2
APPID
  5
9
330
0
100
AcDbSymbolTable
 70
    26
  0
APPID
  5
12
330
9
100
AcDbSymbolTableRecord
100
AcDbRegAppTableRecord
  2
ACAD
 70
     0
  0
APPID
  5
46
330
9
100
AcDbSymbolTableRecord
100
AcDbRegAppTableRecord
  2
MCAD_NO_VIS
 70
     0
  0
APPID
  5
47
330
9
100
AcDbSymbolTableRecord
100
AcDbRegAppTableRecord
  2
ACAD_TEMP_GRAPHIC
 70
     0
  0
APPID
  5
58
330
9
100
AcDbSymbolTableRecord
100
AcDbRegAppTableRecord
  2
ACATTRIBSERVICES
 70
     0
  0
APPID
  5
EE
330
9
100
AcDbSymbolTableRecord
100
AcDbRegAppTableRecord
  2
AD_DRAW
 70
     0
  0
APPID
  5
10C
330
9
100
AcDbSymbolTableRecord
100
AcDbRegAppTableRecord
  2
DESIGNERASSEMBLIES
 70
     0
  0
APPID
  5
111
330
9
100
AcDbSymbolTableRecord
100
AcDbRegAppTableRecord
  2
ACADM_DIM_EDIT
 70
     0
  0
APPID
  5
112
330
9
100
AcDbSymbolTableRecord
100
AcDbRegAppTableRecord
  2
AMDT_DM_ADJ
 70
     0
  0
APPID
  5
22C
330
9
100
AcDbSymbolTableRecord
100
AcDbRegAppTableRecord
  2
ACAD_DSTYLE_DIMTEXT_FILL
 70
     0
  0
APPID
  5
452
330
9
100
AcDbSymbolTableRecord
100
AcDbRegAppTableRecord
  2
GENIUS_GENOENT_13
 70
     0
  0
APPID
  5
453
330
9
100
AcDbSymbolTableRecord
100
AcDbRegAppTableRecord
  2
GENIUS_GENOBJ-N-CRS_13
 70
     0
  0
APPID
  5
454
330
9
100
AcDbSymbolTableRecord
100
AcDbRegAppTableRecord
  2
GENIUS_GENOLIS_13
 70
     0
  0
APPID
  5
455
330
9
100
AcDbSymbolTableRecord
100
AcDbRegAppTableRecord
  2
GENIUS_GENODEF_13
 70
     0
  0
APPID
  5
456
330
9
100
AcDbSymbolTableRecord
100
AcDbRegAppTableRecord
  2
GENIUS_GENOREF_13
 70
     0
  0
APPID
  5
6F3
330
9
100
AcDbSymbolTableRecord
100
AcDbRegAppTableRecord
  2
ACAD_PSEXT
 70
     0
  0
APPID
  5
808
330
9
100
AcDbSymbolTableRecord
100
AcDbRegAppTableRecord
  2
GENIUS_GENDTOL_13
 70
     0
  0
APPID
  5
131D
330
9
100
AcDbSymbolTableRecord
100
AcDbRegAppTableRecord
  2
GENIUS_GENOBJ-N-CEN_13
 70
     0
  0
APPID
  5
131E
330
9
100
AcDbSymbolTableRecord
100
AcDbRegAppTableRecord
  2
GENIUS_GENCEN_19
 70
     0
  0
APPID
  5
1BE1
330
9
100
AcDbSymbolTableRecord
100
AcDbRegAppTableRecord
  2
GEVID1188195156
 70
     0
  0
APPID
  5
1BE2
330
9
100
AcDbSymbolTableRecord
100
AcDbRegAppTableRecord
  2
GEVDC
 70
     0
  0
APPID
  5
1BE3
330
9
100
AcDbSymbolTableRecord
100
AcDbRegAppTableRecord
  2
GEVRADREF
 70
     0
  0
APPID
  5
1BEC
330
9
100
AcDbSymbolTableRecord
100
AcDbRegAppTableRecord
  2
AMG_2DHIDE
 70
     0
  0
APPID
  5
1BED
330
9
100
AcDbSymbolTableRecord
100
AcDbRegAppTableRecord
  2
AMG_2DSTRUCT_BTR
 70
     0
  0
APPID
  5
1BFE
330
9
100
AcDbSymbolTableRecord
100
AcDbRegAppTableRecord
  2
ACADM_2DVIEW_IGN_NOTIFY
 70
     0
  0
APPID
  5
2345
330
9
100
AcDbSymbolTableRecord
100
AcDbRegAppTableRecord
  2
GENIUS_GENREC_14
 70
     0
  0
APPID
  5
2346
330
9
100
AcDbSymbolTableRecord
100
AcDbRegAppTableRecord
  2
GENIUS_GENOBJ-N-REC_13
 70
     0
  0
ENDTAB
  0
TABLE
  2
DIMSTYLE
  5
A
330
0
100
AcDbSymbolTable
 70
     9
100
AcDbDimStyleTable
 71
     3
340
81
340
8B
340
86
  0
DIMSTYLE
105
81
330
A
100
AcDbSymbolTableRecord
100
AcDbDimStyleTableRecord
  2
AM_ISO
 70
     0
  4
"
 41
3.0
 42
1.0
 43
6.0
 44
1.5
 47
0.1
 48
0.1
 73
     0
 74
     0
 77
     1
 78
     8
 79
     2
140
3.5
141
0.0
143
0.0393701
146
0.6
147
1.0
172
     1
176
   256
177
   256
178
   256
271
     2
272
     2
283
     0
284
     8
340
11
371
    -1
372
    -1
  0
DIMSTYLE
105
82
330
A
100
AcDbSymbolTableRecord
100
AcDbDimStyleTableRecord
  2
AM_ISO$3
 70
     0
  4
"
 41
3.0
 42
1.0
 43
6.0
 44
1.5
 47
0.1
 48
0.1
 73
     0
 77
     1
 78
     8
 79
     2
140
3.5
141
0.0
143
0.0393701
146
0.6
147
1.0
176
   256
177
   256
178
   256
271
     2
272
     2
283
     0
284
     8
288
     1
289
     0
340
11
371
    -1
372
    -1
  0
DIMSTYLE
105
83
330
A
100
AcDbSymbolTableRecord
100
AcDbDimStyleTableRecord
  2
AM_ISO$4
 70
     0
  4
"
 41
3.0
 42
1.0
 43
6.0
 44
1.5
 47
0.1
 48
0.1
 73
     0
 77
     1
 78
     8
 79
     2
140
3.5
141
0.0
143
0.0393701
146
0.6
147
1.0
176
   256
177
   256
178
   256
271
     2
272
     2
283
     0
284
     8
288
     1
289
     0
340
11
371
    -1
372
    -1
  0
DIMSTYLE
105
84
330
A
100
AcDbSymbolTableRecord
100
AcDbDimStyleTableRecord
  2
AM_ISO$6
 70
     0
  4
"
 41
3.0
 42
1.0
 43
6.0
 44
1.5
 47
0.1
 48
0.1
 73
     0
 74
     0
 78
     8
 79
     2
140
3.5
141
0.0
143
0.0393701
146
0.6
147
1.0
172
     1
176
   256
177
   256
178
   256
271
     2
272
     2
283
     0
284
     8
340
11
371
    -1
372
    -1
  0
DIMSTYLE
105
85
330
A
100
AcDbSymbolTableRecord
100
AcDbDimStyleTableRecord
  2
AM_ISO$7
 70
     0
  4
"
 41
3.0
 42
1.0
 43
6.0
 44
1.5
 47
0.1
 48
0.1
 73
     0
 74
     0
 77
     1
 78
     8
 79
     2
140
5.0
141
0.0
143
0.0393701
146
0.6
147
1.0
172
     1
176
   256
177
   256
178
   256
271
     2
272
     2
283
     0
284
     8
340
11
371
    -1
372
    -1
  0
DIMSTYLE
105
86
330
A
100
AcDbSymbolTableRecord
100
AcDbDimStyleTableRecord
  2
AM_ISO$SF
 70
     0
  4
"
 41
2.5
 42
1.0
 43
10.0
 44
1.0
 47
0.1
 48
0.1
 73
     0
 74
     0
 75
     1
 76
     1
 77
     1
 78
     8
 79
     2
140
3.5
141
0.0
143
0.0393701
146
0.71
147
1.5
172
     1
176
   256
177
   256
178
     2
271
     2
272
     3
274
     4
283
     0
284
     8
340
11
371
    -1
372
    -1
  0
DIMSTYLE
105
8B
330
A
100
AcDbSymbolTableRecord
100
AcDbDimStyleTableRecord
  2
AM_ISO$SH
 70
     0
  4
"
 41
2.5
 42
1.0
 43
10.0
 44
1.0
 47
0.1
 48
0.1
 73
     0
 74
     0
 75
     1
 76
     1
 77
     1
 78
     8
 79
     2
140
3.5
141
0.0
143
0.0393701
144
2.0
146
0.71
147
1.5
172
     1
173
     1
176
   256
177
   256
178
     2
271
     2
272
     3
274
     4
283
     0
284
     8
340
11
343
87
371
    -1
372
    -1
  0
DIMSTYLE
105
40B
102
{ACAD_REACTORS
330
1C2A
330
1C33
330
1C30
330
1C1B
330
1C27
330
1C3C
330
1C2D
330
1C21
330
1FE4
330
1FE7
330
1FEA
330
1FED
330
1FF0
330
2222
330
2270
330
22C8
330
22EE
330
32FB
102
}
330
A
100
AcDbSymbolTableRecord
100
AcDbDimStyleTableRecord
  2
AM_ISO$0
 70
     0
  4
"
 41
3.0
 42
1.0
 43
6.0
 44
1.5
 47
0.1
 48
0.1
 73
     0
 74
     0
 77
     1
 78
     8
 79
     2
140
3.5
141
0.0
143
0.0393701
146
0.6
147
1.0
172
     1
176
   256
177
   256
178
   256
271
     2
272
     2
283
     0
284
     8
340
11
371
    -1
372
    -1
  0
ENDTAB
  0
TABLE
  2
BLOCK_RECORD
  5
1
330
0
100
AcDbSymbolTable
 70
    27
  0
BLOCK_RECORD
  5
1F
102
{ACAD_XDICTIONARY
360
8F
102
}
330
1
100
AcDbSymbolTableRecord
100
AcDbBlockTableRecord
  2
*Model_Space
340
22
  0
BLOCK_RECORD
  5
1B
330
1
100
AcDbSymbolTableRecord
100
AcDbBlockTableRecord
  2
*Paper_Space
340
1E
  0
BLOCK_RECORD
  5
23
330
1
100
AcDbSymbolTableRecord
100
AcDbBlockTableRecord
  2
*Paper_Space0
340
26
  0
BLOCK_RECORD
  5
87
330
1
100
AcDbSymbolTableRecord
100
AcDbBlockTableRecord
  2
GENAXEH
340
0
  0
BLOCK_RECORD
  5
1C02
330
1
100
AcDbSymbolTableRecord
100
AcDbBlockTableRecord
  2
*U4
340
0
  0
BLOCK_RECORD
  5
1C3F
330
1
100
AcDbSymbolTableRecord
100
AcDbBlockTableRecord
  2
*D5
340
0
  0
BLOCK_RECORD
  5
1C4D
330
1
100
AcDbSymbolTableRecord
100
AcDbBlockTableRecord
  2
*D6
340
0
  0
BLOCK_RECORD
  5
1C59
330
1
100
AcDbSymbolTableRecord
100
AcDbBlockTableRecord
  2
*D7
340
0
  0
BLOCK_RECORD
  5
1C71
330
1
100
AcDbSymbolTableRecord
100
AcDbBlockTableRecord
  2
*D8
340
0
  0
BLOCK_RECORD
  5
1C89
330
1
100
AcDbSymbolTableRecord
100
AcDbBlockTableRecord
  2
*D9
340
0
  0
BLOCK_RECORD
  5
1C95
330
1
100
AcDbSymbolTableRecord
100
AcDbBlockTableRecord
  2
*D10
340
0
  0
BLOCK_RECORD
  5
1CA1
330
1
100
AcDbSymbolTableRecord
100
AcDbBlockTableRecord
  2
*D11
340
0
  0
BLOCK_RECORD
  5
1CAF
330
1
100
AcDbSymbolTableRecord
100
AcDbBlockTableRecord
  2
*D12
340
0
  0
BLOCK_RECORD
  5
2010
330
1
100
AcDbSymbolTableRecord
100
AcDbBlockTableRecord
  2
*D13
340
0
  0
BLOCK_RECORD
  5
201C
330
1
100
AcDbSymbolTableRecord
100
AcDbBlockTableRecord
  2
*D14
340
0
  0
BLOCK_RECORD
  5
202A
330
1
100
AcDbSymbolTableRecord
100
AcDbBlockTableRecord
  2
*D15
340
0
  0
BLOCK_RECORD
  5
2036
330
1
100
AcDbSymbolTableRecord
100
AcDbBlockTableRecord
  2
*D16
340
0
  0
BLOCK_RECORD
  5
2042
330
1
100
AcDbSymbolTableRecord
100
AcDbBlockTableRecord
  2
*D17
340
0
  0
BLOCK_RECORD
  5
2223
330
1
100
AcDbSymbolTableRecord
100
AcDbBlockTableRecord
  2
*D18
340
0
  0
BLOCK_RECORD
  5
2271
330
1
100
AcDbSymbolTableRecord
100
AcDbBlockTableRecord
  2
*D19
340
0
  0
BLOCK_RECORD
  5
22C9
330
1
100
AcDbSymbolTableRecord
100
AcDbBlockTableRecord
  2
*D20
340
0
  0
BLOCK_RECORD
  5
22EF
330
1
100
AcDbSymbolTableRecord
100
AcDbBlockTableRecord
  2
*D21
340
0
  0
BLOCK_RECORD
  5
32FC
330
1
100
AcDbSymbolTableRecord
100
AcDbBlockTableRecord
  2
*D22
340
0
  0
BLOCK_RECORD
  5
3386
330
1
100
AcDbSymbolTableRecord
100
AcDbBlockTableRecord
  2
*S24
340
0
  0
BLOCK_RECORD
  5
338E
330
1
100
AcDbSymbolTableRecord
100
AcDbBlockTableRecord
  2
*S25
340
0
  0
BLOCK_RECORD
  5
3396
330
1
100
AcDbSymbolTableRecord
100
AcDbBlockTableRecord
  2
*S26
340
0
  0
ENDTAB
  0
ENDSEC
  0
SECTION
  2
BLOCKS
  0
BLOCK
  5
20
330
1F
100
AcDbEntity
  8
0
100
AcDbBlockBegin
  2
*Model_Space
 70
     0
 10
0.0
 20
0.0
 30
0.0
  3
*Model_Space
  1

  0
ENDBLK
  5
21
330
1F
100
AcDbEntity
  8
0
100
AcDbBlockEnd
  0
BLOCK
  5
1C
330
1B
100
AcDbEntity
 67
     1
  8
0
100
AcDbBlockBegin
  2
*Paper_Space
 70
     0
 10
0.0
 20
0.0
 30
0.0
  3
*Paper_Space
  1

  0
ENDBLK
  5
1D
330
1B
100
AcDbEntity
 67
     1
  8
0
100
AcDbBlockEnd
  0
BLOCK
  5
24
330
23
100
AcDbEntity
  8
0
100
AcDbBlockBegin
  2
*Paper_Space0
 70
     0
 10
0.0
 20
0.0
 30
0.0
  3
*Paper_Space0
  1

  0
ENDBLK
  5
25
330
23
100
AcDbEntity
  8
0
100
AcDbBlockEnd
  0
BLOCK
  5
89
330
87
100
AcDbEntity
  8
0
100
AcDbBlockBegin
  2
GENAXEH
 70
     0
 10
0.0
 20
0.0
 30
0.0
  3
GENAXEH
  1

  0
LINE
  5
88
330
87
100
AcDbEntity
  8
0
100
AcDbLine
 10
-1.0
 20
0.0
 30
0.0
 11
1.0
 21
0.0
 31
0.0
  0
ENDBLK
  5
8A
330
87
100
AcDbEntity
  8
0
100
AcDbBlockEnd
  0
BLOCK
  5
1C03
330
1C02
100
AcDbEntity
  8
0
100
AcDbBlockBegin
  2
*U4
 70
     1
 10
0.0
 20
0.0
 30
0.0
  3
*U4
  1

  0
ENDBLK
  5
1C04
330
1C02
100
AcDbEntity
  8
0
100
AcDbBlockEnd
  0
BLOCK
  5
1C4B
330
1C3F
100
AcDbEntity
  8
0
100
AcDbBlockBegin
  2
*D5
 70
     1
 10
0.0
 20
0.0
 30
0.0
  3
*D5
  1

  0
LINE
  5
3281
330
1C3F
100
AcDbEntity
  8
AM_5
100
AcDbLine
 10
226.8155814163465
 20
236.5564656289516
 30
0.0
 11
177.7155814163466
 21
236.5564656289516
 31
0.0
  0
LINE
  5
3282
330
1C3F
100
AcDbEntity
  8
AM_5
100
AcDbLine
 10
237.8155814163465
 20
239.0564656289515
 30
0.0
 11
177.7155814163466
 21
239.0564656289516
 31
0.0
  0
LINE
  5
3283
330
1C3F
100
AcDbEntity
  8
AM_5
100
AcDbLine
 10
178.9155814163466
 20
241.4564656289516
 30
0.0
 11
178.9155814163466
 21
243.8564656289516
 31
0.0
  0
LINE
  5
3284
330
1C3F
100
AcDbEntity
  8
AM_5
100
AcDbLine
 10
178.9155814163466
 20
234.1564656289516
 30
0.0
 11
178.9155814163466
 21
224.1359981993237
 31
0.0
  0
LINE
  5
3285
330
1C3F
100
AcDbEntity
  8
AM_5
100
AcDbLine
 10
178.9155814163466
 20
239.0564656289516
 30
0.0
 11
178.9155814163466
 21
236.5564656289516
 31
0.0
  0
SOLID
  5
3286
330
1C3F
100
AcDbEntity
  8
AM_5
100
AcDbTrace
 10
178.5155814163466
 20
241.4564656289516
 30
0.0
 11
179.3155814163466
 21
241.4564656289516
 31
0.0
 12
178.9155814163466
 22
239.0564656289516
 32
0.0
 13
178.9155814163466
 23
239.0564656289516
 33
0.0
  0
SOLID
  5
3287
330
1C3F
100
AcDbEntity
  8
AM_5
100
AcDbTrace
 10
178.5155814163466
 20
234.1564656289516
 30
0.0
 11
179.3155814163466
 21
234.1564656289516
 31
0.0
 12
178.9155814163466
 22
236.5564656289516
 32
0.0
 13
178.9155814163466
 23
236.5564656289516
 33
0.0
  0
MTEXT
  5
3288
330
1C3F
100
AcDbEntity
  8
AM_5
100
AcDbMText
 10
176.7153058257954
 20
226.9895392791584
 30
0.0
 40
2.8
 41
0.0
 71
     5
 72
     1
  1
2.5
 11
0.0000000000000001
 21
1.0
 31
0.0
 73
     1
 44
1.0
1001
ACAD
1000
MTEXTBEGIN
1070
    73
1070
     1
1070
    44
1040
1.0
1070
    74
1070
     0
1000
MTEXTEND
  0
POINT
  5
3289
330
1C3F
100
AcDbEntity
  8
Defpoints
 62
     0
100
AcDbPoint
 10
227.6155814163465
 20
236.5564656289516
 30
0.0
  0
POINT
  5
328A
330
1C3F
100
AcDbEntity
  8
Defpoints
 62
     0
100
AcDbPoint
 10
238.6155814163465
 20
239.0564656289515
 30
0.0
  0
POINT
  5
328B
330
1C3F
100
AcDbEntity
  8
Defpoints
 62
     0
100
AcDbPoint
 10
178.9155814163466
 20
239.0564656289516
 30
0.0
  0
ENDBLK
  5
1C4C
330
1C3F
100
AcDbEntity
  8
0
100
AcDbBlockEnd
  0
BLOCK
  5
1C57
330
1C4D
100
AcDbEntity
  8
0
100
AcDbBlockBegin
  2
*D6
 70
     1
 10
0.0
 20
0.0
 30
0.0
  3
*D6
  1

  0
LINE
  5
328C
330
1C4D
100
AcDbEntity
  8
AM_5
100
AcDbLine
 10
280.7155814163462
 20
242.8064656289516
 30
0.0
 11
301.1155814163464
 21
242.8064656289516
 31
0.0
  0
LINE
  5
328D
330
1C4D
100
AcDbEntity
  8
AM_5
100
AcDbLine
 10
280.7155814163462
 20
232.8064656289515
 30
0.0
 11
301.1155814163464
 21
232.8064656289515
 31
0.0
  0
LINE
  5
328E
330
1C4D
100
AcDbEntity
  8
AM_5
100
AcDbLine
 10
299.9155814163464
 20
240.4064656289516
 30
0.0
 11
299.9155814163464
 21
235.2064656289515
 31
0.0
  0
SOLID
  5
328F
330
1C4D
100
AcDbEntity
  8
AM_5
100
AcDbTrace
 10
299.5155814163464
 20
240.4064656289516
 30
0.0
 11
300.3155814163464
 21
240.4064656289516
 31
0.0
 12
299.9155814163464
 22
242.8064656289516
 32
0.0
 13
299.9155814163464
 23
242.8064656289516
 33
0.0
  0
SOLID
  5
3290
330
1C4D
100
AcDbEntity
  8
AM_5
100
AcDbTrace
 10
299.5155814163464
 20
235.2064656289515
 30
0.0
 11
300.3155814163464
 21
235.2064656289515
 31
0.0
 12
299.9155814163464
 22
232.8064656289515
 32
0.0
 13
299.9155814163464
 23
232.8064656289515
 33
0.0
  0
MTEXT
  5
3291
330
1C4D
100
AcDbEntity
  8
AM_5
100
AcDbMText
 10
297.7155814163463
 20
237.8064656289516
 30
0.0
 40
2.8
 41
0.0
 71
     5
 72
     1
  1
10
 11
0.0000000000000001
 21
1.0
 31
0.0
 73
     1
 44
1.0
1001
ACAD
1000
MTEXTBEGIN
1070
    73
1070
     1
1070
    44
1040
1.0
1070
    74
1070
     0
1000
MTEXTEND
  0
POINT
  5
3292
330
1C4D
100
AcDbEntity
  8
Defpoints
 62
     0
100
AcDbPoint
 10
279.9155814163462
 20
242.8064656289516
 30
0.0
  0
POINT
  5
3293
330
1C4D
100
AcDbEntity
  8
Defpoints
 62
     0
100
AcDbPoint
 10
279.9155814163462
 20
232.8064656289515
 30
0.0
  0
POINT
  5
3294
330
1C4D
100
AcDbEntity
  8
Defpoints
 62
     0
100
AcDbPoint
 10
299.9155814163464
 20
232.8064656289515
 30
0.0
  0
ENDBLK
  5
1C58
330
1C4D
100
AcDbEntity
  8
0
100
AcDbBlockEnd
  0
BLOCK
  5
1C63
330
1C59
100
AcDbEntity
  8
0
100
AcDbBlockBegin
  2
*D7
 70
     1
 10
0.0
 20
0.0
 30
0.0
  3
*D7
  1

  0
LINE
  5
324B
330
1C59
100
AcDbEntity
  8
AM_5
100
AcDbLine
 10
224.0155814163461
 20
243.6064656289515
 30
0.0
 11
165.7155814163466
 21
243.6064656289515
 31
0.0
  0
LINE
  5
324C
330
1C59
100
AcDbEntity
  8
AM_5
100
AcDbLine
 10
245.4155814163457
 20
232.0064656289516
 30
0.0
 11
165.7155814163466
 21
232.0064656289516
 31
0.0
  0
LINE
  5
324D
330
1C59
100
AcDbEntity
  8
AM_5
100
AcDbLine
 10
166.9155814163466
 20
241.2064656289515
 30
0.0
 11
166.9155814163466
 21
234.4064656289516
 31
0.0
  0
SOLID
  5
324E
330
1C59
100
AcDbEntity
  8
AM_5
100
AcDbTrace
 10
166.5155814163466
 20
241.2064656289515
 30
0.0
 11
167.3155814163466
 21
241.2064656289515
 31
0.0
 12
166.9155814163466
 22
243.6064656289515
 32
0.0
 13
166.9155814163466
 23
243.6064656289515
 33
0.0
  0
SOLID
  5
324F
330
1C59
100
AcDbEntity
  8
AM_5
100
AcDbTrace
 10
166.5155814163466
 20
234.4064656289516
 30
0.0
 11
167.3155814163466
 21
234.4064656289516
 31
0.0
 12
166.9155814163466
 22
232.0064656289516
 32
0.0
 13
166.9155814163466
 23
232.0064656289516
 33
0.0
  0
MTEXT
  5
3250
330
1C59
100
AcDbEntity
  8
AM_5
100
AcDbMText
 10
164.7155814163466
 20
237.8064656289516
 30
0.0
 40
2.8
 41
0.0
 71
     5
 72
     1
  1
11.6
 11
0.0000000000000001
 21
1.0
 31
0.0
 73
     1
 44
1.0
1001
ACAD
1000
MTEXTBEGIN
1070
    73
1070
     1
1070
    44
1040
1.0
1070
    74
1070
     0
1000
MTEXTEND
  0
POINT
  5
3251
330
1C59
100
AcDbEntity
  8
Defpoints
 62
     0
100
AcDbPoint
 10
224.8155814163461
 20
243.6064656289515
 30
0.0
  0
POINT
  5
3252
330
1C59
100
AcDbEntity
  8
Defpoints
 62
     0
100
AcDbPoint
 10
246.2155814163458
 20
232.0064656289516
 30
0.0
  0
POINT
  5
3253
330
1C59
100
AcDbEntity
  8
Defpoints
 62
     0
100
AcDbPoint
 10
166.9155814163466
 20
232.0064656289516
 30
0.0
  0
ENDBLK
  5
1C64
330
1C59
100
AcDbEntity
  8
0
100
AcDbBlockEnd
  0
BLOCK
  5
1C7B
330
1C71
100
AcDbEntity
  8
0
100
AcDbBlockBegin
  2
*D8
 70
     1
 10
0.0
 20
0.0
 30
0.0
  3
*D8
  1

  0
LINE
  5
3254
330
1C71
100
AcDbEntity
  8
AM_5
100
AcDbLine
 10
230.9155814163462
 20
232.4564656289515
 30
0.0
 11
230.9155814163462
 21
223.6064656289515
 31
0.0
  0
LINE
  5
3255
330
1C71
100
AcDbEntity
  8
AM_5
100
AcDbLine
 10
241.9155814163462
 20
234.9564656289515
 30
0.0
 11
241.9155814163462
 21
223.6064656289515
 31
0.0
  0
LINE
  5
3256
330
1C71
100
AcDbEntity
  8
AM_5
100
AcDbLine
 10
233.3155814163462
 20
224.8064656289515
 30
0.0
 11
239.5155814163462
 21
224.8064656289515
 31
0.0
  0
SOLID
  5
3257
330
1C71
100
AcDbEntity
  8
AM_5
100
AcDbTrace
 10
233.3155814163462
 20
225.2064656289515
 30
0.0
 11
233.3155814163462
 21
224.4064656289515
 31
0.0
 12
230.9155814163462
 22
224.8064656289515
 32
0.0
 13
230.9155814163462
 23
224.8064656289515
 33
0.0
  0
SOLID
  5
3258
330
1C71
100
AcDbEntity
  8
AM_5
100
AcDbTrace
 10
239.5155814163462
 20
225.2064656289515
 30
0.0
 11
239.5155814163462
 21
224.4064656289515
 31
0.0
 12
241.9155814163462
 22
224.8064656289515
 32
0.0
 13
241.9155814163462
 23
224.8064656289515
 33
0.0
  0
MTEXT
  5
3259
330
1C71
100
AcDbEntity
  8
AM_5
100
AcDbMText
 10
236.4155814163463
 20
227.0064656289515
 30
0.0
 40
2.8
 41
0.0
 71
     5
 72
     1
  1
11
 73
     1
 44
1.0
1001
ACAD
1000
MTEXTBEGIN
1070
    73
1070
     1
1070
    44
1040
1.0
1070
    74
1070
     0
1000
MTEXTEND
  0
POINT
  5
325A
330
1C71
100
AcDbEntity
  8
Defpoints
 62
     0
100
AcDbPoint
 10
230.9155814163462
 20
233.2564656289515
 30
0.0
  0
POINT
  5
325B
330
1C71
100
AcDbEntity
  8
Defpoints
 62
     0
100
AcDbPoint
 10
241.9155814163462
 20
235.7564656289515
 30
0.0
  0
POINT
  5
325C
330
1C71
100
AcDbEntity
  8
Defpoints
 62
     0
100
AcDbPoint
 10
241.9155814163462
 20
224.8064656289515
 30
0.0
  0
ENDBLK
  5
1C7C
330
1C71
100
AcDbEntity
  8
0
100
AcDbBlockEnd
  0
BLOCK
  5
1C93
330
1C89
100
AcDbEntity
  8
0
100
AcDbBlockBegin
  2
*D9
 70
     1
 10
0.0
 20
0.0
 30
0.0
  3
*D9
  1

  0
LINE
  5
325D
330
1C89
100
AcDbEntity
  8
AM_5
100
AcDbLine
 10
225.7155814163464
 20
245.6064656289515
 30
0.0
 11
225.7155814163464
 21
252.8064656289516
 31
0.0
  0
LINE
  5
325E
330
1C89
100
AcDbEntity
  8
AM_5
100
AcDbLine
 10
247.1155814163465
 20
237.0064656289516
 30
0.0
 11
247.1155814163465
 21
252.8064656289516
 31
0.0
  0
LINE
  5
325F
330
1C89
100
AcDbEntity
  8
AM_5
100
AcDbLine
 10
228.1155814163464
 20
251.6064656289516
 30
0.0
 11
244.7155814163465
 21
251.6064656289516
 31
0.0
  0
SOLID
  5
3260
330
1C89
100
AcDbEntity
  8
AM_5
100
AcDbTrace
 10
228.1155814163464
 20
252.0064656289516
 30
0.0
 11
228.1155814163464
 21
251.2064656289516
 31
0.0
 12
225.7155814163464
 22
251.6064656289516
 32
0.0
 13
225.7155814163464
 23
251.6064656289516
 33
0.0
  0
SOLID
  5
3261
330
1C89
100
AcDbEntity
  8
AM_5
100
AcDbTrace
 10
244.7155814163465
 20
252.0064656289516
 30
0.0
 11
244.7155814163465
 21
251.2064656289516
 31
0.0
 12
247.1155814163465
 22
251.6064656289516
 32
0.0
 13
247.1155814163465
 23
251.6064656289516
 33
0.0
  0
MTEXT
  5
3262
330
1C89
100
AcDbEntity
  8
AM_5
100
AcDbMText
 10
236.4155814163465
 20
253.8067412195028
 30
0.0
 40
2.8
 41
0.0
 71
     5
 72
     1
  1
21.4
 73
     1
 44
1.0
1001
ACAD
1000
MTEXTBEGIN
1070
    73
1070
     1
1070
    44
1040
1.0
1070
    74
1070
     0
1000
MTEXTEND
  0
POINT
  5
3263
330
1C89
100
AcDbEntity
  8
Defpoints
 62
     0
100
AcDbPoint
 10
225.7155814163464
 20
244.8064656289515
 30
0.0
  0
POINT
  5
3264
330
1C89
100
AcDbEntity
  8
Defpoints
 62
     0
100
AcDbPoint
 10
247.1155814163465
 20
236.2064656289516
 30
0.0
  0
POINT
  5
3265
330
1C89
100
AcDbEntity
  8
Defpoints
 62
     0
100
AcDbPoint
 10
247.1155814163465
 20
251.6064656289516
 30
0.0
  0
ENDBLK
  5
1C94
330
1C89
100
AcDbEntity
  8
0
100
AcDbBlockEnd
  0
BLOCK
  5
1C9F
330
1C95
100
AcDbEntity
  8
0
100
AcDbBlockBegin
  2
*D10
 70
     1
 10
0.0
 20
0.0
 30
0.0
  3
*D10
  1

  0
LINE
  5
3266
330
1C95
100
AcDbEntity
  8
AM_5
100
AcDbLine
 10
186.9155814163466
 20
233.8564656289512
 30
0.0
 11
186.9155814163466
 21
217.6064656289515
 31
0.0
  0
LINE
  5
3267
330
1C95
100
AcDbEntity
  8
AM_5
100
AcDbLine
 10
285.9155814163462
 20
233.8564656289515
 30
0.0
 11
285.9155814163462
 21
217.6064656289515
 31
0.0
  0
LINE
  5
3268
330
1C95
100
AcDbEntity
  8
AM_5
100
AcDbLine
 10
189.3155814163466
 20
218.8064656289515
 30
0.0
 11
283.5155814163462
 21
218.8064656289515
 31
0.0
  0
SOLID
  5
3269
330
1C95
100
AcDbEntity
  8
AM_5
100
AcDbTrace
 10
189.3155814163466
 20
219.2064656289515
 30
0.0
 11
189.3155814163466
 21
218.4064656289515
 31
0.0
 12
186.9155814163466
 22
218.8064656289515
 32
0.0
 13
186.9155814163466
 23
218.8064656289515
 33
0.0
  0
SOLID
  5
326A
330
1C95
100
AcDbEntity
  8
AM_5
100
AcDbTrace
 10
283.5155814163462
 20
219.2064656289515
 30
0.0
 11
283.5155814163462
 21
218.4064656289515
 31
0.0
 12
285.9155814163462
 22
218.8064656289515
 32
0.0
 13
285.9155814163462
 23
218.8064656289515
 33
0.0
  0
MTEXT
  5
326B
330
1C95
100
AcDbEntity
  8
AM_5
100
AcDbMText
 10
236.4155814163464
 20
221.0064656289515
 30
0.0
 40
2.8
 41
0.0
 71
     5
 72
     1
  1
99
 73
     1
 44
1.0
1001
ACAD
1000
MTEXTBEGIN
1070
    73
1070
     1
1070
    44
1040
1.0
1070
    74
1070
     0
1000
MTEXTEND
  0
POINT
  5
326C
330
1C95
100
AcDbEntity
  8
Defpoints
 62
     0
100
AcDbPoint
 10
186.9155814163466
 20
234.6564656289512
 30
0.0
  0
POINT
  5
326D
330
1C95
100
AcDbEntity
  8
Defpoints
 62
     0
100
AcDbPoint
 10
285.9155814163462
 20
234.6564656289515
 30
0.0
  0
POINT
  5
326E
330
1C95
100
AcDbEntity
  8
Defpoints
 62
     0
100
AcDbPoint
 10
285.9155814163462
 20
218.8064656289515
 30
0.0
  0
ENDBLK
  5
1CA0
330
1C95
100
AcDbEntity
  8
0
100
AcDbBlockEnd
  0
BLOCK
  5
1CAD
330
1CA1
100
AcDbEntity
  8
0
100
AcDbBlockBegin
  2
*D11
 70
     1
 10
0.0
 20
0.0
 30
0.0
  3
*D11
  1

  0
LINE
  5
326F
330
1CA1
100
AcDbEntity
  8
AM_5
100
AcDbLine
 10
285.7155814163462
 20
234.0564656289515
 30
0.0
 11
295.1155814163464
 21
234.0564656289515
 31
0.0
  0
LINE
  5
3270
330
1CA1
100
AcDbEntity
  8
AM_5
100
AcDbLine
 10
285.7155814163462
 20
241.5564656289515
 30
0.0
 11
295.1155814163464
 21
241.5564656289515
 31
0.0
  0
LINE
  5
3271
330
1CA1
100
AcDbEntity
  8
AM_5
100
AcDbLine
 10
293.9155814163464
 20
236.4564656289516
 30
0.0
 11
293.9155814163464
 21
239.1564656289515
 31
0.0
  0
SOLID
  5
3272
330
1CA1
100
AcDbEntity
  8
AM_5
100
AcDbTrace
 10
293.5155814163465
 20
236.4564656289516
 30
0.0
 11
294.3155814163464
 21
236.4564656289516
 31
0.0
 12
293.9155814163464
 22
234.0564656289515
 32
0.0
 13
293.9155814163464
 23
234.0564656289515
 33
0.0
  0
SOLID
  5
3273
330
1CA1
100
AcDbEntity
  8
AM_5
100
AcDbTrace
 10
293.5155814163465
 20
239.1564656289515
 30
0.0
 11
294.3155814163464
 21
239.1564656289515
 31
0.0
 12
293.9155814163464
 22
241.5564656289515
 32
0.0
 13
293.9155814163464
 23
241.5564656289515
 33
0.0
  0
MTEXT
  5
3274
330
1CA1
100
AcDbEntity
  8
AM_5
100
AcDbMText
 10
291.7155814163464
 20
237.8064656289516
 30
0.0
 40
2.8
 41
0.0
 71
     5
 72
     1
  1
7.5
 11
0.0000000000000001
 21
1.0
 31
0.0
 73
     1
 44
1.0
1001
ACAD
1000
MTEXTBEGIN
1070
    73
1070
     1
1070
    44
1040
1.0
1070
    74
1070
     0
1000
MTEXTEND
  0
POINT
  5
3275
330
1CA1
100
AcDbEntity
  8
Defpoints
 62
     0
100
AcDbPoint
 10
284.9155814163462
 20
234.0564656289515
 30
0.0
  0
POINT
  5
3276
330
1CA1
100
AcDbEntity
  8
Defpoints
 62
     0
100
AcDbPoint
 10
284.9155814163462
 20
241.5564656289515
 30
0.0
  0
POINT
  5
3277
330
1CA1
100
AcDbEntity
  8
Defpoints
 62
     0
100
AcDbPoint
 10
293.9155814163464
 20
241.5564656289515
 30
0.0
  0
ENDBLK
  5
1CAE
330
1CA1
100
AcDbEntity
  8
0
100
AcDbBlockEnd
  0
BLOCK
  5
1CB9
330
1CAF
100
AcDbEntity
  8
0
100
AcDbBlockBegin
  2
*D12
 70
     1
 10
0.0
 20
0.0
 30
0.0
  3
*D12
  1

  0
LINE
  5
3278
330
1CAF
100
AcDbEntity
  8
AM_5
100
AcDbLine
 10
243.6155814163462
 20
233.5064656289516
 30
0.0
 11
171.7155814163466
 21
233.5064656289516
 31
0.0
  0
LINE
  5
3279
330
1CAF
100
AcDbEntity
  8
AM_5
100
AcDbLine
 10
222.2155814163461
 20
242.1064656289515
 30
0.0
 11
171.7155814163466
 21
242.1064656289515
 31
0.0
  0
LINE
  5
327A
330
1CAF
100
AcDbEntity
  8
AM_5
100
AcDbLine
 10
172.9155814163466
 20
235.9064656289516
 30
0.0
 11
172.9155814163466
 21
239.7064656289515
 31
0.0
  0
SOLID
  5
327B
330
1CAF
100
AcDbEntity
  8
AM_5
100
AcDbTrace
 10
172.5155814163466
 20
235.9064656289516
 30
0.0
 11
173.3155814163466
 21
235.9064656289516
 31
0.0
 12
172.9155814163466
 22
233.5064656289516
 32
0.0
 13
172.9155814163466
 23
233.5064656289516
 33
0.0
  0
SOLID
  5
327C
330
1CAF
100
AcDbEntity
  8
AM_5
100
AcDbTrace
 10
172.5155814163466
 20
239.7064656289515
 30
0.0
 11
173.3155814163466
 21
239.7064656289515
 31
0.0
 12
172.9155814163466
 22
242.1064656289515
 32
0.0
 13
172.9155814163466
 23
242.1064656289515
 33
0.0
  0
MTEXT
  5
327D
330
1CAF
100
AcDbEntity
  8
AM_5
100
AcDbMText
 10
170.7155814163466
 20
237.8064656289516
 30
0.0
 40
2.8
 41
0.0
 71
     5
 72
     1
  1
8.6
 11
0.0000000000000001
 21
1.0
 31
0.0
 73
     1
 44
1.0
1001
ACAD
1000
MTEXTBEGIN
1070
    73
1070
     1
1070
    44
1040
1.0
1070
    74
1070
     0
1000
MTEXTEND
  0
POINT
  5
327E
330
1CAF
100
AcDbEntity
  8
Defpoints
 62
     0
100
AcDbPoint
 10
244.4155814163462
 20
233.5064656289516
 30
0.0
  0
POINT
  5
327F
330
1CAF
100
AcDbEntity
  8
Defpoints
 62
     0
100
AcDbPoint
 10
223.0155814163461
 20
242.1064656289515
 30
0.0
  0
POINT
  5
3280
330
1CAF
100
AcDbEntity
  8
Defpoints
 62
     0
100
AcDbPoint
 10
172.9155814163466
 20
242.1064656289515
 30
0.0
  0
ENDBLK
  5
1CBA
330
1CAF
100
AcDbEntity
  8
0
100
AcDbBlockEnd
  0
BLOCK
  5
201A
330
2010
100
AcDbEntity
  8
0
100
AcDbBlockBegin
  2
*D13
 70
     1
 10
0.0
 20
0.0
 30
0.0
  3
*D13
  1

  0
LINE
  5
3295
330
2010
100
AcDbEntity
  8
AM_5
100
AcDbLine
 10
231.9155814163464
 20
174.5327942912895
 30
0.0
 11
231.9155814163464
 21
164.2327942912895
 31
0.0
  0
LINE
  5
3296
330
2010
100
AcDbEntity
  8
AM_5
100
AcDbLine
 10
240.9155814163463
 20
174.5327942912895
 30
0.0
 11
240.9155814163463
 21
164.2327942912895
 31
0.0
  0
LINE
  5
3297
330
2010
100
AcDbEntity
  8
AM_5
100
AcDbLine
 10
234.9155814163463
 20
165.7327942912895
 30
0.0
 11
237.9155814163464
 21
165.7327942912895
 31
0.0
  0
SOLID
  5
3298
330
2010
100
AcDbEntity
  8
AM_5
100
AcDbTrace
 10
234.9155814163463
 20
166.2327942912894
 30
0.0
 11
234.9155814163463
 21
165.2327942912894
 31
0.0
 12
231.9155814163464
 22
165.7327942912895
 32
0.0
 13
231.9155814163464
 23
165.7327942912895
 33
0.0
  0
SOLID
  5
3299
330
2010
100
AcDbEntity
  8
AM_5
100
AcDbTrace
 10
237.9155814163464
 20
166.2327942912894
 30
0.0
 11
237.9155814163464
 21
165.2327942912894
 31
0.0
 12
240.9155814163463
 22
165.7327942912895
 32
0.0
 13
240.9155814163463
 23
165.7327942912895
 33
0.0
  0
MTEXT
  5
329A
330
2010
100
AcDbEntity
  8
AM_5
100
AcDbMText
 10
236.4155814163463
 20
168.4827942912894
 30
0.0
 40
3.5
 41
0.0
 71
     5
 72
     1
  1
9
 73
     1
 44
1.0
1001
ACAD
1000
MTEXTBEGIN
1070
    73
1070
     1
1070
    44
1040
1.0
1070
    74
1070
     0
1000
MTEXTEND
  0
POINT
  5
329B
330
2010
100
AcDbEntity
  8
Defpoints
 62
     0
100
AcDbPoint
 10
231.9155814163464
 20
175.5327942912895
 30
0.0
  0
POINT
  5
329C
330
2010
100
AcDbEntity
  8
Defpoints
 62
     0
100
AcDbPoint
 10
240.9155814163463
 20
175.5327942912895
 30
0.0
  0
POINT
  5
329D
330
2010
100
AcDbEntity
  8
Defpoints
 62
     0
100
AcDbPoint
 10
240.9155814163463
 20
165.7327942912895
 30
0.0
  0
ENDBLK
  5
201B
330
2010
100
AcDbEntity
  8
0
100
AcDbBlockEnd
  0
BLOCK
  5
2028
330
201C
100
AcDbEntity
  8
0
100
AcDbBlockBegin
  2
*D14
 70
     1
 10
0.0
 20
0.0
 30
0.0
  3
*D14
  1

  0
LINE
  5
329E
330
201C
100
AcDbEntity
  8
AM_5
100
AcDbLine
 10
207.9155814163464
 20
173.7327942912894
 30
0.0
 11
186.9155814163466
 21
173.7327942912894
 31
0.0
  0
LINE
  5
329F
330
201C
100
AcDbEntity
  8
AM_5
100
AcDbLine
 10
228.7155814163465
 20
177.7327942912894
 30
0.0
 11
186.9155814163466
 21
177.7327942912895
 31
0.0
  0
LINE
  5
32A0
330
201C
100
AcDbEntity
  8
AM_5
100
AcDbLine
 10
188.4155814163466
 20
170.7327942912894
 30
0.0
 11
188.4155814163466
 21
167.7327942912894
 31
0.0
  0
LINE
  5
32A1
330
201C
100
AcDbEntity
  8
AM_5
100
AcDbLine
 10
188.4155814163466
 20
180.7327942912895
 30
0.0
 11
188.4155814163466
 21
183.7327942912895
 31
0.0
  0
LINE
  5
32A2
330
201C
100
AcDbEntity
  8
AM_5
100
AcDbLine
 10
188.4155814163466
 20
173.7327942912894
 30
0.0
 11
188.4155814163466
 21
177.7327942912895
 31
0.0
  0
SOLID
  5
32A3
330
201C
100
AcDbEntity
  8
AM_5
100
AcDbTrace
 10
187.9155814163466
 20
170.7327942912894
 30
0.0
 11
188.9155814163466
 21
170.7327942912894
 31
0.0
 12
188.4155814163466
 22
173.7327942912894
 32
0.0
 13
188.4155814163466
 23
173.7327942912894
 33
0.0
  0
SOLID
  5
32A4
330
201C
100
AcDbEntity
  8
AM_5
100
AcDbTrace
 10
187.9155814163466
 20
180.7327942912895
 30
0.0
 11
188.9155814163466
 21
180.7327942912895
 31
0.0
 12
188.4155814163466
 22
177.7327942912895
 32
0.0
 13
188.4155814163466
 23
177.7327942912895
 33
0.0
  0
MTEXT
  5
32A5
330
201C
100
AcDbEntity
  8
AM_5
100
AcDbMText
 10
185.6655814163466
 20
175.7327942912895
 30
0.0
 40
3.5
 41
0.0
 71
     5
 72
     1
  1
4
 11
0.0000000000000001
 21
1.0
 31
0.0
 73
     1
 44
1.0
1001
ACAD
1000
MTEXTBEGIN
1070
    73
1070
     1
1070
    44
1040
1.0
1070
    74
1070
     0
1000
MTEXTEND
  0
POINT
  5
32A6
330
201C
100
AcDbEntity
  8
Defpoints
 62
     0
100
AcDbPoint
 10
208.9155814163464
 20
173.7327942912894
 30
0.0
  0
POINT
  5
32A7
330
201C
100
AcDbEntity
  8
Defpoints
 62
     0
100
AcDbPoint
 10
229.7155814163466
 20
177.7327942912894
 30
0.0
  0
POINT
  5
32A8
330
201C
100
AcDbEntity
  8
Defpoints
 62
     0
100
AcDbPoint
 10
188.4155814163466
 20
177.7327942912895
 30
0.0
  0
ENDBLK
  5
2029
330
201C
100
AcDbEntity
  8
0
100
AcDbBlockEnd
  0
BLOCK
  5
2034
330
202A
100
AcDbEntity
  8
0
100
AcDbBlockBegin
  2
*D15
 70
     1
 10
0.0
 20
0.0
 30
0.0
  3
*D15
  1

  0
LINE
  5
32A9
330
202A
100
AcDbEntity
  8
AM_5
100
AcDbLine
 10
207.9155814163464
 20
173.7327942912894
 30
0.0
 11
180.9155814163466
 21
173.7327942912894
 31
0.0
  0
LINE
  5
32AA
330
202A
100
AcDbEntity
  8
AM_5
100
AcDbLine
 10
218.7155814163464
 20
193.7327942912894
 30
0.0
 11
180.9155814163466
 21
193.7327942912894
 31
0.0
  0
LINE
  5
32AB
330
202A
100
AcDbEntity
  8
AM_5
100
AcDbLine
 10
182.4155814163466
 20
176.7327942912894
 30
0.0
 11
182.4155814163466
 21
190.7327942912894
 31
0.0
  0
SOLID
  5
32AC
330
202A
100
AcDbEntity
  8
AM_5
100
AcDbTrace
 10
181.9155814163466
 20
176.7327942912894
 30
0.0
 11
182.9155814163466
 21
176.7327942912894
 31
0.0
 12
182.4155814163466
 22
173.7327942912894
 32
0.0
 13
182.4155814163466
 23
173.7327942912894
 33
0.0
  0
SOLID
  5
32AD
330
202A
100
AcDbEntity
  8
AM_5
100
AcDbTrace
 10
181.9155814163466
 20
190.7327942912894
 30
0.0
 11
182.9155814163466
 21
190.7327942912894
 31
0.0
 12
182.4155814163466
 22
193.7327942912894
 32
0.0
 13
182.4155814163466
 23
193.7327942912894
 33
0.0
  0
MTEXT
  5
32AE
330
202A
100
AcDbEntity
  8
AM_5
100
AcDbMText
 10
179.6652369281576
 20
183.7327942912894
 30
0.0
 40
3.5
 41
0.0
 71
     5
 72
     1
  1
20
 11
0.0000000000000001
 21
1.0
 31
0.0
 73
     1
 44
1.0
1001
ACAD
1000
MTEXTBEGIN
1070
    73
1070
     1
1070
    44
1040
1.0
1070
    74
1070
     0
1000
MTEXTEND
  0
POINT
  5
32AF
330
202A
100
AcDbEntity
  8
Defpoints
 62
     0
100
AcDbPoint
 10
208.9155814163464
 20
173.7327942912894
 30
0.0
  0
POINT
  5
32B0
330
202A
100
AcDbEntity
  8
Defpoints
 62
     0
100
AcDbPoint
 10
219.7155814163464
 20
193.7327942912894
 30
0.0
  0
POINT
  5
32B1
330
202A
100
AcDbEntity
  8
Defpoints
 62
     0
100
AcDbPoint
 10
182.4155814163466
 20
193.7327942912894
 30
0.0
  0
ENDBLK
  5
2035
330
202A
100
AcDbEntity
  8
0
100
AcDbBlockEnd
  0
BLOCK
  5
2040
330
2036
100
AcDbEntity
  8
0
100
AcDbBlockBegin
  2
*D16
 70
     1
 10
0.0
 20
0.0
 30
0.0
  3
*D16
  1

  0
LINE
  5
32B2
330
2036
100
AcDbEntity
  8
AM_5
100
AcDbLine
 10
207.9155814163464
 20
173.7327942912894
 30
0.0
 11
174.9155814163466
 21
173.7327942912894
 31
0.0
  0
LINE
  5
32B3
330
2036
100
AcDbEntity
  8
AM_5
100
AcDbLine
 10
208.4155814163464
 20
199.7327942912894
 30
0.0
 11
174.9155814163466
 21
199.7327942912894
 31
0.0
  0
LINE
  5
32B4
330
2036
100
AcDbEntity
  8
AM_5
100
AcDbLine
 10
176.4155814163466
 20
176.7327942912894
 30
0.0
 11
176.4155814163466
 21
196.7327942912894
 31
0.0
  0
SOLID
  5
32B5
330
2036
100
AcDbEntity
  8
AM_5
100
AcDbTrace
 10
175.9155814163466
 20
176.7327942912894
 30
0.0
 11
176.9155814163466
 21
176.7327942912894
 31
0.0
 12
176.4155814163466
 22
173.7327942912894
 32
0.0
 13
176.4155814163466
 23
173.7327942912894
 33
0.0
  0
SOLID
  5
32B6
330
2036
100
AcDbEntity
  8
AM_5
100
AcDbTrace
 10
175.9155814163466
 20
196.7327942912894
 30
0.0
 11
176.9155814163466
 21
196.7327942912894
 31
0.0
 12
176.4155814163466
 22
199.7327942912894
 32
0.0
 13
176.4155814163466
 23
199.7327942912894
 33
0.0
  0
MTEXT
  5
32B7
330
2036
100
AcDbEntity
  8
AM_5
100
AcDbMText
 10
173.6652369281576
 20
186.7327942912895
 30
0.0
 40
3.5
 41
0.0
 71
     5
 72
     1
  1
26
 11
0.0000000000000001
 21
1.0
 31
0.0
 73
     1
 44
1.0
1001
ACAD
1000
MTEXTBEGIN
1070
    73
1070
     1
1070
    44
1040
1.0
1070
    74
1070
     0
1000
MTEXTEND
  0
POINT
  5
32B8
330
2036
100
AcDbEntity
  8
Defpoints
 62
     0
100
AcDbPoint
 10
208.9155814163464
 20
173.7327942912894
 30
0.0
  0
POINT
  5
32B9
330
2036
100
AcDbEntity
  8
Defpoints
 62
     0
100
AcDbPoint
 10
209.4155814163464
 20
199.7327942912894
 30
0.0
  0
POINT
  5
32BA
330
2036
100
AcDbEntity
  8
Defpoints
 62
     0
100
AcDbPoint
 10
176.4155814163466
 20
199.7327942912894
 30
0.0
  0
ENDBLK
  5
2041
330
2036
100
AcDbEntity
  8
0
100
AcDbBlockEnd
  0
BLOCK
  5
204C
330
2042
100
AcDbEntity
  8
0
100
AcDbBlockBegin
  2
*D17
 70
     1
 10
0.0
 20
0.0
 30
0.0
  3
*D17
  1

  0
LINE
  5
32BB
330
2042
100
AcDbEntity
  8
AM_5
100
AcDbLine
 10
264.9155814163464
 20
173.7327942912895
 30
0.0
 11
293.4155814163464
 21
173.7327942912895
 31
0.0
  0
LINE
  5
32BC
330
2042
100
AcDbEntity
  8
AM_5
100
AcDbLine
 10
262.0155814163464
 20
203.3327942912894
 30
0.0
 11
293.4155814163464
 21
203.3327942912894
 31
0.0
  0
LINE
  5
32BD
330
2042
100
AcDbEntity
  8
AM_5
100
AcDbLine
 10
291.9155814163464
 20
176.7327942912895
 30
0.0
 11
291.9155814163464
 21
200.3327942912894
 31
0.0
  0
SOLID
  5
32BE
330
2042
100
AcDbEntity
  8
AM_5
100
AcDbTrace
 10
291.4155814163464
 20
176.7327942912895
 30
0.0
 11
292.4155814163464
 21
176.7327942912895
 31
0.0
 12
291.9155814163464
 22
173.7327942912895
 32
0.0
 13
291.9155814163464
 23
173.7327942912895
 33
0.0
  0
SOLID
  5
32BF
330
2042
100
AcDbEntity
  8
AM_5
100
AcDbTrace
 10
291.4155814163464
 20
200.3327942912894
 30
0.0
 11
292.4155814163464
 21
200.3327942912894
 31
0.0
 12
291.9155814163464
 22
203.3327942912894
 32
0.0
 13
291.9155814163464
 23
203.3327942912894
 33
0.0
  0
MTEXT
  5
32C0
330
2042
100
AcDbEntity
  8
AM_5
100
AcDbMText
 10
289.1652369281573
 20
188.5327942912894
 30
0.0
 40
3.5
 41
0.0
 71
     5
 72
     1
  1
29.6
 11
0.0000000000000001
 21
1.0
 31
0.0
 73
     1
 44
1.0
1001
ACAD
1000
MTEXTBEGIN
1070
    73
1070
     1
1070
    44
1040
1.0
1070
    74
1070
     0
1000
MTEXTEND
  0
POINT
  5
32C1
330
2042
100
AcDbEntity
  8
Defpoints
 62
     0
100
AcDbPoint
 10
263.9155814163463
 20
173.7327942912895
 30
0.0
  0
POINT
  5
32C2
330
2042
100
AcDbEntity
  8
Defpoints
 62
     0
100
AcDbPoint
 10
261.0155814163464
 20
203.3327942912894
 30
0.0
  0
POINT
  5
32C3
330
2042
100
AcDbEntity
  8
Defpoints
 62
     0
100
AcDbPoint
 10
291.9155814163464
 20
203.3327942912894
 30
0.0
  0
ENDBLK
  5
204D
330
2042
100
AcDbEntity
  8
0
100
AcDbBlockEnd
  0
BLOCK
  5
222F
330
2223
100
AcDbEntity
  8
0
100
AcDbBlockBegin
  2
*D18
 70
     1
 10
0.0
 20
0.0
 30
0.0
  3
*D18
  1

  0
LINE
  5
32C4
330
2223
100
AcDbEntity
  8
AM_5
100
AcDbLine
 10
222.3155814163463
 20
139.5190570585301
 30
0.0
 11
215.4029952942991
 21
139.5190570585301
 31
0.0
  0
LINE
  5
32C5
330
2223
100
AcDbEntity
  8
AM_5
100
AcDbLine
 10
241.3155814163463
 20
137.5190570585301
 30
0.0
 11
215.4029952942991
 21
137.5190570585301
 31
0.0
  0
LINE
  5
32C6
330
2223
100
AcDbEntity
  8
AM_5
100
AcDbLine
 10
216.9029952942991
 20
134.5190570585302
 30
0.0
 11
216.9029952942991
 21
131.5190570585301
 31
0.0
  0
LINE
  5
32C7
330
2223
100
AcDbEntity
  8
AM_5
100
AcDbLine
 10
216.9029952942991
 20
142.5190570585301
 30
0.0
 11
216.9029952942991
 21
149.2181417041994
 31
0.0
  0
LINE
  5
32C8
330
2223
100
AcDbEntity
  8
AM_5
100
AcDbLine
 10
216.9029952942991
 20
137.5190570585301
 30
0.0
 11
216.9029952942991
 21
139.5190570585301
 31
0.0
  0
SOLID
  5
32C9
330
2223
100
AcDbEntity
  8
AM_5
100
AcDbTrace
 10
216.4029952942991
 20
134.5190570585302
 30
0.0
 11
217.4029952942991
 21
134.5190570585302
 31
0.0
 12
216.9029952942991
 22
137.5190570585301
 32
0.0
 13
216.9029952942991
 23
137.5190570585301
 33
0.0
  0
SOLID
  5
32CA
330
2223
100
AcDbEntity
  8
AM_5
100
AcDbTrace
 10
216.4029952942991
 20
142.5190570585301
 30
0.0
 11
217.4029952942991
 21
142.5190570585301
 31
0.0
 12
216.9029952942991
 22
139.5190570585301
 32
0.0
 13
216.9029952942991
 23
139.5190570585301
 33
0.0
  0
MTEXT
  5
32CB
330
2223
100
AcDbEntity
  8
AM_5
100
AcDbMText
 10
214.1526508061101
 20
147.3685993813648
 30
0.0
 40
3.5
 41
0.0
 71
     5
 72
     1
  1
2
 11
0.0000000000000001
 21
1.0
 31
0.0
 73
     1
 44
1.0
1001
ACAD
1000
MTEXTBEGIN
1070
    73
1070
     1
1070
    44
1040
1.0
1070
    74
1070
     0
1000
MTEXTEND
  0
POINT
  5
32CC
330
2223
100
AcDbEntity
  8
Defpoints
 62
     0
100
AcDbPoint
 10
223.3155814163463
 20
139.5190570585301
 30
0.0
  0
POINT
  5
32CD
330
2223
100
AcDbEntity
  8
Defpoints
 62
     0
100
AcDbPoint
 10
242.3155814163463
 20
137.5190570585301
 30
0.0
  0
POINT
  5
32CE
330
2223
100
AcDbEntity
  8
Defpoints
 62
     0
100
AcDbPoint
 10
216.9029952942991
 20
137.5190570585301
 30
0.0
  0
ENDBLK
  5
2230
330
2223
100
AcDbEntity
  8
0
100
AcDbBlockEnd
  0
BLOCK
  5
227D
330
2271
100
AcDbEntity
  8
0
100
AcDbBlockBegin
  2
*D19
 70
     1
 10
0.0
 20
0.0
 30
0.0
  3
*D19
  1

  0
LINE
  5
32CF
330
2271
100
AcDbEntity
  8
AM_5
100
AcDbLine
 10
244.1155814163464
 20
193.7327942912895
 30
0.0
 11
241.546845894538
 21
193.7327942912895
 31
0.0
  0
LINE
  5
32D0
330
2271
100
AcDbEntity
  8
AM_5
100
AcDbLine
 10
244.1155814163464
 20
189.9327942912894
 30
0.0
 11
241.546845894538
 21
189.9327942912894
 31
0.0
  0
LINE
  5
32D1
330
2271
100
AcDbEntity
  8
AM_5
100
AcDbLine
 10
243.0468458945379
 20
186.9327942912894
 30
0.0
 11
243.0468458945379
 21
183.9327942912895
 31
0.0
  0
LINE
  5
32D2
330
2271
100
AcDbEntity
  8
AM_5
100
AcDbLine
 10
243.046845894538
 20
196.7327942912895
 30
0.0
 11
243.046845894538
 21
206.8558269463216
 31
0.0
  0
LINE
  5
32D3
330
2271
100
AcDbEntity
  8
AM_5
100
AcDbLine
 10
243.0468458945379
 20
189.9327942912894
 30
0.0
 11
243.046845894538
 21
193.7327942912895
 31
0.0
  0
SOLID
  5
32D4
330
2271
100
AcDbEntity
  8
AM_5
100
AcDbTrace
 10
242.5468458945379
 20
186.9327942912894
 30
0.0
 11
243.5468458945379
 21
186.9327942912894
 31
0.0
 12
243.0468458945379
 22
189.9327942912894
 32
0.0
 13
243.0468458945379
 23
189.9327942912894
 33
0.0
  0
SOLID
  5
32D5
330
2271
100
AcDbEntity
  8
AM_5
100
AcDbTrace
 10
242.546845894538
 20
196.7327942912895
 30
0.0
 11
243.546845894538
 21
196.7327942912895
 31
0.0
 12
243.046845894538
 22
193.7327942912895
 32
0.0
 13
243.046845894538
 23
193.7327942912895
 33
0.0
  0
MTEXT
  5
32D6
330
2271
100
AcDbEntity
  8
AM_5
100
AcDbMText
 10
240.2968458945379
 20
203.4058269463216
 30
0.0
 40
3.5
 41
0.0
 71
     5
 72
     1
  1
3.8
 11
0.0000000000000001
 21
1.0
 31
0.0
 73
     1
 44
1.0
1001
ACAD
1000
MTEXTBEGIN
1070
    73
1070
     1
1070
    44
1040
1.0
1070
    74
1070
     0
1000
MTEXTEND
  0
POINT
  5
32D7
330
2271
100
AcDbEntity
  8
Defpoints
 62
     0
100
AcDbPoint
 10
245.1155814163464
 20
193.7327942912895
 30
0.0
  0
POINT
  5
32D8
330
2271
100
AcDbEntity
  8
Defpoints
 62
     0
100
AcDbPoint
 10
245.1155814163464
 20
189.9327942912894
 30
0.0
  0
POINT
  5
32D9
330
2271
100
AcDbEntity
  8
Defpoints
 62
     0
100
AcDbPoint
 10
243.0468458945379
 20
189.9327942912894
 30
0.0
  0
ENDBLK
  5
227E
330
2271
100
AcDbEntity
  8
0
100
AcDbBlockEnd
  0
BLOCK
  5
22D3
330
22C9
100
AcDbEntity
  8
0
100
AcDbBlockBegin
  2
*D20
 70
     1
 10
0.0
 20
0.0
 30
0.0
  3
*D20
  1

  0
LINE
  5
32DA
330
22C9
100
AcDbEntity
  8
AM_5
100
AcDbLine
 10
226.9155814163464
 20
134.9190570585301
 30
0.0
 11
226.9155814163464
 21
123.2190570585302
 31
0.0
  0
LINE
  5
32DB
330
22C9
100
AcDbEntity
  8
AM_5
100
AcDbLine
 10
236.4155814163463
 20
133.9190570585301
 30
0.0
 11
236.4155814163463
 21
123.2190570585302
 31
0.0
  0
LINE
  5
32DC
330
22C9
100
AcDbEntity
  8
AM_5
100
AcDbLine
 10
229.9155814163464
 20
124.7190570585302
 30
0.0
 11
233.4155814163464
 21
124.7190570585302
 31
0.0
  0
SOLID
  5
32DD
330
22C9
100
AcDbEntity
  8
AM_5
100
AcDbTrace
 10
229.9155814163464
 20
125.2190570585302
 30
0.0
 11
229.9155814163464
 21
124.2190570585302
 31
0.0
 12
226.9155814163464
 22
124.7190570585302
 32
0.0
 13
226.9155814163464
 23
124.7190570585302
 33
0.0
  0
SOLID
  5
32DE
330
22C9
100
AcDbEntity
  8
AM_5
100
AcDbTrace
 10
233.4155814163464
 20
125.2190570585302
 30
0.0
 11
233.4155814163464
 21
124.2190570585302
 31
0.0
 12
236.4155814163463
 22
124.7190570585302
 32
0.0
 13
236.4155814163463
 23
124.7190570585302
 33
0.0
  0
MTEXT
  5
32DF
330
22C9
100
AcDbEntity
  8
AM_5
100
AcDbMText
 10
231.6655814163464
 20
127.4690570585302
 30
0.0
 40
3.5
 41
0.0
 71
     5
 72
     1
  1
9.5
 73
     1
 44
1.0
1001
ACAD
1000
MTEXTBEGIN
1070
    73
1070
     1
1070
    44
1040
1.0
1070
    74
1070
     0
1000
MTEXTEND
  0
POINT
  5
32E0
330
22C9
100
AcDbEntity
  8
Defpoints
 62
     0
100
AcDbPoint
 10
226.9155814163464
 20
135.9190570585301
 30
0.0
  0
POINT
  5
32E1
330
22C9
100
AcDbEntity
  8
Defpoints
 62
     0
100
AcDbPoint
 10
236.4155814163463
 20
134.9190570585301
 30
0.0
  0
POINT
  5
32E2
330
22C9
100
AcDbEntity
  8
Defpoints
 62
     0
100
AcDbPoint
 10
236.4155814163463
 20
124.7190570585302
 30
0.0
  0
ENDBLK
  5
22D4
330
22C9
100
AcDbEntity
  8
0
100
AcDbBlockEnd
  0
BLOCK
  5
22F9
330
22EF
100
AcDbEntity
  8
0
100
AcDbBlockBegin
  2
*D21
 70
     1
 10
0.0
 20
0.0
 30
0.0
  3
*D21
  1

  0
LINE
  5
32E3
330
22EF
100
AcDbEntity
  8
AM_5
100
AcDbLine
 10
236.4155814163463
 20
133.9190570585301
 30
0.0
 11
236.4155814163463
 21
123.2190570585302
 31
0.0
  0
LINE
  5
32E4
330
22EF
100
AcDbEntity
  8
AM_5
100
AcDbLine
 10
245.9155814163464
 20
132.9190570585301
 30
0.0
 11
245.9155814163464
 21
123.2190570585302
 31
0.0
  0
LINE
  5
32E5
330
22EF
100
AcDbEntity
  8
AM_5
100
AcDbLine
 10
239.4155814163464
 20
124.7190570585302
 30
0.0
 11
242.9155814163463
 21
124.7190570585302
 31
0.0
  0
SOLID
  5
32E6
330
22EF
100
AcDbEntity
  8
AM_5
100
AcDbTrace
 10
239.4155814163464
 20
125.2190570585302
 30
0.0
 11
239.4155814163464
 21
124.2190570585302
 31
0.0
 12
236.4155814163463
 22
124.7190570585302
 32
0.0
 13
236.4155814163463
 23
124.7190570585302
 33
0.0
  0
SOLID
  5
32E7
330
22EF
100
AcDbEntity
  8
AM_5
100
AcDbTrace
 10
242.9155814163463
 20
125.2190570585302
 30
0.0
 11
242.9155814163463
 21
124.2190570585302
 31
0.0
 12
245.9155814163464
 22
124.7190570585302
 32
0.0
 13
245.9155814163464
 23
124.7190570585302
 33
0.0
  0
MTEXT
  5
32E8
330
22EF
100
AcDbEntity
  8
AM_5
100
AcDbMText
 10
241.1655814163463
 20
127.4690570585302
 30
0.0
 40
3.5
 41
0.0
 71
     5
 72
     1
  1
9.5
 73
     1
 44
1.0
1001
ACAD
1000
MTEXTBEGIN
1070
    73
1070
     1
1070
    44
1040
1.0
1070
    74
1070
     0
1000
MTEXTEND
  0
POINT
  5
32E9
330
22EF
100
AcDbEntity
  8
Defpoints
 62
     0
100
AcDbPoint
 10
236.4155814163463
 20
134.9190570585301
 30
0.0
  0
POINT
  5
32EA
330
22EF
100
AcDbEntity
  8
Defpoints
 62
     0
100
AcDbPoint
 10
245.9155814163464
 20
133.9190570585301
 30
0.0
  0
POINT
  5
32EB
330
22EF
100
AcDbEntity
  8
Defpoints
 62
     0
100
AcDbPoint
 10
245.9155814163464
 20
124.7190570585302
 30
0.0
  0
ENDBLK
  5
22FA
330
22EF
100
AcDbEntity
  8
0
100
AcDbBlockEnd
  0
BLOCK
  5
3306
330
32FC
100
AcDbEntity
  8
0
100
AcDbBlockBegin
  2
*D22
 70
     1
 10
0.0
 20
0.0
 30
0.0
  3
*D22
  1

  0
LINE
  5
3328
330
32FC
100
AcDbEntity
  8
AM_5
100
AcDbLine
 10
220.9155814163464
 20
194.7327942912895
 30
0.0
 11
220.9155814163464
 21
212.2550687141244
 31
0.0
  0
LINE
  5
3329
330
32FC
100
AcDbEntity
  8
AM_5
100
AcDbLine
 10
251.9155814163464
 20
194.7327942912895
 30
0.0
 11
251.9155814163464
 21
212.2550687141244
 31
0.0
  0
LINE
  5
332A
330
32FC
100
AcDbEntity
  8
AM_5
100
AcDbLine
 10
223.9155814163464
 20
210.7550687141244
 30
0.0
 11
248.9155814163463
 21
210.7550687141244
 31
0.0
  0
SOLID
  5
332B
330
32FC
100
AcDbEntity
  8
AM_5
100
AcDbTrace
 10
223.9155814163464
 20
211.2550687141244
 30
0.0
 11
223.9155814163464
 21
210.2550687141244
 31
0.0
 12
220.9155814163464
 22
210.7550687141244
 32
0.0
 13
220.9155814163464
 23
210.7550687141244
 33
0.0
  0
SOLID
  5
332C
330
32FC
100
AcDbEntity
  8
AM_5
100
AcDbTrace
 10
248.9155814163463
 20
211.2550687141244
 30
0.0
 11
248.9155814163463
 21
210.2550687141244
 31
0.0
 12
251.9155814163464
 22
210.7550687141244
 32
0.0
 13
251.9155814163464
 23
210.7550687141244
 33
0.0
  0
MTEXT
  5
332D
330
32FC
100
AcDbEntity
  8
AM_5
100
AcDbMText
 10
236.4155814163464
 20
213.5050687141244
 30
0.0
 40
3.5
 41
0.0
 71
     5
 72
     1
  1
31
 73
     1
 44
1.0
1001
ACAD
1000
MTEXTBEGIN
1070
    73
1070
     1
1070
    44
1040
1.0
1070
    74
1070
     0
1000
MTEXTEND
  0
POINT
  5
332E
330
32FC
100
AcDbEntity
  8
Defpoints
 62
     0
100
AcDbPoint
 10
220.9155814163464
 20
193.7327942912895
 30
0.0
  0
POINT
  5
332F
330
32FC
100
AcDbEntity
  8
Defpoints
 62
     0
100
AcDbPoint
 10
251.9155814163464
 20
193.7327942912895
 30
0.0
  0
POINT
  5
3330
330
32FC
100
AcDbEntity
  8
Defpoints
 62
     0
100
AcDbPoint
 10
251.9155814163464
 20
210.7550687141244
 30
0.0
  0
ENDBLK
  5
3307
330
32FC
100
AcDbEntity
  8
0
100
AcDbBlockEnd
  0
BLOCK
  5
338B
330
3386
100
AcDbEntity
  8
0
100
AcDbBlockBegin
  2
*S24
 70
     1
 10
0.0
 20
0.0
 30
0.0
  3
*S24
  1

  0
LINE
  5
3387
330
3386
100
AcDbEntity
  8
AM_5
 62
     5
100
AcDbLine
 10
267.8851862856413
 20
250.2468566501351
 30
0.0
 11
251.8929146949626
 21
250.2468566501351
 31
0.0
  0
LINE
  5
3388
330
3386
100
AcDbEntity
  8
AM_5
 62
     5
100
AcDbLine
 10
251.8929146949626
 20
250.2468566501351
 30
0.0
 11
246.1709276791862
 21
243.2064872022995
 31
0.0
  0
TRACE
  5
3389
330
3386
100
AcDbEntity
  8
AM_5
 62
     5
370
    35
100
AcDbTrace
 10
245.8133489016161
 20
243.4971056332687
 30
0.0
 11
246.5285064567564
 21
242.9158687713302
 31
0.0
 12
243.9634615270688
 22
240.4904067198291
 32
0.0
 13
243.9634615270688
 23
240.4904067198291
 33
0.0
  0
MTEXT
  5
338A
330
3386
100
AcDbEntity
  8
AM_5
 62
     5
100
AcDbMText
 10
267.8851862856413
 20
254.3203771112124
 30
0.0
 40
3.5
 41
0.0
 71
     7
 72
     5
  1

  7
ACISOTS
 73
     1
 44
1.0
1001
ACAD
1000
MTEXTBEGIN
1070
    73
1070
     1
1070
    44
1040
1.0
1070
    74
1070
     0
1000
MTEXTEND
  0
ENDBLK
  5
338C
330
3386
100
AcDbEntity
  8
0
100
AcDbBlockEnd
  0
BLOCK
  5
3393
330
338E
100
AcDbEntity
  8
0
100
AcDbBlockBegin
  2
*S25
 70
     1
 10
0.0
 20
0.0
 30
0.0
  3
*S25
  1

  0
LINE
  5
338F
330
338E
100
AcDbEntity
  8
AM_5
 62
     5
100
AcDbLine
 10
273.297703606279
 20
225.2720562827669
 30
0.0
 11
253.6552939319058
 21
225.2720562827669
 31
0.0
  0
LINE
  5
3390
330
338E
100
AcDbEntity
  8
AM_5
 62
     5
100
AcDbLine
 10
253.6552939319058
 20
225.2720562827669
 30
0.0
 11
249.9436153892558
 21
230.1881093776992
 31
0.0
  0
TRACE
  5
3391
330
338E
100
AcDbEntity
  8
AM_5
 62
     5
370
    35
100
AcDbTrace
 10
250.3113558176601
 20
230.4657577738851
 30
0.0
 11
249.5758749608516
 21
229.9104609815132
 31
0.0
 12
247.8346664326252
 22
232.981375261629
 32
0.0
 13
247.8346664326252
 23
232.981375261629
 33
0.0
  0
MTEXT
  5
3392
330
338E
100
AcDbEntity
  8
AM_5
 62
     5
100
AcDbMText
 10
273.297703606279
 20
229.3455767438442
 30
0.0
 40
3.5
 41
0.0
 71
     7
 72
     5
  1

  7
ACISOTS
 73
     1
 44
1.0
1001
ACAD
1000
MTEXTBEGIN
1070
    73
1070
     1
1070
    44
1040
1.0
1070
    74
1070
     0
1000
MTEXTEND
  0
ENDBLK
  5
3394
330
338E
100
AcDbEntity
  8
0
100
AcDbBlockEnd
  0
BLOCK
  5
339B
330
3396
100
AcDbEntity
  8
0
100
AcDbBlockBegin
  2
*S26
 70
     1
 10
0.0
 20
0.0
 30
0.0
  3
*S26
  1

  0
LINE
  5
3397
330
3396
100
AcDbEntity
  8
AM_5
 62
     5
100
AcDbLine
 10
282.3143356628877
 20
165.2246038377127
 30
0.0
 11
250.6701911985344
 21
165.2246038377127
 31
0.0
  0
LINE
  5
3398
330
3396
100
AcDbEntity
  8
AM_5
 62
     5
100
AcDbLine
 10
250.6701911985344
 20
165.2246038377127
 30
0.0
 11
244.0106500413962
 21
174.0421811608832
 31
0.0
  0
TRACE
  5
3399
330
3396
100
AcDbEntity
  8
AM_5
 62
     5
370
    35
100
AcDbTrace
 10
244.3783470415682
 20
174.3198870676482
 30
0.0
 11
243.6429530412242
 21
173.7644752541183
 31
0.0
 12
241.9012642485466
 22
176.8351171746373
 32
0.0
 13
241.9012642485466
 23
176.8351171746373
 33
0.0
  0
MTEXT
  5
339A
330
3396
100
AcDbEntity
  8
AM_5
 62
     5
100
AcDbMText
 10
282.3143356628877
 20
169.29812429879
 30
0.0
 40
3.5
 41
0.0
 71
     7
 72
     5
  1

  7
ACISOTS
 73
     1
 44
1.0
1001
ACAD
1000
MTEXTBEGIN
1070
    73
1070
     1
1070
    44
1040
1.0
1070
    74
1070
     0
1000
MTEXTEND
  0
ENDBLK
  5
339C
330
3396
100
AcDbEntity
  8
0
100
AcDbBlockEnd
  0
ENDSEC
  0
SECTION
  2
ENTITIES
  0
DIMENSION
  5
1C1B
330
1F
100
AcDbEntity
  8
AM_5
100
AcDbDimension
  2
*D7
 10
166.9155814163466
 20
232.0064656289516
 30
0.0
 11
164.7155814163466
 21
237.8064656289516
 31
0.0
 70
    32
 71
     5
 42
11.59999999999991
  3
AM_ISO$0
100
AcDbAlignedDimension
 13
224.8155814163461
 23
243.6064656289515
 33
0.0
 14
246.2155814163458
 24
232.0064656289516
 34
0.0
 50
90.0
100
AcDbRotatedDimension
1001
ACAD
1000
DSTYLE
1002
{
1070
    40
1040
0.8
1070
   272
1070
     8
1002
}
  0
DIMENSION
  5
1C21
330
1F
100
AcDbEntity
  8
AM_5
100
AcDbDimension
  2
*D8
 10
241.9155814163462
 20
224.8064656289515
 30
0.0
 11
236.4155814163463
 21
227.0064656289515
 31
0.0
 70
    32
 71
     5
 42
11.0
  3
AM_ISO$0
100
AcDbAlignedDimension
 13
230.9155814163462
 23
233.2564656289515
 33
0.0
 14
241.9155814163462
 24
235.7564656289515
 34
0.0
100
AcDbRotatedDimension
1001
ACAD
1000
DSTYLE
1002
{
1070
    40
1040
0.8
1070
   272
1070
     8
1002
}
  0
DIMENSION
  5
1C27
330
1F
100
AcDbEntity
  8
AM_5
100
AcDbDimension
  2
*D9
 10
247.1155814163465
 20
251.6064656289516
 30
0.0
 11
236.4155814163465
 21
253.8067412195028
 31
0.0
 70
    32
 71
     5
 42
21.40000000000009
  3
AM_ISO$0
100
AcDbAlignedDimension
 13
225.7155814163464
 23
244.8064656289515
 33
0.0
 14
247.1155814163465
 24
236.2064656289516
 34
0.0
100
AcDbRotatedDimension
1001
ACAD
1000
DSTYLE
1002
{
1070
    40
1040
0.8
1070
   272
1070
     8
1002
}
  0
DIMENSION
  5
1C2A
330
1F
100
AcDbEntity
  8
AM_5
100
AcDbDimension
  2
*D10
 10
285.9155814163462
 20
218.8064656289515
 30
0.0
 11
236.4155814163464
 21
221.0064656289515
 31
0.0
 70
    32
 71
     5
 42
98.99999999999955
  3
AM_ISO$0
100
AcDbAlignedDimension
 13
186.9155814163466
 23
234.6564656289512
 33
0.0
 14
285.9155814163462
 24
234.6564656289515
 34
0.0
100
AcDbRotatedDimension
1001
ACAD
1000
DSTYLE
1002
{
1070
    40
1040
0.8
1070
   272
1070
     8
1002
}
  0
DIMENSION
  5
1C2D
330
1F
100
AcDbEntity
  8
AM_5
100
AcDbDimension
  2
*D11
 10
293.9155814163464
 20
241.5564656289515
 30
0.0
 11
291.7155814163464
 21
237.8064656289516
 31
0.0
 70
    32
 71
     5
 42
7.5
  3
AM_ISO$0
100
AcDbAlignedDimension
 13
284.9155814163462
 23
234.0564656289515
 33
0.0
 14
284.9155814163462
 24
241.5564656289515
 34
0.0
 50
90.0
100
AcDbRotatedDimension
1001
ACAD
1000
DSTYLE
1002
{
1070
    40
1040
0.8
1070
   272
1070
     8
1002
}
  0
DIMENSION
  5
1C30
330
1F
100
AcDbEntity
  8
AM_5
100
AcDbDimension
  2
*D12
 10
172.9155814163466
 20
242.1064656289515
 30
0.0
 11
170.7155814163466
 21
237.8064656289516
 31
0.0
 70
    32
 71
     5
 42
8.599999999999909
  3
AM_ISO$0
100
AcDbAlignedDimension
 13
244.4155814163462
 23
233.5064656289516
 33
0.0
 14
223.0155814163461
 24
242.1064656289515
 34
0.0
 50
90.0
100
AcDbRotatedDimension
1001
ACAD
1000
DSTYLE
1002
{
1070
    40
1040
0.8
1070
   272
1070
     8
1002
}
  0
DIMENSION
  5
1C33
330
1F
100
AcDbEntity
  8
AM_5
100
AcDbDimension
  2
*D5
 10
178.9155814163466
 20
239.0564656289516
 30
0.0
 11
178.9155814163466
 21
226.9895392791584
 31
0.0
 70
   160
 71
     5
 42
2.5
  3
AM_ISO$0
100
AcDbAlignedDimension
 13
227.6155814163465
 23
236.5564656289516
 33
0.0
 14
238.6155814163465
 24
239.0564656289515
 34
0.0
 50
90.0
100
AcDbRotatedDimension
1001
ACAD
1000
DSTYLE
1002
{
1070
    40
1040
0.8
1070
   272
1070
     8
1002
}
  0
TEXT
  5
1C36
330
1F
100
AcDbEntity
  8
AM_5
100
AcDbText
 10
254.7048634325943
 20
226.206933560261
 30
0.0
 40
2.799999999999999
  1
2-%%c2 thru 
100
AcDbText
  0
TEXT
  5
1C39
330
1F
100
AcDbEntity
  8
AM_5
100
AcDbText
 10
252.6717147410566
 20
250.8986951570574
 30
0.0
 40
2.799999999999999
  1
5-M5x0.8
100
AcDbText
  0
DIMENSION
  5
1C3C
330
1F
100
AcDbEntity
  8
AM_5
100
AcDbDimension
  2
*D6
 10
299.9155814163464
 20
232.8064656289515
 30
0.0
 11
297.7155814163463
 21
237.8064656289516
 31
0.0
 70
    32
 71
     5
 42
10.0
  3
AM_ISO$0
100
AcDbAlignedDimension
 13
279.9155814163462
 23
242.8064656289516
 33
0.0
 14
279.9155814163462
 24
232.8064656289515
 34
0.0
 50
90.0
100
AcDbRotatedDimension
1001
ACAD
1000
DSTYLE
1002
{
1070
    40
1040
0.8
1070
   272
1070
     8
1002
}
  0
INSERT
  5
1FC6
330
1F
100
AcDbEntity
  8
AM_5
100
AcDbBlockReference
  2
*S24
 10
0.0
 20
0.0
 30
0.0
  0
INSERT
  5
1FC8
330
1F
100
AcDbEntity
  8
AM_5
100
AcDbBlockReference
  2
*S25
 10
0.0
 20
0.0
 30
0.0
  0
DIMENSION
  5
1FE4
330
1F
100
AcDbEntity
  8
AM_5
100
AcDbDimension
  2
*D13
 10
240.9155814163463
 20
165.7327942912895
 30
0.0
 11
236.4155814163463
 21
168.4827942912894
 31
0.0
 70
    32
 71
     5
 42
9.0
  3
AM_ISO$0
100
AcDbAlignedDimension
 13
231.9155814163464
 23
175.5327942912895
 33
0.0
 14
240.9155814163463
 24
175.5327942912895
 34
0.0
100
AcDbRotatedDimension
1001
ACAD
1000
DSTYLE
1002
{
1070
    40
1040
1.0
1070
   144
1040
1.0
1002
}
  0
DIMENSION
  5
1FE7
330
1F
100
AcDbEntity
  8
AM_5
100
AcDbDimension
  2
*D14
 10
188.4155814163466
 20
177.7327942912895
 30
0.0
 11
185.6655814163466
 21
175.7327942912895
 31
0.0
 70
    32
 71
     5
 42
4.000000000000056
  3
AM_ISO$0
100
AcDbAlignedDimension
 13
208.9155814163464
 23
173.7327942912894
 33
0.0
 14
229.7155814163466
 24
177.7327942912894
 34
0.0
 50
90.0
100
AcDbRotatedDimension
1001
ACAD
1000
DSTYLE
1002
{
1070
    40
1040
1.0
1070
   144
1040
1.0
1002
}
  0
DIMENSION
  5
1FEA
330
1F
100
AcDbEntity
  8
AM_5
100
AcDbDimension
  2
*D15
 10
182.4155814163466
 20
193.7327942912894
 30
0.0
 11
179.6652369281576
 21
183.7327942912894
 31
0.0
 70
    32
 71
     5
 42
20.0
  3
AM_ISO$0
100
AcDbAlignedDimension
 13
208.9155814163464
 23
173.7327942912894
 33
0.0
 14
219.7155814163464
 24
193.7327942912894
 34
0.0
 50
90.0
100
AcDbRotatedDimension
1001
ACAD
1000
DSTYLE
1002
{
1070
    40
1040
1.0
1070
   144
1040
1.0
1002
}
  0
DIMENSION
  5
1FED
330
1F
100
AcDbEntity
  8
AM_5
100
AcDbDimension
  2
*D16
 10
176.4155814163466
 20
199.7327942912894
 30
0.0
 11
173.6652369281576
 21
186.7327942912895
 31
0.0
 70
    32
 71
     5
 42
26.0
  3
AM_ISO$0
100
AcDbAlignedDimension
 13
208.9155814163464
 23
173.7327942912894
 33
0.0
 14
209.4155814163464
 24
199.7327942912894
 34
0.0
 50
90.0
100
AcDbRotatedDimension
1001
ACAD
1000
DSTYLE
1002
{
1070
    40
1040
1.0
1070
   144
1040
1.0
1002
}
  0
DIMENSION
  5
1FF0
330
1F
100
AcDbEntity
  8
AM_5
100
AcDbDimension
  2
*D17
 10
291.9155814163464
 20
203.3327942912894
 30
0.0
 11
289.1652369281573
 21
188.5327942912894
 31
0.0
 70
    32
 71
     5
 42
29.59999999999997
  3
AM_ISO$0
100
AcDbAlignedDimension
 13
263.9155814163463
 23
173.7327942912895
 33
0.0
 14
261.0155814163464
 24
203.3327942912894
 34
0.0
 50
90.0
100
AcDbRotatedDimension
1001
ACAD
1000
DSTYLE
1002
{
1070
    40
1040
1.0
1070
   144
1040
1.0
1002
}
  0
TEXT
  5
1FF3
330
1F
100
AcDbEntity
  8
AM_5
100
AcDbText
 10
251.1565960118393
 20
166.1284940177216
 30
0.0
 40
2.799999999999999
  1
2-M3x0.5x5 depth
100
AcDbText
  0
INSERT
  5
2091
330
1F
100
AcDbEntity
  8
AM_5
100
AcDbBlockReference
  2
*S26
 10
0.0
 20
0.0
 30
0.0
  0
DIMENSION
  5
2222
330
1F
100
AcDbEntity
  8
AM_5
100
AcDbDimension
  2
*D18
 10
216.9029952942991
 20
137.5190570585301
 30
0.0
 11
216.902995294299
 21
147.3685993813648
 31
0.0
 70
   160
 71
     5
 42
1.999999999999943
  3
AM_ISO$0
100
AcDbAlignedDimension
 13
223.3155814163463
 23
139.5190570585301
 33
0.0
 14
242.3155814163463
 24
137.5190570585301
 34
0.0
 50
90.0
100
AcDbRotatedDimension
1001
ACAD
1000
DSTYLE
1002
{
1070
    40
1040
1.0
1070
   144
1040
1.0
1070
   272
1070
     8
1002
}
  0
DIMENSION
  5
2270
330
1F
100
AcDbEntity
  8
AM_5
100
AcDbDimension
  2
*D19
 10
243.0468458945379
 20
189.9327942912894
 30
0.0
 11
243.0468458945379
 21
203.4058269463216
 31
0.0
 70
   160
 71
     5
 42
3.800000000000011
  3
AM_ISO$0
100
AcDbAlignedDimension
 13
245.1155814163464
 23
193.7327942912895
 33
0.0
 14
245.1155814163464
 24
189.9327942912894
 34
0.0
 50
90.0
100
AcDbRotatedDimension
1001
ACAD
1000
DSTYLE
1002
{
1070
    40
1040
1.0
1070
   144
1040
1.0
1070
   272
1070
     8
1002
}
  0
DIMENSION
  5
22C8
330
1F
100
AcDbEntity
  8
AM_5
100
AcDbDimension
  2
*D20
 10
236.4155814163463
 20
124.7190570585302
 30
0.0
 11
231.6655814163464
 21
127.4690570585302
 31
0.0
 70
    32
 71
     5
 42
9.5
  3
AM_ISO$0
100
AcDbAlignedDimension
 13
226.9155814163464
 23
135.9190570585301
 33
0.0
 14
236.4155814163463
 24
134.9190570585301
 34
0.0
 50
0.0000000000001132
100
AcDbRotatedDimension
1001
ACAD
1000
DSTYLE
1002
{
1070
    40
1040
1.0
1070
   144
1040
1.0
1070
   272
1070
     8
1002
}
  0
DIMENSION
  5
22EE
330
1F
100
AcDbEntity
  8
AM_5
100
AcDbDimension
  2
*D21
 10
245.9155814163464
 20
124.7190570585302
 30
0.0
 11
241.1655814163463
 21
127.4690570585302
 31
0.0
 70
    32
 71
     5
 42
9.5
  3
AM_ISO$0
100
AcDbAlignedDimension
 13
236.4155814163463
 23
134.9190570585301
 33
0.0
 14
245.9155814163464
 24
133.9190570585301
 34
0.0
 50
0.0000000000001132
100
AcDbRotatedDimension
1001
ACAD
1000
DSTYLE
1002
{
1070
    40
1040
1.0
1070
   144
1040
1.0
1070
   272
1070
     8
1002
}
  0
LINE
  5
23F6
330
1F
100
AcDbEntity
  8
LOGO
 62
     4
100
AcDbLine
 10
385.0140630679669
 20
100.4413092148015
 30
0.0
 11
110.0140630679669
 21
100.4413092148015
 31
0.0
  0
LWPOLYLINE
  5
23F7
330
1F
100
AcDbEntity
  8
LOGO
 62
     4
100
AcDbPolyline
 90
        4
 70
     1
 43
0.0
 10
110.0140630679669
 20
100.4413092148015
 10
385.0140630679669
 20
100.4413092148015
 10
385.0140630679669
 20
280.4442051424029
 10
110.0140630679669
 20
280.4442051424029
1001
GENIUS_GENREC_14
1002
{
1000
PYDIR
1011
110.0140630679669
1021
280.4442051424029
1031
0.0
1002
}
1002
{
1000
PXDIR
1011
385.0140630679669
1021
100.4413092148015
1031
0.0
1002
}
1002
{
1000
PORI
1011
110.0140630679669
1021
100.4413092148015
1031
0.0
1002
}
1002
{
1000
PINS
1011
110.0140630679669
1021
100.4413092148015
1031
0.0
1002
}
1002
{
1000
PINS2
1011
385.0140630679669
1021
280.4442051424029
1031
0.0
1002
}
1002
{
1000
C
1070
     1
1002
}
1001
GENIUS_GENODEF_13
1002
{
1000
HIER
1070
     0
1002
}
1002
{
1000
MANEDIT
1070
     0
1002
}
1002
{
1000
NOSEL
1070
     0
1002
}
1002
{
1000
BEHIND
1070
     0
1002
}
1002
{
1000
OTHER
1070
     0
1002
}
1002
{
1000
REACTOR
1002
}
1001
GENIUS_GENOBJ-N-REC_13
1002
{
1000
OWNER
1000
GEN
1002
}
  0
LWPOLYLINE
  5
23F8
330
1F
100
AcDbEntity
  8
LOGO
 62
     4
100
AcDbPolyline
 90
        4
 70
     1
 43
0.0
 10
110.0140630679669
 20
100.4413092148015
 10
385.0140630679669
 20
100.4413092148015
 10
385.0140630679669
 20
80.444205142403
 10
110.0140630679669
 20
80.444205142403
1001
GENIUS_GENREC_14
1002
{
1000
PYDIR
1011
110.0140630679669
1021
80.444205142403
1031
0.0
1002
}
1002
{
1000
PXDIR
1011
385.0140630679669
1021
100.4413092148015
1031
0.0
1002
}
1002
{
1000
PORI
1011
110.0140630679669
1021
100.4413092148015
1031
0.0
1002
}
1002
{
1000
PINS
1011
110.0140630679669
1021
100.4413092148015
1031
0.0
1002
}
1002
{
1000
PINS2
1011
385.0140630679669
1021
80.444205142403
1031
0.0
1002
}
1002
{
1000
C
1070
     1
1002
}
1001
GENIUS_GENOBJ-N-REC_13
1002
{
1000
OWNER
1000
GEN
1002
}
1001
GENIUS_GENODEF_13
1002
{
1000
HIER
1070
     0
1002
}
1002
{
1000
MANEDIT
1070
     0
1002
}
1002
{
1000
NOSEL
1070
     0
1002
}
1002
{
1000
BEHIND
1070
     0
1002
}
1002
{
1000
OTHER
1070
     0
1002
}
1002
{
1000
REACTOR
1002
}
  0
TEXT
  5
23F9
330
1F
100
AcDbEntity
  8
LOGO
 62
     7
100
AcDbText
 10
155.1661999666743
 20
91.68091820048653
 30
0.0
 40
2.666280542986425
  1
Order example:
 41
0.8
  7
CHINESET
100
AcDbText
  0
TEXT
  5
23FA
330
1F
100
AcDbEntity
  8
LOGO
 62
     7
100
AcDbText
 10
155.6445527453291
 20
95.43448914458076
 30
0.0
 40
3.999420814479637
  1
訂購代號：
  7
CHINESET
100
AcDbText
  0
LINE
  5
23FB
330
1F
100
AcDbEntity
  8
LOGO
 62
     4
100
AcDbLine
 10
154.007692027243
 20
80.44420514240323
 30
0.0
 11
154.007692027243
 21
100.4413092148015
 31
0.0
  0
TEXT
  5
23FC
330
1F
100
AcDbEntity
  8
LOGO
  6
Continuous
100
AcDbText
 10
117.1971127394944
 20
84.37260605916458
 30
0.0
 40
2.999565610859728
  1
金器工業股份有限公司
  7
CHINESET
100
AcDbText
  0
TEXT
  5
23FD
330
1F
100
AcDbEntity
  8
LOGO
  6
Continuous
100
AcDbText
 10
111.6875041471361
 20
81.37245276862017
 30
0.0
 40
1.999710407239818
  1
MINDMAN INDUSTRIAL CO., LTD.
 41
0.85
  7
CHINESET
100
AcDbText
  0
LINE
  5
23FE
330
1F
100
AcDbEntity
  8
LOGO
 62
     4
100
AcDbLine
 10
154.007692027243
 20
96.44188840032189
 30
0.0
 11
124.6786060543921
 21
96.44188840032189
 31
0.0
  0
LINE
  5
23FF
330
1F
100
AcDbEntity
  8
LOGO
 62
     4
100
AcDbLine
 10
154.007692027243
 20
92.44246758584223
 30
0.0
 11
124.6786060543921
 21
92.44246758584223
 31
0.0
  0
LINE
  5
2400
330
1F
100
AcDbEntity
  8
LOGO
 62
     4
100
AcDbLine
 10
154.007692027243
 20
88.44304677136278
 30
0.0
 11
110.0140630679669
 21
88.44304677136278
 31
0.0
  0
LINE
  5
2401
330
1F
100
AcDbEntity
  8
LOGO
 62
     4
100
AcDbLine
 10
124.6786060543921
 20
88.44304677136278
 30
0.0
 11
124.6786060543921
 21
100.4413092148015
 31
0.0
  0
TEXT
  5
2402
330
1F
100
AcDbEntity
  8
LOGO
100
AcDbText
 10
144.7236520050635
 20
89.44290197498236
 30
0.0
 40
1.999710407239818
  1
mm
  7
CHINESET
 72
     1
 11
147.1994839378366
 21
90.44275717860228
 31
0.0
100
AcDbText
 73
     2
  0
TEXT
  5
2403
330
1F
100
AcDbEntity
  8
LOGO
100
AcDbText
 10
143.6761846488902
 20
97.44174360394168
 30
0.0
 40
1.999710407239818
  1
1 : 1
  7
CHINESET
 72
     1
 11
147.1994839378366
 21
98.4415988075616
 31
0.0
100
AcDbText
 73
     2
  0
LINE
  5
2404
330
1F
100
AcDbEntity
  8
LOGO
 62
     4
100
AcDbLine
 10
140.6762893123108
 20
88.44304677136278
 30
0.0
 11
140.6762893123108
 21
100.4413092148015
 31
0.0
  0
TEXT
  5
2405
330
1F
100
AcDbEntity
  8
LOGO
100
AcDbText
 10
126.3274744125047
 20
97.44272771339408
 30
131.0577257600498
 40
1.999710407239818
  1
比例 Scale:
 41
0.9
  7
CHINESET
 72
     4
 11
132.6774476833515
 21
98.4415988075616
 31
131.0577257600498
100
AcDbText
  0
TEXT
  5
2406
330
1F
100
AcDbEntity
  8
LOGO
100
AcDbText
 10
126.2123125185163
 20
93.47045191797596
 30
131.0577257600498
 40
1.999710407239818
  1
投影  View:
 41
0.9
  7
CHINESET
 72
     4
 11
132.6774476833515
 21
94.44217799308194
 31
131.0577257600498
100
AcDbText
  0
TEXT
  5
2407
330
1F
100
AcDbEntity
  8
LOGO
100
AcDbText
 10
126.4078199199384
 20
89.44290197498236
 30
131.0577257600498
 40
1.999710407239818
  1
單位  Unit:
 41
0.9
  7
CHINESET
 72
     4
 11
132.6774476833515
 21
90.44275717860228
 31
131.0577257600498
100
AcDbText
  0
SOLID
  5
2408
330
1F
100
AcDbEntity
  8
LOGO
 62
     5
100
AcDbTrace
 10
112.0887947083891
 20
91.76728068703619
 30
0.0
 11
112.9534170160785
 21
91.76728068703596
 31
0.0
 12
116.5609790585066
 22
99.96628532891874
 32
0.0
 13
117.4256013661965
 23
99.96628532891827
 33
0.0
  0
SOLID
  5
2409
330
1F
100
AcDbEntity
  8
LOGO
 62
     5
100
AcDbTrace
 10
113.3111917640889
 20
91.76728068703619
 30
0.0
 11
114.1758140717783
 21
91.76728068703619
 31
0.0
 12
117.4256013661965
 22
99.3103649575678
 32
0.0
 13
116.5609790585066
 23
96.14008316270655
 33
0.0
  0
SOLID
  5
240A
330
1F
100
AcDbEntity
  8
LOGO
 62
     2
100
AcDbTrace
 10
112.9534170160785
 20
91.76728068703596
 30
0.0
 11
113.3111917640889
 21
91.76728068703619
 31
0.0
 12
117.4256013661965
 22
99.96628532891827
 32
0.0
 13
117.7833761142063
 23
99.96628532891827
 33
0.0
  0
SOLID
  5
240B
330
1F
100
AcDbEntity
  8
LOGO
 62
     5
100
AcDbTrace
 10
110.7025931178008
 20
88.78582445362463
 30
0.0
 11
111.0007387411423
 21
88.78582445362463
 31
0.0
 12
111.8403400222718
 22
90.2765525703303
 32
0.0
 13
112.1384856456123
 23
90.2765525703303
 33
0.0
  0
SOLID
  5
240C
330
1F
100
AcDbEntity
  8
LOGO
 62
     5
100
AcDbTrace
 10
111.8403400222718
 20
90.2765525703303
 30
0.0
 11
112.1384856456123
 21
90.2765525703303
 31
0.0
 12
111.8403400222718
 22
88.78582445362463
 32
0.0
 13
112.1384856456123
 23
88.78582445362463
 33
0.0
  0
SOLID
  5
240D
330
1F
100
AcDbEntity
  8
LOGO
 62
     5
100
AcDbTrace
 10
111.8403400222718
 20
88.78582445362463
 30
0.0
 11
112.1384856456123
 21
88.78582445362463
 31
0.0
 12
112.9780869267432
 22
90.2765525703303
 32
0.0
 13
113.2762325500842
 23
90.2765525703303
 33
0.0
  0
SOLID
  5
240E
330
1F
100
AcDbEntity
  8
LOGO
 62
     5
100
AcDbTrace
 10
112.9780869267432
 20
90.2765525703303
 30
0.0
 11
113.2762325500842
 21
90.2765525703303
 31
0.0
 12
112.9780869267432
 22
88.78582445362463
 32
0.0
 13
113.2762325500842
 23
88.78582445362463
 33
0.0
  0
POLYLINE
  5
240F
330
1F
100
AcDbEntity
  8
LOGO
 62
     5
100
AcDb2dPolyline
 66
     1
 10
0.0
 20
0.0
 30
0.0
 40
0.2986234208144796
 41
0.2986234208144796
  0
VERTEX
  5
2410
330
240F
100
AcDbEntity
  8
LOGO
 62
     5
100
AcDbVertex
100
AcDb2dVertex
 10
122.9718266565527
 20
89.68026132364798
 30
0.0
 42
1.0
  0
VERTEX
  5
2411
330
240F
100
AcDbEntity
  8
LOGO
 62
     5
100
AcDbVertex
100
AcDb2dVertex
 10
122.0759563941091
 20
89.68026132364798
 30
0.0
 42
1.0
  0
SEQEND
  5
2412
330
240F
100
AcDbEntity
  8
LOGO
 62
     5
  0
POLYLINE
  5
2413
330
1F
100
AcDbEntity
  8
LOGO
 62
     5
100
AcDb2dPolyline
 66
     1
 10
0.0
 20
0.0
 30
0.0
 70
     1
  0
VERTEX
  5
2414
330
2413
100
AcDbEntity
  8
LOGO
 62
     5
100
AcDbVertex
100
AcDb2dVertex
 10
120.3872011010934
 20
89.53118851197723
 30
0.0
 42
1.000000057330635
  0
VERTEX
  5
2415
330
2413
100
AcDbEntity
  8
LOGO
 62
     5
100
AcDbVertex
100
AcDb2dVertex
 10
121.281637971117
 20
89.53118851197723
 30
0.0
 42
1.000000057330635
  0
SEQEND
  5
2416
330
2413
100
AcDbEntity
  8
LOGO
 62
     5
  0
CIRCLE
  5
2417
330
1F
100
AcDbEntity
  8
LOGO
 62
     5
100
AcDbCircle
 10
120.8344195361059
 20
89.53118851197723
 30
0.0
 40
0.4472184350117648
  0
POLYLINE
  5
2418
330
1F
100
AcDbEntity
  8
LOGO
 62
     5
100
AcDb2dPolyline
 66
     1
 10
0.0
 20
0.0
 30
0.0
 70
     1
 40
0.2986234208144796
 41
0.2986234208144796
  0
VERTEX
  5
2419
330
2418
100
AcDbEntity
  8
LOGO
 62
     5
100
AcDbVertex
100
AcDb2dVertex
 10
120.2371726944765
 20
89.53118851197723
 30
0.0
 42
1.0
  0
VERTEX
  5
241A
330
2418
100
AcDbEntity
  8
LOGO
 62
     5
100
AcDbVertex
100
AcDb2dVertex
 10
121.4316663777343
 20
89.53118851197723
 30
0.0
 42
1.0
  0
SEQEND
  5
241B
330
2418
100
AcDbEntity
  8
LOGO
 62
     5
  0
LINE
  5
241C
330
1F
100
AcDbEntity
  8
LOGO
100
AcDbLine
 10
123.1201827720127
 20
88.78582445362463
 30
0.0
 11
123.1201827720127
 21
89.68026132364798
 31
0.0
  0
SOLID
  5
241D
330
1F
100
AcDbEntity
  8
LOGO
 62
     5
100
AcDbTrace
 10
121.281608156556
 20
90.2765525703303
 30
0.0
 11
121.5797537798966
 21
90.2765525703303
 31
0.0
 12
121.281608156556
 22
88.78582445362463
 32
0.0
 13
121.5797537798966
 23
88.78582445362463
 33
0.0
  0
SOLID
  5
241E
330
1F
100
AcDbEntity
  8
LOGO
 62
     5
100
AcDbTrace
 10
121.9276002786481
 20
88.78582445362463
 30
0.0
 11
122.2257459019896
 21
88.78582445362463
 31
0.0
 12
121.9276002786481
 22
90.2765525703303
 32
0.0
 13
122.2257459019896
 23
90.2765525703303
 33
0.0
  0
SOLID
  5
241F
330
1F
100
AcDbEntity
  8
LOGO
 62
     5
100
AcDbTrace
 10
122.8220371486721
 20
89.68026132364798
 30
0.0
 11
123.1201827720127
 21
89.68026132364798
 31
0.0
 12
122.8220371486721
 22
88.78582445362463
 32
0.0
 13
123.1201827720127
 23
88.78582445362463
 33
0.0
  0
SOLID
  5
2420
330
1F
100
AcDbEntity
  8
LOGO
 62
     5
100
AcDbTrace
 10
121.8977857163139
 20
99.3103649575678
 30
0.0
 11
121.033163408625
 21
96.14008316270655
 31
0.0
 12
121.8977857163139
 22
91.76728068703596
 32
0.0
 13
121.033163408625
 23
91.76728068703596
 33
0.0
  0
SOLID
  5
2421
330
1F
100
AcDbEntity
  8
LOGO
 62
     5
100
AcDbTrace
 10
122.2555604643238
 20
91.76728068703596
 30
0.0
 11
123.1201827720127
 21
91.76728068703596
 31
0.0
 12
122.2555604643238
 22
99.96628532891827
 32
0.0
 13
123.1201827720127
 23
99.96628532891874
 33
0.0
  0
SOLID
  5
2422
330
1F
100
AcDbEntity
  8
LOGO
 62
     2
100
AcDbTrace
 10
121.8977857163139
 20
99.96628532891874
 30
0.0
 11
122.2555604643238
 21
99.96628532891827
 31
0.0
 12
121.8977857163139
 22
91.76728068703596
 32
0.0
 13
122.2555604643238
 23
91.76728068703596
 33
0.0
  0
POLYLINE
  5
2423
330
1F
100
AcDbEntity
  8
LOGO
 62
     5
100
AcDb2dPolyline
 66
     1
 10
0.0
 20
0.0
 30
0.0
 40
0.2986234208144796
 41
0.2986234208144796
  0
VERTEX
  5
2424
330
2423
100
AcDbEntity
  8
LOGO
 62
     5
100
AcDbVertex
100
AcDb2dVertex
 10
118.6983861789543
 20
89.68026132364798
 30
0.0
 42
1.0
  0
VERTEX
  5
2425
330
2423
100
AcDbEntity
  8
LOGO
 62
     5
100
AcDbVertex
100
AcDb2dVertex
 10
117.8025159165107
 20
89.68026132364798
 30
0.0
 42
1.0
  0
SEQEND
  5
2426
330
2423
100
AcDbEntity
  8
LOGO
 62
     5
  0
POLYLINE
  5
2427
330
1F
100
AcDbEntity
  8
LOGO
 62
     5
100
AcDb2dPolyline
 66
     1
 10
0.0
 20
0.0
 30
0.0
 40
0.2986234208144796
 41
0.2986234208144796
  0
VERTEX
  5
2428
330
2427
100
AcDbEntity
  8
LOGO
 62
     5
100
AcDbVertex
100
AcDb2dVertex
 10
119.592823048977
 20
89.68026132364798
 30
0.0
 42
1.0
  0
VERTEX
  5
2429
330
2427
100
AcDbEntity
  8
LOGO
 62
     5
100
AcDbVertex
100
AcDb2dVertex
 10
118.6969527865338
 20
89.68026132364798
 30
0.0
 42
1.0
  0
SEQEND
  5
242A
330
2427
100
AcDbEntity
  8
LOGO
 62
     5
  0
POLYLINE
  5
242B
330
1F
100
AcDbEntity
  8
LOGO
 62
     5
100
AcDb2dPolyline
 66
     1
 10
0.0
 20
0.0
 30
0.0
 40
0.2986234208144796
 41
0.2986234208144796
  0
VERTEX
  5
242C
330
242B
100
AcDbEntity
  8
LOGO
 62
     5
100
AcDbVertex
100
AcDb2dVertex
 10
115.3193825713787
 20
89.68026132364798
 30
0.0
 42
1.0
  0
VERTEX
  5
242D
330
242B
100
AcDbEntity
  8
LOGO
 62
     5
100
AcDbVertex
100
AcDb2dVertex
 10
114.4235123089355
 20
89.68026132364798
 30
0.0
 42
1.0
  0
SEQEND
  5
242E
330
242B
100
AcDbEntity
  8
LOGO
 62
     5
  0
SOLID
  5
242F
330
1F
100
AcDbEntity
  8
LOGO
 62
     5
100
AcDbTrace
 10
114.275156193475
 20
90.2765525703303
 30
0.0
 11
114.5733018168156
 21
90.2765525703303
 31
0.0
 12
114.275156193475
 22
88.78582445362463
 32
0.0
 13
114.5733018168156
 23
88.78582445362463
 33
0.0
  0
SOLID
  5
2430
330
1F
100
AcDbEntity
  8
LOGO
 62
     5
100
AcDbTrace
 10
115.1695930634986
 20
89.68026132364798
 30
0.0
 11
115.4677386868401
 21
89.68026132364798
 31
0.0
 12
115.1695930634986
 22
88.78582445362463
 32
0.0
 13
115.4677386868401
 23
88.78582445362463
 33
0.0
  0
POLYLINE
  5
2431
330
1F
100
AcDbEntity
  8
LOGO
 62
     5
100
AcDb2dPolyline
 66
     1
 10
0.0
 20
0.0
 30
0.0
 70
     1
 40
0.2986234208144796
 41
0.2986234208144796
  0
VERTEX
  5
2432
330
2431
100
AcDbEntity
  8
LOGO
 62
     5
100
AcDbVertex
100
AcDb2dVertex
 10
115.9637322168777
 20
89.53118851197723
 30
0.0
 42
1.0
  0
VERTEX
  5
2433
330
2431
100
AcDbEntity
  8
LOGO
 62
     5
100
AcDbVertex
100
AcDb2dVertex
 10
117.158225900136
 20
89.53118851197723
 30
0.0
 42
1.0
  0
SEQEND
  5
2434
330
2431
100
AcDbEntity
  8
LOGO
 62
     5
  0
SOLID
  5
2435
330
1F
100
AcDbEntity
  8
LOGO
 62
     5
100
AcDbTrace
 10
117.0081676789567
 20
90.72377100534231
 30
0.0
 11
117.3063133022978
 21
90.72377100534231
 31
0.0
 12
117.0081676789567
 22
88.78582445362463
 32
0.0
 13
117.3063133022978
 23
88.78582445362463
 33
0.0
  0
SOLID
  5
2436
330
1F
100
AcDbEntity
  8
LOGO
 62
     5
100
AcDbTrace
 10
117.6541598010507
 20
90.2765525703303
 30
0.0
 11
117.9523054243913
 21
90.2765525703303
 31
0.0
 12
117.6541598010507
 22
88.78582445362463
 32
0.0
 13
117.9523054243913
 23
88.78582445362463
 33
0.0
  0
SOLID
  5
2437
330
1F
100
AcDbEntity
  8
LOGO
 62
     5
100
AcDbTrace
 10
118.5485966710734
 20
89.68026132364798
 30
0.0
 11
118.8467422944148
 21
89.68026132364798
 31
0.0
 12
118.5485966710734
 22
88.78582445362463
 32
0.0
 13
118.8467422944148
 23
88.78582445362463
 33
0.0
  0
SOLID
  5
2438
330
1F
100
AcDbEntity
  8
LOGO
 62
     5
100
AcDbTrace
 10
119.4430335410969
 20
89.68026132364798
 30
0.0
 11
119.741179164438
 21
89.68026132364798
 31
0.0
 12
119.4430335410969
 22
88.78582445362416
 32
0.0
 13
119.741179164438
 23
88.78582445362416
 33
0.0
  0
SOLID
  5
2439
330
1F
100
AcDbEntity
  8
LOGO
 62
     5
100
AcDbTrace
 10
113.6291640713815
 20
90.4852545066692
 30
0.0
 11
113.9273096947235
 21
90.4852545066692
 31
0.0
 12
113.6291640713815
 22
90.72377100534231
 32
0.0
 13
113.9273096947235
 23
90.72377100534231
 33
0.0
  0
SOLID
  5
243A
330
1F
100
AcDbEntity
  8
LOGO
 62
     5
100
AcDbTrace
 10
113.6291640713815
 20
90.2765525703303
 30
0.0
 11
113.9273096947235
 21
90.2765525703303
 31
0.0
 12
113.6291640713815
 22
88.78582445362416
 32
0.0
 13
113.9273096947235
 23
88.78582445362463
 33
0.0
  0
SOLID
  5
243B
330
1F
100
AcDbEntity
  8
LOGO
 62
     5
100
AcDbTrace
 10
116.5609790585066
 20
91.76728068703619
 30
0.0
 11
117.4256013661965
 21
91.76728068703619
 31
0.0
 12
116.5609790585066
 22
96.14008316270655
 32
0.0
 13
117.4256013661965
 23
99.3103649575678
 33
0.0
  0
SOLID
  5
243C
330
1F
100
AcDbEntity
  8
LOGO
 62
     5
100
AcDbTrace
 10
117.7833761142063
 20
99.96628532891827
 30
0.0
 11
118.6479984218953
 21
99.96628532891874
 31
0.0
 12
117.7833761142063
 22
92.42320105838667
 32
0.0
 13
118.6479984218953
 23
95.59348285324791
 33
0.0
  0
SOLID
  5
243D
330
1F
100
AcDbEntity
  8
LOGO
 62
     2
100
AcDbTrace
 10
117.4256013661965
 20
99.96628532891827
 30
0.0
 11
117.7833761142063
 21
99.96628532891827
 31
0.0
 12
117.4256013661965
 22
91.76728068703619
 32
0.0
 13
117.7833761142063
 23
91.76728068703619
 33
0.0
  0
SOLID
  5
243E
330
1F
100
AcDbEntity
  8
LOGO
 62
     5
100
AcDbTrace
 10
117.7833761142063
 20
92.42320105838667
 30
0.0
 11
118.6479984218953
 21
95.59348285324791
 31
0.0
 12
121.8977857163139
 22
99.96628532891874
 32
0.0
 13
121.033163408625
 23
99.96628532891874
 33
0.0
  0
SOLID
  5
243F
330
1F
100
AcDbEntity
  8
LOGO
 62
     5
100
AcDbTrace
 10
117.7833761142063
 20
91.76728068703619
 30
0.0
 11
118.6479984218953
 21
91.76728068703619
 31
0.0
 12
121.8977857163139
 22
99.3103649575678
 32
0.0
 13
121.033163408625
 23
96.14008316270655
 33
0.0
  0
SOLID
  5
2440
330
1F
100
AcDbEntity
  8
LOGO
 62
     2
100
AcDbTrace
 10
117.4256013661965
 20
91.76728068703619
 30
0.0
 11
117.7833761142063
 21
91.76728068703619
 31
0.0
 12
121.8977857163139
 22
99.96628532891874
 32
0.0
 13
122.2555604643238
 23
99.96628532891827
 33
0.0
  0
LINE
  5
2441
330
1F
100
AcDbEntity
  8
LOGO
 62
     4
100
AcDbLine
 10
190.9960336316866
 20
89.44290197498276
 30
0.0
 11
190.9960336316866
 21
82.11063048176971
 31
0.0
  0
LINE
  5
2442
330
1F
100
AcDbEntity
  8
LOGO
 62
     4
100
AcDbLine
 10
181.5128211622931
 20
89.44290197498276
 30
0.0
 11
181.5128211622931
 21
82.11063048176971
 31
0.0
  0
LINE
  5
2443
330
1F
100
AcDbEntity
  8
LOGO
 62
     4
100
AcDbLine
 10
190.9960336316866
 20
82.11063048176971
 30
0.0
 11
181.5128211622931
 21
82.11063048176971
 31
0.0
  0
LINE
  5
2444
330
1F
100
AcDbEntity
  8
LOGO
 62
     4
100
AcDbLine
 10
197.3784202243549
 20
98.4415988075616
 30
0.0
 11
181.5128211622931
 21
98.4415988075616
 31
0.0
  0
LINE
  5
2445
330
1F
100
AcDbEntity
  8
LOGO
 62
     4
100
AcDbLine
 10
197.3784202243549
 20
92.44246758584223
 30
0.0
 11
181.5128211622931
 21
92.44246758584223
 31
0.0
  0
LINE
  5
2446
330
1F
100
AcDbEntity
  8
LOGO
 62
     4
100
AcDbLine
 10
181.5128211622931
 20
98.4415988075616
 30
0.0
 11
181.5128211622931
 21
92.44246758584223
 31
0.0
  0
LINE
  5
2447
330
1F
100
AcDbEntity
  8
LOGO
 62
     4
100
AcDbLine
 10
197.3784202243549
 20
98.4415988075616
 30
0.0
 11
197.3784202243549
 21
92.44246758584223
 31
0.0
  0
LINE
  5
2448
330
1F
100
AcDbEntity
  8
LOGO
 62
     4
100
AcDbLine
 10
188.8740868979956
 20
92.44246758584223
 30
0.0
 11
188.8740868979956
 21
89.44290197498276
 31
0.0
  0
TEXT
  5
2449
330
1F
100
AcDbEntity
  8
LOGO
  6
Continuous
100
AcDbText
 10
182.5787728255731
 20
93.6947774576472
 30
0.0
 40
3.5
  1
MVSY
  7
CHINESET
100
AcDbText
  0
LINE
  5
244A
330
1F
100
AcDbEntity
  8
LOGO
 62
     4
100
AcDbLine
 10
190.9960336316866
 20
89.44290197498276
 30
0.0
 11
181.5128211622931
 21
89.44290197498276
 31
0.0
  0
TEXT
  5
244B
330
1F
100
AcDbEntity
  8
LOGO
  6
Continuous
100
AcDbText
 10
184.1759775535887
 20
83.14556505459382
 30
131.0577257600498
 40
1.5
  1
Model
 41
0.8
  7
CHINESET
100
AcDbText
  0
TEXT
  5
244C
330
1F
100
AcDbEntity
  8
LOGO
100
AcDbText
 10
183.7767263155896
 20
85.92624178152119
 30
131.0577257600498
 40
2.5
  1
型號
  7
CHINESET
100
AcDbText
  0
LINE
  5
244D
330
1F
100
AcDbEntity
  8
LOGO
  6
Continuous
100
AcDbLine
 10
198.0161774553606
 20
95.42078332582788
 30
0.0
 11
200.6651749043002
 21
95.42078332582788
 31
0.0
  0
LINE
  5
244E
330
1F
100
AcDbEntity
  8
LOGO
 62
     4
100
AcDbLine
 10
204.7049314709474
 20
89.44290197498276
 30
0.0
 11
204.7049314709474
 21
82.11063048176971
 31
0.0
  0
LINE
  5
244F
330
1F
100
AcDbEntity
  8
LOGO
 62
     4
100
AcDbLine
 10
192.5582844093445
 20
89.44290197498276
 30
0.0
 11
192.5582844093445
 21
82.11063048176971
 31
0.0
  0
LINE
  5
2450
330
1F
100
AcDbEntity
  8
LOGO
 62
     4
100
AcDbLine
 10
204.7049314709474
 20
82.11063048176971
 30
0.0
 11
192.5582844093445
 21
82.11063048176971
 31
0.0
  0
LINE
  5
2451
330
1F
100
AcDbEntity
  8
LOGO
 62
     4
100
AcDbLine
 10
208.0766839260012
 20
98.4415988075616
 30
0.0
 11
201.5007939624519
 21
98.4415988075616
 31
0.0
  0
LINE
  5
2452
330
1F
100
AcDbEntity
  8
LOGO
 62
     4
100
AcDbLine
 10
208.0766839260012
 20
92.44246758584223
 30
0.0
 11
201.5007939624519
 21
92.44246758584223
 31
0.0
  0
LINE
  5
2453
330
1F
100
AcDbEntity
  8
LOGO
 62
     4
100
AcDbLine
 10
201.5007939624519
 20
98.4415988075616
 30
0.0
 11
201.5007939624519
 21
92.44246758584223
 31
0.0
  0
LINE
  5
2454
330
1F
100
AcDbEntity
  8
LOGO
 62
     4
100
AcDbLine
 10
208.0766839260012
 20
98.4415988075616
 30
0.0
 11
208.0766839260012
 21
92.44246758584223
 31
0.0
  0
LINE
  5
2455
330
1F
100
AcDbEntity
  8
LOGO
 62
     4
100
AcDbLine
 10
205.0987690689047
 20
92.44246758584223
 30
0.0
 11
205.0987690689047
 21
90.94268478041248
 31
0.0
  0
TEXT
  5
2456
330
1F
100
AcDbEntity
  8
LOGO
  6
Continuous
100
AcDbText
 10
202.4759936617346
 20
93.6947774576472
 30
0.0
 40
3.5
  1
100
  7
CHINESET
100
AcDbText
  0
LINE
  5
2457
330
1F
100
AcDbEntity
  8
LOGO
 62
     4
100
AcDbLine
 10
204.7049314709474
 20
89.44290197498276
 30
0.0
 11
192.5582844093445
 21
89.44290197498276
 31
0.0
  0
LINE
  5
2458
330
1F
100
AcDbEntity
  8
LOGO
  6
Continuous
100
AcDbLine
 10
211.9299956669013
 20
95.42078332582788
 30
0.0
 11
214.5789931158408
 21
95.42078332582788
 31
0.0
  0
LINE
  5
2459
330
1F
100
AcDbEntity
  8
LOGO
 62
     4
100
AcDbLine
 10
216.3457903765187
 20
89.44290197498276
 30
0.0
 11
216.3457903765187
 21
82.11063048176971
 31
0.0
  0
LINE
  5
245A
330
1F
100
AcDbEntity
  8
LOGO
 62
     4
100
AcDbLine
 10
206.3315781292212
 20
89.44290197498276
 30
0.0
 11
206.3315781292212
 21
82.11063048176971
 31
0.0
  0
LINE
  5
245B
330
1F
100
AcDbEntity
  8
LOGO
 62
     4
100
AcDbLine
 10
216.3457903765187
 20
82.11063048176971
 30
0.0
 11
206.3315781292212
 21
82.11063048176971
 31
0.0
  0
LINE
  5
245C
330
1F
100
AcDbEntity
  8
LOGO
 62
     4
100
AcDbLine
 10
219.6732946171635
 20
98.4415988075616
 30
0.0
 11
215.4146121739925
 21
98.4415988075616
 31
0.0
  0
LINE
  5
245D
330
1F
100
AcDbEntity
  8
LOGO
 62
     4
100
AcDbLine
 10
219.6732946171635
 20
92.44246758584223
 30
0.0
 11
215.4146121739925
 21
92.44246758584223
 31
0.0
  0
LINE
  5
245E
330
1F
100
AcDbEntity
  8
LOGO
 62
     4
100
AcDbLine
 10
215.4146121739925
 20
98.4415988075616
 30
0.0
 11
215.4146121739925
 21
92.44246758584223
 31
0.0
  0
LINE
  5
245F
330
1F
100
AcDbEntity
  8
LOGO
 62
     4
100
AcDbLine
 10
219.6732946171635
 20
98.4415988075616
 30
0.0
 11
219.6732946171635
 21
92.44246758584223
 31
0.0
  0
LINE
  5
2460
330
1F
100
AcDbEntity
  8
LOGO
 62
     4
100
AcDbLine
 10
217.543953395578
 20
92.44246758584223
 30
0.0
 11
217.543953395578
 21
90.94268478041248
 31
0.0
  0
TEXT
  5
2461
330
1F
100
AcDbEntity
  8
LOGO
  6
Continuous
100
AcDbText
 10
216.2130804979372
 20
93.6947774576472
 30
0.0
 40
3.5
  1
4
  7
CHINESET
100
AcDbText
  0
LINE
  5
2462
330
1F
100
AcDbEntity
  8
LOGO
 62
     4
100
AcDbLine
 10
216.3457903765187
 20
89.44290197498276
 30
0.0
 11
206.3315781292212
 21
89.44290197498276
 31
0.0
  0
LINE
  5
2463
330
1F
100
AcDbEntity
  8
LOGO
 62
     4
100
AcDbLine
 10
234.7292788718418
 20
89.44290197498276
 30
0.0
 11
234.7292788718418
 21
82.11063048176971
 31
0.0
  0
LINE
  5
2464
330
1F
100
AcDbEntity
  8
LOGO
 62
     4
100
AcDbLine
 10
218.3767113161624
 20
89.44290197498276
 30
0.0
 11
218.3767113161624
 21
82.11063048176971
 31
0.0
  0
LINE
  5
2465
330
1F
100
AcDbEntity
  8
LOGO
 62
     4
100
AcDbLine
 10
234.7292788718418
 20
82.11063048176971
 30
0.0
 11
218.3767113161624
 21
82.11063048176971
 31
0.0
  0
LINE
  5
2466
330
1F
100
AcDbEntity
  8
LOGO
 62
     4
100
AcDbLine
 10
229.0461207319227
 20
98.4415988075616
 30
0.0
 11
221.1312082304116
 21
98.4415988075616
 31
0.0
  0
LINE
  5
2467
330
1F
100
AcDbEntity
  8
LOGO
 62
     4
100
AcDbLine
 10
229.0461207319227
 20
92.44246758584223
 30
0.0
 11
221.1312082304116
 21
92.44246758584223
 31
0.0
  0
LINE
  5
2468
330
1F
100
AcDbEntity
  8
LOGO
 62
     4
100
AcDbLine
 10
221.1312082304116
 20
98.4415988075616
 30
0.0
 11
221.1312082304116
 21
92.44246758584223
 31
0.0
  0
LINE
  5
2469
330
1F
100
AcDbEntity
  8
LOGO
 62
     4
100
AcDbLine
 10
229.0461207319227
 20
98.4415988075616
 30
0.0
 11
229.0461207319227
 21
92.44246758584223
 31
0.0
  0
LINE
  5
246A
330
1F
100
AcDbEntity
  8
LOGO
 62
     4
100
AcDbLine
 10
225.6283283983161
 20
92.44246758584223
 30
0.0
 11
225.6283283983161
 21
89.44290197498276
 31
0.0
  0
TEXT
  5
246B
330
1F
100
AcDbEntity
  8
LOGO
  6
Continuous
100
AcDbText
 10
222.5471911029467
 20
93.6947774576472
 30
0.0
 40
3.5
  1
E2
  7
CHINESET
100
AcDbText
  0
LINE
  5
246C
330
1F
100
AcDbEntity
  8
LOGO
 62
     4
100
AcDbLine
 10
234.7292788718418
 20
89.44290197498276
 30
0.0
 11
218.3767113161624
 21
89.44290197498276
 31
0.0
  0
TEXT
  5
246D
330
1F
100
AcDbEntity
  8
LOGO
  6
Continuous
100
AcDbText
 10
193.5113327575885
 20
83.14556505459382
 30
131.0577257600498
 40
1.5
  1
Body width
 41
0.8
  7
CHINESET
100
AcDbText
  0
TEXT
  5
246E
330
1F
100
AcDbEntity
  8
LOGO
100
AcDbText
 10
193.497202238066
 20
85.92624178152119
 30
131.0577257600498
 40
2.5
  1
本體寬度
  7
CHINESET
100
AcDbText
  0
TEXT
  5
246F
330
1F
100
AcDbEntity
  8
LOGO
  6
Continuous
100
AcDbText
 10
209.12396212908
 20
83.14556505459382
 30
131.0577257600498
 40
1.5
  1
4 Way
 41
0.8
  7
CHINESET
100
AcDbText
  0
TEXT
  5
2470
330
1F
100
AcDbEntity
  8
LOGO
100
AcDbText
 10
207.6609189292043
 20
85.92624178152119
 30
131.0577257600498
 40
2.5
  1
4方向
  7
CHINESET
100
AcDbText
  0
TEXT
  5
2471
330
1F
100
AcDbEntity
  8
LOGO
  6
Continuous
100
AcDbText
 10
219.7662953714502
 20
83.14556505459382
 30
131.0577257600498
 40
1.5
  1
Double solenoid
 41
0.8
  7
CHINESET
100
AcDbText
  0
TEXT
  5
2472
330
1F
100
AcDbEntity
  8
LOGO
100
AcDbText
 10
222.4426350412676
 20
85.92624178152119
 30
131.0577257600498
 40
2.5
  1
雙線圈
  7
CHINESET
100
AcDbText
  0
LINE
  5
2473
330
1F
100
AcDbEntity
  8
LOGO
 62
     4
100
AcDbLine
 10
242.9704945762137
 20
98.4415988075616
 30
0.0
 11
233.4861823610149
 21
98.4415988075616
 31
0.0
  0
LINE
  5
2474
330
1F
100
AcDbEntity
  8
LOGO
 62
     4
100
AcDbLine
 10
242.9704945762137
 20
92.44246758584223
 30
0.0
 11
233.4861823610149
 21
92.44246758584223
 31
0.0
  0
LINE
  5
2475
330
1F
100
AcDbEntity
  8
LOGO
 62
     4
100
AcDbLine
 10
233.4861823610149
 20
98.4415988075616
 30
0.0
 11
233.4861823610149
 21
92.44246758584223
 31
0.0
  0
LINE
  5
2476
330
1F
100
AcDbEntity
  8
LOGO
 62
     4
100
AcDbLine
 10
242.9704945762137
 20
98.4415988075616
 30
0.0
 11
242.9704945762137
 21
92.44246758584223
 31
0.0
  0
TEXT
  5
2477
330
1F
100
AcDbEntity
  8
LOGO
  6
Continuous
100
AcDbText
 10
237.2935956409101
 20
93.6947774576472
 30
0.0
 40
3.5
  1
?
  7
CHINESET
100
AcDbText
  0
LINE
  5
2478
330
1F
100
AcDbEntity
  8
LOGO
 62
     4
100
AcDbLine
 10
247.2342784246524
 20
89.44290197498276
 30
0.0
 11
247.2342784246524
 21
82.11063048176971
 31
0.0
  0
LINE
  5
2479
330
1F
100
AcDbEntity
  8
LOGO
 62
     4
100
AcDbLine
 10
236.3737256062312
 20
89.44290197498276
 30
0.0
 11
236.3737256062312
 21
82.11063048176971
 31
0.0
  0
LINE
  5
247A
330
1F
100
AcDbEntity
  8
LOGO
 62
     4
100
AcDbLine
 10
247.2342784246524
 20
82.11063048176971
 30
0.0
 11
236.3737256062312
 21
82.11063048176971
 31
0.0
  0
LINE
  5
247B
330
1F
100
AcDbEntity
  8
LOGO
 62
     4
100
AcDbLine
 10
247.2342784246524
 20
89.44290197498276
 30
0.0
 11
236.3737256062312
 21
89.44290197498276
 31
0.0
  0
TEXT
  5
247C
330
1F
100
AcDbEntity
  8
LOGO
  6
Continuous
100
AcDbText
 10
238.7345302840503
 20
83.14556505459382
 30
131.0577257600498
 40
1.5
  1
Voltage
 41
0.8
  7
CHINESET
100
AcDbText
  0
TEXT
  5
247D
330
1F
100
AcDbEntity
  8
LOGO
100
AcDbText
 10
239.6151026024439
 20
85.92624178152119
 30
131.0577257600498
 40
2.5
  1
電壓
  7
CHINESET
100
AcDbText
  0
LINE
  5
247E
330
1F
100
AcDbEntity
  8
LOGO
 62
     4
100
AcDbLine
 10
238.7680023857637
 20
92.44246758584223
 30
0.0
 11
238.7680023857637
 21
89.44290197498288
 31
0.0
  0
TEXT
  5
247F
330
1F
100
AcDbEntity
  8
LOGO
100
AcDbText
 10
154.8008942851473
 20
81.50804318632458
 30
0.0
 40
2.0
  1
10708272
 41
0.7
  7
CHINESET
 72
     1
 11
159.8008942851473
 21
81.50804318632458
 31
0.0
100
AcDbText
  0
LINE
  5
2480
330
1F
100
AcDbEntity
  8
LOGO
 62
     4
100
AcDbLine
 10
166.0076920272421
 20
84.44362595688335
 30
0.0
 11
166.007692027243
 21
80.44420514240346
 31
0.0
  0
LINE
  5
2481
330
1F
100
AcDbEntity
  8
LOGO
 62
     4
100
AcDbLine
 10
166.0076920272421
 20
84.44362595688335
 30
0.0
 11
154.007692027243
 21
84.44362595688335
 31
0.0
  0
CIRCLE
  5
2482
330
1F
100
AcDbEntity
  8
LOGO
  6
Continuous
100
AcDbCircle
 10
144.3790032511391
 20
94.44645538827671
 30
0.0
 40
1.161078930320631
  0
CIRCLE
  5
2483
330
1F
100
AcDbEntity
  8
LOGO
  6
Continuous
100
AcDbCircle
 10
144.3790032511391
 20
94.44645538827671
 30
0.0
 40
0.6802894686655972
  0
LINE
  5
2484
330
1F
100
AcDbEntity
  8
LOGO
100
AcDbLine
 10
151.6753579751756
 20
93.28537645795586
 30
0.0
 11
151.6753579751756
 21
95.60753431859756
 31
0.0
  0
LINE
  5
2485
330
1F
100
AcDbEntity
  8
LOGO
100
AcDbLine
 10
148.0354421777314
 20
93.76616591961123
 30
0.0
 11
148.0354421777314
 21
95.12674485694242
 31
0.0
  0
LINE
  5
2486
330
1F
100
AcDbEntity
  8
LOGO
  6
Continuous
100
AcDbLine
 10
148.0354421777314
 20
95.12674485694242
 30
0.0
 11
151.6753579751756
 21
95.60753431859756
 31
0.0
  0
LINE
  5
2487
330
1F
100
AcDbEntity
  8
LOGO
  6
Continuous
100
AcDbLine
 10
148.0354421777314
 20
93.76616591961123
 30
0.0
 11
151.6753579751756
 21
93.28537645795586
 31
0.0
  0
LINE
  5
2488
330
1F
100
AcDbEntity
  8
LOGO
  6
AM_ISO08W050x2
 48
0.3
100
AcDbLine
 10
142.7784385599042
 20
94.44645538827671
 30
0.0
 11
145.979567942374
 21
94.44645538827671
 31
0.0
1001
GENIUS_GENOREF_13
1005
249F
  0
LINE
  5
2489
330
1F
100
AcDbEntity
  8
LOGO
  6
AM_ISO08W050x2
 48
0.3
100
AcDbLine
 10
144.3790032511391
 20
92.8458906970418
 30
0.0
 11
144.3790032511391
 21
96.04702007951164
 31
0.0
1001
GENIUS_GENOREF_13
1005
249E
  0
LINE
  5
248A
330
1F
100
AcDbEntity
  8
LOGO
  6
CENTER
 48
0.5
100
AcDbLine
 10
147.7443500849221
 20
94.44645538827671
 30
0.0
 11
152.0418857129633
 21
94.44645538827671
 31
0.0
1001
GENIUS_GENOREF_13
1005
249D
  0
LINE
  5
2491
330
1F
100
AcDbEntity
  8
LOGO
 62
     4
100
AcDbLine
 10
205.0987690689047
 20
90.94268478041248
 30
0.0
 11
198.6316079401457
 21
90.94268478041248
 31
0.0
  0
LINE
  5
2492
330
1F
100
AcDbEntity
  8
LOGO
 62
     4
100
AcDbLine
 10
198.6316079401457
 20
89.44290197498276
 30
0.0
 11
198.6316079401457
 21
90.94268478041248
 31
0.0
  0
LINE
  5
2493
330
1F
100
AcDbEntity
  8
LOGO
 62
     4
100
AcDbLine
 10
217.543953395578
 20
90.94268478041248
 30
0.0
 11
211.3386842528702
 21
90.94268478041248
 31
0.0
  0
LINE
  5
2494
330
1F
100
AcDbEntity
  8
LOGO
 62
     4
100
AcDbLine
 10
211.3386842528702
 20
89.44290197498276
 30
0.0
 11
211.3386842528702
 21
90.94268478041248
 31
0.0
  0
LINE
  5
249C
330
1F
100
AcDbEntity
  8
LOGO
  6
Continuous
100
AcDbLine
 10
230.0015658539237
 20
95.42078332582788
 30
0.0
 11
232.6505633028633
 21
95.42078332582788
 31
0.0
  0
POINT
  5
249D
330
1F
100
AcDbEntity
  8
0
 60
     1
100
AcDbPoint
 10
-2300.660547183349
 20
-825.4950852332466
 30
0.0
1001
GENIUS_GENOBJ-N-CRS_13
1002
{
1000
OWNER
1000
GEN
1002
}
1001
GENIUS_GENOLIS_13
1002
{
1000
ENT
1005
0
1005
0
1005
0
1005
248A
1002
}
1001
GENIUS_GENOENT_13
1002
{
1000
MYREF
1005
249D
1002
}
1002
{
1000
GRP
1005
0
1002
}
1001
GENIUS_GENODEF_13
1002
{
1000
HIER
1070
    10
1002
}
1002
{
1000
MANEDIT
1070
     1
1002
}
1002
{
1000
NOSEL
1070
     0
1002
}
1002
{
1000
BEHIND
1070
     0
1002
}
1002
{
1000
OTHER
1070
     0
1002
}
1002
{
1000
REACTOR
1002
}
  0
POINT
  5
249E
330
1F
100
AcDbEntity
  8
0
 60
     1
100
AcDbPoint
 10
-2311.985132406204
 20
-816.6194987546104
 30
0.0
1001
GENIUS_GENOBJ-N-CRS_13
1002
{
1000
OWNER
1000
GEN
1002
}
1001
GENIUS_GENOLIS_13
1002
{
1000
ENT
1005
0
1005
0
1005
0
1005
2489
1002
}
1001
GENIUS_GENOENT_13
1002
{
1000
MYREF
1005
249E
1002
}
1002
{
1000
GRP
1005
0
1002
}
1001
GENIUS_GENODEF_13
1002
{
1000
HIER
1070
    10
1002
}
1002
{
1000
MANEDIT
1070
     1
1002
}
1002
{
1000
NOSEL
1070
     0
1002
}
1002
{
1000
BEHIND
1070
     0
1002
}
1002
{
1000
OTHER
1070
     0
1002
}
1002
{
1000
REACTOR
1002
}
  0
POINT
  5
249F
330
1F
100
AcDbEntity
  8
0
 60
     1
100
AcDbPoint
 10
-2305.626458708367
 20
-825.4950852332466
 30
0.0
1001
GENIUS_GENOBJ-N-CRS_13
1002
{
1000
OWNER
1000
GEN
1002
}
1001
GENIUS_GENOLIS_13
1002
{
1000
ENT
1005
0
1005
0
1005
0
1005
2488
1002
}
1001
GENIUS_GENOENT_13
1002
{
1000
MYREF
1005
249F
1002
}
1002
{
1000
GRP
1005
0
1002
}
1001
GENIUS_GENODEF_13
1002
{
1000
HIER
1070
    10
1002
}
1002
{
1000
MANEDIT
1070
     1
1002
}
1002
{
1000
NOSEL
1070
     0
1002
}
1002
{
1000
BEHIND
1070
     0
1002
}
1002
{
1000
OTHER
1070
     0
1002
}
1002
{
1000
REACTOR
1002
}
  0
LINE
  5
29A0
330
1F
100
AcDbEntity
  8
AM_VIS
100
AcDbLine
 10
186.9155814163466
 20
235.7064656289512
 30
0.0
 11
191.4155814163466
 21
235.7064656289512
 31
0.0
  0
LINE
  5
29A1
330
1F
100
AcDbEntity
  8
AM_VIS
100
AcDbLine
 10
186.9155814163466
 20
239.9064656289512
 30
0.0
 11
186.9155814163466
 21
235.7064656289512
 31
0.0
  0
LINE
  5
29A2
330
1F
100
AcDbEntity
  8
AM_VIS
100
AcDbLine
 10
186.9155814163466
 20
240.9564656289512
 30
0.0
 11
186.9155814163466
 21
240.8064656289512
 31
0.0
  0
LINE
  5
29A3
330
1F
100
AcDbEntity
  8
AM_VIS
100
AcDbLine
 10
186.9155814163466
 20
240.9564656289512
 30
0.0
 11
187.9155814163466
 21
241.5564656289512
 31
0.0
  0
LINE
  5
29A4
330
1F
100
AcDbEntity
  8
AM_VIS
100
AcDbLine
 10
191.4155814163466
 20
241.5564656289512
 30
0.0
 11
187.9155814163466
 21
241.5564656289512
 31
0.0
  0
LINE
  5
29A5
330
1F
100
AcDbEntity
  8
AM_VIS
100
AcDbLine
 10
186.9155814163466
 20
239.9064656289512
 30
0.0
 11
186.9155814163466
 21
240.8064656289512
 31
0.0
  0
LINE
  5
29A6
330
1F
100
AcDbEntity
  8
AM_VIS
100
AcDbLine
 10
191.4155814163466
 20
239.9064656289512
 30
0.0
 11
186.9155814163466
 21
239.9064656289512
 31
0.0
  0
LINE
  5
29A7
330
1F
100
AcDbEntity
  8
AM_VIS
100
AcDbLine
 10
186.9155814163466
 20
240.8064656289512
 30
0.0
 11
191.4155814163466
 21
240.8064656289512
 31
0.0
  0
LINE
  5
29A8
330
1F
100
AcDbEntity
  8
AM_VIS
100
AcDbLine
 10
188.4155814163466
 20
237.3064656289512
 30
0.0
 11
189.6155814163465
 21
237.3064656289512
 31
0.0
  0
LINE
  5
29A9
330
1F
100
AcDbEntity
  8
AM_VIS
100
AcDbLine
 10
188.4155814163466
 20
237.3064656289512
 30
0.0
 11
188.4155814163466
 21
238.3064656289512
 31
0.0
  0
LINE
  5
29AA
330
1F
100
AcDbEntity
  8
AM_VIS
100
AcDbLine
 10
189.6155814163465
 20
238.3064656289512
 30
0.0
 11
188.4155814163466
 21
238.3064656289512
 31
0.0
  0
LINE
  5
29AB
330
1F
100
AcDbEntity
  8
AM_VIS
100
AcDbLine
 10
189.6155814163467
 20
237.3064656289512
 30
0.0
 11
189.6155814163467
 21
238.3064656289512
 31
0.0
  0
LINE
  5
29AC
330
1F
100
AcDbEntity
  8
AM_VIS
100
AcDbLine
 10
191.4155814163466
 20
241.8064656289512
 30
0.0
 11
191.4155814163466
 21
239.8064656289512
 31
0.0
  0
LINE
  5
29AD
330
1F
100
AcDbEntity
  8
AM_VIS
100
AcDbLine
 10
192.9155814163466
 20
232.8064656289512
 30
0.0
 11
191.4155814163466
 21
233.8064656289512
 31
0.0
  0
LINE
  5
29AE
330
1F
100
AcDbEntity
  8
AM_VIS
100
AcDbLine
 10
191.4155814163466
 20
235.8064656289512
 30
0.0
 11
191.4155814163466
 21
233.8064656289512
 31
0.0
  0
LINE
  5
29AF
330
1F
100
AcDbEntity
  8
AM_VIS
100
AcDbLine
 10
192.9155814163466
 20
239.8064656289512
 30
0.0
 11
192.9155814163466
 21
242.8064656289512
 31
0.0
  0
LINE
  5
29B0
330
1F
100
AcDbEntity
  8
AM_VIS
100
AcDbLine
 10
196.4155814163466
 20
242.8064656289512
 30
0.0
 11
192.9155814163466
 21
242.8064656289512
 31
0.0
  0
LINE
  5
29B1
330
1F
100
AcDbEntity
  8
AM_VIS
100
AcDbLine
 10
196.4155814163466
 20
232.8064656289511
 30
0.0
 11
196.4155814163466
 21
242.8064656289511
 31
0.0
  0
LINE
  5
29B2
330
1F
100
AcDbEntity
  8
AM_VIS
100
AcDbLine
 10
196.4155814163466
 20
232.8064656289512
 30
0.0
 11
192.9155814163466
 21
232.8064656289512
 31
0.0
  0
LINE
  5
29B3
330
1F
100
AcDbEntity
  8
AM_VIS
100
AcDbLine
 10
192.9155814163466
 20
232.8064656289512
 30
0.0
 11
192.9155814163466
 21
235.8064656289512
 31
0.0
  0
LINE
  5
29B4
330
1F
100
AcDbEntity
  8
AM_VIS
100
AcDbLine
 10
191.4155814163466
 20
239.8064656289512
 30
0.0
 11
192.9155814163466
 21
239.8064656289512
 31
0.0
  0
LINE
  5
29B5
330
1F
100
AcDbEntity
  8
AM_VIS
100
AcDbLine
 10
192.9155814163466
 20
239.8064656289512
 30
0.0
 11
193.7155814163467
 21
239.8064656289512
 31
0.0
  0
LINE
  5
29B6
330
1F
100
AcDbEntity
  8
AM_VIS
100
AcDbLine
 10
193.7155814163467
 20
235.8064656289512
 30
0.0
 11
192.9155814163466
 21
235.8064656289512
 31
0.0
  0
LINE
  5
29B7
330
1F
100
AcDbEntity
  8
AM_VIS
100
AcDbLine
 10
192.9155814163466
 20
235.8064656289512
 30
0.0
 11
191.4155814163466
 21
235.8064656289512
 31
0.0
  0
LINE
  5
29B8
330
1F
100
AcDbEntity
  8
AM_VIS
100
AcDbLine
 10
193.7155814163466
 20
239.8064656289512
 30
0.0
 11
193.7155814163466
 21
235.8064656289512
 31
0.0
  0
LINE
  5
29B9
330
1F
100
AcDbEntity
  8
AM_VIS
100
AcDbLine
 10
192.9984241288213
 20
239.8064656289512
 30
0.0
 11
192.9984241288213
 21
235.8064656289512
 31
0.0
  0
LINE
  5
29BA
330
1F
100
AcDbEntity
  8
AM_VIS
100
AcDbLine
 10
191.4155814163466
 20
235.8064656289512
 30
0.0
 11
191.4155814163466
 21
239.8064656289512
 31
0.0
  0
LINE
  5
29BB
330
1F
100
AcDbEntity
  8
AM_VIS
100
AcDbLine
 10
212.366435328948
 20
235.9873195415532
 30
0.0
 11
215.9159880413948
 21
233.9402055873333
 31
0.0
  0
LINE
  5
29BC
330
1F
100
AcDbEntity
  8
AM_VIS
100
AcDbLine
 10
217.2818414579647
 20
235.3060590039032
 30
0.0
 11
215.2347275037448
 21
238.8556117163498
 31
0.0
  0
LINE
  5
29BD
330
1F
100
AcDbEntity
  8
AM_VIS
100
AcDbLine
 10
212.198913743327
 20
239.5181080488014
 30
0.0
 11
212.5590986814706
 21
239.1579231106577
 31
0.0
  0
LINE
  5
29BE
330
1F
100
AcDbEntity
  8
AM_VIS
100
AcDbLine
 10
212.5590986814707
 20
239.1579231106579
 30
0.0
 11
216.9155564132208
 21
234.8014653789078
 31
0.0
  0
LINE
  5
29BF
330
1F
100
AcDbEntity
  8
AM_VIS
100
AcDbLine
 10
216.9155564132208
 20
234.8014653789078
 30
0.0
 11
217.3254508547363
 21
234.3915709373923
 31
0.0
  0
LINE
  5
29C0
330
1F
100
AcDbEntity
  8
AM_VIS
100
AcDbLine
 10
216.4205816663901
 20
234.3064906320773
 30
0.0
 11
212.0641239346402
 21
238.6629483638273
 31
0.0
  0
LINE
  5
29C1
330
1F
100
AcDbEntity
  8
AM_VIS
100
AcDbLine
 10
211.7039389964965
 20
239.023133301971
 30
0.0
 11
212.0641239346402
 21
238.6629483638273
 31
0.0
  0
LINE
  5
29C2
330
1F
100
AcDbEntity
  8
AM_VIS
100
AcDbLine
 10
216.4205816663901
 20
234.3064906320772
 30
0.0
 11
216.8304761079057
 21
233.8965961905616
 31
0.0
  0
ARC
  5
29C3
330
1F
100
AcDbEntity
  8
AM_VIS
100
AcDbCircle
 10
213.4155814163464
 20
237.8064656289515
 30
0.0
 40
2.1
100
AcDbArc
 50
29.97310154772597
 51
125.4059317731377
  0
ARC
  5
29C4
330
1F
100
AcDbEntity
  8
AM_VIS
100
AcDbCircle
 10
216.4155814163464
 20
234.8064656289515
 30
0.0
 40
1.0
100
AcDbArc
 50
335.4873151147233
 51
29.97310154773042
  0
ARC
  5
29C5
330
1F
100
AcDbEntity
  8
AM_VIS
100
AcDbCircle
 10
213.4155814163464
 20
237.8064656289515
 30
0.0
 40
2.1
100
AcDbArc
 50
144.5940682268609
 51
240.0268984522755
  0
ARC
  5
29C6
330
1F
100
AcDbEntity
  8
AM_VIS
100
AcDbCircle
 10
216.4155814163464
 20
234.8064656289515
 30
0.0
 40
1.0
100
AcDbArc
 50
240.0268984522686
 51
294.5126848852778
  0
ARC
  5
29C7
330
1F
100
AcDbEntity
  8
AM_VIS
100
AcDbCircle
 10
213.4155814163464
 20
237.8064656289515
 30
0.0
 40
2.1
100
AcDbArc
 50
125.4059317731377
 51
144.5940682268609
  0
ARC
  5
29C8
330
1F
100
AcDbEntity
  8
AM_VIS
100
AcDbCircle
 10
216.4155814163464
 20
234.8064656289515
 30
0.0
 40
1.0
100
AcDbArc
 50
294.5126848852778
 51
335.4873151147233
  0
LINE
  5
2AA9
330
1F
100
AcDbEntity
  8
AM_VIS
100
AcDbLine
 10
309.6443011769115
 20
173.7327942912895
 30
0.0
 11
309.6443011769115
 21
189.9327942912894
 31
0.0
  0
LINE
  5
2AAA
330
1F
100
AcDbEntity
  8
AM_VIS
100
AcDbLine
 10
310.4443011769115
 20
189.9327942912894
 30
0.0
 11
309.6443011769113
 21
189.9327942912894
 31
0.0
  0
LINE
  5
2AAB
330
1F
100
AcDbEntity
  8
AM_VIS
100
AcDbLine
 10
321.2443011769114
 20
173.7327942912895
 30
0.0
 11
321.2443011769114
 21
189.9327942912894
 31
0.0
  0
LINE
  5
2AAC
330
1F
100
AcDbEntity
  8
AM_VIS
100
AcDbLine
 10
321.2443011769114
 20
189.9327942912894
 30
0.0
 11
320.4443011769115
 21
189.9327942912894
 31
0.0
  0
LINE
  5
2AAD
330
1F
100
AcDbEntity
  8
AM_VIS
100
AcDbLine
 10
319.821306524505
 20
173.7327942912895
 30
0.0
 11
319.8229519272929
 21
173.7327942912895
 31
0.0
  0
LINE
  5
2AAE
330
1F
100
AcDbEntity
  8
AM_VIS
100
AcDbLine
 10
319.8025899469649
 20
173.7327942912895
 30
0.0
 11
319.821306524505
 21
173.7327942912895
 31
0.0
  0
LINE
  5
2AAF
330
1F
100
AcDbEntity
  8
AM_VIS
100
AcDbLine
 10
319.6929642785158
 20
173.7327942912895
 30
0.0
 11
319.8025899469649
 21
173.7327942912895
 31
0.0
  0
LINE
  5
2AB0
330
1F
100
AcDbEntity
  8
AM_VIS
100
AcDbLine
 10
312.81380850048
 20
173.7327942912895
 30
0.0
 11
312.8154473304205
 21
173.7327942912895
 31
0.0
  0
LINE
  5
2AB1
330
1F
100
AcDbEntity
  8
AM_VIS
100
AcDbLine
 10
312.7951666895612
 20
173.7327942912895
 30
0.0
 11
312.81380850048
 21
173.7327942912895
 31
0.0
  0
LINE
  5
2AB2
330
1F
100
AcDbEntity
  8
AM_VIS
100
AcDbLine
 10
312.6859789398941
 20
173.7327942912895
 30
0.0
 11
312.7951666895612
 21
173.7327942912895
 31
0.0
  0
LINE
  5
2AB3
330
1F
100
AcDbEntity
  8
AM_VIS
100
AcDbLine
 10
319.6356055247374
 20
173.7327942912895
 30
0.0
 11
319.6519098725637
 21
173.7327942912895
 31
0.0
  0
LINE
  5
2AB4
330
1F
100
AcDbEntity
  8
AM_VIS
100
AcDbLine
 10
319.5269098725637
 20
173.7327942912895
 30
0.0
 11
319.6356055247374
 21
173.7327942912895
 31
0.0
  0
LINE
  5
2AB5
330
1F
100
AcDbEntity
  8
AM_VIS
100
AcDbLine
 10
318.725279437781
 20
173.7327942912895
 30
0.0
 11
318.7361490029985
 21
173.7327942912895
 31
0.0
  0
LINE
  5
2AB6
330
1F
100
AcDbEntity
  8
AM_VIS
100
AcDbLine
 10
309.6443011769115
 20
173.7327942912895
 30
0.0
 11
310.4443011769115
 21
173.7327942912895
 31
0.0
  0
LINE
  5
2AB7
330
1F
100
AcDbEntity
  8
AM_VIS
100
AcDbLine
 10
320.4443011769115
 20
173.7327942912895
 30
0.0
 11
321.2443011769114
 21
173.7327942912895
 31
0.0
  0
LINE
  5
2AB8
330
1F
100
AcDbEntity
  8
AM_VIS
100
AcDbLine
 10
320.4443011769115
 20
174.7327942912894
 30
0.0
 11
313.3456889957774
 21
174.7327942912894
 31
0.0
  0
LINE
  5
2AB9
330
1F
100
AcDbEntity
  8
AM_VIS
100
AcDbLine
 10
310.4443011769115
 20
173.7327942912895
 30
0.0
 11
320.4443011769115
 21
173.7327942912895
 31
0.0
  0
LINE
  5
2ABA
330
1F
100
AcDbEntity
  8
AM_VIS
100
AcDbLine
 10
311.5429133580456
 20
174.7327942912894
 30
0.0
 11
310.4443011769115
 21
174.7327942912894
 31
0.0
  0
ARC
  5
2ABB
330
1F
100
AcDbEntity
  8
AM_VIS
100
AcDbCircle
 10
312.4443011769115
 20
176.2327942912895
 30
0.0
 40
1.749999999999999
100
AcDbArc
 50
238.9972808661249
 51
301.0027191338751
  0
LINE
  5
2ABC
330
1F
100
AcDbEntity
  8
AM_VIS
100
AcDbLine
 10
310.4443011769115
 20
174.7327942912894
 30
0.0
 11
310.4443011769115
 21
175.0327942912894
 31
0.0
  0
LINE
  5
2ABD
330
1F
100
AcDbEntity
  8
AM_VIS
100
AcDbLine
 10
310.4443011769115
 20
174.7327942912894
 30
0.0
 11
310.4443011769115
 21
173.7327942912895
 31
0.0
  0
ARC
  5
2ABE
330
1F
100
AcDbEntity
  8
AM_VIS
100
AcDbCircle
 10
315.4443011769115
 20
183.7327942912894
 30
0.0
 40
5.100000000000002
100
AcDbArc
 50
168.6351230329666
 51
191.3648769670333
  0
LINE
  5
2ABF
330
1F
100
AcDbEntity
  8
AM_VIS
100
AcDbLine
 10
320.4443011769115
 20
173.7327942912894
 30
0.0
 11
320.4443011769115
 21
174.7327942912894
 31
0.0
  0
LINE
  5
2AC0
330
1F
100
AcDbEntity
  8
AM_VIS
100
AcDbLine
 10
320.4443011769115
 20
175.0327942912894
 30
0.0
 11
320.4443011769115
 21
174.7327942912894
 31
0.0
  0
ARC
  5
2AC1
330
1F
100
AcDbEntity
  8
AM_VIS
100
AcDbCircle
 10
315.4443011769115
 20
183.7327942912894
 30
0.0
 40
5.099999999999998
100
AcDbArc
 50
348.6351230329666
 51
11.36487696703335
  0
ARC
  5
2AC2
330
1F
100
AcDbEntity
  8
AM_VIS
100
AcDbCircle
 10
312.4443011769115
 20
176.2327942912895
 30
0.0
 40
1.75
100
AcDbArc
 50
301.0027191338719
 51
316.7081924067304
  0
ARC
  5
2AC3
330
1F
100
AcDbEntity
  8
AM_VIS
100
AcDbCircle
 10
312.4443011769115
 20
176.2327942912895
 30
0.0
 40
1.75
100
AcDbArc
 50
223.2918075932695
 51
238.9972808661281
  0
LINE
  5
2AC4
330
1F
100
AcDbEntity
  8
AM_VIS
100
AcDbLine
 10
312.8443011769113
 20
185.5327942912895
 30
0.0
 11
312.8443011769113
 21
182.8327648792703
 31
0.0
  0
LINE
  5
2AC5
330
1F
100
AcDbEntity
  8
AM_VIS
100
AcDbLine
 10
311.5443011769114
 20
178.1327942912894
 30
0.0
 11
319.3443011769113
 21
178.1327942912894
 31
0.0
  0
LINE
  5
2AC6
330
1F
100
AcDbEntity
  8
AM_VIS
100
AcDbLine
 10
318.8443011769114
 20
178.6327942912895
 30
0.0
 11
318.8443011769114
 21
178.1327942912895
 31
0.0
  0
LINE
  5
2AC7
330
1F
100
AcDbEntity
  8
AM_VIS
100
AcDbLine
 10
312.0443011769114
 20
178.1327942912894
 30
0.0
 11
312.0443011769114
 21
178.6327942912894
 31
0.0
  0
LINE
  5
2AC8
330
1F
100
AcDbEntity
  8
AM_VIS
100
AcDbLine
 10
318.0443011769114
 20
182.8327648792703
 30
0.0
 11
318.0443011769114
 21
185.5327942912895
 31
0.0
  0
LINE
  5
2AC9
330
1F
100
AcDbEntity
  8
AM_VIS
100
AcDbLine
 10
320.4443011769115
 20
182.8327942912894
 30
0.0
 11
320.4443011769115
 21
179.3127942912894
 31
0.0
  0
ARC
  5
2ACA
330
1F
100
AcDbEntity
  8
AM_VIS
100
AcDbCircle
 10
318.6993020445441
 20
181.1353017876369
 30
0.0
 40
1.825539782311344
100
AcDbArc
 50
198.6363679025974
 51
214.6231278646418
  0
LINE
  5
2ACB
330
1F
100
AcDbEntity
  8
AM_VIS
100
AcDbLine
 10
311.5443011769114
 20
178.6327942912894
 30
0.0
 11
312.1943011769115
 21
178.6327942912894
 31
0.0
  0
LINE
  5
2ACC
330
1F
100
AcDbEntity
  8
AM_VIS
100
AcDbLine
 10
311.5443011769114
 20
176.1327942912895
 30
0.0
 11
311.5443011769114
 21
178.6327942912895
 31
0.0
  0
LINE
  5
2ACD
330
1F
100
AcDbEntity
  8
AM_VIS
100
AcDbLine
 10
319.3443011769113
 20
176.1327942912895
 30
0.0
 11
311.5443011769114
 21
176.1327942912895
 31
0.0
  0
LINE
  5
2ACE
330
1F
100
AcDbEntity
  8
AM_VIS
100
AcDbLine
 10
319.3443011769113
 20
178.6327942912894
 30
0.0
 11
319.3443011769113
 21
176.1327942912895
 31
0.0
  0
LINE
  5
2ACF
330
1F
100
AcDbEntity
  8
AM_VIS
100
AcDbLine
 10
318.6943011769115
 20
178.6327942912894
 30
0.0
 11
319.3443011769116
 21
178.6327942912894
 31
0.0
  0
LINE
  5
2AD0
330
1F
100
AcDbEntity
  8
AM_VIS
100
AcDbLine
 10
320.4443011769115
 20
179.3127942912894
 30
0.0
 11
318.6943011769115
 21
179.3127942912894
 31
0.0
  0
LINE
  5
2AD1
330
1F
100
AcDbEntity
  8
AM_VIS
100
AcDbLine
 10
320.4443011769115
 20
179.3127942912894
 30
0.0
 11
320.4443011769115
 21
175.0327942912895
 31
0.0
  0
LINE
  5
2AD2
330
1F
100
AcDbEntity
  8
AM_VIS
100
AcDbLine
 10
320.4443011769115
 20
175.0327942912895
 30
0.0
 11
310.4443011769115
 21
175.0327942912895
 31
0.0
  0
LINE
  5
2AD3
330
1F
100
AcDbEntity
  8
AM_VIS
100
AcDbLine
 10
310.4443011769115
 20
175.0327942912895
 30
0.0
 11
310.4443011769115
 21
179.3127942912894
 31
0.0
  0
LINE
  5
2AD4
330
1F
100
AcDbEntity
  8
AM_VIS
100
AcDbLine
 10
310.4443011769115
 20
179.3127942912894
 30
0.0
 11
310.4443011769115
 21
182.8327942912894
 31
0.0
  0
ARC
  5
2AD5
330
1F
100
AcDbEntity
  8
AM_VIS
100
AcDbCircle
 10
312.1893003092694
 20
181.1353017876416
 30
0.0
 40
1.825539782321749
100
AcDbArc
 50
325.3768721354038
 51
341.3636320973548
  0
LINE
  5
2AD6
330
1F
100
AcDbEntity
  8
AM_VIS
100
AcDbLine
 10
312.1943011769115
 20
179.3127942912894
 30
0.0
 11
310.4443011769115
 21
179.3127942912894
 31
0.0
  0
LINE
  5
2AD7
330
1F
100
AcDbEntity
  8
AM_VIS
100
AcDbLine
 10
316.9139950225813
 20
182.2327942912895
 30
0.0
 11
315.8443011769114
 21
182.2327942912895
 31
0.0
  0
LINE
  5
2AD8
330
1F
100
AcDbEntity
  8
AM_VIS
100
AcDbLine
 10
315.0443011769114
 20
182.2327942912895
 30
0.0
 11
313.9746073312415
 21
182.2327942912895
 31
0.0
  0
LINE
  5
2AD9
330
1F
100
AcDbEntity
  8
AM_VIS
100
AcDbLine
 10
315.8443011769114
 20
182.8327942912894
 30
0.0
 11
316.9139950225813
 21
182.8327942912894
 31
0.0
  0
LINE
  5
2ADA
330
1F
100
AcDbEntity
  8
AM_VIS
100
AcDbLine
 10
313.9746073312415
 20
182.8327942912894
 30
0.0
 11
315.0443011769114
 21
182.8327942912894
 31
0.0
  0
ARC
  5
2ADB
330
1F
100
AcDbEntity
  8
AM_VIS
100
AcDbCircle
 10
315.4443011769115
 20
182.5327942912895
 30
0.0
 40
2.5
100
AcDbArc
 50
232.4052366676986
 51
307.5947633323015
  0
ARC
  5
2ADC
330
1F
100
AcDbEntity
  8
AM_VIS
100
AcDbCircle
 10
315.4443011769115
 20
182.5327942912895
 30
0.0
 40
3.0
100
AcDbArc
 50
247.307722008551
 51
292.692277991449
  0
ARC
  5
2ADD
330
1F
100
AcDbEntity
  8
AM_VIS
100
AcDbCircle
 10
318.6943011769115
 20
181.1327942912894
 30
0.0
 40
1.819999999999999
100
AcDbArc
 50
110.9248324276368
 51
198.6118775363953
  0
ARC
  5
2ADE
330
1F
100
AcDbEntity
  8
AM_VIS
100
AcDbCircle
 10
315.4443011769115
 20
182.5327942912895
 30
0.0
 40
3.0
100
AcDbArc
 50
234.2499471461086
 51
247.307722008551
  0
ARC
  5
2ADF
330
1F
100
AcDbEntity
  8
AM_VIS
100
AcDbCircle
 10
312.1943011769115
 20
181.1327942912894
 30
0.0
 40
2.5
100
AcDbArc
 50
270.0
 51
326.831157478121
  0
ARC
  5
2AE0
330
1F
100
AcDbEntity
  8
AM_VIS
100
AcDbCircle
 10
318.6943011769115
 20
181.1327942912894
 30
0.0
 40
2.5
100
AcDbArc
 50
213.168842521879
 51
270.0
  0
ARC
  5
2AE1
330
1F
100
AcDbEntity
  8
AM_VIS
100
AcDbCircle
 10
315.4443011769115
 20
182.5327942912895
 30
0.0
 40
3.0
100
AcDbArc
 50
292.692277991449
 51
305.7500528538914
  0
ARC
  5
2AE2
330
1F
100
AcDbEntity
  8
AM_VIS
100
AcDbCircle
 10
318.6943011769115
 20
181.1327942912894
 30
0.0
 40
1.819999999999999
100
AcDbArc
 50
214.6476182308366
 51
270.0
  0
ARC
  5
2AE3
330
1F
100
AcDbEntity
  8
AM_VIS
100
AcDbCircle
 10
312.1943011769115
 20
181.1327942912894
 30
0.0
 40
1.819999999999999
100
AcDbArc
 50
69.07516757236319
 51
69.07776031742585
  0
ARC
  5
2AE4
330
1F
100
AcDbEntity
  8
AM_VIS
100
AcDbCircle
 10
312.1943011769115
 20
181.1327942912894
 30
0.0
 40
1.819999999999999
100
AcDbArc
 50
341.3881224636047
 51
69.07516757236319
  0
ARC
  5
2AE5
330
1F
100
AcDbEntity
  8
AM_VIS
100
AcDbCircle
 10
312.1943011769115
 20
181.1327942912894
 30
0.0
 40
1.819999999999999
100
AcDbArc
 50
270.0
 51
325.3523817691634
  0
CIRCLE
  5
2AE6
330
1F
100
AcDbEntity
  8
AM_VIS
100
AcDbCircle
 10
315.4443011769115
 20
182.5327942912895
 30
0.0
 40
1.6
  0
ARC
  5
2AE7
330
1F
100
AcDbEntity
  8
AM_VIS
100
AcDbCircle
 10
315.4443011769115
 20
182.5327942912895
 30
0.0
 40
1.5
100
AcDbArc
 50
11.53695903281574
 51
168.4630409671842
  0
ARC
  5
2AE8
330
1F
100
AcDbEntity
  8
AM_VIS
100
AcDbCircle
 10
315.4443011769115
 20
182.5327942912895
 30
0.0
 40
1.5
100
AcDbArc
 50
191.5369590328157
 51
348.4630409671843
  0
ARC
  5
2AE9
330
1F
100
AcDbEntity
  8
AM_VIS
100
AcDbCircle
 10
315.4443011769115
 20
182.5327942912895
 30
0.0
 40
1.5
100
AcDbArc
 50
348.4630409671843
 51
11.53695903281574
  0
ARC
  5
2AEA
330
1F
100
AcDbEntity
  8
AM_VIS
100
AcDbCircle
 10
315.4443011769115
 20
182.5327942912895
 30
0.0
 40
1.5
100
AcDbArc
 50
168.4630409671842
 51
191.5369590328157
  0
ARC
  5
2AEB
330
1F
100
AcDbEntity
  8
AM_VIS
100
AcDbCircle
 10
315.4443011769115
 20
182.5327942912895
 30
0.0
 40
0.5
100
AcDbArc
 50
323.1301023541534
 51
36.86989764584467
  0
ARC
  5
2AEC
330
1F
100
AcDbEntity
  8
AM_VIS
100
AcDbCircle
 10
315.4443011769115
 20
182.5327942912895
 30
0.0
 40
0.5
100
AcDbArc
 50
216.8698976458447
 51
323.1301023541534
  0
ARC
  5
2AED
330
1F
100
AcDbEntity
  8
AM_VIS
100
AcDbCircle
 10
315.4443011769115
 20
182.5327942912895
 30
0.0
 40
0.5
100
AcDbArc
 50
143.1301023541553
 51
216.8698976458447
  0
ARC
  5
2AEE
330
1F
100
AcDbEntity
  8
AM_VIS
100
AcDbCircle
 10
315.4443011769115
 20
182.5327942912895
 30
0.0
 40
0.5
100
AcDbArc
 50
36.86989764584467
 51
143.1301023541553
  0
LINE
  5
2AEF
330
1F
100
AcDbEntity
  8
AM_VIS
100
AcDbLine
 10
310.4443011769115
 20
183.3327942912895
 30
0.0
 11
310.4443011769115
 21
185.5327942912895
 31
0.0
  0
LINE
  5
2AF0
330
1F
100
AcDbEntity
  8
AM_VIS
100
AcDbLine
 10
312.8443011769113
 20
183.3327942912895
 30
0.0
 11
312.8443011769113
 21
185.5327942912895
 31
0.0
  0
LINE
  5
2AF1
330
1F
100
AcDbEntity
  8
AM_VIS
100
AcDbLine
 10
312.8443011769113
 20
183.3327942912895
 30
0.0
 11
310.4443011769115
 21
183.3327942912895
 31
0.0
  0
LINE
  5
2AF2
330
1F
100
AcDbEntity
  8
AM_VIS
100
AcDbLine
 10
310.4443011769115
 20
182.8327942912895
 30
0.0
 11
312.8443011769113
 21
182.8327942912895
 31
0.0
  0
LINE
  5
2AF3
330
1F
100
AcDbEntity
  8
AM_VIS
100
AcDbLine
 10
310.4443011769115
 20
183.3327942912895
 30
0.0
 11
310.4443011769115
 21
182.8327942912895
 31
0.0
  0
LINE
  5
2AF4
330
1F
100
AcDbEntity
  8
AM_VIS
100
AcDbLine
 10
320.4443011769115
 20
183.3327942912895
 30
0.0
 11
320.4443011769115
 21
185.5327942912895
 31
0.0
  0
LINE
  5
2AF5
330
1F
100
AcDbEntity
  8
AM_VIS
100
AcDbLine
 10
318.0443011769114
 20
185.5327942912895
 30
0.0
 11
318.0443011769114
 21
183.3327942912895
 31
0.0
  0
LINE
  5
2AF6
330
1F
100
AcDbEntity
  8
AM_VIS
100
AcDbLine
 10
320.4443011769115
 20
183.3327942912895
 30
0.0
 11
318.0443011769114
 21
183.3327942912895
 31
0.0
  0
LINE
  5
2AF7
330
1F
100
AcDbEntity
  8
AM_VIS
100
AcDbLine
 10
320.4443011769115
 20
182.8327942912894
 30
0.0
 11
320.4443011769115
 21
183.3327942912895
 31
0.0
  0
LINE
  5
2AF8
330
1F
100
AcDbEntity
  8
AM_VIS
100
AcDbLine
 10
318.0443011769114
 20
182.8327942912895
 30
0.0
 11
320.4443011769115
 21
182.8327942912895
 31
0.0
  0
LINE
  5
2AF9
330
1F
100
AcDbEntity
  8
AM_VIS
100
AcDbLine
 10
310.4443011769115
 20
185.5327942912895
 30
0.0
 11
320.4443011769115
 21
185.5327942912895
 31
0.0
  0
LINE
  5
2AFA
330
1F
100
AcDbEntity
  8
AM_VIS
100
AcDbLine
 10
320.4443011769115
 20
185.5327942912895
 30
0.0
 11
320.4443011769115
 21
202.5327942912895
 31
0.0
  0
LINE
  5
2AFB
330
1F
100
AcDbEntity
  8
AM_VIS
100
AcDbLine
 10
319.4443011769115
 20
187.0327942912895
 30
0.0
 11
320.4443011769115
 21
185.5327942912895
 31
0.0
  0
LINE
  5
2AFC
330
1F
100
AcDbEntity
  8
AM_VIS
100
AcDbLine
 10
310.4443011769115
 20
185.5327942912895
 30
0.0
 11
311.4443011769115
 21
187.0327942912895
 31
0.0
  0
LINE
  5
2AFD
330
1F
100
AcDbEntity
  8
AM_VIS
100
AcDbLine
 10
310.4443011769115
 20
202.5327942912895
 30
0.0
 11
310.4443011769115
 21
185.5327942912895
 31
0.0
  0
LINE
  5
2AFE
330
1F
100
AcDbEntity
  8
AM_VIS
100
AcDbLine
 10
311.4443011769115
 20
201.0327942912895
 30
0.0
 11
310.4443011769115
 21
202.5327942912895
 31
0.0
  0
LINE
  5
2AFF
330
1F
100
AcDbEntity
  8
AM_VIS
100
AcDbLine
 10
319.1943011769115
 20
193.1327942912895
 30
0.0
 11
319.1943011769115
 21
198.5327942912895
 31
0.0
  0
LINE
  5
2B00
330
1F
100
AcDbEntity
  8
AM_VIS
100
AcDbLine
 10
312.6943011769115
 20
197.5327942912895
 30
0.0
 11
318.1943011769115
 21
197.5327942912895
 31
0.0
  0
LINE
  5
2B01
330
1F
100
AcDbEntity
  8
AM_VIS
100
AcDbLine
 10
312.6943011769115
 20
194.1327942912895
 30
0.0
 11
312.6943011769115
 21
197.5327942912895
 31
0.0
  0
LINE
  5
2B02
330
1F
100
AcDbEntity
  8
AM_VIS
100
AcDbLine
 10
318.1943011769115
 20
194.1327942912895
 30
0.0
 11
312.6943011769115
 21
194.1327942912895
 31
0.0
  0
LINE
  5
2B03
330
1F
100
AcDbEntity
  8
AM_VIS
100
AcDbLine
 10
318.1943011769115
 20
197.5327942912895
 30
0.0
 11
318.1943011769115
 21
194.1327942912895
 31
0.0
  0
LINE
  5
2B04
330
1F
100
AcDbEntity
  8
AM_VIS
100
AcDbLine
 10
318.5943011769114
 20
198.5327942912895
 30
0.0
 11
318.5943011769114
 21
193.4327942912895
 31
0.0
  0
LINE
  5
2B05
330
1F
100
AcDbEntity
  8
AM_VIS
100
AcDbLine
 10
311.6943011769115
 20
198.5327942912895
 30
0.0
 11
311.6943011769115
 21
193.1327942912895
 31
0.0
  0
LINE
  5
2B06
330
1F
100
AcDbEntity
  8
AM_VIS
100
AcDbLine
 10
312.2943011769114
 20
193.4327942912895
 30
0.0
 11
312.2943011769114
 21
198.5327942912895
 31
0.0
  0
LINE
  5
2B07
330
1F
100
AcDbEntity
  8
AM_VIS
100
AcDbLine
 10
318.5943011769114
 20
193.4327942912895
 30
0.0
 11
312.2943011769114
 21
193.4327942912895
 31
0.0
  0
LINE
  5
2B08
330
1F
100
AcDbEntity
  8
AM_VIS
100
AcDbLine
 10
319.1943011769115
 20
193.1327942912895
 30
0.0
 11
318.5943011769114
 21
193.4327942912895
 31
0.0
  0
LINE
  5
2B09
330
1F
100
AcDbEntity
  8
AM_VIS
100
AcDbLine
 10
311.6943011769115
 20
193.1327942912895
 30
0.0
 11
319.1943011769115
 21
193.1327942912895
 31
0.0
  0
LINE
  5
2B0A
330
1F
100
AcDbEntity
  8
AM_VIS
100
AcDbLine
 10
312.2943011769114
 20
193.4327942912895
 30
0.0
 11
311.6943011769115
 21
193.1327942912895
 31
0.0
  0
LINE
  5
2B0B
330
1F
100
AcDbEntity
  8
AM_VIS
100
AcDbLine
 10
319.1943011769115
 20
198.5327942912895
 30
0.0
 11
318.5943011769114
 21
198.5327942912895
 31
0.0
  0
LINE
  5
2B0C
330
1F
100
AcDbEntity
  8
AM_VIS
100
AcDbLine
 10
318.4443011769115
 20
198.5327942912895
 30
0.0
 11
318.5943011769114
 21
198.5327942912895
 31
0.0
  0
LINE
  5
2B0D
330
1F
100
AcDbEntity
  8
AM_VIS
100
AcDbLine
 10
318.4443011769115
 20
200.0327942912895
 30
0.0
 11
317.5443011769114
 21
200.0327942912895
 31
0.0
  0
LINE
  5
2B0E
330
1F
100
AcDbEntity
  8
AM_VIS
100
AcDbLine
 10
318.4443011769115
 20
198.5327942912895
 30
0.0
 11
318.4443011769115
 21
200.0327942912895
 31
0.0
  0
LINE
  5
2B0F
330
1F
100
AcDbEntity
  8
AM_VIS
100
AcDbLine
 10
317.5443011769114
 20
198.5327942912895
 30
0.0
 11
317.5443011769114
 21
200.0327942912895
 31
0.0
  0
LINE
  5
2B10
330
1F
100
AcDbEntity
  8
AM_VIS
100
AcDbLine
 10
313.3443011769113
 20
198.5327942912895
 30
0.0
 11
317.5443011769114
 21
198.5327942912895
 31
0.0
  0
LINE
  5
2B11
330
1F
100
AcDbEntity
  8
AM_VIS
100
AcDbLine
 10
312.2943011769114
 20
198.5327942912895
 30
0.0
 11
312.4443011769115
 21
198.5327942912895
 31
0.0
  0
LINE
  5
2B12
330
1F
100
AcDbEntity
  8
AM_VIS
100
AcDbLine
 10
312.2943011769114
 20
198.5327942912895
 30
0.0
 11
311.6943011769115
 21
198.5327942912895
 31
0.0
  0
LINE
  5
2B13
330
1F
100
AcDbEntity
  8
AM_VIS
100
AcDbLine
 10
313.3443011769113
 20
200.0327942912895
 30
0.0
 11
312.4443011769115
 21
200.0327942912895
 31
0.0
  0
LINE
  5
2B14
330
1F
100
AcDbEntity
  8
AM_VIS
100
AcDbLine
 10
313.3443011769113
 20
198.5327942912895
 30
0.0
 11
313.3443011769113
 21
200.0327942912895
 31
0.0
  0
LINE
  5
2B15
330
1F
100
AcDbEntity
  8
AM_VIS
100
AcDbLine
 10
312.4443011769115
 20
198.5327942912895
 30
0.0
 11
312.4443011769115
 21
200.0327942912895
 31
0.0
  0
LINE
  5
2B16
330
1F
100
AcDbEntity
  8
AM_VIS
100
AcDbLine
 10
315.9443011769115
 20
198.5327942912895
 30
0.0
 11
315.9443011769115
 21
199.0327942912895
 31
0.0
  0
LINE
  5
2B17
330
1F
100
AcDbEntity
  8
AM_VIS
100
AcDbLine
 10
314.9443011769115
 20
199.0327942912895
 30
0.0
 11
314.9443011769115
 21
198.5327942912895
 31
0.0
  0
LINE
  5
2B18
330
1F
100
AcDbEntity
  8
AM_VIS
100
AcDbLine
 10
315.9443011769115
 20
199.0327942912895
 30
0.0
 11
314.9443011769115
 21
199.0327942912895
 31
0.0
  0
LINE
  5
2B19
330
1F
100
AcDbEntity
  8
AM_VIS
100
AcDbLine
 10
319.4443011769115
 20
201.0327942912895
 30
0.0
 11
319.4443011769115
 21
187.0327942912895
 31
0.0
  0
LINE
  5
2B1A
330
1F
100
AcDbEntity
  8
AM_VIS
100
AcDbLine
 10
319.4443011769115
 20
187.0327942912895
 30
0.0
 11
311.4443011769115
 21
187.0327942912895
 31
0.0
  0
LINE
  5
2B1B
330
1F
100
AcDbEntity
  8
AM_VIS
100
AcDbLine
 10
311.4443011769115
 20
187.0327942912895
 30
0.0
 11
311.4443011769115
 21
201.0327942912895
 31
0.0
  0
LINE
  5
2B1C
330
1F
100
AcDbEntity
  8
AM_VIS
100
AcDbLine
 10
311.4443011769115
 20
201.0327942912895
 30
0.0
 11
313.4443011769115
 21
201.0327942912895
 31
0.0
  0
LINE
  5
2B1D
330
1F
100
AcDbEntity
  8
AM_VIS
100
AcDbLine
 10
320.4443011769115
 20
202.5327942912895
 30
0.0
 11
319.4443011769115
 21
201.0327942912895
 31
0.0
  0
LINE
  5
2B1E
330
1F
100
AcDbEntity
  8
AM_VIS
100
AcDbLine
 10
317.4443011769115
 20
201.0327942912895
 30
0.0
 11
319.4443011769115
 21
201.0327942912895
 31
0.0
  0
LINE
  5
2B1F
330
1F
100
AcDbEntity
  8
AM_VIS
100
AcDbLine
 10
313.4443011769115
 20
202.5327942912895
 30
0.0
 11
310.4443011769115
 21
202.5327942912895
 31
0.0
  0
LINE
  5
2B20
330
1F
100
AcDbEntity
  8
AM_VIS
100
AcDbLine
 10
320.4443011769115
 20
202.5327942912895
 30
0.0
 11
317.4443011769115
 21
202.5327942912895
 31
0.0
  0
LINE
  5
2B21
330
1F
100
AcDbEntity
  8
AM_VIS
100
AcDbLine
 10
313.4443011769115
 20
200.7499515788149
 30
0.0
 11
313.4443011769115
 21
201.0327942912895
 31
0.0
  0
LINE
  5
2B22
330
1F
100
AcDbEntity
  8
AM_VIS
100
AcDbLine
 10
313.4443011769115
 20
201.0327942912895
 30
0.0
 11
313.4443011769115
 21
202.5327942912895
 31
0.0
  0
LINE
  5
2B23
330
1F
100
AcDbEntity
  8
AM_VIS
100
AcDbLine
 10
317.4443011769115
 20
201.0327942912895
 30
0.0
 11
317.4443011769115
 21
200.7499515788149
 31
0.0
  0
LINE
  5
2B24
330
1F
100
AcDbEntity
  8
AM_VIS
100
AcDbLine
 10
317.4443011769115
 20
202.5327942912895
 30
0.0
 11
317.4443011769115
 21
201.0327942912895
 31
0.0
  0
LINE
  5
2B25
330
1F
100
AcDbEntity
  8
AM_VIS
100
AcDbLine
 10
313.4443011769115
 20
202.5327942912895
 30
0.0
 11
317.4443011769115
 21
202.5327942912895
 31
0.0
  0
LINE
  5
2B26
330
1F
100
AcDbEntity
  8
AM_VIS
100
AcDbLine
 10
313.4443011769115
 20
202.3327942912895
 30
0.0
 11
317.4443011769115
 21
202.3327942912895
 31
0.0
  0
LINE
  5
2B27
330
1F
100
AcDbEntity
  8
AM_VIS
100
AcDbLine
 10
317.4443011769115
 20
200.7499515788149
 30
0.0
 11
313.4443011769115
 21
200.7499515788149
 31
0.0
  0
CIRCLE
  5
2B28
330
1F
100
AcDbEntity
  8
AM_VIS
100
AcDbCircle
 10
316.9443011769115
 20
195.3327942912895
 30
0.0
 40
0.25
  0
CIRCLE
  5
2B29
330
1F
100
AcDbEntity
  8
AM_VIS
100
AcDbCircle
 10
313.9443011769115
 20
195.3327942912895
 30
0.0
 40
0.25
  0
LINE
  5
2B2A
330
1F
100
AcDbEntity
  8
AM_VIS
100
AcDbLine
 10
312.410389491168
 20
181.185823438386
 30
0.0
 11
312.1943011769115
 21
181.1327942912894
 31
0.0
  0
LINE
  5
2B2B
330
1F
100
AcDbEntity
  8
AM_VIS
100
AcDbLine
 10
312.1943011769115
 20
181.1327942912894
 30
0.0
 11
311.9782128626548
 21
181.0797651441929
 31
0.0
  0
LINE
  5
2B2C
330
1F
100
AcDbEntity
  8
AM_VIS
100
AcDbLine
 10
312.1943011769115
 20
181.1327942912894
 30
0.0
 11
312.463418638265
 21
180.969735124129
 31
0.0
  0
LINE
  5
2B2D
330
1F
100
AcDbEntity
  8
AM_VIS
100
AcDbLine
 10
312.3573603440709
 20
181.4019117526417
 30
0.0
 11
312.1943011769115
 21
181.1327942912894
 31
0.0
  0
LINE
  5
2B2E
330
1F
100
AcDbEntity
  8
AM_VIS
100
AcDbLine
 10
312.463418638265
 20
180.9697351241275
 30
0.0
 11
312.3573603440718
 21
181.4019117526405
 31
0.0
  0
LINE
  5
2B2F
330
1F
100
AcDbEntity
  8
AM_VIS
100
AcDbLine
 10
311.9251837155589
 20
181.2958534584475
 30
0.0
 11
312.3573603440718
 21
181.4019117526406
 31
0.0
  0
LINE
  5
2B30
330
1F
100
AcDbEntity
  8
AM_VIS
100
AcDbLine
 10
312.2473303240083
 20
180.916705977031
 30
0.0
 11
312.1943011769115
 21
181.1327942912894
 31
0.0
  0
LINE
  5
2B31
330
1F
100
AcDbEntity
  8
AM_VIS
100
AcDbLine
 10
312.0312420097509
 20
180.8636768299358
 30
0.0
 11
312.1943011769115
 21
181.1327942912894
 31
0.0
  0
LINE
  5
2B32
330
1F
100
AcDbEntity
  8
AM_VIS
100
AcDbLine
 10
311.9251837155589
 20
181.2958534584475
 30
0.0
 11
312.0312420097519
 21
180.8636768299345
 31
0.0
  0
LINE
  5
2B33
330
1F
100
AcDbEntity
  8
AM_VIS
100
AcDbLine
 10
312.1943011769115
 20
181.1327942912894
 30
0.0
 11
312.1412720298153
 21
181.348882605544
 31
0.0
  0
LINE
  5
2B34
330
1F
100
AcDbEntity
  8
AM_VIS
100
AcDbLine
 10
312.1943011769115
 20
181.1327942912894
 30
0.0
 11
311.9251837155591
 21
181.295853458449
 31
0.0
  0
LINE
  5
2B35
330
1F
100
AcDbEntity
  8
AM_VIS
100
AcDbLine
 10
312.463418638265
 20
180.9697351241275
 30
0.0
 11
312.0312420097521
 21
180.8636768299345
 31
0.0
  0
LINE
  5
2B36
330
1F
100
AcDbEntity
  8
AM_VIS
100
AcDbLine
 10
312.463418638265
 20
180.9697351241275
 30
0.0
 11
312.5260854310395
 21
180.7143743960737
 31
0.0
  0
LINE
  5
2B37
330
1F
100
AcDbEntity
  8
AM_VIS
100
AcDbLine
 10
312.463418638265
 20
180.9697351241275
 30
0.0
 11
312.7187793663197
 21
181.0324019169029
 31
0.0
  0
LINE
  5
2B38
330
1F
100
AcDbEntity
  8
AM_VIS
100
AcDbLine
 10
312.2946935512962
 20
181.6572724806982
 30
0.0
 11
312.3573603440718
 21
181.4019117526405
 31
0.0
  0
LINE
  5
2B39
330
1F
100
AcDbEntity
  8
AM_VIS
100
AcDbLine
 10
312.3573603440718
 20
181.4019117526406
 30
0.0
 11
312.6127210721286
 21
181.4645785454164
 31
0.0
  0
LINE
  5
2B3A
330
1F
100
AcDbEntity
  8
AM_VIS
100
AcDbLine
 10
311.8625169227828
 20
181.5512141865051
 30
0.0
 11
311.9251837155589
 21
181.2958534584475
 31
0.0
  0
LINE
  5
2B3B
330
1F
100
AcDbEntity
  8
AM_VIS
100
AcDbLine
 10
311.6698229875026
 20
181.2331866656717
 30
0.0
 11
311.9251837155589
 21
181.2958534584475
 31
0.0
  0
LINE
  5
2B3C
330
1F
100
AcDbEntity
  8
AM_VIS
100
AcDbLine
 10
312.0312420097519
 20
180.8636768299345
 30
0.0
 11
312.093908802527
 21
180.6083161018807
 31
0.0
  0
LINE
  5
2B3D
330
1F
100
AcDbEntity
  8
AM_VIS
100
AcDbLine
 10
311.7758812816971
 20
180.8010100371591
 30
0.0
 11
312.0312420097521
 21
180.8636768299345
 31
0.0
  0
CIRCLE
  5
2B3E
330
1F
100
AcDbEntity
  8
AM_VIS
100
AcDbCircle
 10
312.1943011769115
 20
181.1327942912894
 30
0.0
 40
1.600000000000022
  0
LINE
  5
2B3F
330
1F
100
AcDbEntity
  8
AM_VIS
100
AcDbLine
 10
312.2946935512957
 20
181.6572724806982
 30
0.0
 11
312.2094037505401
 21
182.0048196368882
 31
0.0
  0
ELLIPSE
  5
2B40
330
1F
100
AcDbEntity
  8
AM_VIS
100
AcDbEllipse
 10
312.3487491217154
 20
180.5034348189912
 30
0.0
 11
-2.286824568972776
 21
-0.5611981234118787
 31
0.0
210
0.0
220
0.0
230
1.0
 40
0.6361945781365059
 41
4.617755055602474
 42
4.807022905166901
  0
LINE
  5
2B41
330
1F
100
AcDbEntity
  8
AM_VIS
100
AcDbLine
 10
312.093908802527
 20
180.6083161018807
 30
0.0
 11
312.1791986032829
 21
180.2607689456907
 31
0.0
  0
ELLIPSE
  5
2B42
330
1F
100
AcDbEntity
  8
AM_VIS
100
AcDbEllipse
 10
312.0398532321074
 20
181.7621537635877
 30
0.0
 11
-2.286824568972777
 21
-0.5611981234118764
 31
0.0
210
0.0
220
0.0
230
0.9999999999999998
 40
0.6361945781365061
 41
1.476162402012681
 42
1.665430251577108
  0
LINE
  5
2B43
330
1F
100
AcDbEntity
  8
AM_VIS
100
AcDbLine
 10
311.4283341255064
 20
180.7157202364032
 30
0.0
 11
311.7758812816971
 21
180.8010100371591
 31
0.0
  0
ELLIPSE
  5
2B44
330
1F
100
AcDbEntity
  8
AM_VIS
100
AcDbEllipse
 10
311.5649417046132
 20
180.9783463464854
 30
0.0
 11
-0.5611981234118776
 21
2.286824568972776
 31
0.0
210
0.0
220
0.0
230
1.0
 40
0.6361945781365092
 41
4.617755055601619
 42
4.80702290516607
  0
LINE
  5
2B45
330
1F
100
AcDbEntity
  8
AM_VIS
100
AcDbLine
 10
311.6698229875023
 20
181.2331866656717
 30
0.0
 11
311.3222758313132
 21
181.1478968649161
 31
0.0
  0
LINE
  5
2B46
330
1F
100
AcDbEntity
  8
AM_VIS
100
AcDbLine
 10
312.9602682283178
 20
181.5498683461719
 30
0.0
 11
312.6127210721286
 21
181.4645785454163
 31
0.0
  0
ELLIPSE
  5
2B47
330
1F
100
AcDbEntity
  8
AM_VIS
100
AcDbEllipse
 10
312.8236606492096
 20
181.2872422360935
 30
0.0
 11
-0.5611981234118769
 21
2.286824568972776
 31
0.0
210
0.0
220
0.0
230
0.9999999999999998
 40
0.6361945781365085
 41
1.476162402013525
 42
1.665430251577973
  0
LINE
  5
2B48
330
1F
100
AcDbEntity
  8
AM_VIS
100
AcDbLine
 10
312.7187793663197
 20
181.0324019169029
 30
0.0
 11
313.0663265225105
 21
181.1176917176588
 31
0.0
  0
LINE
  5
2B49
330
1F
100
AcDbEntity
  8
AM_VIS
100
AcDbLine
 10
311.7772271220272
 20
181.8987613426951
 30
0.0
 11
311.8625169227828
 21
181.5512141865051
 31
0.0
  0
LINE
  5
2B4A
330
1F
100
AcDbEntity
  8
AM_VIS
100
AcDbLine
 10
312.6113752317958
 20
180.3668272398837
 30
0.0
 11
312.52608543104
 21
180.7143743960737
 31
0.0
  0
ARC
  5
2B4B
330
1F
100
AcDbEntity
  8
AM_VIS
100
AcDbCircle
 10
312.1943011769115
 20
181.1327942912894
 30
0.0
 40
0.5339999999999919
100
AcDbArc
 50
308.4125063669301
 51
349.1638696623658
  0
ARC
  5
2B4C
330
1F
100
AcDbEntity
  8
AM_VIS
100
AcDbCircle
 10
312.1943011769115
 20
181.1327942912894
 30
0.0
 40
0.5339999999999919
100
AcDbArc
 50
38.41250636669418
 51
79.16386966260789
  0
ARC
  5
2B4D
330
1F
100
AcDbEntity
  8
AM_VIS
100
AcDbCircle
 10
312.1943011769115
 20
181.1327942912894
 30
0.0
 40
0.5339999999999919
100
AcDbArc
 50
128.41250636693
 51
169.1638696628349
  0
ARC
  5
2B4E
330
1F
100
AcDbEntity
  8
AM_VIS
100
AcDbCircle
 10
312.1943011769115
 20
181.1327942912894
 30
0.0
 40
0.5339999999999919
100
AcDbArc
 50
218.4125063671647
 51
259.163869662608
  0
LINE
  5
2B4F
330
1F
100
AcDbEntity
  8
AM_VIS
100
AcDbLine
 10
318.910389491168
 20
181.185823438386
 30
0.0
 11
318.6943011769115
 21
181.1327942912894
 31
0.0
  0
LINE
  5
2B50
330
1F
100
AcDbEntity
  8
AM_VIS
100
AcDbLine
 10
318.6943011769115
 20
181.1327942912894
 30
0.0
 11
318.4782128626548
 21
181.0797651441929
 31
0.0
  0
LINE
  5
2B51
330
1F
100
AcDbEntity
  8
AM_VIS
100
AcDbLine
 10
318.6943011769115
 20
181.1327942912894
 30
0.0
 11
318.963418638265
 21
180.969735124129
 31
0.0
  0
LINE
  5
2B52
330
1F
100
AcDbEntity
  8
AM_VIS
100
AcDbLine
 10
318.8573603440709
 20
181.4019117526417
 30
0.0
 11
318.6943011769115
 21
181.1327942912894
 31
0.0
  0
LINE
  5
2B53
330
1F
100
AcDbEntity
  8
AM_VIS
100
AcDbLine
 10
318.963418638265
 20
180.9697351241275
 30
0.0
 11
318.8573603440718
 21
181.4019117526405
 31
0.0
  0
LINE
  5
2B54
330
1F
100
AcDbEntity
  8
AM_VIS
100
AcDbLine
 10
318.4251837155589
 20
181.2958534584475
 30
0.0
 11
318.8573603440718
 21
181.4019117526406
 31
0.0
  0
LINE
  5
2B55
330
1F
100
AcDbEntity
  8
AM_VIS
100
AcDbLine
 10
318.7473303240083
 20
180.916705977031
 30
0.0
 11
318.6943011769115
 21
181.1327942912894
 31
0.0
  0
LINE
  5
2B56
330
1F
100
AcDbEntity
  8
AM_VIS
100
AcDbLine
 10
318.5312420097509
 20
180.8636768299358
 30
0.0
 11
318.6943011769115
 21
181.1327942912894
 31
0.0
  0
LINE
  5
2B57
330
1F
100
AcDbEntity
  8
AM_VIS
100
AcDbLine
 10
318.4251837155589
 20
181.2958534584475
 30
0.0
 11
318.5312420097519
 21
180.8636768299345
 31
0.0
  0
LINE
  5
2B58
330
1F
100
AcDbEntity
  8
AM_VIS
100
AcDbLine
 10
318.6943011769115
 20
181.1327942912894
 30
0.0
 11
318.6412720298154
 21
181.348882605544
 31
0.0
  0
LINE
  5
2B59
330
1F
100
AcDbEntity
  8
AM_VIS
100
AcDbLine
 10
318.6943011769115
 20
181.1327942912894
 30
0.0
 11
318.4251837155591
 21
181.295853458449
 31
0.0
  0
LINE
  5
2B5A
330
1F
100
AcDbEntity
  8
AM_VIS
100
AcDbLine
 10
318.963418638265
 20
180.9697351241275
 30
0.0
 11
318.5312420097521
 21
180.8636768299345
 31
0.0
  0
LINE
  5
2B5B
330
1F
100
AcDbEntity
  8
AM_VIS
100
AcDbLine
 10
318.963418638265
 20
180.9697351241275
 30
0.0
 11
319.02608543104
 21
180.7143743960737
 31
0.0
  0
LINE
  5
2B5C
330
1F
100
AcDbEntity
  8
AM_VIS
100
AcDbLine
 10
318.963418638265
 20
180.9697351241275
 30
0.0
 11
319.2187793663197
 21
181.0324019169029
 31
0.0
  0
LINE
  5
2B5D
330
1F
100
AcDbEntity
  8
AM_VIS
100
AcDbLine
 10
318.7946935512957
 20
181.6572724806982
 30
0.0
 11
318.8573603440718
 21
181.4019117526406
 31
0.0
  0
LINE
  5
2B5E
330
1F
100
AcDbEntity
  8
AM_VIS
100
AcDbLine
 10
318.8573603440718
 20
181.4019117526406
 30
0.0
 11
319.1127210721286
 21
181.4645785454164
 31
0.0
  0
LINE
  5
2B5F
330
1F
100
AcDbEntity
  8
AM_VIS
100
AcDbLine
 10
318.3625169227828
 20
181.5512141865051
 30
0.0
 11
318.4251837155589
 21
181.2958534584475
 31
0.0
  0
LINE
  5
2B60
330
1F
100
AcDbEntity
  8
AM_VIS
100
AcDbLine
 10
318.1698229875026
 20
181.2331866656717
 30
0.0
 11
318.4251837155589
 21
181.2958534584475
 31
0.0
  0
LINE
  5
2B61
330
1F
100
AcDbEntity
  8
AM_VIS
100
AcDbLine
 10
318.5312420097519
 20
180.8636768299345
 30
0.0
 11
318.593908802527
 21
180.6083161018807
 31
0.0
  0
LINE
  5
2B62
330
1F
100
AcDbEntity
  8
AM_VIS
100
AcDbLine
 10
318.2758812816971
 20
180.8010100371591
 30
0.0
 11
318.5312420097519
 21
180.8636768299344
 31
0.0
  0
CIRCLE
  5
2B63
330
1F
100
AcDbEntity
  8
AM_VIS
100
AcDbCircle
 10
318.6943011769115
 20
181.1327942912894
 30
0.0
 40
1.600000000000022
  0
LINE
  5
2B64
330
1F
100
AcDbEntity
  8
AM_VIS
100
AcDbLine
 10
318.7946935512957
 20
181.6572724806982
 30
0.0
 11
318.7094037505401
 21
182.0048196368882
 31
0.0
  0
ELLIPSE
  5
2B65
330
1F
100
AcDbEntity
  8
AM_VIS
100
AcDbEllipse
 10
318.8487491217154
 20
180.5034348189912
 30
0.0
 11
-2.286824568972775
 21
-0.5611981234118815
 31
0.0
210
0.0
220
0.0
230
0.9999999999999998
 40
0.6361945781365072
 41
4.617755055602472
 42
4.807022905166899
  0
LINE
  5
2B66
330
1F
100
AcDbEntity
  8
AM_VIS
100
AcDbLine
 10
318.593908802527
 20
180.6083161018807
 30
0.0
 11
318.6791986032829
 21
180.2607689456907
 31
0.0
  0
ELLIPSE
  5
2B67
330
1F
100
AcDbEntity
  8
AM_VIS
100
AcDbEllipse
 10
318.5398532321074
 20
181.7621537635877
 30
0.0
 11
-2.286824568972776
 21
-0.5611981234118777
 31
0.0
210
0.0
220
0.0
230
1.0
 40
0.6361945781365048
 41
1.476162402012681
 42
1.665430251577108
  0
LINE
  5
2B68
330
1F
100
AcDbEntity
  8
AM_VIS
100
AcDbLine
 10
317.9283341255064
 20
180.7157202364032
 30
0.0
 11
318.2758812816971
 21
180.8010100371591
 31
0.0
  0
ELLIPSE
  5
2B69
330
1F
100
AcDbEntity
  8
AM_VIS
100
AcDbEllipse
 10
318.0649417046132
 20
180.9783463464853
 30
0.0
 11
-0.5611981234118765
 21
2.286824568972776
 31
0.0
210
0.0
220
0.0
230
0.9999999999999998
 40
0.6361945781365093
 41
4.61775505560162
 42
4.807022905166071
  0
LINE
  5
2B6A
330
1F
100
AcDbEntity
  8
AM_VIS
100
AcDbLine
 10
318.1698229875024
 20
181.2331866656717
 30
0.0
 11
317.8222758313132
 21
181.1478968649161
 31
0.0
  0
LINE
  5
2B6B
330
1F
100
AcDbEntity
  8
AM_VIS
100
AcDbLine
 10
319.4602682283178
 20
181.5498683461718
 30
0.0
 11
319.1127210721286
 21
181.4645785454163
 31
0.0
  0
ELLIPSE
  5
2B6C
330
1F
100
AcDbEntity
  8
AM_VIS
100
AcDbEllipse
 10
319.3236606492096
 20
181.2872422360935
 30
0.0
 11
-0.5611981234118823
 21
2.286824568972774
 31
0.0
210
0.0
220
0.0
230
1.0
 40
0.6361945781365084
 41
1.476162402013523
 42
1.66543025157797
  0
LINE
  5
2B6D
330
1F
100
AcDbEntity
  8
AM_VIS
100
AcDbLine
 10
319.2187793663197
 20
181.0324019169029
 30
0.0
 11
319.5663265225105
 21
181.1176917176588
 31
0.0
  0
LINE
  5
2B6E
330
1F
100
AcDbEntity
  8
AM_VIS
100
AcDbLine
 10
318.2772271220272
 20
181.8987613426951
 30
0.0
 11
318.3625169227828
 21
181.5512141865051
 31
0.0
  0
LINE
  5
2B6F
330
1F
100
AcDbEntity
  8
AM_VIS
100
AcDbLine
 10
319.1113752317958
 20
180.3668272398837
 30
0.0
 11
319.02608543104
 21
180.7143743960737
 31
0.0
  0
ARC
  5
2B70
330
1F
100
AcDbEntity
  8
AM_VIS
100
AcDbCircle
 10
318.6943011769115
 20
181.1327942912894
 30
0.0
 40
0.5339999999999919
100
AcDbArc
 50
308.4125063669301
 51
349.1638696623658
  0
ARC
  5
2B71
330
1F
100
AcDbEntity
  8
AM_VIS
100
AcDbCircle
 10
318.6943011769115
 20
181.1327942912894
 30
0.0
 40
0.5339999999999919
100
AcDbArc
 50
38.41250636669418
 51
79.16386966260789
  0
ARC
  5
2B72
330
1F
100
AcDbEntity
  8
AM_VIS
100
AcDbCircle
 10
318.6943011769115
 20
181.1327942912894
 30
0.0
 40
0.5339999999999919
100
AcDbArc
 50
128.41250636693
 51
169.1638696628349
  0
ARC
  5
2B73
330
1F
100
AcDbEntity
  8
AM_VIS
100
AcDbCircle
 10
318.6943011769115
 20
181.1327942912894
 30
0.0
 40
0.5339999999999919
100
AcDbArc
 50
218.4125063671647
 51
259.163869662608
  0
LINE
  5
2B74
330
1F
100
AcDbEntity
  8
AM_VIS
100
AcDbLine
 10
318.8774311977206
 20
203.3327942912894
 30
0.0
 11
316.8303172435007
 21
203.3327942912894
 31
0.0
  0
SPLINE
  5
2B75
330
1F
100
AcDbEntity
  8
AM_VIS
100
AcDbSpline
210
0.0
220
0.0
230
1.0
 70
     8
 71
     3
 72
    22
 73
    18
 74
     0
 42
0.0000000001
 43
0.0000000001
 40
0.0
 40
0.0
 40
0.0
 40
0.0
 40
0.0920606133218154
 40
0.0920606133218154
 40
0.1841212266436307
 40
0.1841212266436307
 40
0.2768491276012612
 40
0.2768491276012612
 40
0.3695770285588916
 40
0.3695770285588916
 40
0.4633731673321721
 40
0.4633731673321721
 40
0.5571693061054525
 40
0.5571693061054525
 40
0.6524439030689618
 40
0.6524439030689618
 40
0.747718500032471
 40
0.747718500032471
 40
0.747718500032471
 40
0.747718500032471
 10
313.7326587570615
 20
202.8327942912894
 30
0.0
 10
313.7326587570615
 20
202.8634811623967
 30
0.0
 10
313.7348187017496
 20
202.8969907545874
 30
0.0
 10
313.744124113595
 20
202.9625971728314
 30
0.0
 10
313.7512690595106
 20
202.9946941467452
 30
0.0
 10
313.7680469471657
 20
203.0515368534548
 30
0.0
 10
313.7792526055341
 20
203.0814952991517
 30
0.0
 10
313.8059019444593
 20
203.1373750778434
 30
0.0
 10
313.8213443251505
 20
203.1632976506406
 30
0.0
 10
313.8525711365085
 20
203.2070636571612
 30
0.0
 10
313.871266477189
 20
203.2288869342839
 30
0.0
 10
313.9114917714776
 20
203.2664787465766
 30
0.0
 10
313.9330203846382
 20
203.2822501503716
 30
0.0
 10
313.974253968797
 20
203.3061573570619
 30
0.0
 10
313.997787422405
 20
203.3164077436693
 30
0.0
 10
314.0458543272705
 20
203.3297243296748
 30
0.0
 10
314.0703872573427
 20
203.3327942912894
 30
0.0
 10
314.0928436952052
 20
203.3327942912894
 30
0.0
  0
LINE
  5
2B76
330
1F
100
AcDbEntity
  8
AM_VIS
100
AcDbLine
 10
314.0928436952052
 20
203.3327942912894
 30
0.0
 11
314.5878184420358
 21
203.3327942912894
 31
0.0
  0
SPLINE
  5
2B77
330
1F
100
AcDbEntity
  8
AM_VIS
100
AcDbSpline
210
0.0
220
0.0
230
1.0
 70
     8
 71
     3
 72
    22
 73
    18
 74
     0
 42
0.0000000001
 43
0.0000000001
 40
-0.7477185000324709
 40
-0.7477185000324709
 40
-0.7477185000324709
 40
-0.7477185000324709
 40
-0.6524439030689618
 40
-0.6524439030689618
 40
-0.5571693061054522
 40
-0.5571693061054522
 40
-0.463373167332172
 40
-0.463373167332172
 40
-0.3695770285588913
 40
-0.3695770285588913
 40
-0.276849127601261
 40
-0.276849127601261
 40
-0.1841212266436307
 40
-0.1841212266436307
 40
-0.0920606133218156
 40
-0.0920606133218156
 40
0.0
 40
0.0
 40
0.0
 40
0.0
 10
314.5878184420358
 20
203.3327942912894
 30
0.0
 10
314.5653620041733
 20
203.3327942912894
 30
0.0
 10
314.5408290741011
 20
203.3297243296748
 30
0.0
 10
314.4927621692354
 20
203.3164077436693
 30
0.0
 10
314.4692287156277
 20
203.3061573570619
 30
0.0
 10
314.4279951314688
 20
203.2822501503716
 30
0.0
 10
314.4064665183082
 20
203.2664787465766
 30
0.0
 10
314.3662412240197
 20
203.2288869342839
 30
0.0
 10
314.3475458833391
 20
203.2070636571612
 30
0.0
 10
314.3163190719811
 20
203.1632976506406
 30
0.0
 10
314.3008766912899
 20
203.1373750778434
 30
0.0
 10
314.2742273523647
 20
203.0814952991517
 30
0.0
 10
314.2630216939963
 20
203.0515368534548
 30
0.0
 10
314.2462438063412
 20
202.9946941467452
 30
0.0
 10
314.2390988604256
 20
202.9625971728314
 30
0.0
 10
314.22979344858
 20
202.8969907545874
 30
0.0
 10
314.2276335038921
 20
202.8634811623967
 30
0.0
 10
314.2276335038921
 20
202.8327942912894
 30
0.0
  0
LINE
  5
2B78
330
1F
100
AcDbEntity
  8
AM_VIS
100
AcDbLine
 10
313.3443011769113
 20
202.8327942912894
 30
0.0
 11
313.3443011769113
 21
202.5327942912895
 31
0.0
  0
LINE
  5
2B79
330
1F
100
AcDbEntity
  8
AM_VIS
100
AcDbLine
 10
319.4443011769115
 20
202.5327942912895
 30
0.0
 11
319.4443011769115
 21
202.8327942912894
 31
0.0
  0
LINE
  5
2B7A
330
1F
100
AcDbEntity
  8
AM_VIS
100
AcDbLine
 10
313.8443011769114
 20
203.3327942912894
 30
0.0
 11
314.0928436952052
 21
203.3327942912894
 31
0.0
  0
LINE
  5
2B7B
330
1F
100
AcDbEntity
  8
AM_VIS
100
AcDbLine
 10
314.5878184420358
 20
203.3327942912894
 30
0.0
 11
316.8303172435005
 21
203.3327942912894
 31
0.0
  0
LINE
  5
2B7C
330
1F
100
AcDbEntity
  8
AM_VIS
100
AcDbLine
 10
318.8774311977206
 20
203.3327942912894
 30
0.0
 11
318.9443011769115
 21
203.3327942912894
 31
0.0
  0
LINE
  5
2B7D
330
1F
100
AcDbEntity
  8
AM_VIS
100
AcDbLine
 10
314.2276335038921
 20
202.8327942912894
 30
0.0
 11
313.7326587570615
 21
202.8327942912894
 31
0.0
  0
ARC
  5
2B7E
330
1F
100
AcDbEntity
  8
AM_VIS
100
AcDbCircle
 10
313.8443011769114
 20
202.8327942912894
 30
0.0
 40
0.5
100
AcDbArc
 50
90.0
 51
180.0
  0
ARC
  5
2B7F
330
1F
100
AcDbEntity
  8
AM_VIS
100
AcDbCircle
 10
318.9443011769115
 20
202.8327942912894
 30
0.0
 40
0.5
100
AcDbArc
 50
0.0
 51
90.0
  0
LINE
  5
2B80
330
1F
100
AcDbEntity
  8
AM_VIS
100
AcDbLine
 10
313.8443011769114
 20
203.3327942912895
 30
0.0
 11
312.6940978643872
 21
203.3327942912895
 31
0.0
  0
SPLINE
  5
2B81
330
1F
100
AcDbEntity
  8
AM_VIS
100
AcDbSpline
210
0.0
220
0.0
230
1.0
 70
     8
 71
     3
 72
    22
 73
    18
 74
     0
 42
0.0000000001
 43
0.0000000001
 40
0.3363921212459848
 40
0.3363921212459848
 40
0.3363921212459848
 40
0.3363921212459848
 40
0.4322261816678647
 40
0.4322261816678647
 40
0.5211736396794337
 40
0.5211736396794337
 40
0.6051083555088156
 40
0.6051083555088156
 40
0.6890430713381974
 40
0.6890430713381974
 40
0.8054264725371288
 40
0.8054264725371288
 40
0.9218098737360604
 40
0.9218098737360604
 40
1.032290155253813
 40
1.032290155253813
 40
1.142770436771566
 40
1.142770436771566
 40
1.142770436771566
 40
1.142770436771566
 10
312.4393009268676
 20
203.3327942912895
 30
0.0
 10
312.4146927261616
 20
203.3327942912895
 30
0.0
 10
312.38922975697
 20
203.3306891889022
 30
0.0
 10
312.3460132857995
 20
203.3230423398293
 30
0.0
 10
312.321311916485
 20
203.3162933581391
 30
0.0
 10
312.282007726259
 20
203.3010855480682
 30
0.0
 10
312.261472693647
 20
203.2910429656112
 30
0.0
 10
312.2219334472216
 20
203.2661598843397
 30
0.0
 10
312.2029344479902
 20
203.2513028168753
 30
0.0
 10
312.1635102442497
 20
203.2145596740842
 30
0.0
 10
312.1403466125196
 20
203.1874990331974
 30
0.0
 10
312.0999010211169
 20
203.125746522529
 30
0.0
 10
312.0826269812592
 20
203.0910442793247
 30
0.0
 10
312.0572337029082
 20
203.0244940510102
 30
0.0
 10
312.0465959800378
 20
202.9870919550184
 30
0.0
 10
312.0326810756617
 20
202.9096559210142
 30
0.0
 10
312.0294064853522
 20
202.8696210517954
 30
0.0
 10
312.0294064853522
 20
202.8327942912895
 30
0.0
  0
LINE
  5
2B82
330
1F
100
AcDbEntity
  8
AM_VIS
100
AcDbLine
 10
311.9443261800372
 20
203.3327942912895
 30
0.0
 11
312.4393009268676
 21
203.3327942912895
 31
0.0
  0
SPLINE
  5
2B83
330
1F
100
AcDbEntity
  8
AM_VIS
100
AcDbSpline
210
0.0
220
0.0
230
1.0
 70
     8
 71
     3
 72
    22
 73
    18
 74
     0
 42
0.0000000001
 43
0.0000000001
 40
-1.142770436771567
 40
-1.142770436771567
 40
-1.142770436771567
 40
-1.142770436771567
 40
-1.032290155253814
 40
-1.032290155253814
 40
-0.9218098737360612
 40
-0.9218098737360612
 40
-0.80542647253713
 40
-0.80542647253713
 40
-0.6890430713381983
 40
-0.6890430713381983
 40
-0.6051083555088162
 40
-0.6051083555088162
 40
-0.521173639679434
 40
-0.521173639679434
 40
-0.4322261816678648
 40
-0.4322261816678648
 40
-0.3363921212459852
 40
-0.3363921212459852
 40
-0.3363921212459852
 40
-0.3363921212459852
 10
311.5344317385216
 20
202.8327942912895
 30
0.0
 10
311.5344317385216
 20
202.8696210517954
 30
0.0
 10
311.5377063288311
 20
202.9096559210142
 30
0.0
 10
311.5516212332072
 20
202.9870919550184
 30
0.0
 10
311.5622589560776
 20
203.0244940510102
 30
0.0
 10
311.5876522344286
 20
203.0910442793247
 30
0.0
 10
311.6049262742863
 20
203.125746522529
 30
0.0
 10
311.6453718656889
 20
203.1874990331974
 30
0.0
 10
311.668535497419
 20
203.2145596740842
 30
0.0
 10
311.7079597011596
 20
203.2513028168753
 30
0.0
 10
311.7269587003909
 20
203.2661598843397
 30
0.0
 10
311.7664979468163
 20
203.2910429656112
 30
0.0
 10
311.7870329794284
 20
203.3010855480682
 30
0.0
 10
311.8263371696544
 20
203.3162933581391
 30
0.0
 10
311.8510385389689
 20
203.3230423398293
 30
0.0
 10
311.8942550101394
 20
203.3306891889022
 30
0.0
 10
311.9197179793312
 20
203.3327942912895
 30
0.0
 10
311.944326180037
 20
203.3327942912895
 30
0.0
  0
LINE
  5
2B84
330
1F
100
AcDbEntity
  8
AM_VIS
100
AcDbLine
 10
311.4443011769115
 20
202.5327942912895
 30
0.0
 11
311.4443011769115
 21
202.8327942912895
 31
0.0
  0
LINE
  5
2B85
330
1F
100
AcDbEntity
  8
AM_VIS
100
AcDbLine
 10
312.4393009268676
 20
203.3327942912895
 30
0.0
 11
312.6940978643872
 21
203.3327942912895
 31
0.0
  0
LINE
  5
2B86
330
1F
100
AcDbEntity
  8
AM_VIS
100
AcDbLine
 10
312.0294064853522
 20
202.8327942912895
 30
0.0
 11
311.5344317385216
 21
202.8327942912895
 31
0.0
  0
ARC
  5
2B87
330
1F
100
AcDbEntity
  8
AM_VIS
100
AcDbCircle
 10
311.9443011769115
 20
202.8327942912895
 30
0.0
 40
0.5
100
AcDbArc
 50
90.0
 51
180.0
  0
SPLINE
  5
2B8B
330
1F
100
AcDbEntity
  8
AM_VIS
100
AcDbSpline
210
0.0
220
0.0
230
1.0
 70
     8
 71
     3
 72
     8
 73
     4
 74
     0
 42
0.0000000001
 43
0.0000000001
 40
0.0
 40
0.0
 40
0.0
 40
0.0
 40
80.0
 40
80.0
 40
80.0
 40
80.0
 10
250.4302872986786
 20
134.5618378071932
 30
0.0
 10
250.4302873394774
 20
134.3764545765862
 30
0.0
 10
250.5122837472158
 20
134.2525686721822
 30
0.0
 10
250.6762766034914
 20
134.1901800531825
 30
0.0
  0
SPLINE
  5
2B8C
330
1F
100
AcDbEntity
  8
AM_VIS
100
AcDbSpline
210
0.0
220
0.0
230
1.0
 70
     8
 71
     3
 72
     8
 73
     4
 74
     0
 42
0.0000000001
 43
0.0000000001
 40
0.0
 40
0.0
 40
0.0
 40
0.0
 40
80.0
 40
80.0
 40
80.0
 40
80.0
 10
250.6762766034914
 20
134.1901800531825
 30
0.0
 10
250.7689682391944
 20
134.1509643941073
 30
0.0
 10
250.8768113628495
 20
134.1349216133586
 30
0.0
 10
250.9998060152561
 20
134.1420517109366
 30
0.0
  0
SPLINE
  5
2B8D
330
1F
100
AcDbEntity
  8
AM_VIS
100
AcDbSpline
210
0.0
220
0.0
230
1.0
 70
     8
 71
     3
 72
     8
 73
     4
 74
     0
 42
0.0000000001
 43
0.0000000001
 40
0.0
 40
0.0
 40
0.0
 40
0.0
 40
80.0
 40
80.0
 40
80.0
 40
80.0
 10
250.9998060152561
 20
134.1420517109366
 30
0.0
 10
251.0711072766275
 20
134.1456168005244
 30
0.0
 10
251.1156705700845
 20
134.1518556461049
 30
0.0
 10
251.1334958548281
 20
134.1607682884766
 30
0.0
  0
SPLINE
  5
2B8E
330
1F
100
AcDbEntity
  8
AM_VIS
100
AcDbSpline
210
0.0
220
0.0
230
1.0
 70
     8
 71
     3
 72
     8
 73
     4
 74
     0
 42
0.0000000001
 43
0.0000000001
 40
0.0
 40
0.0
 40
0.0
 40
0.0
 40
80.0
 40
80.0
 40
80.0
 40
80.0
 10
251.1334958548281
 20
134.1607682884766
 30
0.0
 10
251.1620163675365
 20
134.1785936140193
 30
0.0
 10
251.1762766034914
 20
134.215135517102
 30
0.0
 10
251.1762766034914
 20
134.2703939569259
 30
0.0
  0
LINE
  5
2B8F
330
1F
100
AcDbEntity
  8
AM_VIS
100
AcDbLine
 10
251.1762766034914
 20
134.2703939569259
 30
0.0
 11
251.1762766034914
 21
135.0030142777815
 31
0.0
  0
SPLINE
  5
2B90
330
1F
100
AcDbEntity
  8
AM_VIS
100
AcDbSpline
210
0.0
220
0.0
230
1.0
 70
     8
 71
     3
 72
     8
 73
     4
 74
     0
 42
0.0000000001
 43
0.0000000001
 40
0.0
 40
0.0
 40
0.0
 40
0.0
 40
80.0
 40
80.0
 40
80.0
 40
80.0
 10
251.1762766034914
 20
135.0030142777815
 30
0.0
 10
250.9641554049699
 20
135.0012317737864
 30
0.0
 10
250.809075191066
 20
134.9825151962463
 30
0.0
 10
250.7110359617802
 20
134.9468645451611
 30
0.0
  0
SPLINE
  5
2B91
330
1F
100
AcDbEntity
  8
AM_VIS
100
AcDbSpline
210
0.0
220
0.0
230
1.0
 70
     8
 71
     3
 72
     8
 73
     4
 74
     0
 42
0.0000000001
 43
0.0000000001
 40
0.0
 40
0.0
 40
0.0
 40
0.0
 40
80.0
 40
80.0
 40
80.0
 40
80.0
 10
250.7110359617802
 20
134.9468645451611
 30
0.0
 10
250.5238702271778
 20
134.8809109181715
 30
0.0
 10
250.4302873394774
 20
134.7525686721821
 30
0.0
 10
250.4302872986786
 20
134.5618378071932
 30
0.0
  0
SPLINE
  5
2B92
330
1F
100
AcDbEntity
  8
AM_VIS
100
AcDbSpline
210
0.0
220
0.0
230
1.0
 70
     8
 71
     3
 72
     8
 73
     4
 74
     0
 42
0.0000000001
 43
0.0000000001
 40
0.0
 40
0.0
 40
0.0
 40
0.0
 40
80.0
 40
80.0
 40
80.0
 40
80.0
 10
222.7491366760002
 20
141.5676589227113
 30
0.0
 10
222.7491367166361
 20
141.3830162376325
 30
0.0
 10
222.8308055754754
 20
141.2596252170011
 30
0.0
 10
222.9941433337898
 20
141.1974858201813
 30
0.0
  0
SPLINE
  5
2B93
330
1F
100
AcDbEntity
  8
AM_VIS
100
AcDbSpline
210
0.0
220
0.0
230
1.0
 70
     8
 71
     3
 72
     8
 73
     4
 74
     0
 42
0.0000000001
 43
0.0000000001
 40
0.0
 40
0.0
 40
0.0
 40
0.0
 40
80.0
 40
80.0
 40
80.0
 40
80.0
 10
222.9941433337898
 20
141.1974858201813
 30
0.0
 10
223.0864646966471
 20
141.1584268148706
 30
0.0
 10
223.1938770222052
 20
141.1424481197974
 30
0.0
 10
223.3163803511001
 20
141.1495497349616
 30
0.0
  0
SPLINE
  5
2B94
330
1F
100
AcDbEntity
  8
AM_VIS
100
AcDbSpline
210
0.0
220
0.0
230
1.0
 70
     8
 71
     3
 72
     8
 73
     4
 74
     0
 42
0.0000000001
 43
0.0000000001
 40
0.0
 40
0.0
 40
0.0
 40
0.0
 40
80.0
 40
80.0
 40
80.0
 40
80.0
 10
223.3163803511001
 20
141.1495497349616
 30
0.0
 10
223.3873967871931
 20
141.1531005831796
 30
0.0
 10
223.4317820648307
 20
141.1593145066072
 30
0.0
 10
223.4495361433771
 20
141.1681915458804
 30
0.0
  0
SPLINE
  5
2B95
330
1F
100
AcDbEntity
  8
AM_VIS
100
AcDbSpline
210
0.0
220
0.0
230
1.0
 70
     8
 71
     3
 72
     8
 73
     4
 74
     0
 42
0.0000000001
 43
0.0000000001
 40
0.0
 40
0.0
 40
0.0
 40
0.0
 40
80.0
 40
80.0
 40
80.0
 40
80.0
 10
223.4495361433771
 20
141.1681915458804
 30
0.0
 10
223.4779427259415
 20
141.1859456650626
 30
0.0
 10
223.4921459969057
 20
141.2223415951635
 30
0.0
 10
223.4921459969057
 20
141.2773792955474
 30
0.0
  0
LINE
  5
2B96
330
1F
100
AcDbEntity
  8
AM_VIS
100
AcDbLine
 10
223.4921459969057
 20
141.2773792955474
 30
0.0
 11
223.4921459969057
 21
142.0070730372252
 31
0.0
  0
SPLINE
  5
2B97
330
1F
100
AcDbEntity
  8
AM_VIS
100
AcDbSpline
210
0.0
220
0.0
230
1.0
 70
     8
 71
     3
 72
     8
 73
     4
 74
     0
 42
0.0000000001
 43
0.0000000001
 40
0.0
 40
0.0
 40
0.0
 40
0.0
 40
80.0
 40
80.0
 40
80.0
 40
80.0
 10
223.4921459969057
 20
142.0070730372252
 30
0.0
 10
223.2808721533715
 20
142.0052976537521
 30
0.0
 10
223.1264114343303
 20
141.9866558428333
 30
0.0
 10
223.0287638397818
 20
141.9511476044689
 30
0.0
  0
SPLINE
  5
2B98
330
1F
100
AcDbEntity
  8
AM_VIS
100
AcDbSpline
210
0.0
220
0.0
230
1.0
 70
     8
 71
     3
 72
     8
 73
     4
 74
     0
 42
0.0000000001
 43
0.0000000001
 40
0.0
 40
0.0
 40
0.0
 40
0.0
 40
80.0
 40
80.0
 40
80.0
 40
80.0
 10
223.0287638397818
 20
141.9511476044689
 30
0.0
 10
222.84234577123
 20
141.8854574407029
 30
0.0
 10
222.7491367166361
 20
141.7576278801169
 30
0.0
 10
222.7491366760002
 20
141.5676589227113
 30
0.0
  0
SPLINE
  5
2B99
330
1F
100
AcDbEntity
  8
AM_VIS
100
AcDbSpline
210
0.0
220
0.0
230
1.0
 70
     8
 71
     3
 72
     8
 73
     4
 74
     0
 42
0.0000000001
 43
0.0000000001
 40
0.0
 40
0.0
 40
0.0
 40
0.0
 40
80.0
 40
80.0
 40
80.0
 40
80.0
 10
232.7307988076422
 20
134.7625353193997
 30
0.0
 10
232.7307988491063
 20
134.4618107093613
 30
0.0
 10
232.940037979541
 20
134.3114483628779
 30
0.0
 10
233.3585161989465
 20
134.3114483628779
 30
0.0
  0
SPLINE
  5
2B9A
330
1F
100
AcDbEntity
  8
AM_VIS
100
AcDbSpline
210
0.0
220
0.0
230
1.0
 70
     8
 71
     3
 72
     8
 73
     4
 74
     0
 42
0.0000000001
 43
0.0000000001
 40
0.0
 40
0.0
 40
0.0
 40
0.0
 40
80.0
 40
80.0
 40
80.0
 40
80.0
 10
233.3585161989465
 20
134.3114483628779
 30
0.0
 10
233.4110524584732
 20
134.3114483628779
 30
0.0
 10
233.4445669374056
 20
134.3168831454867
 30
0.0
 10
233.4590596772072
 20
134.3277527107041
 30
0.0
  0
SPLINE
  5
2B9B
330
1F
100
AcDbEntity
  8
AM_VIS
100
AcDbSpline
210
0.0
220
0.0
230
1.0
 70
     8
 71
     3
 72
     8
 73
     4
 74
     0
 42
0.0000000001
 43
0.0000000001
 40
0.0
 40
0.0
 40
0.0
 40
0.0
 40
80.0
 40
80.0
 40
80.0
 40
80.0
 10
233.4590596772072
 20
134.3277527107041
 30
0.0
 10
233.4771756330576
 20
134.3458686665544
 30
0.0
 10
233.4862335902507
 20
134.3821005367911
 30
0.0
 10
233.4862335902507
 20
134.436448362878
 30
0.0
  0
LINE
  5
2B9C
330
1F
100
AcDbEntity
  8
AM_VIS
100
AcDbLine
 10
233.4862335902507
 20
134.436448362878
 30
0.0
 11
233.4862335902507
 21
135.2272092324432
 31
0.0
  0
SPLINE
  5
2B9D
330
1F
100
AcDbEntity
  8
AM_VIS
100
AcDbSpline
210
0.0
220
0.0
230
1.0
 70
     8
 71
     3
 72
     8
 73
     4
 74
     0
 42
0.0000000001
 43
0.0000000001
 40
0.0
 40
0.0
 40
0.0
 40
0.0
 40
80.0
 40
80.0
 40
80.0
 40
80.0
 10
233.4862335902507
 20
135.2272092324432
 30
0.0
 10
233.4264510230193
 20
135.2344556230762
 30
0.0
 10
233.3548930243621
 20
135.2380787976606
 30
0.0
 10
233.2715596772072
 20
135.2380787976606
 30
0.0
  0
SPLINE
  5
2B9E
330
1F
100
AcDbEntity
  8
AM_VIS
100
AcDbSpline
210
0.0
220
0.0
230
1.0
 70
     8
 71
     3
 72
     8
 73
     4
 74
     0
 42
0.0000000001
 43
0.0000000001
 40
0.0
 40
0.0
 40
0.0
 40
0.0
 40
80.0
 40
80.0
 40
80.0
 40
80.0
 10
233.2715596772072
 20
135.2380787976606
 30
0.0
 10
232.9110524584732
 20
135.2380787976606
 30
0.0
 10
232.7307988491063
 20
135.0795643187283
 30
0.0
 10
232.7307988076422
 20
134.7625353193997
 30
0.0
  0
SPLINE
  5
2B9F
330
1F
100
AcDbEntity
  8
AM_VIS
100
AcDbSpline
210
0.0
220
0.0
230
1.0
 70
     8
 71
     3
 72
     8
 73
     4
 74
     0
 42
0.0000000001
 43
0.0000000001
 40
0.0
 40
0.0
 40
0.0
 40
0.0
 40
80.0
 40
80.0
 40
80.0
 40
80.0
 10
233.2253640250335
 20
134.2190570585302
 30
0.0
 10
233.0279002845602
 20
134.2190570585302
 30
0.0
 10
232.8684799808838
 20
134.2607237528395
 30
0.0
 10
232.7471031554682
 20
134.3440570585302
 30
0.0
  0
LINE
  5
2BA0
330
1F
100
AcDbEntity
  8
AM_VIS
100
AcDbLine
 10
233.9155814163377
 20
134.2190570585302
 30
0.0
 11
233.2253640250335
 21
134.2190570585302
 31
0.0
  0
LINE
  5
2BA1
330
1F
100
AcDbEntity
  8
AM_VIS
100
AcDbLine
 10
233.9155814163377
 20
134.2734048846171
 30
0.0
 11
233.9155814163377
 21
134.2190570585302
 31
0.0
  0
SPLINE
  5
2BA2
330
1F
100
AcDbEntity
  8
AM_VIS
100
AcDbSpline
210
0.0
220
0.0
230
1.0
 70
     8
 71
     3
 72
     8
 73
     4
 74
     0
 42
0.0000000001
 43
0.0000000001
 40
0.0
 40
0.0
 40
0.0
 40
0.0
 40
80.0
 40
80.0
 40
80.0
 40
80.0
 10
233.7090596772072
 20
134.3413396672258
 30
0.0
 10
233.7416683728595
 20
134.3087309715736
 30
0.0
 10
233.8105089802124
 20
134.2860860578588
 30
0.0
 10
233.9155814163377
 20
134.2734048846171
 30
0.0
  0
SPLINE
  5
2BA3
330
1F
100
AcDbEntity
  8
AM_VIS
100
AcDbSpline
210
0.0
220
0.0
230
1.0
 70
     8
 71
     3
 72
     8
 73
     4
 74
     0
 42
0.0000000001
 43
0.0000000001
 40
0.0
 40
0.0
 40
0.0
 40
0.0
 40
80.0
 40
80.0
 40
80.0
 40
80.0
 10
233.6574292424247
 20
134.5560135802693
 30
0.0
 10
233.6574292424247
 20
134.4473179280953
 30
0.0
 10
233.6746394149949
 20
134.3757599709022
 30
0.0
 10
233.7090596772072
 20
134.3413396672258
 30
0.0
  0
LINE
  5
2BA4
330
1F
100
AcDbEntity
  8
AM_VIS
100
AcDbLine
 10
233.6574292424247
 20
135.8250353193997
 30
0.0
 11
233.6574292424247
 21
134.5560135802692
 31
0.0
  0
SPLINE
  5
2BA5
330
1F
100
AcDbEntity
  8
AM_VIS
100
AcDbSpline
210
0.0
220
0.0
230
1.0
 70
     8
 71
     3
 72
     8
 73
     4
 74
     0
 42
0.0000000001
 43
0.0000000001
 40
0.0
 40
0.0
 40
0.0
 40
0.0
 40
80.0
 40
80.0
 40
80.0
 40
80.0
 10
233.7036248945987
 20
136.0723179280953
 30
0.0
 10
233.6728278069708
 20
136.0288396672258
 30
0.0
 10
233.6574292424247
 20
135.9464121448153
 30
0.0
 10
233.6574292424247
 20
135.8250353193997
 30
0.0
  0
SPLINE
  5
2BA6
330
1F
100
AcDbEntity
  8
AM_VIS
100
AcDbSpline
210
0.0
220
0.0
230
1.0
 70
     8
 71
     3
 72
     8
 73
     4
 74
     0
 42
0.0000000001
 43
0.0000000001
 40
0.0
 40
0.0
 40
0.0
 40
0.0
 40
80.0
 40
80.0
 40
80.0
 40
80.0
 10
233.9155814163377
 20
136.1647092324432
 30
0.0
 10
233.8086973721881
 20
136.1538396672258
 30
0.0
 10
233.7380451982751
 20
136.1230425381338
 30
0.0
 10
233.7036248945987
 20
136.0723179280953
 30
0.0
  0
LINE
  5
2BA7
330
1F
100
AcDbEntity
  8
AM_VIS
100
AcDbLine
 10
233.9155814163377
 20
136.2190570585302
 30
0.0
 11
233.9155814163377
 21
136.1647092324432
 31
0.0
  0
LINE
  5
2BA8
330
1F
100
AcDbEntity
  8
AM_VIS
100
AcDbLine
 10
233.2009075032942
 20
136.2190570585302
 30
0.0
 11
233.9155814163377
 21
136.2190570585302
 31
0.0
  0
LINE
  5
2BA9
330
1F
100
AcDbEntity
  8
AM_VIS
100
AcDbLine
 10
233.2009075032942
 20
136.1647092324432
 30
0.0
 11
233.2009075032942
 21
136.2190570585302
 31
0.0
  0
SPLINE
  5
2BAA
330
1F
100
AcDbEntity
  8
AM_VIS
100
AcDbSpline
210
0.0
220
0.0
230
1.0
 70
     8
 71
     3
 72
     8
 73
     4
 74
     0
 42
0.0000000001
 43
0.0000000001
 40
0.0
 40
0.0
 40
0.0
 40
0.0
 40
80.0
 40
80.0
 40
80.0
 40
80.0
 10
233.4182988076422
 20
136.0967744498345
 30
0.0
 10
233.3802553293812
 20
136.1348178866312
 30
0.0
 10
233.3077915889079
 20
136.1574628418102
 30
0.0
 10
233.2009075032942
 20
136.1647092324432
 30
0.0
  0
SPLINE
  5
2BAB
330
1F
100
AcDbEntity
  8
AM_VIS
100
AcDbSpline
210
0.0
220
0.0
230
1.0
 70
     8
 71
     3
 72
     8
 73
     4
 74
     0
 42
0.0000000001
 43
0.0000000001
 40
0.0
 40
0.0
 40
0.0
 40
0.0
 40
80.0
 40
80.0
 40
80.0
 40
80.0
 10
233.4862335902507
 20
135.8630787976606
 30
0.0
 10
233.4862335902507
 20
135.9735860578588
 30
0.0
 10
233.4635886765358
 20
136.0514846224048
 30
0.0
 10
233.4182988076422
 20
136.0967744498345
 30
0.0
  0
LINE
  5
2BAC
330
1F
100
AcDbEntity
  8
AM_VIS
100
AcDbLine
 10
233.4862335902507
 20
135.3250353193998
 30
0.0
 11
233.4862335902507
 21
135.8630787976607
 31
0.0
  0
LINE
  5
2BAD
330
1F
100
AcDbEntity
  8
AM_VIS
100
AcDbLine
 10
233.2525515733995
 20
135.3311725514284
 30
0.0
 11
233.4862646597059
 21
135.3266359211172
 31
0.0
  0
SPLINE
  5
2BAE
330
1F
100
AcDbEntity
  8
AM_VIS
100
AcDbSpline
210
0.0
220
0.0
230
1.0
 70
     8
 71
     3
 72
     8
 73
     4
 74
     0
 42
0.0000000001
 43
0.0000000001
 40
0.0
 40
0.0
 40
0.0
 40
0.0
 40
80.0
 40
80.0
 40
80.0
 40
80.0
 10
232.6927553293812
 20
135.1565570585302
 30
0.0
 10
232.8050741976037
 20
135.272499101337
 30
0.0
 10
232.9916684143236
 20
135.3304701020084
 30
0.0
 10
233.2525379380769
 20
135.3304701020084
 30
0.0
  0
SPLINE
  5
2BAF
330
1F
100
AcDbEntity
  8
AM_VIS
100
AcDbSpline
210
0.0
220
0.0
230
1.0
 70
     8
 71
     3
 72
     8
 73
     4
 74
     0
 42
0.0000000001
 43
0.0000000001
 40
0.0
 40
0.0
 40
0.0
 40
0.0
 40
80.0
 40
80.0
 40
80.0
 40
80.0
 10
232.5405814163377
 20
134.7571005367911
 30
0.0
 10
232.5405814163377
 20
134.9183324484917
 30
0.0
 10
232.5913060678403
 20
135.0514846224048
 30
0.0
 10
232.6927553293812
 20
135.1565570585302
 30
0.0
  0
SPLINE
  5
2BB0
330
1F
100
AcDbEntity
  8
AM_VIS
100
AcDbSpline
210
0.0
220
0.0
230
1.0
 70
     8
 71
     3
 72
     8
 73
     4
 74
     0
 42
0.0000000001
 43
0.0000000001
 40
0.0
 40
0.0
 40
0.0
 40
0.0
 40
80.0
 40
80.0
 40
80.0
 40
80.0
 10
232.7471031554682
 20
134.3440570585302
 30
0.0
 10
232.6094220236907
 20
134.4400715789265
 30
0.0
 10
232.5405814163377
 20
134.5777527107041
 30
0.0
 10
232.5405814163377
 20
134.7571005367911
 30
0.0
  0
SPLINE
  5
2BB1
330
1F
100
AcDbEntity
  8
AM_VIS
100
AcDbSpline
210
0.0
220
0.0
230
1.0
 70
     8
 71
     3
 72
     8
 73
     4
 74
     0
 42
0.0000000001
 43
0.0000000001
 40
0.0
 40
0.0
 40
0.0
 40
0.0
 40
80.0
 40
80.0
 40
80.0
 40
80.0
 10
222.5201087132839
 20
142.8592701077977
 30
0.0
 10
222.4846005155553
 20
142.9143078081816
 30
0.0
 10
222.4011562326071
 20
142.9498160465461
 30
0.0
 10
222.2697758238031
 20
142.9657947416193
 30
0.0
  0
LINE
  5
2BB2
330
1F
100
AcDbEntity
  8
AM_VIS
100
AcDbLine
 10
223.0580581140828
 20
142.0603353541361
 30
0.0
 11
222.5201087132839
 21
142.8592701077979
 31
0.0
  0
SPLINE
  5
2BB3
330
1F
100
AcDbEntity
  8
AM_VIS
100
AcDbSpline
210
0.0
220
0.0
230
1.0
 70
     8
 71
     3
 72
     8
 73
     4
 74
     0
 42
0.0000000001
 43
0.0000000001
 40
0.0
 40
0.0
 40
0.0
 40
0.0
 40
80.0
 40
80.0
 40
80.0
 40
80.0
 10
222.7517997918458
 20
141.9511476044689
 30
0.0
 10
222.8228162279388
 20
141.9990836896886
 30
0.0
 10
222.9249023218058
 20
142.0354796197896
 30
0.0
 10
223.0580581140828
 20
142.060335354136
 30
0.0
  0
SPLINE
  5
2BB4
330
1F
100
AcDbEntity
  8
AM_VIS
100
AcDbSpline
210
0.0
220
0.0
230
1.0
 70
     8
 71
     3
 72
     8
 73
     4
 74
     0
 42
0.0000000001
 43
0.0000000001
 40
0.0
 40
0.0
 40
0.0
 40
0.0
 40
80.0
 40
80.0
 40
80.0
 40
80.0
 10
222.5627185668125
 20
141.5729851544023
 30
0.0
 10
222.5627185668125
 20
141.7416491850438
 30
0.0
 10
222.6257456553689
 20
141.8677033215206
 30
0.0
 10
222.7517997918458
 20
141.9511476044689
 30
0.0
  0
SPLINE
  5
2BB5
330
1F
100
AcDbEntity
  8
AM_VIS
100
AcDbSpline
210
0.0
220
0.0
230
1.0
 70
     8
 71
     3
 72
     8
 73
     4
 74
     0
 42
0.0000000001
 43
0.0000000001
 40
0.0
 40
0.0
 40
0.0
 40
0.0
 40
80.0
 40
80.0
 40
80.0
 40
80.0
 10
222.7997358770655
 20
141.1442235032705
 30
0.0
 10
222.6417243504421
 20
141.2294432103277
 30
0.0
 10
222.5627185668125
 20
141.3723637742503
 30
0.0
 10
222.5627185668125
 20
141.5729851544023
 30
0.0
  0
SPLINE
  5
2BB6
330
1F
100
AcDbEntity
  8
AM_VIS
100
AcDbSpline
210
0.0
220
0.0
230
1.0
 70
     8
 71
     3
 72
     8
 73
     4
 74
     0
 42
0.0000000001
 43
0.0000000001
 40
0.0
 40
0.0
 40
0.0
 40
0.0
 40
80.0
 40
80.0
 40
80.0
 40
80.0
 10
223.207192601433
 20
141.0590037962132
 30
0.0
 10
223.0420794190095
 20
141.0590037962132
 30
0.0
 10
222.906260510887
 20
141.0874103787777
 30
0.0
 10
222.7997358770655
 20
141.1442235032705
 30
0.0
  0
LINE
  5
2BB7
330
1F
100
AcDbEntity
  8
AM_VIS
100
AcDbLine
 10
223.9155814163463
 20
141.0590037962132
 30
0.0
 11
223.207192601433
 21
141.0590037962132
 31
0.0
  0
LINE
  5
2BB8
330
1F
100
AcDbEntity
  8
AM_VIS
100
AcDbLine
 10
223.9155814163463
 20
141.112266113124
 30
0.0
 11
223.9155814163463
 21
141.0590037962132
 31
0.0
  0
SPLINE
  5
2BB9
330
1F
100
AcDbEntity
  8
AM_VIS
100
AcDbSpline
210
0.0
220
0.0
230
1.0
 70
     8
 71
     3
 72
     8
 73
     4
 74
     0
 42
0.0000000001
 43
0.0000000001
 40
0.0
 40
0.0
 40
0.0
 40
0.0
 40
80.0
 40
80.0
 40
80.0
 40
80.0
 10
223.7185108437765
 20
141.181507125108
 30
0.0
 10
223.7504682339231
 20
141.1459989273795
 30
0.0
 10
223.8161584383249
 20
141.1229185765062
 30
0.0
 10
223.9155814163463
 20
141.112266113124
 30
0.0
  0
SPLINE
  5
2BBA
330
1F
100
AcDbEntity
  8
AM_VIS
100
AcDbSpline
210
0.0
220
0.0
230
1.0
 70
     8
 71
     3
 72
     8
 73
     4
 74
     0
 42
0.0000000001
 43
0.0000000001
 40
0.0
 40
0.0
 40
0.0
 40
0.0
 40
80.0
 40
80.0
 40
80.0
 40
80.0
 10
223.6599222951747
 20
141.4131982036699
 30
0.0
 10
223.6599223358107
 20
141.3013473381574
 30
0.0
 10
223.6794518384658
 20
141.2241169786366
 30
0.0
 10
223.7185108437765
 20
141.181507125108
 30
0.0
  0
LINE
  5
2BBB
330
1F
100
AcDbEntity
  8
AM_VIS
100
AcDbLine
 10
223.6599222951747
 20
142.632905260927
 30
0.0
 11
223.6599222951747
 21
141.41319820367
 31
0.0
  0
SPLINE
  5
2BBC
330
1F
100
AcDbEntity
  8
AM_VIS
100
AcDbSpline
210
0.0
220
0.0
230
1.0
 70
     8
 71
     3
 72
     8
 73
     4
 74
     0
 42
0.0000000001
 43
0.0000000001
 40
0.0
 40
0.0
 40
0.0
 40
0.0
 40
80.0
 40
80.0
 40
80.0
 40
80.0
 10
223.7105214962398
 20
142.880575034562
 30
0.0
 10
223.6767887226203
 20
142.8361897975604
 30
0.0
 10
223.6599223358107
 20
142.7536332063487
 30
0.0
 10
223.6599222951747
 20
142.6329052609269
 30
0.0
  0
SPLINE
  5
2BBD
330
1F
100
AcDbEntity
  8
AM_VIS
100
AcDbSpline
210
0.0
220
0.0
230
1.0
 70
     8
 71
     3
 72
     8
 73
     4
 74
     0
 42
0.0000000001
 43
0.0000000001
 40
0.0
 40
0.0
 40
0.0
 40
0.0
 40
80.0
 40
80.0
 40
80.0
 40
80.0
 10
223.9155814163463
 20
142.9657947416193
 30
0.0
 10
223.8126076307428
 20
142.9551422782372
 30
0.0
 10
223.7442543104953
 20
142.9267356956728
 30
0.0
 10
223.7105214962398
 20
142.880575034562
 30
0.0
  0
LINE
  5
2BBE
330
1F
100
AcDbEntity
  8
AM_VIS
100
AcDbLine
 10
223.9155814163463
 20
143.0190570585302
 30
0.0
 11
223.9155814163463
 21
142.9657947416193
 31
0.0
  0
LINE
  5
2BBF
330
1F
100
AcDbEntity
  8
AM_VIS
100
AcDbLine
 10
223.2231712965062
 20
143.0190570585302
 30
0.0
 11
223.9155814163463
 21
143.0190570585302
 31
0.0
  0
LINE
  5
2BC0
330
1F
100
AcDbEntity
  8
AM_VIS
100
AcDbLine
 10
223.2231712965062
 20
142.9657947416193
 30
0.0
 11
223.2231712965062
 21
143.0190570585302
 31
0.0
  0
SPLINE
  5
2BC1
330
1F
100
AcDbEntity
  8
AM_VIS
100
AcDbSpline
210
0.0
220
0.0
230
1.0
 70
     8
 71
     3
 72
     8
 73
     4
 74
     0
 42
0.0000000001
 43
0.0000000001
 40
0.0
 40
0.0
 40
0.0
 40
0.0
 40
80.0
 40
80.0
 40
80.0
 40
80.0
 10
223.4335574483038
 20
142.8912274979443
 30
0.0
 10
223.3962738671022
 20
142.9320619273639
 30
0.0
 10
223.3261451227457
 20
142.9569176617102
 30
0.0
 10
223.2231712965062
 20
142.9657947416193
 30
0.0
  0
SPLINE
  5
2BC2
330
1F
100
AcDbEntity
  8
AM_VIS
100
AcDbSpline
210
0.0
220
0.0
230
1.0
 70
     8
 71
     3
 72
     8
 73
     4
 74
     0
 42
0.0000000001
 43
0.0000000001
 40
0.0
 40
0.0
 40
0.0
 40
0.0
 40
80.0
 40
80.0
 40
80.0
 40
80.0
 10
223.4921459969057
 20
142.6701888827644
 30
0.0
 10
223.4921459969057
 20
142.774938133113
 30
0.0
 10
223.4726164942503
 20
142.8486176444156
 30
0.0
 10
223.4335574483038
 20
142.8912274979443
 30
0.0
  0
LINE
  5
2BC3
330
1F
100
AcDbEntity
  8
AM_VIS
100
AcDbLine
 10
223.4921459969057
 20
142.1002820918191
 30
0.0
 11
223.4921459969057
 21
142.6701888827646
 31
0.0
  0
LINE
  5
2BC4
330
1F
100
AcDbEntity
  8
AM_VIS
100
AcDbLine
 10
223.2684442658804
 20
142.089629628437
 30
0.0
 11
223.4921459969057
 21
142.1002820918191
 31
0.0
  0
LINE
  5
2BC5
330
1F
100
AcDbEntity
  8
AM_VIS
100
AcDbLine
 10
222.6372858104876
 20
143.0190570585302
 30
0.0
 11
223.2684442658804
 21
142.089629628437
 31
0.0
  0
LINE
  5
2BC6
330
1F
100
AcDbEntity
  8
AM_VIS
100
AcDbLine
 10
222.2697758238031
 20
143.0190570585302
 30
0.0
 11
222.6372858104876
 21
143.0190570585302
 31
0.0
  0
LINE
  5
2BC7
330
1F
100
AcDbEntity
  8
AM_VIS
100
AcDbLine
 10
222.2697758238031
 20
142.9657947416193
 30
0.0
 11
222.2697758238031
 21
143.0190570585302
 31
0.0
  0
SPLINE
  5
2BC8
330
1F
100
AcDbEntity
  8
AM_VIS
100
AcDbSpline
210
0.0
220
0.0
230
1.0
 70
     8
 71
     3
 72
     8
 73
     4
 74
     0
 42
0.0000000001
 43
0.0000000001
 40
0.0
 40
0.0
 40
0.0
 40
0.0
 40
80.0
 40
80.0
 40
80.0
 40
80.0
 10
221.2058610435101
 20
142.8219864859602
 30
0.0
 10
221.1756790774728
 20
142.7953553681408
 30
0.0
 10
221.1348446480531
 20
142.7314405472119
 30
0.0
 10
221.0833577146154
 20
142.6302421450814
 30
0.0
  0
SPLINE
  5
2BC9
330
1F
100
AcDbEntity
  8
AM_VIS
100
AcDbSpline
210
0.0
220
0.0
230
1.0
 70
     8
 71
     3
 72
     8
 73
     4
 74
     0
 42
0.0000000001
 43
0.0000000001
 40
0.0
 40
0.0
 40
0.0
 40
0.0
 40
80.0
 40
80.0
 40
80.0
 40
80.0
 10
221.3416799516327
 20
142.8725856870255
 30
0.0
 10
221.2830914030309
 20
142.8725856870255
 30
0.0
 10
221.2378184336567
 20
142.8557193002157
 30
0.0
 10
221.2058610435101
 20
142.8219864859602
 30
0.0
  0
LINE
  5
2BCA
330
1F
100
AcDbEntity
  8
AM_VIS
100
AcDbLine
 10
221.9382179010334
 20
142.8725856870255
 30
0.0
 11
221.3416799516326
 21
142.8725856870255
 31
0.0
  0
LINE
  5
2BCB
330
1F
100
AcDbEntity
  8
AM_VIS
100
AcDbLine
 10
221.4402152379177
 20
142.2653952742425
 30
0.0
 11
221.9382179010336
 21
142.8725856870255
 31
0.0
  0
SPLINE
  5
2BCC
330
1F
100
AcDbEntity
  8
AM_VIS
100
AcDbSpline
210
0.0
220
0.0
230
1.0
 70
     8
 71
     3
 72
     8
 73
     4
 74
     0
 42
0.0000000001
 43
0.0000000001
 40
0.0
 40
0.0
 40
0.0
 40
0.0
 40
80.0
 40
80.0
 40
80.0
 40
80.0
 10
221.1605880741361
 20
141.5463539959469
 30
0.0
 10
221.1605880741361
 20
141.8002377336456
 30
0.0
 10
221.25379712873
 20
142.0399181597441
 30
0.0
 10
221.4402152379177
 20
142.2653952742425
 30
0.0
  0
SPLINE
  5
2BCD
330
1F
100
AcDbEntity
  8
AM_VIS
100
AcDbSpline
210
0.0
220
0.0
230
1.0
 70
     8
 71
     3
 72
     8
 73
     4
 74
     0
 42
0.0000000001
 43
0.0000000001
 40
0.0
 40
0.0
 40
0.0
 40
0.0
 40
80.0
 40
80.0
 40
80.0
 40
80.0
 10
221.3043963297952
 20
141.1575390824981
 30
0.0
 10
221.2085241593558
 20
141.2605129087377
 30
0.0
 10
221.1605880741361
 20
141.3901178934326
 30
0.0
 10
221.1605880741361
 20
141.5463539959469
 30
0.0
  0
SPLINE
  5
2BCE
330
1F
100
AcDbEntity
  8
AM_VIS
100
AcDbSpline
210
0.0
220
0.0
230
1.0
 70
     8
 71
     3
 72
     8
 73
     4
 74
     0
 42
0.0000000001
 43
0.0000000001
 40
0.0
 40
0.0
 40
0.0
 40
0.0
 40
80.0
 40
80.0
 40
80.0
 40
80.0
 10
221.6266333471054
 20
141.0190570585301
 30
0.0
 10
221.5005792106286
 20
141.0190570585301
 30
0.0
 10
221.3931668850704
 20
141.0652177602768
 30
0.0
 10
221.3043963297952
 20
141.1575390824981
 30
0.0
  0
SPLINE
  5
2BCF
330
1F
100
AcDbEntity
  8
AM_VIS
100
AcDbSpline
210
0.0
220
0.0
230
1.0
 70
     8
 71
     3
 72
     8
 73
     4
 74
     0
 42
0.0000000001
 43
0.0000000001
 40
0.0
 40
0.0
 40
0.0
 40
0.0
 40
80.0
 40
80.0
 40
80.0
 40
80.0
 10
221.9462072485701
 20
141.141560387425
 30
0.0
 10
221.8556613098218
 20
141.0598915285857
 30
0.0
 10
221.7491366760003
 20
141.0190570585301
 30
0.0
 10
221.6266333471054
 20
141.0190570585301
 30
0.0
  0
SPLINE
  5
2BD0
330
1F
100
AcDbEntity
  8
AM_VIS
100
AcDbSpline
210
0.0
220
0.0
230
1.0
 70
     8
 71
     3
 72
     8
 73
     4
 74
     0
 42
0.0000000001
 43
0.0000000001
 40
0.0
 40
0.0
 40
0.0
 40
0.0
 40
80.0
 40
80.0
 40
80.0
 40
80.0
 10
222.1619196320588
 20
141.5916269653211
 30
0.0
 10
222.1264114343303
 20
141.3892301610601
 30
0.0
 10
222.0545073065007
 20
141.2392079819733
 30
0.0
 10
221.9462072485701
 20
141.141560387425
 30
0.0
  0
LINE
  5
2BD1
330
1F
100
AcDbEntity
  8
AM_VIS
100
AcDbLine
 10
222.108657315148
 20
141.5996163128576
 30
0.0
 11
222.1619196320588
 21
141.5916269653211
 31
0.0
  0
SPLINE
  5
2BD2
330
1F
100
AcDbEntity
  8
AM_VIS
100
AcDbSpline
210
0.0
220
0.0
230
1.0
 70
     8
 71
     3
 72
     8
 73
     4
 74
     0
 42
0.0000000001
 43
0.0000000001
 40
0.0
 40
0.0
 40
0.0
 40
0.0
 40
80.0
 40
80.0
 40
80.0
 40
80.0
 10
221.9914802179443
 20
141.3173260332305
 30
0.0
 10
222.0127851447086
 20
141.352834271595
 30
0.0
 10
222.0518441906552
 20
141.4469310179254
 30
0.0
 10
222.108657315148
 20
141.5996163128577
 30
0.0
  0
SPLINE
  5
2BD3
330
1F
100
AcDbEntity
  8
AM_VIS
100
AcDbSpline
210
0.0
220
0.0
230
1.0
 70
     8
 71
     3
 72
     8
 73
     4
 74
     0
 42
0.0000000001
 43
0.0000000001
 40
0.0
 40
0.0
 40
0.0
 40
0.0
 40
80.0
 40
80.0
 40
80.0
 40
80.0
 10
221.7411473284636
 20
141.1602021983437
 30
0.0
 10
221.8441211547031
 20
141.1602021983437
 30
0.0
 10
221.9275654376513
 20
141.212576823518
 30
0.0
 10
221.9914802179443
 20
141.3173260332305
 30
0.0
  0
SPLINE
  5
2BD4
330
1F
100
AcDbEntity
  8
AM_VIS
100
AcDbSpline
210
0.0
220
0.0
230
1.0
 70
     8
 71
     3
 72
     8
 73
     4
 74
     0
 42
0.0000000001
 43
0.0000000001
 40
0.0
 40
0.0
 40
0.0
 40
0.0
 40
80.0
 40
80.0
 40
80.0
 40
80.0
 10
221.4055947319256
 20
141.3386309599948
 30
0.0
 10
221.4837128238188
 20
141.2196784793181
 30
0.0
 10
221.5955636893314
 20
141.1602021983437
 30
0.0
 10
221.7411473284636
 20
141.1602021983437
 30
0.0
  0
SPLINE
  5
2BD5
330
1F
100
AcDbEntity
  8
AM_VIS
100
AcDbSpline
210
0.0
220
0.0
230
1.0
 70
     8
 71
     3
 72
     8
 73
     4
 74
     0
 42
0.0000000001
 43
0.0000000001
 40
0.0
 40
0.0
 40
0.0
 40
0.0
 40
80.0
 40
80.0
 40
80.0
 40
80.0
 10
221.3177119090228
 20
141.6502155139229
 30
0.0
 10
221.3106102938586
 20
141.5383646484102
 30
0.0
 10
221.3399045681596
 20
141.4345031304343
 30
0.0
 10
221.4055947319256
 20
141.3386309599948
 30
0.0
  0
SPLINE
  5
2BD6
330
1F
100
AcDbEntity
  8
AM_VIS
100
AcDbSpline
210
0.0
220
0.0
230
1.0
 70
     8
 71
     3
 72
     8
 73
     4
 74
     0
 42
0.0000000001
 43
0.0000000001
 40
0.0
 40
0.0
 40
0.0
 40
0.0
 40
80.0
 40
80.0
 40
80.0
 40
80.0
 10
221.7065268224716
 20
142.4411609200481
 30
0.0
 10
221.4615201646819
 20
142.1411165618747
 30
0.0
 10
221.331915220623
 20
141.8774680931663
 30
0.0
 10
221.3177119090228
 20
141.6502155139229
 30
0.0
  0
LINE
  5
2BD7
330
1F
100
AcDbEntity
  8
AM_VIS
100
AcDbLine
 10
222.1699089795954
 20
143.0057414793024
 30
0.0
 11
221.7065268224716
 21
142.4411609200481
 31
0.0
  0
LINE
  5
2BD8
330
1F
100
AcDbEntity
  8
AM_VIS
100
AcDbLine
 10
222.1699089795954
 20
143.0190570585302
 30
0.0
 11
222.1699089795954
 21
143.0057414793024
 31
0.0
  0
LINE
  5
2BD9
330
1F
100
AcDbEntity
  8
AM_VIS
100
AcDbLine
 10
221.1685774216727
 20
143.0190570585302
 30
0.0
 11
222.1699089795954
 21
143.0190570585302
 31
0.0
  0
LINE
  5
2BDA
330
1F
100
AcDbEntity
  8
AM_VIS
100
AcDbLine
 10
221.0300953977046
 20
142.6302421450814
 30
0.0
 11
221.1685774216726
 21
143.0190570585302
 31
0.0
  0
LINE
  5
2BDB
330
1F
100
AcDbEntity
  8
AM_VIS
100
AcDbLine
 10
221.0833577146154
 20
142.6302421450814
 30
0.0
 11
221.0300953977046
 21
142.6302421450814
 31
0.0
  0
SPLINE
  5
2BDC
330
1F
100
AcDbEntity
  8
AM_VIS
100
AcDbSpline
210
0.0
220
0.0
230
1.0
 70
     8
 71
     3
 72
     8
 73
     4
 74
     0
 42
0.0000000001
 43
0.0000000001
 40
0.0
 40
0.0
 40
0.0
 40
0.0
 40
80.0
 40
80.0
 40
80.0
 40
80.0
 10
250.2003407746144
 20
135.8586292510435
 30
0.0
 10
250.164690164328
 20
135.9138876908674
 30
0.0
 10
250.0809112117958
 20
135.9495383419526
 30
0.0
 10
249.9490038762187
 20
135.9655811227013
 30
0.0
  0
LINE
  5
2BDD
330
1F
100
AcDbEntity
  8
AM_VIS
100
AcDbLine
 10
250.740447726486
 20
135.0564902136103
 30
0.0
 11
250.2003407746142
 21
135.8586292510434
 31
0.0
  0
SPLINE
  5
2BDE
330
1F
100
AcDbEntity
  8
AM_VIS
100
AcDbSpline
210
0.0
220
0.0
230
1.0
 70
     8
 71
     3
 72
     8
 73
     4
 74
     0
 42
0.0000000001
 43
0.0000000001
 40
0.0
 40
0.0
 40
0.0
 40
0.0
 40
80.0
 40
80.0
 40
80.0
 40
80.0
 10
250.43296109547
 20
134.9468645451611
 30
0.0
 10
250.5042623568415
 20
134.9949928874072
 30
0.0
 10
250.6067578869137
 20
135.0315347904899
 30
0.0
 10
250.740447726486
 20
135.0564902136103
 30
0.0
  0
SPLINE
  5
2BDF
330
1F
100
AcDbEntity
  8
AM_VIS
100
AcDbSpline
210
0.0
220
0.0
230
1.0
 70
     8
 71
     3
 72
     8
 73
     4
 74
     0
 42
0.0000000001
 43
0.0000000001
 40
0.0
 40
0.0
 40
0.0
 40
0.0
 40
80.0
 40
80.0
 40
80.0
 40
80.0
 10
250.2431215232775
 20
134.5671854007761
 30
0.0
 10
250.2431215232775
 20
134.7365258914335
 30
0.0
 10
250.3064013942746
 20
134.8630855926288
 30
0.0
 10
250.43296109547
 20
134.9468645451611
 30
0.0
  0
SPLINE
  5
2BE0
330
1F
100
AcDbEntity
  8
AM_VIS
100
AcDbSpline
210
0.0
220
0.0
230
1.0
 70
     8
 71
     3
 72
     8
 73
     4
 74
     0
 42
0.0000000001
 43
0.0000000001
 40
0.0
 40
0.0
 40
0.0
 40
0.0
 40
80.0
 40
80.0
 40
80.0
 40
80.0
 10
250.481089437716
 20
134.1367041173537
 30
0.0
 10
250.3224441750232
 20
134.2222656146799
 30
0.0
 10
250.2431215232775
 20
134.3657593894203
 30
0.0
 10
250.2431215232775
 20
134.5671854007761
 30
0.0
  0
SPLINE
  5
2BE1
330
1F
100
AcDbEntity
  8
AM_VIS
100
AcDbSpline
210
0.0
220
0.0
230
1.0
 70
     8
 71
     3
 72
     8
 73
     4
 74
     0
 42
0.0000000001
 43
0.0000000001
 40
0.0
 40
0.0
 40
0.0
 40
0.0
 40
80.0
 40
80.0
 40
80.0
 40
80.0
 10
250.8901803468067
 20
134.0511426200274
 30
0.0
 10
250.7244049457374
 20
134.0511426200274
 30
0.0
 10
250.5880413093736
 20
134.0796631327358
 30
0.0
 10
250.481089437716
 20
134.1367041173537
 30
0.0
  0
LINE
  5
2BE2
330
1F
100
AcDbEntity
  8
AM_VIS
100
AcDbLine
 10
251.6014102933308
 20
134.0511426200274
 30
0.0
 11
250.8901803468067
 21
134.0511426200274
 31
0.0
  0
LINE
  5
2BE3
330
1F
100
AcDbEntity
  8
AM_VIS
100
AcDbLine
 10
251.6014102933308
 20
134.1046185558564
 30
0.0
 11
251.6014102933308
 21
134.0511426200274
 31
0.0
  0
SPLINE
  5
2BE4
330
1F
100
AcDbEntity
  8
AM_VIS
100
AcDbSpline
210
0.0
220
0.0
230
1.0
 70
     8
 71
     3
 72
     8
 73
     4
 74
     0
 42
0.0000000001
 43
0.0000000001
 40
0.0
 40
0.0
 40
0.0
 40
0.0
 40
80.0
 40
80.0
 40
80.0
 40
80.0
 10
251.4035493307639
 20
134.1741372724339
 30
0.0
 10
251.4356348922615
 20
134.1384866621476
 30
0.0
 10
251.50158856005
 20
134.1153137430221
 30
0.0
 10
251.6014102933308
 20
134.1046185558564
 30
0.0
  0
SPLINE
  5
2BE5
330
1F
100
AcDbEntity
  8
AM_VIS
100
AcDbSpline
210
0.0
220
0.0
230
1.0
 70
     8
 71
     3
 72
     8
 73
     4
 74
     0
 42
0.0000000001
 43
0.0000000001
 40
0.0
 40
0.0
 40
0.0
 40
0.0
 40
80.0
 40
80.0
 40
80.0
 40
80.0
 10
251.3447258013522
 20
134.4067575932895
 30
0.0
 10
251.3447258421513
 20
134.2944581280488
 30
0.0
 10
251.3643336716888
 20
134.216918021097
 30
0.0
 10
251.4035493307639
 20
134.1741372724339
 30
0.0
  0
LINE
  5
2BE6
330
1F
100
AcDbEntity
  8
AM_VIS
100
AcDbLine
 10
251.3447258013522
 20
135.6313565237708
 30
0.0
 11
251.3447258013522
 21
134.4067575932896
 31
0.0
  0
SPLINE
  5
2BE7
330
1F
100
AcDbEntity
  8
AM_VIS
100
AcDbSpline
210
0.0
220
0.0
230
1.0
 70
     8
 71
     3
 72
     8
 73
     4
 74
     0
 42
0.0000000001
 43
0.0000000001
 40
0.0
 40
0.0
 40
0.0
 40
0.0
 40
80.0
 40
80.0
 40
80.0
 40
80.0
 10
251.3955279403896
 20
135.8800196253751
 30
0.0
 10
251.3616598748974
 20
135.835456372717
 30
0.0
 10
251.3447258421513
 20
135.7525686721821
 30
0.0
 10
251.3447258013522
 20
135.6313565237708
 30
0.0
  0
SPLINE
  5
2BE8
330
1F
100
AcDbEntity
  8
AM_VIS
100
AcDbSpline
210
0.0
220
0.0
230
1.0
 70
     8
 71
     3
 72
     8
 73
     4
 74
     0
 42
0.0000000001
 43
0.0000000001
 40
0.0
 40
0.0
 40
0.0
 40
0.0
 40
80.0
 40
80.0
 40
80.0
 40
80.0
 10
251.6014102933308
 20
135.9655811227013
 30
0.0
 10
251.4980235112611
 20
135.9548859355355
 30
0.0
 10
251.4293960466809
 20
135.9263654228272
 30
0.0
 10
251.3955279403896
 20
135.8800196253751
 30
0.0
  0
LINE
  5
2BE9
330
1F
100
AcDbEntity
  8
AM_VIS
100
AcDbLine
 10
251.6014102933308
 20
136.0190570585301
 30
0.0
 11
251.6014102933308
 21
135.9655811227013
 31
0.0
  0
LINE
  5
2BEA
330
1F
100
AcDbEntity
  8
AM_VIS
100
AcDbLine
 10
250.9062231275554
 20
136.0190570585301
 30
0.0
 11
251.6014102933308
 21
136.0190570585301
 31
0.0
  0
LINE
  5
2BEB
330
1F
100
AcDbEntity
  8
AM_VIS
100
AcDbLine
 10
250.9062231275554
 20
135.9655811227013
 30
0.0
 11
250.9062231275554
 21
136.0190570585301
 31
0.0
  0
SPLINE
  5
2BEC
330
1F
100
AcDbEntity
  8
AM_VIS
100
AcDbSpline
210
0.0
220
0.0
230
1.0
 70
     8
 71
     3
 72
     8
 73
     4
 74
     0
 42
0.0000000001
 43
0.0000000001
 40
0.0
 40
0.0
 40
0.0
 40
0.0
 40
80.0
 40
80.0
 40
80.0
 40
80.0
 10
251.1174530740795
 20
135.8907148125408
 30
0.0
 10
251.0800199597984
 20
135.93171301641
 30
0.0
 10
251.0096099504244
 20
135.9566684395305
 30
0.0
 10
250.9062231275554
 20
135.9655811227013
 30
0.0
  0
SPLINE
  5
2BED
330
1F
100
AcDbEntity
  8
AM_VIS
100
AcDbSpline
210
0.0
220
0.0
230
1.0
 70
     8
 71
     3
 72
     8
 73
     4
 74
     0
 42
0.0000000001
 43
0.0000000001
 40
0.0
 40
0.0
 40
0.0
 40
0.0
 40
80.0
 40
80.0
 40
80.0
 40
80.0
 10
251.1762766034914
 20
135.668789678851
 30
0.0
 10
251.1762766034914
 20
135.7739590465137
 30
0.0
 10
251.1566687739537
 20
135.8479340638778
 30
0.0
 10
251.1174530740795
 20
135.8907148125408
 30
0.0
  0
LINE
  5
2BEE
330
1F
100
AcDbEntity
  8
AM_VIS
100
AcDbLine
 10
251.1762766034914
 20
135.0965971654821
 30
0.0
 11
251.1762766034914
 21
135.6687896788511
 31
0.0
  0
LINE
  5
2BEF
330
1F
100
AcDbEntity
  8
AM_VIS
100
AcDbLine
 10
250.9516776730101
 20
135.0859019783163
 30
0.0
 11
251.1762766034914
 21
135.0965971654821
 31
0.0
  0
LINE
  5
2BF0
330
1F
100
AcDbEntity
  8
AM_VIS
100
AcDbLine
 10
250.3179878334378
 20
136.0190570585301
 30
0.0
 11
250.9516776730101
 21
135.0859019783162
 31
0.0
  0
LINE
  5
2BF1
330
1F
100
AcDbEntity
  8
AM_VIS
100
AcDbLine
 10
249.9490038762187
 20
136.0190570585301
 30
0.0
 11
250.3179878334378
 21
136.0190570585301
 31
0.0
  0
LINE
  5
2BF2
330
1F
100
AcDbEntity
  8
AM_VIS
100
AcDbLine
 10
249.9490038762187
 20
135.9655811227013
 30
0.0
 11
249.9490038762187
 21
136.0190570585301
 31
0.0
  0
SPLINE
  5
2BF3
330
1F
100
AcDbEntity
  8
AM_VIS
100
AcDbSpline
210
0.0
220
0.0
230
1.0
 70
     8
 71
     3
 72
     8
 73
     4
 74
     0
 42
0.0000000001
 43
0.0000000001
 40
0.0
 40
0.0
 40
0.0
 40
0.0
 40
80.0
 40
80.0
 40
80.0
 40
80.0
 10
249.129485159641
 20
135.9228003740381
 30
0.0
 10
249.0867044109779
 20
135.9513208459476
 30
0.0
 10
249.0154031904055
 20
135.9655811227013
 30
0.0
 10
248.9155814163257
 20
135.9655811227013
 30
0.0
  0
SPLINE
  5
2BF4
330
1F
100
AcDbEntity
  8
AM_VIS
100
AcDbSpline
210
0.0
220
0.0
230
1.0
 70
     8
 71
     3
 72
     8
 73
     4
 74
     0
 42
0.0000000001
 43
0.0000000001
 40
0.0
 40
0.0
 40
0.0
 40
0.0
 40
80.0
 40
80.0
 40
80.0
 40
80.0
 10
249.1936562826358
 20
135.7596987697601
 30
0.0
 10
249.1936562826358
 20
135.8363476247144
 30
0.0
 10
249.1722659083043
 20
135.8907147717419
 30
0.0
 10
249.129485159641
 20
135.9228003740381
 30
0.0
  0
LINE
  5
2BF5
330
1F
100
AcDbEntity
  8
AM_VIS
100
AcDbLine
 10
249.1936562826358
 20
134.0190570585301
 30
0.0
 11
249.1936562826358
 21
135.7596987697601
 31
0.0
  0
LINE
  5
2BF6
330
1F
100
AcDbEntity
  8
AM_VIS
100
AcDbLine
 10
249.6455279403896
 20
134.2356345986371
 30
0.0
 11
249.1936562826356
 21
134.0190570585301
 31
0.0
  0
LINE
  5
2BF7
330
1F
100
AcDbEntity
  8
AM_VIS
100
AcDbLine
 10
249.6455279403896
 20
134.2784153473002
 30
0.0
 11
249.6455279403896
 21
134.2356345986371
 31
0.0
  0
SPLINE
  5
2BF8
330
1F
100
AcDbEntity
  8
AM_VIS
100
AcDbSpline
210
0.0
220
0.0
230
1.0
 70
     8
 71
     3
 72
     8
 73
     4
 74
     0
 42
0.0000000001
 43
0.0000000001
 40
0.0
 40
0.0
 40
0.0
 40
0.0
 40
80.0
 40
80.0
 40
80.0
 40
80.0
 10
249.4530145714058
 20
134.2302870050542
 30
0.0
 10
249.4993604096568
 20
134.2302870050542
 30
0.0
 10
249.5635315326514
 20
134.2463297858029
 30
0.0
 10
249.6455279403896
 20
134.2784153473002
 30
0.0
  0
SPLINE
  5
2BF9
330
1F
100
AcDbEntity
  8
AM_VIS
100
AcDbSpline
210
0.0
220
0.0
230
1.0
 70
     8
 71
     3
 72
     8
 73
     4
 74
     0
 42
0.0000000001
 43
0.0000000001
 40
0.0
 40
0.0
 40
0.0
 40
0.0
 40
80.0
 40
80.0
 40
80.0
 40
80.0
 10
249.3433889029565
 20
134.3826934221665
 30
0.0
 10
249.3433889029565
 20
134.2810891440916
 30
0.0
 10
249.3799308060392
 20
134.2302870050542
 30
0.0
 10
249.4530145714058
 20
134.2302870050542
 30
0.0
  0
LINE
  5
2BFA
330
1F
100
AcDbEntity
  8
AM_VIS
100
AcDbLine
 10
249.3433889029565
 20
135.7088966307226
 30
0.0
 11
249.3433889029565
 21
134.3826934221664
 31
0.0
  0
SPLINE
  5
2BFB
330
1F
100
AcDbEntity
  8
AM_VIS
100
AcDbSpline
210
0.0
220
0.0
230
1.0
 70
     8
 71
     3
 72
     8
 73
     4
 74
     0
 42
0.0000000001
 43
0.0000000001
 40
0.0
 40
0.0
 40
0.0
 40
0.0
 40
80.0
 40
80.0
 40
80.0
 40
80.0
 10
249.4236028067
 20
135.9228003740381
 30
0.0
 10
249.3701268708709
 20
135.885367178159
 30
0.0
 10
249.3433889029565
 20
135.8140659983854
 30
0.0
 10
249.3433889029565
 20
135.7088966307227
 30
0.0
  0
SPLINE
  5
2BFC
330
1F
100
AcDbEntity
  8
AM_VIS
100
AcDbSpline
210
0.0
220
0.0
230
1.0
 70
     8
 71
     3
 72
     8
 73
     4
 74
     0
 42
0.0000000001
 43
0.0000000001
 40
0.0
 40
0.0
 40
0.0
 40
0.0
 40
80.0
 40
80.0
 40
80.0
 40
80.0
 10
249.6187899724752
 20
135.9655811227013
 30
0.0
 10
249.5243158327773
 20
135.9620160331134
 30
0.0
 10
249.459253457785
 20
135.9477557971587
 30
0.0
 10
249.4236028067
 20
135.9228003740381
 30
0.0
  0
LINE
  5
2BFD
330
1F
100
AcDbEntity
  8
AM_VIS
100
AcDbLine
 10
249.6187899724752
 20
136.0190570585301
 30
0.0
 11
249.6187899724752
 21
135.9655811227013
 31
0.0
  0
LINE
  5
2BFE
330
1F
100
AcDbEntity
  8
AM_VIS
100
AcDbLine
 10
248.9155814163254
 20
136.0190570585301
 30
0.0
 11
249.6187899724752
 21
136.0190570585301
 31
0.0
  0
LINE
  5
2BFF
330
1F
100
AcDbEntity
  8
AM_VIS
100
AcDbLine
 10
248.9155814163257
 20
135.9655811227013
 30
0.0
 11
248.9155814163257
 21
136.0190570585301
 31
0.0
  0
LINE
  5
2C00
330
1F
100
AcDbEntity
  8
AM_VIS
100
AcDbLine
 10
224.5155814163465
 20
143.0190570585302
 30
0.0
 11
224.0155814163465
 21
143.5190570585301
 31
0.0
  0
LINE
  5
2C01
330
1F
100
AcDbEntity
  8
AM_VIS
100
AcDbLine
 10
226.9155814163464
 20
143.0190570585302
 30
0.0
 11
224.5155814163465
 21
143.0190570585302
 31
0.0
  0
LINE
  5
2C02
330
1F
100
AcDbEntity
  8
AM_VIS
100
AcDbLine
 10
227.4155814163464
 20
143.5190570585301
 30
0.0
 11
226.9155814163464
 21
143.0190570585302
 31
0.0
  0
LINE
  5
2C03
330
1F
100
AcDbEntity
  8
AM_VIS
100
AcDbLine
 10
227.4155814163464
 20
143.5190570585301
 30
0.0
 11
245.4155814163463
 21
143.5190570585301
 31
0.0
  0
LINE
  5
2C04
330
1F
100
AcDbEntity
  8
AM_VIS
100
AcDbLine
 10
245.4155814163463
 20
143.5190570585301
 30
0.0
 11
246.2155814163463
 21
144.3190570585301
 31
0.0
  0
LINE
  5
2C05
330
1F
100
AcDbEntity
  8
AM_VIS
100
AcDbLine
 10
246.2155814163466
 20
144.3190570585301
 30
0.0
 11
248.0155814163465
 21
144.3190570585301
 31
0.0
  0
LINE
  5
2C06
330
1F
100
AcDbEntity
  8
AM_VIS
100
AcDbLine
 10
248.0155814163465
 20
144.3190570585301
 30
0.0
 11
248.8155814163464
 21
143.5190570585301
 31
0.0
  0
LINE
  5
2C07
330
1F
100
AcDbEntity
  8
AM_VIS
100
AcDbLine
 10
248.8155814163464
 20
143.5190570585301
 30
0.0
 11
251.9155814163464
 21
143.5190570585301
 31
0.0
  0
LINE
  5
2C08
330
1F
100
AcDbEntity
  8
AM_VIS
100
AcDbLine
 10
248.3155814163465
 20
134.0190570585301
 30
0.0
 11
248.8155814163464
 21
133.5190570585301
 31
0.0
  0
LINE
  5
2C09
330
1F
100
AcDbEntity
  8
AM_VIS
100
AcDbLine
 10
245.9155814163464
 20
134.0190570585301
 30
0.0
 11
248.3155814163465
 21
134.0190570585301
 31
0.0
  0
LINE
  5
2C0A
330
1F
100
AcDbEntity
  8
AM_VIS
100
AcDbLine
 10
245.4155814163463
 20
133.5190570585301
 30
0.0
 11
245.9155814163464
 21
134.0190570585301
 31
0.0
  0
LINE
  5
2C0B
330
1F
100
AcDbEntity
  8
AM_VIS
100
AcDbLine
 10
227.4155814163464
 20
133.5190570585301
 30
0.0
 11
245.4155814163463
 21
133.5190570585301
 31
0.0
  0
LINE
  5
2C0C
330
1F
100
AcDbEntity
  8
AM_VIS
100
AcDbLine
 10
227.4155814163464
 20
133.5190570585301
 30
0.0
 11
226.6155814163464
 21
132.7190570585302
 31
0.0
  0
LINE
  5
2C0D
330
1F
100
AcDbEntity
  8
AM_VIS
100
AcDbLine
 10
226.6155814163464
 20
132.7190570585302
 30
0.0
 11
224.8155814163464
 21
132.7190570585302
 31
0.0
  0
LINE
  5
2C0E
330
1F
100
AcDbEntity
  8
AM_VIS
100
AcDbLine
 10
224.8155814163464
 20
132.7190570585302
 30
0.0
 11
224.0155814163465
 21
133.5190570585301
 31
0.0
  0
LINE
  5
2C0F
330
1F
100
AcDbEntity
  8
AM_VIS
100
AcDbLine
 10
220.9155814163464
 20
133.5190570585301
 30
0.0
 11
224.0155814163465
 21
133.5190570585301
 31
0.0
  0
LINE
  5
2C10
330
1F
100
AcDbEntity
  8
AM_VIS
100
AcDbLine
 10
248.8155814163464
 20
133.5190570585301
 30
0.0
 11
251.9155814163464
 21
133.5190570585301
 31
0.0
  0
LINE
  5
2C11
330
1F
100
AcDbEntity
  8
AM_VIS
100
AcDbLine
 10
220.9155814163464
 20
143.5190570585301
 30
0.0
 11
224.0155814163465
 21
143.5190570585301
 31
0.0
  0
LINE
  5
2C15
330
1F
100
AcDbEntity
  8
AM_VIS
100
AcDbLine
 10
251.9155814163464
 20
133.5190570585301
 30
0.0
 11
251.9155814163464
 21
143.5190570585301
 31
0.0
  0
LINE
  5
2C16
330
1F
100
AcDbEntity
  8
AM_VIS
100
AcDbLine
 10
220.9155814163464
 20
143.5190570585301
 30
0.0
 11
220.9155814163464
 21
133.5190570585301
 31
0.0
  0
CIRCLE
  5
2C25
330
1F
100
AcDbEntity
  8
AM_VIS
100
AcDbCircle
 10
247.1155814163464
 20
142.8190570585301
 30
0.0
 40
1.05
  0
CIRCLE
  5
2C26
330
1F
100
AcDbEntity
  8
AM_VIS
100
AcDbCircle
 10
225.7155814163463
 20
134.2190570585302
 30
0.0
 40
1.05
  0
LINE
  5
2C3C
330
1F
100
AcDbEntity
  8
AM_VIS
100
AcDbLine
 10
264.4155814163465
 20
133.5190570585301
 30
0.0
 11
264.4155814163465
 21
140.6176692396642
 31
0.0
  0
LINE
  5
2C3D
330
1F
100
AcDbEntity
  8
AM_VIS
100
AcDbLine
 10
263.9155814163465
 20
143.5190570585301
 30
0.0
 11
263.9155814163465
 21
133.5190570585301
 31
0.0
  0
LINE
  5
2C3E
330
1F
100
AcDbEntity
  8
AM_VIS
100
AcDbLine
 10
264.4155814163465
 20
142.4204448773961
 30
0.0
 11
264.4155814163465
 21
143.5190570585301
 31
0.0
  0
LINE
  5
2C3F
330
1F
100
AcDbEntity
  8
AM_VIS
100
AcDbLine
 10
251.9155814163464
 20
143.5190570585301
 30
0.0
 11
251.9155814163464
 21
133.5190570585301
 31
0.0
  0
ELLIPSE
  5
2C40
330
1F
100
AcDbEntity
  8
AM_VIS
100
AcDbEllipse
 10
265.1655814163465
 20
141.5190570585301
 30
0.0
 11
-0.0000000000000004
 21
-1.749999999999999
 31
0.0
210
0.0
220
0.0
230
1.0
 40
0.5000000000000001
 41
4.171289454427544
 42
5.253488506341836
  0
LINE
  5
2C41
330
1F
100
AcDbEntity
  8
AM_VIS
100
AcDbLine
 10
264.4155814163465
 20
143.5190570585301
 30
0.0
 11
263.9155814163465
 21
143.5190570585301
 31
0.0
  0
LINE
  5
2C42
330
1F
100
AcDbEntity
  8
AM_VIS
100
AcDbLine
 10
251.9155814163464
 20
143.5190570585301
 30
0.0
 11
263.9155814163463
 21
143.5190570585301
 31
0.0
  0
LINE
  5
2C43
330
1F
100
AcDbEntity
  8
AM_VIS
100
AcDbLine
 10
253.7423763355895
 20
143.6190570585302
 30
0.0
 11
253.9155814163464
 21
143.5190570585301
 31
0.0
  0
LINE
  5
2C44
330
1F
100
AcDbEntity
  8
AM_VIS
100
AcDbLine
 10
251.9155814163464
 20
133.5190570585301
 30
0.0
 11
263.9155814163463
 21
133.5190570585301
 31
0.0
  0
LINE
  5
2C45
330
1F
100
AcDbEntity
  8
AM_VIS
100
AcDbLine
 10
263.9155814163465
 20
133.5190570585301
 30
0.0
 11
264.4155814163465
 21
133.5190570585301
 31
0.0
  0
LINE
  5
2C46
330
1F
100
AcDbEntity
  8
AM_VIS
100
AcDbLine
 10
253.9155814163464
 20
133.5190570585301
 30
0.0
 11
253.7423763355895
 21
133.4190570585301
 31
0.0
  0
LINE
  5
2C47
330
1F
100
AcDbEntity
  8
AM_VIS
100
AcDbLine
 10
251.9155814163466
 20
143.6190570585302
 30
0.0
 11
253.7423763355895
 21
143.6190570585302
 31
0.0
  0
LINE
  5
2C48
330
1F
100
AcDbEntity
  8
AM_VIS
100
AcDbLine
 10
251.9155814163464
 20
133.4190570585301
 30
0.0
 11
253.7423763355895
 21
133.4190570585301
 31
0.0
  0
LINE
  5
2C49
330
1F
100
AcDbEntity
  8
AM_VIS
100
AcDbLine
 10
251.9155814163464
 20
143.5190570585301
 30
0.0
 11
251.9155814163464
 21
143.6190570585302
 31
0.0
  0
LINE
  5
2C4A
330
1F
100
AcDbEntity
  8
AM_VIS
100
AcDbLine
 10
251.9155814163464
 20
133.4190570585301
 30
0.0
 11
251.9155814163464
 21
133.5190570585301
 31
0.0
  0
LINE
  5
2C4C
330
1F
100
AcDbEntity
  8
AM_VIS
100
AcDbLine
 10
264.4155814163465
 20
133.5190570585301
 30
0.0
 11
276.4155814163464
 21
133.5190570585301
 31
0.0
  0
LINE
  5
2C4D
330
1F
100
AcDbEntity
  8
AM_VIS
100
AcDbLine
 10
276.4148145483211
 20
136.7730033644267
 30
0.0
 11
278.4146529056338
 21
137.0019844652876
 31
0.0
  0
LINE
  5
2C4E
330
1F
100
AcDbEntity
  8
AM_VIS
100
AcDbLine
 10
278.4155814163464
 20
135.9190570585301
 30
0.0
 11
276.4155814163464
 21
135.9190570585301
 31
0.0
  0
LINE
  5
2C4F
330
1F
100
AcDbEntity
  8
AM_VIS
100
AcDbLine
 10
276.4155814163464
 20
133.5190570585301
 30
0.0
 11
276.4155814163464
 21
143.5190570585301
 31
0.0
  0
LINE
  5
2C50
330
1F
100
AcDbEntity
  8
AM_VIS
100
AcDbLine
 10
264.4155814163465
 20
143.5190570585301
 30
0.0
 11
276.4155814163464
 21
143.5190570585301
 31
0.0
  0
LINE
  5
2C51
330
1F
100
AcDbEntity
  8
AM_VIS
100
AcDbLine
 10
276.4155814163464
 20
141.1190570585302
 30
0.0
 11
278.4155814163464
 21
141.1190570585302
 31
0.0
  0
LINE
  5
2C52
330
1F
100
AcDbEntity
  8
AM_VIS
100
AcDbLine
 10
276.4148145483211
 20
140.2651107526336
 30
0.0
 11
278.4146529056338
 21
140.0361296517727
 31
0.0
  0
LINE
  5
2C53
330
1F
100
AcDbEntity
  8
AM_VIS
100
AcDbLine
 10
278.4155814163464
 20
137.0493632128602
 30
0.0
 11
278.6155814163465
 21
137.0493632128602
 31
0.0
  0
LINE
  5
2C54
330
1F
100
AcDbEntity
  8
AM_VIS
100
AcDbLine
 10
278.6155814163465
 20
139.9887509042
 30
0.0
 11
278.4155814163464
 21
139.9887509042
 31
0.0
  0
CIRCLE
  5
2C55
330
1F
100
AcDbEntity
  8
AM_VIS
100
AcDbCircle
 10
269.9155814163464
 20
138.5190570585301
 30
0.0
 40
3.399999999999999
  0
CIRCLE
  5
2C56
330
1F
100
AcDbEntity
  8
AM_VIS
100
AcDbCircle
 10
269.9155814163464
 20
138.5190570585301
 30
0.0
 40
2.7
  0
CIRCLE
  5
2C57
330
1F
100
AcDbEntity
  8
AM_VIS
100
AcDbCircle
 10
269.9155814163464
 20
138.5190570585301
 30
0.0
 40
2.5
  0
CIRCLE
  5
2C58
330
1F
100
AcDbEntity
  8
AM_VIS
100
AcDbCircle
 10
269.9155814163464
 20
138.5190570585301
 30
0.0
 40
2.399999999999999
  0
LINE
  5
2C59
330
1F
100
AcDbEntity
  8
AM_VIS
100
AcDbLine
 10
278.4155814163464
 20
140.0442389294867
 30
0.0
 11
278.4155814163464
 21
136.9938751875736
 31
0.0
  0
LINE
  5
2C5A
330
1F
100
AcDbEntity
  8
AM_VIS
100
AcDbLine
 10
278.4155814163464
 20
136.9938751875736
 30
0.0
 11
278.4155814163464
 21
135.9190570585301
 31
0.0
  0
LINE
  5
2C5B
330
1F
100
AcDbEntity
  8
AM_VIS
100
AcDbLine
 10
278.4155814163464
 20
141.1190570585302
 30
0.0
 11
278.4155814163464
 21
140.0442389294867
 31
0.0
  0
LINE
  5
2C5C
330
1F
100
AcDbEntity
  8
AM_VIS
100
AcDbLine
 10
278.6155814163465
 20
139.9887509042
 30
0.0
 11
278.6155814163465
 21
137.0493632128602
 31
0.0
  0
LINE
  5
2C5D
330
1F
100
AcDbEntity
  8
AM_VIS
100
AcDbLine
 10
276.4155814163464
 20
133.5190570585301
 30
0.0
 11
276.9155814163464
 21
133.5190570585301
 31
0.0
  0
LINE
  5
2C5E
330
1F
100
AcDbEntity
  8
AM_VIS
100
AcDbLine
 10
276.9155814163464
 20
143.5190570585301
 30
0.0
 11
276.4155814163464
 21
143.5190570585301
 31
0.0
  0
LINE
  5
2C5F
330
1F
100
AcDbEntity
  8
AM_VIS
100
AcDbLine
 10
278.4155814163464
 20
141.1190570585302
 30
0.0
 11
278.4155814163464
 21
143.5190570585301
 31
0.0
  0
LINE
  5
2C60
330
1F
100
AcDbEntity
  8
AM_VIS
100
AcDbLine
 10
276.9155814163464
 20
143.5190570585301
 30
0.0
 11
276.9155814163464
 21
141.1190570585302
 31
0.0
  0
LINE
  5
2C61
330
1F
100
AcDbEntity
  8
AM_VIS
100
AcDbLine
 10
278.4155814163464
 20
143.5190570585301
 30
0.0
 11
276.9155814163464
 21
143.5190570585301
 31
0.0
  0
LINE
  5
2C62
330
1F
100
AcDbEntity
  8
AM_VIS
100
AcDbLine
 10
278.4155814163464
 20
133.5190570585301
 30
0.0
 11
278.4155814163464
 21
135.9190570585301
 31
0.0
  0
LINE
  5
2C63
330
1F
100
AcDbEntity
  8
AM_VIS
100
AcDbLine
 10
276.9155814163464
 20
133.5190570585301
 30
0.0
 11
278.4155814163464
 21
133.5190570585301
 31
0.0
  0
LINE
  5
2C64
330
1F
100
AcDbEntity
  8
AM_VIS
100
AcDbLine
 10
276.9155814163464
 20
135.9190570585301
 30
0.0
 11
276.9155814163464
 21
133.5190570585301
 31
0.0
  0
LINE
  5
2C65
330
1F
100
AcDbEntity
  8
AM_VIS
100
AcDbLine
 10
278.4155814163464
 20
143.5190570585301
 30
0.0
 11
279.9155814163464
 21
143.5190570585301
 31
0.0
  0
LINE
  5
2C66
330
1F
100
AcDbEntity
  8
AM_VIS
100
AcDbLine
 10
279.9155814163464
 20
143.5190570585301
 30
0.0
 11
279.9155814163464
 21
133.5190570585301
 31
0.0
  0
LINE
  5
2C67
330
1F
100
AcDbEntity
  8
AM_VIS
100
AcDbLine
 10
278.4155814163464
 20
133.5190570585301
 30
0.0
 11
279.9155814163464
 21
133.5190570585301
 31
0.0
  0
LINE
  5
2C68
330
1F
100
AcDbEntity
  8
AM_VIS
100
AcDbLine
 10
281.4155814163464
 20
134.5190570585302
 30
0.0
 11
279.9155814163464
 21
133.5190570585301
 31
0.0
  0
LINE
  5
2C69
330
1F
100
AcDbEntity
  8
AM_VIS
100
AcDbLine
 10
279.9155814163464
 20
143.5190570585301
 30
0.0
 11
281.4155814163464
 21
142.5190570585301
 31
0.0
  0
LINE
  5
2C6A
330
1F
100
AcDbEntity
  8
AM_VIS
100
AcDbLine
 10
281.4155814163464
 20
134.7690570585301
 30
0.0
 11
284.9155814163464
 21
134.7690570585301
 31
0.0
  0
LINE
  5
2C6B
330
1F
100
AcDbEntity
  8
AM_VIS
100
AcDbLine
 10
281.4155814163464
 20
142.2690570585301
 30
0.0
 11
284.9155814163464
 21
142.2690570585301
 31
0.0
  0
LINE
  5
2C6C
330
1F
100
AcDbEntity
  8
AM_VIS
100
AcDbLine
 10
285.9155814163464
 20
135.3690570585302
 30
0.0
 11
285.9155814163464
 21
141.6690570585301
 31
0.0
  0
LINE
  5
2C6D
330
1F
100
AcDbEntity
  8
AM_VIS
100
AcDbLine
 10
284.9155814163464
 20
134.7690570585301
 30
0.0
 11
285.9155814163464
 21
135.3690570585302
 31
0.0
  0
LINE
  5
2C6E
330
1F
100
AcDbEntity
  8
AM_VIS
100
AcDbLine
 10
284.9155814163464
 20
142.2690570585301
 30
0.0
 11
284.9155814163464
 21
134.7690570585301
 31
0.0
  0
LINE
  5
2C6F
330
1F
100
AcDbEntity
  8
AM_VIS
100
AcDbLine
 10
285.9155814163464
 20
141.6690570585301
 30
0.0
 11
284.9155814163464
 21
142.2690570585301
 31
0.0
  0
LINE
  5
2C70
330
1F
100
AcDbEntity
  8
AM_VIS
100
AcDbLine
 10
281.4155814163464
 20
134.5190570585302
 30
0.0
 11
281.4155814163464
 21
142.5190570585301
 31
0.0
  0
LINE
  5
2C71
330
1F
100
AcDbEntity
  8
AM_VIS
100
AcDbLine
 10
208.4155814163464
 20
143.51905705853
 30
0.0
 11
208.4155814163464
 21
136.420444877396
 31
0.0
  0
LINE
  5
2C72
330
1F
100
AcDbEntity
  8
AM_VIS
100
AcDbLine
 10
208.9155814163464
 20
133.51905705853
 30
0.0
 11
208.9155814163464
 21
143.51905705853
 31
0.0
  0
LINE
  5
2C73
330
1F
100
AcDbEntity
  8
AM_VIS
100
AcDbLine
 10
208.4155814163464
 20
134.6176692396641
 30
0.0
 11
208.4155814163464
 21
133.51905705853
 31
0.0
  0
LINE
  5
2C74
330
1F
100
AcDbEntity
  8
AM_VIS
100
AcDbLine
 10
220.9155814163464
 20
133.51905705853
 30
0.0
 11
220.9155814163464
 21
143.51905705853
 31
0.0
  0
ELLIPSE
  5
2C75
330
1F
100
AcDbEntity
  8
AM_VIS
100
AcDbEllipse
 10
207.6655814163464
 20
135.51905705853
 30
0.0
 11
0.0000000000000004
 21
1.749999999999999
 31
0.0
210
0.0
220
0.0
230
1.0
 40
0.4999999999999997
 41
4.171289454427544
 42
5.253488506341836
  0
LINE
  5
2C76
330
1F
100
AcDbEntity
  8
AM_VIS
100
AcDbLine
 10
208.4155814163464
 20
133.51905705853
 30
0.0
 11
208.9155814163464
 21
133.51905705853
 31
0.0
  0
LINE
  5
2C77
330
1F
100
AcDbEntity
  8
AM_VIS
100
AcDbLine
 10
220.9155814163464
 20
133.51905705853
 30
0.0
 11
208.9155814163464
 21
133.51905705853
 31
0.0
  0
LINE
  5
2C78
330
1F
100
AcDbEntity
  8
AM_VIS
100
AcDbLine
 10
219.0887864971032
 20
133.41905705853
 30
0.0
 11
218.9155814163464
 21
133.51905705853
 31
0.0
  0
LINE
  5
2C79
330
1F
100
AcDbEntity
  8
AM_VIS
100
AcDbLine
 10
220.9155814163464
 20
143.51905705853
 30
0.0
 11
208.9155814163464
 21
143.51905705853
 31
0.0
  0
LINE
  5
2C7A
330
1F
100
AcDbEntity
  8
AM_VIS
100
AcDbLine
 10
208.9155814163464
 20
143.51905705853
 30
0.0
 11
208.4155814163464
 21
143.51905705853
 31
0.0
  0
LINE
  5
2C7B
330
1F
100
AcDbEntity
  8
AM_VIS
100
AcDbLine
 10
218.9155814163464
 20
143.51905705853
 30
0.0
 11
219.0887864971032
 21
143.6190570585301
 31
0.0
  0
LINE
  5
2C7C
330
1F
100
AcDbEntity
  8
AM_VIS
100
AcDbLine
 10
220.9155814163464
 20
133.41905705853
 30
0.0
 11
219.0887864971032
 21
133.41905705853
 31
0.0
  0
LINE
  5
2C7D
330
1F
100
AcDbEntity
  8
AM_VIS
100
AcDbLine
 10
220.9155814163464
 20
143.6190570585301
 30
0.0
 11
219.0887864971032
 21
143.6190570585301
 31
0.0
  0
LINE
  5
2C7E
330
1F
100
AcDbEntity
  8
AM_VIS
100
AcDbLine
 10
220.9155814163464
 20
133.51905705853
 30
0.0
 11
220.9155814163464
 21
133.41905705853
 31
0.0
  0
LINE
  5
2C7F
330
1F
100
AcDbEntity
  8
AM_VIS
100
AcDbLine
 10
220.9155814163464
 20
143.6190570585301
 30
0.0
 11
220.9155814163464
 21
143.51905705853
 31
0.0
  0
LINE
  5
2C81
330
1F
100
AcDbEntity
  8
AM_VIS
100
AcDbLine
 10
208.4155814163464
 20
143.5190570585305
 30
0.0
 11
196.4155814163466
 21
143.5190570585305
 31
0.0
  0
LINE
  5
2C82
330
1F
100
AcDbEntity
  8
AM_VIS
100
AcDbLine
 10
194.4165099270592
 20
140.0361296517731
 30
0.0
 11
196.4163482843719
 21
140.2651107526339
 31
0.0
  0
LINE
  5
2C83
330
1F
100
AcDbEntity
  8
AM_VIS
100
AcDbLine
 10
194.4155814163466
 20
141.1190570585305
 30
0.0
 11
196.4155814163466
 21
141.1190570585305
 31
0.0
  0
LINE
  5
2C84
330
1F
100
AcDbEntity
  8
AM_VIS
100
AcDbLine
 10
196.4155814163466
 20
143.5190570585305
 30
0.0
 11
196.4155814163466
 21
133.5190570585305
 31
0.0
  0
LINE
  5
2C85
330
1F
100
AcDbEntity
  8
AM_VIS
100
AcDbLine
 10
208.4155814163464
 20
133.5190570585305
 30
0.0
 11
196.4155814163466
 21
133.5190570585305
 31
0.0
  0
LINE
  5
2C86
330
1F
100
AcDbEntity
  8
AM_VIS
100
AcDbLine
 10
196.4155814163466
 20
135.9190570585305
 30
0.0
 11
194.4155814163466
 21
135.9190570585305
 31
0.0
  0
LINE
  5
2C87
330
1F
100
AcDbEntity
  8
AM_VIS
100
AcDbLine
 10
194.4165099270592
 20
137.0019844652879
 30
0.0
 11
196.4163482843719
 21
136.773003364427
 31
0.0
  0
LINE
  5
2C88
330
1F
100
AcDbEntity
  8
AM_VIS
100
AcDbLine
 10
194.4155814163466
 20
139.9887509042004
 30
0.0
 11
194.2155814163466
 21
139.9887509042004
 31
0.0
  0
LINE
  5
2C89
330
1F
100
AcDbEntity
  8
AM_VIS
100
AcDbLine
 10
194.2155814163466
 20
137.0493632128606
 30
0.0
 11
194.4155814163466
 21
137.0493632128606
 31
0.0
  0
CIRCLE
  5
2C8A
330
1F
100
AcDbEntity
  8
AM_VIS
100
AcDbCircle
 10
202.9155814163466
 20
138.5190570585305
 30
0.0
 40
3.399999999999999
  0
CIRCLE
  5
2C8B
330
1F
100
AcDbEntity
  8
AM_VIS
100
AcDbCircle
 10
202.9155814163466
 20
138.5190570585305
 30
0.0
 40
2.7
  0
CIRCLE
  5
2C8C
330
1F
100
AcDbEntity
  8
AM_VIS
100
AcDbCircle
 10
202.9155814163466
 20
138.5190570585305
 30
0.0
 40
2.5
  0
CIRCLE
  5
2C8D
330
1F
100
AcDbEntity
  8
AM_VIS
100
AcDbCircle
 10
202.9155814163466
 20
138.5190570585305
 30
0.0
 40
2.399999999999999
  0
LINE
  5
2C8E
330
1F
100
AcDbEntity
  8
AM_VIS
100
AcDbLine
 10
194.4155814163466
 20
136.9938751875739
 30
0.0
 11
194.4155814163466
 21
140.044238929487
 31
0.0
  0
LINE
  5
2C8F
330
1F
100
AcDbEntity
  8
AM_VIS
100
AcDbLine
 10
194.4155814163466
 20
140.044238929487
 30
0.0
 11
194.4155814163466
 21
141.1190570585305
 31
0.0
  0
LINE
  5
2C90
330
1F
100
AcDbEntity
  8
AM_VIS
100
AcDbLine
 10
194.4155814163466
 20
135.9190570585305
 30
0.0
 11
194.4155814163466
 21
136.9938751875739
 31
0.0
  0
LINE
  5
2C91
330
1F
100
AcDbEntity
  8
AM_VIS
100
AcDbLine
 10
194.2155814163466
 20
137.0493632128606
 30
0.0
 11
194.2155814163466
 21
139.9887509042004
 31
0.0
  0
LINE
  5
2C92
330
1F
100
AcDbEntity
  8
AM_VIS
100
AcDbLine
 10
196.4155814163466
 20
143.5190570585305
 30
0.0
 11
195.9155814163466
 21
143.5190570585305
 31
0.0
  0
LINE
  5
2C93
330
1F
100
AcDbEntity
  8
AM_VIS
100
AcDbLine
 10
195.9155814163466
 20
133.5190570585305
 30
0.0
 11
196.4155814163466
 21
133.5190570585305
 31
0.0
  0
LINE
  5
2C94
330
1F
100
AcDbEntity
  8
AM_VIS
100
AcDbLine
 10
194.4155814163466
 20
135.9190570585305
 30
0.0
 11
194.4155814163466
 21
133.5190570585305
 31
0.0
  0
LINE
  5
2C95
330
1F
100
AcDbEntity
  8
AM_VIS
100
AcDbLine
 10
195.9155814163466
 20
133.5190570585305
 30
0.0
 11
195.9155814163466
 21
135.9190570585305
 31
0.0
  0
LINE
  5
2C96
330
1F
100
AcDbEntity
  8
AM_VIS
100
AcDbLine
 10
194.4155814163466
 20
133.5190570585305
 30
0.0
 11
195.9155814163466
 21
133.5190570585305
 31
0.0
  0
LINE
  5
2C97
330
1F
100
AcDbEntity
  8
AM_VIS
100
AcDbLine
 10
194.4155814163466
 20
143.5190570585305
 30
0.0
 11
194.4155814163466
 21
141.1190570585305
 31
0.0
  0
LINE
  5
2C98
330
1F
100
AcDbEntity
  8
AM_VIS
100
AcDbLine
 10
195.9155814163466
 20
143.5190570585305
 30
0.0
 11
194.4155814163466
 21
143.5190570585305
 31
0.0
  0
LINE
  5
2C99
330
1F
100
AcDbEntity
  8
AM_VIS
100
AcDbLine
 10
195.9155814163466
 20
141.1190570585305
 30
0.0
 11
195.9155814163466
 21
143.5190570585305
 31
0.0
  0
LINE
  5
2C9A
330
1F
100
AcDbEntity
  8
AM_VIS
100
AcDbLine
 10
194.4155814163466
 20
133.5190570585305
 30
0.0
 11
192.9155814163466
 21
133.5190570585305
 31
0.0
  0
LINE
  5
2C9B
330
1F
100
AcDbEntity
  8
AM_VIS
100
AcDbLine
 10
192.9155814163466
 20
133.5190570585305
 30
0.0
 11
192.9155814163466
 21
143.5190570585305
 31
0.0
  0
LINE
  5
2C9C
330
1F
100
AcDbEntity
  8
AM_VIS
100
AcDbLine
 10
194.4155814163466
 20
143.5190570585305
 30
0.0
 11
192.9155814163466
 21
143.5190570585305
 31
0.0
  0
LINE
  5
2C9D
330
1F
100
AcDbEntity
  8
AM_VIS
100
AcDbLine
 10
191.4155814163466
 20
142.5190570585305
 30
0.0
 11
192.9155814163466
 21
143.5190570585304
 31
0.0
  0
LINE
  5
2C9E
330
1F
100
AcDbEntity
  8
AM_VIS
100
AcDbLine
 10
192.9155814163466
 20
133.5190570585305
 30
0.0
 11
191.4155814163466
 21
134.5190570585305
 31
0.0
  0
LINE
  5
2C9F
330
1F
100
AcDbEntity
  8
AM_VIS
100
AcDbLine
 10
191.4155814163466
 20
142.2690570585305
 30
0.0
 11
187.9155814163466
 21
142.2690570585305
 31
0.0
  0
LINE
  5
2CA0
330
1F
100
AcDbEntity
  8
AM_VIS
100
AcDbLine
 10
191.4155814163466
 20
134.7690570585305
 30
0.0
 11
187.9155814163466
 21
134.7690570585305
 31
0.0
  0
LINE
  5
2CA1
330
1F
100
AcDbEntity
  8
AM_VIS
100
AcDbLine
 10
186.9155814163466
 20
141.6690570585305
 30
0.0
 11
186.9155814163466
 21
135.3690570585305
 31
0.0
  0
LINE
  5
2CA2
330
1F
100
AcDbEntity
  8
AM_VIS
100
AcDbLine
 10
187.9155814163466
 20
142.2690570585305
 30
0.0
 11
186.9155814163466
 21
141.6690570585305
 31
0.0
  0
LINE
  5
2CA3
330
1F
100
AcDbEntity
  8
AM_VIS
100
AcDbLine
 10
187.9155814163466
 20
134.7690570585305
 30
0.0
 11
187.9155814163466
 21
142.2690570585305
 31
0.0
  0
LINE
  5
2CA4
330
1F
100
AcDbEntity
  8
AM_VIS
100
AcDbLine
 10
186.9155814163466
 20
135.3690570585305
 30
0.0
 11
187.9155814163466
 21
134.7690570585305
 31
0.0
  0
LINE
  5
2CA5
330
1F
100
AcDbEntity
  8
AM_VIS
100
AcDbLine
 10
191.4155814163466
 20
142.5190570585305
 30
0.0
 11
191.4155814163466
 21
134.5190570585305
 31
0.0
  0
LINE
  5
2CAC
330
1F
100
AcDbEntity
  8
AM_VIS
100
AcDbLine
 10
249.1155814163464
 20
232.8064656289515
 30
0.0
 11
248.8155814163464
 21
232.8064656289515
 31
0.0
  0
LINE
  5
2CAD
330
1F
100
AcDbEntity
  8
AM_VIS
100
AcDbLine
 10
248.8155814163464
 20
232.8064656289515
 30
0.0
 11
248.0155814163463
 21
232.0064656289515
 31
0.0
  0
LINE
  5
2CAE
330
1F
100
AcDbEntity
  8
AM_VIS
100
AcDbLine
 10
248.0155814163465
 20
232.0064656289516
 30
0.0
 11
246.2155814163463
 21
232.0064656289516
 31
0.0
  0
LINE
  5
2CAF
330
1F
100
AcDbEntity
  8
AM_VIS
100
AcDbLine
 10
246.2155814163466
 20
232.0064656289515
 30
0.0
 11
245.4155814163463
 21
232.8064656289515
 31
0.0
  0
LINE
  5
2CB0
330
1F
100
AcDbEntity
  8
AM_VIS
100
AcDbLine
 10
223.7155814163463
 20
242.8064656289516
 30
0.0
 11
224.0155814163465
 21
242.8064656289516
 31
0.0
  0
LINE
  5
2CB1
330
1F
100
AcDbEntity
  8
AM_VIS
100
AcDbLine
 10
224.0155814163465
 20
242.8064656289516
 30
0.0
 11
224.8155814163464
 21
243.6064656289516
 31
0.0
  0
LINE
  5
2CB2
330
1F
100
AcDbEntity
  8
AM_VIS
100
AcDbLine
 10
224.8155814163464
 20
243.6064656289515
 30
0.0
 11
226.6155814163464
 21
243.6064656289515
 31
0.0
  0
LINE
  5
2CB3
330
1F
100
AcDbEntity
  8
AM_VIS
100
AcDbLine
 10
226.6155814163464
 20
243.6064656289516
 30
0.0
 11
227.4155814163464
 21
242.8064656289516
 31
0.0
  0
LINE
  5
2CB4
330
1F
100
AcDbEntity
  8
AM_VIS
100
AcDbLine
 10
227.4155814163464
 20
242.8064656289516
 30
0.0
 11
227.7155814163463
 21
242.8064656289516
 31
0.0
  0
LINE
  5
2CB7
330
1F
100
AcDbEntity
  8
AM_VIS
100
AcDbLine
 10
245.4155814163463
 20
232.8064656289515
 30
0.0
 11
245.1155814163464
 21
232.8064656289515
 31
0.0
  0
LINE
  5
2CB8
330
1F
100
AcDbEntity
  8
AM_VIS
100
AcDbLine
 10
246.8110420305063
 20
239.3141425314882
 30
0.0
 11
247.1474906286371
 21
238.3341692337579
 31
0.0
  0
LINE
  5
2CB9
330
1F
100
AcDbEntity
  8
AM_VIS
100
AcDbLine
 10
247.1474906286371
 20
238.334169233758
 30
0.0
 11
247.4999605885837
 21
239.3141425314883
 31
0.0
  0
LINE
  5
2CBA
330
1F
100
AcDbEntity
  8
AM_VIS
100
AcDbLine
 10
247.4999605885839
 20
239.3141425314882
 30
0.0
 11
246.8110420305063
 21
239.3141425314882
 31
0.0
  0
SPLINE
  5
2CBB
330
1F
100
AcDbEntity
  8
AM_VIS
100
AcDbSpline
210
0.0
220
0.0
230
1.0
 70
     8
 71
     3
 72
     8
 73
     4
 74
     0
 42
0.0000000001
 43
0.0000000001
 40
0.0
 40
0.0
 40
0.0
 40
0.0
 40
80.0
 40
80.0
 40
80.0
 40
80.0
 10
225.2193857641725
 20
237.0184221506907
 30
0.0
 10
225.2193858056366
 20
236.8064656704156
 30
0.0
 10
225.3335162404191
 20
236.661538106541
 30
0.0
 10
225.5617770685203
 20
236.583639541995
 30
0.0
  0
SPLINE
  5
2CBC
330
1F
100
AcDbEntity
  8
AM_VIS
100
AcDbSpline
210
0.0
220
0.0
230
1.0
 70
     8
 71
     3
 72
     8
 73
     4
 74
     0
 42
0.0000000001
 43
0.0000000001
 40
0.0
 40
0.0
 40
0.0
 40
0.0
 40
80.0
 40
80.0
 40
80.0
 40
80.0
 10
225.5617770685203
 20
236.583639541995
 30
0.0
 10
225.6469220236992
 20
236.5546540623914
 30
0.0
 10
225.8117770685203
 20
236.5401612811254
 30
0.0
 10
226.0563422859117
 20
236.5401612811254
 30
0.0
  0
LINE
  5
2CBD
330
1F
100
AcDbEntity
  8
AM_VIS
100
AcDbLine
 10
226.0563422859117
 20
236.5401612811254
 30
0.0
 11
226.0563422859117
 21
237.3227699767776
 31
0.0
  0
SPLINE
  5
2CBE
330
1F
100
AcDbEntity
  8
AM_VIS
100
AcDbSpline
210
0.0
220
0.0
230
1.0
 70
     8
 71
     3
 72
     8
 73
     4
 74
     0
 42
0.0000000001
 43
0.0000000001
 40
0.0
 40
0.0
 40
0.0
 40
0.0
 40
80.0
 40
80.0
 40
80.0
 40
80.0
 10
226.0563422859117
 20
237.3227699767777
 30
0.0
 10
226.0563423273758
 20
237.3861758015218
 30
0.0
 10
226.027356806308
 20
237.4287482376472
 30
0.0
 10
225.9693857641725
 20
237.450487368082
 30
0.0
  0
SPLINE
  5
2CBF
330
1F
100
AcDbEntity
  8
AM_VIS
100
AcDbSpline
210
0.0
220
0.0
230
1.0
 70
     8
 71
     3
 72
     8
 73
     4
 74
     0
 42
0.0000000001
 43
0.0000000001
 40
0.0
 40
0.0
 40
0.0
 40
0.0
 40
80.0
 40
80.0
 40
80.0
 40
80.0
 10
225.9693857641725
 20
237.450487368082
 30
0.0
 10
225.9349655019602
 20
237.4613568918353
 30
0.0
 10
225.8779002845689
 20
237.4667916744439
 30
0.0
 10
225.7981901119985
 20
237.466791715908
 30
0.0
  0
SPLINE
  5
2CC0
330
1F
100
AcDbEntity
  8
AM_VIS
100
AcDbSpline
210
0.0
220
0.0
230
1.0
 70
     8
 71
     3
 72
     8
 73
     4
 74
     0
 42
0.0000000001
 43
0.0000000001
 40
0.0
 40
0.0
 40
0.0
 40
0.0
 40
80.0
 40
80.0
 40
80.0
 40
80.0
 10
225.7981901119985
 20
237.466791715908
 30
0.0
 10
225.4123205882454
 20
237.4667916744439
 30
0.0
 10
225.2193858056366
 20
237.3173351941689
 30
0.0
 10
225.2193857641725
 20
237.0184221506907
 30
0.0
  0
SPLINE
  5
2CC1
330
1F
100
AcDbEntity
  8
AM_VIS
100
AcDbSpline
210
0.0
220
0.0
230
1.0
 70
     8
 71
     3
 72
     8
 73
     4
 74
     0
 42
0.0000000001
 43
0.0000000001
 40
0.0
 40
0.0
 40
0.0
 40
0.0
 40
80.0
 40
80.0
 40
80.0
 40
80.0
 10
225.2737335902595
 20
236.0782047593863
 30
0.0
 10
225.2737335902595
 20
235.7901612811254
 30
0.0
 10
225.4693857641725
 20
235.646139541995
 30
0.0
 10
225.8606901119985
 20
235.646139541995
 30
0.0
  0
SPLINE
  5
2CC2
330
1F
100
AcDbEntity
  8
AM_VIS
100
AcDbSpline
210
0.0
220
0.0
230
1.0
 70
     8
 71
     3
 72
     8
 73
     4
 74
     0
 42
0.0000000001
 43
0.0000000001
 40
0.0
 40
0.0
 40
0.0
 40
0.0
 40
80.0
 40
80.0
 40
80.0
 40
80.0
 10
225.8606901119985
 20
235.646139541995
 30
0.0
 10
225.9367771099844
 20
235.646139541995
 30
0.0
 10
225.9784437628297
 20
235.6470453667393
 30
0.0
 10
225.9856901119985
 20
235.6488569332994
 30
0.0
  0
SPLINE
  5
2CC3
330
1F
100
AcDbEntity
  8
AM_VIS
100
AcDbSpline
210
0.0
220
0.0
230
1.0
 70
     8
 71
     3
 72
     8
 73
     4
 74
     0
 42
0.0000000001
 43
0.0000000001
 40
0.0
 40
0.0
 40
0.0
 40
0.0
 40
80.0
 40
80.0
 40
80.0
 40
80.0
 10
225.9856901119985
 20
235.6488569332994
 30
0.0
 10
226.0182988076508
 20
235.6524801493479
 30
0.0
 10
226.0382263715255
 20
235.6588207152367
 30
0.0
 10
226.0454727206942
 20
235.6678786724298
 30
0.0
  0
SPLINE
  5
2CC4
330
1F
100
AcDbEntity
  8
AM_VIS
100
AcDbSpline
210
0.0
220
0.0
230
1.0
 70
     8
 71
     3
 72
     8
 73
     4
 74
     0
 42
0.0000000001
 43
0.0000000001
 40
0.0
 40
0.0
 40
0.0
 40
0.0
 40
80.0
 40
80.0
 40
80.0
 40
80.0
 10
226.0454727206942
 20
235.6678786724298
 30
0.0
 10
226.0527191113271
 20
235.676936671087
 30
0.0
 10
226.0563423273758
 20
235.6959584102175
 30
0.0
 10
226.0563422859117
 20
235.7249438898211
 30
0.0
  0
LINE
  5
2CC5
330
1F
100
AcDbEntity
  8
AM_VIS
100
AcDbLine
 10
226.0563422859117
 20
235.7249438898211
 30
0.0
 11
226.0563422859117
 21
236.4287482376473
 31
0.0
  0
LINE
  5
2CC6
330
1F
100
AcDbEntity
  8
AM_VIS
100
AcDbLine
 10
226.0563422859115
 20
236.4287482376472
 30
0.0
 11
225.7492770685203
 21
236.4260308463429
 31
0.0
  0
SPLINE
  5
2CC7
330
1F
100
AcDbEntity
  8
AM_VIS
100
AcDbSpline
210
0.0
220
0.0
230
1.0
 70
     8
 71
     3
 72
     8
 73
     4
 74
     0
 42
0.0000000001
 43
0.0000000001
 40
0.0
 40
0.0
 40
0.0
 40
0.0
 40
80.0
 40
80.0
 40
80.0
 40
80.0
 10
225.7492770685203
 20
236.4260308463428
 30
0.0
 10
225.6260886765446
 20
236.4242192797826
 30
0.0
 10
225.5364147635011
 20
236.4142554978454
 30
0.0
 10
225.48025532939
 20
236.396139541995
 30
0.0
  0
SPLINE
  5
2CC8
330
1F
100
AcDbEntity
  8
AM_VIS
100
AcDbSpline
210
0.0
220
0.0
230
1.0
 70
     8
 71
     3
 72
     8
 73
     4
 74
     0
 42
0.0000000001
 43
0.0000000001
 40
0.0
 40
0.0
 40
0.0
 40
0.0
 40
80.0
 40
80.0
 40
80.0
 40
80.0
 10
225.48025532939
 20
236.396139541995
 30
0.0
 10
225.3425741976122
 20
236.3454149319566
 30
0.0
 10
225.2737335902595
 20
236.239436671087
 30
0.0
 10
225.2737335902595
 20
236.0782047593863
 30
0.0
  0
LINE
  5
2CC9
330
1F
100
AcDbEntity
  8
AM_VIS
100
AcDbLine
 10
220.9155814163464
 20
242.8064656289516
 30
0.0
 11
223.7155814163463
 21
242.8064656289516
 31
0.0
  0
LINE
  5
2CCA
330
1F
100
AcDbEntity
  8
AM_VIS
100
AcDbLine
 10
223.7155814163463
 20
242.1064656289515
 30
0.0
 11
223.7155814163463
 21
242.8064656289516
 31
0.0
  0
LINE
  5
2CCB
330
1F
100
AcDbEntity
  8
AM_VIS
100
AcDbLine
 10
227.7155814163463
 20
242.8064656289516
 30
0.0
 11
227.7155814163463
 21
242.1064656289515
 31
0.0
  0
LINE
  5
2CCC
330
1F
100
AcDbEntity
  8
AM_VIS
100
AcDbLine
 10
227.7155814163463
 20
242.8064656289516
 30
0.0
 11
245.4155814163463
 21
242.8064656289516
 31
0.0
  0
LINE
  5
2CCD
330
1F
100
AcDbEntity
  8
AM_VIS
100
AcDbLine
 10
245.9155814163464
 20
242.3064656289515
 30
0.0
 11
245.4155814163463
 21
242.8064656289516
 31
0.0
  0
LINE
  5
2CCE
330
1F
100
AcDbEntity
  8
AM_VIS
100
AcDbLine
 10
248.3155814163465
 20
242.3064656289515
 30
0.0
 11
245.9155814163464
 21
242.3064656289515
 31
0.0
  0
LINE
  5
2CCF
330
1F
100
AcDbEntity
  8
AM_VIS
100
AcDbLine
 10
248.8155814163464
 20
242.8064656289516
 30
0.0
 11
248.3155814163465
 21
242.3064656289515
 31
0.0
  0
LINE
  5
2CD0
330
1F
100
AcDbEntity
  8
AM_VIS
100
AcDbLine
 10
248.8155814163464
 20
242.8064656289516
 30
0.0
 11
251.9155814163464
 21
242.8064656289516
 31
0.0
  0
LINE
  5
2CD1
330
1F
100
AcDbEntity
  8
AM_VIS
100
AcDbLine
 10
249.1155814163464
 20
232.8064656289515
 30
0.0
 11
251.9155814163464
 21
232.8064656289515
 31
0.0
  0
LINE
  5
2CD2
330
1F
100
AcDbEntity
  8
AM_VIS
100
AcDbLine
 10
249.1155814163464
 20
233.5064656289516
 30
0.0
 11
249.1155814163464
 21
232.8064656289515
 31
0.0
  0
LINE
  5
2CD3
330
1F
100
AcDbEntity
  8
AM_VIS
100
AcDbLine
 10
245.1155814163464
 20
232.8064656289515
 30
0.0
 11
245.1155814163464
 21
233.5064656289516
 31
0.0
  0
LINE
  5
2CD4
330
1F
100
AcDbEntity
  8
AM_VIS
100
AcDbLine
 10
227.4155814163464
 20
232.8064656289515
 30
0.0
 11
245.1155814163464
 21
232.8064656289515
 31
0.0
  0
LINE
  5
2CD5
330
1F
100
AcDbEntity
  8
AM_VIS
100
AcDbLine
 10
226.9155814163464
 20
233.3064656289515
 30
0.0
 11
227.4155814163464
 21
232.8064656289515
 31
0.0
  0
LINE
  5
2CD6
330
1F
100
AcDbEntity
  8
AM_VIS
100
AcDbLine
 10
224.5155814163465
 20
233.3064656289515
 30
0.0
 11
226.9155814163464
 21
233.3064656289515
 31
0.0
  0
LINE
  5
2CD7
330
1F
100
AcDbEntity
  8
AM_VIS
100
AcDbLine
 10
224.0155814163465
 20
232.8064656289515
 30
0.0
 11
224.5155814163465
 21
233.3064656289515
 31
0.0
  0
LINE
  5
2CD8
330
1F
100
AcDbEntity
  8
AM_VIS
100
AcDbLine
 10
220.9155814163464
 20
232.8064656289515
 30
0.0
 11
224.0155814163465
 21
232.8064656289515
 31
0.0
  0
SPLINE
  5
2CD9
330
1F
100
AcDbEntity
  8
AM_VIS
100
AcDbSpline
210
0.0
220
0.0
230
1.0
 70
     8
 71
     3
 72
     8
 73
     4
 74
     0
 42
0.0000000001
 43
0.0000000001
 40
0.0
 40
0.0
 40
0.0
 40
0.0
 40
80.0
 40
80.0
 40
80.0
 40
80.0
 10
246.3544332187573
 20
239.9576672310878
 30
0.0
 10
246.3277309490645
 20
239.979029046842
 30
0.0
 10
246.2814470285116
 20
239.9941603058384
 30
0.0
 10
246.2155814163541
 20
240.0030610895657
 30
0.0
  0
SPLINE
  5
2CDA
330
1F
100
AcDbEntity
  8
AM_VIS
100
AcDbSpline
210
0.0
220
0.0
230
1.0
 70
     8
 71
     3
 72
     8
 73
     4
 74
     0
 42
0.0000000001
 43
0.0000000001
 40
0.0
 40
0.0
 40
0.0
 40
0.0
 40
80.0
 40
80.0
 40
80.0
 40
80.0
 10
246.4826041132832
 20
239.741378846575
 30
0.0
 10
246.4434408115634
 20
239.8481879253467
 30
0.0
 10
246.4007171800546
 20
239.9202840535176
 30
0.0
 10
246.3544332187573
 20
239.9576672310878
 30
0.0
  0
LINE
  5
2CDB
330
1F
100
AcDbEntity
  8
AM_VIS
100
AcDbLine
 10
247.1154479050057
 20
238.0564656289515
 30
0.0
 11
246.4826041132834
 21
239.741378846575
 31
0.0
  0
LINE
  5
2CDC
330
1F
100
AcDbEntity
  8
AM_VIS
100
AcDbLine
 10
247.1261288128828
 20
238.0564656289515
 30
0.0
 11
247.1154479050055
 21
238.0564656289515
 31
0.0
  0
LINE
  5
2CDD
330
1F
100
AcDbEntity
  8
AM_VIS
100
AcDbLine
 10
247.6655146606799
 20
239.522420235093
 30
0.0
 11
247.1261288128828
 21
238.0564656289515
 31
0.0
  0
SPLINE
  5
2CDE
330
1F
100
AcDbEntity
  8
AM_VIS
100
AcDbSpline
210
0.0
220
0.0
230
1.0
 70
     8
 71
     3
 72
     8
 73
     4
 74
     0
 42
0.0000000001
 43
0.0000000001
 40
0.0
 40
0.0
 40
0.0
 40
0.0
 40
80.0
 40
80.0
 40
80.0
 40
80.0
 10
247.8604412294382
 20
239.9443160962412
 30
0.0
 10
247.8105970198409
 20
239.8802306897227
 30
0.0
 10
247.7456214697586
 20
239.7395987224251
 30
0.0
 10
247.6655146606799
 20
239.522420235093
 30
0.0
  0
SPLINE
  5
2CDF
330
1F
100
AcDbEntity
  8
AM_VIS
100
AcDbSpline
210
0.0
220
0.0
230
1.0
 70
     8
 71
     3
 72
     8
 73
     4
 74
     0
 42
0.0000000001
 43
0.0000000001
 40
0.0
 40
0.0
 40
0.0
 40
0.0
 40
80.0
 40
80.0
 40
80.0
 40
80.0
 10
247.921856449732
 20
239.9897099547192
 30
0.0
 10
247.900494674722
 20
239.9843695007807
 30
0.0
 10
247.8800229210425
 20
239.9692382010399
 30
0.0
 10
247.8604412294382
 20
239.9443160962412
 30
0.0
  0
LINE
  5
2CE0
330
1F
100
AcDbEntity
  8
AM_VIS
100
AcDbLine
 10
247.921774582069
 20
239.9901354239197
 30
0.0
 11
247.9911990704679
 21
240.0034939011522
 31
0.0
  0
LINE
  5
2CE1
330
1F
100
AcDbEntity
  8
AM_VIS
100
AcDbLine
 10
247.9912823509334
 20
240.0564656289515
 30
0.0
 11
247.9912823509334
 21
240.0030610895657
 31
0.0
  0
LINE
  5
2CE2
330
1F
100
AcDbEntity
  8
AM_VIS
100
AcDbLine
 10
247.5026308155531
 20
240.0564656289515
 30
0.0
 11
247.9912823509334
 21
240.0564656289515
 31
0.0
  0
LINE
  5
2CE3
330
1F
100
AcDbEntity
  8
AM_VIS
100
AcDbLine
 10
247.5026308155531
 20
240.0030610895657
 30
0.0
 11
247.5026308155531
 21
240.0564656289515
 31
0.0
  0
SPLINE
  5
2CE4
330
1F
100
AcDbEntity
  8
AM_VIS
100
AcDbSpline
210
0.0
220
0.0
230
1.0
 70
     8
 71
     3
 72
     8
 73
     4
 74
     0
 42
0.0000000001
 43
0.0000000001
 40
0.0
 40
0.0
 40
0.0
 40
0.0
 40
80.0
 40
80.0
 40
80.0
 40
80.0
 10
247.6147803482633
 20
239.9816992738113
 30
0.0
 10
247.5951986974034
 20
239.9923801816886
 30
0.0
 10
247.5578155198331
 20
239.999500759777
 30
0.0
 10
247.5026308155531
 20
240.0030610895657
 30
0.0
  0
SPLINE
  5
2CE5
330
1F
100
AcDbEntity
  8
AM_VIS
100
AcDbSpline
210
0.0
220
0.0
230
1.0
 70
     8
 71
     3
 72
     8
 73
     4
 74
     0
 42
0.0000000001
 43
0.0000000001
 40
0.0
 40
0.0
 40
0.0
 40
0.0
 40
80.0
 40
80.0
 40
80.0
 40
80.0
 10
247.6788657955264
 20
239.8695497411011
 30
0.0
 10
247.6788657955264
 20
239.9265145695312
 30
0.0
 10
247.6575039797719
 20
239.9638977471012
 30
0.0
 10
247.6147803482633
 20
239.9816992738113
 30
0.0
  0
SPLINE
  5
2CE6
330
1F
100
AcDbEntity
  8
AM_VIS
100
AcDbSpline
210
0.0
220
0.0
230
1.0
 70
     8
 71
     3
 72
     8
 73
     4
 74
     0
 42
0.0000000001
 43
0.0000000001
 40
0.0
 40
0.0
 40
0.0
 40
0.0
 40
80.0
 40
80.0
 40
80.0
 40
80.0
 10
247.6575039797719
 20
239.7520597544522
 30
0.0
 10
247.6717452174379
 20
239.7876628078724
 30
0.0
 10
247.6788657955264
 20
239.8268261095924
 30
0.0
 10
247.6788657955264
 20
239.8695497411011
 30
0.0
  0
LINE
  5
2CE7
330
1F
100
AcDbEntity
  8
AM_VIS
100
AcDbLine
 10
247.5239926313074
 20
239.412940929352
 30
0.0
 11
247.6575039797721
 21
239.7520597544522
 31
0.0
  0
LINE
  5
2CE8
330
1F
100
AcDbEntity
  8
AM_VIS
100
AcDbLine
 10
246.7763290799055
 20
239.4129409293521
 30
0.0
 11
247.5239926313074
 21
239.4129409293521
 31
0.0
  0
LINE
  5
2CE9
330
1F
100
AcDbEntity
  8
AM_VIS
100
AcDbLine
 10
246.680200909011
 20
239.677293399312
 30
0.0
 11
246.7763290799055
 21
239.4129409293521
 31
0.0
  0
SPLINE
  5
2CEA
330
1F
100
AcDbEntity
  8
AM_VIS
100
AcDbSpline
210
0.0
220
0.0
230
1.0
 70
     8
 71
     3
 72
     8
 73
     4
 74
     0
 42
0.0000000001
 43
0.0000000001
 40
0.0
 40
0.0
 40
0.0
 40
0.0
 40
80.0
 40
80.0
 40
80.0
 40
80.0
 10
246.634807050533
 20
239.8695497411011
 30
0.0
 10
246.634807050533
 20
239.8250459854425
 30
0.0
 10
246.6499383502739
 20
239.7609605381795
 30
0.0
 10
246.680200909011
 20
239.677293399312
 30
0.0
  0
SPLINE
  5
2CEB
330
1F
100
AcDbEntity
  8
AM_VIS
100
AcDbSpline
210
0.0
220
0.0
230
1.0
 70
     8
 71
     3
 72
     8
 73
     4
 74
     0
 42
0.0000000001
 43
0.0000000001
 40
0.0
 40
0.0
 40
0.0
 40
0.0
 40
80.0
 40
80.0
 40
80.0
 40
80.0
 10
246.7015627247653
 20
239.9816992738113
 30
0.0
 10
246.6570589691068
 20
239.962117582207
 30
0.0
 10
246.634807050533
 20
239.9247344046368
 30
0.0
 10
246.634807050533
 20
239.8695497411011
 30
0.0
  0
SPLINE
  5
2CEC
330
1F
100
AcDbEntity
  8
AM_VIS
100
AcDbSpline
210
0.0
220
0.0
230
1.0
 70
     8
 71
     3
 72
     8
 73
     4
 74
     0
 42
0.0000000001
 43
0.0000000001
 40
0.0
 40
0.0
 40
0.0
 40
0.0
 40
80.0
 40
80.0
 40
80.0
 40
80.0
 10
246.8484252080763
 20
240.0030610895657
 30
0.0
 10
246.7789993068747
 20
239.999500759777
 30
0.0
 10
246.7300451593525
 20
239.9923801816886
 30
0.0
 10
246.7015627247653
 20
239.9816992738113
 30
0.0
  0
LINE
  5
2CED
330
1F
100
AcDbEntity
  8
AM_VIS
100
AcDbLine
 10
246.8484252080763
 20
240.0564656289515
 30
0.0
 11
246.8484252080763
 21
240.0030610895657
 31
0.0
  0
LINE
  5
2CEE
330
1F
100
AcDbEntity
  8
AM_VIS
100
AcDbLine
 10
246.2155814163541
 20
240.0564656289515
 30
0.0
 11
246.8484252080763
 21
240.0564656289515
 31
0.0
  0
LINE
  5
2CEF
330
1F
100
AcDbEntity
  8
AM_VIS
100
AcDbLine
 10
246.2155814163541
 20
240.0030610895657
 30
0.0
 11
246.2155814163541
 21
240.0564656289515
 31
0.0
  0
LINE
  5
2CF0
330
1F
100
AcDbEntity
  8
AM_VIS
100
AcDbLine
 10
225.4911248946072
 20
236.5021178028646
 30
0.0
 11
225.4449292424335
 21
236.5129873680821
 31
0.0
  0
SPLINE
  5
2CF1
330
1F
100
AcDbEntity
  8
AM_VIS
100
AcDbSpline
210
0.0
220
0.0
230
1.0
 70
     8
 71
     3
 72
     8
 73
     4
 74
     0
 42
0.0000000001
 43
0.0000000001
 40
0.0
 40
0.0
 40
0.0
 40
0.0
 40
80.0
 40
80.0
 40
80.0
 40
80.0
 10
225.0971031554767
 20
236.0564656289515
 30
0.0
 10
225.0971031554767
 20
236.2811033239323
 30
0.0
 10
225.2284437628297
 20
236.4296540623914
 30
0.0
 10
225.4911248946072
 20
236.5021178028646
 30
0.0
  0
SPLINE
  5
2CF2
330
1F
100
AcDbEntity
  8
AM_VIS
100
AcDbSpline
210
0.0
220
0.0
230
1.0
 70
     8
 71
     3
 72
     8
 73
     4
 74
     0
 42
0.0000000001
 43
0.0000000001
 40
0.0
 40
0.0
 40
0.0
 40
0.0
 40
80.0
 40
80.0
 40
80.0
 40
80.0
 10
225.7846031554767
 20
235.5564656289515
 30
0.0
 10
225.3262698497862
 20
235.5564656289515
 30
0.0
 10
225.0971031554767
 20
235.7231323232609
 30
0.0
 10
225.0971031554767
 20
236.0564656289515
 30
0.0
  0
LINE
  5
2CF3
330
1F
100
AcDbEntity
  8
AM_VIS
100
AcDbLine
 10
226.5155814163465
 20
235.5564656289515
 30
0.0
 11
225.7846031554767
 21
235.5564656289515
 31
0.0
  0
LINE
  5
2CF4
330
1F
100
AcDbEntity
  8
AM_VIS
100
AcDbLine
 10
226.5155814163465
 20
235.6108134550385
 30
0.0
 11
226.5155814163465
 21
235.5564656289515
 31
0.0
  0
SPLINE
  5
2CF5
330
1F
100
AcDbEntity
  8
AM_VIS
100
AcDbSpline
210
0.0
220
0.0
230
1.0
 70
     8
 71
     3
 72
     8
 73
     4
 74
     0
 42
0.0000000001
 43
0.0000000001
 40
0.0
 40
0.0
 40
0.0
 40
0.0
 40
80.0
 40
80.0
 40
80.0
 40
80.0
 10
226.2873205467812
 20
235.6597264985168
 30
0.0
 10
226.3217408504576
 20
235.6343641934975
 30
0.0
 10
226.3978278069794
 20
235.6180598456714
 30
0.0
 10
226.5155814163465
 20
235.6108134550385
 30
0.0
  0
SPLINE
  5
2CF6
330
1F
100
AcDbEntity
  8
AM_VIS
100
AcDbSpline
210
0.0
220
0.0
230
1.0
 70
     8
 71
     3
 72
     8
 73
     4
 74
     0
 42
0.0000000001
 43
0.0000000001
 40
0.0
 40
0.0
 40
0.0
 40
0.0
 40
80.0
 40
80.0
 40
80.0
 40
80.0
 10
226.2248205467813
 20
235.8716830202559
 30
0.0
 10
226.2248205467813
 20
235.762987368082
 30
0.0
 10
226.2456538939359
 20
235.6923351941689
 30
0.0
 10
226.2873205467812
 20
235.6597264985168
 30
0.0
  0
LINE
  5
2CF7
330
1F
100
AcDbEntity
  8
AM_VIS
100
AcDbLine
 10
226.2248205467813
 20
237.1977699767775
 30
0.0
 11
226.2248205467813
 21
235.8716830202558
 31
0.0
  0
SPLINE
  5
2CF8
330
1F
100
AcDbEntity
  8
AM_VIS
100
AcDbSpline
210
0.0
220
0.0
230
1.0
 70
     8
 71
     3
 72
     8
 73
     4
 74
     0
 42
0.0000000001
 43
0.0000000001
 40
0.0
 40
0.0
 40
0.0
 40
0.0
 40
80.0
 40
80.0
 40
80.0
 40
80.0
 10
226.2846031554768
 20
237.4287482376472
 30
0.0
 10
226.2447481106558
 20
237.3870815848019
 30
0.0
 10
226.2248205467813
 20
237.310088845
 30
0.0
 10
226.2248205467813
 20
237.1977699767777
 30
0.0
  0
SPLINE
  5
2CF9
330
1F
100
AcDbEntity
  8
AM_VIS
100
AcDbSpline
210
0.0
220
0.0
230
1.0
 70
     8
 71
     3
 72
     8
 73
     4
 74
     0
 42
0.0000000001
 43
0.0000000001
 40
0.0
 40
0.0
 40
0.0
 40
0.0
 40
80.0
 40
80.0
 40
80.0
 40
80.0
 10
226.5155814163465
 20
237.5021178028645
 30
0.0
 10
226.4032625895881
 20
237.4948714122317
 30
0.0
 10
226.3262698497862
 20
237.4704148904926
 30
0.0
 10
226.2846031554768
 20
237.4287482376472
 30
0.0
  0
LINE
  5
2CFA
330
1F
100
AcDbEntity
  8
AM_VIS
100
AcDbLine
 10
226.5155814163465
 20
237.5564656289515
 30
0.0
 11
226.5155814163465
 21
237.5021178028645
 31
0.0
  0
LINE
  5
2CFB
330
1F
100
AcDbEntity
  8
AM_VIS
100
AcDbLine
 10
225.637864025042
 20
237.5564656289515
 30
0.0
 11
226.5155814163463
 21
237.5564656289515
 31
0.0
  0
SPLINE
  5
2CFC
330
1F
100
AcDbEntity
  8
AM_VIS
100
AcDbSpline
210
0.0
220
0.0
230
1.0
 70
     8
 71
     3
 72
     8
 73
     4
 74
     0
 42
0.0000000001
 43
0.0000000001
 40
0.0
 40
0.0
 40
0.0
 40
0.0
 40
80.0
 40
80.0
 40
80.0
 40
80.0
 10
225.1079727206942
 20
237.3363569332994
 30
0.0
 10
225.214856806308
 20
237.4830960637342
 30
0.0
 10
225.3914872410905
 20
237.5564656289515
 30
0.0
 10
225.637864025042
 20
237.5564656289515
 30
0.0
  0
SPLINE
  5
2CFD
330
1F
100
AcDbEntity
  8
AM_VIS
100
AcDbSpline
210
0.0
220
0.0
230
1.0
 70
     8
 71
     3
 72
     8
 73
     4
 74
     0
 42
0.0000000001
 43
0.0000000001
 40
0.0
 40
0.0
 40
0.0
 40
0.0
 40
80.0
 40
80.0
 40
80.0
 40
80.0
 10
225.0101466337377
 20
237.029291715908
 30
0.0
 10
225.0101466337377
 20
237.1452337587149
 30
0.0
 10
225.04275532939
 20
237.247588845
 30
0.0
 10
225.1079727206942
 20
237.3363569332994
 30
0.0
  0
SPLINE
  5
2CFE
330
1F
100
AcDbEntity
  8
AM_VIS
100
AcDbSpline
210
0.0
220
0.0
230
1.0
 70
     8
 71
     3
 72
     8
 73
     4
 74
     0
 42
0.0000000001
 43
0.0000000001
 40
0.0
 40
0.0
 40
0.0
 40
0.0
 40
80.0
 40
80.0
 40
80.0
 40
80.0
 10
225.4449292424332
 20
236.5129873680821
 30
0.0
 10
225.1550741976122
 20
236.5818279754349
 30
0.0
 10
225.0101466337377
 20
236.7539294108889
 30
0.0
 10
225.0101466337377
 20
237.029291715908
 30
0.0
  0
LINE
  5
2D01
330
1F
100
AcDbEntity
  8
AM_VIS
100
AcDbLine
 10
251.9155814163464
 20
232.8064656289515
 30
0.0
 11
251.9155814163464
 21
242.8064656289516
 31
0.0
  0
LINE
  5
2D02
330
1F
100
AcDbEntity
  8
AM_VIS
100
AcDbLine
 10
220.9155814163464
 20
242.8064656289516
 30
0.0
 11
220.9155814163464
 21
232.8064656289515
 31
0.0
  0
ARC
  5
2D09
330
1F
100
AcDbEntity
  8
AM_VIS
100
AcDbCircle
 10
225.7155814163463
 20
242.1064656289515
 30
0.0
 40
2.0
100
AcDbArc
 50
180.0
 51
0.0
  0
ARC
  5
2D0A
330
1F
100
AcDbEntity
  8
AM_VIS
100
AcDbCircle
 10
247.1155814163464
 20
233.5064656289516
 30
0.0
 40
2.0
100
AcDbArc
 50
0.0
 51
180.0
  0
CIRCLE
  5
2D0D
330
1F
100
AcDbEntity
  8
AM_VIS
100
AcDbCircle
 10
247.1155814163464
 20
233.5064656289516
 30
0.0
 40
1.05
  0
CIRCLE
  5
2D0E
330
1F
100
AcDbEntity
  8
AM_VIS
100
AcDbCircle
 10
225.7155814163463
 20
242.1064656289515
 30
0.0
 40
1.05
  0
LINE
  5
2D11
330
1F
100
AcDbEntity
  8
AM_VIS
100
AcDbLine
 10
253.1155814163464
 20
232.8064656289515
 30
0.0
 11
253.1155814163464
 21
242.8064656289516
 31
0.0
  0
LINE
  5
2D12
330
1F
100
AcDbEntity
  8
AM_VIS
100
AcDbLine
 10
251.9155814163464
 20
232.8064656289515
 30
0.0
 11
251.9155814163464
 21
242.8064656289516
 31
0.0
  0
LINE
  5
2D13
330
1F
100
AcDbEntity
  8
AM_VIS
100
AcDbLine
 10
253.1155814163464
 20
232.8064656289515
 30
0.0
 11
251.9155814163464
 21
232.8064656289515
 31
0.0
  0
LINE
  5
2D14
330
1F
100
AcDbEntity
  8
AM_VIS
100
AcDbLine
 10
255.9155814163466
 20
232.8064656289515
 30
0.0
 11
253.1155814163465
 21
232.8064656289515
 31
0.0
  0
LINE
  5
2D15
330
1F
100
AcDbEntity
  8
AM_VIS
100
AcDbLine
 10
253.9155814163464
 20
232.8064656289515
 30
0.0
 11
253.7423763355895
 21
232.7064656289515
 31
0.0
  0
LINE
  5
2D16
330
1F
100
AcDbEntity
  8
AM_VIS
100
AcDbLine
 10
253.1155814163464
 20
242.8064656289516
 30
0.0
 11
255.9155814163465
 21
242.8064656289516
 31
0.0
  0
LINE
  5
2D17
330
1F
100
AcDbEntity
  8
AM_VIS
100
AcDbLine
 10
251.9155814163464
 20
242.8064656289516
 30
0.0
 11
253.1155814163464
 21
242.8064656289516
 31
0.0
  0
LINE
  5
2D18
330
1F
100
AcDbEntity
  8
AM_VIS
100
AcDbLine
 10
253.7423763355895
 20
242.9064656289515
 30
0.0
 11
253.9155814163464
 21
242.8064656289516
 31
0.0
  0
LINE
  5
2D19
330
1F
100
AcDbEntity
  8
AM_VIS
100
AcDbLine
 10
255.9155814163465
 20
242.8064656289516
 30
0.0
 11
263.4155814163465
 21
242.8064656289516
 31
0.0
  0
LINE
  5
2D1A
330
1F
100
AcDbEntity
  8
AM_VIS
100
AcDbLine
 10
255.9155814163465
 20
232.8064656289515
 30
0.0
 11
263.4155814163465
 21
232.8064656289515
 31
0.0
  0
LINE
  5
2D1B
330
1F
100
AcDbEntity
  8
AM_VIS
100
AcDbLine
 10
255.9155814163465
 20
242.8064656289516
 30
0.0
 11
255.9155814163465
 21
241.6724910327361
 31
0.0
  0
LINE
  5
2D1C
330
1F
100
AcDbEntity
  8
AM_VIS
100
AcDbLine
 10
255.9155814163465
 20
239.6718029060003
 30
0.0
 11
255.9155814163465
 21
232.8064656289515
 31
0.0
  0
LINE
  5
2D1D
330
1F
100
AcDbEntity
  8
AM_VIS
100
AcDbLine
 10
251.9155814163466
 20
232.7064656289515
 30
0.0
 11
253.7423763355895
 21
232.7064656289515
 31
0.0
  0
LINE
  5
2D1E
330
1F
100
AcDbEntity
  8
AM_VIS
100
AcDbLine
 10
251.9155814163464
 20
242.9064656289515
 30
0.0
 11
253.7423763355895
 21
242.9064656289515
 31
0.0
  0
LINE
  5
2D1F
330
1F
100
AcDbEntity
  8
AM_VIS
100
AcDbLine
 10
251.9155814163464
 20
232.7064656289515
 30
0.0
 11
251.9155814163464
 21
232.8064656289515
 31
0.0
  0
LINE
  5
2D20
330
1F
100
AcDbEntity
  8
AM_VIS
100
AcDbLine
 10
251.9155814163464
 20
242.8064656289516
 30
0.0
 11
251.9155814163464
 21
242.9064656289515
 31
0.0
  0
ARC
  5
2D21
330
1F
100
AcDbEntity
  8
AM_VIS
100
AcDbCircle
 10
259.4155814163465
 20
237.8064656289515
 30
0.0
 40
2.149999999999999
100
AcDbArc
 50
197.5923026305941
 51
72.40769736942077
  0
LINE
  5
2D22
330
1F
100
AcDbEntity
  8
AM_VIS
100
AcDbLine
 10
276.4155814163464
 20
232.8064656289515
 30
0.0
 11
263.4155814163464
 21
232.8064656289515
 31
0.0
  0
LINE
  5
2D23
330
1F
100
AcDbEntity
  8
AM_VIS
100
AcDbLine
 10
263.4155814163464
 20
242.8064656289516
 30
0.0
 11
276.4155814163464
 21
242.8064656289516
 31
0.0
  0
LINE
  5
2D24
330
1F
100
AcDbEntity
  8
AM_VIS
100
AcDbLine
 10
263.4155814163464
 20
232.8064656289515
 30
0.0
 11
263.4155814163464
 21
242.8064656289516
 31
0.0
  0
LINE
  5
2D25
330
1F
100
AcDbEntity
  8
AM_VIS
100
AcDbLine
 10
276.4155814163464
 20
232.8064656289515
 30
0.0
 11
276.4155814163464
 21
242.8064656289516
 31
0.0
  0
LINE
  5
2D26
330
1F
100
AcDbEntity
  8
AM_VIS
100
AcDbLine
 10
281.4155814163464
 20
233.8064656289515
 30
0.0
 11
279.9155814163464
 21
232.8064656289515
 31
0.0
  0
LINE
  5
2D27
330
1F
100
AcDbEntity
  8
AM_VIS
100
AcDbLine
 10
281.4155814163464
 20
241.5564656289515
 30
0.0
 11
284.9155814163464
 21
241.5564656289515
 31
0.0
  0
LINE
  5
2D28
330
1F
100
AcDbEntity
  8
AM_VIS
100
AcDbLine
 10
284.9155814163464
 20
241.5564656289515
 30
0.0
 11
285.9155814163464
 21
240.9564656289515
 31
0.0
  0
LINE
  5
2D29
330
1F
100
AcDbEntity
  8
AM_VIS
100
AcDbLine
 10
285.9155814163464
 20
240.8064656289516
 30
0.0
 11
285.9155814163464
 21
240.9564656289515
 31
0.0
  0
LINE
  5
2D2A
330
1F
100
AcDbEntity
  8
AM_VIS
100
AcDbLine
 10
285.9155814163464
 20
240.8064656289516
 30
0.0
 11
285.9155814163464
 21
239.9064656289516
 31
0.0
  0
LINE
  5
2D2B
330
1F
100
AcDbEntity
  8
AM_VIS
100
AcDbLine
 10
281.4155814163464
 20
240.8064656289516
 30
0.0
 11
285.9155814163464
 21
240.8064656289516
 31
0.0
  0
LINE
  5
2D2C
330
1F
100
AcDbEntity
  8
AM_VIS
100
AcDbLine
 10
285.9155814163464
 20
239.9064656289516
 30
0.0
 11
281.4155814163464
 21
239.9064656289516
 31
0.0
  0
LINE
  5
2D2D
330
1F
100
AcDbEntity
  8
AM_VIS
100
AcDbLine
 10
285.9155814163464
 20
235.7064656289515
 30
0.0
 11
285.9155814163464
 21
239.9064656289516
 31
0.0
  0
LINE
  5
2D2E
330
1F
100
AcDbEntity
  8
AM_VIS
100
AcDbLine
 10
285.9155814163464
 20
234.6564656289515
 30
0.0
 11
285.9155814163464
 21
234.8064656289515
 31
0.0
  0
LINE
  5
2D2F
330
1F
100
AcDbEntity
  8
AM_VIS
100
AcDbLine
 10
285.9155814163464
 20
234.6564656289515
 30
0.0
 11
284.9155814163464
 21
234.0564656289515
 31
0.0
  0
LINE
  5
2D30
330
1F
100
AcDbEntity
  8
AM_VIS
100
AcDbLine
 10
281.4155814163464
 20
234.0564656289515
 30
0.0
 11
284.9155814163464
 21
234.0564656289515
 31
0.0
  0
LINE
  5
2D31
330
1F
100
AcDbEntity
  8
AM_VIS
100
AcDbLine
 10
285.9155814163464
 20
235.7064656289515
 30
0.0
 11
285.9155814163464
 21
234.8064656289515
 31
0.0
  0
LINE
  5
2D32
330
1F
100
AcDbEntity
  8
AM_VIS
100
AcDbLine
 10
281.4155814163464
 20
235.7064656289515
 30
0.0
 11
285.9155814163464
 21
235.7064656289515
 31
0.0
  0
LINE
  5
2D33
330
1F
100
AcDbEntity
  8
AM_VIS
100
AcDbLine
 10
285.9155814163464
 20
234.8064656289515
 30
0.0
 11
281.4155814163464
 21
234.8064656289515
 31
0.0
  0
LINE
  5
2D34
330
1F
100
AcDbEntity
  8
AM_VIS
100
AcDbLine
 10
284.4155814163464
 20
238.3064656289516
 30
0.0
 11
283.2155814163463
 21
238.3064656289516
 31
0.0
  0
LINE
  5
2D35
330
1F
100
AcDbEntity
  8
AM_VIS
100
AcDbLine
 10
284.4155814163464
 20
238.3064656289516
 30
0.0
 11
284.4155814163464
 21
237.3064656289515
 31
0.0
  0
LINE
  5
2D36
330
1F
100
AcDbEntity
  8
AM_VIS
100
AcDbLine
 10
283.2155814163463
 20
237.3064656289515
 30
0.0
 11
284.4155814163464
 21
237.3064656289515
 31
0.0
  0
LINE
  5
2D37
330
1F
100
AcDbEntity
  8
AM_VIS
100
AcDbLine
 10
283.2155814163463
 20
238.3064656289516
 30
0.0
 11
283.2155814163463
 21
237.3064656289515
 31
0.0
  0
LINE
  5
2D38
330
1F
100
AcDbEntity
  8
AM_VIS
100
AcDbLine
 10
281.4155814163464
 20
233.8064656289515
 30
0.0
 11
281.4155814163464
 21
235.8064656289515
 31
0.0
  0
LINE
  5
2D39
330
1F
100
AcDbEntity
  8
AM_VIS
100
AcDbLine
 10
279.9155814163464
 20
242.8064656289516
 30
0.0
 11
281.4155814163464
 21
241.8064656289515
 31
0.0
  0
LINE
  5
2D3A
330
1F
100
AcDbEntity
  8
AM_VIS
100
AcDbLine
 10
281.4155814163464
 20
239.8064656289515
 30
0.0
 11
281.4155814163464
 21
241.8064656289515
 31
0.0
  0
LINE
  5
2D3B
330
1F
100
AcDbEntity
  8
AM_VIS
100
AcDbLine
 10
279.9155814163464
 20
235.8064656289515
 30
0.0
 11
279.9155814163464
 21
232.8064656289515
 31
0.0
  0
LINE
  5
2D3C
330
1F
100
AcDbEntity
  8
AM_VIS
100
AcDbLine
 10
276.4155814163464
 20
232.8064656289515
 30
0.0
 11
279.9155814163464
 21
232.8064656289515
 31
0.0
  0
LINE
  5
2D3D
330
1F
100
AcDbEntity
  8
AM_VIS
100
AcDbLine
 10
276.4155814163464
 20
242.8064656289516
 30
0.0
 11
276.4155814163464
 21
232.8064656289515
 31
0.0
  0
LINE
  5
2D3E
330
1F
100
AcDbEntity
  8
AM_VIS
100
AcDbLine
 10
276.4155814163464
 20
242.8064656289516
 30
0.0
 11
279.9155814163464
 21
242.8064656289516
 31
0.0
  0
LINE
  5
2D3F
330
1F
100
AcDbEntity
  8
AM_VIS
100
AcDbLine
 10
279.9155814163464
 20
242.8064656289516
 30
0.0
 11
279.9155814163464
 21
239.8064656289515
 31
0.0
  0
LINE
  5
2D40
330
1F
100
AcDbEntity
  8
AM_VIS
100
AcDbLine
 10
281.4155814163464
 20
235.8064656289515
 30
0.0
 11
279.9155814163464
 21
235.8064656289515
 31
0.0
  0
LINE
  5
2D41
330
1F
100
AcDbEntity
  8
AM_VIS
100
AcDbLine
 10
279.9155814163464
 20
235.8064656289515
 30
0.0
 11
279.1155814163464
 21
235.8064656289515
 31
0.0
  0
LINE
  5
2D42
330
1F
100
AcDbEntity
  8
AM_VIS
100
AcDbLine
 10
279.1155814163464
 20
239.8064656289515
 30
0.0
 11
279.9155814163464
 21
239.8064656289515
 31
0.0
  0
LINE
  5
2D43
330
1F
100
AcDbEntity
  8
AM_VIS
100
AcDbLine
 10
279.9155814163464
 20
239.8064656289515
 30
0.0
 11
281.4155814163464
 21
239.8064656289515
 31
0.0
  0
LINE
  5
2D44
330
1F
100
AcDbEntity
  8
AM_VIS
100
AcDbLine
 10
279.1155814163464
 20
235.8064656289515
 30
0.0
 11
279.1155814163464
 21
239.8064656289515
 31
0.0
  0
LINE
  5
2D45
330
1F
100
AcDbEntity
  8
AM_VIS
100
AcDbLine
 10
279.8327387038717
 20
235.8064656289515
 30
0.0
 11
279.8327387038717
 21
239.8064656289515
 31
0.0
  0
LINE
  5
2D46
330
1F
100
AcDbEntity
  8
AM_VIS
100
AcDbLine
 10
281.4155814163464
 20
239.8064656289515
 30
0.0
 11
281.4155814163464
 21
235.8064656289515
 31
0.0
  0
LINE
  5
2D47
330
1F
100
AcDbEntity
  8
AM_VIS
100
AcDbLine
 10
260.4647275037448
 20
239.6256117163499
 30
0.0
 11
256.9151747912979
 21
241.6727256705698
 31
0.0
  0
LINE
  5
2D48
330
1F
100
AcDbEntity
  8
AM_VIS
100
AcDbLine
 10
255.5493213747281
 20
240.306872254
 30
0.0
 11
257.596435328948
 21
236.7573195415532
 31
0.0
  0
LINE
  5
2D49
330
1F
100
AcDbEntity
  8
AM_VIS
100
AcDbLine
 10
260.2720641512221
 20
236.4550081472453
 30
0.0
 11
260.6322490893658
 21
236.0948232091016
 31
0.0
  0
LINE
  5
2D4A
330
1F
100
AcDbEntity
  8
AM_VIS
100
AcDbLine
 10
260.2720641512221
 20
236.4550081472453
 30
0.0
 11
255.9156064194721
 21
240.8114658789954
 31
0.0
  0
LINE
  5
2D4B
330
1F
100
AcDbEntity
  8
AM_VIS
100
AcDbLine
 10
255.5057119779565
 20
241.2213603205108
 30
0.0
 11
255.9156064194721
 21
240.8114658789953
 31
0.0
  0
LINE
  5
2D4C
330
1F
100
AcDbEntity
  8
AM_VIS
100
AcDbLine
 10
256.4105811663026
 20
241.3064406258259
 30
0.0
 11
260.7670388980527
 21
236.9499828940759
 31
0.0
  0
LINE
  5
2D4D
330
1F
100
AcDbEntity
  8
AM_VIS
100
AcDbLine
 10
260.7670388980527
 20
236.9499828940758
 30
0.0
 11
261.1272238361964
 21
236.5897979559322
 31
0.0
  0
LINE
  5
2D4E
330
1F
100
AcDbEntity
  8
AM_VIS
100
AcDbLine
 10
256.000686724787
 20
241.7163350673415
 30
0.0
 11
256.4105811663027
 21
241.3064406258259
 31
0.0
  0
ARC
  5
2D4F
330
1F
100
AcDbEntity
  8
AM_VIS
100
AcDbCircle
 10
259.4155814163463
 20
237.8064656289515
 30
0.0
 40
2.100000000000001
100
AcDbArc
 50
209.973101547726
 51
305.4059317731409
  0
ARC
  5
2D50
330
1F
100
AcDbEntity
  8
AM_VIS
100
AcDbCircle
 10
256.4155814163464
 20
240.8064656289516
 30
0.0
 40
1.0
100
AcDbArc
 50
155.4873151147218
 51
209.9731015477304
  0
ARC
  5
2D51
330
1F
100
AcDbEntity
  8
AM_VIS
100
AcDbCircle
 10
259.4155814163463
 20
237.8064656289515
 30
0.0
 40
2.100000000000001
100
AcDbArc
 50
324.5940682268622
 51
60.02689845227544
  0
ARC
  5
2D52
330
1F
100
AcDbEntity
  8
AM_VIS
100
AcDbCircle
 10
256.4155814163464
 20
240.8064656289516
 30
0.0
 40
1.0
100
AcDbArc
 50
60.02689845227544
 51
114.5126848852745
  0
ARC
  5
2D53
330
1F
100
AcDbEntity
  8
AM_VIS
100
AcDbCircle
 10
259.4155814163463
 20
237.8064656289515
 30
0.0
 40
2.100000000000001
100
AcDbArc
 50
305.4059317731409
 51
324.5940682268622
  0
ARC
  5
2D54
330
1F
100
AcDbEntity
  8
AM_VIS
100
AcDbCircle
 10
256.4155814163464
 20
240.8064656289516
 30
0.0
 40
1.0
100
AcDbArc
 50
114.5126848852745
 51
155.4873151147218
  0
LINE
  5
2D55
330
1F
100
AcDbEntity
  8
AM_VIS
100
AcDbLine
 10
259.4155814163466
 20
235.6564656289516
 30
0.0
 11
259.4155814163466
 21
235.7064656289515
 31
0.0
  0
LINE
  5
2D56
330
1F
100
AcDbEntity
  8
AM_VIS
100
AcDbLine
 10
219.7155814163464
 20
242.8064656289516
 30
0.0
 11
219.7155814163464
 21
232.8064656289516
 31
0.0
  0
LINE
  5
2D57
330
1F
100
AcDbEntity
  8
AM_VIS
100
AcDbLine
 10
220.9155814163464
 20
242.8064656289516
 30
0.0
 11
220.9155814163464
 21
232.8064656289516
 31
0.0
  0
LINE
  5
2D58
330
1F
100
AcDbEntity
  8
AM_VIS
100
AcDbLine
 10
219.7155814163464
 20
242.8064656289516
 30
0.0
 11
220.9155814163464
 21
242.8064656289516
 31
0.0
  0
LINE
  5
2D59
330
1F
100
AcDbEntity
  8
AM_VIS
100
AcDbLine
 10
216.9155814163464
 20
242.8064656289516
 30
0.0
 11
219.7155814163464
 21
242.8064656289516
 31
0.0
  0
LINE
  5
2D5A
330
1F
100
AcDbEntity
  8
AM_VIS
100
AcDbLine
 10
218.9155814163464
 20
242.8064656289516
 30
0.0
 11
219.0887864971032
 21
242.9064656289517
 31
0.0
  0
LINE
  5
2D5B
330
1F
100
AcDbEntity
  8
AM_VIS
100
AcDbLine
 10
219.7155814163464
 20
232.8064656289516
 30
0.0
 11
216.9155814163464
 21
232.8064656289516
 31
0.0
  0
LINE
  5
2D5C
330
1F
100
AcDbEntity
  8
AM_VIS
100
AcDbLine
 10
220.9155814163464
 20
232.8064656289516
 30
0.0
 11
219.7155814163464
 21
232.8064656289516
 31
0.0
  0
LINE
  5
2D5D
330
1F
100
AcDbEntity
  8
AM_VIS
100
AcDbLine
 10
219.0887864971032
 20
232.7064656289516
 30
0.0
 11
218.9155814163464
 21
232.8064656289516
 31
0.0
  0
LINE
  5
2D5E
330
1F
100
AcDbEntity
  8
AM_VIS
100
AcDbLine
 10
216.9155814163464
 20
232.8064656289516
 30
0.0
 11
209.4155814163464
 21
232.8064656289516
 31
0.0
  0
LINE
  5
2D5F
330
1F
100
AcDbEntity
  8
AM_VIS
100
AcDbLine
 10
216.9155814163464
 20
242.8064656289516
 30
0.0
 11
209.4155814163464
 21
242.8064656289516
 31
0.0
  0
LINE
  5
2D60
330
1F
100
AcDbEntity
  8
AM_VIS
100
AcDbLine
 10
216.9155814163464
 20
232.8064656289516
 30
0.0
 11
216.9155814163464
 21
233.9404402251671
 31
0.0
  0
LINE
  5
2D61
330
1F
100
AcDbEntity
  8
AM_VIS
100
AcDbLine
 10
216.9155814163464
 20
235.9411283519027
 30
0.0
 11
216.9155814163464
 21
242.8064656289516
 31
0.0
  0
LINE
  5
2D62
330
1F
100
AcDbEntity
  8
AM_VIS
100
AcDbLine
 10
220.9155814163464
 20
242.9064656289517
 30
0.0
 11
219.0887864971032
 21
242.9064656289517
 31
0.0
  0
LINE
  5
2D63
330
1F
100
AcDbEntity
  8
AM_VIS
100
AcDbLine
 10
220.9155814163464
 20
232.7064656289516
 30
0.0
 11
219.0887864971032
 21
232.7064656289516
 31
0.0
  0
LINE
  5
2D64
330
1F
100
AcDbEntity
  8
AM_VIS
100
AcDbLine
 10
220.9155814163464
 20
242.9064656289517
 30
0.0
 11
220.9155814163464
 21
242.8064656289516
 31
0.0
  0
LINE
  5
2D65
330
1F
100
AcDbEntity
  8
AM_VIS
100
AcDbLine
 10
220.9155814163464
 20
232.8064656289516
 30
0.0
 11
220.9155814163464
 21
232.7064656289516
 31
0.0
  0
ARC
  5
2D66
330
1F
100
AcDbEntity
  8
AM_VIS
100
AcDbCircle
 10
213.4155814163464
 20
237.8064656289517
 30
0.0
 40
2.149999999999999
100
AcDbArc
 50
17.5923026305782
 51
252.4076973694035
  0
LINE
  5
2D67
330
1F
100
AcDbEntity
  8
AM_VIS
100
AcDbLine
 10
196.4155814163466
 20
242.8064656289512
 30
0.0
 11
209.4155814163467
 21
242.8064656289512
 31
0.0
  0
LINE
  5
2D68
330
1F
100
AcDbEntity
  8
AM_VIS
100
AcDbLine
 10
209.4155814163467
 20
232.8064656289512
 30
0.0
 11
196.4155814163466
 21
232.8064656289512
 31
0.0
  0
LINE
  5
2D69
330
1F
100
AcDbEntity
  8
AM_VIS
100
AcDbLine
 10
209.4155814163467
 20
242.8064656289512
 30
0.0
 11
209.4155814163467
 21
232.8064656289512
 31
0.0
  0
LINE
  5
2D6A
330
1F
100
AcDbEntity
  8
AM_VIS
100
AcDbLine
 10
196.4155814163466
 20
242.8064656289512
 30
0.0
 11
196.4155814163466
 21
232.8064656289512
 31
0.0
  0
LINE
  5
2D6B
330
1F
100
AcDbEntity
  8
AM_VIS
100
AcDbLine
 10
191.4155814163466
 20
241.8064656289512
 30
0.0
 11
192.9155814163466
 21
242.8064656289512
 31
0.0
  0
LINE
  5
2D6C
330
1F
100
AcDbEntity
  8
AM_VIS
100
AcDbLine
 10
191.4155814163466
 20
234.0564656289512
 30
0.0
 11
187.9155814163466
 21
234.0564656289512
 31
0.0
  0
LINE
  5
2D6D
330
1F
100
AcDbEntity
  8
AM_VIS
100
AcDbLine
 10
187.9155814163466
 20
234.0564656289512
 30
0.0
 11
186.9155814163466
 21
234.6564656289512
 31
0.0
  0
LINE
  5
2D6E
330
1F
100
AcDbEntity
  8
AM_VIS
100
AcDbLine
 10
186.9155814163466
 20
234.8064656289512
 30
0.0
 11
186.9155814163466
 21
234.6564656289512
 31
0.0
  0
LINE
  5
2D6F
330
1F
100
AcDbEntity
  8
AM_VIS
100
AcDbLine
 10
186.9155814163466
 20
234.8064656289512
 30
0.0
 11
186.9155814163466
 21
235.7064656289512
 31
0.0
  0
LINE
  5
2D70
330
1F
100
AcDbEntity
  8
AM_VIS
100
AcDbLine
 10
191.4155814163466
 20
234.8064656289512
 30
0.0
 11
186.9155814163466
 21
234.8064656289512
 31
0.0
  0
LINE
  5
2D73
330
1F
100
AcDbEntity
  8
AM_VIS
100
AcDbLine
 10
248.8155814163464
 20
189.9327942912894
 30
0.0
 11
248.8155814163464
 21
173.7327942912895
 31
0.0
  0
LINE
  5
2D74
330
1F
100
AcDbEntity
  8
AM_VIS
100
AcDbLine
 10
248.0155814163465
 20
173.7327942912895
 30
0.0
 11
248.0155814163465
 21
189.9327942912894
 31
0.0
  0
LINE
  5
2D75
330
1F
100
AcDbEntity
  8
AM_VIS
100
AcDbLine
 10
246.2155814163463
 20
173.7327942912895
 30
0.0
 11
246.2155814163463
 21
189.9327942912894
 31
0.0
  0
LINE
  5
2D76
330
1F
100
AcDbEntity
  8
AM_VIS
100
AcDbLine
 10
249.1155814163464
 20
189.9327942912894
 30
0.0
 11
248.8155814163464
 21
189.9327942912894
 31
0.0
  0
LINE
  5
2D77
330
1F
100
AcDbEntity
  8
AM_VIS
100
AcDbLine
 10
248.8155814163464
 20
189.9327942912894
 30
0.0
 11
248.0155814163463
 21
189.9327942912894
 31
0.0
  0
LINE
  5
2D78
330
1F
100
AcDbEntity
  8
AM_VIS
100
AcDbLine
 10
248.0155814163465
 20
189.9327942912894
 30
0.0
 11
246.2155814163463
 21
189.9327942912894
 31
0.0
  0
LINE
  5
2D79
330
1F
100
AcDbEntity
  8
AM_VIS
100
AcDbLine
 10
246.2155814163466
 20
189.9327942912894
 30
0.0
 11
245.4155814163463
 21
189.9327942912894
 31
0.0
  0
LINE
  5
2D7A
330
1F
100
AcDbEntity
  8
AM_VIS
100
AcDbLine
 10
249.1155814163464
 20
193.7327942912895
 30
0.0
 11
249.1155814163464
 21
189.9327942912894
 31
0.0
  0
LINE
  5
2D7B
330
1F
100
AcDbEntity
  8
AM_VIS
100
AcDbLine
 10
224.5155814163465
 20
193.7327942912895
 30
0.0
 11
224.5155814163465
 21
173.7327942912895
 31
0.0
  0
LINE
  5
2D7C
330
1F
100
AcDbEntity
  8
AM_VIS
100
AcDbLine
 10
226.9155814163464
 20
193.7327942912895
 30
0.0
 11
226.9155814163464
 21
173.7327942912895
 31
0.0
  0
LINE
  5
2D7D
330
1F
100
AcDbEntity
  8
AM_VIS
100
AcDbLine
 10
245.1155814163464
 20
189.9327942912894
 30
0.0
 11
245.1155814163464
 21
193.7327942912895
 31
0.0
  0
LINE
  5
2D7E
330
1F
100
AcDbEntity
  8
AM_VIS
100
AcDbLine
 10
245.4155814163463
 20
189.9327942912894
 30
0.0
 11
245.1155814163464
 21
189.9327942912894
 31
0.0
  0
LINE
  5
2D7F
330
1F
100
AcDbEntity
  8
AM_VIS
100
AcDbLine
 10
245.4155814163463
 20
173.7327942912895
 30
0.0
 11
245.4155814163463
 21
189.9327942912894
 31
0.0
  0
LINE
  5
2D80
330
1F
100
AcDbEntity
  8
AM_VIS
100
AcDbLine
 10
227.4155814163464
 20
193.7327942912895
 30
0.0
 11
227.4155814163464
 21
173.7327942912895
 31
0.0
  0
LINE
  5
2D81
330
1F
100
AcDbEntity
  8
AM_VIS
100
AcDbLine
 10
225.2193857641725
 20
193.7327942912895
 30
0.0
 11
225.5617770685203
 21
193.7327942912895
 31
0.0
  0
LINE
  5
2D82
330
1F
100
AcDbEntity
  8
AM_VIS
100
AcDbLine
 10
225.5617770685203
 20
193.7327942912895
 30
0.0
 11
226.0563422859117
 21
193.7327942912895
 31
0.0
  0
LINE
  5
2D83
330
1F
100
AcDbEntity
  8
AM_VIS
100
AcDbLine
 10
225.2737335902595
 20
193.7327942912895
 30
0.0
 11
225.8606901119985
 21
193.7327942912895
 31
0.0
  0
LINE
  5
2D84
330
1F
100
AcDbEntity
  8
AM_VIS
100
AcDbLine
 10
225.8606901119985
 20
193.7327942912895
 30
0.0
 11
225.9856901119985
 21
193.7327942912895
 31
0.0
  0
LINE
  5
2D85
330
1F
100
AcDbEntity
  8
AM_VIS
100
AcDbLine
 10
225.9856901119985
 20
193.7327942912895
 30
0.0
 11
226.0454727206942
 21
193.7327942912895
 31
0.0
  0
LINE
  5
2D86
330
1F
100
AcDbEntity
  8
AM_VIS
100
AcDbLine
 10
226.0454727206942
 20
193.7327942912895
 30
0.0
 11
226.0563423273758
 21
193.7327942912895
 31
0.0
  0
LINE
  5
2D87
330
1F
100
AcDbEntity
  8
AM_VIS
100
AcDbLine
 10
250.7110359617802
 20
173.7327942912895
 30
0.0
 11
251.1762766034914
 21
173.7327942912895
 31
0.0
  0
LINE
  5
2D88
330
1F
100
AcDbEntity
  8
AM_VIS
100
AcDbLine
 10
250.4302872986786
 20
173.7327942912895
 30
0.0
 11
250.7110359617802
 21
173.7327942912895
 31
0.0
  0
LINE
  5
2D89
330
1F
100
AcDbEntity
  8
AM_VIS
100
AcDbLine
 10
223.0287638397818
 20
173.7327942912895
 30
0.0
 11
223.4921459969057
 21
173.7327942912895
 31
0.0
  0
LINE
  5
2D8A
330
1F
100
AcDbEntity
  8
AM_VIS
100
AcDbLine
 10
222.7491366760002
 20
173.7327942912895
 30
0.0
 11
223.0287638397818
 21
173.7327942912895
 31
0.0
  0
LINE
  5
2D8B
330
1F
100
AcDbEntity
  8
AM_VIS
100
AcDbLine
 10
233.2715596772072
 20
173.7327942912895
 30
0.0
 11
233.4862335902507
 21
173.7327942912895
 31
0.0
  0
LINE
  5
2D8C
330
1F
100
AcDbEntity
  8
AM_VIS
100
AcDbLine
 10
232.7307988076422
 20
173.7327942912895
 30
0.0
 11
233.2715596772072
 21
173.7327942912895
 31
0.0
  0
LINE
  5
2D8D
330
1F
100
AcDbEntity
  8
AM_VIS
100
AcDbLine
 10
224.5155814163465
 20
173.7327942912895
 30
0.0
 11
224.0155814163465
 21
173.7327942912895
 31
0.0
  0
LINE
  5
2D8E
330
1F
100
AcDbEntity
  8
AM_VIS
100
AcDbLine
 10
226.9155814163464
 20
173.7327942912895
 30
0.0
 11
224.5155814163465
 21
173.7327942912895
 31
0.0
  0
LINE
  5
2D8F
330
1F
100
AcDbEntity
  8
AM_VIS
100
AcDbLine
 10
227.4155814163464
 20
173.7327942912895
 30
0.0
 11
226.9155814163464
 21
173.7327942912895
 31
0.0
  0
LINE
  5
2D90
330
1F
100
AcDbEntity
  8
AM_VIS
100
AcDbLine
 10
227.4155814163464
 20
173.7327942912895
 30
0.0
 11
245.4155814163463
 21
173.7327942912895
 31
0.0
  0
LINE
  5
2D91
330
1F
100
AcDbEntity
  8
AM_VIS
100
AcDbLine
 10
245.4155814163463
 20
173.7327942912895
 30
0.0
 11
246.2155814163463
 21
173.7327942912895
 31
0.0
  0
LINE
  5
2D92
330
1F
100
AcDbEntity
  8
AM_VIS
100
AcDbLine
 10
246.2155814163466
 20
173.7327942912895
 30
0.0
 11
248.0155814163465
 21
173.7327942912895
 31
0.0
  0
LINE
  5
2D93
330
1F
100
AcDbEntity
  8
AM_VIS
100
AcDbLine
 10
248.0155814163465
 20
173.7327942912895
 30
0.0
 11
248.8155814163464
 21
173.7327942912895
 31
0.0
  0
LINE
  5
2D94
330
1F
100
AcDbEntity
  8
AM_VIS
100
AcDbLine
 10
248.8155814163464
 20
173.7327942912895
 30
0.0
 11
251.9155814163464
 21
173.7327942912895
 31
0.0
  0
LINE
  5
2D95
330
1F
100
AcDbEntity
  8
AM_VIS
100
AcDbLine
 10
224.0155814163465
 20
173.7327942912895
 30
0.0
 11
224.0155814163465
 21
193.7327942912895
 31
0.0
  0
LINE
  5
2D96
330
1F
100
AcDbEntity
  8
AM_VIS
100
AcDbLine
 10
220.9155814163464
 20
173.7327942912895
 30
0.0
 11
224.0155814163465
 21
173.7327942912895
 31
0.0
  0
LINE
  5
2D97
330
1F
100
AcDbEntity
  8
AM_VIS
100
AcDbLine
 10
249.1155814163464
 20
193.7327942912895
 30
0.0
 11
251.9155814163464
 21
193.7327942912895
 31
0.0
  0
LINE
  5
2D98
330
1F
100
AcDbEntity
  8
AM_VIS
100
AcDbLine
 10
227.4155814163464
 20
193.7327942912895
 30
0.0
 11
245.1155814163464
 21
193.7327942912895
 31
0.0
  0
LINE
  5
2D99
330
1F
100
AcDbEntity
  8
AM_VIS
100
AcDbLine
 10
226.9155814163464
 20
193.7327942912895
 30
0.0
 11
227.4155814163464
 21
193.7327942912895
 31
0.0
  0
LINE
  5
2D9A
330
1F
100
AcDbEntity
  8
AM_VIS
100
AcDbLine
 10
224.5155814163465
 20
193.7327942912895
 30
0.0
 11
226.9155814163464
 21
193.7327942912895
 31
0.0
  0
LINE
  5
2D9B
330
1F
100
AcDbEntity
  8
AM_VIS
100
AcDbLine
 10
224.0155814163465
 20
193.7327942912895
 30
0.0
 11
224.5155814163465
 21
193.7327942912895
 31
0.0
  0
LINE
  5
2D9C
330
1F
100
AcDbEntity
  8
AM_VIS
100
AcDbLine
 10
220.9155814163464
 20
193.7327942912895
 30
0.0
 11
224.0155814163465
 21
193.7327942912895
 31
0.0
  0
LINE
  5
2D9D
330
1F
100
AcDbEntity
  8
AM_VIS
100
AcDbLine
 10
251.9155814163464
 20
173.7327942912895
 30
0.0
 11
251.9155814163464
 21
182.7278067291773
 31
0.0
  0
LINE
  5
2D9E
330
1F
100
AcDbEntity
  8
AM_VIS
100
AcDbLine
 10
251.9155814163464
 20
184.7377818534015
 30
0.0
 11
251.9155814163464
 21
193.7327942912895
 31
0.0
  0
LINE
  5
2D9F
330
1F
100
AcDbEntity
  8
AM_VIS
100
AcDbLine
 10
220.9155814163464
 20
193.7327942912895
 30
0.0
 11
220.9155814163464
 21
184.7377818534014
 31
0.0
  0
LINE
  5
2DA0
330
1F
100
AcDbEntity
  8
AM_VIS
100
AcDbLine
 10
220.9155814163464
 20
182.7278067291774
 30
0.0
 11
220.9155814163464
 21
173.7327942912895
 31
0.0
  0
LINE
  5
2DA5
330
1F
100
AcDbEntity
  8
AM_VIS
100
AcDbLine
 10
245.1155814163464
 20
193.7327942912895
 30
0.0
 11
249.1155814163464
 21
193.7327942912895
 31
0.0
  0
LINE
  5
2DA7
330
1F
100
AcDbEntity
  8
AM_VIS
100
AcDbLine
 10
251.9155814163464
 20
193.7327942912895
 30
0.0
 11
251.9155814163464
 21
184.7377818534015
 31
0.0
  0
LINE
  5
2DA8
330
1F
100
AcDbEntity
  8
AM_VIS
100
AcDbLine
 10
253.1155814163464
 20
193.7327942912895
 30
0.0
 11
251.9155814163464
 21
193.7327942912895
 31
0.0
  0
LINE
  5
2DA9
330
1F
100
AcDbEntity
  8
AM_VIS
100
AcDbLine
 10
255.9155814163466
 20
199.7327942912895
 30
0.0
 11
253.1155814163465
 21
193.7327942912895
 31
0.0
  0
LINE
  5
2DAA
330
1F
100
AcDbEntity
  8
AM_VIS
100
AcDbLine
 10
263.4155814163465
 20
199.7327942912895
 30
0.0
 11
263.4155814163465
 21
175.0327942912894
 31
0.0
  0
LINE
  5
2DAB
330
1F
100
AcDbEntity
  8
AM_VIS
100
AcDbLine
 10
264.4155814163465
 20
175.0327942912894
 30
0.0
 11
263.4155814163465
 21
175.0327942912894
 31
0.0
  0
LINE
  5
2DAC
330
1F
100
AcDbEntity
  8
AM_VIS
100
AcDbLine
 10
264.4155814163465
 20
174.7327942912894
 30
0.0
 11
264.4155814163465
 21
175.0327942912894
 31
0.0
  0
LINE
  5
2DAD
330
1F
100
AcDbEntity
  8
AM_VIS
100
AcDbLine
 10
264.4155814163465
 20
174.7327942912894
 30
0.0
 11
263.9155814163465
 21
173.7327942912895
 31
0.0
  0
LINE
  5
2DAE
330
1F
100
AcDbEntity
  8
AM_VIS
100
AcDbLine
 10
251.9155814163464
 20
173.7327942912895
 30
0.0
 11
263.9155814163463
 21
173.7327942912895
 31
0.0
  0
LINE
  5
2DAF
330
1F
100
AcDbEntity
  8
AM_VIS
100
AcDbLine
 10
251.9155814163464
 20
182.7278067291774
 30
0.0
 11
251.9155814163464
 21
173.7327942912895
 31
0.0
  0
LINE
  5
2DB0
330
1F
100
AcDbEntity
  8
AM_VIS
100
AcDbLine
 10
253.9155814163464
 20
182.7278067291774
 30
0.0
 11
251.9155814163464
 21
182.7278067291774
 31
0.0
  0
LINE
  5
2DB1
330
1F
100
AcDbEntity
  8
AM_VIS
100
AcDbLine
 10
251.9155814163464
 20
184.7377818534015
 30
0.0
 11
253.9155814163464
 21
184.7377818534015
 31
0.0
  0
LINE
  5
2DB2
330
1F
100
AcDbEntity
  8
AM_VIS
100
AcDbLine
 10
253.9155814163464
 20
184.7377818534015
 30
0.0
 11
253.9155814163464
 21
182.7278067291774
 31
0.0
  0
ELLIPSE
  5
2DB3
330
1F
100
AcDbEntity
  8
AM_VIS
100
AcDbEllipse
 10
262.5758354541908
 20
183.7327942912894
 30
0.0
 11
8.833459118601258
 21
-0.0000000000000018
 31
-0.0000000000000002
210
0.0
220
0.0
230
1.0
 40
0.5773502691896269
 41
2.943238131430988
 42
3.339947175748599
  0
LINE
  5
2DB4
330
1F
100
AcDbEntity
  8
AM_VIS
100
AcDbLine
 10
255.9155814163465
 20
199.7327942912895
 30
0.0
 11
263.4155814163465
 21
199.7327942912895
 31
0.0
  0
LINE
  5
2DB5
330
1F
100
AcDbEntity
  8
AM_VIS
100
AcDbLine
 10
251.9155814163464
 20
182.7278067291774
 30
0.0
 11
251.9155814163464
 21
184.7377818534015
 31
0.0
  0
LINE
  5
2DB6
330
1F
100
AcDbEntity
  8
AM_VIS
100
AcDbLine
 10
278.4155814163464
 20
183.3327942912895
 30
0.0
 11
278.4155814163464
 21
182.8327648792703
 31
0.0
  0
LINE
  5
2DB7
330
1F
100
AcDbEntity
  8
AM_VIS
100
AcDbLine
 10
266.0155814163464
 20
177.0327942912895
 30
0.0
 11
273.7155814163464
 21
177.0327942912895
 31
0.0
  0
LINE
  5
2DB8
330
1F
100
AcDbEntity
  8
AM_VIS
100
AcDbLine
 10
266.0155814163464
 20
175.9327942912895
 30
0.0
 11
266.0155814163464
 21
177.0327942912895
 31
0.0
  0
LINE
  5
2DB9
330
1F
100
AcDbEntity
  8
AM_VIS
100
AcDbLine
 10
273.7155814163464
 20
175.9327942912895
 30
0.0
 11
266.0155814163464
 21
175.9327942912895
 31
0.0
  0
LINE
  5
2DBA
330
1F
100
AcDbEntity
  8
AM_VIS
100
AcDbLine
 10
273.7155814163464
 20
177.0327942912895
 30
0.0
 11
273.7155814163464
 21
175.9327942912895
 31
0.0
  0
LINE
  5
2DBB
330
1F
100
AcDbEntity
  8
AM_VIS
100
AcDbLine
 10
276.4155814163464
 20
175.0327942912895
 30
0.0
 11
276.4155814163464
 21
179.3127942912894
 31
0.0
  0
LINE
  5
2DBC
330
1F
100
AcDbEntity
  8
AM_VIS
100
AcDbLine
 10
263.4155814163464
 20
175.0327942912895
 30
0.0
 11
276.4155814163464
 21
175.0327942912895
 31
0.0
  0
LINE
  5
2DBD
330
1F
100
AcDbEntity
  8
AM_VIS
100
AcDbLine
 10
263.4155814163464
 20
182.8327942912894
 30
0.0
 11
263.4155814163464
 21
175.0327942912895
 31
0.0
  0
LINE
  5
2DBE
330
1F
100
AcDbEntity
  8
AM_VIS
100
AcDbLine
 10
274.9155814163464
 20
182.8327942912894
 30
0.0
 11
263.4155814163464
 21
182.8327942912894
 31
0.0
  0
LINE
  5
2DBF
330
1F
100
AcDbEntity
  8
AM_VIS
100
AcDbLine
 10
274.9155814163464
 20
179.3127942912894
 30
0.0
 11
274.9155814163464
 21
182.8327942912894
 31
0.0
  0
LINE
  5
2DC0
330
1F
100
AcDbEntity
  8
AM_VIS
100
AcDbLine
 10
276.4155814163464
 20
182.8327648792703
 30
0.0
 11
278.4155814163464
 21
182.8327648792703
 31
0.0
  0
LINE
  5
2DC1
330
1F
100
AcDbEntity
  8
AM_VIS
100
AcDbLine
 10
276.4166879526617
 20
180.0931841074446
 30
0.0
 11
278.4169618364856
 21
180.5458306124698
 31
0.0
  0
LINE
  5
2DC2
330
1F
100
AcDbEntity
  8
AM_VIS
100
AcDbLine
 10
276.4155814163464
 20
179.3127942912894
 30
0.0
 11
274.9155814163464
 21
179.3127942912894
 31
0.0
  0
LINE
  5
2DC3
330
1F
100
AcDbEntity
  8
AM_VIS
100
AcDbLine
 10
278.6155814163465
 20
182.2327942912895
 30
0.0
 11
278.4155814163464
 21
182.2327942912895
 31
0.0
  0
LINE
  5
2DC4
330
1F
100
AcDbEntity
  8
AM_VIS
100
AcDbLine
 10
278.4155814163464
 20
182.8327942912894
 30
0.0
 11
278.6155814163465
 21
182.8327942912894
 31
0.0
  0
LINE
  5
2DC5
330
1F
100
AcDbEntity
  8
AM_VIS
100
AcDbLine
 10
273.3155814163463
 20
175.9327942912895
 30
0.0
 11
273.3155814163463
 21
177.0327942912895
 31
0.0
  0
LINE
  5
2DC6
330
1F
100
AcDbEntity
  8
AM_VIS
100
AcDbLine
 10
266.5155814163464
 20
175.9327942912895
 30
0.0
 11
266.5155814163464
 21
177.0327942912895
 31
0.0
  0
LINE
  5
2DC7
330
1F
100
AcDbEntity
  8
AM_VIS
100
AcDbLine
 10
278.4155814163464
 20
180.0327942912895
 30
0.0
 11
276.4155814163464
 21
179.5327942912895
 31
0.0
  0
LINE
  5
2DC8
330
1F
100
AcDbEntity
  8
AM_VIS
100
AcDbLine
 10
278.4155814163464
 20
181.0327942912895
 30
0.0
 11
278.6155814163465
 21
181.0327942912895
 31
0.0
  0
LINE
  5
2DC9
330
1F
100
AcDbEntity
  8
AM_VIS
100
AcDbLine
 10
278.4155814163464
 20
184.0327942912895
 30
0.0
 11
278.6155814163465
 21
184.0327942912895
 31
0.0
  0
LINE
  5
2DCA
330
1F
100
AcDbEntity
  8
AM_VIS
100
AcDbLine
 10
278.4155814163464
 20
180.5519307774386
 30
0.0
 11
278.4155814163464
 21
180.0327942912895
 31
0.0
  0
LINE
  5
2DCB
330
1F
100
AcDbEntity
  8
AM_VIS
100
AcDbLine
 10
276.4155814163464
 20
182.8327942912895
 30
0.0
 11
276.4155814163464
 21
182.8327648792703
 31
0.0
  0
LINE
  5
2DCC
330
1F
100
AcDbEntity
  8
AM_VIS
100
AcDbLine
 10
278.4155814163464
 20
182.8327648792703
 30
0.0
 11
278.4155814163464
 21
180.5519307774386
 31
0.0
  0
LINE
  5
2DCD
330
1F
100
AcDbEntity
  8
AM_VIS
100
AcDbLine
 10
276.4155814163464
 20
180.0980739622616
 30
0.0
 11
276.4155814163464
 21
179.3127942912894
 31
0.0
  0
LINE
  5
2DCE
330
1F
100
AcDbEntity
  8
AM_VIS
100
AcDbLine
 10
278.6155814163465
 20
184.0327942912895
 30
0.0
 11
278.6155814163465
 21
182.8327942912895
 31
0.0
  0
LINE
  5
2DCF
330
1F
100
AcDbEntity
  8
AM_VIS
100
AcDbLine
 10
278.6155814163465
 20
182.2327942912895
 30
0.0
 11
278.6155814163465
 21
181.0327942912895
 31
0.0
  0
LINE
  5
2DD0
330
1F
100
AcDbEntity
  8
AM_VIS
100
AcDbLine
 10
276.4155814163464
 20
202.5327942912895
 30
0.0
 11
263.4155814163464
 21
202.5327942912895
 31
0.0
  0
LINE
  5
2DD1
330
1F
100
AcDbEntity
  8
AM_VIS
100
AcDbLine
 10
263.4155814163464
 20
182.8327942912895
 30
0.0
 11
263.4155814163464
 21
202.5327942912895
 31
0.0
  0
LINE
  5
2DD2
330
1F
100
AcDbEntity
  8
AM_VIS
100
AcDbLine
 10
278.4155814163464
 20
183.3327942912895
 30
0.0
 11
278.4155814163464
 21
185.5327942912895
 31
0.0
  0
LINE
  5
2DD3
330
1F
100
AcDbEntity
  8
AM_VIS
100
AcDbLine
 10
276.4155814163464
 20
185.5327942912895
 30
0.0
 11
276.4155814163464
 21
202.5327942912895
 31
0.0
  0
LINE
  5
2DD4
330
1F
100
AcDbEntity
  8
AM_VIS
100
AcDbLine
 10
278.4155814163464
 20
185.5327942912895
 30
0.0
 11
276.4155814163464
 21
185.5327942912895
 31
0.0
  0
LINE
  5
2DD5
330
1F
100
AcDbEntity
  8
AM_VIS
100
AcDbLine
 10
276.9155814163464
 20
182.8327942912895
 30
0.0
 11
263.4155814163464
 21
182.8327942912895
 31
0.0
  0
LINE
  5
2DD6
330
1F
100
AcDbEntity
  8
AM_VIS
100
AcDbLine
 10
278.4155814163464
 20
183.3327942912895
 30
0.0
 11
276.9155814163464
 21
182.8327942912895
 31
0.0
  0
LINE
  5
2DD7
330
1F
100
AcDbEntity
  8
AM_VIS
100
AcDbLine
 10
276.4155814163464
 20
185.5327942912895
 30
0.0
 11
279.9155814163464
 21
185.5327942912895
 31
0.0
  0
LINE
  5
2DD8
330
1F
100
AcDbEntity
  8
AM_VIS
100
AcDbLine
 10
276.4155814163464
 20
202.5327942912895
 30
0.0
 11
276.4155814163464
 21
185.5327942912895
 31
0.0
  0
LINE
  5
2DD9
330
1F
100
AcDbEntity
  8
AM_VIS
100
AcDbLine
 10
279.9155814163464
 20
185.5327942912895
 30
0.0
 11
281.4155814163464
 21
187.0327942912895
 31
0.0
  0
LINE
  5
2DDA
330
1F
100
AcDbEntity
  8
AM_VIS
100
AcDbLine
 10
279.9155814163464
 20
202.5327942912895
 30
0.0
 11
279.9155814163464
 21
185.5327942912895
 31
0.0
  0
LINE
  5
2DDB
330
1F
100
AcDbEntity
  8
AM_VIS
100
AcDbLine
 10
281.4155814163464
 20
201.0327942912895
 30
0.0
 11
279.9155814163464
 21
202.5327942912895
 31
0.0
  0
LINE
  5
2DDC
330
1F
100
AcDbEntity
  8
AM_VIS
100
AcDbLine
 10
284.9155814163464
 20
198.5327942912895
 30
0.0
 11
284.9155814163464
 21
193.1327942912895
 31
0.0
  0
LINE
  5
2DDD
330
1F
100
AcDbEntity
  8
AM_VIS
100
AcDbLine
 10
285.9155814163464
 20
193.4327942912895
 30
0.0
 11
285.9155814163464
 21
198.5327942912895
 31
0.0
  0
LINE
  5
2DDE
330
1F
100
AcDbEntity
  8
AM_VIS
100
AcDbLine
 10
281.4155814163464
 20
193.1327942912895
 30
0.0
 11
284.9155814163464
 21
193.1327942912895
 31
0.0
  0
LINE
  5
2DDF
330
1F
100
AcDbEntity
  8
AM_VIS
100
AcDbLine
 10
285.9155814163464
 20
193.4327942912895
 30
0.0
 11
284.9155814163464
 21
193.1327942912895
 31
0.0
  0
LINE
  5
2DE0
330
1F
100
AcDbEntity
  8
AM_VIS
100
AcDbLine
 10
285.9155814163464
 20
198.5327942912895
 30
0.0
 11
284.9155814163464
 21
198.5327942912895
 31
0.0
  0
LINE
  5
2DE1
330
1F
100
AcDbEntity
  8
AM_VIS
100
AcDbLine
 10
281.4155814163464
 20
198.5327942912895
 30
0.0
 11
284.9155814163464
 21
198.5327942912895
 31
0.0
  0
LINE
  5
2DE2
330
1F
100
AcDbEntity
  8
AM_VIS
100
AcDbLine
 10
285.9155814163464
 20
198.5327942912895
 30
0.0
 11
285.9155814163464
 21
200.0327942912895
 31
0.0
  0
LINE
  5
2DE3
330
1F
100
AcDbEntity
  8
AM_VIS
100
AcDbLine
 10
285.9155814163464
 20
200.0327942912895
 30
0.0
 11
281.4155814163464
 21
200.0327942912895
 31
0.0
  0
LINE
  5
2DE4
330
1F
100
AcDbEntity
  8
AM_VIS
100
AcDbLine
 10
281.4155814163464
 20
187.0327942912895
 30
0.0
 11
281.4155814163464
 21
201.0327942912895
 31
0.0
  0
LINE
  5
2DE5
330
1F
100
AcDbEntity
  8
AM_VIS
100
AcDbLine
 10
276.4155814163464
 20
202.5327942912895
 30
0.0
 11
279.9155814163464
 21
202.5327942912895
 31
0.0
  0
LINE
  5
2DE6
330
1F
100
AcDbEntity
  8
AM_VIS
100
AcDbLine
 10
276.0652273762205
 20
181.0207504672535
 30
0.0
 11
276.1578821981018
 21
181.0324196214366
 31
0.0
  0
LINE
  5
2DE7
330
1F
100
AcDbEntity
  8
AM_VIS
100
AcDbLine
 10
276.1363632447351
 20
181.6463116430332
 30
0.0
 11
276.157882914923
 21
181.6572754502591
 31
0.0
  0
LINE
  5
2DE8
330
1F
100
AcDbEntity
  8
AM_VIS
100
AcDbLine
 10
276.064227266181
 20
180.8127883167298
 30
0.0
 11
276.1578821477226
 21
180.800991934568
 31
0.0
  0
LINE
  5
2DE9
330
1F
100
AcDbEntity
  8
AM_VIS
100
AcDbLine
 10
275.3872335039532
 20
182.6915300804956
 30
0.0
 11
274.9155814163464
 21
182.7327942912894
 31
0.0
  0
LINE
  5
2DEA
330
1F
100
AcDbEntity
  8
AM_VIS
100
AcDbLine
 10
275.3872335039532
 20
179.5740585020833
 30
0.0
 11
274.9155814163464
 21
179.5327942912894
 31
0.0
  0
ELLIPSE
  5
2DEB
330
1F
100
AcDbEntity
  8
AM_VIS
100
AcDbEllipse
 10
273.7155814163464
 20
181.1858234383859
 30
0.0
 11
-2.490079065009783
 21
0.0000000000000005
 31
0.0
210
0.0
220
0.0
230
1.0
 40
0.971183434860676
 41
3.33779780506694
 42
3.484489678624752
  0
ELLIPSE
  5
2DEC
330
1F
100
AcDbEntity
  8
AM_VIS
100
AcDbEllipse
 10
274.2499432263551
 20
180.5034348189912
 30
0.0
 11
1.794957342537177
 21
1.52402036779382
 31
0.0
210
0.0
220
0.0
230
1.0
 40
0.1838809272074936
 41
6.033676357464755
 42
6.216405892020705
  0
ELLIPSE
  5
2DED
330
1F
100
AcDbEntity
  8
AM_VIS
100
AcDbEllipse
 10
273.7155814163464
 20
181.0797651441929
 30
0.0
 11
2.490079065009783
 21
-0.0000000000000005
 31
0.0
210
0.0
220
0.0
230
1.0
 40
0.971183434860676
 41
5.937689964444294
 42
6.086980155702426
  0
ELLIPSE
  5
2DEE
330
1F
100
AcDbEntity
  8
AM_VIS
100
AcDbEllipse
 10
274.2499432263551
 20
181.7621537635877
 30
0.0
 11
-1.794957342537177
 21
1.524020367793821
 31
0.0
210
0.0
220
0.0
230
1.0
 40
0.1838809272074926
 41
3.20183375374015
 42
3.215542106670783
  0
ELLIPSE
  5
2DEF
330
1F
100
AcDbEntity
  8
AM_VIS
100
AcDbEllipse
 10
273.7155814163464
 20
180.916705977031
 30
0.0
 11
-2.490079065009606
 21
0.0000000000000005
 31
0.0
210
0.0
220
0.0
230
1.0
 40
0.2383332453775997
 41
2.79609731085452
 42
2.945387502113013
  0
ELLIPSE
  5
2DF0
330
1F
100
AcDbEntity
  8
AM_VIS
100
AcDbEllipse
 10
274.2499432263551
 20
180.9783463464854
 30
0.0
 11
0.6538164905628956
 21
2.262086191913685
 31
0.0
210
0.0
220
0.0
230
1.0
 40
0.7492958450165209
 41
4.992445536876728
 42
4.999615574798072
  0
ELLIPSE
  5
2DF1
330
1F
100
AcDbEntity
  8
AM_VIS
100
AcDbEllipse
 10
273.7155814163464
 20
181.348882605544
 30
0.0
 11
2.490079065009962
 21
-0.0000000000000005
 31
0.0
210
0.0
220
0.0
230
1.0
 40
0.2383332453775997
 41
5.937689964444263
 42
6.086980155702069
  0
ELLIPSE
  5
2DF2
330
1F
100
AcDbEntity
  8
AM_VIS
100
AcDbEllipse
 10
274.2499432263551
 20
181.2872422360935
 30
0.0
 11
-0.6538164905628954
 21
2.262086191913684
 31
0.0
210
0.0
220
0.0
230
1.0
 40
0.7492958450165213
 41
4.249602889335793
 42
4.438870738900241
  0
ELLIPSE
  5
2DF3
330
1F
100
AcDbEntity
  8
AM_VIS
100
AcDbEllipse
 10
273.7155814163464
 20
180.916705977031
 30
0.0
 11
-2.490079065009606
 21
0.0000000000000005
 31
0.0
210
0.0
220
0.0
230
1.0
 40
0.2383332453775997
 41
3.337797805066607
 42
3.484489678624394
  0
ELLIPSE
  5
2DF4
330
1F
100
AcDbEntity
  8
AM_VIS
100
AcDbEllipse
 10
273.7155814163464
 20
181.0797651441929
 30
0.0
 11
2.490079065009783
 21
-0.0000000000000005
 31
0.0
210
0.0
220
0.0
230
1.0
 40
0.971183434860676
 41
0.1962051514771455
 42
0.3454953427352942
  0
LINE
  5
2DF5
330
1F
100
AcDbEntity
  8
AM_VIS
100
AcDbLine
 10
276.1578844278501
 20
181.0324019169029
 30
0.0
 11
276.1578844278501
 21
180.8010100371591
 31
0.0
  0
LINE
  5
2DF6
330
1F
100
AcDbEntity
  8
AM_VIS
100
AcDbLine
 10
276.1578844278501
 20
181.6572724806982
 30
0.0
 11
276.1578844278501
 21
181.5512141865051
 31
0.0
  0
LINE
  5
2DF7
330
1F
100
AcDbEntity
  8
AM_VIS
100
AcDbLine
 10
276.1578844278501
 20
181.5512141865051
 30
0.0
 11
276.1578844278501
 21
181.2331866656717
 31
0.0
  0
LINE
  5
2DF8
330
1F
100
AcDbEntity
  8
AM_VIS
100
AcDbLine
 10
276.1578844278501
 20
180.8010100371591
 30
0.0
 11
276.1578844278501
 21
180.6083161018807
 31
0.0
  0
ARC
  5
2DF9
330
1F
100
AcDbEntity
  8
AM_VIS
100
AcDbCircle
 10
275.3314538285949
 20
182.0539654737168
 30
0.0
 40
0.6400000000000002
100
AcDbArc
 50
29.68645618692297
 51
85.00000000000019
  0
ARC
  5
2DFA
330
1F
100
AcDbEntity
  8
AM_VIS
100
AcDbCircle
 10
275.3314538285949
 20
180.211623108862
 30
0.0
 40
0.6400000000000002
100
AcDbArc
 50
274.9999999999998
 51
330.3135438130822
  0
ARC
  5
2DFB
330
1F
100
AcDbEntity
  8
AM_VIS
100
AcDbCircle
 10
273.7155814163464
 20
181.1327942912894
 30
0.0
 40
2.5
100
AcDbArc
 50
330.313543813077
 51
339.6535615282061
  0
ARC
  5
2DFC
330
1F
100
AcDbEntity
  8
AM_VIS
100
AcDbCircle
 10
273.7155814163464
 20
181.1327942912894
 30
0.0
 40
2.5
100
AcDbArc
 50
20.34643847179391
 51
29.68645618691994
  0
LINE
  5
2DFD
330
1F
100
AcDbEntity
  8
AM_VIS
100
AcDbLine
 10
257.596435328948
 20
201.8327942912895
 30
0.0
 11
255.5493213747281
 21
201.8327942912895
 31
0.0
  0
LINE
  5
2DFE
330
1F
100
AcDbEntity
  8
AM_VIS
100
AcDbLine
 10
258.0295653497571
 20
203.3327942912894
 30
0.0
 11
255.9824513955372
 21
203.3327942912894
 31
0.0
  0
SPLINE
  5
2DFF
330
1F
100
AcDbEntity
  8
AM_VIS
100
AcDbSpline
210
0.0
220
0.0
230
1.0
 70
     8
 71
     3
 72
    22
 73
    18
 74
     0
 42
0.0000000001
 43
0.0000000001
 40
0.0
 40
0.0
 40
0.0
 40
0.0
 40
0.0920606133218154
 40
0.0920606133218154
 40
0.1841212266436307
 40
0.1841212266436307
 40
0.2768491276012612
 40
0.2768491276012612
 40
0.3695770285588916
 40
0.3695770285588916
 40
0.4633731673321721
 40
0.4633731673321721
 40
0.5571693061054525
 40
0.5571693061054525
 40
0.6524439030689618
 40
0.6524439030689618
 40
0.747718500032471
 40
0.747718500032471
 40
0.747718500032471
 40
0.747718500032471
 10
260.6322490893658
 20
202.8327942912894
 30
0.0
 10
260.6322490893658
 20
202.8634811623967
 30
0.0
 10
260.6300891446776
 20
202.8969907545874
 30
0.0
 10
260.6207837328322
 20
202.9625971728314
 30
0.0
 10
260.6136387869166
 20
202.9946941467452
 30
0.0
 10
260.5968608992616
 20
203.0515368534548
 30
0.0
 10
260.5856552408931
 20
203.0814952991517
 30
0.0
 10
260.559005901968
 20
203.1373750778434
 30
0.0
 10
260.5435635212768
 20
203.1632976506406
 30
0.0
 10
260.5123367099186
 20
203.2070636571612
 30
0.0
 10
260.4936413692382
 20
203.2288869342839
 30
0.0
 10
260.4534160749496
 20
203.2664787465766
 30
0.0
 10
260.431887461789
 20
203.2822501503716
 30
0.0
 10
260.3906538776302
 20
203.3061573570619
 30
0.0
 10
260.3671204240223
 20
203.3164077436693
 30
0.0
 10
260.3190535191568
 20
203.3297243296748
 30
0.0
 10
260.2945205890846
 20
203.3327942912894
 30
0.0
 10
260.2720641512221
 20
203.3327942912894
 30
0.0
  0
LINE
  5
2E00
330
1F
100
AcDbEntity
  8
AM_VIS
100
AcDbLine
 10
260.272064151222
 20
203.3327942912894
 30
0.0
 11
260.7670388980527
 21
203.3327942912894
 31
0.0
  0
SPLINE
  5
2E01
330
1F
100
AcDbEntity
  8
AM_VIS
100
AcDbSpline
210
0.0
220
0.0
230
1.0
 70
     8
 71
     3
 72
    22
 73
    18
 74
     0
 42
0.0000000001
 43
0.0000000001
 40
-0.7477185000324709
 40
-0.7477185000324709
 40
-0.7477185000324709
 40
-0.7477185000324709
 40
-0.6524439030689618
 40
-0.6524439030689618
 40
-0.5571693061054522
 40
-0.5571693061054522
 40
-0.463373167332172
 40
-0.463373167332172
 40
-0.3695770285588913
 40
-0.3695770285588913
 40
-0.276849127601261
 40
-0.276849127601261
 40
-0.1841212266436307
 40
-0.1841212266436307
 40
-0.0920606133218156
 40
-0.0920606133218156
 40
0.0
 40
0.0
 40
0.0
 40
0.0
 10
260.7670388980527
 20
203.3327942912894
 30
0.0
 10
260.7894953359152
 20
203.3327942912894
 30
0.0
 10
260.8140282659874
 20
203.3297243296748
 30
0.0
 10
260.8620951708528
 20
203.3164077436693
 30
0.0
 10
260.8856286244607
 20
203.3061573570619
 30
0.0
 10
260.9268622086195
 20
203.2822501503716
 30
0.0
 10
260.9483908217803
 20
203.2664787465766
 30
0.0
 10
260.9886161160687
 20
203.2288869342839
 30
0.0
 10
261.0073114567493
 20
203.2070636571612
 30
0.0
 10
261.0385382681073
 20
203.1632976506406
 30
0.0
 10
261.0539806487986
 20
203.1373750778434
 30
0.0
 10
261.0806299877237
 20
203.0814952991517
 30
0.0
 10
261.0918356460921
 20
203.0515368534548
 30
0.0
 10
261.1086135337471
 20
202.9946941467452
 30
0.0
 10
261.1157584796628
 20
202.9625971728314
 30
0.0
 10
261.1250638915082
 20
202.8969907545874
 30
0.0
 10
261.1272238361963
 20
202.8634811623967
 30
0.0
 10
261.1272238361963
 20
202.8327942912894
 30
0.0
  0
LINE
  5
2E02
330
1F
100
AcDbEntity
  8
AM_VIS
100
AcDbLine
 10
257.3155814163463
 20
201.8327942912895
 30
0.0
 11
257.3155814163463
 21
199.7327942912895
 31
0.0
  0
LINE
  5
2E03
330
1F
100
AcDbEntity
  8
AM_VIS
100
AcDbLine
 10
261.5155814163464
 20
202.8327942912894
 30
0.0
 11
261.5155814163464
 21
199.7327942912894
 31
0.0
  0
LINE
  5
2E04
330
1F
100
AcDbEntity
  8
AM_VIS
100
AcDbLine
 10
255.4155814163463
 20
201.8327942912895
 30
0.0
 11
255.4155814163463
 21
202.8327942912894
 31
0.0
  0
LINE
  5
2E05
330
1F
100
AcDbEntity
  8
AM_VIS
100
AcDbLine
 10
255.4155814163463
 20
201.8327942912895
 30
0.0
 11
255.5493213747281
 21
201.8327942912895
 31
0.0
  0
LINE
  5
2E06
330
1F
100
AcDbEntity
  8
AM_VIS
100
AcDbLine
 10
258.0295653497571
 20
203.3327942912894
 30
0.0
 11
260.2720641512221
 21
203.3327942912894
 31
0.0
  0
LINE
  5
2E07
330
1F
100
AcDbEntity
  8
AM_VIS
100
AcDbLine
 10
255.9155814163464
 20
203.3327942912894
 30
0.0
 11
255.9824513955372
 21
203.3327942912894
 31
0.0
  0
LINE
  5
2E08
330
1F
100
AcDbEntity
  8
AM_VIS
100
AcDbLine
 10
260.7670388980526
 20
203.3327942912894
 30
0.0
 11
261.0155814163464
 21
203.3327942912894
 31
0.0
  0
LINE
  5
2E09
330
1F
100
AcDbEntity
  8
AM_VIS
100
AcDbLine
 10
261.1272238361964
 20
202.8327942912894
 30
0.0
 11
260.6322490893658
 21
202.8327942912894
 31
0.0
  0
ARC
  5
2E0A
330
1F
100
AcDbEntity
  8
AM_VIS
100
AcDbCircle
 10
255.9155814163464
 20
202.8327942912894
 30
0.0
 40
0.5
100
AcDbArc
 50
90.0
 51
180.0
  0
ARC
  5
2E0B
330
1F
100
AcDbEntity
  8
AM_VIS
100
AcDbCircle
 10
261.0155814163464
 20
202.8327942912894
 30
0.0
 40
0.5
100
AcDbArc
 50
0.0
 51
90.0
  0
LINE
  5
2E0C
330
1F
100
AcDbEntity
  8
AM_VIS
100
AcDbLine
 10
220.9155814163464
 20
173.7327942912894
 30
0.0
 11
220.9155814163464
 21
182.7278067291773
 31
0.0
  0
LINE
  5
2E0D
330
1F
100
AcDbEntity
  8
AM_VIS
100
AcDbLine
 10
220.9155814163464
 20
173.7327942912894
 30
0.0
 11
208.9155814163464
 21
173.7327942912894
 31
0.0
  0
LINE
  5
2E0E
330
1F
100
AcDbEntity
  8
AM_VIS
100
AcDbLine
 10
208.9155814163464
 20
173.7327942912894
 30
0.0
 11
208.4155814163464
 21
174.7327942912894
 31
0.0
  0
LINE
  5
2E0F
330
1F
100
AcDbEntity
  8
AM_VIS
100
AcDbLine
 10
208.4155814163464
 20
175.0327942912894
 30
0.0
 11
208.4155814163464
 21
174.7327942912894
 31
0.0
  0
LINE
  5
2E10
330
1F
100
AcDbEntity
  8
AM_VIS
100
AcDbLine
 10
209.4155814163464
 20
175.0327942912894
 30
0.0
 11
208.4155814163464
 21
175.0327942912894
 31
0.0
  0
LINE
  5
2E11
330
1F
100
AcDbEntity
  8
AM_VIS
100
AcDbLine
 10
209.4155814163464
 20
199.7327942912894
 30
0.0
 11
209.4155814163464
 21
175.0327942912894
 31
0.0
  0
LINE
  5
2E12
330
1F
100
AcDbEntity
  8
AM_VIS
100
AcDbLine
 10
219.7155814163464
 20
193.7327942912894
 30
0.0
 11
216.9155814163464
 21
199.7327942912894
 31
0.0
  0
LINE
  5
2E13
330
1F
100
AcDbEntity
  8
AM_VIS
100
AcDbLine
 10
220.9155814163464
 20
193.7327942912894
 30
0.0
 11
219.7155814163464
 21
193.7327942912894
 31
0.0
  0
LINE
  5
2E14
330
1F
100
AcDbEntity
  8
AM_VIS
100
AcDbLine
 10
220.9155814163464
 20
184.7377818534015
 30
0.0
 11
220.9155814163464
 21
193.7327942912894
 31
0.0
  0
LINE
  5
2E15
330
1F
100
AcDbEntity
  8
AM_VIS
100
AcDbLine
 10
218.9155814163464
 20
184.7377818534015
 30
0.0
 11
220.9155814163464
 21
184.7377818534015
 31
0.0
  0
LINE
  5
2E16
330
1F
100
AcDbEntity
  8
AM_VIS
100
AcDbLine
 10
220.9155814163464
 20
182.7278067291773
 30
0.0
 11
218.9155814163464
 21
182.7278067291773
 31
0.0
  0
LINE
  5
2E17
330
1F
100
AcDbEntity
  8
AM_VIS
100
AcDbLine
 10
218.9155814163464
 20
182.7278067291773
 30
0.0
 11
218.9155814163464
 21
184.7377818534015
 31
0.0
  0
ELLIPSE
  5
2E18
330
1F
100
AcDbEntity
  8
AM_VIS
100
AcDbEllipse
 10
210.255327378502
 20
183.7327942912894
 30
0.0
 11
-8.833459118601258
 21
0.0000000000000091
 31
0.0000000000000002
210
0.0
220
0.0
230
1.0
 40
0.5773502691896267
 41
2.943238131430987
 42
3.339947175748597
  0
LINE
  5
2E19
330
1F
100
AcDbEntity
  8
AM_VIS
100
AcDbLine
 10
216.9155814163464
 20
199.7327942912894
 30
0.0
 11
209.4155814163464
 21
199.7327942912894
 31
0.0
  0
LINE
  5
2E1B
330
1F
100
AcDbEntity
  8
AM_VIS
100
AcDbLine
 10
220.9155814163464
 20
184.7377818534015
 30
0.0
 11
220.9155814163464
 21
182.7278067291773
 31
0.0
  0
LINE
  5
2E1C
330
1F
100
AcDbEntity
  8
AM_VIS
100
AcDbLine
 10
194.4155814163466
 20
182.8327648792703
 30
0.0
 11
194.4155814163466
 21
183.3327942912895
 31
0.0
  0
LINE
  5
2E1D
330
1F
100
AcDbEntity
  8
AM_VIS
100
AcDbLine
 10
199.1155814163467
 20
175.9327942912895
 30
0.0
 11
199.1155814163467
 21
177.0327942912894
 31
0.0
  0
LINE
  5
2E1E
330
1F
100
AcDbEntity
  8
AM_VIS
100
AcDbLine
 10
206.8155814163467
 20
175.9327942912895
 30
0.0
 11
199.1155814163467
 21
175.9327942912895
 31
0.0
  0
LINE
  5
2E1F
330
1F
100
AcDbEntity
  8
AM_VIS
100
AcDbLine
 10
206.8155814163466
 20
177.0327942912894
 30
0.0
 11
206.8155814163466
 21
175.9327942912895
 31
0.0
  0
LINE
  5
2E20
330
1F
100
AcDbEntity
  8
AM_VIS
100
AcDbLine
 10
199.1155814163467
 20
177.0327942912894
 30
0.0
 11
206.8155814163466
 21
177.0327942912894
 31
0.0
  0
LINE
  5
2E21
330
1F
100
AcDbEntity
  8
AM_VIS
100
AcDbLine
 10
209.4155814163467
 20
182.8327942912894
 30
0.0
 11
197.9155814163466
 21
182.8327942912894
 31
0.0
  0
LINE
  5
2E22
330
1F
100
AcDbEntity
  8
AM_VIS
100
AcDbLine
 10
209.4155814163467
 20
175.0327942912894
 30
0.0
 11
209.4155814163467
 21
182.8327942912894
 31
0.0
  0
LINE
  5
2E23
330
1F
100
AcDbEntity
  8
AM_VIS
100
AcDbLine
 10
209.4155814163467
 20
175.0327942912894
 30
0.0
 11
196.4155814163466
 21
175.0327942912894
 31
0.0
  0
LINE
  5
2E24
330
1F
100
AcDbEntity
  8
AM_VIS
100
AcDbLine
 10
197.9155814163466
 20
182.8327942912894
 30
0.0
 11
197.9155814163466
 21
179.3127942912894
 31
0.0
  0
LINE
  5
2E25
330
1F
100
AcDbEntity
  8
AM_VIS
100
AcDbLine
 10
194.4142009962074
 20
180.5458306124698
 30
0.0
 11
196.4144748800314
 21
180.0931841074446
 31
0.0
  0
LINE
  5
2E26
330
1F
100
AcDbEntity
  8
AM_VIS
100
AcDbLine
 10
194.4155814163466
 20
182.8327648792703
 30
0.0
 11
197.9155814163466
 21
182.8327648792703
 31
0.0
  0
LINE
  5
2E27
330
1F
100
AcDbEntity
  8
AM_VIS
100
AcDbLine
 10
197.9155814163466
 20
179.3127942912894
 30
0.0
 11
196.4155814163466
 21
179.3127942912894
 31
0.0
  0
LINE
  5
2E28
330
1F
100
AcDbEntity
  8
AM_VIS
100
AcDbLine
 10
196.4155814163466
 20
179.3127942912894
 30
0.0
 11
196.4155814163466
 21
175.0327942912894
 31
0.0
  0
LINE
  5
2E29
330
1F
100
AcDbEntity
  8
AM_VIS
100
AcDbLine
 10
194.4155814163466
 20
182.2327942912895
 30
0.0
 11
194.2155814163466
 21
182.2327942912895
 31
0.0
  0
LINE
  5
2E2A
330
1F
100
AcDbEntity
  8
AM_VIS
100
AcDbLine
 10
194.2155814163466
 20
182.8327942912894
 30
0.0
 11
194.4155814163466
 21
182.8327942912894
 31
0.0
  0
LINE
  5
2E2B
330
1F
100
AcDbEntity
  8
AM_VIS
100
AcDbLine
 10
206.3155814163466
 20
175.9327942912895
 30
0.0
 11
206.3155814163466
 21
177.0327942912894
 31
0.0
  0
LINE
  5
2E2C
330
1F
100
AcDbEntity
  8
AM_VIS
100
AcDbLine
 10
199.5155814163466
 20
175.9327942912895
 30
0.0
 11
199.5155814163466
 21
177.0327942912894
 31
0.0
  0
LINE
  5
2E2D
330
1F
100
AcDbEntity
  8
AM_VIS
100
AcDbLine
 10
194.4155814163466
 20
180.0327942912894
 30
0.0
 11
196.4155814163466
 21
179.5327942912894
 31
0.0
  0
LINE
  5
2E2E
330
1F
100
AcDbEntity
  8
AM_VIS
100
AcDbLine
 10
194.4155814163466
 20
184.0327942912895
 30
0.0
 11
194.2155814163466
 21
184.0327942912895
 31
0.0
  0
LINE
  5
2E2F
330
1F
100
AcDbEntity
  8
AM_VIS
100
AcDbLine
 10
194.4155814163466
 20
181.0327942912894
 30
0.0
 11
194.2155814163466
 21
181.0327942912894
 31
0.0
  0
LINE
  5
2E30
330
1F
100
AcDbEntity
  8
AM_VIS
100
AcDbLine
 10
194.4155814163466
 20
180.0327942912894
 30
0.0
 11
194.4155814163466
 21
180.5519307774386
 31
0.0
  0
LINE
  5
2E31
330
1F
100
AcDbEntity
  8
AM_VIS
100
AcDbLine
 10
194.4155814163466
 20
180.5519307774386
 30
0.0
 11
194.4155814163466
 21
182.8327648792703
 31
0.0
  0
LINE
  5
2E32
330
1F
100
AcDbEntity
  8
AM_VIS
100
AcDbLine
 10
196.4155814163466
 20
179.3127942912894
 30
0.0
 11
196.4155814163466
 21
180.0980739622616
 31
0.0
  0
LINE
  5
2E33
330
1F
100
AcDbEntity
  8
AM_VIS
100
AcDbLine
 10
194.2155814163466
 20
182.8327942912894
 30
0.0
 11
194.2155814163466
 21
184.0327942912895
 31
0.0
  0
LINE
  5
2E34
330
1F
100
AcDbEntity
  8
AM_VIS
100
AcDbLine
 10
194.2155814163466
 20
181.0327942912894
 30
0.0
 11
194.2155814163466
 21
182.2327942912894
 31
0.0
  0
LINE
  5
2E35
330
1F
100
AcDbEntity
  8
AM_VIS
100
AcDbLine
 10
209.4155814163467
 20
202.5327942912895
 30
0.0
 11
196.4155814163466
 21
202.5327942912895
 31
0.0
  0
LINE
  5
2E36
330
1F
100
AcDbEntity
  8
AM_VIS
100
AcDbLine
 10
209.4155814163467
 20
182.8327942912894
 30
0.0
 11
195.9155814163466
 21
182.8327942912894
 31
0.0
  0
LINE
  5
2E37
330
1F
100
AcDbEntity
  8
AM_VIS
100
AcDbLine
 10
209.4155814163467
 20
182.8327942912894
 30
0.0
 11
209.4155814163467
 21
202.5327942912895
 31
0.0
  0
LINE
  5
2E38
330
1F
100
AcDbEntity
  8
AM_VIS
100
AcDbLine
 10
196.4155814163466
 20
202.5327942912895
 30
0.0
 11
196.4155814163466
 21
185.5327942912894
 31
0.0
  0
LINE
  5
2E39
330
1F
100
AcDbEntity
  8
AM_VIS
100
AcDbLine
 10
196.4155814163466
 20
185.5327942912895
 30
0.0
 11
194.4155814163466
 21
185.5327942912895
 31
0.0
  0
LINE
  5
2E3A
330
1F
100
AcDbEntity
  8
AM_VIS
100
AcDbLine
 10
194.4155814163466
 20
183.3327942912895
 30
0.0
 11
194.4155814163466
 21
185.5327942912895
 31
0.0
  0
LINE
  5
2E3B
330
1F
100
AcDbEntity
  8
AM_VIS
100
AcDbLine
 10
195.9155814163466
 20
182.8327942912894
 30
0.0
 11
194.4155814163466
 21
183.3327942912895
 31
0.0
  0
LINE
  5
2E3C
330
1F
100
AcDbEntity
  8
AM_VIS
100
AcDbLine
 10
196.4155814163466
 20
185.5327942912895
 30
0.0
 11
196.4155814163466
 21
202.5327942912895
 31
0.0
  0
LINE
  5
2E3D
330
1F
100
AcDbEntity
  8
AM_VIS
100
AcDbLine
 10
196.4155814163466
 20
185.5327942912895
 30
0.0
 11
192.9155814163466
 21
185.5327942912895
 31
0.0
  0
LINE
  5
2E3E
330
1F
100
AcDbEntity
  8
AM_VIS
100
AcDbLine
 10
192.9155814163466
 20
185.5327942912895
 30
0.0
 11
192.9155814163466
 21
202.5327942912895
 31
0.0
  0
LINE
  5
2E3F
330
1F
100
AcDbEntity
  8
AM_VIS
100
AcDbLine
 10
191.4155814163466
 20
187.0327942912895
 30
0.0
 11
192.9155814163466
 21
185.5327942912895
 31
0.0
  0
LINE
  5
2E40
330
1F
100
AcDbEntity
  8
AM_VIS
100
AcDbLine
 10
187.9155814163466
 20
193.1327942912895
 30
0.0
 11
187.9155814163466
 21
198.5327942912895
 31
0.0
  0
LINE
  5
2E41
330
1F
100
AcDbEntity
  8
AM_VIS
100
AcDbLine
 10
186.9155814163466
 20
198.5327942912895
 30
0.0
 11
186.9155814163466
 21
193.4327942912895
 31
0.0
  0
LINE
  5
2E42
330
1F
100
AcDbEntity
  8
AM_VIS
100
AcDbLine
 10
191.4155814163466
 20
193.1327942912895
 30
0.0
 11
187.9155814163466
 21
193.1327942912895
 31
0.0
  0
LINE
  5
2E43
330
1F
100
AcDbEntity
  8
AM_VIS
100
AcDbLine
 10
187.9155814163466
 20
193.1327942912895
 30
0.0
 11
186.9155814163466
 21
193.4327942912895
 31
0.0
  0
LINE
  5
2E44
330
1F
100
AcDbEntity
  8
AM_VIS
100
AcDbLine
 10
191.4155814163466
 20
198.5327942912895
 30
0.0
 11
187.9155814163466
 21
198.5327942912895
 31
0.0
  0
LINE
  5
2E45
330
1F
100
AcDbEntity
  8
AM_VIS
100
AcDbLine
 10
187.9155814163466
 20
198.5327942912895
 30
0.0
 11
186.9155814163466
 21
198.5327942912895
 31
0.0
  0
LINE
  5
2E46
330
1F
100
AcDbEntity
  8
AM_VIS
100
AcDbLine
 10
186.9155814163466
 20
198.5327942912895
 30
0.0
 11
186.9155814163466
 21
200.0327942912895
 31
0.0
  0
LINE
  5
2E47
330
1F
100
AcDbEntity
  8
AM_VIS
100
AcDbLine
 10
191.4155814163466
 20
200.0327942912895
 30
0.0
 11
186.9155814163466
 21
200.0327942912895
 31
0.0
  0
LINE
  5
2E48
330
1F
100
AcDbEntity
  8
AM_VIS
100
AcDbLine
 10
191.4155814163466
 20
201.0327942912895
 30
0.0
 11
191.4155814163466
 21
187.0327942912895
 31
0.0
  0
LINE
  5
2E49
330
1F
100
AcDbEntity
  8
AM_VIS
100
AcDbLine
 10
192.9155814163466
 20
202.5327942912895
 30
0.0
 11
191.4155814163466
 21
201.0327942912895
 31
0.0
  0
LINE
  5
2E4A
330
1F
100
AcDbEntity
  8
AM_VIS
100
AcDbLine
 10
196.4155814163466
 20
202.5327942912895
 30
0.0
 11
192.9155814163466
 21
202.5327942912895
 31
0.0
  0
LINE
  5
2E4B
330
1F
100
AcDbEntity
  8
AM_VIS
100
AcDbLine
 10
196.6732806849707
 20
181.4645966480074
 30
0.0
 11
196.7669355665121
 21
181.4528002658457
 31
0.0
  0
LINE
  5
2E4C
330
1F
100
AcDbEntity
  8
AM_VIS
100
AcDbLine
 10
196.673280634591
 20
181.233168961138
 30
0.0
 11
196.7659354564725
 21
181.244838115321
 31
0.0
  0
LINE
  5
2E4D
330
1F
100
AcDbEntity
  8
AM_VIS
100
AcDbLine
 10
196.67327991777
 20
180.6083131323197
 30
0.0
 11
196.6947995879582
 21
180.6192769395456
 31
0.0
  0
LINE
  5
2E4E
330
1F
100
AcDbEntity
  8
AM_VIS
100
AcDbLine
 10
197.4439293287397
 20
179.5740585020833
 30
0.0
 11
197.9155814163466
 21
179.5327942912894
 31
0.0
  0
LINE
  5
2E4F
330
1F
100
AcDbEntity
  8
AM_VIS
100
AcDbLine
 10
197.4439293287397
 20
182.6915300804956
 30
0.0
 11
197.9155814163466
 21
182.7327942912894
 31
0.0
  0
ELLIPSE
  5
2E50
330
1F
100
AcDbEntity
  8
AM_VIS
100
AcDbEllipse
 10
199.1155814163467
 20
181.1858234383859
 30
0.0
 11
2.490079065009783
 21
-0.0000000000000005
 31
0.0
210
0.0
220
0.0
230
1.0
 40
0.971183434860676
 41
2.796097310854489
 42
2.945387502112646
  0
ELLIPSE
  5
2E51
330
1F
100
AcDbEntity
  8
AM_VIS
100
AcDbEllipse
 10
198.581219606338
 20
180.5034348189912
 30
0.0
 11
-1.794957342537175
 21
1.524020367793824
 31
0.0
210
0.0
220
0.0
230
1.0
 40
0.1838809272074935
 41
0.0602411001504066
 42
0.0739494530814797
  0
ELLIPSE
  5
2E52
330
1F
100
AcDbEntity
  8
AM_VIS
100
AcDbEllipse
 10
199.1155814163467
 20
181.0797651441929
 30
0.0
 11
-2.490079065009783
 21
0.0000000000000005
 31
0.0
210
0.0
220
0.0
230
1.0
 40
0.971183434860676
 41
0.1962051514771541
 42
0.3428970250348563
  0
ELLIPSE
  5
2E53
330
1F
100
AcDbEntity
  8
AM_VIS
100
AcDbEllipse
 10
198.581219606338
 20
181.7621537635877
 30
0.0
 11
1.79495734253718
 21
1.524020367793816
 31
0.0
210
0.0
220
0.0
230
1.0
 40
0.1838809272074927
 41
2.892083703875015
 42
3.074813238430961
  0
ELLIPSE
  5
2E54
330
1F
100
AcDbEntity
  8
AM_VIS
100
AcDbEllipse
 10
198.581219606338
 20
180.9783463464853
 30
0.0
 11
-0.6538164905628913
 21
2.262086191913686
 31
0.0
210
0.0
220
0.0
230
1.0
 40
0.749295845016521
 41
1.108010235747697
 42
1.297278085312149
  0
ELLIPSE
  5
2E55
330
1F
100
AcDbEntity
  8
AM_VIS
100
AcDbEllipse
 10
199.1155814163467
 20
181.348882605544
 30
0.0
 11
-2.490079065009962
 21
0.0000000000000005
 31
0.0
210
0.0
220
0.0
230
1.0
 40
0.2383332453775997
 41
0.196205151477434
 42
0.3428970250351778
  0
ELLIPSE
  5
2E56
330
1F
100
AcDbEntity
  8
AM_VIS
100
AcDbEllipse
 10
199.1155814163467
 20
181.348882605544
 30
0.0
 11
-2.490079065009962
 21
0.0000000000000005
 31
0.0
210
0.0
220
0.0
230
1.0
 40
0.2383332453775997
 41
5.937689964444151
 42
6.086980155701949
  0
ELLIPSE
  5
2E57
330
1F
100
AcDbEntity
  8
AM_VIS
100
AcDbEllipse
 10
198.581219606338
 20
181.2872422360935
 30
0.0
 11
0.6538164905628998
 21
2.262086191913683
 31
0.0
210
0.0
220
0.0
230
0.9999999999999998
 40
0.7492958450165216
 41
1.850852883286931
 42
1.858022921210151
  0
ELLIPSE
  5
2E58
330
1F
100
AcDbEntity
  8
AM_VIS
100
AcDbEllipse
 10
199.1155814163467
 20
180.916705977031
 30
0.0
 11
2.490079065009606
 21
-0.0000000000000005
 31
0.0
210
0.0
220
0.0
230
1.0
 40
0.2383332453775997
 41
2.796097310854399
 42
2.945387502112894
  0
ELLIPSE
  5
2E59
330
1F
100
AcDbEntity
  8
AM_VIS
100
AcDbEllipse
 10
199.1155814163467
 20
181.1858234383859
 30
0.0
 11
2.490079065009783
 21
-0.0000000000000005
 31
0.0
210
0.0
220
0.0
230
1.0
 40
0.971183434860676
 41
3.337797805066951
 42
3.487087996325089
  0
LINE
  5
2E5A
330
1F
100
AcDbEntity
  8
AM_VIS
100
AcDbLine
 10
196.673278404843
 20
180.7143743960737
 30
0.0
 11
196.673278404843
 21
181.0324019169029
 31
0.0
  0
LINE
  5
2E5B
330
1F
100
AcDbEntity
  8
AM_VIS
100
AcDbLine
 10
196.673278404843
 20
181.4645785454163
 30
0.0
 11
196.673278404843
 21
181.6572724806982
 31
0.0
  0
LINE
  5
2E5C
330
1F
100
AcDbEntity
  8
AM_VIS
100
AcDbLine
 10
196.673278404843
 20
181.2331866656716
 30
0.0
 11
196.673278404843
 21
181.4645785454163
 31
0.0
  0
LINE
  5
2E5D
330
1F
100
AcDbEntity
  8
AM_VIS
100
AcDbLine
 10
196.673278404843
 20
180.6083161018807
 30
0.0
 11
196.673278404843
 21
180.7143743960737
 31
0.0
  0
ARC
  5
2E5E
330
1F
100
AcDbEntity
  8
AM_VIS
100
AcDbCircle
 10
197.4997090040982
 20
180.211623108862
 30
0.0
 40
0.6400000000000001
100
AcDbArc
 50
209.6864561869178
 51
265.0000000000002
  0
ARC
  5
2E5F
330
1F
100
AcDbEntity
  8
AM_VIS
100
AcDbCircle
 10
197.4997090040982
 20
182.0539654737168
 30
0.0
 40
0.6400000000000002
100
AcDbArc
 50
94.99999999999982
 51
150.3135438130815
  0
ARC
  5
2E60
330
1F
100
AcDbEntity
  8
AM_VIS
100
AcDbCircle
 10
199.1155814163467
 20
181.1327942912894
 30
0.0
 40
2.5
100
AcDbArc
 50
200.3464384717912
 51
209.6864561869192
  0
ARC
  5
2E61
330
1F
100
AcDbEntity
  8
AM_VIS
100
AcDbCircle
 10
199.1155814163467
 20
181.1327942912894
 30
0.0
 40
2.5
100
AcDbArc
 50
150.31354381308
 51
159.653561528208
  0
LINE
  5
2E62
330
1F
100
AcDbEntity
  8
AM_VIS
100
AcDbLine
 10
215.9159880413948
 20
201.8327942912895
 30
0.0
 11
212.3664353289481
 21
201.8327942912895
 31
0.0
  0
LINE
  5
2E63
330
1F
100
AcDbEntity
  8
AM_VIS
100
AcDbLine
 10
216.1657847288707
 20
203.3327942912895
 30
0.0
 11
212.6162320164239
 21
203.3327942912895
 31
0.0
  0
LINE
  5
2E64
330
1F
100
AcDbEntity
  8
AM_VIS
100
AcDbLine
 10
216.4205816663901
 20
203.3327942912895
 30
0.0
 11
216.9155564132208
 21
203.3327942912895
 31
0.0
  0
SPLINE
  5
2E65
330
1F
100
AcDbEntity
  8
AM_VIS
100
AcDbSpline
210
0.0
220
0.0
230
1.0
 70
     8
 71
     3
 72
    22
 73
    18
 74
     0
 42
0.0000000001
 43
0.0000000001
 40
0.3363921212459848
 40
0.3363921212459848
 40
0.3363921212459848
 40
0.3363921212459848
 40
0.4322261816678647
 40
0.4322261816678647
 40
0.5211736396794337
 40
0.5211736396794337
 40
0.6051083555088156
 40
0.6051083555088156
 40
0.6890430713381974
 40
0.6890430713381974
 40
0.8054264725371288
 40
0.8054264725371288
 40
0.9218098737360604
 40
0.9218098737360604
 40
1.032290155253813
 40
1.032290155253813
 40
1.142770436771566
 40
1.142770436771566
 40
1.142770436771566
 40
1.142770436771566
 10
216.9155564132208
 20
203.3327942912895
 30
0.0
 10
216.9401646139268
 20
203.3327942912895
 30
0.0
 10
216.9656275831185
 20
203.3306891889022
 30
0.0
 10
217.008844054289
 20
203.3230423398293
 30
0.0
 10
217.0335454236035
 20
203.3162933581391
 30
0.0
 10
217.0728496138293
 20
203.3010855480682
 30
0.0
 10
217.0933846464414
 20
203.2910429656112
 30
0.0
 10
217.1329238928669
 20
203.2661598843397
 30
0.0
 10
217.1519228920983
 20
203.2513028168753
 30
0.0
 10
217.1913470958387
 20
203.2145596740842
 30
0.0
 10
217.214510727569
 20
203.1874990331974
 30
0.0
 10
217.2549563189715
 20
203.125746522529
 30
0.0
 10
217.2722303588292
 20
203.0910442793247
 30
0.0
 10
217.2976236371802
 20
203.0244940510102
 30
0.0
 10
217.3082613600505
 20
202.9870919550184
 30
0.0
 10
217.3221762644268
 20
202.9096559210142
 30
0.0
 10
217.3254508547362
 20
202.8696210517954
 30
0.0
 10
217.3254508547362
 20
202.8327942912895
 30
0.0
  0
SPLINE
  5
2E66
330
1F
100
AcDbEntity
  8
AM_VIS
100
AcDbSpline
210
0.0
220
0.0
230
1.0
 70
     8
 71
     3
 72
    22
 73
    18
 74
     0
 42
0.0000000001
 43
0.0000000001
 40
-1.142770436771567
 40
-1.142770436771567
 40
-1.142770436771567
 40
-1.142770436771567
 40
-1.032290155253814
 40
-1.032290155253814
 40
-0.9218098737360612
 40
-0.9218098737360612
 40
-0.80542647253713
 40
-0.80542647253713
 40
-0.6890430713381983
 40
-0.6890430713381983
 40
-0.6051083555088162
 40
-0.6051083555088162
 40
-0.521173639679434
 40
-0.521173639679434
 40
-0.4322261816678648
 40
-0.4322261816678648
 40
-0.3363921212459852
 40
-0.3363921212459852
 40
-0.3363921212459852
 40
-0.3363921212459852
 10
216.8304761079057
 20
202.8327942912895
 30
0.0
 10
216.8304761079057
 20
202.8696210517954
 30
0.0
 10
216.8272015175962
 20
202.9096559210142
 30
0.0
 10
216.8132866132201
 20
202.9870919550184
 30
0.0
 10
216.8026488903496
 20
203.0244940510102
 30
0.0
 10
216.7772556119987
 20
203.0910442793247
 30
0.0
 10
216.7599815721409
 20
203.125746522529
 30
0.0
 10
216.7195359807383
 20
203.1874990331974
 30
0.0
 10
216.6963723490081
 20
203.2145596740842
 30
0.0
 10
216.6569481452676
 20
203.2513028168753
 30
0.0
 10
216.6379491460364
 20
203.2661598843397
 30
0.0
 10
216.5984098996108
 20
203.2910429656112
 30
0.0
 10
216.5778748669989
 20
203.3010855480682
 30
0.0
 10
216.5385706767729
 20
203.3162933581391
 30
0.0
 10
216.5138693074585
 20
203.3230423398293
 30
0.0
 10
216.4706528362879
 20
203.3306891889022
 30
0.0
 10
216.4451898670963
 20
203.3327942912895
 30
0.0
 10
216.4205816663901
 20
203.3327942912895
 30
0.0
  0
LINE
  5
2E67
330
1F
100
AcDbEntity
  8
AM_VIS
100
AcDbLine
 10
211.3155814163464
 20
202.8327942912895
 30
0.0
 11
211.3155814163464
 21
199.7327942912894
 31
0.0
  0
LINE
  5
2E68
330
1F
100
AcDbEntity
  8
AM_VIS
100
AcDbLine
 10
215.5155814163464
 20
201.8327942912895
 30
0.0
 11
215.5155814163464
 21
199.7327942912894
 31
0.0
  0
LINE
  5
2E69
330
1F
100
AcDbEntity
  8
AM_VIS
100
AcDbLine
 10
217.4155814163464
 20
201.8327942912895
 30
0.0
 11
217.4155814163464
 21
202.8327942912895
 31
0.0
  0
LINE
  5
2E6A
330
1F
100
AcDbEntity
  8
AM_VIS
100
AcDbLine
 10
215.9159880413948
 20
201.8327942912895
 30
0.0
 11
217.4155814163464
 21
201.8327942912895
 31
0.0
  0
LINE
  5
2E6B
330
1F
100
AcDbEntity
  8
AM_VIS
100
AcDbLine
 10
211.8155814163464
 20
203.3327942912895
 30
0.0
 11
212.6162320164239
 21
203.3327942912895
 31
0.0
  0
LINE
  5
2E6C
330
1F
100
AcDbEntity
  8
AM_VIS
100
AcDbLine
 10
216.1657847288707
 20
203.3327942912895
 30
0.0
 11
216.4205816663901
 21
203.3327942912895
 31
0.0
  0
LINE
  5
2E6D
330
1F
100
AcDbEntity
  8
AM_VIS
100
AcDbLine
 10
217.3254508547363
 20
202.8327942912895
 30
0.0
 11
216.8304761079057
 21
202.8327942912895
 31
0.0
  0
ARC
  5
2E6E
330
1F
100
AcDbEntity
  8
AM_VIS
100
AcDbCircle
 10
216.9155814163464
 20
202.8327942912895
 30
0.0
 40
0.5
100
AcDbArc
 50
0.0
 51
90.0
  0
ARC
  5
2E6F
330
1F
100
AcDbEntity
  8
AM_VIS
100
AcDbCircle
 10
211.8155814163464
 20
202.8327942912895
 30
0.0
 40
0.5
100
AcDbArc
 50
90.0
 51
180.0
  0
ARC
  5
2E76
330
1F
100
AcDbEntity
  8
AM_4
100
AcDbCircle
 10
241.9155814163464
 20
239.0564656289515
 30
0.0
 40
2.5
100
AcDbArc
 50
260.0
 51
170.0
  0
CIRCLE
  5
2E77
330
1F
100
AcDbEntity
  8
AM_0
100
AcDbCircle
 10
241.9155814163464
 20
239.0564656289515
 30
0.0
 40
2.066987298107819
  0
ARC
  5
2E78
330
1F
100
AcDbEntity
  8
AM_4
100
AcDbCircle
 10
230.9155814163464
 20
236.5564656289516
 30
0.0
 40
2.5
100
AcDbArc
 50
260.0
 51
170.0
  0
CIRCLE
  5
2E79
330
1F
100
AcDbEntity
  8
AM_0
100
AcDbCircle
 10
230.9155814163464
 20
236.5564656289516
 30
0.0
 40
2.066987298107819
  0
ARC
  5
2E7A
330
1F
100
AcDbEntity
  8
AM_4
100
AcDbCircle
 10
231.9155814163461
 20
177.7327942912894
 30
0.0
 40
1.5
100
AcDbArc
 50
260.0000000000014
 51
169.9999999999997
  0
CIRCLE
  5
2E7B
330
1F
100
AcDbEntity
  8
AM_0
100
AcDbCircle
 10
231.9155814163461
 20
177.7327942912894
 30
0.0
 40
1.229367061317389
  0
LINE
  5
2E7C
330
1F
100
AcDbEntity
  8
AM_7
  6
AM_ISO08W050x2
100
AcDbLine
 10
229.7155814163463
 20
177.7327942912894
 30
0.0
 11
234.1155814163464
 21
177.7327942912894
 31
0.0
  0
LINE
  5
2E7D
330
1F
100
AcDbEntity
  8
AM_7
  6
AM_ISO08W050x2
100
AcDbLine
 10
231.9155814163461
 20
175.5327942912895
 30
0.0
 11
231.9155814163461
 21
179.9327942912895
 31
0.0
  0
ARC
  5
2E7E
330
1F
100
AcDbEntity
  8
AM_4
100
AcDbCircle
 10
240.9155814163461
 20
177.7327942912894
 30
0.0
 40
1.5
100
AcDbArc
 50
260.0000000000014
 51
169.9999999999997
  0
CIRCLE
  5
2E7F
330
1F
100
AcDbEntity
  8
AM_0
100
AcDbCircle
 10
240.9155814163461
 20
177.7327942912894
 30
0.0
 40
1.229367061317389
  0
LINE
  5
2E80
330
1F
100
AcDbEntity
  8
AM_7
  6
AM_ISO08W050x2
100
AcDbLine
 10
238.7155814163463
 20
177.7327942912894
 30
0.0
 11
243.1155814163464
 21
177.7327942912894
 31
0.0
  0
LINE
  5
2E81
330
1F
100
AcDbEntity
  8
AM_7
  6
AM_ISO08W050x2
100
AcDbLine
 10
240.9155814163461
 20
175.5327942912894
 30
0.0
 11
240.9155814163461
 21
179.9327942912895
 31
0.0
  0
ARC
  5
2E82
330
1F
100
AcDbEntity
  8
AM_4
100
AcDbCircle
 10
245.9155814163464
 20
137.5190570585301
 30
0.0
 40
2.5
100
AcDbArc
 50
260.0
 51
170.0
  0
CIRCLE
  5
2E83
330
1F
100
AcDbEntity
  8
AM_0
100
AcDbCircle
 10
245.9155814163464
 20
137.5190570585301
 30
0.0
 40
2.066987298107819
  0
LINE
  5
2E84
330
1F
100
AcDbEntity
  8
AM_7
  6
AM_ISO08W050x2
100
AcDbLine
 10
242.3155814163463
 20
137.5190570585301
 30
0.0
 11
249.5155814163464
 21
137.5190570585301
 31
0.0
  0
LINE
  5
2E85
330
1F
100
AcDbEntity
  8
AM_7
  6
AM_ISO08W050x2
100
AcDbLine
 10
245.9155814163464
 20
133.9190570585301
 30
0.0
 11
245.9155814163464
 21
141.1190570585301
 31
0.0
  0
ARC
  5
2E86
330
1F
100
AcDbEntity
  8
AM_4
100
AcDbCircle
 10
236.4155814163463
 20
138.5190570585301
 30
0.0
 40
2.5
100
AcDbArc
 50
260.0
 51
170.0
  0
CIRCLE
  5
2E87
330
1F
100
AcDbEntity
  8
AM_0
100
AcDbCircle
 10
236.4155814163463
 20
138.5190570585301
 30
0.0
 40
2.066987298107819
  0
LINE
  5
2E88
330
1F
100
AcDbEntity
  8
AM_7
  6
AM_ISO08W050x2
100
AcDbLine
 10
232.8155814163463
 20
138.5190570585301
 30
0.0
 11
240.0155814163464
 21
138.5190570585301
 31
0.0
  0
LINE
  5
2E89
330
1F
100
AcDbEntity
  8
AM_7
  6
AM_ISO08W050x2
100
AcDbLine
 10
236.4155814163463
 20
134.9190570585301
 30
0.0
 11
236.4155814163463
 21
142.1190570585301
 31
0.0
  0
ARC
  5
2E8A
330
1F
100
AcDbEntity
  8
AM_4
100
AcDbCircle
 10
226.9155814163464
 20
139.5190570585301
 30
0.0
 40
2.5
100
AcDbArc
 50
260.0
 51
170.0
  0
CIRCLE
  5
2E8B
330
1F
100
AcDbEntity
  8
AM_0
100
AcDbCircle
 10
226.9155814163464
 20
139.5190570585301
 30
0.0
 40
2.066987298107819
  0
LINE
  5
2E8C
330
1F
100
AcDbEntity
  8
AM_7
  6
AM_ISO08W050x2
100
AcDbLine
 10
223.3155814163463
 20
139.5190570585301
 30
0.0
 11
230.5155814163464
 21
139.5190570585301
 31
0.0
  0
LINE
  5
2E8D
330
1F
100
AcDbEntity
  8
AM_7
  6
AM_ISO08W050x2
100
AcDbLine
 10
226.9155814163464
 20
135.9190570585301
 30
0.0
 11
226.9155814163464
 21
143.1190570585301
 31
0.0
  0
LINE
  5
2E8E
330
1F
100
AcDbEntity
  8
AM_7
100
AcDbLine
 10
185.9194863020892
 20
138.5190570585301
 30
0.0
 11
287.1591062336004
 21
138.5190570585301
 31
0.0
1001
GENIUS_GENODEF_13
1002
{
1000
HIER
1070
     0
1002
}
1002
{
1000
MANEDIT
1070
     0
1002
}
1002
{
1000
NOSEL
1070
     0
1002
}
1002
{
1000
BEHIND
1070
     0
1002
}
1002
{
1000
OTHER
1070
     0
1002
}
1002
{
1000
REACTOR
1002
}
1001
GENIUS_GENOBJ-N-CEN_13
1002
{
1000
OWNER
1000
GEN
1002
}
1001
GENIUS_GENCEN_19
1002
{
1040
1.0
1002
}
  0
LINE
  5
2E9C
330
1F
100
AcDbEntity
  8
AM_7
  6
AM_ISO08W050x2
100
AcDbLine
 10
247.1155814163464
 20
142.8190570585301
 30
0.0
 11
249.1655814163463
 21
142.8190570585301
 31
0.0
1001
GENIUS_GENOREF_13
1005
2EA0
  0
LINE
  5
2E9D
330
1F
100
AcDbEntity
  8
AM_7
  6
AM_ISO08W050x2
100
AcDbLine
 10
247.1155814163464
 20
142.8190570585301
 30
0.0
 11
247.1155814163464
 21
144.8690570585301
 31
0.0
1001
GENIUS_GENOREF_13
1005
2EA0
  0
LINE
  5
2E9E
330
1F
100
AcDbEntity
  8
AM_7
  6
AM_ISO08W050x2
100
AcDbLine
 10
247.1155814163464
 20
142.8190570585301
 30
0.0
 11
245.0655814163464
 21
142.8190570585301
 31
0.0
1001
GENIUS_GENOREF_13
1005
2EA0
  0
LINE
  5
2E9F
330
1F
100
AcDbEntity
  8
AM_7
  6
AM_ISO08W050x2
100
AcDbLine
 10
247.1155814163464
 20
142.8190570585301
 30
0.0
 11
247.1155814163464
 21
140.7690570585301
 31
0.0
1001
GENIUS_GENOREF_13
1005
2EA0
  0
POINT
  5
2EA0
330
1F
100
AcDbEntity
  8
0
 60
     1
100
AcDbPoint
 10
0.0
 20
0.0
 30
0.0
1001
GENIUS_GENOBJ-N-CRS_13
1002
{
1000
OWNER
1000
GEN
1002
}
1001
GENIUS_GENOLIS_13
1002
{
1000
ENT
1005
2E9F
1005
2E9E
1005
2E9D
1005
2E9C
1002
}
1001
GENIUS_GENODEF_13
1002
{
1000
HIER
1070
    10
1002
}
1002
{
1000
MANEDIT
1070
     0
1002
}
1002
{
1000
NOSEL
1070
     0
1002
}
1002
{
1000
BEHIND
1070
     0
1002
}
1002
{
1000
OTHER
1070
     0
1002
}
1002
{
1000
REACTOR
1002
}
1001
GENIUS_GENOENT_13
1002
{
1000
MYREF
1005
2EA0
1002
}
1002
{
1000
GRP
1005
0
1002
}
  0
LINE
  5
2EAE
330
1F
100
AcDbEntity
  8
AM_7
  6
AM_ISO08W050x2
100
AcDbLine
 10
225.7155814163463
 20
134.2190570585302
 30
0.0
 11
227.7655814163463
 21
134.2190570585302
 31
0.0
1001
GENIUS_GENOREF_13
1005
2EB2
  0
LINE
  5
2EAF
330
1F
100
AcDbEntity
  8
AM_7
  6
AM_ISO08W050x2
100
AcDbLine
 10
225.7155814163463
 20
134.2190570585302
 30
0.0
 11
225.7155814163463
 21
136.2690570585302
 31
0.0
1001
GENIUS_GENOREF_13
1005
2EB2
  0
LINE
  5
2EB0
330
1F
100
AcDbEntity
  8
AM_7
  6
AM_ISO08W050x2
100
AcDbLine
 10
225.7155814163463
 20
134.2190570585302
 30
0.0
 11
223.6655814163464
 21
134.2190570585302
 31
0.0
1001
GENIUS_GENOREF_13
1005
2EB2
  0
LINE
  5
2EB1
330
1F
100
AcDbEntity
  8
AM_7
  6
AM_ISO08W050x2
100
AcDbLine
 10
225.7155814163463
 20
134.2190570585302
 30
0.0
 11
225.7155814163463
 21
132.1690570585302
 31
0.0
1001
GENIUS_GENOREF_13
1005
2EB2
  0
POINT
  5
2EB2
330
1F
100
AcDbEntity
  8
0
 60
     1
100
AcDbPoint
 10
0.0
 20
0.0
 30
0.0
1001
GENIUS_GENOENT_13
1002
{
1000
MYREF
1005
2EB2
1002
}
1002
{
1000
GRP
1005
0
1002
}
1001
GENIUS_GENOBJ-N-CRS_13
1002
{
1000
OWNER
1000
GEN
1002
}
1001
GENIUS_GENOLIS_13
1002
{
1000
ENT
1005
2EB1
1005
2EB0
1005
2EAF
1005
2EAE
1002
}
1001
GENIUS_GENODEF_13
1002
{
1000
HIER
1070
    10
1002
}
1002
{
1000
MANEDIT
1070
     0
1002
}
1002
{
1000
NOSEL
1070
     0
1002
}
1002
{
1000
BEHIND
1070
     0
1002
}
1002
{
1000
OTHER
1070
     0
1002
}
1002
{
1000
REACTOR
1002
}
  0
LINE
  5
2EC0
330
1F
100
AcDbEntity
  8
AM_7
  6
AM_ISO08W050x2
100
AcDbLine
 10
230.9155814163464
 20
236.5564656289516
 30
0.0
 11
233.9825687144542
 21
236.5564656289516
 31
0.0
1001
GENIUS_GENOREF_13
1005
2EC4
  0
LINE
  5
2EC1
330
1F
100
AcDbEntity
  8
AM_7
  6
AM_ISO08W050x2
100
AcDbLine
 10
230.9155814163464
 20
236.5564656289516
 30
0.0
 11
230.9155814163464
 21
239.6234529270594
 31
0.0
1001
GENIUS_GENOREF_13
1005
2EC4
  0
LINE
  5
2EC2
330
1F
100
AcDbEntity
  8
AM_7
  6
AM_ISO08W050x2
100
AcDbLine
 10
230.9155814163464
 20
236.5564656289516
 30
0.0
 11
227.8485941182385
 21
236.5564656289516
 31
0.0
1001
GENIUS_GENOREF_13
1005
2EC4
  0
LINE
  5
2EC3
330
1F
100
AcDbEntity
  8
AM_7
  6
AM_ISO08W050x2
100
AcDbLine
 10
230.9155814163464
 20
236.5564656289516
 30
0.0
 11
230.9155814163464
 21
233.4894783308437
 31
0.0
1001
GENIUS_GENOREF_13
1005
2EC4
  0
POINT
  5
2EC4
330
1F
100
AcDbEntity
  8
0
 60
     1
100
AcDbPoint
 10
0.0
 20
0.0
 30
0.0
1001
GENIUS_GENOBJ-N-CRS_13
1002
{
1000
OWNER
1000
GEN
1002
}
1001
GENIUS_GENOENT_13
1002
{
1000
MYREF
1005
2EC4
1002
}
1002
{
1000
GRP
1005
0
1002
}
1001
GENIUS_GENOLIS_13
1002
{
1000
ENT
1005
2EC3
1005
2EC2
1005
2EC1
1005
2EC0
1002
}
1001
GENIUS_GENODEF_13
1002
{
1000
HIER
1070
    10
1002
}
1002
{
1000
MANEDIT
1070
     0
1002
}
1002
{
1000
NOSEL
1070
     0
1002
}
1002
{
1000
BEHIND
1070
     0
1002
}
1002
{
1000
OTHER
1070
     0
1002
}
1002
{
1000
REACTOR
1002
}
  0
LINE
  5
2ED2
330
1F
100
AcDbEntity
  8
AM_7
  6
AM_ISO08W050x2
100
AcDbLine
 10
241.9155814163464
 20
239.0564656289515
 30
0.0
 11
244.9825687144542
 21
239.0564656289515
 31
0.0
1001
GENIUS_GENOREF_13
1005
2ED6
  0
LINE
  5
2ED3
330
1F
100
AcDbEntity
  8
AM_7
  6
AM_ISO08W050x2
100
AcDbLine
 10
241.9155814163464
 20
239.0564656289515
 30
0.0
 11
241.9155814163464
 21
242.1234529270594
 31
0.0
1001
GENIUS_GENOREF_13
1005
2ED6
  0
LINE
  5
2ED4
330
1F
100
AcDbEntity
  8
AM_7
  6
AM_ISO08W050x2
100
AcDbLine
 10
241.9155814163464
 20
239.0564656289515
 30
0.0
 11
238.8485941182385
 21
239.0564656289515
 31
0.0
1001
GENIUS_GENOREF_13
1005
2ED6
  0
LINE
  5
2ED5
330
1F
100
AcDbEntity
  8
AM_7
  6
AM_ISO08W050x2
100
AcDbLine
 10
241.9155814163464
 20
239.0564656289515
 30
0.0
 11
241.9155814163464
 21
235.9894783308437
 31
0.0
1001
GENIUS_GENOREF_13
1005
2ED6
  0
POINT
  5
2ED6
330
1F
100
AcDbEntity
  8
0
 60
     1
100
AcDbPoint
 10
0.0
 20
0.0
 30
0.0
1001
GENIUS_GENODEF_13
1002
{
1000
HIER
1070
    10
1002
}
1002
{
1000
MANEDIT
1070
     0
1002
}
1002
{
1000
NOSEL
1070
     0
1002
}
1002
{
1000
BEHIND
1070
     0
1002
}
1002
{
1000
OTHER
1070
     0
1002
}
1002
{
1000
REACTOR
1002
}
1001
GENIUS_GENOENT_13
1002
{
1000
MYREF
1005
2ED6
1002
}
1002
{
1000
GRP
1005
0
1002
}
1001
GENIUS_GENOBJ-N-CRS_13
1002
{
1000
OWNER
1000
GEN
1002
}
1001
GENIUS_GENOLIS_13
1002
{
1000
ENT
1005
2ED5
1005
2ED4
1005
2ED3
1005
2ED2
1002
}
  0
LINE
  5
2EE4
330
1F
100
AcDbEntity
  8
AM_7
  6
AM_ISO08W050x2
100
AcDbLine
 10
247.1155814163464
 20
233.5064656289516
 30
0.0
 11
249.1655814163463
 21
233.5064656289516
 31
0.0
1001
GENIUS_GENOREF_13
1005
2EE8
  0
LINE
  5
2EE5
330
1F
100
AcDbEntity
  8
AM_7
  6
AM_ISO08W050x2
100
AcDbLine
 10
247.1155814163464
 20
233.5064656289516
 30
0.0
 11
247.1155814163464
 21
235.5564656289516
 31
0.0
1001
GENIUS_GENOREF_13
1005
2EE8
  0
LINE
  5
2EE6
330
1F
100
AcDbEntity
  8
AM_7
  6
AM_ISO08W050x2
100
AcDbLine
 10
247.1155814163464
 20
233.5064656289516
 30
0.0
 11
245.0655814163464
 21
233.5064656289516
 31
0.0
1001
GENIUS_GENOREF_13
1005
2EE8
  0
LINE
  5
2EE7
330
1F
100
AcDbEntity
  8
AM_7
  6
AM_ISO08W050x2
100
AcDbLine
 10
247.1155814163464
 20
233.5064656289516
 30
0.0
 11
247.1155814163464
 21
231.4564656289516
 31
0.0
1001
GENIUS_GENOREF_13
1005
2EE8
  0
POINT
  5
2EE8
330
1F
100
AcDbEntity
  8
0
 60
     1
100
AcDbPoint
 10
0.0
 20
0.0
 30
0.0
1001
GENIUS_GENOLIS_13
1002
{
1000
ENT
1005
2EE7
1005
2EE6
1005
2EE5
1005
2EE4
1002
}
1001
GENIUS_GENODEF_13
1002
{
1000
HIER
1070
    10
1002
}
1002
{
1000
MANEDIT
1070
     0
1002
}
1002
{
1000
NOSEL
1070
     0
1002
}
1002
{
1000
BEHIND
1070
     0
1002
}
1002
{
1000
OTHER
1070
     0
1002
}
1002
{
1000
REACTOR
1002
}
1001
GENIUS_GENOENT_13
1002
{
1000
MYREF
1005
2EE8
1002
}
1002
{
1000
GRP
1005
0
1002
}
1001
GENIUS_GENOBJ-N-CRS_13
1002
{
1000
OWNER
1000
GEN
1002
}
  0
LINE
  5
2EF6
330
1F
100
AcDbEntity
  8
AM_7
  6
AM_ISO08W050x2
100
AcDbLine
 10
225.7155814163463
 20
242.1064656289515
 30
0.0
 11
227.7655814163463
 21
242.1064656289515
 31
0.0
1001
GENIUS_GENOREF_13
1005
2EFA
  0
LINE
  5
2EF7
330
1F
100
AcDbEntity
  8
AM_7
  6
AM_ISO08W050x2
100
AcDbLine
 10
225.7155814163463
 20
242.1064656289515
 30
0.0
 11
225.7155814163463
 21
244.1564656289515
 31
0.0
1001
GENIUS_GENOREF_13
1005
2EFA
  0
LINE
  5
2EF8
330
1F
100
AcDbEntity
  8
AM_7
  6
AM_ISO08W050x2
100
AcDbLine
 10
225.7155814163463
 20
242.1064656289515
 30
0.0
 11
223.6655814163464
 21
242.1064656289515
 31
0.0
1001
GENIUS_GENOREF_13
1005
2EFA
  0
LINE
  5
2EF9
330
1F
100
AcDbEntity
  8
AM_7
  6
AM_ISO08W050x2
100
AcDbLine
 10
225.7155814163463
 20
242.1064656289515
 30
0.0
 11
225.7155814163463
 21
240.0564656289515
 31
0.0
1001
GENIUS_GENOREF_13
1005
2EFA
  0
POINT
  5
2EFA
330
1F
100
AcDbEntity
  8
0
 60
     1
100
AcDbPoint
 10
0.0
 20
0.0
 30
0.0
1001
GENIUS_GENODEF_13
1002
{
1000
HIER
1070
    10
1002
}
1002
{
1000
MANEDIT
1070
     0
1002
}
1002
{
1000
NOSEL
1070
     0
1002
}
1002
{
1000
BEHIND
1070
     0
1002
}
1002
{
1000
OTHER
1070
     0
1002
}
1002
{
1000
REACTOR
1002
}
1001
GENIUS_GENOLIS_13
1002
{
1000
ENT
1005
2EF9
1005
2EF8
1005
2EF7
1005
2EF6
1002
}
1001
GENIUS_GENOBJ-N-CRS_13
1002
{
1000
OWNER
1000
GEN
1002
}
1001
GENIUS_GENOENT_13
1002
{
1000
MYREF
1005
2EFA
1002
}
1002
{
1000
GRP
1005
0
1002
}
  0
LINE
  5
2F07
330
1F
100
AcDbEntity
  8
AM_7
100
AcDbLine
 10
185.9155814163466
 20
237.8064656289512
 30
0.0
 11
286.9155814163464
 21
237.8064656289515
 31
0.0
1001
GENIUS_GENODEF_13
1002
{
1000
HIER
1070
     0
1002
}
1002
{
1000
MANEDIT
1070
     0
1002
}
1002
{
1000
NOSEL
1070
     0
1002
}
1002
{
1000
BEHIND
1070
     0
1002
}
1002
{
1000
OTHER
1070
     0
1002
}
1002
{
1000
REACTOR
1002
}
1001
GENIUS_GENOBJ-N-CEN_13
1002
{
1000
OWNER
1000
GEN
1002
}
1001
GENIUS_GENCEN_19
1002
{
1040
1.0
1002
}
  0
LINE
  5
2F14
330
1F
100
AcDbEntity
  8
AM_7
100
AcDbLine
 10
315.4443011769115
 20
204.176273266417
 30
0.0
 11
315.4443011769115
 21
172.0841577510596
 31
0.0
1001
GENIUS_GENODEF_13
1002
{
1000
HIER
1070
     0
1002
}
1002
{
1000
MANEDIT
1070
     0
1002
}
1002
{
1000
NOSEL
1070
     0
1002
}
1002
{
1000
BEHIND
1070
     0
1002
}
1002
{
1000
OTHER
1070
     0
1002
}
1002
{
1000
REACTOR
1002
}
1001
GENIUS_GENOBJ-N-CEN_13
1002
{
1000
OWNER
1000
GEN
1002
}
1001
GENIUS_GENCEN_19
1002
{
1040
1.0
1002
}
  0
LINE
  5
2F2B
330
1F
100
AcDbEntity
  8
AM_7
  6
AM_ISO08W050x2
100
AcDbLine
 10
259.4155814163465
 20
237.8064656289515
 30
0.0
 11
262.5155814163465
 21
237.8064656289515
 31
0.0
1001
GENIUS_GENOREF_13
1005
2F2F
  0
LINE
  5
2F2C
330
1F
100
AcDbEntity
  8
AM_7
  6
AM_ISO08W050x2
100
AcDbLine
 10
259.4155814163465
 20
237.8064656289515
 30
0.0
 11
259.4155814163465
 21
240.9064656289515
 31
0.0
1001
GENIUS_GENOREF_13
1005
2F2F
  0
LINE
  5
2F2D
330
1F
100
AcDbEntity
  8
AM_7
  6
AM_ISO08W050x2
100
AcDbLine
 10
259.4155814163465
 20
237.8064656289515
 30
0.0
 11
256.3155814163465
 21
237.8064656289515
 31
0.0
1001
GENIUS_GENOREF_13
1005
2F2F
  0
LINE
  5
2F2E
330
1F
100
AcDbEntity
  8
AM_7
  6
AM_ISO08W050x2
100
AcDbLine
 10
259.4155814163465
 20
237.8064656289515
 30
0.0
 11
259.4155814163465
 21
234.7064656289516
 31
0.0
1001
GENIUS_GENOREF_13
1005
2F2F
  0
POINT
  5
2F2F
330
1F
100
AcDbEntity
  8
0
 60
     1
100
AcDbPoint
 10
0.0
 20
0.0
 30
0.0
1001
GENIUS_GENOLIS_13
1002
{
1000
ENT
1005
2F2E
1005
2F2D
1005
2F2C
1005
2F2B
1002
}
1001
GENIUS_GENOENT_13
1002
{
1000
MYREF
1005
2F2F
1002
}
1002
{
1000
GRP
1005
0
1002
}
1001
GENIUS_GENOBJ-N-CRS_13
1002
{
1000
OWNER
1000
GEN
1002
}
1001
GENIUS_GENODEF_13
1002
{
1000
HIER
1070
    10
1002
}
1002
{
1000
MANEDIT
1070
     0
1002
}
1002
{
1000
NOSEL
1070
     0
1002
}
1002
{
1000
BEHIND
1070
     0
1002
}
1002
{
1000
OTHER
1070
     0
1002
}
1002
{
1000
REACTOR
1002
}
  0
LINE
  5
2F3D
330
1F
100
AcDbEntity
  8
AM_7
  6
AM_ISO08W050x2
100
AcDbLine
 10
213.4155814163464
 20
237.8064656289517
 30
0.0
 11
216.5155814163463
 21
237.8064656289517
 31
0.0
1001
GENIUS_GENOREF_13
1005
2F41
  0
LINE
  5
2F3E
330
1F
100
AcDbEntity
  8
AM_7
  6
AM_ISO08W050x2
100
AcDbLine
 10
213.4155814163464
 20
237.8064656289517
 30
0.0
 11
213.4155814163464
 21
240.9064656289515
 31
0.0
1001
GENIUS_GENOREF_13
1005
2F41
  0
LINE
  5
2F3F
330
1F
100
AcDbEntity
  8
AM_7
  6
AM_ISO08W050x2
100
AcDbLine
 10
213.4155814163464
 20
237.8064656289517
 30
0.0
 11
210.3155814163466
 21
237.8064656289517
 31
0.0
1001
GENIUS_GENOREF_13
1005
2F41
  0
LINE
  5
2F40
330
1F
100
AcDbEntity
  8
AM_7
  6
AM_ISO08W050x2
100
AcDbLine
 10
213.4155814163464
 20
237.8064656289517
 30
0.0
 11
213.4155814163464
 21
234.7064656289518
 31
0.0
1001
GENIUS_GENOREF_13
1005
2F41
  0
POINT
  5
2F41
330
1F
100
AcDbEntity
  8
0
 60
     1
100
AcDbPoint
 10
0.0
 20
0.0
 30
0.0
1001
GENIUS_GENOBJ-N-CRS_13
1002
{
1000
OWNER
1000
GEN
1002
}
1001
GENIUS_GENOLIS_13
1002
{
1000
ENT
1005
2F40
1005
2F3F
1005
2F3E
1005
2F3D
1002
}
1001
GENIUS_GENOENT_13
1002
{
1000
MYREF
1005
2F41
1002
}
1002
{
1000
GRP
1005
0
1002
}
1001
GENIUS_GENODEF_13
1002
{
1000
HIER
1070
    10
1002
}
1002
{
1000
MANEDIT
1070
     0
1002
}
1002
{
1000
NOSEL
1070
     0
1002
}
1002
{
1000
BEHIND
1070
     0
1002
}
1002
{
1000
OTHER
1070
     0
1002
}
1002
{
1000
REACTOR
1002
}
  0
LINE
  5
2F42
330
1F
100
AcDbEntity
  8
AM_7
  6
AM_ISO08W050x2
100
AcDbLine
 10
259.4155814163465
 20
198.6543893115092
 30
0.0
 11
259.4155814163465
 21
204.5226106142747
 31
0.0
  0
LINE
  5
2F43
330
1F
100
AcDbEntity
  8
AM_7
  6
AM_ISO08W050x2
100
AcDbLine
 10
213.4155814163464
 20
198.5613158454234
 30
0.0
 11
213.4155814163464
 21
204.5226106142747
 31
0.0
  0
DIMENSION
  5
32FB
330
1F
100
AcDbEntity
  8
AM_5
100
AcDbDimension
  2
*D22
 10
251.9155814163464
 20
210.7550687141244
 30
0.0
 11
236.4155814163464
 21
213.5050687141244
 31
0.0
 70
    32
 71
     5
 42
30.99999999999994
  3
AM_ISO$0
100
AcDbAlignedDimension
 13
220.9155814163464
 23
193.7327942912895
 33
0.0
 14
251.9155814163464
 24
193.7327942912895
 34
0.0
 50
0.0000000000000114
100
AcDbRotatedDimension
1001
ACAD
1000
DSTYLE
1002
{
1070
    40
1040
1.0
1070
   144
1040
1.0
1070
   272
1070
     8
1002
}
  0
ENDSEC
  0
SECTION
  2
OBJECTS
  0
DICTIONARY
  5
C
330
0
100
AcDbDictionary
281
     1
  3
ACAD_COLOR
350
BE
  3
ACAD_GROUP
350
D
  3
ACAD_LAYOUT
350
1A
  3
ACAD_MATERIAL
350
BD
  3
ACAD_MLINESTYLE
350
17
  3
ACAD_PLOTSETTINGS
350
19
  3
ACAD_PLOTSTYLENAME
350
E
  3
ACAD_TABLESTYLE
350
11A
  3
ACDBHEADERROUNDTRIPXREC
350
33A2
  3
AcDbVariableDictionary
350
94
  3
AcmDictionary
350
5B
  3
AMG
350
41
  3
AMGSNAPSETTINGS
350
1B8
  3
DWGPROPS
350
33A1
  0
DICTIONARY
  5
3F9
330
2
100
AcDbDictionary
280
     1
281
     1
  3
ACAD_LAYERFILTERS
360
5B7
  3
ACAD_LAYERSTATES
360
AAC
  3
ACLYDICTIONARY
360
5B6
  3
AMLAYER_GROUPCOLORS
360
1D75
  0
DICTIONARY
  5
8F
330
1F
100
AcDbDictionary
280
     1
281
     1
  3
ACAD_SORTENTS
360
1C0D
  0
DICTIONARY
  5
BE
102
{ACAD_REACTORS
330
C
102
}
330
C
100
AcDbDictionary
281
     1
  0
DICTIONARY
  5
D
102
{ACAD_REACTORS
330
C
102
}
330
C
100
AcDbDictionary
281
     1
  0
DICTIONARY
  5
1A
102
{ACAD_REACTORS
330
C
102
}
330
C
100
AcDbDictionary
281
     1
  3
Model
350
22
  3
配置1
350
1E
  3
配置2
350
26
  0
DICTIONARY
  5
BD
102
{ACAD_REACTORS
330
C
102
}
330
C
100
AcDbDictionary
281
     1
  0
DICTIONARY
  5
17
102
{ACAD_REACTORS
330
C
102
}
330
C
100
AcDbDictionary
281
     1
  3
Standard
350
18
  0
DICTIONARY
  5
19
102
{ACAD_REACTORS
330
C
102
}
330
C
100
AcDbDictionary
281
     1
  0
ACDBDICTIONARYWDFLT
  5
E
102
{ACAD_REACTORS
330
C
102
}
330
C
100
AcDbDictionary
281
     1
  3
Normal
350
F
100
AcDbDictionaryWithDefault
340
F
  0
DICTIONARY
  5
11A
102
{ACAD_REACTORS
330
C
102
}
330
C
100
AcDbDictionary
281
     1
  3
Standard
350
11B
  0
DICTIONARY
  5
33A2
102
{ACAD_REACTORS
330
C
102
}
330
C
100
AcDbDictionary
281
     1
  0
DICTIONARY
  5
94
102
{ACAD_REACTORS
330
C
102
}
330
C
100
AcDbDictionary
281
     1
  3
CTABLESTYLE
350
138
  3
DIMASSOC
350
96
  3
INDEXCTL
350
95
  3
PROJECTNAME
350
339F
  0
DICTIONARY
  5
5B
102
{ACAD_REACTORS
330
C
102
}
330
C
100
AcDbDictionary
281
     1
  3
AcmBOM
350
1B5
  3
AcmStdDictionary
350
61
  3
AMDTSECTSYM_ARROWCOLOR
350
123
  0
DICTIONARY
  5
41
102
{ACAD_REACTORS
330
C
102
}
330
C
100
AcDbDictionary
281
     1
  0
DICTIONARY
  5
1B8
102
{ACAD_REACTORS
330
C
102
}
330
C
100
AcDbDictionary
281
     1
  0
XRECORD
  5
33A1
102
{ACAD_REACTORS
330
C
102
}
330
C
100
AcDbXrecord
280
     1
  1
DWGPROPS COOKIE
  2

  3

  4

  6

  7

  8

  9

300
AmdtFileType=84
301
=
302
=
303
=
304
=
305
=
306
=
307
=
308
=
309
=
 40
0.0315653935185185
 41
2454340.590681783
 42
2454354.638424479
  1

 90
        1
  0
DICTIONARY
  5
5B7
102
{ACAD_REACTORS
330
3F9
102
}
330
3F9
100
AcDbDictionary
281
     1
  0
DICTIONARY
  5
AAC
102
{ACAD_REACTORS
330
3F9
102
}
330
3F9
100
AcDbDictionary
281
     1
  0
DICTIONARY
  5
5B6
102
{ACAD_REACTORS
330
3F9
102
}
330
3F9
100
AcDbDictionary
281
     1
1001
ACAD
1000
<All
  0
DICTIONARY
  5
1D75
102
{ACAD_REACTORS
330
3F9
102
}
330
3F9
100
AcDbDictionary
280
     1
281
     1
  0
SORTENTSTABLE
  5
1C0D
102
{ACAD_REACTORS
330
8F
102
}
330
8F
100
AcDbSortentsTable
330
1F
  0
LAYOUT
  5
22
102
{ACAD_XDICTIONARY
360
33A5
102
}
102
{ACAD_REACTORS
330
1A
102
}
330
1A
100
AcDbPlotSettings
  1

  2
\\RD\EPSON Stylus C63 Series單色
  4
A4
  6

 40
3.757083177566528
 41
3.757076978683471
 42
3.757080078125
 43
3.757080078125
 44
209.9733276367187
 45
296.9683227539062
 46
0.0
 47
0.0
 48
0.0
 49
0.0
140
0.0
141
0.0
142
1.0
143
0.3405120737814363
 70
 11952
 72
     1
 73
     0
 74
     0
  7
單色出圖.ctb
 75
     0
147
2.936753428137963
148
-2047.07469463503
149
-1261.649717473083
100
AcDbLayout
  1
Model
 70
     1
 71
     0
 10
0.0
 20
0.0
 11
12.0
 21
9.0
 12
0.0
 22
0.0
 32
0.0
 14
0.0
 24
0.0
 34
0.0
 15
0.0
 25
0.0
 35
0.0
146
0.0
 13
0.0
 23
0.0
 33
0.0
 16
1.0
 26
0.0
 36
0.0
 17
0.0
 27
1.0
 37
0.0
 76
     0
330
1F
1001
ACAD_PSEXT
1000
\\RD\EPSON Stylus C63 Series單色
1000
EPSON Stylus C63 Series
1000
\\RD
1000

1070
     0
  0
LAYOUT
  5
1E
102
{ACAD_XDICTIONARY
360
33A3
102
}
102
{ACAD_REACTORS
330
1A
102
}
330
1A
100
AcDbPlotSettings
  1

  2

  4

  6

 40
0.0
 41
0.0
 42
0.0
 43
0.0
 44
0.0
 45
0.0
 46
0.0
 47
0.0
 48
0.0
 49
0.0
140
0.0
141
0.0
142
1.0
143
1.0
 70
   688
 72
     0
 73
     0
 74
     5
  7
單色出圖.ctb
 75
    16
147
1.0
148
0.0
149
0.0
100
AcDbLayout
  1
配置1
 70
     1
 71
     1
 10
0.0
 20
0.0
 11
420.0
 21
297.0
 12
0.0
 22
0.0
 32
0.0
 14
1.000000000000000E+20
 24
1.000000000000000E+20
 34
1.000000000000000E+20
 15
-1.000000000000000E+20
 25
-1.000000000000000E+20
 35
-1.000000000000000E+20
146
0.0
 13
0.0
 23
0.0
 33
0.0
 16
1.0
 26
0.0
 36
0.0
 17
0.0
 27
1.0
 37
0.0
 76
     0
330
1B
  0
LAYOUT
  5
26
102
{ACAD_XDICTIONARY
360
33A7
102
}
102
{ACAD_REACTORS
330
1A
102
}
330
1A
100
AcDbPlotSettings
  1

  2

  4

  6

 40
0.0
 41
0.0
 42
0.0
 43
0.0
 44
0.0
 45
0.0
 46
0.0
 47
0.0
 48
0.0
 49
0.0
140
0.0
141
0.0
142
1.0
143
1.0
 70
   688
 72
     0
 73
     0
 74
     5
  7
單色出圖.ctb
 75
    16
147
1.0
148
0.0
149
0.0
100
AcDbLayout
  1
配置2
 70
     1
 71
     2
 10
0.0
 20
0.0
 11
12.0
 21
9.0
 12
0.0
 22
0.0
 32
0.0
 14
0.0
 24
0.0
 34
0.0
 15
0.0
 25
0.0
 35
0.0
146
0.0
 13
0.0
 23
0.0
 33
0.0
 16
1.0
 26
0.0
 36
0.0
 17
0.0
 27
1.0
 37
0.0
 76
     0
330
23
  0
MLINESTYLE
  5
18
102
{ACAD_REACTORS
330
17
102
}
330
17
100
AcDbMlineStyle
  2
STANDARD
 70
     0
  3

 62
   256
 51
90.0
 52
90.0
 71
     2
 49
0.5
 62
   256
  6
BYLAYER
 49
-0.5
 62
   256
  6
BYLAYER
  0
ACDBPLACEHOLDER
  5
F
102
{ACAD_REACTORS
330
E
102
}
330
E
  0
TABLESTYLE
  5
11B
102
{ACAD_REACTORS
330
11A
102
}
330
11A
100
AcDbTableStyle
  3
Standard
 70
     0
 71
     0
 40
1.5
 41
1.5
280
     0
281
     0
  7
STANDARD
140
4.5
170
     2
 62
     0
 63
     7
283
     0
274
    -2
284
     1
 64
     0
275
    -2
285
     1
 65
     0
276
    -2
286
     1
 66
     0
277
    -2
287
     1
 67
     0
278
    -2
288
     1
 68
     0
279
    -2
289
     1
 69
     0
  7
STANDARD
140
6.0
170
     5
 62
     0
 63
     7
283
     0
274
    -2
284
     1
 64
     0
275
    -2
285
     1
 65
     0
276
    -2
286
     1
 66
     0
277
    -2
287
     1
 67
     0
278
    -2
288
     1
 68
     0
279
    -2
289
     1
 69
     0
  7
STANDARD
140
4.5
170
     5
 62
     0
 63
     7
283
     0
274
    -2
284
     1
 64
     0
275
    -2
285
     1
 65
     0
276
    -2
286
     1
 66
     0
277
    -2
287
     1
 67
     0
278
    -2
288
     1
 68
     0
279
    -2
289
     1
 69
     0
  0
DICTIONARYVAR
  5
138
102
{ACAD_REACTORS
330
94
102
}
330
94
100
DictionaryVariables
280
     0
  1
STANDARD
  0
DICTIONARYVAR
  5
96
102
{ACAD_REACTORS
330
94
102
}
330
94
100
DictionaryVariables
280
     0
  1
2
  0
DICTIONARYVAR
  5
95
102
{ACAD_REACTORS
330
94
102
}
330
94
100
DictionaryVariables
280
     0
  1
0
  0
DICTIONARYVAR
  5
339F
102
{ACAD_REACTORS
330
94
102
}
330
94
100
DictionaryVariables
280
     0
  1

  0
DICTIONARY
  5
1B5
102
{ACAD_REACTORS
330
5B
102
}
330
5B
100
AcDbDictionary
281
     1
  0
DICTIONARY
  5
61
102
{ACAD_REACTORS
330
5B
102
}
330
5B
100
AcDbDictionary
281
     1
  0
XRECORD
  5
123
102
{ACAD_REACTORS
330
5B
102
}
330
5B
100
AcDbXrecord
280
     1
 90
-1023410169
  0
DICTIONARY
  5
33A5
330
22
100
AcDbDictionary
280
     1
281
     1
  3
ACAD_XREC_ROUNDTRIP
360
33A6
  0
DICTIONARY
  5
33A3
330
1E
100
AcDbDictionary
280
     1
281
     1
  3
ACAD_XREC_ROUNDTRIP
360
33A4
  0
DICTIONARY
  5
33A7
330
26
100
AcDbDictionary
280
     1
281
     1
  3
ACAD_XREC_ROUNDTRIP
360
33A8
  0
XRECORD
  5
33A6
102
{ACAD_REACTORS
330
33A5
102
}
330
33A5
100
AcDbXrecord
280
     1
102
SHADEPLOT
 70
     0
102
SHADEPLOTRESLEVEL
 70
     2
102
SHADEPLOTCUSTOMDPI
 70
   300
  0
XRECORD
  5
33A4
102
{ACAD_REACTORS
330
33A3
102
}
330
33A3
100
AcDbXrecord
280
     1
102
SHADEPLOT
 70
     0
102
SHADEPLOTRESLEVEL
 70
     2
102
SHADEPLOTCUSTOMDPI
 70
   300
  0
XRECORD
  5
33A8
102
{ACAD_REACTORS
330
33A7
102
}
330
33A7
100
AcDbXrecord
280
     1
102
SHADEPLOT
 70
     0
102
SHADEPLOTRESLEVEL
 70
     2
102
SHADEPLOTCUSTOMDPI
 70
   300
  0
ENDSEC
  0
EOF
