  0
SECTION
  2
HEADER
  9
$ACADVER
  1
AC1015
  9
$ACADMAINTVER
 70
    20
  9
$DWGCODEPAGE
  3
ANSI_950
  9
$INSBASE
 10
0.0
 20
0.0
 30
0.0
  9
$EXTMIN
 10
199.6274129996466
 20
142.1346201299943
 30
-0.0119968621117437
  9
$EXTMAX
 10
458.7692453327219
 20
382.1650192224663
 30
157.2692716444912
  9
$LIMMIN
 10
0.0
 20
0.0
  9
$LIMMAX
 10
420.0
 20
297.0
  9
$ORTHOMODE
 70
     1
  9
$REGENMODE
 70
     1
  9
$FILLMODE
 70
     1
  9
$QTEXTMODE
 70
     0
  9
$MIRRTEXT
 70
     1
  9
$LTSCALE
 40
1.0
  9
$ATTMODE
 70
     1
  9
$TEXTSIZE
 40
3.0
  9
$TRACEWID
 40
1.0
  9
$TEXTSTYLE
  7
STANDARD
  9
$CLAYER
  8
0
  9
$CELTYPE
  6
ByLayer
  9
$CECOLOR
 62
   256
  9
$CELTSCALE
 40
1.0
  9
$DISPSILH
 70
     0
  9
$DIMSCALE
 40
1.0
  9
$DIMASZ
 40
3.0
  9
$DIMEXO
 40
1.0
  9
$DIMDLI
 40
8.0
  9
$DIMRND
 40
0.0
  9
$DIMDLE
 40
0.0
  9
$DIMEXE
 40
1.5
  9
$DIMTP
 40
0.1
  9
$DIMTM
 40
0.1
  9
$DIMTXT
 40
3.5
  9
$DIMCEN
 40
0.0
  9
$DIMTSZ
 40
0.0
  9
$DIMTOL
 70
     0
  9
$DIMLIM
 70
     0
  9
$DIMTIH
 70
     0
  9
$DIMTOH
 70
     0
  9
$DIMSE1
 70
     0
  9
$DIMSE2
 70
     0
  9
$DIMTAD
 70
     1
  9
$DIMZIN
 70
     8
  9
$DIMBLK
  1

  9
$DIMASO
 70
     1
  9
$DIMSHO
 70
     1
  9
$DIMPOST
  1

  9
$DIMAPOST
  1
"
  9
$DIMALT
 70
     0
  9
$DIMALTD
 70
     2
  9
$DIMALTF
 40
0.0393701
  9
$DIMLFAC
 40
1.0
  9
$DIMTOFL
 70
     1
  9
$DIMTVP
 40
0.0
  9
$DIMTIX
 70
     0
  9
$DIMSOXD
 70
     0
  9
$DIMSAH
 70
     0
  9
$DIMBLK1
  1

  9
$DIMBLK2
  1

  9
$DIMSTYLE
  2
AM_ISO
  9
$DIMCLRD
 70
   256
  9
$DIMCLRE
 70
   256
  9
$DIMCLRT
 70
   256
  9
$DIMTFAC
 40
0.6
  9
$DIMGAP
 40
0.7
  9
$DIMJUST
 70
     0
  9
$DIMSD1
 70
     0
  9
$DIMSD2
 70
     0
  9
$DIMTOLJ
 70
     0
  9
$DIMTZIN
 70
     8
  9
$DIMALTZ
 70
     0
  9
$DIMALTTZ
 70
     0
  9
$DIMUPT
 70
     0
  9
$DIMDEC
 70
     2
  9
$DIMTDEC
 70
     8
  9
$DIMALTU
 70
     2
  9
$DIMALTTD
 70
     2
  9
$DIMTXSTY
  7
STANDARD
  9
$DIMAUNIT
 70
     0
  9
$DIMADEC
 70
     0
  9
$DIMALTRND
 40
0.0
  9
$DIMAZIN
 70
     2
  9
$DIMDSEP
 70
    46
  9
$DIMATFIT
 70
     3
  9
$DIMFRAC
 70
     0
  9
$DIMLDRBLK
  1

  9
$DIMLUNIT
 70
     2
  9
$DIMLWD
 70
    -1
  9
$DIMLWE
 70
    -1
  9
$DIMTMOVE
 70
     0
  9
$LUNITS
 70
     2
  9
$LUPREC
 70
     2
  9
$SKETCHINC
 40
1.0
  9
$FILLETRAD
 40
2.5
  9
$AUNITS
 70
     0
  9
$AUPREC
 70
     0
  9
$MENU
  1
.
  9
$ELEVATION
 40
0.0
  9
$PELEVATION
 40
0.0
  9
$THICKNESS
 40
0.0
  9
$LIMCHECK
 70
     0
  9
$CHAMFERA
 40
2.5
  9
$CHAMFERB
 40
2.5
  9
$CHAMFERC
 40
20.0
  9
$CHAMFERD
 40
0.0
  9
$SKPOLY
 70
     0
  9
$TDCREATE
 40
2454013.630324248
  9
$TDUCREATE
 40
2454013.296990914
  9
$TDUPDATE
 40
2455854.703937535
  9
$TDUUPDATE
 40
2455854.370604201
  9
$TDINDWG
 40
0.0107794329
  9
$TDUSRTIMER
 40
0.0107794329
  9
$USRTIMER
 70
     1
  9
$ANGBASE
 50
0.0
  9
$ANGDIR
 70
     0
  9
$PDMODE
 70
     0
  9
$PDSIZE
 40
0.0
  9
$PLINEWID
 40
0.0
  9
$SPLFRAME
 70
     0
  9
$SPLINETYPE
 70
     6
  9
$SPLINESEGS
 70
     8
  9
$HANDSEED
  5
1309
  9
$SURFTAB1
 70
     6
  9
$SURFTAB2
 70
     6
  9
$SURFTYPE
 70
     6
  9
$SURFU
 70
     6
  9
$SURFV
 70
     6
  9
$UCSBASE
  2

  9
$UCSNAME
  2

  9
$UCSORG
 10
0.0
 20
0.0
 30
0.0
  9
$UCSXDIR
 10
1.0
 20
0.0
 30
0.0
  9
$UCSYDIR
 10
0.0
 20
1.0
 30
0.0
  9
$UCSORTHOREF
  2

  9
$UCSORTHOVIEW
 70
     0
  9
$UCSORGTOP
 10
0.0
 20
0.0
 30
0.0
  9
$UCSORGBOTTOM
 10
0.0
 20
0.0
 30
0.0
  9
$UCSORGLEFT
 10
0.0
 20
0.0
 30
0.0
  9
$UCSORGRIGHT
 10
0.0
 20
0.0
 30
0.0
  9
$UCSORGFRONT
 10
0.0
 20
0.0
 30
0.0
  9
$UCSORGBACK
 10
0.0
 20
0.0
 30
0.0
  9
$PUCSBASE
  2

  9
$PUCSNAME
  2

  9
$PUCSORG
 10
0.0
 20
0.0
 30
0.0
  9
$PUCSXDIR
 10
1.0
 20
0.0
 30
0.0
  9
$PUCSYDIR
 10
0.0
 20
1.0
 30
0.0
  9
$PUCSORTHOREF
  2

  9
$PUCSORTHOVIEW
 70
     0
  9
$PUCSORGTOP
 10
0.0
 20
0.0
 30
0.0
  9
$PUCSORGBOTTOM
 10
0.0
 20
0.0
 30
0.0
  9
$PUCSORGLEFT
 10
0.0
 20
0.0
 30
0.0
  9
$PUCSORGRIGHT
 10
0.0
 20
0.0
 30
0.0
  9
$PUCSORGFRONT
 10
0.0
 20
0.0
 30
0.0
  9
$PUCSORGBACK
 10
0.0
 20
0.0
 30
0.0
  9
$USERI1
 70
     0
  9
$USERI2
 70
     0
  9
$USERI3
 70
     0
  9
$USERI4
 70
     0
  9
$USERI5
 70
     0
  9
$USERR1
 40
0.0
  9
$USERR2
 40
0.0
  9
$USERR3
 40
0.0
  9
$USERR4
 40
0.0
  9
$USERR5
 40
0.0
  9
$WORLDVIEW
 70
     1
  9
$SHADEDGE
 70
     3
  9
$SHADEDIF
 70
    70
  9
$TILEMODE
 70
     1
  9
$MAXACTVP
 70
    64
  9
$PINSBASE
 10
0.0
 20
0.0
 30
0.0
  9
$PLIMCHECK
 70
     0
  9
$PEXTMIN
 10
1.000000000000000E+20
 20
1.000000000000000E+20
 30
1.000000000000000E+20
  9
$PEXTMAX
 10
-1.000000000000000E+20
 20
-1.000000000000000E+20
 30
-1.000000000000000E+20
  9
$PLIMMIN
 10
0.0
 20
0.0
  9
$PLIMMAX
 10
420.0
 20
297.0
  9
$UNITMODE
 70
     0
  9
$VISRETAIN
 70
     1
  9
$PLINEGEN
 70
     0
  9
$PSLTSCALE
 70
     1
  9
$TREEDEPTH
 70
  3020
  9
$CMLSTYLE
  2
Standard
  9
$CMLJUST
 70
     0
  9
$CMLSCALE
 40
20.0
  9
$PROXYGRAPHICS
 70
     1
  9
$MEASUREMENT
 70
     1
  9
$CELWEIGHT
370
    -1
  9
$ENDCAPS
280
     0
  9
$JOINSTYLE
280
     0
  9
$LWDISPLAY
290
     0
  9
$INSUNITS
 70
     4
  9
$HYPERLINKBASE
  1

  9
$STYLESHEET
  1
彩色出圖.ctb
  9
$XEDIT
290
     1
  9
$CEPSNTYPE
380
     0
  9
$PSTYLEMODE
290
     1
  9
$FINGERPRINTGUID
  2
{9BAAC476-3B99-49AB-9146-C7ABF099D292}
  9
$VERSIONGUID
  2
{518E03B1-DA13-462F-8E9B-770991C69730}
  9
$EXTNAMES
290
     1
  9
$PSVPSCALE
 40
0.0
  9
$OLESTARTUP
290
     0
  0
ENDSEC
  0
SECTION
  2
CLASSES
  0
CLASS
  1
ACDBDICTIONARYWDFLT
  2
AcDbDictionaryWithDefault
  3
ObjectDBX Classes
 90
        0
280
     0
281
     0
  0
CLASS
  1
ACDBPLACEHOLDER
  2
AcDbPlaceHolder
  3
ObjectDBX Classes
 90
        0
280
     0
281
     0
  0
CLASS
  1
LAYOUT
  2
AcDbLayout
  3
ObjectDBX Classes
 90
        0
280
     0
281
     0
  0
CLASS
  1
ACME_DOCUMENT
  2
AcMeDbDoc
  3
AcMeServices
 90
        0
280
     0
281
     0
  0
CLASS
  1
AMGSETTINGSOBJ
  2
AmgSettingsObj
  3
"AcadM|Product Description: AutoCAD Mechanical 2000|Company: Autodesk"
 90
        0
280
     0
281
     0
  0
CLASS
  1
ACMESCOPE
  2
AcMeScope
  3
AcMeServices
 90
        0
280
     0
281
     0
  0
CLASS
  1
ACMECOMMANDHISTORY
  2
AcMeCommandHistory
  3
AcMeServices
 90
        0
280
     0
281
     0
  0
CLASS
  1
ACIMSYSVARMAN
  2
AcImSysVarManager
  3
AcMeServices
 90
        0
280
     0
281
     0
  0
CLASS
  1
ACIMREALSYSVAR
  2
AcImRealSysVar
  3
AcMeServices
 90
        0
280
     0
281
     0
  0
CLASS
  1
ACIMINTSYSVAR
  2
AcImIntSysVar
  3
AcMeServices
 90
        0
280
     0
281
     0
  0
CLASS
  1
ACMEDRAWINGMAN
  2
AcMeDrawingMan
  3
AcMeServices
 90
        0
280
     0
281
     0
  0
CLASS
  1
ACMEVIEW
  2
AcMeView
  3
AcMeServices
 90
        0
280
     0
281
     0
  0
CLASS
  1
ACDBENTITYCACHE
  2
AcMeEntityCache
  3
AcMeServices
 90
        0
280
     0
281
     0
  0
CLASS
  1
GSMANAGER
  2
AcMeGSManager
  3
AcMeServices
 90
        0
280
     0
281
     0
  0
CLASS
  1
AMDTINTERNALREACTOR
  2
AmdtInternalReactor
  3
AcMeServices
 90
        0
280
     0
281
     0
  0
CLASS
  1
ACMESTATEMGR
  2
AcMeStateMgr
  3
AcMeServices
 90
        0
280
     0
281
     0
  0
CLASS
  1
ACGREFMASTER
  2
AcGrefMaster
  3
AcAttribServices
 90
        0
280
     0
281
     0
  0
CLASS
  1
ACME_DATABASE
  2
AcMeDbDatabase
  3
AcMeServices
 90
        0
280
     0
281
     0
  0
CLASS
  1
ACRFINSADJUSTERMGR
  2
AcRfInsAdjusterMgr
  3
AcMeServices
 90
        0
280
     0
281
     0
  0
CLASS
  1
ACGREFACADMASTER
  2
AcGrefacadMaster
  3
AcGrefServices
 90
        0
280
     0
281
     0
  0
CLASS
  1
AMIMASTER
  2
AmiMaster
  3
AmiServices
 90
        0
280
     0
281
     0
  0
CLASS
  1
ACMDATADICTIONARY
  2
AcmDataDictionary
  3
"AcmSymBB|Product Description: AutoCAD Mechanical 2004 DX|Company: Autodesk"
 90
        0
280
     0
281
     0
  0
CLASS
  1
ACMDATAENTRYBLOCK
  2
AcmDataEntryBlock
  3
"AcmSymBB|Product Description: AutoCAD Mechanical 2004 DX|Company: Autodesk"
 90
        0
280
     0
281
     0
  0
CLASS
  1
ACIMSTRSYSVAR
  2
AcImStrSysVar
  3
AcMeServices
 90
        0
280
     0
281
     0
  0
CLASS
  1
ACMSTANDARDISO
  2
AcmStandardISO
  3
"Amdt_StdImp|Product Description: AutoCAD Mechanical 2004 DX|Company: Autodesk"
 90
        0
280
     0
281
     0
  0
CLASS
  1
AMGOBJPROPCFG
  2
AmgObjPropCfg
  3
"AmgLay|Product Description: AutoCAD Mechanical 2000|Company: Autodesk"
 90
        1
280
     0
281
     0
  0
CLASS
  1
AMDTEDGESTANDARDISO
  2
AmdtEdgeStdISO
  3
"Amdt_StdImp|Product Description: AutoCAD Mechanical 2004 DX|Company: Autodesk"
 90
    32768
280
     0
281
     0
  0
CLASS
  1
ACMSURFSTANDARDISO
  2
AcmSurfTextStdISO
  3
"Amdt_StdImp|Product Description: AutoCAD Mechanical 2004 DX|Company: Autodesk"
 90
        0
280
     0
281
     0
  0
CLASS
  1
ACMFCFSTANDARDISO
  2
AcmFCFStdISO
  3
"Amdt_StdImp|Product Description: AutoCAD Mechanical 2004 DX|Company: Autodesk"
 90
        0
280
     0
281
     0
  0
CLASS
  1
ACMWELDSTANDARDISO
  2
AcmWeldingStdISO
  3
"Amdt_StdImp|Product Description: AutoCAD Mechanical 2004 DX|Company: Autodesk"
 90
        0
280
     0
281
     0
  0
CLASS
  1
ACMIDSTANDARDISO
  2
AcmIdStdISO
  3
"Amdt_StdImp|Product Description: AutoCAD Mechanical 2004 DX|Company: Autodesk"
 90
        0
280
     0
281
     0
  0
CLASS
  1
ACMDATUMSTANDARDISO
  2
AcmDatumStdISO
  3
"Amdt_StdImp|Product Description: AutoCAD Mechanical 2004 DX|Company: Autodesk"
 90
        0
280
     0
281
     0
  0
CLASS
  1
ACMBOMSTANDARDISO
  2
AcmBOMStdISO
  3
"Amdt_StdImp|Product Description: AutoCAD Mechanical 2004 DX|Company: Autodesk"
 90
        0
280
     0
281
     0
  0
CLASS
  1
ACMDETAILSTANDARDISO
  2
AmdtDetailSymStdISO
  3
"Amdt_StdImp|Product Description: AutoCAD Mechanical 2004 DX|Company: Autodesk"
 90
        0
280
     0
281
     0
  0
CLASS
  1
ACMSECTIONSTANDARDISO
  2
AmdtSectionSymStdISO
  3
"Amdt_StdImp|Product Description: AutoCAD Mechanical 2004 DX|Company: Autodesk"
 90
        0
280
     0
281
     0
  0
CLASS
  1
ACMCENTERLINESTANDARDISO
  2
AmdtCenterLineStdISO
  3
"Amdt_StdImp|Product Description: AutoCAD Mechanical 2004 DX|Company: Autodesk"
 90
        0
280
     0
281
     0
  0
CLASS
  1
ACMNOTESTANDARDISO
  2
AmdtNoteStdISO
  3
"Amdt_StdImp|Product Description: AutoCAD Mechanical 2004 DX|Company: Autodesk"
 90
        0
280
     0
281
     0
  0
CLASS
  1
ACAMGLAYSTD
  2
AcAmgLayStd
  3
"AcAmgLayStd|Product Description: AutoCAD Mechanical 2000|Company: Autodesk"
 90
        0
280
     0
281
     0
  0
CLASS
  1
ACAMGDIMSTD
  2
AcAmgDimStd
  3
"AcAmgDimStd|Product Description: AutoCAD Mechanical 2000|Company: Autodesk"
 90
        0
280
     0
281
     0
  0
CLASS
  1
ACAMGHOLECHARTSTDISO
  2
AcAmgHoleChartStdISO
  3
ACMSYMBB_MODULE_NAME
 90
        0
280
     0
281
     0
  0
CLASS
  1
ACAMGTITLESTD
  2
AcAmgTitleStd
  3
"TITLEAPP"
 90
        0
280
     0
281
     0
  0
CLASS
  1
LAYER_INDEX
  2
AcDbLayerIndex
  3
ObjectDBX Classes
 90
        0
280
     0
281
     0
  0
CLASS
  1
IDBUFFER
  2
AcDbIdBuffer
  3
ObjectDBX Classes
 90
        0
280
     0
281
     0
  0
CLASS
  1
DICTIONARYVAR
  2
AcDbDictionaryVar
  3
ObjectDBX Classes
 90
        0
280
     0
281
     0
  0
CLASS
  1
AM_DRAWING_MGR
  2
AcDmDwgMgr
  3
AcMechDwgViewMgmt
 90
        0
280
     0
281
     0
  0
CLASS
  1
AM_DWG_DOCUMENT
  2
AcDmDwgDocument
  3
AcMechDwgViewMgmt
 90
        0
280
     0
281
     0
  0
CLASS
  1
AM_DWG_SHEET
  2
AcDmSheet
  3
AcMechDwgViewMgmt
 90
        0
280
     0
281
     0
  0
CLASS
  1
AM_VIEWDIMPARMAP
  2
AcDmViewDimParMap
  3
AcMechDwgViewMgmt
 90
        0
280
     0
281
     0
  0
CLASS
  1
AM_DWGMGR_NAME
  2
AcDmDwgMgrName
  3
AcMechDwgViewMgmt
 90
        0
280
     0
281
     0
  0
CLASS
  1
AMDTMENUSTATEMGR
  2
AmdtMenuStateMgr
  3
McadcomServices
 90
        0
280
     0
281
     0
  0
CLASS
  1
AMDTMCOMMENUSTATE
  2
AmdtMcomMenuState
  3
McadcomServices
 90
        0
280
     0
281
     0
  0
CLASS
  1
MAPIAMMOUDLE
  2
MApiAmModule
  3
MApiAmServices
 90
        0
280
     0
281
     0
  0
CLASS
  1
AMDTADMENUSTATE
  2
AmdtAdMenuState
  3
DesignerServices
 90
        0
280
     0
281
     0
  0
CLASS
  1
ADAPPL
  2
AcAdAppl
  3
DesignerServices
 90
        0
280
     0
281
     0
  0
CLASS
  1
DEPMGR
  2
AcAdDepMgr
  3
DesignerServices
 90
        0
280
     0
281
     0
  0
CLASS
  1
PARAMMGR
  2
AcAdParamMgr
  3
DesignerServices
 90
        0
280
     0
281
     0
  0
CLASS
  1
PARAMSCOPE
  2
AcAdParamScope
  3
DesignerServices
 90
        0
280
     0
281
     0
  0
CLASS
  1
NAMEDAPPL
  2
AcAdNamedAppl
  3
DesignerServices
 90
        0
280
     0
281
     0
  0
CLASS
  1
AMDTDMMENUSTATE
  2
AmdtDmMenuState
  3
AcMechDwgViewMgmt
 90
        0
280
     0
281
     0
  0
CLASS
  1
AMDTAMMENUSTATE
  2
AmdtAmMenuState
  3
DesignerAssemblies
 90
        0
280
     0
281
     0
  0
CLASS
  1
ACAMPROJECT
  2
AcAmProject
  3
DesignerAssemblies
 90
        0
280
     0
281
     0
  0
CLASS
  1
ACAMGRCOMPDEF
  2
AcAmGrCompDef
  3
DesignerAssemblies
 90
        0
280
     0
281
     0
  0
CLASS
  1
ACCMCONTEXT
  2
AcCmContext
  3
DesignerAssemblies
 90
        0
280
     0
281
     0
  0
CLASS
  1
ACAMCOMPDEF
  2
AcAmCompDef
  3
DesignerAssemblies
 90
        0
280
     0
281
     0
  0
CLASS
  1
ACAMCOMPDEFMGR
  2
AcAmCompDefMgr
  3
DesignerAssemblies
 90
        0
280
     0
281
     0
  0
CLASS
  1
AMCONTEXTMGR
  2
AcAmContextMgr
  3
DesignerAssemblies
 90
        0
280
     0
281
     0
  0
CLASS
  1
ACAMCONTEXTMODELER
  2
AcAmContextModeler
  3
DesignerAssemblies
 90
        0
280
     0
281
     0
  0
CLASS
  1
ACMTHREADLINESTANDARDISO
  2
AmdtThreadLineStdISO
  3
"Amdt_StdImp|Product Description: AutoCAD Mechanical 2004 DX|Company: Autodesk"
 90
        0
280
     0
281
     0
  0
CLASS
  1
CATALOGSTATE
  2
AcAmCatalogState
  3
DesignerAssemblies
 90
        0
280
     0
281
     0
  0
CLASS
  1
ACAMGRCOMPDEFSET
  2
AcAmGrCompDefSet
  3
DesignerAssemblies
 90
        0
280
     0
281
     0
  0
CLASS
  1
AMDTBROWSERDBTAB
  2
AmdtBrowserDbTab
  3
McadcomServices
 90
        0
280
     0
281
     0
  0
CLASS
  1
CBROWSERAPPOBJECT
  2
CBrowserAppObject
  3
McadcomServices
 90
        0
280
     0
281
     0
  0
CLASS
  1
DM_PLACEHOLDER
  2
AcDmSelsetPlaceholder
  3
AcMechDwgViewMgmt
 90
        0
280
     0
281
     0
  0
CLASS
  1
TABLESTYLE
  2
AcDbTableStyle
  3
ObjectDBX Classes
 90
     2047
280
     0
281
     0
  0
CLASS
  1
VAACXREFPANELOBJECT
  2
VaAcXREFPanelObject
  3
VAAC_ADDIN
 90
    32768
280
     0
281
     0
  0
CLASS
  1
VAACIMAGEINVENTORY
  2
VaAcImageInventory
  3
VAAC_ADDIN
 90
    32768
280
     0
281
     0
  0
CLASS
  1
AMDTNOTETEMPLATEDB
  2
AmdtNoteTemplateDB
  3
AMDT_STDIMP_MODULE_NAME
 90
        0
280
     0
281
     0
  0
CLASS
  1
ACMBOM
  2
AcmBom
  3
"AcmSymBB|Product Description: AutoCAD Mechanical 2004 DX|Company: Autodesk"
 90
    32768
280
     0
281
     0
  0
CLASS
  1
AMDTFORMULAUPDATEDISPATCHER
  2
AmdtFormulaUpdateDispatcher
  3
AcMeServices
 90
    32768
280
     0
281
     0
  0
CLASS
  1
ACMPARTLIST
  2
AcmPartList
  3
"AcmSymBB|Product Description: AutoCAD Mechanical 2004 DX|Company: Autodesk"
 90
    33791
280
     0
281
     1
  0
CLASS
  1
ACAMGFILTERDAT
  2
AcAmgFilterDat
  3
"AcadM|Product Description: AutoCAD Mechanical 2000|Company: Autodesk"
 90
    32768
280
     0
281
     0
  0
CLASS
  1
DIMASSOC
  2
AcDbDimAssoc
  3
"AcDbDimAssoc|Product Desc:     AcDim ARX App For Dimension|Company:          Autodesk, Inc.|WEB Address:      www.autodesk.com"
 90
        0
280
     0
281
     0
  0
CLASS
  1
SORTENTSTABLE
  2
AcDbSortentsTable
  3
ObjectDBX Classes
 90
        0
280
     0
281
     0
  0
CLASS
  1
AMDTNOTE
  2
AmdtNote
  3
"AcmSymBB|Product Description: AutoCAD Mechanical 2004 DX|Company: Autodesk"
 90
    33791
280
     0
281
     1
  0
CLASS
  1
STDPART2D
  2
AmgStdPart
  3
"AmgStdPart|Product Description: AutoCAD Mechanical 2000|Company: Autodesk"
 90
    33791
280
     0
281
     1
  0
CLASS
  1
ACAMSTDPCOMPDEF
  2
AcAmStdpCompDef
  3
DesignerAssemblies
 90
    32768
280
     0
281
     0
  0
CLASS
  1
ACRFATTGENMGR
  2
AcRfAttGeneralMgr
  3
AcAttribServices
 90
    32768
280
     0
281
     0
  0
CLASS
  1
ACRFOBJATTMGR
  2
AcRfObjAttGroupMgr
  3
AcAttribServices
 90
    32768
280
     0
281
     0
  0
CLASS
  1
ACRFMCADAPIATTHOLDER
  2
AcRfMCADAPIAttHolder
  3
AcAttribServices
 90
    32768
280
     0
281
     0
  0
CLASS
  1
AMDTSYSATTR
  2
AmdtSystemAttribute
  3
AcAttribServices
 90
    32768
280
     0
281
     0
  0
CLASS
  1
ACAMCOMP
  2
AcAmComp
  3
DesignerAssemblies
 90
    32768
280
     0
281
     0
  0
CLASS
  1
AC_AM_STDP_VIEW_DEF
  2
AcAmStdpViewDef
  3
DesignerAssemblies
 90
    32768
280
     0
281
     0
  0
CLASS
  1
AC_AM_MVD_DEP_MGR
  2
AcAmMVDdepMgr
  3
DesignerAssemblies
 90
    32768
280
     0
281
     0
  0
CLASS
  1
AC_AM_MASTER_VIEW_DEF
  2
AcAmMasterViewDef
  3
DesignerAssemblies
 90
    32768
280
     0
281
     0
  0
CLASS
  1
AC_AM_DIRTY_NODES
  2
AcAmDirtyNodes
  3
DesignerAssemblies
 90
    32768
280
     0
281
     0
  0
CLASS
  1
AC_AM_MAPPER_CACHE
  2
AcAmMapperCache
  3
DesignerAssemblies
 90
    32768
280
     0
281
     0
  0
CLASS
  1
ACAMMVDBACKUPOBJECT
  2
AcAmMVDBackupObject
  3
DesignerAssemblies
 90
    32768
280
     0
281
     0
  0
CLASS
  1
AC_AM_COMP_VIEW_INST
  2
AcAmCompView
  3
DesignerAssemblies
 90
    32768
280
     0
281
     0
  0
CLASS
  1
AC_AM_2D_XREF_MGR
  2
AcAmXrefMgr2d
  3
DesignerAssemblies
 90
    32768
280
     0
281
     0
  0
CLASS
  1
ASAPP
  2
AcAsAppObject
  3
AutoSurfServices
 90
        0
280
     0
281
     0
  0
CLASS
  1
IM_STATIC_MAN
  2
AcImStaticVarManager
  3
AcMeServices
 90
        0
280
     0
281
     0
  0
CLASS
  1
ACIMDBLSTATICVAR
  2
AcImDblStaticVar
  3
AcMeServices
 90
        0
280
     0
281
     0
  0
CLASS
  1
ACIMSTRSTATICVAR
  2
AcImStrStaticVar
  3
AcMeServices
 90
        0
280
     0
281
     0
  0
CLASS
  1
ACIMINTSTATICVAR
  2
AcImIntStaticVar
  3
AcMeServices
 90
        0
280
     0
281
     0
  0
CLASS
  1
ACASGREFMASTER
  2
AcAsGrefMaster
  3
AutoSurfResolverServices
 90
        0
280
     0
281
     0
  0
CLASS
  1
ACADGREFMODULE
  2
AcAdGrefModule
  3
AdGrefServices
 90
        0
280
     0
281
     0
  0
CLASS
  1
AMDTMAPISURFMOUDULE
  2
AmdtMApiSurfModule
  3
MApiSurfServices
 90
        0
280
     0
281
     0
  0
CLASS
  1
MAPIADMODULE
  2
MApiAdModule
  3
MApiAdServices
 90
        0
280
     0
281
     0
  0
CLASS
  1
AMDTEDGESTANDARDISO13715
  2
AmdtEdgeStdISO13715
  3
"Amdt_StdImp|Product Description: AutoCAD Mechanical 2004 DX|Company: Autodesk"
 90
        0
280
     0
281
     0
  0
ENDSEC
  0
SECTION
  2
TABLES
  0
TABLE
  2
VPORT
  5
8
330
0
100
AcDbSymbolTable
 70
    13
  0
VPORT
  5
1300
330
8
100
AcDbSymbolTableRecord
100
AcDbViewportTableRecord
  2
*Active
 70
     0
 10
0.0
 20
0.0
 11
1.0
 21
1.0
 12
-0.0050221714334455
 22
-31.25599867339236
 13
0.0
 23
0.0
 14
2.5
 24
2.5
 15
10.0
 25
10.0
 16
0.0
 26
0.0
 36
1.0
 17
329.2033513376177
 27
293.4058183496227
 37
0.0
 40
242.0559720805941
 41
1.278873239436619
 42
50.0
 43
0.0
 44
0.0
 50
0.0
 51
0.0
 71
     0
 72
   100
 73
     1
 74
     3
 75
     0
 76
     0
 77
     0
 78
     0
281
     0
 65
     0
110
0.0
120
0.0
130
0.0
111
1.0
121
0.0
131
0.0
112
0.0
122
1.0
132
0.0
 79
     0
146
0.0
  0
ENDTAB
  0
TABLE
  2
LTYPE
  5
5
330
0
100
AcDbSymbolTable
 70
    16
  0
LTYPE
  5
14
330
5
100
AcDbSymbolTableRecord
100
AcDbLinetypeTableRecord
  2
ByBlock
 70
     0
  3

 72
    65
 73
     0
 40
0.0
  0
LTYPE
  5
15
330
5
100
AcDbSymbolTableRecord
100
AcDbLinetypeTableRecord
  2
ByLayer
 70
     0
  3

 72
    65
 73
     0
 40
0.0
  0
LTYPE
  5
16
330
5
100
AcDbSymbolTableRecord
100
AcDbLinetypeTableRecord
  2
Continuous
 70
     0
  3
Solid line
 72
    65
 73
     0
 40
0.0
  0
LTYPE
  5
64
330
5
100
AcDbSymbolTableRecord
100
AcDbLinetypeTableRecord
  2
AM_ISO02W050
 70
     0
  3
__ __ __ __ __ __ __ __ __ __ __ __ __ __ __
 72
    65
 73
     2
 40
7.5
 49
6.0
 74
     0
 49
-1.5
 74
     0
  0
LTYPE
  5
65
330
5
100
AcDbSymbolTableRecord
100
AcDbLinetypeTableRecord
  2
AM_ISO08W050
 70
     0
  3
____ . ____ . ____ . ____ . ____ . ____ . ____
 72
    65
 73
     4
 40
18.0
 49
12.0
 74
     0
 49
-1.5
 74
     0
 49
3.0
 74
     0
 49
-1.5
 74
     0
  0
LTYPE
  5
66
330
5
100
AcDbSymbolTableRecord
100
AcDbLinetypeTableRecord
  2
AM_ISO09W050
 70
     0
  3
_____ . . _____ . . _____ . . ____ .. ____
 72
    65
 73
     6
 40
22.5
 49
12.0
 74
     0
 49
-1.5
 74
     0
 49
3.0
 74
     0
 49
-1.5
 74
     0
 49
3.0
 74
     0
 49
-1.5
 74
     0
  0
LTYPE
  5
67
330
5
100
AcDbSymbolTableRecord
100
AcDbLinetypeTableRecord
  2
Amconstr
 70
     0
  3
_______________________
 72
    65
 73
     2
 40
9999.0
 49
9999.0
 74
     0
 49
0.0
 74
     0
  0
LTYPE
  5
68
330
5
100
AcDbSymbolTableRecord
100
AcDbLinetypeTableRecord
  2
AM_ISO08W050x2
 70
     0
  3
__ . __ . __ . __ . __ . __
 72
    65
 73
     4
 40
9.0
 49
6.0
 74
     0
 49
-0.75
 74
     0
 49
1.5
 74
     0
 49
-0.75
 74
     0
  0
LTYPE
  5
69
330
5
100
AcDbSymbolTableRecord
100
AcDbLinetypeTableRecord
  2
AM_ISO02W050x2
 70
     0
  3
 _ _ _ _ _ _ _ _ _ _ _ _
 72
    65
 73
     2
 40
3.75
 49
3.0
 74
     0
 49
-0.75
 74
     0
  0
LTYPE
  5
6C
330
5
100
AcDbSymbolTableRecord
100
AcDbLinetypeTableRecord
  2
Amzigzag
 70
     0
  3
/\/-/\/-/\/-/\/-/\/-/\/
 72
    65
 73
     2
 40
11.0001
 49
0.0001
 74
     4
 75
   135
340
6B
 46
0.04
 50
0.0
 44
0.0
 45
0.0
 49
-11.0
 74
     0
  0
LTYPE
  5
7A
330
5
100
AcDbSymbolTableRecord
100
AcDbLinetypeTableRecord
  2
ACISOWELD
 70
     0
  3
_ _ _ _ _
 72
    65
 73
     2
 40
2.0
 49
2.0
 74
     0
 49
-1.0
 74
     0
  0
LTYPE
  5
7B
330
5
100
AcDbSymbolTableRecord
100
AcDbLinetypeTableRecord
  2
ACISOTGB
 70
     0
  3
__ . . __ . .
 72
    65
 73
     6
 40
9.0
 49
4.0
 74
     0
 49
-1.0
 74
     0
 49
1.0
 74
     0
 49
-1.0
 74
     0
 49
1.0
 74
     0
 49
-1.0
 74
     0
  0
LTYPE
  5
7C
330
5
100
AcDbSymbolTableRecord
100
AcDbLinetypeTableRecord
  2
ACISOTGL
 70
     0
  3
_ _ _ _ _
 72
    65
 73
     2
 40
3.0
 49
2.0
 74
     0
 49
-1.0
 74
     0
  0
LTYPE
  5
7E
330
5
100
AcDbSymbolTableRecord
100
AcDbLinetypeTableRecord
  2
CENTER
 70
     0
  3
__ . __
 72
    65
 73
     4
 40
7.0
 49
4.0
 74
     0
 49
-1.0
 74
     0
 49
1.0
 74
     0
 49
-1.0
 74
     0
  0
LTYPE
  5
D8
330
5
100
AcDbSymbolTableRecord
100
AcDbLinetypeTableRecord
  2
HIDDEN
 70
     0
  3
Hidden __ __ __ __ __ __ __ __ __ __ __ __ __ _
 72
    65
 73
     2
 40
9.524999999999998
 49
6.349999999999999
 74
     0
 49
-3.174999999999999
 74
     0
  0
LTYPE
  5
D9
330
5
100
AcDbSymbolTableRecord
100
AcDbLinetypeTableRecord
  2
PHANTOM2
 70
     0
  3
Phantom (.5x) ___ _ _ ___ _ _ ___ _ _ ___ _ _
 72
    65
 73
     6
 40
31.75
 49
15.875
 74
     0
 49
-3.174999999999999
 74
     0
 49
3.174999999999999
 74
     0
 49
-3.174999999999999
 74
     0
 49
3.174999999999999
 74
     0
 49
-3.174999999999999
 74
     0
  0
ENDTAB
  0
TABLE
  2
LAYER
  5
2
102
{ACAD_XDICTIONARY
360
3F9
102
}
330
0
100
AcDbSymbolTable
 70
    10
  0
LAYER
  5
10
330
2
100
AcDbSymbolTableRecord
100
AcDbLayerTableRecord
  2
0
 70
     0
 62
     7
  6
Continuous
370
    -3
390
F
  0
LAYER
  5
AC8
330
2
100
AcDbSymbolTableRecord
100
AcDbLayerTableRecord
  2
Defpoints
 70
     0
 62
     7
  6
Continuous
290
     0
370
    -3
390
F
  0
LAYER
  5
AC9
330
2
100
AcDbSymbolTableRecord
100
AcDbLayerTableRecord
  2
AM_7
 70
     0
 62
     1
  6
CENTER
370
    25
390
F
  0
LAYER
  5
ACA
330
2
100
AcDbSymbolTableRecord
100
AcDbLayerTableRecord
  2
AM_VIS
 70
     0
 62
     7
  6
Continuous
370
    50
390
F
  0
LAYER
  5
ACB
330
2
100
AcDbSymbolTableRecord
100
AcDbLayerTableRecord
  2
AM_5
 70
     0
 62
     5
  6
Continuous
370
    50
390
F
  0
LAYER
  5
ACC
330
2
100
AcDbSymbolTableRecord
100
AcDbLayerTableRecord
  2
LOGO
 70
     0
 62
     7
  6
Continuous
370
    -3
390
F
  0
LAYER
  5
ACD
330
2
100
AcDbSymbolTableRecord
100
AcDbLayerTableRecord
  2
SL
 70
     0
 62
     4
  6
Continuous
370
    -3
390
F
1001
AcAecLayerStandard
1000

1000

  0
LAYER
  5
1122
330
2
100
AcDbSymbolTableRecord
100
AcDbLayerTableRecord
  2
AM_4
 70
     0
 62
     3
  6
Continuous
370
    25
390
F
  0
ENDTAB
  0
TABLE
  2
STYLE
  5
3
330
0
100
AcDbSymbolTable
 70
     5
  0
STYLE
  5
11
330
3
100
AcDbSymbolTableRecord
100
AcDbTextStyleTableRecord
  2
STANDARD
 70
     0
 40
0.0
 41
1.0
 50
0.0
 71
     0
 42
3.0
  3
ISOCP.SHX
  4
CHINESET.SHX
  0
STYLE
  5
6B
330
3
100
AcDbSymbolTableRecord
100
AcDbTextStyleTableRecord
  2

 70
     1
 40
0.0
 41
1.0
 50
0.0
 71
     0
 42
2.5
  3
ltypeshp.shx
  4

  0
STYLE
  5
6D
330
3
100
AcDbSymbolTableRecord
100
AcDbTextStyleTableRecord
  2
ACISOTS
 70
     0
 40
1.0
 41
1.0
 50
0.0
 71
     0
 42
1.0
  3
isocp.shx
  4
chineset.shx
  0
STYLE
  5
79
330
3
100
AcDbSymbolTableRecord
100
AcDbTextStyleTableRecord
  2
ACISOGDT
 70
     0
 40
0.0
 41
1.0
 50
0.0
 71
     0
 42
2.5
  3
amgdt.shx
  4
chineset.shx
  0
STYLE
  5
ACE
330
3
100
AcDbSymbolTableRecord
100
AcDbTextStyleTableRecord
  2
CHINESET
 70
     0
 40
0.0
 41
1.0
 50
0.0
 71
     0
 42
3.0
  3
simplex.shx
  4
CHINESET.SHX
  0
ENDTAB
  0
TABLE
  2
VIEW
  5
6
330
0
100
AcDbSymbolTable
 70
     0
  0
ENDTAB
  0
TABLE
  2
UCS
  5
7
330
0
100
AcDbSymbolTable
 70
     0
  0
ENDTAB
  0
TABLE
  2
APPID
  5
9
330
0
100
AcDbSymbolTable
 70
    30
  0
APPID
  5
12
330
9
100
AcDbSymbolTableRecord
100
AcDbRegAppTableRecord
  2
ACAD
 70
     0
  0
APPID
  5
46
330
9
100
AcDbSymbolTableRecord
100
AcDbRegAppTableRecord
  2
MCAD_NO_VIS
 70
     0
  0
APPID
  5
47
330
9
100
AcDbSymbolTableRecord
100
AcDbRegAppTableRecord
  2
ACAD_TEMP_GRAPHIC
 70
     0
  0
APPID
  5
58
330
9
100
AcDbSymbolTableRecord
100
AcDbRegAppTableRecord
  2
ACATTRIBSERVICES
 70
     0
  0
APPID
  5
EE
330
9
100
AcDbSymbolTableRecord
100
AcDbRegAppTableRecord
  2
AD_DRAW
 70
     0
  0
APPID
  5
10C
330
9
100
AcDbSymbolTableRecord
100
AcDbRegAppTableRecord
  2
DESIGNERASSEMBLIES
 70
     0
  0
APPID
  5
111
330
9
100
AcDbSymbolTableRecord
100
AcDbRegAppTableRecord
  2
ACADM_DIM_EDIT
 70
     0
  0
APPID
  5
112
330
9
100
AcDbSymbolTableRecord
100
AcDbRegAppTableRecord
  2
AMDT_DM_ADJ
 70
     0
  0
APPID
  5
22C
330
9
100
AcDbSymbolTableRecord
100
AcDbRegAppTableRecord
  2
ACAD_DSTYLE_DIMTEXT_FILL
 70
     0
  0
APPID
  5
452
330
9
100
AcDbSymbolTableRecord
100
AcDbRegAppTableRecord
  2
GENIUS_GENOENT_13
 70
     0
  0
APPID
  5
453
330
9
100
AcDbSymbolTableRecord
100
AcDbRegAppTableRecord
  2
GENIUS_GENOBJ-N-CRS_13
 70
     0
  0
APPID
  5
454
330
9
100
AcDbSymbolTableRecord
100
AcDbRegAppTableRecord
  2
GENIUS_GENOLIS_13
 70
     0
  0
APPID
  5
455
330
9
100
AcDbSymbolTableRecord
100
AcDbRegAppTableRecord
  2
GENIUS_GENODEF_13
 70
     0
  0
APPID
  5
456
330
9
100
AcDbSymbolTableRecord
100
AcDbRegAppTableRecord
  2
GENIUS_GENOREF_13
 70
     0
  0
APPID
  5
6F3
330
9
100
AcDbSymbolTableRecord
100
AcDbRegAppTableRecord
  2
ACAD_PSEXT
 70
     0
  0
APPID
  5
808
330
9
100
AcDbSymbolTableRecord
100
AcDbRegAppTableRecord
  2
GENIUS_GENDTOL_13
 70
     0
  0
APPID
  5
ACF
330
9
100
AcDbSymbolTableRecord
100
AcDbRegAppTableRecord
  2
GENIUS_GENREC_14
 70
     0
  0
APPID
  5
AD0
330
9
100
AcDbSymbolTableRecord
100
AcDbRegAppTableRecord
  2
GENIUS_GENOBJ-N-REC_13
 70
     0
  0
APPID
  5
AD1
330
9
100
AcDbSymbolTableRecord
100
AcDbRegAppTableRecord
  2
AcAecLayerStandard
 70
     0
  0
APPID
  5
10D3
330
9
100
AcDbSymbolTableRecord
100
AcDbRegAppTableRecord
  2
GENIUS_GENOBJ-N-CEN_13
 70
     0
  0
APPID
  5
10D4
330
9
100
AcDbSymbolTableRecord
100
AcDbRegAppTableRecord
  2
GENIUS_GENCEN_19
 70
     0
  0
APPID
  5
1104
330
9
100
AcDbSymbolTableRecord
100
AcDbRegAppTableRecord
  2
GEVID1159932960
 70
     0
  0
APPID
  5
1105
330
9
100
AcDbSymbolTableRecord
100
AcDbRegAppTableRecord
  2
GEVDC
 70
     0
  0
APPID
  5
110E
330
9
100
AcDbSymbolTableRecord
100
AcDbRegAppTableRecord
  2
AMG_2DHIDE
 70
     0
  0
APPID
  5
110F
330
9
100
AcDbSymbolTableRecord
100
AcDbRegAppTableRecord
  2
AMG_2DSTRUCT_BTR
 70
     0
  0
APPID
  5
1120
330
9
100
AcDbSymbolTableRecord
100
AcDbRegAppTableRecord
  2
ACADM_2DVIEW_IGN_NOTIFY
 70
     0
  0
APPID
  5
1192
330
9
100
AcDbSymbolTableRecord
100
AcDbRegAppTableRecord
  2
GENIUS_GENDIM_13
 70
     0
  0
APPID
  5
1193
330
9
100
AcDbSymbolTableRecord
100
AcDbRegAppTableRecord
  2
GENIUS_GE3DTOL_13
 70
     0
  0
APPID
  5
1213
330
9
100
AcDbSymbolTableRecord
100
AcDbRegAppTableRecord
  2
ASURF_PCURVE_APPNAME
 70
     0
  0
APPID
  5
1218
330
9
100
AcDbSymbolTableRecord
100
AcDbRegAppTableRecord
  2
AMG_3D2D_5.0
 70
     0
  0
ENDTAB
  0
TABLE
  2
DIMSTYLE
  5
A
330
0
100
AcDbSymbolTable
 70
     8
100
AcDbDimStyleTable
 71
     3
340
81
340
8B
340
86
  0
DIMSTYLE
105
81
330
A
100
AcDbSymbolTableRecord
100
AcDbDimStyleTableRecord
  2
AM_ISO
 70
     0
  4
"
 41
3.0
 42
1.0
 43
8.0
 44
1.5
 47
0.1
 48
0.1
 73
     0
 74
     0
 77
     1
 78
     8
 79
     2
140
3.5
141
0.0
143
0.0393701
146
0.6
147
0.7
172
     1
176
   256
177
   256
178
   256
271
     2
272
     2
283
     0
284
     8
340
11
371
    -1
372
    -1
  0
DIMSTYLE
105
82
330
A
100
AcDbSymbolTableRecord
100
AcDbDimStyleTableRecord
  2
AM_ISO$3
 70
     0
  4
"
 41
3.0
 42
1.0
 43
8.0
 44
1.5
 47
0.1
 48
0.1
 73
     0
 77
     1
 78
     8
 79
     2
140
3.5
141
0.0
143
0.0393701
146
0.6
147
0.7
176
   256
177
   256
178
   256
271
     2
272
     2
283
     0
284
     8
288
     1
289
     0
340
11
371
    -1
372
    -1
  0
DIMSTYLE
105
83
330
A
100
AcDbSymbolTableRecord
100
AcDbDimStyleTableRecord
  2
AM_ISO$4
 70
     0
  4
"
 41
3.0
 42
1.0
 43
8.0
 44
1.5
 47
0.1
 48
0.1
 73
     0
 77
     1
 78
     8
 79
     2
140
3.5
141
0.0
143
0.0393701
146
0.6
147
0.7
176
   256
177
   256
178
   256
271
     2
272
     2
283
     0
284
     8
288
     1
289
     0
340
11
371
    -1
372
    -1
  0
DIMSTYLE
105
84
330
A
100
AcDbSymbolTableRecord
100
AcDbDimStyleTableRecord
  2
AM_ISO$6
 70
     0
  4
"
 41
3.0
 42
1.0
 43
8.0
 44
1.5
 47
0.1
 48
0.1
 73
     0
 74
     0
 78
     8
 79
     2
140
3.5
141
0.0
143
0.0393701
146
0.6
147
0.7
172
     1
176
   256
177
   256
178
   256
271
     2
272
     2
283
     0
284
     8
340
11
371
    -1
372
    -1
  0
DIMSTYLE
105
85
330
A
100
AcDbSymbolTableRecord
100
AcDbDimStyleTableRecord
  2
AM_ISO$7
 70
     0
  4
"
 41
3.0
 42
1.0
 43
8.0
 44
1.5
 47
0.1
 48
0.1
 73
     0
 74
     0
 77
     1
 78
     8
 79
     2
140
5.0
141
0.0
143
0.0393701
146
0.6
147
0.7
172
     1
176
   256
177
   256
178
   256
271
     2
272
     2
283
     0
284
     8
340
11
371
    -1
372
    -1
  0
DIMSTYLE
105
86
330
A
100
AcDbSymbolTableRecord
100
AcDbDimStyleTableRecord
  2
AM_ISO$SF
 70
     0
  4
"
 41
2.5
 42
1.0
 43
10.0
 44
1.0
 47
0.1
 48
0.1
 73
     0
 74
     0
 75
     1
 76
     1
 77
     1
 78
     8
 79
     2
140
3.5
141
0.0
143
0.0393701
146
0.71
147
1.5
172
     1
176
   256
177
   256
178
     2
271
     2
272
     3
274
     4
283
     0
284
     8
340
11
371
    -1
372
    -1
  0
DIMSTYLE
105
8B
330
A
100
AcDbSymbolTableRecord
100
AcDbDimStyleTableRecord
  2
AM_ISO$SH
 70
     0
  4
"
 41
2.5
 42
1.0
 43
10.0
 44
1.0
 47
0.1
 48
0.1
 73
     0
 74
     0
 75
     1
 76
     1
 77
     1
 78
     8
 79
     2
140
3.5
141
0.0
143
0.0393701
144
2.0
146
0.71
147
1.5
172
     1
173
     1
176
   256
177
   256
178
     2
271
     2
272
     3
274
     4
283
     0
284
     8
340
11
343
87
371
    -1
372
    -1
  0
DIMSTYLE
105
40B
102
{ACAD_REACTORS
330
F31
330
F34
330
F37
330
F3A
330
F3D
330
F40
330
F45
330
F48
330
F4B
102
}
330
A
100
AcDbSymbolTableRecord
100
AcDbDimStyleTableRecord
  2
AM_ISO$0
 70
     0
  4
"
 41
3.0
 42
1.0
 43
8.0
 44
1.5
 47
0.1
 48
0.1
 73
     0
 74
     0
 77
     1
 78
     8
 79
     2
140
3.5
141
0.0
143
0.0393701
146
0.6
147
0.7
172
     1
176
   256
177
   256
178
   256
271
     2
272
     2
283
     0
284
     8
340
11
371
    -1
372
    -1
  0
ENDTAB
  0
TABLE
  2
BLOCK_RECORD
  5
1
330
0
100
AcDbSymbolTable
 70
    16
  0
BLOCK_RECORD
  5
1F
102
{ACAD_XDICTIONARY
360
8F
102
}
330
1
100
AcDbSymbolTableRecord
100
AcDbBlockTableRecord
  2
*Model_Space
340
22
  0
BLOCK_RECORD
  5
1B
330
1
100
AcDbSymbolTableRecord
100
AcDbBlockTableRecord
  2
*Paper_Space
340
1E
  0
BLOCK_RECORD
  5
23
330
1
100
AcDbSymbolTableRecord
100
AcDbBlockTableRecord
  2
*Paper_Space0
340
26
  0
BLOCK_RECORD
  5
87
330
1
100
AcDbSymbolTableRecord
100
AcDbBlockTableRecord
  2
GENAXEH
340
0
  0
BLOCK_RECORD
  5
AB9
102
{ACAD_XDICTIONARY
360
ABA
102
}
330
1
100
AcDbSymbolTableRecord
100
AcDbBlockTableRecord
  2
A$C6EA13D03
340
0
102
{BLKREFS
331
F4E
102
}
  0
BLOCK_RECORD
  5
FF3
330
1
100
AcDbSymbolTableRecord
100
AcDbBlockTableRecord
  2
*D4
340
0
  0
BLOCK_RECORD
  5
FFF
330
1
100
AcDbSymbolTableRecord
100
AcDbBlockTableRecord
  2
*D5
340
0
  0
BLOCK_RECORD
  5
100B
330
1
100
AcDbSymbolTableRecord
100
AcDbBlockTableRecord
  2
*D6
340
0
  0
BLOCK_RECORD
  5
1017
330
1
100
AcDbSymbolTableRecord
100
AcDbBlockTableRecord
  2
*D7
340
0
  0
BLOCK_RECORD
  5
1023
330
1
100
AcDbSymbolTableRecord
100
AcDbBlockTableRecord
  2
*D8
340
0
  0
BLOCK_RECORD
  5
102F
330
1
100
AcDbSymbolTableRecord
100
AcDbBlockTableRecord
  2
*D9
340
0
  0
BLOCK_RECORD
  5
103B
330
1
100
AcDbSymbolTableRecord
100
AcDbBlockTableRecord
  2
*D10
340
0
  0
BLOCK_RECORD
  5
1047
330
1
100
AcDbSymbolTableRecord
100
AcDbBlockTableRecord
  2
*D11
340
0
  0
BLOCK_RECORD
  5
1053
330
1
100
AcDbSymbolTableRecord
100
AcDbBlockTableRecord
  2
*D12
340
0
  0
BLOCK_RECORD
  5
116F
330
1
100
AcDbSymbolTableRecord
100
AcDbBlockTableRecord
  2
*S13
340
0
102
{BLKREFS
331
1071
102
}
  0
BLOCK_RECORD
  5
1177
330
1
100
AcDbSymbolTableRecord
100
AcDbBlockTableRecord
  2
*S14
340
0
102
{BLKREFS
331
1085
102
}
  0
ENDTAB
  0
ENDSEC
  0
SECTION
  2
BLOCKS
  0
BLOCK
  5
20
330
1F
100
AcDbEntity
  8
0
100
AcDbBlockBegin
  2
*Model_Space
 70
     0
 10
0.0
 20
0.0
 30
0.0
  3
*Model_Space
  1

  0
ENDBLK
  5
21
330
1F
100
AcDbEntity
  8
0
100
AcDbBlockEnd
  0
BLOCK
  5
1C
330
1B
100
AcDbEntity
 67
     1
  8
0
100
AcDbBlockBegin
  2
*Paper_Space
 70
     0
 10
0.0
 20
0.0
 30
0.0
  3
*Paper_Space
  1

  0
ENDBLK
  5
1D
330
1B
100
AcDbEntity
 67
     1
  8
0
100
AcDbBlockEnd
  0
BLOCK
  5
24
330
23
100
AcDbEntity
  8
0
100
AcDbBlockBegin
  2
*Paper_Space0
 70
     0
 10
0.0
 20
0.0
 30
0.0
  3
*Paper_Space0
  1

  0
ENDBLK
  5
25
330
23
100
AcDbEntity
  8
0
100
AcDbBlockEnd
  0
BLOCK
  5
89
330
87
100
AcDbEntity
  8
0
100
AcDbBlockBegin
  2
GENAXEH
 70
     0
 10
0.0
 20
0.0
 30
0.0
  3
GENAXEH
  1

  0
LINE
  5
88
330
87
100
AcDbEntity
  8
0
100
AcDbLine
 10
-1.0
 20
0.0
 30
0.0
 11
1.0
 21
0.0
 31
0.0
  0
ENDBLK
  5
8A
330
87
100
AcDbEntity
  8
0
100
AcDbBlockEnd
  0
BLOCK
  5
ABB
330
AB9
100
AcDbEntity
  8
0
100
AcDbBlockBegin
  2
A$C6EA13D03
 70
     0
 10
0.0
 20
0.0
 30
0.0
  3
A$C6EA13D03
  1

  0
CIRCLE
  5
ABC
330
AB9
100
AcDbEntity
  8
0
100
AcDbCircle
 10
-1.67871680252756
 20
1.553735836091391
 30
0.0
 40
0.5114189482687835
  0
CIRCLE
  5
ABD
330
AB9
100
AcDbEntity
  8
0
100
AcDbCircle
 10
-1.67871680252756
 20
1.553735836091391
 30
0.0
 40
0.8573095028873467
  0
ENDBLK
  5
ABE
330
AB9
100
AcDbEntity
  8
0
100
AcDbBlockEnd
  0
BLOCK
  5
FFD
330
FF3
100
AcDbEntity
  8
0
100
AcDbBlockBegin
  2
*D4
 70
     1
 10
0.0
 20
0.0
 30
0.0
  3
*D4
  1

  0
LINE
  5
FF4
330
FF3
100
AcDbEntity
  8
AM_5
100
AcDbLine
 10
311.7611815107285
 20
295.9941551007765
 30
0.0
 11
297.8107215751385
 21
295.9941551007765
 31
0.0
  0
LINE
  5
FF5
330
FF3
100
AcDbEntity
  8
AM_5
100
AcDbLine
 10
311.7611815107285
 20
279.9941551007766
 30
0.0
 11
297.8107215751385
 21
279.9941551007766
 31
0.0
  0
LINE
  5
FF6
330
FF3
100
AcDbEntity
  8
AM_5
100
AcDbLine
 10
299.3107215751385
 20
292.9941551007765
 30
0.0
 11
299.3107215751385
 21
282.9941551007765
 31
0.0
  0
SOLID
  5
FF7
330
FF3
100
AcDbEntity
  8
AM_5
100
AcDbTrace
 10
298.8107215751385
 20
292.9941551007765
 30
0.0
 11
299.8107215751385
 21
292.9941551007765
 31
0.0
 12
299.3107215751385
 22
295.9941551007765
 32
0.0
 13
299.3107215751385
 23
295.9941551007765
 33
0.0
  0
SOLID
  5
FF8
330
FF3
100
AcDbEntity
  8
AM_5
100
AcDbTrace
 10
298.8107215751385
 20
282.9941551007765
 30
0.0
 11
299.8107215751385
 21
282.9941551007765
 31
0.0
 12
299.3107215751385
 22
279.9941551007766
 32
0.0
 13
299.3107215751385
 23
279.9941551007766
 33
0.0
  0
MTEXT
  5
FF9
330
FF3
100
AcDbEntity
  8
AM_5
100
AcDbMText
 10
296.8607215751384
 20
287.9941551007766
 30
0.0
 40
3.5
 41
0.0
 71
     5
 72
     1
  1
16
 11
0.0000000000000001
 21
1.0
 31
0.0
 73
     1
 44
1.0
1001
ACAD
1000
MTEXTBEGIN
1070
    73
1070
     1
1070
    44
1040
1.0
1070
    74
1070
     0
1000
MTEXTEND
  0
POINT
  5
FFA
330
FF3
100
AcDbEntity
  8
Defpoints
 62
     0
100
AcDbPoint
 10
312.7611815107286
 20
295.9941551007765
 30
0.0
  0
POINT
  5
FFB
330
FF3
100
AcDbEntity
  8
Defpoints
 62
     0
100
AcDbPoint
 10
312.7611815107286
 20
279.9941551007766
 30
0.0
  0
POINT
  5
FFC
330
FF3
100
AcDbEntity
  8
Defpoints
 62
     0
100
AcDbPoint
 10
299.3107215751385
 20
279.9941551007766
 30
0.0
  0
ENDBLK
  5
FFE
330
FF3
100
AcDbEntity
  8
0
100
AcDbBlockEnd
  0
BLOCK
  5
1009
330
FFF
100
AcDbEntity
  8
0
100
AcDbBlockBegin
  2
*D5
 70
     1
 10
0.0
 20
0.0
 30
0.0
  3
*D5
  1

  0
LINE
  5
1000
330
FFF
100
AcDbEntity
  8
AM_5
100
AcDbLine
 10
306.0111815107285
 20
313.4941551007766
 30
0.0
 11
290.8107215751385
 21
313.4941551007766
 31
0.0
  0
LINE
  5
1001
330
FFF
100
AcDbEntity
  8
AM_5
100
AcDbLine
 10
306.0111815107285
 20
264.4941551007765
 30
0.0
 11
290.8107215751385
 21
264.4941551007765
 31
0.0
  0
LINE
  5
1002
330
FFF
100
AcDbEntity
  8
AM_5
100
AcDbLine
 10
292.3107215751385
 20
310.4941551007765
 30
0.0
 11
292.3107215751385
 21
267.4941551007766
 31
0.0
  0
SOLID
  5
1003
330
FFF
100
AcDbEntity
  8
AM_5
100
AcDbTrace
 10
291.8107215751385
 20
310.4941551007765
 30
0.0
 11
292.8107215751385
 21
310.4941551007765
 31
0.0
 12
292.3107215751385
 22
313.4941551007766
 32
0.0
 13
292.3107215751385
 23
313.4941551007766
 33
0.0
  0
SOLID
  5
1004
330
FFF
100
AcDbEntity
  8
AM_5
100
AcDbTrace
 10
291.8107215751385
 20
267.4941551007766
 30
0.0
 11
292.8107215751385
 21
267.4941551007766
 31
0.0
 12
292.3107215751385
 22
264.4941551007765
 32
0.0
 13
292.3107215751385
 23
264.4941551007765
 33
0.0
  0
MTEXT
  5
1005
330
FFF
100
AcDbEntity
  8
AM_5
100
AcDbMText
 10
289.8607215751384
 20
288.9941551007766
 30
0.0
 40
3.5
 41
0.0
 71
     5
 72
     1
  1
49
 11
0.0000000000000001
 21
1.0
 31
0.0
 73
     1
 44
1.0
1001
ACAD
1000
MTEXTBEGIN
1070
    73
1070
     1
1070
    44
1040
1.0
1070
    74
1070
     0
1000
MTEXTEND
  0
POINT
  5
1006
330
FFF
100
AcDbEntity
  8
Defpoints
 62
     0
100
AcDbPoint
 10
307.0111815107285
 20
313.4941551007766
 30
0.0
  0
POINT
  5
1007
330
FFF
100
AcDbEntity
  8
Defpoints
 62
     0
100
AcDbPoint
 10
307.0111815107285
 20
264.4941551007765
 30
0.0
  0
POINT
  5
1008
330
FFF
100
AcDbEntity
  8
Defpoints
 62
     0
100
AcDbPoint
 10
292.3107215751385
 20
264.4941551007765
 30
0.0
  0
ENDBLK
  5
100A
330
FFF
100
AcDbEntity
  8
0
100
AcDbBlockEnd
  0
BLOCK
  5
1015
330
100B
100
AcDbEntity
  8
0
100
AcDbBlockBegin
  2
*D6
 70
     1
 10
0.0
 20
0.0
 30
0.0
  3
*D6
  1

  0
LINE
  5
12ED
330
100B
100
AcDbEntity
  8
AM_5
100
AcDbLine
 10
307.0111815107285
 20
263.4941551007766
 30
0.0
 11
307.0111815107285
 21
250.9941551007766
 31
0.0
  0
LINE
  5
12EE
330
100B
100
AcDbEntity
  8
AM_5
100
AcDbLine
 10
316.0111815107285
 20
275.7441551007765
 30
0.0
 11
316.0111815107285
 21
250.9941551007766
 31
0.0
  0
LINE
  5
12EF
330
100B
100
AcDbEntity
  8
AM_5
100
AcDbLine
 10
310.0111815107285
 20
252.4941551007765
 30
0.0
 11
313.0111815107285
 21
252.4941551007765
 31
0.0
  0
SOLID
  5
12F0
330
100B
100
AcDbEntity
  8
AM_5
100
AcDbTrace
 10
310.0111815107285
 20
252.9941551007766
 30
0.0
 11
310.0111815107285
 21
251.9941551007765
 31
0.0
 12
307.0111815107285
 22
252.4941551007765
 32
0.0
 13
307.0111815107285
 23
252.4941551007765
 33
0.0
  0
SOLID
  5
12F1
330
100B
100
AcDbEntity
  8
AM_5
100
AcDbTrace
 10
313.0111815107285
 20
252.9941551007766
 30
0.0
 11
313.0111815107285
 21
251.9941551007765
 31
0.0
 12
316.0111815107285
 22
252.4941551007765
 32
0.0
 13
316.0111815107285
 23
252.4941551007765
 33
0.0
  0
MTEXT
  5
12F2
330
100B
100
AcDbEntity
  8
AM_5
100
AcDbMText
 10
311.5111815107285
 20
254.9441551007765
 30
0.0
 40
3.5
 41
0.0
 71
     5
 72
     1
  1
9
 73
     1
 44
1.0
1001
ACAD
1000
MTEXTBEGIN
1070
    73
1070
     1
1070
    44
1040
1.0
1070
    74
1070
     0
1000
MTEXTEND
  0
POINT
  5
12F3
330
100B
100
AcDbEntity
  8
Defpoints
 62
     0
100
AcDbPoint
 10
307.0111815107285
 20
264.4941551007765
 30
0.0
  0
POINT
  5
12F4
330
100B
100
AcDbEntity
  8
Defpoints
 62
     0
100
AcDbPoint
 10
316.0111815107285
 20
276.7441551007765
 30
0.0
  0
POINT
  5
12F5
330
100B
100
AcDbEntity
  8
Defpoints
 62
     0
100
AcDbPoint
 10
316.0111815107285
 20
252.4941551007765
 30
0.0
  0
ENDBLK
  5
1016
330
100B
100
AcDbEntity
  8
0
100
AcDbBlockEnd
  0
BLOCK
  5
1021
330
1017
100
AcDbEntity
  8
0
100
AcDbBlockBegin
  2
*D7
 70
     1
 10
0.0
 20
0.0
 30
0.0
  3
*D7
  1

  0
LINE
  5
12E4
330
1017
100
AcDbEntity
  8
AM_5
100
AcDbLine
 10
355.5111815107285
 20
263.4941551007766
 30
0.0
 11
355.5111815107285
 21
250.9941551007766
 31
0.0
  0
LINE
  5
12E5
330
1017
100
AcDbEntity
  8
AM_5
100
AcDbLine
 10
346.5111815107285
 20
275.7441551007765
 30
0.0
 11
346.5111815107285
 21
250.9941551007766
 31
0.0
  0
LINE
  5
12E6
330
1017
100
AcDbEntity
  8
AM_5
100
AcDbLine
 10
352.5111815107285
 20
252.4941551007765
 30
0.0
 11
349.5111815107285
 21
252.4941551007765
 31
0.0
  0
SOLID
  5
12E7
330
1017
100
AcDbEntity
  8
AM_5
100
AcDbTrace
 10
352.5111815107285
 20
252.9941551007766
 30
0.0
 11
352.5111815107285
 21
251.9941551007765
 31
0.0
 12
355.5111815107285
 22
252.4941551007765
 32
0.0
 13
355.5111815107285
 23
252.4941551007765
 33
0.0
  0
SOLID
  5
12E8
330
1017
100
AcDbEntity
  8
AM_5
100
AcDbTrace
 10
349.5111815107285
 20
252.9941551007766
 30
0.0
 11
349.5111815107285
 21
251.9941551007765
 31
0.0
 12
346.5111815107285
 22
252.4941551007765
 32
0.0
 13
346.5111815107285
 23
252.4941551007765
 33
0.0
  0
MTEXT
  5
12E9
330
1017
100
AcDbEntity
  8
AM_5
100
AcDbMText
 10
351.0111815107285
 20
254.9441551007765
 30
0.0
 40
3.5
 41
0.0
 71
     5
 72
     1
  1
9
 73
     1
 44
1.0
1001
ACAD
1000
MTEXTBEGIN
1070
    73
1070
     1
1070
    44
1040
1.0
1070
    74
1070
     0
1000
MTEXTEND
  0
POINT
  5
12EA
330
1017
100
AcDbEntity
  8
Defpoints
 62
     0
100
AcDbPoint
 10
355.5111815107285
 20
264.4941551007765
 30
0.0
  0
POINT
  5
12EB
330
1017
100
AcDbEntity
  8
Defpoints
 62
     0
100
AcDbPoint
 10
346.5111815107285
 20
276.7441551007765
 30
0.0
  0
POINT
  5
12EC
330
1017
100
AcDbEntity
  8
Defpoints
 62
     0
100
AcDbPoint
 10
346.5111815107285
 20
252.4941551007765
 30
0.0
  0
ENDBLK
  5
1022
330
1017
100
AcDbEntity
  8
0
100
AcDbBlockEnd
  0
BLOCK
  5
102D
330
1023
100
AcDbEntity
  8
0
100
AcDbBlockBegin
  2
*D8
 70
     1
 10
0.0
 20
0.0
 30
0.0
  3
*D8
  1

  0
LINE
  5
115A
330
1023
100
AcDbEntity
  8
AM_5
100
AcDbLine
 10
257.5614767502136
 20
304.4941551007765
 30
0.0
 11
246.0614767502136
 21
304.4941551007765
 31
0.0
  0
LINE
  5
115B
330
1023
100
AcDbEntity
  8
AM_5
100
AcDbLine
 10
257.6474767502134
 20
271.4941551007765
 30
0.0
 11
246.0614767502136
 21
271.4941551007765
 31
0.0
  0
LINE
  5
115C
330
1023
100
AcDbEntity
  8
AM_5
100
AcDbLine
 10
247.5614767502136
 20
301.4941551007765
 30
0.0
 11
247.5614767502136
 21
274.4941551007765
 31
0.0
  0
SOLID
  5
115D
330
1023
100
AcDbEntity
  8
AM_5
100
AcDbTrace
 10
247.0614767502136
 20
301.4941551007765
 30
0.0
 11
248.0614767502136
 21
301.4941551007765
 31
0.0
 12
247.5614767502136
 22
304.4941551007765
 32
0.0
 13
247.5614767502136
 23
304.4941551007765
 33
0.0
  0
SOLID
  5
115E
330
1023
100
AcDbEntity
  8
AM_5
100
AcDbTrace
 10
247.0614767502136
 20
274.4941551007765
 30
0.0
 11
248.0614767502136
 21
274.4941551007765
 31
0.0
 12
247.5614767502136
 22
271.4941551007765
 32
0.0
 13
247.5614767502136
 23
271.4941551007765
 33
0.0
  0
MTEXT
  5
115F
330
1023
100
AcDbEntity
  8
AM_5
100
AcDbMText
 10
245.1114767502136
 20
287.9941551007766
 30
0.0
 40
3.5
 41
0.0
 71
     5
 72
     1
  1
33
 11
0.0000000000000001
 21
1.0
 31
0.0
 73
     1
 44
1.0
1001
ACAD
1000
MTEXTBEGIN
1070
    73
1070
     1
1070
    44
1040
1.0
1070
    74
1070
     0
1000
MTEXTEND
  0
POINT
  5
1160
330
1023
100
AcDbEntity
  8
Defpoints
 62
     0
100
AcDbPoint
 10
258.5614767502136
 20
304.4941551007765
 30
0.0
  0
POINT
  5
1161
330
1023
100
AcDbEntity
  8
Defpoints
 62
     0
100
AcDbPoint
 10
258.6474767502134
 20
271.4941551007765
 30
0.0
  0
POINT
  5
1162
330
1023
100
AcDbEntity
  8
Defpoints
 62
     0
100
AcDbPoint
 10
247.5614767502136
 20
271.4941551007765
 30
0.0
  0
ENDBLK
  5
102E
330
1023
100
AcDbEntity
  8
0
100
AcDbBlockEnd
  0
BLOCK
  5
1039
330
102F
100
AcDbEntity
  8
0
100
AcDbBlockBegin
  2
*D9
 70
     1
 10
0.0
 20
0.0
 30
0.0
  3
*D9
  1

  0
LINE
  5
10B0
330
102F
100
AcDbEntity
  8
AM_5
100
AcDbLine
 10
253.0114767502136
 20
263.7941551007767
 30
0.0
 11
253.0114767502136
 21
246.2921942583113
 31
0.0
  0
LINE
  5
10B1
330
102F
100
AcDbEntity
  8
AM_5
100
AcDbLine
 10
273.0114767502136
 20
263.4941551007766
 30
0.0
 11
273.0114767502136
 21
246.2921942583113
 31
0.0
  0
LINE
  5
10B2
330
102F
100
AcDbEntity
  8
AM_5
100
AcDbLine
 10
256.0114767502136
 20
247.7921942583113
 30
0.0
 11
270.0114767502136
 21
247.7921942583113
 31
0.0
  0
SOLID
  5
10B3
330
102F
100
AcDbEntity
  8
AM_5
100
AcDbTrace
 10
256.0114767502136
 20
248.2921942583113
 30
0.0
 11
256.0114767502136
 21
247.2921942583113
 31
0.0
 12
253.0114767502136
 22
247.7921942583113
 32
0.0
 13
253.0114767502136
 23
247.7921942583113
 33
0.0
  0
SOLID
  5
10B4
330
102F
100
AcDbEntity
  8
AM_5
100
AcDbTrace
 10
270.0114767502136
 20
248.2921942583113
 30
0.0
 11
270.0114767502136
 21
247.2921942583113
 31
0.0
 12
273.0114767502136
 22
247.7921942583113
 32
0.0
 13
273.0114767502136
 23
247.7921942583113
 33
0.0
  0
MTEXT
  5
10B5
330
102F
100
AcDbEntity
  8
AM_5
100
AcDbMText
 10
263.0114767502136
 20
250.2425387465002
 30
0.0
 40
3.5
 41
0.0
 71
     5
 72
     1
  1
20
 73
     1
 44
1.0
1001
ACAD
1000
MTEXTBEGIN
1070
    73
1070
     1
1070
    44
1040
1.0
1070
    74
1070
     0
1000
MTEXTEND
  0
POINT
  5
10B6
330
102F
100
AcDbEntity
  8
Defpoints
 62
     0
100
AcDbPoint
 10
253.0114767502136
 20
264.7941551007767
 30
0.0
  0
POINT
  5
10B7
330
102F
100
AcDbEntity
  8
Defpoints
 62
     0
100
AcDbPoint
 10
273.0114767502136
 20
264.4941551007765
 30
0.0
  0
POINT
  5
10B8
330
102F
100
AcDbEntity
  8
Defpoints
 62
     0
100
AcDbPoint
 10
273.0114767502136
 20
247.7921942583113
 30
0.0
  0
ENDBLK
  5
103A
330
102F
100
AcDbEntity
  8
0
100
AcDbBlockEnd
  0
BLOCK
  5
1045
330
103B
100
AcDbEntity
  8
0
100
AcDbBlockBegin
  2
*D10
 70
     1
 10
0.0
 20
0.0
 30
0.0
  3
*D10
  1

  0
LINE
  5
1148
330
103B
100
AcDbEntity
  8
AM_5
100
AcDbLine
 10
253.0114767502136
 20
263.7941551007767
 30
0.0
 11
253.0114767502136
 21
253.2921942583113
 31
0.0
  0
LINE
  5
1149
330
103B
100
AcDbEntity
  8
AM_5
100
AcDbLine
 10
265.5114767502134
 20
263.6301551007766
 30
0.0
 11
265.5114767502134
 21
253.2921942583113
 31
0.0
  0
LINE
  5
114A
330
103B
100
AcDbEntity
  8
AM_5
100
AcDbLine
 10
256.0114767502136
 20
254.7921942583112
 30
0.0
 11
262.5114767502134
 21
254.7921942583112
 31
0.0
  0
SOLID
  5
114B
330
103B
100
AcDbEntity
  8
AM_5
100
AcDbTrace
 10
256.0114767502136
 20
255.2921942583113
 30
0.0
 11
256.0114767502136
 21
254.2921942583113
 31
0.0
 12
253.0114767502136
 22
254.7921942583112
 32
0.0
 13
253.0114767502136
 23
254.7921942583112
 33
0.0
  0
SOLID
  5
114C
330
103B
100
AcDbEntity
  8
AM_5
100
AcDbTrace
 10
262.5114767502134
 20
255.2921942583113
 30
0.0
 11
262.5114767502134
 21
254.2921942583113
 31
0.0
 12
265.5114767502134
 22
254.7921942583112
 32
0.0
 13
265.5114767502134
 23
254.7921942583112
 33
0.0
  0
MTEXT
  5
114D
330
103B
100
AcDbEntity
  8
AM_5
100
AcDbMText
 10
259.2614767502135
 20
257.2425387465003
 30
0.0
 40
3.5
 41
0.0
 71
     5
 72
     1
  1
12.5
 73
     1
 44
1.0
1001
ACAD
1000
MTEXTBEGIN
1070
    73
1070
     1
1070
    44
1040
1.0
1070
    74
1070
     0
1000
MTEXTEND
  0
POINT
  5
114E
330
103B
100
AcDbEntity
  8
Defpoints
 62
     0
100
AcDbPoint
 10
253.0114767502136
 20
264.7941551007767
 30
0.0
  0
POINT
  5
114F
330
103B
100
AcDbEntity
  8
Defpoints
 62
     0
100
AcDbPoint
 10
265.5114767502134
 20
264.6301551007766
 30
0.0
  0
POINT
  5
1150
330
103B
100
AcDbEntity
  8
Defpoints
 62
     0
100
AcDbPoint
 10
265.5114767502134
 20
254.7921942583112
 30
0.0
  0
ENDBLK
  5
1046
330
103B
100
AcDbEntity
  8
0
100
AcDbBlockEnd
  0
BLOCK
  5
1051
330
1047
100
AcDbEntity
  8
0
100
AcDbBlockBegin
  2
*D11
 70
     1
 10
0.0
 20
0.0
 30
0.0
  3
*D11
  1

  0
LINE
  5
12DB
330
1047
100
AcDbEntity
  8
AM_5
100
AcDbLine
 10
346.5111815107285
 20
274.7441551007765
 30
0.0
 11
346.5111815107285
 21
250.9941551007766
 31
0.0
  0
LINE
  5
12DC
330
1047
100
AcDbEntity
  8
AM_5
100
AcDbLine
 10
316.0111815107285
 20
275.7441551007765
 30
0.0
 11
316.0111815107285
 21
250.9941551007766
 31
0.0
  0
LINE
  5
12DD
330
1047
100
AcDbEntity
  8
AM_5
100
AcDbLine
 10
343.5111815107285
 20
252.4941551007765
 30
0.0
 11
319.0111815107286
 21
252.4941551007765
 31
0.0
  0
SOLID
  5
12DE
330
1047
100
AcDbEntity
  8
AM_5
100
AcDbTrace
 10
343.5111815107285
 20
252.9941551007766
 30
0.0
 11
343.5111815107285
 21
251.9941551007765
 31
0.0
 12
346.5111815107285
 22
252.4941551007765
 32
0.0
 13
346.5111815107285
 23
252.4941551007765
 33
0.0
  0
SOLID
  5
12DF
330
1047
100
AcDbEntity
  8
AM_5
100
AcDbTrace
 10
319.0111815107286
 20
252.9941551007766
 30
0.0
 11
319.0111815107286
 21
251.9941551007765
 31
0.0
 12
316.0111815107285
 22
252.4941551007765
 32
0.0
 13
316.0111815107285
 23
252.4941551007765
 33
0.0
  0
MTEXT
  5
12E0
330
1047
100
AcDbEntity
  8
AM_5
100
AcDbMText
 10
331.2611815107285
 20
254.9441551007765
 30
0.0
 40
3.5
 41
0.0
 71
     5
 72
     1
  1
P
 73
     1
 44
1.0
1001
ACAD
1000
MTEXTBEGIN
1070
    73
1070
     1
1070
    44
1040
1.0
1070
    74
1070
     0
1000
MTEXTEND
  0
POINT
  5
12E1
330
1047
100
AcDbEntity
  8
Defpoints
 62
     0
100
AcDbPoint
 10
346.5111815107285
 20
275.7441551007765
 30
0.0
  0
POINT
  5
12E2
330
1047
100
AcDbEntity
  8
Defpoints
 62
     0
100
AcDbPoint
 10
316.0111815107285
 20
276.7441551007765
 30
0.0
  0
POINT
  5
12E3
330
1047
100
AcDbEntity
  8
Defpoints
 62
     0
100
AcDbPoint
 10
316.0111815107285
 20
252.4941551007765
 30
0.0
  0
ENDBLK
  5
1052
330
1047
100
AcDbEntity
  8
0
100
AcDbBlockEnd
  0
BLOCK
  5
105D
330
1053
100
AcDbEntity
  8
0
100
AcDbBlockBegin
  2
*D12
 70
     1
 10
0.0
 20
0.0
 30
0.0
  3
*D12
  1

  0
LINE
  5
12D2
330
1053
100
AcDbEntity
  8
AM_5
100
AcDbLine
 10
355.5111815107285
 20
263.4941551007766
 30
0.0
 11
355.5111815107285
 21
242.9941551007765
 31
0.0
  0
LINE
  5
12D3
330
1053
100
AcDbEntity
  8
AM_5
100
AcDbLine
 10
307.0111815107285
 20
263.4941551007766
 30
0.0
 11
307.0111815107285
 21
242.9941551007765
 31
0.0
  0
LINE
  5
12D4
330
1053
100
AcDbEntity
  8
AM_5
100
AcDbLine
 10
352.5111815107285
 20
244.4941551007765
 30
0.0
 11
310.0111815107285
 21
244.4941551007765
 31
0.0
  0
SOLID
  5
12D5
330
1053
100
AcDbEntity
  8
AM_5
100
AcDbTrace
 10
352.5111815107285
 20
244.9941551007766
 30
0.0
 11
352.5111815107285
 21
243.9941551007765
 31
0.0
 12
355.5111815107285
 22
244.4941551007765
 32
0.0
 13
355.5111815107285
 23
244.4941551007765
 33
0.0
  0
SOLID
  5
12D6
330
1053
100
AcDbEntity
  8
AM_5
100
AcDbTrace
 10
310.0111815107285
 20
244.9941551007766
 30
0.0
 11
310.0111815107285
 21
243.9941551007765
 31
0.0
 12
307.0111815107285
 22
244.4941551007765
 32
0.0
 13
307.0111815107285
 23
244.4941551007765
 33
0.0
  0
MTEXT
  5
12D7
330
1053
100
AcDbEntity
  8
AM_5
100
AcDbMText
 10
328.7698225871228
 20
246.9441551007765
 30
0.0
 40
3.5
 41
0.0
 71
     5
 72
     1
  1
L
 73
     1
 44
1.0
1001
ACAD
1000
MTEXTBEGIN
1070
    73
1070
     1
1070
    44
1040
1.0
1070
    74
1070
     0
1000
MTEXTEND
  0
POINT
  5
12D8
330
1053
100
AcDbEntity
  8
Defpoints
 62
     0
100
AcDbPoint
 10
355.5111815107285
 20
264.4941551007765
 30
0.0
  0
POINT
  5
12D9
330
1053
100
AcDbEntity
  8
Defpoints
 62
     0
100
AcDbPoint
 10
307.0111815107285
 20
264.4941551007765
 30
0.0
  0
POINT
  5
12DA
330
1053
100
AcDbEntity
  8
Defpoints
 62
     0
100
AcDbPoint
 10
307.0111815107285
 20
244.4941551007765
 30
0.0
  0
ENDBLK
  5
105E
330
1053
100
AcDbEntity
  8
0
100
AcDbBlockEnd
  0
BLOCK
  5
1174
330
116F
100
AcDbEntity
  8
0
100
AcDbBlockBegin
  2
*S13
 70
     1
 10
0.0
 20
0.0
 30
0.0
  3
*S13
  1

  0
LINE
  5
1170
330
116F
100
AcDbEntity
  8
AM_5
 62
     5
100
AcDbLine
 10
390.7693245999702
 20
260.3864767028305
 30
0.0
 11
369.3283720387449
 21
260.3864767028305
 31
0.0
  0
LINE
  5
1171
330
116F
100
AcDbEntity
  8
AM_5
 62
     5
100
AcDbLine
 10
369.3283720387449
 20
260.3864767028305
 30
0.0
 11
350.6680702887684
 21
276.0459183449985
 31
0.0
  0
TRACE
  5
1172
330
116F
100
AcDbEntity
  8
AM_5
 62
     5
370
    35
100
AcDbTrace
 10
350.9642740083809
 20
276.3988843647161
 30
0.0
 11
350.3718665691558
 21
275.6929523252809
 31
0.0
 12
347.9870271808842
 22
278.2958089764885
 32
0.0
 13
347.9870271808842
 23
278.2958089764885
 33
0.0
  0
MTEXT
  5
1173
330
116F
100
AcDbEntity
  8
AM_5
 62
     5
100
AcDbMText
 10
390.7693245999702
 20
268.122306842291
 30
0.0
 40
3.5
 41
0.0
 71
     7
 72
     5
  1

  7
ACISOTS
 73
     1
 44
1.0
1001
ACAD
1000
MTEXTBEGIN
1070
    73
1070
     1
1070
    44
1040
1.0
1070
    74
1070
     0
1000
MTEXTEND
  0
ENDBLK
  5
1175
330
116F
100
AcDbEntity
  8
0
100
AcDbBlockEnd
  0
BLOCK
  5
117C
330
1177
100
AcDbEntity
  8
0
100
AcDbBlockBegin
  2
*S14
 70
     1
 10
0.0
 20
0.0
 30
0.0
  3
*S14
  1

  0
LINE
  5
1178
330
1177
100
AcDbEntity
  8
AM_5
 62
     5
100
AcDbLine
 10
234.290624167029
 20
319.2042509772651
 30
0.0
 11
252.5835364810655
 21
319.2042509772651
 31
0.0
  0
LINE
  5
1179
330
1177
100
AcDbEntity
  8
AM_5
 62
     5
100
AcDbLine
 10
252.5835364810655
 20
319.2042509772651
 30
0.0
 11
260.4072982081028
 21
310.1735227662004
 31
0.0
  0
TRACE
  5
117A
330
1177
100
AcDbEntity
  8
AM_5
 62
     5
370
    35
100
AcDbTrace
 10
260.0590342060361
 20
309.8718046204882
 30
0.0
 11
260.7555622101696
 21
310.4752409119128
 31
0.0
 12
262.6990750645063
 22
307.5281950283854
 32
0.0
 13
262.6990750645063
 23
307.5281950283854
 33
0.0
  0
MTEXT
  5
117B
330
1177
100
AcDbEntity
  8
AM_5
 62
     5
100
AcDbMText
 10
234.290624167029
 20
326.4935328440478
 30
0.0
 40
3.5
 41
0.0
 71
     9
 72
     5
  1

  7
ACISOTS
 73
     1
 44
1.0
1001
ACAD
1000
MTEXTBEGIN
1070
    73
1070
     1
1070
    44
1040
1.0
1070
    74
1070
     0
1000
MTEXTEND
  0
ENDBLK
  5
117D
330
1177
100
AcDbEntity
  8
0
100
AcDbBlockEnd
  0
ENDSEC
  0
SECTION
  2
ENTITIES
  0
LINE
  5
D66
330
1F
100
AcDbEntity
  8
0
100
AcDbLine
 10
232.5024339406394
 20
233.7160457847931
 30
0.0
 11
232.5024339406394
 21
187.9560457847934
 31
0.0
  0
LINE
  5
D67
330
1F
100
AcDbEntity
  8
0
100
AcDbLine
 10
275.5986126576456
 20
233.7160457847935
 30
0.0
 11
275.5986126576456
 21
224.5640457847932
 31
0.0
  0
LINE
  5
D68
330
1F
100
AcDbEntity
  8
0
100
AcDbLine
 10
292.7586126576459
 20
233.7160457847935
 30
0.0
 11
292.7586126576459
 21
224.5640457847935
 31
0.0
  0
LINE
  5
D69
330
1F
100
AcDbEntity
  8
0
100
AcDbLine
 10
258.4386126576453
 20
233.7160457847931
 30
0.0
 11
258.4386126576476
 21
187.9560457847934
 31
0.0
  0
LINE
  5
D6A
330
1F
100
AcDbEntity
  8
0
100
AcDbLine
 10
232.5024339406394
 20
224.5640457847932
 30
0.0
 11
292.7586126576459
 21
224.5640457847932
 31
0.0
  0
LINE
  5
D6B
330
1F
100
AcDbEntity
  8
0
100
AcDbLine
 10
232.5024339406394
 20
229.1400457847935
 30
0.0
 11
292.7586126576459
 21
229.1400457847935
 31
0.0
  0
TEXT
  5
D6C
330
1F
100
AcDbEntity
  8
0
100
AcDbText
 10
244.7814589182496
 20
225.3418994850695
 30
0.0
 40
2.872982007447553
  1
2
 41
0.8
  7
CHINESET
 72
     4
 11
245.5475874535689
 21
226.7783904887933
 31
0.0
100
AcDbText
  0
TEXT
  5
D6D
330
1F
100
AcDbEntity
  8
0
100
AcDbText
 10
234.1747584354863
 20
230.5416951934176
 30
0.0
 40
2.288
  1
No. of stations
 41
0.8
  7
CHINESET
100
AcDbText
  0
TEXT
  5
D6E
330
1F
100
AcDbEntity
  8
0
100
AcDbText
 10
262.7144157612217
 20
225.3656054385784
 30
0.0
 40
2.86
  1
30.5
 41
0.8
  7
CHINESET
100
AcDbText
  0
TEXT
  5
D6F
330
1F
100
AcDbEntity
  8
0
100
AcDbText
 10
265.4948553863393
 20
229.9623536263894
 30
0.0
 40
2.86
  1
P
 41
0.8
  7
CHINESET
100
AcDbText
  0
LINE
  5
D70
330
1F
100
AcDbEntity
  8
0
100
AcDbLine
 10
232.5024339406394
 20
233.7160457847935
 30
0.0
 11
292.7586126576459
 21
233.7160457847935
 31
0.0
  0
LINE
  5
D71
330
1F
100
AcDbEntity
  8
0
100
AcDbLine
 10
275.598612657645
 20
233.7160457847931
 30
0.0
 11
275.598612657648
 21
187.9560457847934
 31
0.0
  0
LINE
  5
D72
330
1F
100
AcDbEntity
  8
0
100
AcDbLine
 10
292.7586126576454
 20
233.7160457847931
 30
0.0
 11
292.7586126576477
 21
187.9560457847934
 31
0.0
  0
LINE
  5
D73
330
1F
100
AcDbEntity
  8
0
100
AcDbLine
 10
232.5024339406394
 20
219.9880457847935
 30
0.0
 11
292.7586126576459
 21
219.9880457847935
 31
0.0
  0
LINE
  5
D74
330
1F
100
AcDbEntity
  8
0
100
AcDbLine
 10
232.5024339406394
 20
215.4120457847935
 30
0.0
 11
292.7586126576459
 21
215.4120457847935
 31
0.0
  0
LINE
  5
D75
330
1F
100
AcDbEntity
  8
0
100
AcDbLine
 10
232.5024339406394
 20
210.8360457847936
 30
0.0
 11
292.7586126576459
 21
210.8360457847936
 31
0.0
  0
LINE
  5
D76
330
1F
100
AcDbEntity
  8
0
100
AcDbLine
 10
232.5024339406394
 20
206.2600457847933
 30
0.0
 11
292.7586126576459
 21
206.2600457847933
 31
0.0
  0
LINE
  5
D77
330
1F
100
AcDbEntity
  8
0
100
AcDbLine
 10
232.5024339406394
 20
201.6840457847933
 30
0.0
 11
292.7586126576459
 21
201.6840457847933
 31
0.0
  0
LINE
  5
D78
330
1F
100
AcDbEntity
  8
0
100
AcDbLine
 10
232.5024339406394
 20
197.1080457847936
 30
0.0
 11
292.7586126576459
 21
197.1080457847936
 31
0.0
  0
LINE
  5
D79
330
1F
100
AcDbEntity
  8
0
100
AcDbLine
 10
232.5024339406394
 20
192.5320457847934
 30
0.0
 11
292.7586126576459
 21
192.5320457847934
 31
0.0
  0
LINE
  5
D7A
330
1F
100
AcDbEntity
  8
0
100
AcDbLine
 10
232.5024339406394
 20
187.9560457847934
 30
0.0
 11
292.7586126576459
 21
187.9560457847934
 31
0.0
  0
TEXT
  5
D7B
330
1F
100
AcDbEntity
  8
0
100
AcDbText
 10
244.7814589182496
 20
220.7658994850696
 30
0.0
 40
2.872982007447553
  1
3
 41
0.8
  7
CHINESET
 72
     4
 11
245.5475874535689
 21
222.2023904887933
 31
0.0
100
AcDbText
  0
TEXT
  5
D7C
330
1F
100
AcDbEntity
  8
0
100
AcDbText
 10
244.7267354514417
 20
216.1898994850696
 30
0.0
 40
2.872982007447553
  1
4
 41
0.8
  7
CHINESET
 72
     4
 11
245.5475874535696
 21
217.6263904887933
 31
0.0
100
AcDbText
  0
TEXT
  5
D7D
330
1F
100
AcDbEntity
  8
0
100
AcDbText
 10
244.7814589182508
 20
211.6138994850699
 30
0.0
 40
2.872982007447553
  1
5
 41
0.8
  7
CHINESET
 72
     4
 11
245.5475874535701
 21
213.0503904887937
 31
0.0
100
AcDbText
  0
TEXT
  5
D7E
330
1F
100
AcDbEntity
  8
0
100
AcDbText
 10
244.8361823850593
 20
207.0378994850696
 30
0.0
 40
2.872982007447553
  1
6
 41
0.8
  7
CHINESET
 72
     4
 11
245.5475874535701
 21
208.4743904887934
 31
0.0
100
AcDbText
  0
TEXT
  5
D7F
330
1F
100
AcDbEntity
  8
0
100
AcDbText
 10
244.7814589182508
 20
202.4618994850697
 30
0.0
 40
2.872982007447553
  1
7
 41
0.8
  7
CHINESET
 72
     4
 11
245.5475874535701
 21
203.8983904887934
 31
0.0
100
AcDbText
  0
TEXT
  5
D80
330
1F
100
AcDbEntity
  8
0
100
AcDbText
 10
244.7814589182514
 20
197.8858994850697
 30
0.0
 40
2.872982007447553
  1
8
 41
0.8
  7
CHINESET
 72
     4
 11
245.5475874535707
 21
199.3223904887934
 31
0.0
100
AcDbText
  0
TEXT
  5
D81
330
1F
100
AcDbEntity
  8
0
100
AcDbText
 10
244.8361823850599
 20
193.3098994850694
 30
0.0
 40
2.872982007447553
  1
9
 41
0.8
  7
CHINESET
 72
     4
 11
245.5475874535707
 21
194.7463904887932
 31
0.0
100
AcDbText
  0
TEXT
  5
D82
330
1F
100
AcDbEntity
  8
0
100
AcDbText
 10
243.905883449315
 20
188.7338994850697
 30
0.0
 40
2.872982007447553
  1
10
 41
0.8
  7
CHINESET
 72
     4
 11
245.5475874535707
 21
190.1703904887935
 31
0.0
100
AcDbText
  0
TEXT
  5
D83
330
1F
100
AcDbEntity
  8
0
100
AcDbText
 10
279.8744157612221
 20
225.3656054385784
 30
0.0
 40
2.86
  1
48.5
 41
0.8
  7
CHINESET
100
AcDbText
  0
TEXT
  5
D84
330
1F
100
AcDbEntity
  8
0
100
AcDbText
 10
262.7144157612217
 20
220.7896054385784
 30
0.0
 40
2.86
  1
41
 41
0.8
  7
CHINESET
100
AcDbText
  0
TEXT
  5
D85
330
1F
100
AcDbEntity
  8
0
100
AcDbText
 10
279.8744157612221
 20
220.7896054385784
 30
0.0
 40
2.86
  1
59
 41
0.8
  7
CHINESET
100
AcDbText
  0
TEXT
  5
D86
330
1F
100
AcDbEntity
  8
0
100
AcDbText
 10
262.7144157612217
 20
216.2136054385781
 30
0.0
 40
2.86
  1
51.5
 41
0.8
  7
CHINESET
100
AcDbText
  0
TEXT
  5
D87
330
1F
100
AcDbEntity
  8
0
100
AcDbText
 10
279.8744157612221
 20
216.2136054385781
 30
0.0
 40
2.86
  1
69.5
 41
0.8
  7
CHINESET
100
AcDbText
  0
TEXT
  5
D88
330
1F
100
AcDbEntity
  8
0
100
AcDbText
 10
262.7144157612223
 20
211.6376054385782
 30
0.0
 40
2.86
  1
62
 41
0.8
  7
CHINESET
100
AcDbText
  0
TEXT
  5
D89
330
1F
100
AcDbEntity
  8
0
100
AcDbText
 10
279.8744157612226
 20
211.6376054385782
 30
0.0
 40
2.86
  1
80
 41
0.8
  7
CHINESET
100
AcDbText
  0
TEXT
  5
D8A
330
1F
100
AcDbEntity
  8
0
100
AcDbText
 10
262.7144157612223
 20
207.0616054385785
 30
0.0
 40
2.86
  1
72.5
 41
0.8
  7
CHINESET
100
AcDbText
  0
TEXT
  5
D8B
330
1F
100
AcDbEntity
  8
0
100
AcDbText
 10
279.8744157612226
 20
207.0616054385785
 30
0.0
 40
2.86
  1
90.5
 41
0.8
  7
CHINESET
100
AcDbText
  0
TEXT
  5
D8C
330
1F
100
AcDbEntity
  8
0
100
AcDbText
 10
262.7144157612223
 20
202.4856054385782
 30
0.0
 40
2.86
  1
83
 41
0.8
  7
CHINESET
100
AcDbText
  0
TEXT
  5
D8D
330
1F
100
AcDbEntity
  8
0
100
AcDbText
 10
279.8744157612226
 20
202.4856054385782
 30
0.0
 40
2.86
  1
101
 41
0.8
  7
CHINESET
100
AcDbText
  0
TEXT
  5
D8E
330
1F
100
AcDbEntity
  8
0
100
AcDbText
 10
262.7144157612229
 20
197.9096054385782
 30
0.0
 40
2.86
  1
93.5
 41
0.8
  7
CHINESET
100
AcDbText
  0
TEXT
  5
D8F
330
1F
100
AcDbEntity
  8
0
100
AcDbText
 10
279.8744157612232
 20
197.9096054385782
 30
0.0
 40
2.86
  1
111.5
 41
0.8
  7
CHINESET
100
AcDbText
  0
TEXT
  5
D90
330
1F
100
AcDbEntity
  8
0
100
AcDbText
 10
262.714415761224
 20
193.3336054385782
 30
0.0
 40
2.86
  1
104
 41
0.8
  7
CHINESET
100
AcDbText
  0
TEXT
  5
D91
330
1F
100
AcDbEntity
  8
0
100
AcDbText
 10
279.8744157612238
 20
193.3336054385782
 30
0.0
 40
2.86
  1
122
 41
0.8
  7
CHINESET
100
AcDbText
  0
TEXT
  5
D92
330
1F
100
AcDbEntity
  8
0
100
AcDbText
 10
262.714415761224
 20
188.757605438578
 30
0.0
 40
2.86
  1
114.5
 41
0.8
  7
CHINESET
100
AcDbText
  0
TEXT
  5
D93
330
1F
100
AcDbEntity
  8
0
100
AcDbText
 10
279.8744157612238
 20
188.757605438578
 30
0.0
 40
2.86
  1
132.5
 41
0.8
  7
CHINESET
100
AcDbText
  0
TEXT
  5
D94
330
1F
100
AcDbEntity
  8
0
100
AcDbText
 10
282.6548553863391
 20
229.9623536263894
 30
0.0
 40
2.86
  1
L
 41
0.8
  7
CHINESET
100
AcDbText
  0
SPLINE
  5
D95
330
1F
100
AcDbEntity
  8
AM_VIS
100
AcDbSpline
210
0.0
220
0.0
230
1.0
 70
     8
 71
     3
 72
     8
 73
     4
 74
     0
 42
0.0000000001
 43
0.0000000001
 40
0.0
 40
0.0
 40
0.0
 40
0.0
 40
80.0
 40
80.0
 40
80.0
 40
80.0
 10
350.2061543368155
 20
272.4823344485563
 30
0.0
 10
350.2220058344657
 20
272.4696532649483
 30
0.0
 10
350.2552938779441
 20
272.4633126368636
 30
0.0
 10
350.3060184672505
 20
272.4633127094258
 30
0.0
  0
LINE
  5
D96
330
1F
100
AcDbEntity
  8
AM_VIS
100
AcDbLine
 10
350.3060184672505
 20
272.4633127094258
 30
0.0
 11
351.5376760759465
 21
272.4633127094258
 31
0.0
  0
LINE
  5
D97
330
1F
100
AcDbEntity
  8
AM_VIS
100
AcDbLine
 10
351.5376760759465
 20
272.4633127094258
 30
0.0
 11
351.5329206411635
 21
273.0006768398604
 31
0.0
  0
SPLINE
  5
D98
330
1F
100
AcDbEntity
  8
AM_VIS
100
AcDbSpline
210
0.0
220
0.0
230
1.0
 70
     8
 71
     3
 72
     8
 73
     4
 74
     0
 42
0.0000000001
 43
0.0000000001
 40
0.0
 40
0.0
 40
0.0
 40
0.0
 40
80.0
 40
80.0
 40
80.0
 40
80.0
 10
351.5329206411635
 20
273.0006768398604
 30
0.0
 10
351.5297503996836
 20
273.2162565258183
 30
0.0
 10
351.5123137812931
 20
273.3731858736443
 30
0.0
 10
351.480610858555
 20
273.4714648833389
 30
0.0
  0
SPLINE
  5
D99
330
1F
100
AcDbEntity
  8
AM_VIS
100
AcDbSpline
210
0.0
220
0.0
230
1.0
 70
     8
 71
     3
 72
     8
 73
     4
 74
     0
 42
0.0000000001
 43
0.0000000001
 40
0.0
 40
0.0
 40
0.0
 40
0.0
 40
80.0
 40
80.0
 40
80.0
 40
80.0
 10
351.480610858555
 20
273.4714648833389
 30
0.0
 10
351.3918427909877
 20
273.7124068639497
 30
0.0
 10
351.2063808344657
 20
273.8328779268169
 30
0.0
 10
350.9242249889895
 20
273.8328779268169
 30
0.0
  0
SPLINE
  5
D9A
330
1F
100
AcDbEntity
  8
AM_VIS
100
AcDbSpline
210
0.0
220
0.0
230
1.0
 70
     8
 71
     3
 72
     8
 73
     4
 74
     0
 42
0.0000000001
 43
0.0000000001
 40
0.0
 40
0.0
 40
0.0
 40
0.0
 40
80.0
 40
80.0
 40
80.0
 40
80.0
 10
352.5886271629025
 20
274.2941551007303
 30
0.0
 10
352.7915257378146
 20
274.2941551007303
 30
0.0
 10
352.9706471388136
 20
274.2370898833389
 30
0.0
 10
353.1259912933375
 20
274.1229594485564
 30
0.0
  0
SPLINE
  5
D9B
330
1F
100
AcDbEntity
  8
AM_VIS
100
AcDbSpline
210
0.0
220
0.0
230
1.0
 70
     8
 71
     3
 72
     8
 73
     4
 74
     0
 42
0.0000000001
 43
0.0000000001
 40
0.0
 40
0.0
 40
0.0
 40
0.0
 40
80.0
 40
80.0
 40
80.0
 40
80.0
 10
353.1259912933375
 20
274.1229594485564
 30
0.0
 10
353.3827847715985
 20
273.9359122987322
 30
0.0
 10
353.5111815107285
 20
273.6268090378627
 30
0.0
 10
353.5111815107285
 20
273.1956496659474
 30
0.0
  0
LINE
  5
D9C
330
1F
100
AcDbEntity
  8
AM_VIS
100
AcDbLine
 10
353.5111815107285
 20
273.1956496659474
 30
0.0
 11
353.5111815107285
 21
271.6596442311649
 31
0.0
  0
LINE
  5
D9D
330
1F
100
AcDbEntity
  8
AM_VIS
100
AcDbLine
 10
353.5111815107285
 20
271.6596442311649
 30
0.0
 11
353.4160728150765
 21
271.6596442311649
 31
0.0
  0
SPLINE
  5
D9E
330
1F
100
AcDbEntity
  8
AM_VIS
100
AcDbSpline
210
0.0
220
0.0
230
1.0
 70
     8
 71
     3
 72
     8
 73
     4
 74
     0
 42
0.0000000001
 43
0.0000000001
 40
0.0
 40
0.0
 40
0.0
 40
0.0
 40
80.0
 40
80.0
 40
80.0
 40
80.0
 10
353.4160728150765
 20
271.6596442311649
 30
0.0
 10
353.4033916314689
 20
271.8562021779918
 30
0.0
 10
353.3605927184254
 20
271.9909394726452
 30
0.0
 10
353.2876760759465
 20
272.0638561876868
 30
0.0
  0
SPLINE
  5
D9F
330
1F
100
AcDbEntity
  8
AM_VIS
100
AcDbSpline
210
0.0
220
0.0
230
1.0
 70
     8
 71
     3
 72
     8
 73
     4
 74
     0
 42
0.0000000001
 43
0.0000000001
 40
0.0
 40
0.0
 40
0.0
 40
0.0
 40
80.0
 40
80.0
 40
80.0
 40
80.0
 10
353.2876760759465
 20
272.0638561876868
 30
0.0
 10
353.2147594334666
 20
272.1336025161232
 30
0.0
 10
353.0800221388137
 20
272.1684757529039
 30
0.0
 10
352.8834641194245
 20
272.1684757529039
 30
0.0
  0
LINE
  5
DA0
330
1F
100
AcDbEntity
  8
AM_VIS
100
AcDbLine
 10
352.8834641194245
 20
272.1684757529039
 30
0.0
 11
350.5628119455115
 21
272.1684757529039
 31
0.0
  0
SPLINE
  5
DA1
330
1F
100
AcDbEntity
  8
AM_VIS
100
AcDbSpline
210
0.0
220
0.0
230
1.0
 70
     8
 71
     3
 72
     8
 73
     4
 74
     0
 42
0.0000000001
 43
0.0000000001
 40
0.0
 40
0.0
 40
0.0
 40
0.0
 40
80.0
 40
80.0
 40
80.0
 40
80.0
 10
350.5628119455115
 20
272.1684757529039
 30
0.0
 10
350.372594554207
 20
272.1684757529039
 30
0.0
 10
350.2489532498595
 20
272.1320173953833
 30
0.0
 10
350.191888032468
 20
272.0591007529039
 30
0.0
  0
SPLINE
  5
DA2
330
1F
100
AcDbEntity
  8
AM_VIS
100
AcDbSpline
210
0.0
220
0.0
230
1.0
 70
     8
 71
     3
 72
     8
 73
     4
 74
     0
 42
0.0000000001
 43
0.0000000001
 40
0.0
 40
0.0
 40
0.0
 40
0.0
 40
80.0
 40
80.0
 40
80.0
 40
80.0
 10
350.191888032468
 20
272.0591007529039
 30
0.0
 10
350.1475039986845
 20
271.9988652214703
 30
0.0
 10
350.1189713899886
 20
271.8657130475573
 30
0.0
 10
350.106290206381
 20
271.6596442311649
 30
0.0
  0
LINE
  5
DA3
330
1F
100
AcDbEntity
  8
AM_VIS
100
AcDbLine
 10
350.106290206381
 20
271.6596442311649
 30
0.0
 11
350.0111815107285
 21
271.6596442311649
 31
0.0
  0
LINE
  5
DA4
330
1F
100
AcDbEntity
  8
AM_VIS
100
AcDbLine
 10
350.0111815107285
 20
271.6596442311649
 30
0.0
 11
350.0111815107285
 21
272.9388561876868
 31
0.0
  0
SPLINE
  5
DA5
330
1F
100
AcDbEntity
  8
AM_VIS
100
AcDbSpline
210
0.0
220
0.0
230
1.0
 70
     8
 71
     3
 72
     8
 73
     4
 74
     0
 42
0.0000000001
 43
0.0000000001
 40
0.0
 40
0.0
 40
0.0
 40
0.0
 40
80.0
 40
80.0
 40
80.0
 40
80.0
 10
350.0111815107285
 20
272.9388561876868
 30
0.0
 10
350.0111815107285
 20
273.7409394726452
 30
0.0
 10
350.3028482257702
 20
274.1419811876868
 30
0.0
 10
350.8861815107285
 20
274.1419811876868
 30
0.0
  0
SPLINE
  5
DA6
330
1F
100
AcDbEntity
  8
AM_VIS
100
AcDbSpline
210
0.0
220
0.0
230
1.0
 70
     8
 71
     3
 72
     8
 73
     4
 74
     0
 42
0.0000000001
 43
0.0000000001
 40
0.0
 40
0.0
 40
0.0
 40
0.0
 40
80.0
 40
80.0
 40
80.0
 40
80.0
 10
350.8861815107285
 20
274.1419811876868
 30
0.0
 10
351.2792974769451
 20
274.1419811876868
 30
0.0
 10
351.5392612692486
 20
273.9121351248192
 30
0.0
 10
351.6660728150765
 20
273.4524431442084
 30
0.0
  0
LINE
  5
DA7
330
1F
100
AcDbEntity
  8
AM_VIS
100
AcDbLine
 10
351.6660728150765
 20
273.4524431442084
 30
0.0
 11
351.685094554207
 21
273.5332855355129
 31
0.0
  0
SPLINE
  5
DA8
330
1F
100
AcDbEntity
  8
AM_VIS
100
AcDbSpline
210
0.0
220
0.0
230
1.0
 70
     8
 71
     3
 72
     8
 73
     4
 74
     0
 42
0.0000000001
 43
0.0000000001
 40
0.0
 40
0.0
 40
0.0
 40
0.0
 40
80.0
 40
80.0
 40
80.0
 40
80.0
 10
351.685094554207
 20
273.5332855355129
 30
0.0
 10
351.8055656170747
 20
274.0405318639497
 30
0.0
 10
352.1067431291191
 20
274.2941551007303
 30
0.0
 10
352.5886271629025
 20
274.2941551007303
 30
0.0
  0
LINE
  5
DA9
330
1F
100
AcDbEntity
  8
AM_VIS
100
AcDbLine
 10
352.6552032498595
 20
271.4385165137734
 30
0.0
 11
353.5111815107285
 21
271.2387882529039
 31
0.0
  0
LINE
  5
DAA
330
1F
100
AcDbEntity
  8
AM_VIS
100
AcDbLine
 10
353.5111815107285
 20
271.2387882529039
 30
0.0
 11
353.5111815107285
 21
268.7612067311649
 31
0.0
  0
LINE
  5
DAB
330
1F
100
AcDbEntity
  8
AM_VIS
100
AcDbLine
 10
353.5111815107285
 20
268.7612067311649
 30
0.0
 11
353.4160728150765
 21
268.7612067311649
 31
0.0
  0
SPLINE
  5
DAC
330
1F
100
AcDbEntity
  8
AM_VIS
100
AcDbSpline
210
0.0
220
0.0
230
1.0
 70
     8
 71
     3
 72
     8
 73
     4
 74
     0
 42
0.0000000001
 43
0.0000000001
 40
0.0
 40
0.0
 40
0.0
 40
0.0
 40
80.0
 40
80.0
 40
80.0
 40
80.0
 10
353.4160728150765
 20
268.7612067311649
 30
0.0
 10
353.4002213174264
 20
268.9324023107766
 30
0.0
 10
353.3685184672505
 20
269.0481179388618
 30
0.0
 10
353.3209641194245
 20
269.1083534702954
 30
0.0
  0
SPLINE
  5
DAD
330
1F
100
AcDbEntity
  8
AM_VIS
100
AcDbSpline
210
0.0
220
0.0
230
1.0
 70
     8
 71
     3
 72
     8
 73
     4
 74
     0
 42
0.0000000001
 43
0.0000000001
 40
0.0
 40
0.0
 40
0.0
 40
0.0
 40
80.0
 40
80.0
 40
80.0
 40
80.0
 10
353.3209641194245
 20
269.1083534702954
 30
0.0
 10
353.2512177184254
 20
269.1907809823398
 30
0.0
 10
353.1196507378146
 20
269.2319947746433
 30
0.0
 10
352.926263032468
 20
269.2319947746433
 30
0.0
  0
LINE
  5
DAE
330
1F
100
AcDbEntity
  8
AM_VIS
100
AcDbLine
 10
352.926263032468
 20
269.2319947746433
 30
0.0
 11
350.6008554237725
 21
269.2319947746433
 31
0.0
  0
SPLINE
  5
DAF
330
1F
100
AcDbEntity
  8
AM_VIS
100
AcDbSpline
210
0.0
220
0.0
230
1.0
 70
     8
 71
     3
 72
     8
 73
     4
 74
     0
 42
0.0000000001
 43
0.0000000001
 40
0.0
 40
0.0
 40
0.0
 40
0.0
 40
80.0
 40
80.0
 40
80.0
 40
80.0
 10
350.6008554237725
 20
269.2319947746433
 30
0.0
 10
350.3979569214227
 20
269.2319947746433
 30
0.0
 10
350.263219554207
 20
269.1907809823398
 30
0.0
 10
350.1966434672505
 20
269.1083534702954
 30
0.0
  0
SPLINE
  5
DB0
330
1F
100
AcDbEntity
  8
AM_VIS
100
AcDbSpline
210
0.0
220
0.0
230
1.0
 70
     8
 71
     3
 72
     8
 73
     4
 74
     0
 42
0.0000000001
 43
0.0000000001
 40
0.0
 40
0.0
 40
0.0
 40
0.0
 40
80.0
 40
80.0
 40
80.0
 40
80.0
 10
350.1966434672505
 20
269.1083534702954
 30
0.0
 10
350.1522594334666
 20
269.0544584943842
 30
0.0
 10
350.1221417040312
 20
268.9387429388617
 30
0.0
 10
350.106290206381
 20
268.7612067311649
 30
0.0
  0
LINE
  5
DB1
330
1F
100
AcDbEntity
  8
AM_VIS
100
AcDbLine
 10
350.106290206381
 20
268.7612067311649
 30
0.0
 11
350.0111815107285
 21
268.7612067311649
 31
0.0
  0
LINE
  5
DB2
330
1F
100
AcDbEntity
  8
AM_VIS
100
AcDbLine
 10
350.0111815107285
 20
268.7612067311649
 30
0.0
 11
350.0111815107285
 21
271.2007447746433
 31
0.0
  0
LINE
  5
DB3
330
1F
100
AcDbEntity
  8
AM_VIS
100
AcDbLine
 10
350.0111815107285
 20
271.2007447746433
 30
0.0
 11
350.72449672812
 21
271.2150110789909
 31
0.0
  0
LINE
  5
DB4
330
1F
100
AcDbEntity
  8
AM_VIS
100
AcDbLine
 10
350.72449672812
 20
271.2150110789909
 30
0.0
 11
350.72449672812
 21
271.1151469485563
 31
0.0
  0
SPLINE
  5
DB5
330
1F
100
AcDbEntity
  8
AM_VIS
100
AcDbSpline
210
0.0
220
0.0
230
1.0
 70
     8
 71
     3
 72
     8
 73
     4
 74
     0
 42
0.0000000001
 43
0.0000000001
 40
0.0
 40
0.0
 40
0.0
 40
0.0
 40
80.0
 40
80.0
 40
80.0
 40
80.0
 10
350.72449672812
 20
271.1151469485563
 30
0.0
 10
350.4803844334666
 20
271.0771034702954
 30
0.0
 10
350.3282105204235
 20
271.0168679388618
 30
0.0
 10
350.2679749889895
 20
270.9344404268169
 30
0.0
  0
SPLINE
  5
DB6
330
1F
100
AcDbEntity
  8
AM_VIS
100
AcDbSpline
210
0.0
220
0.0
230
1.0
 70
     8
 71
     3
 72
     8
 73
     4
 74
     0
 42
0.0000000001
 43
0.0000000001
 40
0.0
 40
0.0
 40
0.0
 40
0.0
 40
80.0
 40
80.0
 40
80.0
 40
80.0
 10
350.2679749889895
 20
270.9344404268169
 30
0.0
 10
350.2045692160756
 20
270.8520128422102
 30
0.0
 10
350.1728662933375
 20
270.6760617552537
 30
0.0
 10
350.1728662933375
 20
270.4065871659474
 30
0.0
  0
LINE
  5
DB7
330
1F
100
AcDbEntity
  8
AM_VIS
100
AcDbLine
 10
350.1728662933375
 20
270.4065871659474
 30
0.0
 11
350.1728662933375
 21
269.7218045572518
 31
0.0
  0
SPLINE
  5
DB8
330
1F
100
AcDbEntity
  8
AM_VIS
100
AcDbSpline
210
0.0
220
0.0
230
1.0
 70
     8
 71
     3
 72
     8
 73
     4
 74
     0
 42
0.0000000001
 43
0.0000000001
 40
0.0
 40
0.0
 40
0.0
 40
0.0
 40
80.0
 40
80.0
 40
80.0
 40
80.0
 10
350.1728662933375
 20
269.7218045572518
 30
0.0
 10
350.1728662933375
 20
269.6362067311649
 30
0.0
 10
350.1760366073801
 20
269.5886523833388
 30
0.0
 10
350.1823771629025
 20
269.5791415137734
 30
0.0
  0
SPLINE
  5
DB9
330
1F
100
AcDbEntity
  8
AM_VIS
100
AcDbSpline
210
0.0
220
0.0
230
1.0
 70
     8
 71
     3
 72
     8
 73
     4
 74
     0
 42
0.0000000001
 43
0.0000000001
 40
0.0
 40
0.0
 40
0.0
 40
0.0
 40
80.0
 40
80.0
 40
80.0
 40
80.0
 10
350.1823771629025
 20
269.5791415137734
 30
0.0
 10
350.1982286605527
 20
269.5474385910353
 30
0.0
 10
350.2552938779441
 20
269.5315871659474
 30
0.0
 10
350.3535728150765
 20
269.5315871659474
 30
0.0
  0
LINE
  5
DBA
330
1F
100
AcDbEntity
  8
AM_VIS
100
AcDbLine
 10
350.3535728150765
 20
269.5315871659474
 30
0.0
 11
351.575719554207
 21
269.5315871659474
 31
0.0
  0
LINE
  5
DBB
330
1F
100
AcDbEntity
  8
AM_VIS
100
AcDbLine
 10
351.575719554207
 20
269.5315871659474
 30
0.0
 11
351.575719554207
 21
270.3114784702953
 31
0.0
  0
SPLINE
  5
DBC
330
1F
100
AcDbEntity
  8
AM_VIS
100
AcDbSpline
210
0.0
220
0.0
230
1.0
 70
     8
 71
     3
 72
     8
 73
     4
 74
     0
 42
0.0000000001
 43
0.0000000001
 40
0.0
 40
0.0
 40
0.0
 40
0.0
 40
80.0
 40
80.0
 40
80.0
 40
80.0
 10
351.575719554207
 20
270.3114784702953
 30
0.0
 10
351.575719554207
 20
270.5143769726452
 30
0.0
 10
351.5408463899886
 20
270.6491143398604
 30
0.0
 10
351.4710999889895
 20
270.7156904268169
 30
0.0
  0
SPLINE
  5
DBD
330
1F
100
AcDbEntity
  8
AM_VIS
100
AcDbSpline
210
0.0
220
0.0
230
1.0
 70
     8
 71
     3
 72
     8
 73
     4
 74
     0
 42
0.0000000001
 43
0.0000000001
 40
0.0
 40
0.0
 40
0.0
 40
0.0
 40
80.0
 40
80.0
 40
80.0
 40
80.0
 10
351.4710999889895
 20
270.7156904268169
 30
0.0
 10
351.4140347715985
 20
270.7695853301658
 30
0.0
 10
351.285638032468
 20
270.8107990499071
 30
0.0
 10
351.0859097715985
 20
270.8393317311649
 30
0.0
  0
LINE
  5
DBE
330
1F
100
AcDbEntity
  8
AM_VIS
100
AcDbLine
 10
351.0859097715985
 20
270.8393317311649
 30
0.0
 11
351.0859097715985
 21
270.9391958615999
 31
0.0
  0
LINE
  5
DBF
330
1F
100
AcDbEntity
  8
AM_VIS
100
AcDbLine
 10
351.0859097715985
 20
270.9391958615999
 30
0.0
 11
352.270013032468
 21
270.9391958615999
 31
0.0
  0
LINE
  5
DC0
330
1F
100
AcDbEntity
  8
AM_VIS
100
AcDbLine
 10
352.270013032468
 20
270.9391958615999
 30
0.0
 11
352.270013032468
 21
270.8393317311649
 31
0.0
  0
SPLINE
  5
DC1
330
1F
100
AcDbEntity
  8
AM_VIS
100
AcDbSpline
210
0.0
220
0.0
230
1.0
 70
     8
 71
     3
 72
     8
 73
     4
 74
     0
 42
0.0000000001
 43
0.0000000001
 40
0.0
 40
0.0
 40
0.0
 40
0.0
 40
80.0
 40
80.0
 40
80.0
 40
80.0
 10
352.270013032468
 20
270.8393317311649
 30
0.0
 10
352.0544333465106
 20
270.8107990499071
 30
0.0
 10
351.918110858555
 20
270.7664150161232
 30
0.0
 10
351.8610456411635
 20
270.7061795572518
 30
0.0
  0
SPLINE
  5
DC2
330
1F
100
AcDbEntity
  8
AM_VIS
100
AcDbSpline
210
0.0
220
0.0
230
1.0
 70
     8
 71
     3
 72
     8
 73
     4
 74
     0
 42
0.0000000001
 43
0.0000000001
 40
0.0
 40
0.0
 40
0.0
 40
0.0
 40
80.0
 40
80.0
 40
80.0
 40
80.0
 10
351.8610456411635
 20
270.7061795572518
 30
0.0
 10
351.8008101822917
 20
270.6427737117757
 30
0.0
 10
351.770692380294
 20
270.5112066586027
 30
0.0
 10
351.770692380294
 20
270.3114784702953
 30
0.0
  0
LINE
  5
DC3
330
1F
100
AcDbEntity
  8
AM_VIS
100
AcDbLine
 10
351.770692380294
 20
270.3114784702953
 30
0.0
 11
351.770692380294
 21
269.5315871659474
 31
0.0
  0
LINE
  5
DC4
330
1F
100
AcDbEntity
  8
AM_VIS
100
AcDbLine
 10
351.770692380294
 20
269.5315871659474
 30
0.0
 11
353.0927032498595
 21
269.5315871659474
 31
0.0
  0
SPLINE
  5
DC5
330
1F
100
AcDbEntity
  8
AM_VIS
100
AcDbSpline
210
0.0
220
0.0
230
1.0
 70
     8
 71
     3
 72
     8
 73
     4
 74
     0
 42
0.0000000001
 43
0.0000000001
 40
0.0
 40
0.0
 40
0.0
 40
0.0
 40
80.0
 40
80.0
 40
80.0
 40
80.0
 10
353.0927032498595
 20
269.5315871659474
 30
0.0
 10
353.2068336846415
 20
269.5315871659474
 30
0.0
 10
353.2797503271214
 20
269.5728008856887
 30
0.0
 10
353.3114532498595
 20
269.6552284702954
 30
0.0
  0
SPLINE
  5
DC6
330
1F
100
AcDbEntity
  8
AM_VIS
100
AcDbSpline
210
0.0
220
0.0
230
1.0
 70
     8
 71
     3
 72
     8
 73
     4
 74
     0
 42
0.0000000001
 43
0.0000000001
 40
0.0
 40
0.0
 40
0.0
 40
0.0
 40
80.0
 40
80.0
 40
80.0
 40
80.0
 10
353.3114532498595
 20
269.6552284702954
 30
0.0
 10
353.3368155445125
 20
269.7344856682972
 30
0.0
 10
353.34949672812
 20
269.9564059823398
 30
0.0
 10
353.34949672812
 20
270.3209893398604
 30
0.0
  0
SPLINE
  5
DC7
330
1F
100
AcDbEntity
  8
AM_VIS
100
AcDbSpline
210
0.0
220
0.0
230
1.0
 70
     8
 71
     3
 72
     8
 73
     4
 74
     0
 42
0.0000000001
 43
0.0000000001
 40
0.0
 40
0.0
 40
0.0
 40
0.0
 40
80.0
 40
80.0
 40
80.0
 40
80.0
 10
353.34949672812
 20
270.3209893398604
 30
0.0
 10
353.34949672812
 20
270.6158262963823
 30
0.0
 10
353.301942380294
 20
270.8314059823398
 30
0.0
 10
353.2068336846415
 20
270.9677284702954
 30
0.0
  0
SPLINE
  5
DC8
330
1F
100
AcDbEntity
  8
AM_VIS
100
AcDbSpline
210
0.0
220
0.0
230
1.0
 70
     8
 71
     3
 72
     8
 73
     4
 74
     0
 42
0.0000000001
 43
0.0000000001
 40
0.0
 40
0.0
 40
0.0
 40
0.0
 40
80.0
 40
80.0
 40
80.0
 40
80.0
 10
353.2068336846415
 20
270.9677284702954
 30
0.0
 10
353.1117249889895
 20
271.1040508856887
 30
0.0
 10
352.9278482257702
 20
271.2276921900367
 30
0.0
 10
352.6552032498595
 20
271.3386523833388
 30
0.0
  0
LINE
  5
DC9
330
1F
100
AcDbEntity
  8
AM_VIS
100
AcDbLine
 10
352.6552032498595
 20
271.3386523833388
 30
0.0
 11
352.6552032498595
 21
271.4385165137734
 31
0.0
  0
CIRCLE
  5
DCA
330
1F
100
AcDbEntity
  8
AM_VIS
100
AcDbCircle
 10
316.011181510729
 20
295.9941551007765
 30
0.0
 40
2.25
  0
CIRCLE
  5
DCB
330
1F
100
AcDbEntity
  8
AM_VIS
100
AcDbCircle
 10
316.011181510729
 20
279.9941551007766
 30
0.0
 40
2.25
  0
CIRCLE
  5
DCC
330
1F
100
AcDbEntity
  8
AM_VIS
100
AcDbCircle
 10
346.511181510729
 20
295.9941551007765
 30
0.0
 40
2.25
  0
CIRCLE
  5
DCD
330
1F
100
AcDbEntity
  8
AM_VIS
100
AcDbCircle
 10
346.511181510729
 20
279.9941551007766
 30
0.0
 40
2.25
  0
LINE
  5
DCE
330
1F
100
AcDbEntity
  8
AM_VIS
100
AcDbLine
 10
307.0111815107285
 20
193.8054417118534
 30
0.0
 11
355.5111815107285
 21
193.8054417118534
 31
0.0
  0
LINE
  5
DCF
330
1F
100
AcDbEntity
  8
AM_VIS
100
AcDbLine
 10
307.0111815107285
 20
194.1054417118536
 30
0.0
 11
307.0111815107285
 21
213.8054417118534
 31
0.0
  0
LINE
  5
DD0
330
1F
100
AcDbEntity
  8
AM_VIS
100
AcDbLine
 10
355.5111815107285
 20
194.1054417118536
 30
0.0
 11
355.5111815107285
 21
213.8054417118534
 31
0.0
  0
LINE
  5
DD1
330
1F
100
AcDbEntity
  8
AM_VIS
100
AcDbLine
 10
307.0111815107285
 20
213.8054417118534
 30
0.0
 11
355.5111815107285
 21
213.8054417118534
 31
0.0
  0
LINE
  5
DD2
330
1F
100
AcDbEntity
  8
AM_VIS
100
AcDbLine
 10
310.7136271629025
 20
213.8054417118534
 30
0.0
 11
309.9527575976855
 21
213.8054417118534
 31
0.0
  0
LINE
  5
DD3
330
1F
100
AcDbEntity
  8
AM_VIS
100
AcDbLine
 10
310.7897141194245
 20
213.8054417118534
 30
0.0
 11
310.7136271629025
 21
213.8054417118534
 31
0.0
  0
LINE
  5
DD4
330
1F
100
AcDbEntity
  8
AM_VIS
100
AcDbLine
 10
309.9527575976855
 20
213.8054417118534
 30
0.0
 11
309.168110858555
 21
213.8054417118534
 31
0.0
  0
LINE
  5
DD5
330
1F
100
AcDbEntity
  8
AM_VIS
100
AcDbLine
 10
312.3542521629025
 20
213.8054417118534
 30
0.0
 11
311.598138032468
 21
213.8054417118534
 31
0.0
  0
LINE
  5
DD6
330
1F
100
AcDbEntity
  8
AM_VIS
100
AcDbLine
 10
311.0417521629025
 20
213.8054417118534
 30
0.0
 11
310.989442380294
 21
213.8054417118534
 31
0.0
  0
LINE
  5
DD7
330
1F
100
AcDbEntity
  8
AM_VIS
100
AcDbLine
 10
311.598138032468
 20
213.8054417118534
 30
0.0
 11
311.0417521629025
 21
213.8054417118534
 31
0.0
  0
LINE
  5
DD8
330
1F
100
AcDbEntity
  8
AM_VIS
100
AcDbLine
 10
312.34949672812
 20
213.8054417118534
 30
0.0
 11
311.560094554207
 21
213.8054417118534
 31
0.0
  0
LINE
  5
DD9
330
1F
100
AcDbEntity
  8
AM_VIS
100
AcDbLine
 10
311.560094554207
 20
213.8054417118534
 30
0.0
 11
310.7278934672505
 21
213.8054417118534
 31
0.0
  0
LINE
  5
DDA
330
1F
100
AcDbEntity
  8
AM_VIS
100
AcDbLine
 10
350.2013989020335
 20
213.8054417118534
 30
0.0
 11
350.1728662933375
 21
213.8054417118534
 31
0.0
  0
LINE
  5
DDB
330
1F
100
AcDbEntity
  8
AM_VIS
100
AcDbLine
 10
350.3916162933375
 20
213.8054417118534
 30
0.0
 11
350.2013989020335
 21
213.8054417118534
 31
0.0
  0
LINE
  5
DDC
330
1F
100
AcDbEntity
  8
AM_VIS
100
AcDbLine
 10
351.794469554207
 20
213.8054417118534
 30
0.0
 11
351.7754478150765
 21
213.8054417118534
 31
0.0
  0
LINE
  5
DDD
330
1F
100
AcDbEntity
  8
AM_VIS
100
AcDbLine
 10
353.325719554207
 20
213.8054417118534
 30
0.0
 11
353.1022141194245
 21
213.8054417118534
 31
0.0
  0
LINE
  5
DDE
330
1F
100
AcDbEntity
  8
AM_VIS
100
AcDbLine
 10
353.3542521629025
 20
213.8054417118534
 30
0.0
 11
353.325719554207
 21
213.8054417118534
 31
0.0
  0
LINE
  5
DDF
330
1F
100
AcDbEntity
  8
AM_VIS
100
AcDbLine
 10
350.1728662933375
 20
213.8054417118534
 30
0.0
 11
350.168110858555
 21
213.8054417118534
 31
0.0
  0
LINE
  5
DE0
330
1F
100
AcDbEntity
  8
AM_VIS
100
AcDbLine
 10
350.2061543368155
 20
213.8054417118534
 30
0.0
 11
350.1728662933375
 21
213.8054417118534
 31
0.0
  0
LINE
  5
DE1
330
1F
100
AcDbEntity
  8
AM_VIS
100
AcDbLine
 10
350.3060184672505
 20
213.8054417118534
 30
0.0
 11
350.2061543368155
 21
213.8054417118534
 31
0.0
  0
LINE
  5
DE2
330
1F
100
AcDbEntity
  8
AM_VIS
100
AcDbLine
 10
307.0111815107285
 20
193.8054417118534
 30
0.0
 11
307.0111815107285
 21
194.1054417118536
 31
0.0
  0
LINE
  5
DE3
330
1F
100
AcDbEntity
  8
AM_VIS
100
AcDbLine
 10
355.5111815107285
 20
194.1054417118536
 30
0.0
 11
355.5111815107285
 21
193.8054417118534
 31
0.0
  0
LINE
  5
DE4
330
1F
100
AcDbEntity
  8
AM_VIS
100
AcDbLine
 10
273.0114767502134
 20
313.4941551007766
 30
0.0
 11
267.3114767502132
 21
313.4941551007766
 31
0.0
  0
LINE
  5
DE5
330
1F
100
AcDbEntity
  8
AM_VIS
100
AcDbLine
 10
253.3114767502131
 20
264.4941551007765
 30
0.0
 11
273.0114767502134
 21
264.4941551007765
 31
0.0
  0
LINE
  5
DE6
330
1F
100
AcDbEntity
  8
AM_VIS
100
AcDbLine
 10
253.0114767502134
 20
267.1941551007768
 30
0.0
 11
253.0114767502134
 21
264.7941551007767
 31
0.0
  0
LINE
  5
DE7
330
1F
100
AcDbEntity
  8
AM_VIS
100
AcDbLine
 10
257.5584898899199
 20
267.4941551007766
 30
0.0
 11
253.3114767502131
 21
267.4941551007766
 31
0.0
  0
LINE
  5
DE8
330
1F
100
AcDbEntity
  8
AM_VIS
100
AcDbLine
 10
259.7114767502137
 20
283.239157729589
 30
0.0
 11
259.7114767502137
 21
276.2491524719641
 31
0.0
  0
LINE
  5
DE9
330
1F
100
AcDbEntity
  8
AM_VIS
100
AcDbLine
 10
259.7114767502137
 20
299.739157729589
 30
0.0
 11
259.7114767502137
 21
292.7491524719641
 31
0.0
  0
LINE
  5
DEA
330
1F
100
AcDbEntity
  8
AM_VIS
100
AcDbLine
 10
253.3114767502131
 20
310.4941551007765
 30
0.0
 11
258.6376132077796
 21
310.4941551007765
 31
0.0
  0
LINE
  5
DEB
330
1F
100
AcDbEntity
  8
AM_VIS
100
AcDbLine
 10
253.0114767502134
 20
313.1941551007768
 30
0.0
 11
253.0114767502134
 21
310.7941551007767
 31
0.0
  0
LINE
  5
DEC
330
1F
100
AcDbEntity
  8
AM_VIS
100
AcDbLine
 10
262.2114767502137
 20
313.4941551007766
 30
0.0
 11
253.3114767502131
 21
313.4941551007766
 31
0.0
  0
LINE
  5
DED
330
1F
100
AcDbEntity
  8
AM_VIS
100
AcDbLine
 10
262.5114767502134
 20
311.7941551007767
 30
0.0
 11
262.5114767502134
 21
313.1941551007768
 31
0.0
  0
LINE
  5
DEE
330
1F
100
AcDbEntity
  8
AM_VIS
100
AcDbLine
 10
266.7114767502137
 20
311.4941551007766
 30
0.0
 11
262.8114767502132
 21
311.4941551007766
 31
0.0
  0
LINE
  5
DEF
330
1F
100
AcDbEntity
  8
AM_VIS
100
AcDbLine
 10
267.0114767502134
 20
313.1941551007768
 30
0.0
 11
267.0114767502134
 21
311.7941551007767
 31
0.0
  0
LINE
  5
DF0
102
{ACAD_REACTORS
330
F42
102
}
330
1F
100
AcDbEntity
  8
AM_VIS
100
AcDbLine
 10
273.0114767502134
 20
264.4941551007765
 30
0.0
 11
273.0114767502134
 21
313.4941551007766
 31
0.0
  0
LINE
  5
DF1
330
1F
100
AcDbEntity
  8
AM_VIS
100
AcDbLine
 10
273.0114767502134
 20
270.5249975646899
 30
0.0
 11
273.0114767502134
 21
270.3728235790842
 31
0.0
  0
LINE
  5
DF2
330
1F
100
AcDbEntity
  8
AM_VIS
100
AcDbLine
 10
273.0114767502134
 20
270.3728235790842
 30
0.0
 11
273.0114767502134
 21
270.0732311877797
 31
0.0
  0
LINE
  5
DF3
330
1F
100
AcDbEntity
  8
AM_VIS
100
AcDbLine
 10
273.0114767502134
 20
270.0732311877797
 30
0.0
 11
273.0114767502134
 21
269.0603235790842
 31
0.0
  0
LINE
  5
DF4
330
1F
100
AcDbEntity
  8
AM_VIS
100
AcDbLine
 10
273.0114767502134
 20
269.9876333616927
 30
0.0
 11
273.0114767502134
 21
269.5168453182147
 31
0.0
  0
LINE
  5
DF5
330
1F
100
AcDbEntity
  8
AM_VIS
100
AcDbLine
 10
273.0114767502134
 20
269.5168453182147
 30
0.0
 11
273.0114767502134
 21
269.1554322747362
 31
0.0
  0
LINE
  5
DF6
330
1F
100
AcDbEntity
  8
AM_VIS
100
AcDbLine
 10
273.0114767502134
 20
288.3490464051093
 30
0.0
 11
273.0114767502134
 21
287.9733670572833
 31
0.0
  0
LINE
  5
DF7
330
1F
100
AcDbEntity
  8
AM_VIS
100
AcDbLine
 10
273.0114767502134
 20
287.9733670572833
 30
0.0
 11
273.0114767502134
 21
287.0270355355443
 31
0.0
  0
LINE
  5
DF8
330
1F
100
AcDbEntity
  8
AM_VIS
100
AcDbLine
 10
273.0114767502134
 20
288.9612746660092
 30
0.0
 11
273.0114767502134
 21
287.8627692312267
 31
0.0
  0
LINE
  5
DF9
330
1F
100
AcDbEntity
  8
AM_VIS
100
AcDbLine
 10
273.0114767502134
 20
287.8627692312267
 30
0.0
 11
273.0114767502134
 21
287.6868181442702
 31
0.0
  0
LINE
  5
DFA
330
1F
100
AcDbEntity
  8
AM_VIS
100
AcDbLine
 10
273.0114767502134
 20
287.6868181442702
 30
0.0
 11
273.0114767502134
 21
287.6392637964442
 31
0.0
  0
LINE
  5
DFB
330
1F
100
AcDbEntity
  8
AM_VIS
100
AcDbLine
 10
273.0114767502134
 20
273.9279866224693
 30
0.0
 11
273.0114767502134
 21
273.3288018398604
 31
0.0
  0
LINE
  5
DFC
330
1F
100
AcDbEntity
  8
AM_VIS
100
AcDbLine
 10
273.0114767502134
 20
273.3288018398604
 30
0.0
 11
273.0114767502134
 21
272.4633127094258
 31
0.0
  0
LINE
  5
DFD
330
1F
100
AcDbEntity
  8
AM_VIS
100
AcDbLine
 10
273.0114767502134
 20
273.8328779268169
 30
0.0
 11
273.0114767502134
 21
272.8057040137734
 31
0.0
  0
LINE
  5
DFE
330
1F
100
AcDbEntity
  8
AM_VIS
100
AcDbLine
 10
273.0114767502134
 20
272.8057040137734
 30
0.0
 11
273.0114767502134
 21
272.5869540137734
 31
0.0
  0
LINE
  5
DFF
330
1F
100
AcDbEntity
  8
AM_VIS
100
AcDbLine
 10
273.0114767502134
 20
272.5869540137734
 30
0.0
 11
273.0114767502134
 21
272.4823344485563
 31
0.0
  0
LINE
  5
E00
330
1F
100
AcDbEntity
  8
AM_VIS
100
AcDbLine
 10
273.0114767502134
 20
272.4823344485563
 30
0.0
 11
273.0114767502134
 21
272.4633126368636
 31
0.0
  0
CIRCLE
  5
E01
330
1F
100
AcDbEntity
  8
AM_VIS
100
AcDbCircle
 10
265.5114767502134
 20
304.4941551007765
 30
0.0
 40
4.099999999999999
  0
CIRCLE
  5
E02
330
1F
100
AcDbEntity
  8
AM_VIS
100
AcDbCircle
 10
265.5114767502134
 20
287.9941551007765
 30
0.0
 40
4.099999999999999
  0
CIRCLE
  5
E03
330
1F
100
AcDbEntity
  8
AM_VIS
100
AcDbCircle
 10
265.5114767502134
 20
271.4941551007765
 30
0.0
 40
4.099999999999999
  0
ARC
  5
E05
102
{ACAD_REACTORS
330
F42
330
F47
102
}
330
1F
100
AcDbEntity
  8
AM_VIS
100
AcDbCircle
 10
253.3114767502136
 20
264.7941551007767
 30
0.0
 40
0.3
100
AcDbArc
 50
180.0
 51
270.0
  0
ARC
  5
E06
330
1F
100
AcDbEntity
  8
AM_VIS
100
AcDbCircle
 10
253.3114767502136
 20
267.1941551007768
 30
0.0
 40
0.3
100
AcDbArc
 50
90.0
 51
180.0
  0
ARC
  5
E07
330
1F
100
AcDbEntity
  8
AM_VIS
100
AcDbCircle
 10
257.5584898899204
 20
268.4941551007765
 30
0.0
 40
1.0
100
AcDbArc
 50
270.0
 51
20.66731649352404
  0
ARC
  5
E08
330
1F
100
AcDbEntity
  8
AM_VIS
100
AcDbCircle
 10
265.5114767502134
 20
271.4941551007765
 30
0.0
 40
7.5
100
AcDbArc
 50
140.6541702337962
 51
200.6673164935241
  0
ARC
  5
E09
330
1F
100
AcDbEntity
  8
AM_VIS
100
AcDbCircle
 10
265.5114767502134
 20
287.9941551007765
 30
0.0
 40
7.5
100
AcDbArc
 50
140.6541702337962
 51
219.3458297662038
  0
ARC
  5
E0A
330
1F
100
AcDbEntity
  8
AM_VIS
100
AcDbCircle
 10
265.5114767502134
 20
304.4941551007765
 30
0.0
 40
7.5
100
AcDbArc
 50
143.9681209275428
 51
219.3458297662038
  0
ARC
  5
E0B
330
1F
100
AcDbEntity
  8
AM_VIS
100
AcDbCircle
 10
258.6376132077801
 20
309.4941551007766
 30
0.0
 40
1.0
100
AcDbArc
 50
323.9681209275429
 51
90.0
  0
ARC
  5
E0C
330
1F
100
AcDbEntity
  8
AM_VIS
100
AcDbCircle
 10
253.3114767502136
 20
310.7941551007767
 30
0.0
 40
0.3
100
AcDbArc
 50
180.0
 51
270.0
  0
ARC
  5
E0D
330
1F
100
AcDbEntity
  8
AM_VIS
100
AcDbCircle
 10
253.3114767502136
 20
313.1941551007768
 30
0.0
 40
0.3
100
AcDbArc
 50
90.0
 51
180.0
  0
ARC
  5
E0E
330
1F
100
AcDbEntity
  8
AM_VIS
100
AcDbCircle
 10
262.2114767502137
 20
313.1941551007768
 30
0.0
 40
0.3
100
AcDbArc
 50
0.0
 51
90.0
  0
ARC
  5
E0F
330
1F
100
AcDbEntity
  8
AM_VIS
100
AcDbCircle
 10
262.8114767502136
 20
311.7941551007767
 30
0.0
 40
0.2999999999999999
100
AcDbArc
 50
180.0
 51
270.0
  0
ARC
  5
E10
330
1F
100
AcDbEntity
  8
AM_VIS
100
AcDbCircle
 10
266.7114767502137
 20
311.7941551007767
 30
0.0
 40
0.3
100
AcDbArc
 50
270.0
 51
0.0
  0
ARC
  5
E11
330
1F
100
AcDbEntity
  8
AM_VIS
100
AcDbCircle
 10
267.3114767502136
 20
313.1941551007768
 30
0.0
 40
0.3
100
AcDbArc
 50
90.0
 51
180.0
  0
LINE
  5
E14
330
1F
100
AcDbEntity
  8
AM_VIS
100
AcDbLine
 10
307.0111815107285
 20
264.4941551007765
 30
0.0
 11
355.5111815107285
 21
264.4941551007765
 31
0.0
  0
LINE
  5
E15
102
{ACAD_REACTORS
330
F36
330
F39
330
F4D
102
}
330
1F
100
AcDbEntity
  8
AM_VIS
100
AcDbLine
 10
307.0111815107285
 20
264.4941551007765
 30
0.0
 11
307.0111815107285
 21
313.4941551007766
 31
0.0
  0
LINE
  5
E16
102
{ACAD_REACTORS
330
F36
102
}
330
1F
100
AcDbEntity
  8
AM_VIS
100
AcDbLine
 10
307.0111815107285
 20
313.4941551007766
 30
0.0
 11
355.5111815107285
 21
313.4941551007766
 31
0.0
  0
LINE
  5
E17
102
{ACAD_REACTORS
330
F3C
330
F4D
102
}
330
1F
100
AcDbEntity
  8
AM_VIS
100
AcDbLine
 10
355.5111815107285
 20
264.4941551007765
 30
0.0
 11
355.5111815107285
 21
313.4941551007766
 31
0.0
  0
LINE
  5
E18
330
1F
100
AcDbEntity
  8
AM_VIS
100
AcDbLine
 10
310.124666156924
 20
302.858641082085
 30
0.0
 11
311.5946261035193
 21
303.3633139792816
 31
0.0
  0
LINE
  5
E19
330
1F
100
AcDbEntity
  8
AM_VIS
100
AcDbLine
 10
311.5946261035193
 20
303.3633139792816
 30
0.0
 11
310.124666156924
 21
303.8920189192014
 31
0.0
  0
LINE
  5
E1A
330
1F
100
AcDbEntity
  8
AM_VIS
100
AcDbLine
 10
310.124666156924
 20
303.8920189192014
 30
0.0
 11
310.124666156924
 21
302.858641082085
 31
0.0
  0
LINE
  5
E1B
330
1F
100
AcDbEntity
  8
AM_VIS
100
AcDbLine
 10
309.0111815107285
 20
301.9654501608567
 30
0.0
 11
309.0111815107285
 21
302.9147158484403
 31
0.0
  0
LINE
  5
E1C
330
1F
100
AcDbEntity
  8
AM_VIS
100
AcDbLine
 10
309.0111815107285
 20
302.9147158484403
 30
0.0
 11
309.0912883198076
 21
302.9147158484403
 31
0.0
  0
SPLINE
  5
E1D
330
1F
100
AcDbEntity
  8
AM_VIS
100
AcDbSpline
210
0.0
220
0.0
230
1.0
 70
     8
 71
     3
 72
     8
 73
     4
 74
     0
 42
0.0000000001
 43
0.0000000001
 40
0.0
 40
0.0
 40
0.0
 40
0.0
 40
80.0
 40
80.0
 40
80.0
 40
80.0
 10
309.0912883198076
 20
302.9147158484403
 30
0.0
 10
309.0966288144906
 20
302.8105769966379
 30
0.0
 10
309.1073096816236
 20
302.7371457753544
 30
0.0
 10
309.1233310434392
 20
302.6944221234736
 30
0.0
  0
SPLINE
  5
E1E
330
1F
100
AcDbEntity
  8
AM_VIS
100
AcDbSpline
210
0.0
220
0.0
230
1.0
 70
     8
 71
     3
 72
     8
 73
     4
 74
     0
 42
0.0000000001
 43
0.0000000001
 40
0.0
 40
0.0
 40
0.0
 40
0.0
 40
80.0
 40
80.0
 40
80.0
 40
80.0
 10
309.1233310434392
 20
302.6944221234736
 30
0.0
 10
309.1527035808459
 20
302.6276664899857
 30
0.0
 10
309.2087783472008
 20
302.5942886121253
 30
0.0
 10
309.2915553425047
 20
302.5942886121253
 30
0.0
  0
SPLINE
  5
E1F
330
1F
100
AcDbEntity
  8
AM_VIS
100
AcDbSpline
210
0.0
220
0.0
230
1.0
 70
     8
 71
     3
 72
     8
 73
     4
 74
     0
 42
0.0000000001
 43
0.0000000001
 40
0.0
 40
0.0
 40
0.0
 40
0.0
 40
80.0
 40
80.0
 40
80.0
 40
80.0
 10
309.2915553425047
 20
302.5942886121253
 30
0.0
 10
309.3583109759921
 20
302.5942886121253
 30
0.0
 10
309.4544391468872
 20
302.6169855617364
 30
0.0
 10
309.5799398551882
 20
302.6623793998421
 30
0.0
  0
LINE
  5
E20
330
1F
100
AcDbEntity
  8
AM_VIS
100
AcDbLine
 10
309.5799398551882
 20
302.6623793998421
 30
0.0
 11
309.9764685601277
 21
302.8065716561838
 31
0.0
  0
LINE
  5
E21
330
1F
100
AcDbEntity
  8
AM_VIS
100
AcDbLine
 10
309.9764685601277
 20
302.8065716561838
 30
0.0
 11
309.9764685601277
 21
303.9280669832866
 31
0.0
  0
LINE
  5
E22
330
1F
100
AcDbEntity
  8
AM_VIS
100
AcDbLine
 10
309.9764685601277
 20
303.9280669832866
 30
0.0
 11
309.4677903224775
 21
304.1283340059837
 31
0.0
  0
SPLINE
  5
E23
330
1F
100
AcDbEntity
  8
AM_VIS
100
AcDbSpline
210
0.0
220
0.0
230
1.0
 70
     8
 71
     3
 72
     8
 73
     4
 74
     0
 42
0.0000000001
 43
0.0000000001
 40
0.0
 40
0.0
 40
0.0
 40
0.0
 40
80.0
 40
80.0
 40
80.0
 40
80.0
 10
309.4677903224775
 20
304.1283340059837
 30
0.0
 10
309.4143857423475
 20
304.1496958624822
 30
0.0
 10
309.3556407897678
 20
304.1603767296152
 30
0.0
 10
309.2915553425047
 20
304.1603767296152
 30
0.0
  0
SPLINE
  5
E24
330
1F
100
AcDbEntity
  8
AM_VIS
100
AcDbSpline
210
0.0
220
0.0
230
1.0
 70
     8
 71
     3
 72
     8
 73
     4
 74
     0
 42
0.0000000001
 43
0.0000000001
 40
0.0
 40
0.0
 40
0.0
 40
0.0
 40
80.0
 40
80.0
 40
80.0
 40
80.0
 10
309.2915553425047
 20
304.1603767296152
 30
0.0
 10
309.2061080998593
 20
304.1603767296152
 30
0.0
 10
309.1500333335044
 20
304.1283340059837
 30
0.0
 10
309.1233310434392
 20
304.0642485587206
 30
0.0
  0
SPLINE
  5
E25
330
1F
100
AcDbEntity
  8
AM_VIS
100
AcDbSpline
210
0.0
220
0.0
230
1.0
 70
     8
 71
     3
 72
     8
 73
     4
 74
     0
 42
0.0000000001
 43
0.0000000001
 40
0.0
 40
0.0
 40
0.0
 40
0.0
 40
80.0
 40
80.0
 40
80.0
 40
80.0
 10
309.1233310434392
 20
304.0642485587206
 30
0.0
 10
309.1073096816236
 20
304.0348760824305
 30
0.0
 10
309.0966288144906
 20
303.9788013160757
 30
0.0
 10
309.0912883198076
 20
303.8960242596551
 30
0.0
  0
LINE
  5
E26
330
1F
100
AcDbEntity
  8
AM_VIS
100
AcDbLine
 10
309.0912883198076
 20
303.8960242596551
 30
0.0
 11
309.0111815107285
 21
303.8960242596551
 31
0.0
  0
LINE
  5
E27
330
1F
100
AcDbEntity
  8
AM_VIS
100
AcDbLine
 10
309.0111815107285
 20
303.8960242596551
 30
0.0
 11
309.0111815107285
 21
304.6290015627261
 31
0.0
  0
LINE
  5
E28
330
1F
100
AcDbEntity
  8
AM_VIS
100
AcDbLine
 10
309.0111815107285
 20
304.6290015627261
 30
0.0
 11
309.0912883198076
 21
304.6290015627261
 31
0.0
  0
LINE
  5
E29
330
1F
100
AcDbEntity
  8
AM_VIS
100
AcDbLine
 10
309.0906391024279
 20
304.6288766420272
 30
0.0
 11
309.1106768182764
 21
304.5247399094288
 31
0.0
  0
SPLINE
  5
E2A
330
1F
100
AcDbEntity
  8
AM_VIS
100
AcDbSpline
210
0.0
220
0.0
230
1.0
 70
     8
 71
     3
 72
     8
 73
     4
 74
     0
 42
0.0000000001
 43
0.0000000001
 40
0.0
 40
0.0
 40
0.0
 40
0.0
 40
80.0
 40
80.0
 40
80.0
 40
80.0
 10
309.1113150220773
 20
304.5248627109237
 30
0.0
 10
309.1193257029851
 20
304.4928200484088
 30
0.0
 10
309.1420226525962
 20
304.4621124178894
 30
0.0
 10
309.179405809794
 20
304.4327398804832
 30
0.0
  0
SPLINE
  5
E2B
330
1F
100
AcDbEntity
  8
AM_VIS
100
AcDbSpline
210
0.0
220
0.0
230
1.0
 70
     8
 71
     3
 72
     8
 73
     4
 74
     0
 42
0.0000000001
 43
0.0000000001
 40
0.0
 40
0.0
 40
0.0
 40
0.0
 40
80.0
 40
80.0
 40
80.0
 40
80.0
 10
309.179405809794
 20
304.4327398804832
 30
0.0
 10
309.275533919572
 20
304.357973566087
 30
0.0
 10
309.4864818705183
 20
304.2605102409635
 30
0.0
 10
309.8122496015168
 20
304.1403500273456
 30
0.0
  0
LINE
  5
E2C
330
1F
100
AcDbEntity
  8
AM_VIS
100
AcDbLine
 10
309.8122496015168
 20
304.1403500273456
 30
0.0
 11
312.0111815107285
 21
303.33127125565
 31
0.0
  0
LINE
  5
E2D
330
1F
100
AcDbEntity
  8
AM_VIS
100
AcDbLine
 10
312.0111815107285
 20
303.33127125565
 30
0.0
 11
312.0111815107285
 21
303.315249893834
 31
0.0
  0
LINE
  5
E2E
330
1F
100
AcDbEntity
  8
AM_VIS
100
AcDbLine
 10
312.0111815107285
 20
303.315249893834
 30
0.0
 11
309.4838116842935
 21
302.3659842062508
 31
0.0
  0
SPLINE
  5
E2F
330
1F
100
AcDbEntity
  8
AM_VIS
100
AcDbSpline
210
0.0
220
0.0
230
1.0
 70
     8
 71
     3
 72
     8
 73
     4
 74
     0
 42
0.0000000001
 43
0.0000000001
 40
0.0
 40
0.0
 40
0.0
 40
0.0
 40
80.0
 40
80.0
 40
80.0
 40
80.0
 10
309.4838116842935
 20
302.3659842062508
 30
0.0
 10
309.3235980661358
 20
302.3072392536707
 30
0.0
 10
309.2154538738797
 20
302.2431538064076
 30
0.0
 10
309.1593791075248
 20
302.1737278644615
 30
0.0
  0
SPLINE
  5
E30
330
1F
100
AcDbEntity
  8
AM_VIS
100
AcDbSpline
210
0.0
220
0.0
230
1.0
 70
     8
 71
     3
 72
     8
 73
     4
 74
     0
 42
0.0000000001
 43
0.0000000001
 40
0.0
 40
0.0
 40
0.0
 40
0.0
 40
80.0
 40
80.0
 40
80.0
 40
80.0
 10
309.1593791075248
 20
302.1737278644615
 30
0.0
 10
309.1273363838928
 20
302.1336744599222
 30
0.0
 10
309.1046394953984
 20
302.0642485790928
 30
0.0
 10
309.0912883198076
 20
301.9654501608567
 30
0.0
  0
LINE
  5
E31
330
1F
100
AcDbEntity
  8
AM_VIS
100
AcDbLine
 10
309.0912883198076
 20
301.9654501608567
 30
0.0
 11
309.0111815107285
 21
301.9654501608567
 31
0.0
  0
LINE
  5
E32
330
1F
100
AcDbEntity
  8
AM_VIS
100
AcDbLine
 10
309.7321427924377
 20
304.739148425209
 30
0.0
 11
309.0111815107285
 21
304.9073727242745
 31
0.0
  0
LINE
  5
E33
330
1F
100
AcDbEntity
  8
AM_VIS
100
AcDbLine
 10
309.0111815107285
 20
304.9073727242745
 30
0.0
 11
309.0111815107285
 21
306.9941551007766
 31
0.0
  0
LINE
  5
E34
330
1F
100
AcDbEntity
  8
AM_VIS
100
AcDbLine
 10
309.0111815107285
 20
306.9941551007766
 30
0.0
 11
309.0912883198076
 21
306.9941551007766
 31
0.0
  0
SPLINE
  5
E35
330
1F
100
AcDbEntity
  8
AM_VIS
100
AcDbSpline
210
0.0
220
0.0
230
1.0
 70
     8
 71
     3
 72
     8
 73
     4
 74
     0
 42
0.0000000001
 43
0.0000000001
 40
0.0
 40
0.0
 40
0.0
 40
0.0
 40
80.0
 40
80.0
 40
80.0
 40
80.0
 10
309.0912883198076
 20
306.9941551007766
 30
0.0
 10
309.1046394953984
 20
306.8499629055515
 30
0.0
 10
309.1313417243469
 20
306.752499580428
 30
0.0
 10
309.1713951288863
 20
306.701765247639
 30
0.0
  0
SPLINE
  5
E36
330
1F
100
AcDbEntity
  8
AM_VIS
100
AcDbSpline
210
0.0
220
0.0
230
1.0
 70
     8
 71
     3
 72
     8
 73
     4
 74
     0
 42
0.0000000001
 43
0.0000000001
 40
0.0
 40
0.0
 40
0.0
 40
0.0
 40
80.0
 40
80.0
 40
80.0
 40
80.0
 10
309.1713951288863
 20
306.701765247639
 30
0.0
 10
309.2301401425831
 20
306.6323393668096
 30
0.0
 10
309.3409545210644
 20
306.5976263958365
 30
0.0
 10
309.5038383865632
 20
306.5976263958365
 30
0.0
  0
LINE
  5
E37
330
1F
100
AcDbEntity
  8
AM_VIS
100
AcDbLine
 10
309.5038383865632
 20
306.5976263958365
 30
0.0
 11
311.462449868539
 21
306.5976263958365
 31
0.0
  0
SPLINE
  5
E38
330
1F
100
AcDbEntity
  8
AM_VIS
100
AcDbSpline
210
0.0
220
0.0
230
1.0
 70
     8
 71
     3
 72
     8
 73
     4
 74
     0
 42
0.0000000001
 43
0.0000000001
 40
0.0
 40
0.0
 40
0.0
 40
0.0
 40
80.0
 40
80.0
 40
80.0
 40
80.0
 10
311.462449868539
 20
306.5976263958365
 30
0.0
 10
311.6333443538298
 20
306.5976263958365
 30
0.0
 10
311.7468290407688
 20
306.6323393668096
 30
0.0
 10
311.8029038071237
 20
306.701765247639
 30
0.0
  0
SPLINE
  5
E39
330
1F
100
AcDbEntity
  8
AM_VIS
100
AcDbSpline
210
0.0
220
0.0
230
1.0
 70
     8
 71
     3
 72
     8
 73
     4
 74
     0
 42
0.0000000001
 43
0.0000000001
 40
0.0
 40
0.0
 40
0.0
 40
0.0
 40
80.0
 40
80.0
 40
80.0
 40
80.0
 10
311.8029038071237
 20
306.701765247639
 30
0.0
 10
311.840286964322
 20
306.7471591468617
 30
0.0
 10
311.865654100158
 20
306.8446224108685
 30
0.0
 10
311.8790052757487
 20
306.9941551007766
 30
0.0
  0
LINE
  5
E3A
330
1F
100
AcDbEntity
  8
AM_VIS
100
AcDbLine
 10
311.8790052757487
 20
306.9941551007766
 30
0.0
 11
311.9591120848273
 21
306.9941551007766
 31
0.0
  0
LINE
  5
E3B
330
1F
100
AcDbEntity
  8
AM_VIS
100
AcDbLine
 10
311.9591120848273
 20
306.9941551007766
 30
0.0
 11
311.9591120848273
 21
304.9394154479061
 31
0.0
  0
LINE
  5
E3C
330
1F
100
AcDbEntity
  8
AM_VIS
100
AcDbLine
 10
311.9591120848273
 20
304.9394154479061
 30
0.0
 11
311.3583110167366
 21
304.9273994265442
 31
0.0
  0
LINE
  5
E3D
330
1F
100
AcDbEntity
  8
AM_VIS
100
AcDbLine
 10
311.3583110167366
 20
304.9273994265442
 30
0.0
 11
311.3583110167366
 21
305.0115115760769
 31
0.0
  0
SPLINE
  5
E3E
330
1F
100
AcDbEntity
  8
AM_VIS
100
AcDbSpline
210
0.0
220
0.0
230
1.0
 70
     8
 71
     3
 72
     8
 73
     4
 74
     0
 42
0.0000000001
 43
0.0000000001
 40
0.0
 40
0.0
 40
0.0
 40
0.0
 40
80.0
 40
80.0
 40
80.0
 40
80.0
 10
311.3583110167366
 20
305.0115115760769
 30
0.0
 10
311.563918473
 20
305.0435542997085
 30
0.0
 10
311.6920893675261
 20
305.0942886324975
 30
0.0
 10
311.7428237003152
 20
305.1637145133269
 30
0.0
  0
SPLINE
  5
E3F
330
1F
100
AcDbEntity
  8
AM_VIS
100
AcDbSpline
210
0.0
220
0.0
230
1.0
 70
     8
 71
     3
 72
     8
 73
     4
 74
     0
 42
0.0000000001
 43
0.0000000001
 40
0.0
 40
0.0
 40
0.0
 40
0.0
 40
80.0
 40
80.0
 40
80.0
 40
80.0
 10
311.7428237003152
 20
305.1637145133269
 30
0.0
 10
311.7962282193285
 20
305.233140455273
 30
0.0
 10
311.8229305093938
 20
305.3813380520684
 30
0.0
 10
311.8229305093938
 20
305.608307303714
 30
0.0
  0
LINE
  5
E40
330
1F
100
AcDbEntity
  8
AM_VIS
100
AcDbLine
 10
311.8229305093938
 20
305.608307303714
 30
0.0
 11
311.8229305093938
 21
306.185076329081
 31
0.0
  0
SPLINE
  5
E41
330
1F
100
AcDbEntity
  8
AM_VIS
100
AcDbSpline
210
0.0
220
0.0
230
1.0
 70
     8
 71
     3
 72
     8
 73
     4
 74
     0
 42
0.0000000001
 43
0.0000000001
 40
0.0
 40
0.0
 40
0.0
 40
0.0
 40
80.0
 40
80.0
 40
80.0
 40
80.0
 10
311.8229305093938
 20
306.185076329081
 30
0.0
 10
311.8229305093938
 20
306.2571724572519
 30
0.0
 10
311.8202602620523
 20
306.2972258617912
 30
0.0
 10
311.8149198284856
 20
306.3052365426994
 30
0.0
  0
SPLINE
  5
E42
330
1F
100
AcDbEntity
  8
AM_VIS
100
AcDbSpline
210
0.0
220
0.0
230
1.0
 70
     8
 71
     3
 72
     8
 73
     4
 74
     0
 42
0.0000000001
 43
0.0000000001
 40
0.0
 40
0.0
 40
0.0
 40
0.0
 40
80.0
 40
80.0
 40
80.0
 40
80.0
 10
311.8149198284856
 20
306.3052365426994
 30
0.0
 10
311.8015686528949
 20
306.3319388327642
 30
0.0
 10
311.7535045674478
 20
306.3452899472387
 30
0.0
 10
311.6707275721438
 20
306.3452899472387
 30
0.0
  0
LINE
  5
E43
330
1F
100
AcDbEntity
  8
AM_VIS
100
AcDbLine
 10
311.6707275721438
 20
306.3452899472387
 30
0.0
 11
310.6413550754816
 21
306.3452899472387
 31
0.0
  0
LINE
  5
E44
330
1F
100
AcDbEntity
  8
AM_VIS
100
AcDbLine
 10
310.6413550754816
 20
306.3452899472387
 30
0.0
 11
310.6413550754816
 21
305.6884141127927
 31
0.0
  0
SPLINE
  5
E45
330
1F
100
AcDbEntity
  8
AM_VIS
100
AcDbSpline
210
0.0
220
0.0
230
1.0
 70
     8
 71
     3
 72
     8
 73
     4
 74
     0
 42
0.0000000001
 43
0.0000000001
 40
0.0
 40
0.0
 40
0.0
 40
0.0
 40
80.0
 40
80.0
 40
80.0
 40
80.0
 10
310.6413550754816
 20
305.6884141127927
 30
0.0
 10
310.6413550754816
 20
305.5175196275023
 30
0.0
 10
310.6707275517721
 20
305.4040349405628
 30
0.0
 10
310.7294725654684
 20
305.3479601742079
 30
0.0
  0
SPLINE
  5
E46
330
1F
100
AcDbEntity
  8
AM_VIS
100
AcDbSpline
210
0.0
220
0.0
230
1.0
 70
     8
 71
     3
 72
     8
 73
     4
 74
     0
 42
0.0000000001
 43
0.0000000001
 40
0.0
 40
0.0
 40
0.0
 40
0.0
 40
80.0
 40
80.0
 40
80.0
 40
80.0
 10
310.7294725654684
 20
305.3479601742079
 30
0.0
 10
310.777536650916
 20
305.3025663361024
 30
0.0
 10
310.885680843172
 20
305.2678534262455
 30
0.0
 10
311.0539051422376
 20
305.2438213224056
 30
0.0
  0
LINE
  5
E47
330
1F
100
AcDbEntity
  8
AM_VIS
100
AcDbLine
 10
311.0539051422376
 20
305.2438213224056
 30
0.0
 11
311.0539051422376
 21
305.1597091728728
 31
0.0
  0
LINE
  5
E48
330
1F
100
AcDbEntity
  8
AM_VIS
100
AcDbLine
 10
311.0539051422376
 20
305.1597091728728
 30
0.0
 11
310.0565753692068
 21
305.1597091728728
 31
0.0
  0
LINE
  5
E49
330
1F
100
AcDbEntity
  8
AM_VIS
100
AcDbLine
 10
310.0565753692068
 20
305.1597091728728
 30
0.0
 11
310.0565753692068
 21
305.2438213224056
 31
0.0
  0
SPLINE
  5
E4A
330
1F
100
AcDbEntity
  8
AM_VIS
100
AcDbSpline
210
0.0
220
0.0
230
1.0
 70
     8
 71
     3
 72
     8
 73
     4
 74
     0
 42
0.0000000001
 43
0.0000000001
 40
0.0
 40
0.0
 40
0.0
 40
0.0
 40
80.0
 40
80.0
 40
80.0
 40
80.0
 10
310.0565753692068
 20
305.2438213224056
 30
0.0
 10
310.2381507827464
 20
305.2678534262455
 30
0.0
 10
310.3529705627981
 20
305.3052365834438
 30
0.0
 10
310.4010346482456
 20
305.3559708551158
 30
0.0
  0
SPLINE
  5
E4B
330
1F
100
AcDbEntity
  8
AM_VIS
100
AcDbSpline
210
0.0
220
0.0
230
1.0
 70
     8
 71
     3
 72
     8
 73
     4
 74
     0
 42
0.0000000001
 43
0.0000000001
 40
0.0
 40
0.0
 40
0.0
 40
0.0
 40
80.0
 40
80.0
 40
80.0
 40
80.0
 10
310.4010346482456
 20
305.3559708551158
 30
0.0
 10
310.4517689199175
 20
305.4093754352463
 30
0.0
 10
310.4771361168706
 20
305.5201898748438
 30
0.0
 10
310.4771361168706
 20
305.6884141127927
 30
0.0
  0
LINE
  5
E4C
330
1F
100
AcDbEntity
  8
AM_VIS
100
AcDbLine
 10
310.4771361168706
 20
305.6884141127927
 30
0.0
 11
310.4771361168706
 21
306.3452899472387
 31
0.0
  0
LINE
  5
E4D
330
1F
100
AcDbEntity
  8
AM_VIS
100
AcDbLine
 10
310.4771361168706
 20
306.3452899472387
 30
0.0
 11
309.3636514706751
 21
306.3452899472387
 31
0.0
  0
SPLINE
  5
E4E
330
1F
100
AcDbEntity
  8
AM_VIS
100
AcDbSpline
210
0.0
220
0.0
230
1.0
 70
     8
 71
     3
 72
     8
 73
     4
 74
     0
 42
0.0000000001
 43
0.0000000001
 40
0.0
 40
0.0
 40
0.0
 40
0.0
 40
80.0
 40
80.0
 40
80.0
 40
80.0
 10
309.3636514706751
 20
306.3452899472387
 30
0.0
 10
309.2675232997809
 20
306.3452899472387
 30
0.0
 10
309.2061080998593
 20
306.3105770373824
 30
0.0
 10
309.179405809794
 20
306.2411510954363
 30
0.0
  0
SPLINE
  5
E4F
330
1F
100
AcDbEntity
  8
AM_VIS
100
AcDbSpline
210
0.0
220
0.0
230
1.0
 70
     8
 71
     3
 72
     8
 73
     4
 74
     0
 42
0.0000000001
 43
0.0000000001
 40
0.0
 40
0.0
 40
0.0
 40
0.0
 40
80.0
 40
80.0
 40
80.0
 40
80.0
 10
309.179405809794
 20
306.2411510954363
 30
0.0
 10
309.1580440144122
 20
306.1743954619484
 30
0.0
 10
309.147363086163
 20
305.9874795537258
 30
0.0
 10
309.147363086163
 20
305.6804034318849
 30
0.0
  0
SPLINE
  5
E50
330
1F
100
AcDbEntity
  8
AM_VIS
100
AcDbSpline
210
0.0
220
0.0
230
1.0
 70
     8
 71
     3
 72
     8
 73
     4
 74
     0
 42
0.0000000001
 43
0.0000000001
 40
0.0
 40
0.0
 40
0.0
 40
0.0
 40
80.0
 40
80.0
 40
80.0
 40
80.0
 10
309.147363086163
 20
305.6804034318849
 30
0.0
 10
309.147363086163
 20
305.4320723237407
 30
0.0
 10
309.1874164907023
 20
305.2504969102011
 30
0.0
 10
309.2675232997809
 20
305.135677130149
 30
0.0
  0
SPLINE
  5
E51
330
1F
100
AcDbEntity
  8
AM_VIS
100
AcDbSpline
210
0.0
220
0.0
230
1.0
 70
     8
 71
     3
 72
     8
 73
     4
 74
     0
 42
0.0000000001
 43
0.0000000001
 40
0.0
 40
0.0
 40
0.0
 40
0.0
 40
80.0
 40
80.0
 40
80.0
 40
80.0
 10
309.2675232997809
 20
305.135677130149
 30
0.0
 10
309.3476301088596
 20
305.020857411214
 30
0.0
 10
309.5025032323339
 20
304.9167185594116
 30
0.0
 10
309.7321427924377
 20
304.8232605747418
 30
0.0
  0
LINE
  5
E52
330
1F
100
AcDbEntity
  8
AM_VIS
100
AcDbLine
 10
309.7321427924377
 20
304.8232605747418
 30
0.0
 11
309.7321427924377
 21
304.739148425209
 31
0.0
  0
LINE
  5
E53
330
1F
100
AcDbEntity
  8
AM_VIS
100
AcDbLine
 10
352.3976968645339
 20
306.1296691194681
 30
0.0
 11
350.9277369179382
 21
305.624996222272
 31
0.0
  0
LINE
  5
E54
330
1F
100
AcDbEntity
  8
AM_VIS
100
AcDbLine
 10
350.9277369179382
 20
305.624996222272
 30
0.0
 11
352.3976968645339
 21
305.0962912823521
 31
0.0
  0
LINE
  5
E55
330
1F
100
AcDbEntity
  8
AM_VIS
100
AcDbLine
 10
352.3976968645339
 20
305.0962912823521
 30
0.0
 11
352.3976968645339
 21
306.1296691194681
 31
0.0
  0
LINE
  5
E56
330
1F
100
AcDbEntity
  8
AM_VIS
100
AcDbLine
 10
353.5111815107285
 20
307.0228600406964
 30
0.0
 11
353.5111815107285
 21
306.0735943531132
 31
0.0
  0
LINE
  5
E57
330
1F
100
AcDbEntity
  8
AM_VIS
100
AcDbLine
 10
353.5111815107285
 20
306.0735943531132
 30
0.0
 11
353.4310747016499
 21
306.0735943531132
 31
0.0
  0
SPLINE
  5
E58
330
1F
100
AcDbEntity
  8
AM_VIS
100
AcDbSpline
210
0.0
220
0.0
230
1.0
 70
     8
 71
     3
 72
     8
 73
     4
 74
     0
 42
0.0000000001
 43
0.0000000001
 40
0.0
 40
0.0
 40
0.0
 40
0.0
 40
80.0
 40
80.0
 40
80.0
 40
80.0
 10
353.4310747016499
 20
306.0735943531132
 30
0.0
 10
353.4257342069669
 20
306.1777332049156
 30
0.0
 10
353.4150533398344
 20
306.2511644261987
 30
0.0
 10
353.3990319780188
 20
306.2938880780799
 30
0.0
  0
SPLINE
  5
E59
330
1F
100
AcDbEntity
  8
AM_VIS
100
AcDbSpline
210
0.0
220
0.0
230
1.0
 70
     8
 71
     3
 72
     8
 73
     4
 74
     0
 42
0.0000000001
 43
0.0000000001
 40
0.0
 40
0.0
 40
0.0
 40
0.0
 40
80.0
 40
80.0
 40
80.0
 40
80.0
 10
353.3990319780188
 20
306.2938880780799
 30
0.0
 10
353.3696594406121
 20
306.3606437115674
 30
0.0
 10
353.3135846742567
 20
306.3940215894283
 30
0.0
 10
353.2308076789533
 20
306.3940215894283
 30
0.0
  0
SPLINE
  5
E5A
330
1F
100
AcDbEntity
  8
AM_VIS
100
AcDbSpline
210
0.0
220
0.0
230
1.0
 70
     8
 71
     3
 72
     8
 73
     4
 74
     0
 42
0.0000000001
 43
0.0000000001
 40
0.0
 40
0.0
 40
0.0
 40
0.0
 40
80.0
 40
80.0
 40
80.0
 40
80.0
 10
353.2308076789533
 20
306.3940215894283
 30
0.0
 10
353.1640520454649
 20
306.3940215894283
 30
0.0
 10
353.0679238745707
 20
306.3713246398171
 30
0.0
 10
352.9424231662698
 20
306.325930801711
 30
0.0
  0
LINE
  5
E5B
330
1F
100
AcDbEntity
  8
AM_VIS
100
AcDbLine
 10
352.9424231662698
 20
306.325930801711
 30
0.0
 11
352.5458944613293
 21
306.1817385453693
 31
0.0
  0
LINE
  5
E5C
330
1F
100
AcDbEntity
  8
AM_VIS
100
AcDbLine
 10
352.5458944613293
 20
306.1817385453693
 30
0.0
 11
352.5458944613293
 21
305.0602432182665
 31
0.0
  0
LINE
  5
E5D
330
1F
100
AcDbEntity
  8
AM_VIS
100
AcDbLine
 10
352.5458944613293
 20
305.0602432182665
 30
0.0
 11
353.0545726989795
 21
304.8599761955699
 31
0.0
  0
SPLINE
  5
E5E
330
1F
100
AcDbEntity
  8
AM_VIS
100
AcDbSpline
210
0.0
220
0.0
230
1.0
 70
     8
 71
     3
 72
     8
 73
     4
 74
     0
 42
0.0000000001
 43
0.0000000001
 40
0.0
 40
0.0
 40
0.0
 40
0.0
 40
80.0
 40
80.0
 40
80.0
 40
80.0
 10
353.0545726989795
 20
304.8599761955699
 30
0.0
 10
353.10797727911
 20
304.8386143390709
 30
0.0
 10
353.1667222316902
 20
304.8279334719383
 30
0.0
 10
353.2308076789533
 20
304.8279334719383
 30
0.0
  0
SPLINE
  5
E5F
330
1F
100
AcDbEntity
  8
AM_VIS
100
AcDbSpline
210
0.0
220
0.0
230
1.0
 70
     8
 71
     3
 72
     8
 73
     4
 74
     0
 42
0.0000000001
 43
0.0000000001
 40
0.0
 40
0.0
 40
0.0
 40
0.0
 40
80.0
 40
80.0
 40
80.0
 40
80.0
 10
353.2308076789533
 20
304.8279334719383
 30
0.0
 10
353.3162549215982
 20
304.8279334719383
 30
0.0
 10
353.3723296879535
 20
304.8599761955699
 30
0.0
 10
353.3990319780188
 20
304.9240616428325
 30
0.0
  0
SPLINE
  5
E60
330
1F
100
AcDbEntity
  8
AM_VIS
100
AcDbSpline
210
0.0
220
0.0
230
1.0
 70
     8
 71
     3
 72
     8
 73
     4
 74
     0
 42
0.0000000001
 43
0.0000000001
 40
0.0
 40
0.0
 40
0.0
 40
0.0
 40
80.0
 40
80.0
 40
80.0
 40
80.0
 10
353.3990319780188
 20
304.9240616428325
 30
0.0
 10
353.4150533398344
 20
304.9534341191226
 30
0.0
 10
353.4257342069669
 20
305.0095088854779
 30
0.0
 10
353.4310747016499
 20
305.092285941898
 30
0.0
  0
LINE
  5
E61
330
1F
100
AcDbEntity
  8
AM_VIS
100
AcDbLine
 10
353.4310747016499
 20
305.092285941898
 30
0.0
 11
353.5111815107285
 21
305.092285941898
 31
0.0
  0
LINE
  5
E62
330
1F
100
AcDbEntity
  8
AM_VIS
100
AcDbLine
 10
353.5111815107285
 20
305.092285941898
 30
0.0
 11
353.5111815107285
 21
304.3593086388274
 31
0.0
  0
LINE
  5
E63
330
1F
100
AcDbEntity
  8
AM_VIS
100
AcDbLine
 10
353.5111815107285
 20
304.3593086388274
 30
0.0
 11
353.4310747016499
 21
304.3593086388274
 31
0.0
  0
LINE
  5
E64
330
1F
100
AcDbEntity
  8
AM_VIS
100
AcDbLine
 10
353.4116862031812
 20
304.4635702921242
 30
0.0
 11
353.4317239190297
 21
304.3594335595259
 31
0.0
  0
SPLINE
  5
E65
330
1F
100
AcDbEntity
  8
AM_VIS
100
AcDbSpline
210
0.0
220
0.0
230
1.0
 70
     8
 71
     3
 72
     8
 73
     4
 74
     0
 42
0.0000000001
 43
0.0000000001
 40
0.0
 40
0.0
 40
0.0
 40
0.0
 40
80.0
 40
80.0
 40
80.0
 40
80.0
 10
353.4110479993803
 20
304.4634474906299
 30
0.0
 10
353.4030373184724
 20
304.4954901531447
 30
0.0
 10
353.3803403688613
 20
304.5261977836636
 30
0.0
 10
353.3429572116635
 20
304.5555703210704
 30
0.0
  0
SPLINE
  5
E66
330
1F
100
AcDbEntity
  8
AM_VIS
100
AcDbSpline
210
0.0
220
0.0
230
1.0
 70
     8
 71
     3
 72
     8
 73
     4
 74
     0
 42
0.0000000001
 43
0.0000000001
 40
0.0
 40
0.0
 40
0.0
 40
0.0
 40
80.0
 40
80.0
 40
80.0
 40
80.0
 10
353.3429572116635
 20
304.5555703210704
 30
0.0
 10
353.2468291018855
 20
304.630336635466
 30
0.0
 10
353.0358811509392
 20
304.7277999605896
 30
0.0
 10
352.7101134199412
 20
304.847960174208
 30
0.0
  0
LINE
  5
E67
330
1F
100
AcDbEntity
  8
AM_VIS
100
AcDbLine
 10
352.7101134199412
 20
304.847960174208
 30
0.0
 11
350.5111815107285
 21
305.6570389459035
 31
0.0
  0
LINE
  5
E68
330
1F
100
AcDbEntity
  8
AM_VIS
100
AcDbLine
 10
350.5111815107285
 20
305.6570389459035
 30
0.0
 11
350.5111815107285
 21
305.6730603077191
 31
0.0
  0
LINE
  5
E69
330
1F
100
AcDbEntity
  8
AM_VIS
100
AcDbLine
 10
350.5111815107285
 20
305.6730603077191
 30
0.0
 11
353.038551337164
 21
306.6223259953027
 31
0.0
  0
SPLINE
  5
E6A
330
1F
100
AcDbEntity
  8
AM_VIS
100
AcDbSpline
210
0.0
220
0.0
230
1.0
 70
     8
 71
     3
 72
     8
 73
     4
 74
     0
 42
0.0000000001
 43
0.0000000001
 40
0.0
 40
0.0
 40
0.0
 40
0.0
 40
80.0
 40
80.0
 40
80.0
 40
80.0
 10
353.038551337164
 20
306.6223259953027
 30
0.0
 10
353.1987649553213
 20
306.6810709478829
 30
0.0
 10
353.3069091475778
 20
306.7451563951455
 30
0.0
 10
353.3629839139331
 20
306.8145823370916
 30
0.0
  0
SPLINE
  5
E6B
330
1F
100
AcDbEntity
  8
AM_VIS
100
AcDbSpline
210
0.0
220
0.0
230
1.0
 70
     8
 71
     3
 72
     8
 73
     4
 74
     0
 42
0.0000000001
 43
0.0000000001
 40
0.0
 40
0.0
 40
0.0
 40
0.0
 40
80.0
 40
80.0
 40
80.0
 40
80.0
 10
353.3629839139331
 20
306.8145823370916
 30
0.0
 10
353.3950266375647
 20
306.8546357416313
 30
0.0
 10
353.4177235260592
 20
306.9240616224603
 30
0.0
 10
353.4310747016499
 20
307.0228600406964
 30
0.0
  0
LINE
  5
E6C
330
1F
100
AcDbEntity
  8
AM_VIS
100
AcDbLine
 10
353.4310747016499
 20
307.0228600406964
 30
0.0
 11
353.5111815107285
 21
307.0228600406964
 31
0.0
  0
LINE
  5
E6D
330
1F
100
AcDbEntity
  8
AM_VIS
100
AcDbLine
 10
352.7902202290198
 20
304.2491617763441
 30
0.0
 11
353.5111815107285
 21
304.0809374772786
 31
0.0
  0
LINE
  5
E6E
330
1F
100
AcDbEntity
  8
AM_VIS
100
AcDbLine
 10
353.5111815107285
 20
304.0809374772786
 30
0.0
 11
353.5111815107285
 21
301.9941551007765
 31
0.0
  0
LINE
  5
E6F
330
1F
100
AcDbEntity
  8
AM_VIS
100
AcDbLine
 10
353.5111815107285
 20
301.9941551007765
 30
0.0
 11
353.4310747016499
 21
301.9941551007765
 31
0.0
  0
SPLINE
  5
E70
330
1F
100
AcDbEntity
  8
AM_VIS
100
AcDbSpline
210
0.0
220
0.0
230
1.0
 70
     8
 71
     3
 72
     8
 73
     4
 74
     0
 42
0.0000000001
 43
0.0000000001
 40
0.0
 40
0.0
 40
0.0
 40
0.0
 40
80.0
 40
80.0
 40
80.0
 40
80.0
 10
353.4310747016499
 20
301.9941551007765
 30
0.0
 10
353.4177235260592
 20
302.1383472960016
 30
0.0
 10
353.3910212971106
 20
302.2358106211255
 30
0.0
 10
353.3509678925712
 20
302.2865449539141
 30
0.0
  0
SPLINE
  5
E71
330
1F
100
AcDbEntity
  8
AM_VIS
100
AcDbSpline
210
0.0
220
0.0
230
1.0
 70
     8
 71
     3
 72
     8
 73
     4
 74
     0
 42
0.0000000001
 43
0.0000000001
 40
0.0
 40
0.0
 40
0.0
 40
0.0
 40
80.0
 40
80.0
 40
80.0
 40
80.0
 10
353.3509678925712
 20
302.2865449539141
 30
0.0
 10
353.2922228788749
 20
302.3559708347435
 30
0.0
 10
353.1814085003936
 20
302.3906838057166
 30
0.0
 10
353.0185246348943
 20
302.3906838057166
 30
0.0
  0
LINE
  5
E72
330
1F
100
AcDbEntity
  8
AM_VIS
100
AcDbLine
 10
353.0185246348943
 20
302.3906838057166
 30
0.0
 11
351.0599131529185
 21
302.3906838057166
 31
0.0
  0
SPLINE
  5
E73
330
1F
100
AcDbEntity
  8
AM_VIS
100
AcDbSpline
210
0.0
220
0.0
230
1.0
 70
     8
 71
     3
 72
     8
 73
     4
 74
     0
 42
0.0000000001
 43
0.0000000001
 40
0.0
 40
0.0
 40
0.0
 40
0.0
 40
80.0
 40
80.0
 40
80.0
 40
80.0
 10
351.0599131529185
 20
302.3906838057166
 30
0.0
 10
350.8890186676282
 20
302.3906838057166
 30
0.0
 10
350.7755339806887
 20
302.3559708347435
 30
0.0
 10
350.7194592143334
 20
302.2865449539141
 30
0.0
  0
SPLINE
  5
E74
330
1F
100
AcDbEntity
  8
AM_VIS
100
AcDbSpline
210
0.0
220
0.0
230
1.0
 70
     8
 71
     3
 72
     8
 73
     4
 74
     0
 42
0.0000000001
 43
0.0000000001
 40
0.0
 40
0.0
 40
0.0
 40
0.0
 40
80.0
 40
80.0
 40
80.0
 40
80.0
 10
350.7194592143334
 20
302.2865449539141
 30
0.0
 10
350.6820760571355
 20
302.2411510546918
 30
0.0
 10
350.6567089212996
 20
302.143687790685
 30
0.0
 10
350.6433577457088
 20
301.9941551007765
 30
0.0
  0
LINE
  5
E75
330
1F
100
AcDbEntity
  8
AM_VIS
100
AcDbLine
 10
350.6433577457088
 20
301.9941551007765
 30
0.0
 11
350.5632509366297
 21
301.9941551007765
 31
0.0
  0
LINE
  5
E76
330
1F
100
AcDbEntity
  8
AM_VIS
100
AcDbLine
 10
350.5632509366297
 20
301.9941551007765
 30
0.0
 11
350.5632509366297
 21
304.048894753647
 31
0.0
  0
LINE
  5
E77
330
1F
100
AcDbEntity
  8
AM_VIS
100
AcDbLine
 10
350.5632509366297
 20
304.048894753647
 30
0.0
 11
351.1640520047209
 21
304.0609107750089
 31
0.0
  0
LINE
  5
E78
330
1F
100
AcDbEntity
  8
AM_VIS
100
AcDbLine
 10
351.1640520047209
 20
304.0609107750089
 30
0.0
 11
351.1640520047209
 21
303.9767986254761
 31
0.0
  0
SPLINE
  5
E79
330
1F
100
AcDbEntity
  8
AM_VIS
100
AcDbSpline
210
0.0
220
0.0
230
1.0
 70
     8
 71
     3
 72
     8
 73
     4
 74
     0
 42
0.0000000001
 43
0.0000000001
 40
0.0
 40
0.0
 40
0.0
 40
0.0
 40
80.0
 40
80.0
 40
80.0
 40
80.0
 10
351.1640520047209
 20
303.9767986254761
 30
0.0
 10
350.9584445484576
 20
303.9447559018446
 30
0.0
 10
350.8302736539314
 20
303.894021569056
 30
0.0
 10
350.7795393211428
 20
303.8245956882266
 30
0.0
  0
SPLINE
  5
E7A
330
1F
100
AcDbEntity
  8
AM_VIS
100
AcDbSpline
210
0.0
220
0.0
230
1.0
 70
     8
 71
     3
 72
     8
 73
     4
 74
     0
 42
0.0000000001
 43
0.0000000001
 40
0.0
 40
0.0
 40
0.0
 40
0.0
 40
80.0
 40
80.0
 40
80.0
 40
80.0
 10
350.7795393211428
 20
303.8245956882266
 30
0.0
 10
350.726134802129
 20
303.7551697462806
 30
0.0
 10
350.6994325120642
 20
303.6069721494847
 30
0.0
 10
350.6994325120642
 20
303.3800028978395
 30
0.0
  0
LINE
  5
E7B
330
1F
100
AcDbEntity
  8
AM_VIS
100
AcDbLine
 10
350.6994325120642
 20
303.3800028978395
 30
0.0
 11
350.6994325120642
 21
302.8032338724721
 31
0.0
  0
SPLINE
  5
E7C
330
1F
100
AcDbEntity
  8
AM_VIS
100
AcDbSpline
210
0.0
220
0.0
230
1.0
 70
     8
 71
     3
 72
     8
 73
     4
 74
     0
 42
0.0000000001
 43
0.0000000001
 40
0.0
 40
0.0
 40
0.0
 40
0.0
 40
80.0
 40
80.0
 40
80.0
 40
80.0
 10
350.6994325120642
 20
302.8032338724721
 30
0.0
 10
350.6994325120642
 20
302.7311377443012
 30
0.0
 10
350.7021027594057
 20
302.6910843397619
 30
0.0
 10
350.7074431929719
 20
302.6830736588542
 30
0.0
  0
SPLINE
  5
E7D
330
1F
100
AcDbEntity
  8
AM_VIS
100
AcDbSpline
210
0.0
220
0.0
230
1.0
 70
     8
 71
     3
 72
     8
 73
     4
 74
     0
 42
0.0000000001
 43
0.0000000001
 40
0.0
 40
0.0
 40
0.0
 40
0.0
 40
80.0
 40
80.0
 40
80.0
 40
80.0
 10
350.7074431929719
 20
302.6830736588542
 30
0.0
 10
350.7207943685627
 20
302.6563713687889
 30
0.0
 10
350.7688584540102
 20
302.6430202543148
 30
0.0
 10
350.8516354493137
 20
302.6430202543148
 30
0.0
  0
LINE
  5
E7E
330
1F
100
AcDbEntity
  8
AM_VIS
100
AcDbLine
 10
350.8516354493137
 20
302.6430202543148
 30
0.0
 11
351.8810079459755
 21
302.6430202543148
 31
0.0
  0
LINE
  5
E7F
330
1F
100
AcDbEntity
  8
AM_VIS
100
AcDbLine
 10
351.8810079459755
 20
302.6430202543148
 30
0.0
 11
351.8810079459755
 21
303.2998960887604
 31
0.0
  0
SPLINE
  5
E80
330
1F
100
AcDbEntity
  8
AM_VIS
100
AcDbSpline
210
0.0
220
0.0
230
1.0
 70
     8
 71
     3
 72
     8
 73
     4
 74
     0
 42
0.0000000001
 43
0.0000000001
 40
0.0
 40
0.0
 40
0.0
 40
0.0
 40
80.0
 40
80.0
 40
80.0
 40
80.0
 10
351.8810079459755
 20
303.2998960887604
 30
0.0
 10
351.8810079459755
 20
303.4707905740507
 30
0.0
 10
351.8516354696859
 20
303.5842752609902
 30
0.0
 10
351.7928904559891
 20
303.6403500273455
 30
0.0
  0
SPLINE
  5
E81
330
1F
100
AcDbEntity
  8
AM_VIS
100
AcDbSpline
210
0.0
220
0.0
230
1.0
 70
     8
 71
     3
 72
     8
 73
     4
 74
     0
 42
0.0000000001
 43
0.0000000001
 40
0.0
 40
0.0
 40
0.0
 40
0.0
 40
80.0
 40
80.0
 40
80.0
 40
80.0
 10
351.7928904559891
 20
303.6403500273455
 30
0.0
 10
351.744826370542
 20
303.6857438654512
 30
0.0
 10
351.6366821782855
 20
303.7204567753075
 30
0.0
 10
351.4684578792204
 20
303.744488879148
 30
0.0
  0
LINE
  5
E82
330
1F
100
AcDbEntity
  8
AM_VIS
100
AcDbLine
 10
351.4684578792204
 20
303.744488879148
 30
0.0
 11
351.4684578792204
 21
303.8286010286807
 31
0.0
  0
LINE
  5
E83
330
1F
100
AcDbEntity
  8
AM_VIS
100
AcDbLine
 10
351.4684578792204
 20
303.8286010286807
 30
0.0
 11
352.4657876522507
 21
303.8286010286807
 31
0.0
  0
LINE
  5
E84
330
1F
100
AcDbEntity
  8
AM_VIS
100
AcDbLine
 10
352.4657876522507
 20
303.8286010286807
 30
0.0
 11
352.4657876522507
 21
303.744488879148
 31
0.0
  0
SPLINE
  5
E85
330
1F
100
AcDbEntity
  8
AM_VIS
100
AcDbSpline
210
0.0
220
0.0
230
1.0
 70
     8
 71
     3
 72
     8
 73
     4
 74
     0
 42
0.0000000001
 43
0.0000000001
 40
0.0
 40
0.0
 40
0.0
 40
0.0
 40
80.0
 40
80.0
 40
80.0
 40
80.0
 10
352.4657876522507
 20
303.744488879148
 30
0.0
 10
352.2842122387111
 20
303.7204567753075
 30
0.0
 10
352.1693924586594
 20
303.6830736181097
 30
0.0
 10
352.1213283732123
 20
303.6323393464373
 30
0.0
  0
SPLINE
  5
E86
330
1F
100
AcDbEntity
  8
AM_VIS
100
AcDbSpline
210
0.0
220
0.0
230
1.0
 70
     8
 71
     3
 72
     8
 73
     4
 74
     0
 42
0.0000000001
 43
0.0000000001
 40
0.0
 40
0.0
 40
0.0
 40
0.0
 40
80.0
 40
80.0
 40
80.0
 40
80.0
 10
352.1213283732123
 20
303.6323393464373
 30
0.0
 10
352.07059410154
 20
303.5789347663073
 30
0.0
 10
352.0452269045874
 20
303.4681203267092
 30
0.0
 10
352.0452269045874
 20
303.2998960887604
 30
0.0
  0
LINE
  5
E87
330
1F
100
AcDbEntity
  8
AM_VIS
100
AcDbLine
 10
352.0452269045874
 20
303.2998960887604
 30
0.0
 11
352.0452269045874
 21
302.6430202543148
 31
0.0
  0
LINE
  5
E88
330
1F
100
AcDbEntity
  8
AM_VIS
100
AcDbLine
 10
352.0452269045874
 20
302.6430202543148
 30
0.0
 11
353.158711550782
 21
302.6430202543148
 31
0.0
  0
SPLINE
  5
E89
330
1F
100
AcDbEntity
  8
AM_VIS
100
AcDbSpline
210
0.0
220
0.0
230
1.0
 70
     8
 71
     3
 72
     8
 73
     4
 74
     0
 42
0.0000000001
 43
0.0000000001
 40
0.0
 40
0.0
 40
0.0
 40
0.0
 40
80.0
 40
80.0
 40
80.0
 40
80.0
 10
353.158711550782
 20
302.6430202543148
 30
0.0
 10
353.2548397216766
 20
302.6430202543148
 30
0.0
 10
353.3162549215982
 20
302.6777331641712
 30
0.0
 10
353.3429572116635
 20
302.7471591061172
 30
0.0
  0
SPLINE
  5
E8A
330
1F
100
AcDbEntity
  8
AM_VIS
100
AcDbSpline
210
0.0
220
0.0
230
1.0
 70
     8
 71
     3
 72
     8
 73
     4
 74
     0
 42
0.0000000001
 43
0.0000000001
 40
0.0
 40
0.0
 40
0.0
 40
0.0
 40
80.0
 40
80.0
 40
80.0
 40
80.0
 10
353.3429572116635
 20
302.7471591061172
 30
0.0
 10
353.3643190070453
 20
302.8139147396051
 30
0.0
 10
353.374999935295
 20
303.0008306478277
 30
0.0
 10
353.374999935295
 20
303.3079067696686
 30
0.0
  0
SPLINE
  5
E8B
330
1F
100
AcDbEntity
  8
AM_VIS
100
AcDbSpline
210
0.0
220
0.0
230
1.0
 70
     8
 71
     3
 72
     8
 73
     4
 74
     0
 42
0.0000000001
 43
0.0000000001
 40
0.0
 40
0.0
 40
0.0
 40
0.0
 40
80.0
 40
80.0
 40
80.0
 40
80.0
 10
353.374999935295
 20
303.3079067696686
 30
0.0
 10
353.374999935295
 20
303.5562378778128
 30
0.0
 10
353.3349465307557
 20
303.7378132913524
 30
0.0
 10
353.2548397216766
 20
303.8526330714041
 30
0.0
  0
SPLINE
  5
E8C
330
1F
100
AcDbEntity
  8
AM_VIS
100
AcDbSpline
210
0.0
220
0.0
230
1.0
 70
     8
 71
     3
 72
     8
 73
     4
 74
     0
 42
0.0000000001
 43
0.0000000001
 40
0.0
 40
0.0
 40
0.0
 40
0.0
 40
80.0
 40
80.0
 40
80.0
 40
80.0
 10
353.2548397216766
 20
303.8526330714041
 30
0.0
 10
353.1747329125979
 20
303.9674527903395
 30
0.0
 10
353.0198597891232
 20
304.0715916421419
 30
0.0
 10
352.7902202290198
 20
304.1650496268113
 30
0.0
  0
LINE
  5
E8D
330
1F
100
AcDbEntity
  8
AM_VIS
100
AcDbLine
 10
352.7902202290198
 20
304.1650496268113
 30
0.0
 11
352.7902202290198
 21
304.2491617763441
 31
0.0
  0
SPLINE
  5
E8E
330
1F
100
AcDbEntity
  8
AM_VIS
100
AcDbSpline
210
0.0
220
0.0
230
1.0
 70
     8
 71
     3
 72
     8
 73
     4
 74
     0
 42
0.0000000001
 43
0.0000000001
 40
0.0
 40
0.0
 40
0.0
 40
0.0
 40
80.0
 40
80.0
 40
80.0
 40
80.0
 10
309.9527575976855
 20
269.0603235790842
 30
0.0
 10
310.3236814381668
 20
269.0603236516464
 30
0.0
 10
310.5773046749474
 20
269.2600519125159
 30
0.0
 10
310.7136271629025
 20
269.6595083616927
 30
0.0
  0
SPLINE
  5
E8F
330
1F
100
AcDbEntity
  8
AM_VIS
100
AcDbSpline
210
0.0
220
0.0
230
1.0
 70
     8
 71
     3
 72
     8
 73
     4
 74
     0
 42
0.0000000001
 43
0.0000000001
 40
0.0
 40
0.0
 40
0.0
 40
0.0
 40
80.0
 40
80.0
 40
80.0
 40
80.0
 10
310.7136271629025
 20
269.6595083616927
 30
0.0
 10
310.7643517522094
 20
269.8085120332558
 30
0.0
 10
310.7897141194245
 20
270.0970083616927
 30
0.0
 10
310.7897141194245
 20
270.5249974921277
 30
0.0
  0
LINE
  5
E90
330
1F
100
AcDbEntity
  8
AM_VIS
100
AcDbLine
 10
310.7897141194245
 20
270.5249974921277
 30
0.0
 11
309.4201489020335
 21
270.5249974921277
 31
0.0
  0
SPLINE
  5
E91
330
1F
100
AcDbEntity
  8
AM_VIS
100
AcDbSpline
210
0.0
220
0.0
230
1.0
 70
     8
 71
     3
 72
     8
 73
     4
 74
     0
 42
0.0000000001
 43
0.0000000001
 40
0.0
 40
0.0
 40
0.0
 40
0.0
 40
80.0
 40
80.0
 40
80.0
 40
80.0
 10
309.4201489020335
 20
270.5249974921277
 30
0.0
 10
309.3091887087309
 20
270.5249975646899
 30
0.0
 10
309.2346869455115
 20
270.4742729028213
 30
0.0
 10
309.1966434672505
 20
270.3728235790842
 30
0.0
  0
SPLINE
  5
E92
330
1F
100
AcDbEntity
  8
AM_VIS
100
AcDbSpline
210
0.0
220
0.0
230
1.0
 70
     8
 71
     3
 72
     8
 73
     4
 74
     0
 42
0.0000000001
 43
0.0000000001
 40
0.0
 40
0.0
 40
0.0
 40
0.0
 40
80.0
 40
80.0
 40
80.0
 40
80.0
 10
309.1966434672505
 20
270.3728235790842
 30
0.0
 10
309.1776218006822
 20
270.3125881202124
 30
0.0
 10
309.1681109311172
 20
270.2127239897778
 30
0.0
 10
309.168110858555
 20
270.0732311877797
 30
0.0
  0
SPLINE
  5
E93
330
1F
100
AcDbEntity
  8
AM_VIS
100
AcDbSpline
210
0.0
220
0.0
230
1.0
 70
     8
 71
     3
 72
     8
 73
     4
 74
     0
 42
0.0000000001
 43
0.0000000001
 40
0.0
 40
0.0
 40
0.0
 40
0.0
 40
80.0
 40
80.0
 40
80.0
 40
80.0
 10
309.168110858555
 20
270.0732311877797
 30
0.0
 10
309.1681109311172
 20
269.3979595212114
 30
0.0
 10
309.4296597715985
 20
269.0603236516464
 30
0.0
 10
309.9527575976855
 20
269.0603235790842
 30
0.0
  0
SPLINE
  5
E94
330
1F
100
AcDbEntity
  8
AM_VIS
100
AcDbSpline
210
0.0
220
0.0
230
1.0
 70
     8
 71
     3
 72
     8
 73
     4
 74
     0
 42
0.0000000001
 43
0.0000000001
 40
0.0
 40
0.0
 40
0.0
 40
0.0
 40
80.0
 40
80.0
 40
80.0
 40
80.0
 10
311.598138032468
 20
269.1554322747362
 30
0.0
 10
312.1022141194245
 20
269.1554322747362
 30
0.0
 10
312.3542521629025
 20
269.4978235790842
 30
0.0
 10
312.3542521629025
 20
270.1826061877797
 30
0.0
  0
SPLINE
  5
E95
330
1F
100
AcDbEntity
  8
AM_VIS
100
AcDbSpline
210
0.0
220
0.0
230
1.0
 70
     8
 71
     3
 72
     8
 73
     4
 74
     0
 42
0.0000000001
 43
0.0000000001
 40
0.0
 40
0.0
 40
0.0
 40
0.0
 40
80.0
 40
80.0
 40
80.0
 40
80.0
 10
312.3542521629025
 20
270.1826061877797
 30
0.0
 10
312.3542521629025
 20
270.3157584342549
 30
0.0
 10
312.3526669696004
 20
270.3886750767343
 30
0.0
 10
312.34949672812
 20
270.4013561877797
 30
0.0
  0
SPLINE
  5
E96
330
1F
100
AcDbEntity
  8
AM_VIS
100
AcDbSpline
210
0.0
220
0.0
230
1.0
 70
     8
 71
     3
 72
     8
 73
     4
 74
     0
 42
0.0000000001
 43
0.0000000001
 40
0.0
 40
0.0
 40
0.0
 40
0.0
 40
80.0
 40
80.0
 40
80.0
 40
80.0
 10
312.34949672812
 20
270.4013561877797
 30
0.0
 10
312.3431561000353
 20
270.4584214051712
 30
0.0
 10
312.3320601097299
 20
270.4932946419518
 30
0.0
 10
312.316208684642
 20
270.5059757529972
 30
0.0
  0
SPLINE
  5
E97
330
1F
100
AcDbEntity
  8
AM_VIS
100
AcDbSpline
210
0.0
220
0.0
230
1.0
 70
     8
 71
     3
 72
     8
 73
     4
 74
     0
 42
0.0000000001
 43
0.0000000001
 40
0.0
 40
0.0
 40
0.0
 40
0.0
 40
80.0
 40
80.0
 40
80.0
 40
80.0
 10
312.316208684642
 20
270.5059757529972
 30
0.0
 10
312.3003571869919
 20
270.5186569366048
 30
0.0
 10
312.2670691435134
 20
270.5249975646899
 30
0.0
 10
312.216344554207
 20
270.5249974921277
 30
0.0
  0
LINE
  5
E98
330
1F
100
AcDbEntity
  8
AM_VIS
100
AcDbLine
 10
312.216344554207
 20
270.5249974921277
 30
0.0
 11
310.9846869455115
 21
270.5249974921277
 31
0.0
  0
LINE
  5
E99
330
1F
100
AcDbEntity
  8
AM_VIS
100
AcDbLine
 10
310.9846869455115
 20
270.5249974921277
 30
0.0
 11
310.989442380294
 21
269.9876333616927
 31
0.0
  0
SPLINE
  5
E9A
330
1F
100
AcDbEntity
  8
AM_VIS
100
AcDbSpline
210
0.0
220
0.0
230
1.0
 70
     8
 71
     3
 72
     8
 73
     4
 74
     0
 42
0.0000000001
 43
0.0000000001
 40
0.0
 40
0.0
 40
0.0
 40
0.0
 40
80.0
 40
80.0
 40
80.0
 40
80.0
 10
310.989442380294
 20
269.9876333616927
 30
0.0
 10
310.9926126217744
 20
269.7720536757353
 30
0.0
 10
311.0100492401644
 20
269.6151243279093
 30
0.0
 10
311.0417521629025
 20
269.5168453182147
 30
0.0
  0
SPLINE
  5
E9B
330
1F
100
AcDbEntity
  8
AM_VIS
100
AcDbSpline
210
0.0
220
0.0
230
1.0
 70
     8
 71
     3
 72
     8
 73
     4
 74
     0
 42
0.0000000001
 43
0.0000000001
 40
0.0
 40
0.0
 40
0.0
 40
0.0
 40
80.0
 40
80.0
 40
80.0
 40
80.0
 10
311.0417521629025
 20
269.5168453182147
 30
0.0
 10
311.1305202304699
 20
269.2759033376038
 30
0.0
 10
311.3159821869918
 20
269.1554322747362
 30
0.0
 10
311.598138032468
 20
269.1554322747362
 30
0.0
  0
SPLINE
  5
E9C
330
1F
100
AcDbEntity
  8
AM_VIS
100
AcDbSpline
210
0.0
220
0.0
230
1.0
 70
     8
 71
     3
 72
     8
 73
     4
 74
     0
 42
0.0000000001
 43
0.0000000001
 40
0.0
 40
0.0
 40
0.0
 40
0.0
 40
80.0
 40
80.0
 40
80.0
 40
80.0
 10
309.933735858555
 20
268.6941551008232
 30
0.0
 10
309.7308372836429
 20
268.6941551008232
 30
0.0
 10
309.5517158826439
 20
268.7512203182147
 30
0.0
 10
309.39637172812
 20
268.8653507529972
 30
0.0
  0
SPLINE
  5
E9D
330
1F
100
AcDbEntity
  8
AM_VIS
100
AcDbSpline
210
0.0
220
0.0
230
1.0
 70
     8
 71
     3
 72
     8
 73
     4
 74
     0
 42
0.0000000001
 43
0.0000000001
 40
0.0
 40
0.0
 40
0.0
 40
0.0
 40
80.0
 40
80.0
 40
80.0
 40
80.0
 10
309.39637172812
 20
268.8653507529972
 30
0.0
 10
309.1395782498595
 20
269.0523979028213
 30
0.0
 10
309.0111815107285
 20
269.3615011636908
 30
0.0
 10
309.0111815107285
 20
269.7926605356057
 30
0.0
  0
LINE
  5
E9E
330
1F
100
AcDbEntity
  8
AM_VIS
100
AcDbLine
 10
309.0111815107285
 20
269.7926605356057
 30
0.0
 11
309.0111815107285
 21
271.3286659703882
 31
0.0
  0
LINE
  5
E9F
330
1F
100
AcDbEntity
  8
AM_VIS
100
AcDbLine
 10
309.0111815107285
 20
271.3286659703882
 30
0.0
 11
309.106290206381
 21
271.3286659703882
 31
0.0
  0
SPLINE
  5
EA0
330
1F
100
AcDbEntity
  8
AM_VIS
100
AcDbSpline
210
0.0
220
0.0
230
1.0
 70
     8
 71
     3
 72
     8
 73
     4
 74
     0
 42
0.0000000001
 43
0.0000000001
 40
0.0
 40
0.0
 40
0.0
 40
0.0
 40
80.0
 40
80.0
 40
80.0
 40
80.0
 10
309.106290206381
 20
271.3286659703882
 30
0.0
 10
309.1189713899886
 20
271.1321080235613
 30
0.0
 10
309.1617703030321
 20
270.9973707289083
 30
0.0
 10
309.2346869455115
 20
270.9244540138667
 30
0.0
  0
SPLINE
  5
EA1
330
1F
100
AcDbEntity
  8
AM_VIS
100
AcDbSpline
210
0.0
220
0.0
230
1.0
 70
     8
 71
     3
 72
     8
 73
     4
 74
     0
 42
0.0000000001
 43
0.0000000001
 40
0.0
 40
0.0
 40
0.0
 40
0.0
 40
80.0
 40
80.0
 40
80.0
 40
80.0
 10
309.2346869455115
 20
270.9244540138667
 30
0.0
 10
309.3076035879905
 20
270.8547076854298
 30
0.0
 10
309.4423408826439
 20
270.8198344486492
 30
0.0
 10
309.6388989020335
 20
270.8198344486492
 30
0.0
  0
LINE
  5
EA2
330
1F
100
AcDbEntity
  8
AM_VIS
100
AcDbLine
 10
309.6388989020335
 20
270.8198344486492
 30
0.0
 11
311.9595510759465
 21
270.8198344486492
 31
0.0
  0
SPLINE
  5
EA3
330
1F
100
AcDbEntity
  8
AM_VIS
100
AcDbSpline
210
0.0
220
0.0
230
1.0
 70
     8
 71
     3
 72
     8
 73
     4
 74
     0
 42
0.0000000001
 43
0.0000000001
 40
0.0
 40
0.0
 40
0.0
 40
0.0
 40
80.0
 40
80.0
 40
80.0
 40
80.0
 10
311.9595510759465
 20
270.8198344486492
 30
0.0
 10
312.1497684672505
 20
270.8198344486492
 30
0.0
 10
312.2734097715985
 20
270.8562928061698
 30
0.0
 10
312.3304749889895
 20
270.9292094486492
 30
0.0
  0
SPLINE
  5
EA4
330
1F
100
AcDbEntity
  8
AM_VIS
100
AcDbSpline
210
0.0
220
0.0
230
1.0
 70
     8
 71
     3
 72
     8
 73
     4
 74
     0
 42
0.0000000001
 43
0.0000000001
 40
0.0
 40
0.0
 40
0.0
 40
0.0
 40
80.0
 40
80.0
 40
80.0
 40
80.0
 10
312.3304749889895
 20
270.9292094486492
 30
0.0
 10
312.3748590227734
 20
270.9894449800832
 30
0.0
 10
312.4033916314689
 20
271.1225971539962
 30
0.0
 10
312.4160728150765
 20
271.3286659703882
 30
0.0
  0
LINE
  5
EA5
330
1F
100
AcDbEntity
  8
AM_VIS
100
AcDbLine
 10
312.4160728150765
 20
271.3286659703882
 30
0.0
 11
312.5111815107285
 21
271.3286659703882
 31
0.0
  0
LINE
  5
EA6
330
1F
100
AcDbEntity
  8
AM_VIS
100
AcDbLine
 10
312.5111815107285
 20
271.3286659703882
 30
0.0
 11
312.5111815107285
 21
270.0494540138667
 31
0.0
  0
SPLINE
  5
EA7
330
1F
100
AcDbEntity
  8
AM_VIS
100
AcDbSpline
210
0.0
220
0.0
230
1.0
 70
     8
 71
     3
 72
     8
 73
     4
 74
     0
 42
0.0000000001
 43
0.0000000001
 40
0.0
 40
0.0
 40
0.0
 40
0.0
 40
80.0
 40
80.0
 40
80.0
 40
80.0
 10
312.5111815107285
 20
270.0494540138667
 30
0.0
 10
312.5111815107285
 20
269.2473707289083
 30
0.0
 10
312.2195147956873
 20
268.8463290138667
 30
0.0
 10
311.6361815107286
 20
268.8463290138667
 30
0.0
  0
SPLINE
  5
EA8
330
1F
100
AcDbEntity
  8
AM_VIS
100
AcDbSpline
210
0.0
220
0.0
230
1.0
 70
     8
 71
     3
 72
     8
 73
     4
 74
     0
 42
0.0000000001
 43
0.0000000001
 40
0.0
 40
0.0
 40
0.0
 40
0.0
 40
80.0
 40
80.0
 40
80.0
 40
80.0
 10
311.6361815107286
 20
268.8463290138667
 30
0.0
 10
311.2430655445124
 20
268.8463290138667
 30
0.0
 10
310.9831017522093
 20
269.0761750767343
 30
0.0
 10
310.856290206381
 20
269.5358670573447
 30
0.0
  0
LINE
  5
EA9
330
1F
100
AcDbEntity
  8
AM_VIS
100
AcDbLine
 10
310.856290206381
 20
269.5358670573447
 30
0.0
 11
310.8372684672505
 21
269.4550246660407
 31
0.0
  0
SPLINE
  5
EAA
330
1F
100
AcDbEntity
  8
AM_VIS
100
AcDbSpline
210
0.0
220
0.0
230
1.0
 70
     8
 71
     3
 72
     8
 73
     4
 74
     0
 42
0.0000000001
 43
0.0000000001
 40
0.0
 40
0.0
 40
0.0
 40
0.0
 40
80.0
 40
80.0
 40
80.0
 40
80.0
 10
310.8372684672505
 20
269.4550246660407
 30
0.0
 10
310.7167974043833
 20
268.9477783376038
 30
0.0
 10
310.4156198923385
 20
268.6941551008232
 30
0.0
 10
309.933735858555
 20
268.6941551008232
 30
0.0
  0
LINE
  5
EAB
330
1F
100
AcDbEntity
  8
AM_VIS
100
AcDbLine
 10
309.8671597715985
 20
271.5497936877797
 30
0.0
 11
309.0111815107285
 21
271.7495219486492
 31
0.0
  0
LINE
  5
EAC
330
1F
100
AcDbEntity
  8
AM_VIS
100
AcDbLine
 10
309.0111815107285
 20
271.7495219486492
 30
0.0
 11
309.0111815107285
 21
274.2271034703882
 31
0.0
  0
LINE
  5
EAD
330
1F
100
AcDbEntity
  8
AM_VIS
100
AcDbLine
 10
309.0111815107285
 20
274.2271034703882
 30
0.0
 11
309.106290206381
 21
274.2271034703882
 31
0.0
  0
SPLINE
  5
EAE
330
1F
100
AcDbEntity
  8
AM_VIS
100
AcDbSpline
210
0.0
220
0.0
230
1.0
 70
     8
 71
     3
 72
     8
 73
     4
 74
     0
 42
0.0000000001
 43
0.0000000001
 40
0.0
 40
0.0
 40
0.0
 40
0.0
 40
80.0
 40
80.0
 40
80.0
 40
80.0
 10
309.106290206381
 20
274.2271034703882
 30
0.0
 10
309.1221417040312
 20
274.0559078907769
 30
0.0
 10
309.153844554207
 20
273.9401922626917
 30
0.0
 10
309.2013989020335
 20
273.8799567312582
 30
0.0
  0
SPLINE
  5
EAF
330
1F
100
AcDbEntity
  8
AM_VIS
100
AcDbSpline
210
0.0
220
0.0
230
1.0
 70
     8
 71
     3
 72
     8
 73
     4
 74
     0
 42
0.0000000001
 43
0.0000000001
 40
0.0
 40
0.0
 40
0.0
 40
0.0
 40
80.0
 40
80.0
 40
80.0
 40
80.0
 10
309.2013989020335
 20
273.8799567312582
 30
0.0
 10
309.2711453030321
 20
273.7975292192133
 30
0.0
 10
309.4027122836429
 20
273.7563154269102
 30
0.0
 10
309.5960999889895
 20
273.7563154269102
 30
0.0
  0
LINE
  5
EB0
330
1F
100
AcDbEntity
  8
AM_VIS
100
AcDbLine
 10
309.5960999889895
 20
273.7563154269102
 30
0.0
 11
311.9215075976855
 21
273.7563154269102
 31
0.0
  0
SPLINE
  5
EB1
330
1F
100
AcDbEntity
  8
AM_VIS
100
AcDbSpline
210
0.0
220
0.0
230
1.0
 70
     8
 71
     3
 72
     8
 73
     4
 74
     0
 42
0.0000000001
 43
0.0000000001
 40
0.0
 40
0.0
 40
0.0
 40
0.0
 40
80.0
 40
80.0
 40
80.0
 40
80.0
 10
311.9215075976855
 20
273.7563154269102
 30
0.0
 10
312.1244061000354
 20
273.7563154269102
 30
0.0
 10
312.2591434672505
 20
273.7975292192133
 30
0.0
 10
312.325719554207
 20
273.8799567312582
 30
0.0
  0
SPLINE
  5
EB2
330
1F
100
AcDbEntity
  8
AM_VIS
100
AcDbSpline
210
0.0
220
0.0
230
1.0
 70
     8
 71
     3
 72
     8
 73
     4
 74
     0
 42
0.0000000001
 43
0.0000000001
 40
0.0
 40
0.0
 40
0.0
 40
0.0
 40
80.0
 40
80.0
 40
80.0
 40
80.0
 10
312.325719554207
 20
273.8799567312582
 30
0.0
 10
312.3701035879904
 20
273.9338517071689
 30
0.0
 10
312.4002213174264
 20
274.0495672626918
 30
0.0
 10
312.4160728150765
 20
274.2271034703882
 30
0.0
  0
LINE
  5
EB3
330
1F
100
AcDbEntity
  8
AM_VIS
100
AcDbLine
 10
312.4160728150765
 20
274.2271034703882
 30
0.0
 11
312.5111815107285
 21
274.2271034703882
 31
0.0
  0
LINE
  5
EB4
330
1F
100
AcDbEntity
  8
AM_VIS
100
AcDbLine
 10
312.5111815107285
 20
274.2271034703882
 30
0.0
 11
312.5111815107285
 21
271.7875654269102
 31
0.0
  0
LINE
  5
EB5
330
1F
100
AcDbEntity
  8
AM_VIS
100
AcDbLine
 10
312.5111815107285
 20
271.7875654269102
 30
0.0
 11
311.7978662933375
 21
271.7732991225622
 31
0.0
  0
LINE
  5
EB6
330
1F
100
AcDbEntity
  8
AM_VIS
100
AcDbLine
 10
311.7978662933375
 20
271.7732991225622
 30
0.0
 11
311.7978662933375
 21
271.8731632529972
 31
0.0
  0
SPLINE
  5
EB7
330
1F
100
AcDbEntity
  8
AM_VIS
100
AcDbSpline
210
0.0
220
0.0
230
1.0
 70
     8
 71
     3
 72
     8
 73
     4
 74
     0
 42
0.0000000001
 43
0.0000000001
 40
0.0
 40
0.0
 40
0.0
 40
0.0
 40
80.0
 40
80.0
 40
80.0
 40
80.0
 10
311.7978662933375
 20
271.8731632529972
 30
0.0
 10
312.0419785879905
 20
271.9112067312582
 30
0.0
 10
312.1941525010344
 20
271.9714422626918
 30
0.0
 10
312.254388032468
 20
272.0538697747362
 30
0.0
  0
SPLINE
  5
EB8
330
1F
100
AcDbEntity
  8
AM_VIS
100
AcDbSpline
210
0.0
220
0.0
230
1.0
 70
     8
 71
     3
 72
     8
 73
     4
 74
     0
 42
0.0000000001
 43
0.0000000001
 40
0.0
 40
0.0
 40
0.0
 40
0.0
 40
80.0
 40
80.0
 40
80.0
 40
80.0
 10
312.254388032468
 20
272.0538697747362
 30
0.0
 10
312.317793805382
 20
272.1362973593429
 30
0.0
 10
312.34949672812
 20
272.3122484462994
 30
0.0
 10
312.34949672812
 20
272.5817230356057
 30
0.0
  0
LINE
  5
EB9
330
1F
100
AcDbEntity
  8
AM_VIS
100
AcDbLine
 10
312.34949672812
 20
272.5817230356057
 30
0.0
 11
312.34949672812
 21
273.2665056443017
 31
0.0
  0
SPLINE
  5
EBA
330
1F
100
AcDbEntity
  8
AM_VIS
100
AcDbSpline
210
0.0
220
0.0
230
1.0
 70
     8
 71
     3
 72
     8
 73
     4
 74
     0
 42
0.0000000001
 43
0.0000000001
 40
0.0
 40
0.0
 40
0.0
 40
0.0
 40
80.0
 40
80.0
 40
80.0
 40
80.0
 10
312.34949672812
 20
273.2665056443017
 30
0.0
 10
312.34949672812
 20
273.3521034703882
 30
0.0
 10
312.3463264140775
 20
273.3996578182147
 30
0.0
 10
312.339985858555
 20
273.4091686877797
 30
0.0
  0
SPLINE
  5
EBB
330
1F
100
AcDbEntity
  8
AM_VIS
100
AcDbSpline
210
0.0
220
0.0
230
1.0
 70
     8
 71
     3
 72
     8
 73
     4
 74
     0
 42
0.0000000001
 43
0.0000000001
 40
0.0
 40
0.0
 40
0.0
 40
0.0
 40
80.0
 40
80.0
 40
80.0
 40
80.0
 10
312.339985858555
 20
273.4091686877797
 30
0.0
 10
312.3241343609048
 20
273.4408716105178
 30
0.0
 10
312.2670691435134
 20
273.4567230356057
 30
0.0
 10
312.168790206381
 20
273.4567230356057
 30
0.0
  0
LINE
  5
EBC
330
1F
100
AcDbEntity
  8
AM_VIS
100
AcDbLine
 10
312.168790206381
 20
273.4567230356057
 30
0.0
 11
310.9466434672505
 21
273.4567230356057
 31
0.0
  0
LINE
  5
EBD
330
1F
100
AcDbEntity
  8
AM_VIS
100
AcDbLine
 10
310.9466434672505
 20
273.4567230356057
 30
0.0
 11
310.9466434672505
 21
272.6768317312582
 31
0.0
  0
SPLINE
  5
EBE
330
1F
100
AcDbEntity
  8
AM_VIS
100
AcDbSpline
210
0.0
220
0.0
230
1.0
 70
     8
 71
     3
 72
     8
 73
     4
 74
     0
 42
0.0000000001
 43
0.0000000001
 40
0.0
 40
0.0
 40
0.0
 40
0.0
 40
80.0
 40
80.0
 40
80.0
 40
80.0
 10
310.9466434672505
 20
272.6768317312582
 30
0.0
 10
310.9466434672505
 20
272.4739332289083
 30
0.0
 10
310.9815166314689
 20
272.3391958616927
 30
0.0
 10
311.051263032468
 20
272.2726197747362
 30
0.0
  0
SPLINE
  5
EBF
330
1F
100
AcDbEntity
  8
AM_VIS
100
AcDbSpline
210
0.0
220
0.0
230
1.0
 70
     8
 71
     3
 72
     8
 73
     4
 74
     0
 42
0.0000000001
 43
0.0000000001
 40
0.0
 40
0.0
 40
0.0
 40
0.0
 40
80.0
 40
80.0
 40
80.0
 40
80.0
 10
311.051263032468
 20
272.2726197747362
 30
0.0
 10
311.1083282498595
 20
272.2187248713873
 30
0.0
 10
311.2367249889895
 20
272.1775111516464
 30
0.0
 10
311.4364532498595
 20
272.1489784703882
 30
0.0
  0
LINE
  5
EC0
330
1F
100
AcDbEntity
  8
AM_VIS
100
AcDbLine
 10
311.4364532498595
 20
272.1489784703882
 30
0.0
 11
311.4364532498595
 21
272.0491143399537
 31
0.0
  0
LINE
  5
EC1
330
1F
100
AcDbEntity
  8
AM_VIS
100
AcDbLine
 10
311.4364532498595
 20
272.0491143399537
 30
0.0
 11
310.2523499889895
 21
272.0491143399537
 31
0.0
  0
LINE
  5
EC2
330
1F
100
AcDbEntity
  8
AM_VIS
100
AcDbLine
 10
310.2523499889895
 20
272.0491143399537
 30
0.0
 11
310.2523499889895
 21
272.1489784703882
 31
0.0
  0
SPLINE
  5
EC3
330
1F
100
AcDbEntity
  8
AM_VIS
100
AcDbSpline
210
0.0
220
0.0
230
1.0
 70
     8
 71
     3
 72
     8
 73
     4
 74
     0
 42
0.0000000001
 43
0.0000000001
 40
0.0
 40
0.0
 40
0.0
 40
0.0
 40
80.0
 40
80.0
 40
80.0
 40
80.0
 10
310.2523499889895
 20
272.1489784703882
 30
0.0
 10
310.4679296749474
 20
272.1775111516464
 30
0.0
 10
310.6042521629025
 20
272.2218951854298
 30
0.0
 10
310.661317380294
 20
272.2821306443017
 30
0.0
  0
SPLINE
  5
EC4
330
1F
100
AcDbEntity
  8
AM_VIS
100
AcDbSpline
210
0.0
220
0.0
230
1.0
 70
     8
 71
     3
 72
     8
 73
     4
 74
     0
 42
0.0000000001
 43
0.0000000001
 40
0.0
 40
0.0
 40
0.0
 40
0.0
 40
80.0
 40
80.0
 40
80.0
 40
80.0
 10
310.661317380294
 20
272.2821306443017
 30
0.0
 10
310.7215528391654
 20
272.3455364897778
 30
0.0
 10
310.7516706411635
 20
272.4771035429504
 30
0.0
 10
310.7516706411635
 20
272.6768317312582
 30
0.0
  0
LINE
  5
EC5
330
1F
100
AcDbEntity
  8
AM_VIS
100
AcDbLine
 10
310.7516706411635
 20
272.6768317312582
 30
0.0
 11
310.7516706411635
 21
273.4567230356057
 31
0.0
  0
LINE
  5
EC6
330
1F
100
AcDbEntity
  8
AM_VIS
100
AcDbLine
 10
310.7516706411635
 20
273.4567230356057
 30
0.0
 11
309.4296597715985
 21
273.4567230356057
 31
0.0
  0
SPLINE
  5
EC7
330
1F
100
AcDbEntity
  8
AM_VIS
100
AcDbSpline
210
0.0
220
0.0
230
1.0
 70
     8
 71
     3
 72
     8
 73
     4
 74
     0
 42
0.0000000001
 43
0.0000000001
 40
0.0
 40
0.0
 40
0.0
 40
0.0
 40
80.0
 40
80.0
 40
80.0
 40
80.0
 10
309.4296597715985
 20
273.4567230356057
 30
0.0
 10
309.3155293368155
 20
273.4567230356057
 30
0.0
 10
309.2426126943366
 20
273.4155093158648
 30
0.0
 10
309.2109097715985
 20
273.3330817312582
 30
0.0
  0
SPLINE
  5
EC8
330
1F
100
AcDbEntity
  8
AM_VIS
100
AcDbSpline
210
0.0
220
0.0
230
1.0
 70
     8
 71
     3
 72
     8
 73
     4
 74
     0
 42
0.0000000001
 43
0.0000000001
 40
0.0
 40
0.0
 40
0.0
 40
0.0
 40
80.0
 40
80.0
 40
80.0
 40
80.0
 10
309.2109097715985
 20
273.3330817312582
 30
0.0
 10
309.1855474769451
 20
273.2538245332559
 30
0.0
 10
309.1728662933375
 20
273.0319042192133
 30
0.0
 10
309.1728662933375
 20
272.6673208616927
 30
0.0
  0
SPLINE
  5
EC9
330
1F
100
AcDbEntity
  8
AM_VIS
100
AcDbSpline
210
0.0
220
0.0
230
1.0
 70
     8
 71
     3
 72
     8
 73
     4
 74
     0
 42
0.0000000001
 43
0.0000000001
 40
0.0
 40
0.0
 40
0.0
 40
0.0
 40
80.0
 40
80.0
 40
80.0
 40
80.0
 10
309.1728662933375
 20
272.6673208616927
 30
0.0
 10
309.1728662933375
 20
272.3724839051712
 30
0.0
 10
309.2204206411635
 20
272.1569042192133
 30
0.0
 10
309.3155293368155
 20
272.0205817312582
 30
0.0
  0
SPLINE
  5
ECA
330
1F
100
AcDbEntity
  8
AM_VIS
100
AcDbSpline
210
0.0
220
0.0
230
1.0
 70
     8
 71
     3
 72
     8
 73
     4
 74
     0
 42
0.0000000001
 43
0.0000000001
 40
0.0
 40
0.0
 40
0.0
 40
0.0
 40
80.0
 40
80.0
 40
80.0
 40
80.0
 10
309.3155293368155
 20
272.0205817312582
 30
0.0
 10
309.410638032468
 20
271.8842593158648
 30
0.0
 10
309.5945147956874
 20
271.7606180115168
 30
0.0
 10
309.8671597715985
 20
271.6496578182147
 30
0.0
  0
LINE
  5
ECB
330
1F
100
AcDbEntity
  8
AM_VIS
100
AcDbLine
 10
309.8671597715985
 20
271.6496578182147
 30
0.0
 11
309.8671597715985
 21
271.5497936877797
 31
0.0
  0
SPLINE
  5
ECC
330
1F
100
AcDbEntity
  8
AM_VIS
100
AcDbSpline
210
0.0
220
0.0
230
1.0
 70
     8
 71
     3
 72
     8
 73
     4
 74
     0
 42
0.0000000001
 43
0.0000000001
 40
0.0
 40
0.0
 40
0.0
 40
0.0
 40
80.0
 40
80.0
 40
80.0
 40
80.0
 10
311.560094554207
 20
287.0270355355443
 30
0.0
 10
312.0863626217744
 20
287.0270356081061
 30
0.0
 10
312.34949672812
 20
287.3932040863671
 30
0.0
 10
312.34949672812
 20
288.1255409703268
 30
0.0
  0
SPLINE
  5
ECD
330
1F
100
AcDbEntity
  8
AM_VIS
100
AcDbSpline
210
0.0
220
0.0
230
1.0
 70
     8
 71
     3
 72
     8
 73
     4
 74
     0
 42
0.0000000001
 43
0.0000000001
 40
0.0
 40
0.0
 40
0.0
 40
0.0
 40
80.0
 40
80.0
 40
80.0
 40
80.0
 10
312.34949672812
 20
288.1255409703268
 30
0.0
 10
312.34949672812
 20
288.2174794244985
 30
0.0
 10
312.339985858555
 20
288.2761297626299
 30
0.0
 10
312.3209641194245
 20
288.3014920572833
 30
0.0
  0
SPLINE
  5
ECE
330
1F
100
AcDbEntity
  8
AM_VIS
100
AcDbSpline
210
0.0
220
0.0
230
1.0
 70
     8
 71
     3
 72
     8
 73
     4
 74
     0
 42
0.0000000001
 43
0.0000000001
 40
0.0
 40
0.0
 40
0.0
 40
0.0
 40
80.0
 40
80.0
 40
80.0
 40
80.0
 10
312.3209641194245
 20
288.3014920572833
 30
0.0
 10
312.2892611966864
 20
288.3331949800214
 30
0.0
 10
312.2258554237725
 20
288.3490464051093
 30
0.0
 10
312.13074672812
 20
288.3490464051093
 30
0.0
  0
LINE
  5
ECF
330
1F
100
AcDbEntity
  8
AM_VIS
100
AcDbLine
 10
312.13074672812
 20
288.3490464051093
 30
0.0
 11
310.746915206381
 21
288.3490464051093
 31
0.0
  0
SPLINE
  5
ED0
330
1F
100
AcDbEntity
  8
AM_VIS
100
AcDbSpline
210
0.0
220
0.0
230
1.0
 70
     8
 71
     3
 72
     8
 73
     4
 74
     0
 42
0.0000000001
 43
0.0000000001
 40
0.0
 40
0.0
 40
0.0
 40
0.0
 40
80.0
 40
80.0
 40
80.0
 40
80.0
 10
310.746915206381
 20
288.3490464051093
 30
0.0
 10
310.7342340227734
 20
288.244426912454
 30
0.0
 10
310.7278934672505
 20
288.1192004148039
 30
0.0
 10
310.7278934672505
 20
287.9733670572833
 30
0.0
  0
SPLINE
  5
ED1
330
1F
100
AcDbEntity
  8
AM_VIS
100
AcDbSpline
210
0.0
220
0.0
230
1.0
 70
     8
 71
     3
 72
     8
 73
     4
 74
     0
 42
0.0000000001
 43
0.0000000001
 40
0.0
 40
0.0
 40
0.0
 40
0.0
 40
80.0
 40
80.0
 40
80.0
 40
80.0
 10
310.7278934672505
 20
287.9733670572833
 30
0.0
 10
310.7278934672505
 20
287.3424794244985
 30
0.0
 10
311.0052938053819
 20
287.0270356081061
 30
0.0
 10
311.560094554207
 20
287.0270355355443
 30
0.0
  0
SPLINE
  5
ED2
330
1F
100
AcDbEntity
  8
AM_VIS
100
AcDbSpline
210
0.0
220
0.0
230
1.0
 70
     8
 71
     3
 72
     8
 73
     4
 74
     0
 42
0.0000000001
 43
0.0000000001
 40
0.0
 40
0.0
 40
0.0
 40
0.0
 40
80.0
 40
80.0
 40
80.0
 40
80.0
 10
311.5696054237725
 20
286.6941551007613
 30
0.0
 10
311.2874495782963
 20
286.6941551007613
 30
0.0
 10
311.0544332739483
 20
286.7829232408909
 30
0.0
 10
310.8705565107285
 20
286.9604594485878
 30
0.0
  0
SPLINE
  5
ED3
330
1F
100
AcDbEntity
  8
AM_VIS
100
AcDbSpline
210
0.0
220
0.0
230
1.0
 70
     8
 71
     3
 72
     8
 73
     4
 74
     0
 42
0.0000000001
 43
0.0000000001
 40
0.0
 40
0.0
 40
0.0
 40
0.0
 40
80.0
 40
80.0
 40
80.0
 40
80.0
 10
310.8705565107285
 20
286.9604594485878
 30
0.0
 10
310.6676579358165
 20
287.157017467977
 30
0.0
 10
310.5662086846415
 20
287.4835573472365
 30
0.0
 10
310.5662086846415
 20
287.9400790138049
 30
0.0
  0
LINE
  5
ED4
330
1F
100
AcDbEntity
  8
AM_VIS
100
AcDbLine
 10
310.5729185012016
 20
288.3491007766557
 30
0.0
 11
310.5649793981571
 21
287.9401028756193
 31
0.0
  0
LINE
  5
ED5
330
1F
100
AcDbEntity
  8
AM_VIS
100
AcDbLine
 10
310.575719554207
 20
288.3490464051093
 30
0.0
 11
309.6341434672505
 21
288.3490464051093
 31
0.0
  0
SPLINE
  5
ED6
330
1F
100
AcDbEntity
  8
AM_VIS
100
AcDbSpline
210
0.0
220
0.0
230
1.0
 70
     8
 71
     3
 72
     8
 73
     4
 74
     0
 42
0.0000000001
 43
0.0000000001
 40
0.0
 40
0.0
 40
0.0
 40
0.0
 40
80.0
 40
80.0
 40
80.0
 40
80.0
 10
309.6341434672505
 20
288.3490464051093
 30
0.0
 10
309.4407557619035
 20
288.3490464051093
 30
0.0
 10
309.3044332739483
 20
288.3094178061084
 30
0.0
 10
309.2251760759465
 20
288.2301605355443
 30
0.0
  0
SPLINE
  5
ED7
330
1F
100
AcDbEntity
  8
AM_VIS
100
AcDbSpline
210
0.0
220
0.0
230
1.0
 70
     8
 71
     3
 72
     8
 73
     4
 74
     0
 42
0.0000000001
 43
0.0000000001
 40
0.0
 40
0.0
 40
0.0
 40
0.0
 40
80.0
 40
80.0
 40
80.0
 40
80.0
 10
309.2251760759465
 20
288.2301605355443
 30
0.0
 10
309.1586000615517
 20
288.1635844485878
 30
0.0
 10
309.1189713899886
 20
288.0367729027595
 30
0.0
 10
309.106290206381
 20
287.8497257529353
 30
0.0
  0
LINE
  5
ED8
330
1F
100
AcDbEntity
  8
AM_VIS
100
AcDbLine
 10
309.106290206381
 20
287.8497257529353
 30
0.0
 11
309.0111815107285
 21
287.8497257529353
 31
0.0
  0
LINE
  5
ED9
330
1F
100
AcDbEntity
  8
AM_VIS
100
AcDbLine
 10
309.0111815107285
 20
287.8497257529353
 30
0.0
 11
309.0111815107285
 21
289.1004051007613
 31
0.0
  0
LINE
  5
EDA
330
1F
100
AcDbEntity
  8
AM_VIS
100
AcDbLine
 10
309.0111815107285
 20
289.1004051007613
 30
0.0
 11
309.106290206381
 21
289.1004051007613
 31
0.0
  0
SPLINE
  5
EDB
330
1F
100
AcDbEntity
  8
AM_VIS
100
AcDbSpline
210
0.0
220
0.0
230
1.0
 70
     8
 71
     3
 72
     8
 73
     4
 74
     0
 42
0.0000000001
 43
0.0000000001
 40
0.0
 40
0.0
 40
0.0
 40
0.0
 40
80.0
 40
80.0
 40
80.0
 40
80.0
 10
309.106290206381
 20
289.1004051007613
 30
0.0
 10
309.1253119455115
 20
288.9133580234994
 30
0.0
 10
309.1792069214226
 20
288.7897167191519
 30
0.0
 10
309.2679749889895
 20
288.7294811877179
 30
0.0
  0
SPLINE
  5
EDC
330
1F
100
AcDbEntity
  8
AM_VIS
100
AcDbSpline
210
0.0
220
0.0
230
1.0
 70
     8
 71
     3
 72
     8
 73
     4
 74
     0
 42
0.0000000001
 43
0.0000000001
 40
0.0
 40
0.0
 40
0.0
 40
0.0
 40
80.0
 40
80.0
 40
80.0
 40
80.0
 10
309.2679749889895
 20
288.7294811877179
 30
0.0
 10
309.3440619455115
 20
288.6755862843694
 30
0.0
 10
309.4883101097299
 20
288.6486387964138
 30
0.0
 10
309.700719554207
 20
288.6486387964138
 30
0.0
  0
LINE
  5
EDD
330
1F
100
AcDbEntity
  8
AM_VIS
100
AcDbLine
 10
309.700719554207
 20
288.6486387964138
 30
0.0
 11
311.9215075976855
 21
288.6486387964138
 31
0.0
  0
SPLINE
  5
EDE
330
1F
100
AcDbEntity
  8
AM_VIS
100
AcDbSpline
210
0.0
220
0.0
230
1.0
 70
     8
 71
     3
 72
     8
 73
     4
 74
     0
 42
0.0000000001
 43
0.0000000001
 40
0.0
 40
0.0
 40
0.0
 40
0.0
 40
80.0
 40
80.0
 40
80.0
 40
80.0
 10
311.9215075976855
 20
288.6486387964138
 30
0.0
 10
312.1117249889895
 20
288.6486387964138
 30
0.0
 10
312.2369514140775
 20
288.6787565984115
 30
0.0
 10
312.2971869455115
 20
288.7389920572833
 30
0.0
  0
SPLINE
  5
EDF
330
1F
100
AcDbEntity
  8
AM_VIS
100
AcDbSpline
210
0.0
220
0.0
230
1.0
 70
     8
 71
     3
 72
     8
 73
     4
 74
     0
 42
0.0000000001
 43
0.0000000001
 40
0.0
 40
0.0
 40
0.0
 40
0.0
 40
80.0
 40
80.0
 40
80.0
 40
80.0
 10
312.2971869455115
 20
288.7389920572833
 30
0.0
 10
312.3542521629025
 20
288.7960572746743
 30
0.0
 10
312.3938807619035
 20
288.916528337542
 30
0.0
 10
312.4160728150765
 20
289.1004051007613
 30
0.0
  0
LINE
  5
EE0
330
1F
100
AcDbEntity
  8
AM_VIS
100
AcDbLine
 10
312.4160728150765
 20
289.1004051007613
 30
0.0
 11
312.5111815107285
 21
289.1004051007613
 31
0.0
  0
LINE
  5
EE1
330
1F
100
AcDbEntity
  8
AM_VIS
100
AcDbLine
 10
312.5111815107285
 20
289.1004051007613
 30
0.0
 11
312.5111815107285
 21
287.8925246659788
 31
0.0
  0
SPLINE
  5
EE2
330
1F
100
AcDbEntity
  8
AM_VIS
100
AcDbSpline
210
0.0
220
0.0
230
1.0
 70
     8
 71
     3
 72
     8
 73
     4
 74
     0
 42
0.0000000001
 43
0.0000000001
 40
0.0
 40
0.0
 40
0.0
 40
0.0
 40
80.0
 40
80.0
 40
80.0
 40
80.0
 10
312.5111815107285
 20
287.8925246659788
 30
0.0
 10
312.5111815107285
 20
287.5469631201509
 30
0.0
 10
312.4382647956874
 20
287.2679775887169
 30
0.0
 10
312.2924315107285
 20
287.0555681442398
 30
0.0
  0
SPLINE
  5
EE3
330
1F
100
AcDbEntity
  8
AM_VIS
100
AcDbSpline
210
0.0
220
0.0
230
1.0
 70
     8
 71
     3
 72
     8
 73
     4
 74
     0
 42
0.0000000001
 43
0.0000000001
 40
0.0
 40
0.0
 40
0.0
 40
0.0
 40
80.0
 40
80.0
 40
80.0
 40
80.0
 10
312.2924315107285
 20
287.0555681442398
 30
0.0
 10
312.1244061000354
 20
286.814626163629
 30
0.0
 10
311.8834641194245
 20
286.6941551007613
 30
0.0
 10
311.5696054237725
 20
286.6941551007613
 30
0.0
  0
SPLINE
  5
EE4
330
1F
100
AcDbEntity
  8
AM_VIS
100
AcDbSpline
210
0.0
220
0.0
230
1.0
 70
     8
 71
     3
 72
     8
 73
     4
 74
     0
 42
0.0000000001
 43
0.0000000001
 40
0.0
 40
0.0
 40
0.0
 40
0.0
 40
80.0
 40
80.0
 40
80.0
 40
80.0
 10
350.9622684672505
 20
288.9612746660092
 30
0.0
 10
350.4360003996836
 20
288.961274593447
 30
0.0
 10
350.1728662933375
 20
288.595106115186
 30
0.0
 10
350.1728662933375
 20
287.8627692312267
 30
0.0
  0
SPLINE
  5
EE5
330
1F
100
AcDbEntity
  8
AM_VIS
100
AcDbSpline
210
0.0
220
0.0
230
1.0
 70
     8
 71
     3
 72
     8
 73
     4
 74
     0
 42
0.0000000001
 43
0.0000000001
 40
0.0
 40
0.0
 40
0.0
 40
0.0
 40
80.0
 40
80.0
 40
80.0
 40
80.0
 10
350.1728662933375
 20
287.8627692312267
 30
0.0
 10
350.1728662933375
 20
287.7708307770546
 30
0.0
 10
350.1823771629025
 20
287.7121804389231
 30
0.0
 10
350.2013989020335
 20
287.6868181442702
 30
0.0
  0
SPLINE
  5
EE6
330
1F
100
AcDbEntity
  8
AM_VIS
100
AcDbSpline
210
0.0
220
0.0
230
1.0
 70
     8
 71
     3
 72
     8
 73
     4
 74
     0
 42
0.0000000001
 43
0.0000000001
 40
0.0
 40
0.0
 40
0.0
 40
0.0
 40
80.0
 40
80.0
 40
80.0
 40
80.0
 10
350.2013989020335
 20
287.6868181442702
 30
0.0
 10
350.2331018247716
 20
287.6551152215321
 30
0.0
 10
350.2965075976855
 20
287.6392637964442
 30
0.0
 10
350.3916162933375
 20
287.6392637964442
 30
0.0
  0
LINE
  5
EE7
330
1F
100
AcDbEntity
  8
AM_VIS
100
AcDbLine
 10
350.3916162933375
 20
287.6392637964442
 30
0.0
 11
351.7754478150765
 21
287.6392637964442
 31
0.0
  0
SPLINE
  5
EE8
330
1F
100
AcDbEntity
  8
AM_VIS
100
AcDbSpline
210
0.0
220
0.0
230
1.0
 70
     8
 71
     3
 72
     8
 73
     4
 74
     0
 42
0.0000000001
 43
0.0000000001
 40
0.0
 40
0.0
 40
0.0
 40
0.0
 40
80.0
 40
80.0
 40
80.0
 40
80.0
 10
351.7754478150765
 20
287.6392637964442
 30
0.0
 10
351.7881289986846
 20
287.743883289099
 30
0.0
 10
351.794469554207
 20
287.8691097867492
 30
0.0
 10
351.794469554207
 20
288.0149431442702
 30
0.0
  0
SPLINE
  5
EE9
330
1F
100
AcDbEntity
  8
AM_VIS
100
AcDbSpline
210
0.0
220
0.0
230
1.0
 70
     8
 71
     3
 72
     8
 73
     4
 74
     0
 42
0.0000000001
 43
0.0000000001
 40
0.0
 40
0.0
 40
0.0
 40
0.0
 40
80.0
 40
80.0
 40
80.0
 40
80.0
 10
351.794469554207
 20
288.0149431442702
 30
0.0
 10
351.794469554207
 20
288.6458307770546
 30
0.0
 10
351.5170692160756
 20
288.961274593447
 30
0.0
 10
350.9622684672505
 20
288.9612746660092
 30
0.0
  0
SPLINE
  5
EEA
330
1F
100
AcDbEntity
  8
AM_VIS
100
AcDbSpline
210
0.0
220
0.0
230
1.0
 70
     8
 71
     3
 72
     8
 73
     4
 74
     0
 42
0.0000000001
 43
0.0000000001
 40
0.0
 40
0.0
 40
0.0
 40
0.0
 40
80.0
 40
80.0
 40
80.0
 40
80.0
 10
350.9527575976855
 20
289.2941551007917
 30
0.0
 10
351.2349134431616
 20
289.2941551007917
 30
0.0
 10
351.4679297475096
 20
289.2053869606622
 30
0.0
 10
351.6518065107285
 20
289.0278507529657
 30
0.0
  0
SPLINE
  5
EEB
330
1F
100
AcDbEntity
  8
AM_VIS
100
AcDbSpline
210
0.0
220
0.0
230
1.0
 70
     8
 71
     3
 72
     8
 73
     4
 74
     0
 42
0.0000000001
 43
0.0000000001
 40
0.0
 40
0.0
 40
0.0
 40
0.0
 40
80.0
 40
80.0
 40
80.0
 40
80.0
 10
351.6518065107285
 20
289.0278507529657
 30
0.0
 10
351.8547050856406
 20
288.8312927335766
 30
0.0
 10
351.9561543368155
 20
288.5047528543165
 30
0.0
 10
351.9561543368155
 20
288.0482311877482
 30
0.0
  0
LINE
  5
EEC
330
1F
100
AcDbEntity
  8
AM_VIS
100
AcDbLine
 10
351.9573836233004
 20
288.0482073259337
 30
0.0
 11
351.9494445202564
 21
287.6392094248974
 31
0.0
  0
LINE
  5
EED
330
1F
100
AcDbEntity
  8
AM_VIS
100
AcDbLine
 10
351.9466434672505
 20
287.6392637964442
 30
0.0
 11
352.888219554207
 21
287.6392637964442
 31
0.0
  0
SPLINE
  5
EEE
330
1F
100
AcDbEntity
  8
AM_VIS
100
AcDbSpline
210
0.0
220
0.0
230
1.0
 70
     8
 71
     3
 72
     8
 73
     4
 74
     0
 42
0.0000000001
 43
0.0000000001
 40
0.0
 40
0.0
 40
0.0
 40
0.0
 40
80.0
 40
80.0
 40
80.0
 40
80.0
 10
352.888219554207
 20
287.6392637964442
 30
0.0
 10
353.0816072595536
 20
287.6392637964442
 30
0.0
 10
353.2179297475096
 20
287.6788923954451
 30
0.0
 10
353.2971869455115
 20
287.7581496660092
 30
0.0
  0
SPLINE
  5
EEF
330
1F
100
AcDbEntity
  8
AM_VIS
100
AcDbSpline
210
0.0
220
0.0
230
1.0
 70
     8
 71
     3
 72
     8
 73
     4
 74
     0
 42
0.0000000001
 43
0.0000000001
 40
0.0
 40
0.0
 40
0.0
 40
0.0
 40
80.0
 40
80.0
 40
80.0
 40
80.0
 10
353.2971869455115
 20
287.7581496660092
 30
0.0
 10
353.3637629599058
 20
287.8247257529657
 30
0.0
 10
353.4033916314689
 20
287.951537298794
 30
0.0
 10
353.4160728150765
 20
288.1385844486177
 30
0.0
  0
LINE
  5
EF0
330
1F
100
AcDbEntity
  8
AM_VIS
100
AcDbLine
 10
353.4160728150765
 20
288.1385844486177
 30
0.0
 11
353.5111815107285
 21
288.1385844486177
 31
0.0
  0
LINE
  5
EF1
330
1F
100
AcDbEntity
  8
AM_VIS
100
AcDbLine
 10
353.5111815107285
 20
288.1385844486177
 30
0.0
 11
353.5111815107285
 21
286.8879051007917
 31
0.0
  0
LINE
  5
EF2
330
1F
100
AcDbEntity
  8
AM_VIS
100
AcDbLine
 10
353.5111815107285
 20
286.8879051007917
 30
0.0
 11
353.4160728150765
 21
286.8879051007917
 31
0.0
  0
SPLINE
  5
EF3
330
1F
100
AcDbEntity
  8
AM_VIS
100
AcDbSpline
210
0.0
220
0.0
230
1.0
 70
     8
 71
     3
 72
     8
 73
     4
 74
     0
 42
0.0000000001
 43
0.0000000001
 40
0.0
 40
0.0
 40
0.0
 40
0.0
 40
80.0
 40
80.0
 40
80.0
 40
80.0
 10
353.4160728150765
 20
286.8879051007917
 30
0.0
 10
353.3970510759465
 20
287.0749521780536
 30
0.0
 10
353.3431561000353
 20
287.1985934824016
 30
0.0
 10
353.254388032468
 20
287.2588290138352
 30
0.0
  0
SPLINE
  5
EF4
330
1F
100
AcDbEntity
  8
AM_VIS
100
AcDbSpline
210
0.0
220
0.0
230
1.0
 70
     8
 71
     3
 72
     8
 73
     4
 74
     0
 42
0.0000000001
 43
0.0000000001
 40
0.0
 40
0.0
 40
0.0
 40
0.0
 40
80.0
 40
80.0
 40
80.0
 40
80.0
 10
353.254388032468
 20
287.2588290138352
 30
0.0
 10
353.1783010759465
 20
287.3127239171842
 30
0.0
 10
353.0340529117276
 20
287.3396714051397
 30
0.0
 10
352.8216434672505
 20
287.3396714051397
 30
0.0
  0
LINE
  5
EF5
330
1F
100
AcDbEntity
  8
AM_VIS
100
AcDbLine
 10
352.8216434672505
 20
287.3396714051397
 30
0.0
 11
350.6008554237725
 21
287.3396714051397
 31
0.0
  0
SPLINE
  5
EF6
330
1F
100
AcDbEntity
  8
AM_VIS
100
AcDbSpline
210
0.0
220
0.0
230
1.0
 70
     8
 71
     3
 72
     8
 73
     4
 74
     0
 42
0.0000000001
 43
0.0000000001
 40
0.0
 40
0.0
 40
0.0
 40
0.0
 40
80.0
 40
80.0
 40
80.0
 40
80.0
 10
350.6008554237725
 20
287.3396714051397
 30
0.0
 10
350.410638032468
 20
287.3396714051397
 30
0.0
 10
350.2854116073801
 20
287.3095536031416
 30
0.0
 10
350.2251760759465
 20
287.2493181442702
 30
0.0
  0
SPLINE
  5
EF7
330
1F
100
AcDbEntity
  8
AM_VIS
100
AcDbSpline
210
0.0
220
0.0
230
1.0
 70
     8
 71
     3
 72
     8
 73
     4
 74
     0
 42
0.0000000001
 43
0.0000000001
 40
0.0
 40
0.0
 40
0.0
 40
0.0
 40
80.0
 40
80.0
 40
80.0
 40
80.0
 10
350.2251760759465
 20
287.2493181442702
 30
0.0
 10
350.168110858555
 20
287.1922529268787
 30
0.0
 10
350.1284822595536
 20
287.0717818640111
 30
0.0
 10
350.106290206381
 20
286.8879051007917
 30
0.0
  0
LINE
  5
EF8
330
1F
100
AcDbEntity
  8
AM_VIS
100
AcDbLine
 10
350.106290206381
 20
286.8879051007917
 30
0.0
 11
350.0111815107285
 21
286.8879051007917
 31
0.0
  0
LINE
  5
EF9
330
1F
100
AcDbEntity
  8
AM_VIS
100
AcDbLine
 10
350.0111815107285
 20
286.8879051007917
 30
0.0
 11
350.0111815107285
 21
288.0957855355742
 31
0.0
  0
SPLINE
  5
EFA
330
1F
100
AcDbEntity
  8
AM_VIS
100
AcDbSpline
210
0.0
220
0.0
230
1.0
 70
     8
 71
     3
 72
     8
 73
     4
 74
     0
 42
0.0000000001
 43
0.0000000001
 40
0.0
 40
0.0
 40
0.0
 40
0.0
 40
80.0
 40
80.0
 40
80.0
 40
80.0
 10
350.0111815107285
 20
288.0957855355742
 30
0.0
 10
350.0111815107285
 20
288.4413470814026
 30
0.0
 10
350.0840982257702
 20
288.7203326128362
 30
0.0
 10
350.2299315107285
 20
288.9327420573137
 30
0.0
  0
SPLINE
  5
EFB
330
1F
100
AcDbEntity
  8
AM_VIS
100
AcDbSpline
210
0.0
220
0.0
230
1.0
 70
     8
 71
     3
 72
     8
 73
     4
 74
     0
 42
0.0000000001
 43
0.0000000001
 40
0.0
 40
0.0
 40
0.0
 40
0.0
 40
80.0
 40
80.0
 40
80.0
 40
80.0
 10
350.2299315107285
 20
288.9327420573137
 30
0.0
 10
350.3979569214227
 20
289.1736840379241
 30
0.0
 10
350.6388989020335
 20
289.2941551007917
 30
0.0
 10
350.9527575976855
 20
289.2941551007917
 30
0.0
  0
SPLINE
  5
EFC
330
1F
100
AcDbEntity
  8
AM_VIS
100
AcDbSpline
210
0.0
220
0.0
230
1.0
 70
     8
 71
     3
 72
     8
 73
     4
 74
     0
 42
0.0000000001
 43
0.0000000001
 40
0.0
 40
0.0
 40
0.0
 40
0.0
 40
80.0
 40
80.0
 40
80.0
 40
80.0
 10
352.5696054237725
 20
273.9279866224693
 30
0.0
 10
352.1986815832907
 20
273.9279865499071
 30
0.0
 10
351.9450583465105
 20
273.7282582890376
 30
0.0
 10
351.808735858555
 20
273.3288018398604
 30
0.0
  0
SPLINE
  5
EFD
330
1F
100
AcDbEntity
  8
AM_VIS
100
AcDbSpline
210
0.0
220
0.0
230
1.0
 70
     8
 71
     3
 72
     8
 73
     4
 74
     0
 42
0.0000000001
 43
0.0000000001
 40
0.0
 40
0.0
 40
0.0
 40
0.0
 40
80.0
 40
80.0
 40
80.0
 40
80.0
 10
351.808735858555
 20
273.3288018398604
 30
0.0
 10
351.7580112692487
 20
273.1797981682972
 30
0.0
 10
351.7326489020335
 20
272.8913018398604
 30
0.0
 10
351.7326489020335
 20
272.4633127094258
 30
0.0
  0
LINE
  5
EFE
330
1F
100
AcDbEntity
  8
AM_VIS
100
AcDbLine
 10
351.7326489020335
 20
272.4633127094258
 30
0.0
 11
353.1022141194245
 21
272.4633127094258
 31
0.0
  0
SPLINE
  5
EFF
330
1F
100
AcDbEntity
  8
AM_VIS
100
AcDbSpline
210
0.0
220
0.0
230
1.0
 70
     8
 71
     3
 72
     8
 73
     4
 74
     0
 42
0.0000000001
 43
0.0000000001
 40
0.0
 40
0.0
 40
0.0
 40
0.0
 40
80.0
 40
80.0
 40
80.0
 40
80.0
 10
353.1022141194245
 20
272.4633127094258
 30
0.0
 10
353.2131743127266
 20
272.4633126368636
 30
0.0
 10
353.2876760759465
 20
272.5140372987322
 30
0.0
 10
353.325719554207
 20
272.6154866224693
 30
0.0
  0
SPLINE
  5
F00
330
1F
100
AcDbEntity
  8
AM_VIS
100
AcDbSpline
210
0.0
220
0.0
230
1.0
 70
     8
 71
     3
 72
     8
 73
     4
 74
     0
 42
0.0000000001
 43
0.0000000001
 40
0.0
 40
0.0
 40
0.0
 40
0.0
 40
80.0
 40
80.0
 40
80.0
 40
80.0
 10
353.325719554207
 20
272.6154866224693
 30
0.0
 10
353.3447412207753
 20
272.6757220813407
 30
0.0
 10
353.3542520903403
 20
272.7755862117757
 30
0.0
 10
353.3542521629025
 20
272.9150790137734
 30
0.0
  0
SPLINE
  5
F01
330
1F
100
AcDbEntity
  8
AM_VIS
100
AcDbSpline
210
0.0
220
0.0
230
1.0
 70
     8
 71
     3
 72
     8
 73
     4
 74
     0
 42
0.0000000001
 43
0.0000000001
 40
0.0
 40
0.0
 40
0.0
 40
0.0
 40
80.0
 40
80.0
 40
80.0
 40
80.0
 10
353.3542521629025
 20
272.9150790137734
 30
0.0
 10
353.3542520903403
 20
273.5903506803416
 30
0.0
 10
353.0927032498595
 20
273.9279865499071
 30
0.0
 10
352.5696054237725
 20
273.9279866224693
 30
0.0
  0
SPLINE
  5
F02
330
1F
100
AcDbEntity
  8
AM_VIS
100
AcDbSpline
210
0.0
220
0.0
230
1.0
 70
     8
 71
     3
 72
     8
 73
     4
 74
     0
 42
0.0000000001
 43
0.0000000001
 40
0.0
 40
0.0
 40
0.0
 40
0.0
 40
80.0
 40
80.0
 40
80.0
 40
80.0
 10
350.9242249889895
 20
273.8328779268169
 30
0.0
 10
350.4201489020335
 20
273.8328779268169
 30
0.0
 10
350.168110858555
 20
273.4904866224693
 30
0.0
 10
350.168110858555
 20
272.8057040137734
 30
0.0
  0
SPLINE
  5
F03
330
1F
100
AcDbEntity
  8
AM_VIS
100
AcDbSpline
210
0.0
220
0.0
230
1.0
 70
     8
 71
     3
 72
     8
 73
     4
 74
     0
 42
0.0000000001
 43
0.0000000001
 40
0.0
 40
0.0
 40
0.0
 40
0.0
 40
80.0
 40
80.0
 40
80.0
 40
80.0
 10
350.168110858555
 20
272.8057040137734
 30
0.0
 10
350.168110858555
 20
272.6725517672981
 30
0.0
 10
350.1696960518572
 20
272.5996351248192
 30
0.0
 10
350.1728662933375
 20
272.5869540137734
 30
0.0
  0
SPLINE
  5
F04
330
1F
100
AcDbEntity
  8
AM_VIS
100
AcDbSpline
210
0.0
220
0.0
230
1.0
 70
     8
 71
     3
 72
     8
 73
     4
 74
     0
 42
0.0000000001
 43
0.0000000001
 40
0.0
 40
0.0
 40
0.0
 40
0.0
 40
80.0
 40
80.0
 40
80.0
 40
80.0
 10
350.1728662933375
 20
272.5869540137734
 30
0.0
 10
350.1792069214226
 20
272.5298887963823
 30
0.0
 10
350.1903029117276
 20
272.4950155596017
 30
0.0
 10
350.2061543368155
 20
272.4823344485563
 30
0.0
  0
LINE
  5
F05
330
1F
100
AcDbEntity
  8
AM_7
  6
AM_ISO08W050x2
100
AcDbLine
 10
321.7111815107288
 20
277.2941551007767
 30
0.0
 11
321.7111815107288
 21
274.7267551007768
 31
0.0
1001
GENIUS_GENOREF_13
1005
FF2
  0
LINE
  5
F06
330
1F
100
AcDbEntity
  8
AM_7
  6
AM_ISO08W050x2
100
AcDbLine
 10
321.7111815107288
 20
277.2941551007767
 30
0.0
 11
324.2785815107283
 21
277.2941551007767
 31
0.0
1001
GENIUS_GENOREF_13
1005
FF2
  0
LINE
  5
F07
330
1F
100
AcDbEntity
  8
AM_7
  6
AM_ISO08W050x2
100
AcDbLine
 10
321.7111815107288
 20
277.2941551007767
 30
0.0
 11
321.7111815107288
 21
279.8615551007766
 31
0.0
1001
GENIUS_GENOREF_13
1005
FF2
  0
LINE
  5
F08
330
1F
100
AcDbEntity
  8
AM_7
  6
AM_ISO08W050x2
100
AcDbLine
 10
321.7111815107288
 20
277.2941551007767
 30
0.0
 11
319.1437815107294
 21
277.2941551007767
 31
0.0
1001
GENIUS_GENOREF_13
1005
FF2
  0
LINE
  5
F09
330
1F
100
AcDbEntity
  8
AM_7
  6
AM_ISO08W050x2
100
AcDbLine
 10
330.3111815107287
 20
298.6941551007768
 30
0.0
 11
330.3111815107287
 21
296.1267551007769
 31
0.0
1001
GENIUS_GENOREF_13
1005
FF1
  0
LINE
  5
F0A
330
1F
100
AcDbEntity
  8
AM_7
  6
AM_ISO08W050x2
100
AcDbLine
 10
330.3111815107287
 20
298.6941551007768
 30
0.0
 11
332.8785815107286
 21
298.6941551007768
 31
0.0
1001
GENIUS_GENOREF_13
1005
FF1
  0
LINE
  5
F0B
330
1F
100
AcDbEntity
  8
AM_7
  6
AM_ISO08W050x2
100
AcDbLine
 10
330.3111815107287
 20
298.6941551007768
 30
0.0
 11
330.3111815107287
 21
301.2615551007767
 31
0.0
1001
GENIUS_GENOREF_13
1005
FF1
  0
LINE
  5
F0C
330
1F
100
AcDbEntity
  8
AM_7
  6
AM_ISO08W050x2
100
AcDbLine
 10
330.3111815107287
 20
298.6941551007768
 30
0.0
 11
327.7437815107288
 21
298.6941551007768
 31
0.0
1001
GENIUS_GENOREF_13
1005
FF1
  0
LINE
  5
F0D
330
1F
100
AcDbEntity
  8
AM_7
  6
AM_ISO08W050x2
100
AcDbLine
 10
316.0111815107285
 20
295.9941551007765
 30
0.0
 11
316.0111815107285
 21
292.7441551007765
 31
0.0
1001
GENIUS_GENOREF_13
1005
FF0
  0
LINE
  5
F0E
330
1F
100
AcDbEntity
  8
AM_7
  6
AM_ISO08W050x2
100
AcDbLine
 10
316.0111815107285
 20
295.9941551007765
 30
0.0
 11
319.2611815107285
 21
295.9941551007765
 31
0.0
1001
GENIUS_GENOREF_13
1005
FF0
  0
LINE
  5
F0F
330
1F
100
AcDbEntity
  8
AM_7
  6
AM_ISO08W050x2
100
AcDbLine
 10
316.0111815107285
 20
295.9941551007765
 30
0.0
 11
316.0111815107285
 21
299.2441551007765
 31
0.0
1001
GENIUS_GENOREF_13
1005
FF0
  0
LINE
  5
F10
102
{ACAD_REACTORS
330
F33
102
}
330
1F
100
AcDbEntity
  8
AM_7
  6
AM_ISO08W050x2
100
AcDbLine
 10
316.0111815107285
 20
295.9941551007765
 30
0.0
 11
312.7611815107286
 21
295.9941551007765
 31
0.0
1001
GENIUS_GENOREF_13
1005
FF0
  0
LINE
  5
F11
102
{ACAD_REACTORS
330
F39
330
F4A
102
}
330
1F
100
AcDbEntity
  8
AM_7
  6
AM_ISO08W050x2
100
AcDbLine
 10
316.0111815107285
 20
279.9941551007766
 30
0.0
 11
316.0111815107285
 21
276.7441551007765
 31
0.0
1001
GENIUS_GENOREF_13
1005
FEF
  0
LINE
  5
F12
330
1F
100
AcDbEntity
  8
AM_7
  6
AM_ISO08W050x2
100
AcDbLine
 10
316.0111815107285
 20
279.9941551007766
 30
0.0
 11
319.2611815107285
 21
279.9941551007766
 31
0.0
1001
GENIUS_GENOREF_13
1005
FEF
  0
LINE
  5
F13
330
1F
100
AcDbEntity
  8
AM_7
  6
AM_ISO08W050x2
100
AcDbLine
 10
316.0111815107285
 20
279.9941551007766
 30
0.0
 11
316.0111815107285
 21
283.2441551007765
 31
0.0
1001
GENIUS_GENOREF_13
1005
FEF
  0
LINE
  5
F14
102
{ACAD_REACTORS
330
F33
102
}
330
1F
100
AcDbEntity
  8
AM_7
  6
AM_ISO08W050x2
100
AcDbLine
 10
316.0111815107285
 20
279.9941551007766
 30
0.0
 11
312.7611815107286
 21
279.9941551007766
 31
0.0
1001
GENIUS_GENOREF_13
1005
FEF
  0
LINE
  5
F15
330
1F
100
AcDbEntity
  8
AM_7
  6
AM_ISO08W050x2
100
AcDbLine
 10
332.2111815107288
 20
277.2941551007767
 30
0.0
 11
332.2111815107288
 21
274.7267551007768
 31
0.0
1001
GENIUS_GENOREF_13
1005
FEE
  0
LINE
  5
F16
330
1F
100
AcDbEntity
  8
AM_7
  6
AM_ISO08W050x2
100
AcDbLine
 10
332.2111815107288
 20
277.2941551007767
 30
0.0
 11
334.7785815107283
 21
277.2941551007767
 31
0.0
1001
GENIUS_GENOREF_13
1005
FEE
  0
LINE
  5
F17
330
1F
100
AcDbEntity
  8
AM_7
  6
AM_ISO08W050x2
100
AcDbLine
 10
332.2111815107288
 20
277.2941551007767
 30
0.0
 11
332.2111815107288
 21
279.8615551007766
 31
0.0
1001
GENIUS_GENOREF_13
1005
FEE
  0
LINE
  5
F18
330
1F
100
AcDbEntity
  8
AM_7
  6
AM_ISO08W050x2
100
AcDbLine
 10
332.2111815107288
 20
277.2941551007767
 30
0.0
 11
329.6437815107294
 21
277.2941551007767
 31
0.0
1001
GENIUS_GENOREF_13
1005
FEE
  0
LINE
  5
F19
330
1F
100
AcDbEntity
  8
AM_7
  6
AM_ISO08W050x2
100
AcDbLine
 10
340.8111815107287
 20
298.6941551007768
 30
0.0
 11
340.8111815107287
 21
296.1267551007769
 31
0.0
1001
GENIUS_GENOREF_13
1005
FED
  0
LINE
  5
F1A
330
1F
100
AcDbEntity
  8
AM_7
  6
AM_ISO08W050x2
100
AcDbLine
 10
340.8111815107287
 20
298.6941551007768
 30
0.0
 11
343.3785815107286
 21
298.6941551007768
 31
0.0
1001
GENIUS_GENOREF_13
1005
FED
  0
LINE
  5
F1B
330
1F
100
AcDbEntity
  8
AM_7
  6
AM_ISO08W050x2
100
AcDbLine
 10
340.8111815107287
 20
298.6941551007768
 30
0.0
 11
340.8111815107287
 21
301.2615551007767
 31
0.0
1001
GENIUS_GENOREF_13
1005
FED
  0
LINE
  5
F1C
330
1F
100
AcDbEntity
  8
AM_7
  6
AM_ISO08W050x2
100
AcDbLine
 10
340.8111815107287
 20
298.6941551007768
 30
0.0
 11
338.2437815107288
 21
298.6941551007768
 31
0.0
1001
GENIUS_GENOREF_13
1005
FED
  0
LINE
  5
F1D
330
1F
100
AcDbEntity
  8
AM_7
  6
AM_ISO08W050x2
100
AcDbLine
 10
346.5111815107285
 20
295.9941551007765
 30
0.0
 11
346.5111815107285
 21
292.7441551007765
 31
0.0
1001
GENIUS_GENOREF_13
1005
FEC
  0
LINE
  5
F1E
330
1F
100
AcDbEntity
  8
AM_7
  6
AM_ISO08W050x2
100
AcDbLine
 10
346.5111815107285
 20
295.9941551007765
 30
0.0
 11
349.7611815107285
 21
295.9941551007765
 31
0.0
1001
GENIUS_GENOREF_13
1005
FEC
  0
LINE
  5
F1F
330
1F
100
AcDbEntity
  8
AM_7
  6
AM_ISO08W050x2
100
AcDbLine
 10
346.5111815107285
 20
295.9941551007765
 30
0.0
 11
346.5111815107285
 21
299.2441551007765
 31
0.0
1001
GENIUS_GENOREF_13
1005
FEC
  0
LINE
  5
F20
330
1F
100
AcDbEntity
  8
AM_7
  6
AM_ISO08W050x2
100
AcDbLine
 10
346.5111815107285
 20
295.9941551007765
 30
0.0
 11
343.2611815107285
 21
295.9941551007765
 31
0.0
1001
GENIUS_GENOREF_13
1005
FEC
  0
LINE
  5
F21
102
{ACAD_REACTORS
330
F3C
102
}
330
1F
100
AcDbEntity
  8
AM_7
  6
AM_ISO08W050x2
100
AcDbLine
 10
346.5111815107285
 20
279.9941551007766
 30
0.0
 11
346.5111815107285
 21
276.7441551007765
 31
0.0
1001
GENIUS_GENOREF_13
1005
FEB
  0
LINE
  5
F22
330
1F
100
AcDbEntity
  8
AM_7
  6
AM_ISO08W050x2
100
AcDbLine
 10
346.5111815107285
 20
279.9941551007766
 30
0.0
 11
349.7611815107285
 21
279.9941551007766
 31
0.0
1001
GENIUS_GENOREF_13
1005
FEB
  0
LINE
  5
F23
330
1F
100
AcDbEntity
  8
AM_7
  6
AM_ISO08W050x2
100
AcDbLine
 10
346.5111815107285
 20
279.9941551007766
 30
0.0
 11
346.5111815107285
 21
283.2441551007765
 31
0.0
1001
GENIUS_GENOREF_13
1005
FEB
  0
LINE
  5
F24
330
1F
100
AcDbEntity
  8
AM_7
  6
AM_ISO08W050x2
100
AcDbLine
 10
346.5111815107285
 20
279.9941551007766
 30
0.0
 11
343.2611815107285
 21
279.9941551007766
 31
0.0
1001
GENIUS_GENOREF_13
1005
FEB
  0
DIMENSION
  5
F31
102
{ACAD_XDICTIONARY
360
F32
102
}
102
{ACAD_REACTORS
330
F33
102
}
330
1F
100
AcDbEntity
  8
AM_5
100
AcDbDimension
  2
*D4
 10
299.3107215751385
 20
279.9941551007766
 30
0.0
 11
296.8607215751384
 21
287.9941551007766
 31
0.0
 70
    32
 71
     5
 42
16.0
  3
AM_ISO$0
100
AcDbAlignedDimension
 13
312.7611815107286
 23
295.9941551007765
 33
0.0
 14
312.7611815107286
 24
279.9941551007766
 34
0.0
 50
270.0
100
AcDbRotatedDimension
1001
ACAD
1000
DSTYLE
1002
{
1070
    40
1040
1.0
1070
   144
1040
1.0
1070
   272
1070
     8
1002
}
  0
DIMENSION
  5
F34
102
{ACAD_XDICTIONARY
360
F35
102
}
102
{ACAD_REACTORS
330
F36
102
}
330
1F
100
AcDbEntity
  8
AM_5
100
AcDbDimension
  2
*D5
 10
292.3107215751385
 20
264.4941551007765
 30
0.0
 11
289.8607215751384
 21
288.9941551007766
 31
0.0
 70
    32
 71
     5
 42
49.0
  3
AM_ISO$0
100
AcDbAlignedDimension
 13
307.0111815107285
 23
313.4941551007766
 33
0.0
 14
307.0111815107285
 24
264.4941551007765
 34
0.0
 50
270.0
100
AcDbRotatedDimension
1001
ACAD
1000
DSTYLE
1002
{
1070
    40
1040
1.0
1070
   144
1040
1.0
1070
   272
1070
     8
1002
}
  0
DIMENSION
  5
F37
102
{ACAD_XDICTIONARY
360
F38
102
}
102
{ACAD_REACTORS
330
F39
102
}
330
1F
100
AcDbEntity
  8
AM_5
100
AcDbDimension
  2
*D6
 10
316.0111815107285
 20
252.4941551007765
 30
0.0
 11
311.5111815107285
 21
254.9441551007765
 31
0.0
 70
    32
 71
     5
 42
9.0
  3
AM_ISO$0
100
AcDbAlignedDimension
 13
307.0111815107285
 23
264.4941551007765
 33
0.0
 14
316.0111815107285
 24
276.7441551007765
 34
0.0
100
AcDbRotatedDimension
1001
ACAD
1000
DSTYLE
1002
{
1070
    40
1040
1.0
1070
   144
1040
1.0
1070
   272
1070
     8
1002
}
  0
DIMENSION
  5
F3A
102
{ACAD_XDICTIONARY
360
F3B
102
}
102
{ACAD_REACTORS
330
F3C
102
}
330
1F
100
AcDbEntity
  8
AM_5
100
AcDbDimension
  2
*D7
 10
346.5111815107285
 20
252.4941551007765
 30
0.0
 11
351.0111815107285
 21
254.9441551007765
 31
0.0
 70
    32
 71
     5
 42
9.0
  3
AM_ISO$0
100
AcDbAlignedDimension
 13
355.5111815107285
 23
264.4941551007765
 33
0.0
 14
346.5111815107285
 24
276.7441551007765
 34
0.0
100
AcDbRotatedDimension
1001
ACAD
1000
DSTYLE
1002
{
1070
    40
1040
1.0
1070
   144
1040
1.0
1070
   272
1070
     8
1002
}
  0
DIMENSION
  5
F3D
330
1F
100
AcDbEntity
  8
AM_5
100
AcDbDimension
  2
*D8
 10
247.5614767502136
 20
271.4941551007765
 30
0.0
 11
245.1114767502136
 21
287.9941551007766
 31
0.0
 70
    32
 71
     5
 42
33.0
  3
AM_ISO$0
100
AcDbAlignedDimension
 13
258.5614767502136
 23
304.4941551007765
 33
0.0
 14
258.6474767502134
 24
271.4941551007765
 34
0.0
 50
270.0
100
AcDbRotatedDimension
1001
ACAD
1000
DSTYLE
1002
{
1070
    40
1040
1.0
1070
   144
1040
1.0
1070
   272
1070
     8
1002
}
  0
DIMENSION
  5
F40
102
{ACAD_XDICTIONARY
360
F41
102
}
102
{ACAD_REACTORS
330
F42
102
}
330
1F
100
AcDbEntity
  8
AM_5
100
AcDbDimension
  2
*D9
 10
273.0114767502136
 20
247.7921942583113
 30
0.0
 11
263.0114767502136
 21
250.2425387465002
 31
0.0
 70
    32
 71
     5
 42
20.0
  3
AM_ISO$0
100
AcDbAlignedDimension
 13
253.0114767502136
 23
264.7941551007767
 33
0.0
 14
273.0114767502136
 24
264.4941551007765
 34
0.0
100
AcDbRotatedDimension
1001
ACAD
1000
DSTYLE
1002
{
1070
    40
1040
1.0
1070
   144
1040
1.0
1070
   272
1070
     8
1002
}
  0
TEXT
  5
F44
330
1F
100
AcDbEntity
  8
AM_5
100
AcDbText
 10
370.1878404493174
 20
261.4476643159761
 30
0.0
 40
2.5
  1
2x2-%%c4.5thru
 41
0.8
  7
CHINESET
100
AcDbText
  0
DIMENSION
  5
F45
102
{ACAD_XDICTIONARY
360
F46
102
}
102
{ACAD_REACTORS
330
F47
102
}
330
1F
100
AcDbEntity
  8
AM_5
100
AcDbDimension
  2
*D10
 10
265.5114767502134
 20
254.7921942583112
 30
0.0
 11
259.2614767502135
 21
257.2425387465003
 31
0.0
 70
    32
 71
     5
 42
12.49999999999983
  3
AM_ISO$0
100
AcDbAlignedDimension
 13
253.0114767502136
 23
264.7941551007767
 33
0.0
 14
265.5114767502134
 24
264.6301551007766
 34
0.0
100
AcDbRotatedDimension
1001
ACAD
1000
DSTYLE
1002
{
1070
    40
1040
1.0
1070
   144
1040
1.0
1002
}
  0
DIMENSION
  5
F48
102
{ACAD_XDICTIONARY
360
F49
102
}
102
{ACAD_REACTORS
330
F4A
102
}
330
1F
100
AcDbEntity
  8
AM_5
100
AcDbDimension
  2
*D11
 10
316.0111815107285
 20
252.4941551007765
 30
0.0
 11
331.2611815107285
 21
254.9441551007765
 31
0.0
 70
    32
  1
P
 71
     5
 42
30.5
  3
AM_ISO$0
100
AcDbAlignedDimension
 13
346.5111815107285
 23
275.7441551007765
 33
0.0
 14
316.0111815107285
 24
276.7441551007765
 34
0.0
100
AcDbRotatedDimension
1001
ACAD
1000
DSTYLE
1002
{
1070
    40
1040
1.0
1070
   144
1040
1.0
1002
}
  0
DIMENSION
  5
F4B
102
{ACAD_XDICTIONARY
360
F4C
102
}
102
{ACAD_REACTORS
330
F4D
102
}
330
1F
100
AcDbEntity
  8
AM_5
100
AcDbDimension
  2
*D12
 10
307.0111815107285
 20
244.4941551007765
 30
0.0
 11
328.7698225871228
 21
244.4941551007765
 31
0.0
 70
   160
  1
L
 71
     5
 42
48.5
  3
AM_ISO$0
100
AcDbAlignedDimension
 13
355.5111815107285
 23
264.4941551007765
 33
0.0
 14
307.0111815107285
 24
264.4941551007765
 34
0.0
100
AcDbRotatedDimension
1001
ACAD
1000
DSTYLE
1002
{
1070
    40
1040
1.0
1070
   144
1040
1.0
1002
}
  0
INSERT
  5
F4E
330
1F
100
AcDbEntity
  8
0
100
AcDbBlockReference
  2
A$C6EA13D03
 10
232.5024339406394
 20
224.5640457847932
 30
0.0
 41
1.3
 42
1.3
 43
1.3
  0
TEXT
  5
F4F
330
1F
100
AcDbEntity
  8
0
100
AcDbText
 10
209.9407137834661
 20
368.1038791828086
 30
0.0
 40
4.8
  1
MVSY-100-5B2
 41
0.75
  7
CHINESET
100
AcDbText
  0
LINE
  5
F50
330
1F
100
AcDbEntity
  8
SL
  6
ACISOTGB
100
AcDbLine
 10
331.2611815107285
 20
186.1838299089487
 30
0.0
 11
331.2611815107285
 21
224.8893371114653
 31
0.0
  0
LINE
  5
F51
330
1F
100
AcDbEntity
  8
LOGO
 62
     4
100
AcDbLine
 10
252.4298122668469
 20
142.1563264316272
 30
0.0
 11
252.4298122668469
 21
166.1528513185051
 31
0.0
  0
TEXT
  5
F52
330
1F
100
AcDbEntity
  8
LOGO
  6
Continuous
100
AcDbText
 10
208.2571171215485
 20
146.8704075317408
 30
0.0
 40
3.599478733031673
  1
金器工業股份有限公司
  7
CHINESET
100
AcDbText
  0
TEXT
  5
F53
330
1F
100
AcDbEntity
  8
LOGO
  6
Continuous
100
AcDbText
 10
201.6455868107186
 20
143.2702235830875
 30
0.0
 40
2.399652488687782
  1
MINDMAN INDUSTRIAL CO., LTD.
 41
0.85
  7
CHINESET
100
AcDbText
  0
LINE
  5
F54
330
1F
100
AcDbEntity
  8
LOGO
 62
     4
100
AcDbLine
 10
252.4298122668469
 20
161.3535463411295
 30
0.0
 11
217.2349090994261
 21
161.3535463411295
 31
0.0
  0
LINE
  5
F55
330
1F
100
AcDbEntity
  8
LOGO
 62
     4
100
AcDbLine
 10
252.4298122668469
 20
156.5542413637539
 30
0.0
 11
217.2349090994261
 21
156.5542413637539
 31
0.0
  0
LINE
  5
F56
330
1F
100
AcDbEntity
  8
LOGO
 62
     4
100
AcDbLine
 10
252.4298122668469
 20
151.7549363863787
 30
0.0
 11
199.6374575157155
 21
151.7549363863787
 31
0.0
  0
LINE
  5
F57
330
1F
100
AcDbEntity
  8
LOGO
 62
     4
100
AcDbLine
 10
217.2349090994261
 20
151.7549363863787
 30
0.0
 11
217.2349090994261
 21
166.1528513185051
 31
0.0
  0
TEXT
  5
F58
330
1F
100
AcDbEntity
  8
LOGO
100
AcDbText
 10
241.2889642402316
 20
152.954762630722
 30
0.0
 40
2.399652488687782
  1
mm
  7
CHINESET
 72
     1
 11
244.2599625595593
 21
154.1545888750659
 31
0.0
100
AcDbText
 73
     2
  0
TEXT
  5
F59
330
1F
100
AcDbEntity
  8
LOGO
100
AcDbText
 10
240.0320034128237
 20
162.5533725854733
 30
0.0
 40
2.399652488687782
  1
1 : 1
  7
CHINESET
 72
     1
 11
244.2599625595593
 21
163.7531988298172
 31
0.0
100
AcDbText
 73
     2
  0
LINE
  5
F5A
330
1F
100
AcDbEntity
  8
LOGO
 62
     4
100
AcDbLine
 10
236.4321290089282
 20
151.7549363863787
 30
0.0
 11
236.4321290089282
 21
166.1528513185051
 31
0.0
  0
TEXT
  5
F5B
330
1F
100
AcDbEntity
  8
LOGO
100
AcDbText
 10
219.2135511291608
 20
162.5545535168162
 30
157.2692709120597
 40
2.399652488687782
  1
比例 Scale:
 41
0.9
  7
CHINESET
 72
     4
 11
226.8335190541769
 21
163.7531988298172
 31
157.2692709120597
100
AcDbText
  0
TEXT
  5
F5C
330
1F
100
AcDbEntity
  8
LOGO
100
AcDbText
 10
219.0753568563747
 20
157.7878225623144
 30
157.2692709120597
 40
2.399652488687782
  1
投影  View:
 41
0.9
  7
CHINESET
 72
     4
 11
226.8335190541769
 21
158.9538938524416
 31
157.2692709120597
100
AcDbText
  0
TEXT
  5
F5D
330
1F
100
AcDbEntity
  8
LOGO
100
AcDbText
 10
219.3099657380813
 20
152.954762630722
 30
157.2692709120597
 40
2.399652488687782
  1
單位  Unit:
 41
0.9
  7
CHINESET
 72
     4
 11
226.8335190541769
 21
154.1545888750659
 31
157.2692709120597
100
AcDbText
  0
LWPOLYLINE
  5
F5E
330
1F
100
AcDbEntity
  8
LOGO
 62
     4
100
AcDbPolyline
 90
        4
 70
     1
 43
0.0
 10
199.6374575157155
 20
166.1528513185051
 10
458.7547349711448
 20
166.1528513185051
 10
458.7547349711448
 20
382.1563264316267
 10
199.6374575157155
 20
382.1563264316267
1001
GENIUS_GENREC_14
1002
{
1000
PYDIR
1011
199.6374575157155
1021
382.1563264316267
1031
0.0
1002
}
1002
{
1000
PXDIR
1011
458.7547349711448
1021
166.1528513185051
1031
0.0
1002
}
1002
{
1000
PORI
1011
199.6374575157155
1021
166.1528513185051
1031
0.0
1002
}
1002
{
1000
PINS
1011
199.6374575157155
1021
166.1528513185051
1031
0.0
1002
}
1002
{
1000
PINS2
1011
458.7547349711448
1021
382.1563264316267
1031
0.0
1002
}
1002
{
1000
C
1070
     1
1002
}
1001
GENIUS_GENODEF_13
1002
{
1000
HIER
1070
     0
1002
}
1002
{
1000
MANEDIT
1070
     0
1002
}
1002
{
1000
NOSEL
1070
     0
1002
}
1002
{
1000
BEHIND
1070
     0
1002
}
1002
{
1000
OTHER
1070
     0
1002
}
1002
{
1000
REACTOR
1002
}
1001
GENIUS_GENOBJ-N-REC_13
1002
{
1000
OWNER
1000
GEN
1002
}
  0
SOLID
  5
F5F
330
1F
100
AcDbEntity
  8
LOGO
 62
     5
100
AcDbTrace
 10
202.1271354842223
 20
155.7440170851867
 30
0.0
 11
203.1646822534498
 21
155.7440170851865
 31
0.0
 12
207.4937567043634
 22
165.5828226554457
 32
0.0
 13
208.5313034735913
 23
165.5828226554452
 33
0.0
  0
SOLID
  5
F60
330
1F
100
AcDbEntity
  8
LOGO
 62
     5
100
AcDbTrace
 10
203.5940119510618
 20
155.7440170851867
 30
0.0
 11
204.6315587202893
 21
155.7440170851867
 31
0.0
 12
208.5313034735913
 22
164.7957182098246
 32
0.0
 13
207.4937567043634
 23
160.9913800559912
 33
0.0
  0
SOLID
  5
F61
330
1F
100
AcDbEntity
  8
LOGO
 62
     2
100
AcDbTrace
 10
203.1646822534498
 20
155.7440170851865
 30
0.0
 11
203.5940119510618
 21
155.7440170851867
 31
0.0
 12
208.5313034735913
 22
165.5828226554452
 32
0.0
 13
208.9606331712029
 23
165.5828226554452
 33
0.0
  0
SOLID
  5
F62
330
1F
100
AcDbEntity
  8
LOGO
 62
     5
100
AcDbTrace
 10
200.4636935755164
 20
152.1662696050928
 30
0.0
 11
200.8214683235259
 21
152.1662696050928
 31
0.0
 12
201.8289898608813
 22
153.9551433451395
 32
0.0
 13
202.1867646088903
 23
153.9551433451395
 33
0.0
  0
SOLID
  5
F63
330
1F
100
AcDbEntity
  8
LOGO
 62
     5
100
AcDbTrace
 10
201.8289898608813
 20
153.9551433451395
 30
0.0
 11
202.1867646088903
 21
153.9551433451395
 31
0.0
 12
201.8289898608813
 22
152.1662696050928
 32
0.0
 13
202.1867646088903
 23
152.1662696050928
 33
0.0
  0
SOLID
  5
F64
330
1F
100
AcDbEntity
  8
LOGO
 62
     5
100
AcDbTrace
 10
201.8289898608813
 20
152.1662696050928
 30
0.0
 11
202.1867646088903
 21
152.1662696050928
 31
0.0
 12
203.194286146247
 22
153.9551433451395
 32
0.0
 13
203.5520608942564
 23
153.9551433451395
 33
0.0
  0
SOLID
  5
F65
330
1F
100
AcDbEntity
  8
LOGO
 62
     5
100
AcDbTrace
 10
203.194286146247
 20
153.9551433451395
 30
0.0
 11
203.5520608942564
 21
153.9551433451395
 31
0.0
 12
203.194286146247
 22
152.1662696050928
 32
0.0
 13
203.5520608942564
 23
152.1662696050928
 33
0.0
  0
POLYLINE
  5
F66
330
1F
100
AcDbEntity
  8
LOGO
 62
     5
100
AcDb2dPolyline
 66
     1
 10
0.0
 20
0.0
 30
0.0
 40
0.3583481049773755
 41
0.3583481049773755
  0
VERTEX
  5
F67
330
F66
100
AcDbEntity
  8
LOGO
 62
     5
100
AcDbVertex
100
AcDb2dVertex
 10
215.1867738220184
 20
153.2395938491209
 30
0.0
 42
1.0
  0
VERTEX
  5
F68
330
F66
100
AcDbEntity
  8
LOGO
 62
     5
100
AcDbVertex
100
AcDb2dVertex
 10
214.1117295070861
 20
153.2395938491209
 30
0.0
 42
1.0
  0
SEQEND
  5
F69
330
F66
100
AcDbEntity
  8
LOGO
 62
     5
  0
POLYLINE
  5
F6A
330
1F
100
AcDbEntity
  8
LOGO
 62
     5
100
AcDb2dPolyline
 66
     1
 10
0.0
 20
0.0
 30
0.0
 70
     1
  0
VERTEX
  5
F6B
330
F6A
100
AcDbEntity
  8
LOGO
 62
     5
100
AcDbVertex
100
AcDb2dVertex
 10
212.0852231554676
 20
153.0607064751159
 30
0.0
 42
1.000000057330635
  0
VERTEX
  5
F6C
330
F6A
100
AcDbEntity
  8
LOGO
 62
     5
100
AcDbVertex
100
AcDb2dVertex
 10
213.1585473994959
 20
153.0607064751159
 30
0.0
 42
1.000000057330635
  0
SEQEND
  5
F6D
330
F6A
100
AcDbEntity
  8
LOGO
 62
     5
  0
CIRCLE
  5
F6E
330
1F
100
AcDbEntity
  8
LOGO
 62
     5
100
AcDbCircle
 10
212.6218852774822
 20
153.0607064751159
 30
0.0
 40
0.5366621220141177
  0
POLYLINE
  5
F6F
330
1F
100
AcDbEntity
  8
LOGO
 62
     5
100
AcDb2dPolyline
 66
     1
 10
0.0
 20
0.0
 30
0.0
 70
     1
 40
0.3583481049773755
 41
0.3583481049773755
  0
VERTEX
  5
F70
330
F6F
100
AcDbEntity
  8
LOGO
 62
     5
100
AcDbVertex
100
AcDb2dVertex
 10
211.9051890675272
 20
153.0607064751159
 30
0.0
 42
1.0
  0
VERTEX
  5
F71
330
F6F
100
AcDbEntity
  8
LOGO
 62
     5
100
AcDbVertex
100
AcDb2dVertex
 10
213.3385814874367
 20
153.0607064751159
 30
0.0
 42
1.0
  0
SEQEND
  5
F72
330
F6F
100
AcDbEntity
  8
LOGO
 62
     5
  0
LINE
  5
F73
330
1F
100
AcDbEntity
  8
LOGO
100
AcDbLine
 10
215.3648011605704
 20
152.1662696050928
 30
0.0
 11
215.3648011605704
 21
153.2395938491209
 31
0.0
  0
SOLID
  5
F74
330
1F
100
AcDbEntity
  8
LOGO
 62
     5
100
AcDbTrace
 10
213.1585116220225
 20
153.9551433451395
 30
0.0
 11
213.516286370031
 21
153.9551433451395
 31
0.0
 12
213.1585116220225
 22
152.1662696050928
 32
0.0
 13
213.516286370031
 23
152.1662696050928
 33
0.0
  0
SOLID
  5
F75
330
1F
100
AcDbEntity
  8
LOGO
 62
     5
100
AcDbTrace
 10
213.9337021685332
 20
152.1662696050928
 30
0.0
 11
214.2914769165431
 21
152.1662696050928
 31
0.0
 12
213.9337021685332
 22
153.9551433451395
 32
0.0
 13
214.2914769165431
 23
153.9551433451395
 33
0.0
  0
SOLID
  5
F76
330
1F
100
AcDbEntity
  8
LOGO
 62
     5
100
AcDbTrace
 10
215.0070264125619
 20
153.2395938491209
 30
0.0
 11
215.3648011605704
 21
153.2395938491209
 31
0.0
 12
215.0070264125619
 22
152.1662696050928
 32
0.0
 13
215.3648011605704
 23
152.1662696050928
 33
0.0
  0
SOLID
  5
F77
330
1F
100
AcDbEntity
  8
LOGO
 62
     5
100
AcDbTrace
 10
213.8979246937319
 20
164.7957182098246
 30
0.0
 11
212.8603779245053
 21
160.9913800559912
 31
0.0
 12
213.8979246937319
 22
155.7440170851865
 32
0.0
 13
212.8603779245053
 23
155.7440170851865
 33
0.0
  0
SOLID
  5
F78
330
1F
100
AcDbEntity
  8
LOGO
 62
     5
100
AcDbTrace
 10
214.3272543913439
 20
155.7440170851865
 30
0.0
 11
215.3648011605704
 21
155.7440170851865
 31
0.0
 12
214.3272543913439
 22
165.5828226554452
 32
0.0
 13
215.3648011605704
 23
165.5828226554457
 33
0.0
  0
SOLID
  5
F79
330
1F
100
AcDbEntity
  8
LOGO
 62
     2
100
AcDbTrace
 10
213.8979246937319
 20
165.5828226554457
 30
0.0
 11
214.3272543913439
 21
165.5828226554452
 31
0.0
 12
213.8979246937319
 22
155.7440170851865
 32
0.0
 13
214.3272543913439
 23
155.7440170851865
 33
0.0
  0
POLYLINE
  5
F7A
330
1F
100
AcDbEntity
  8
LOGO
 62
     5
100
AcDb2dPolyline
 66
     1
 10
0.0
 20
0.0
 30
0.0
 40
0.3583481049773755
 41
0.3583481049773755
  0
VERTEX
  5
F7B
330
F7A
100
AcDbEntity
  8
LOGO
 62
     5
100
AcDbVertex
100
AcDb2dVertex
 10
210.0586452489005
 20
153.2395938491209
 30
0.0
 42
1.0
  0
VERTEX
  5
F7C
330
F7A
100
AcDbEntity
  8
LOGO
 62
     5
100
AcDbVertex
100
AcDb2dVertex
 10
208.9836009339682
 20
153.2395938491209
 30
0.0
 42
1.0
  0
SEQEND
  5
F7D
330
F7A
100
AcDbEntity
  8
LOGO
 62
     5
  0
POLYLINE
  5
F7E
330
1F
100
AcDbEntity
  8
LOGO
 62
     5
100
AcDb2dPolyline
 66
     1
 10
0.0
 20
0.0
 30
0.0
 40
0.3583481049773755
 41
0.3583481049773755
  0
VERTEX
  5
F7F
330
F7E
100
AcDbEntity
  8
LOGO
 62
     5
100
AcDbVertex
100
AcDb2dVertex
 10
211.1319694929278
 20
153.2395938491209
 30
0.0
 42
1.0
  0
VERTEX
  5
F80
330
F7E
100
AcDbEntity
  8
LOGO
 62
     5
100
AcDbVertex
100
AcDb2dVertex
 10
210.0569251779961
 20
153.2395938491209
 30
0.0
 42
1.0
  0
SEQEND
  5
F81
330
F7E
100
AcDbEntity
  8
LOGO
 62
     5
  0
POLYLINE
  5
F82
330
1F
100
AcDbEntity
  8
LOGO
 62
     5
100
AcDb2dPolyline
 66
     1
 10
0.0
 20
0.0
 30
0.0
 40
0.3583481049773755
 41
0.3583481049773755
  0
VERTEX
  5
F83
330
F82
100
AcDbEntity
  8
LOGO
 62
     5
100
AcDbVertex
100
AcDb2dVertex
 10
206.0038409198099
 20
153.2395938491209
 30
0.0
 42
1.0
  0
VERTEX
  5
F84
330
F82
100
AcDbEntity
  8
LOGO
 62
     5
100
AcDbVertex
100
AcDb2dVertex
 10
204.9287966048781
 20
153.2395938491209
 30
0.0
 42
1.0
  0
SEQEND
  5
F85
330
F82
100
AcDbEntity
  8
LOGO
 62
     5
  0
SOLID
  5
F86
330
1F
100
AcDbEntity
  8
LOGO
 62
     5
100
AcDbTrace
 10
204.7507692663252
 20
153.9551433451395
 30
0.0
 11
205.1085440143341
 21
153.9551433451395
 31
0.0
 12
204.7507692663252
 22
152.1662696050928
 32
0.0
 13
205.1085440143341
 23
152.1662696050928
 33
0.0
  0
SOLID
  5
F87
330
1F
100
AcDbEntity
  8
LOGO
 62
     5
100
AcDbTrace
 10
205.8240935103535
 20
153.2395938491209
 30
0.0
 11
206.1818682583634
 21
153.2395938491209
 31
0.0
 12
205.8240935103535
 22
152.1662696050928
 32
0.0
 13
206.1818682583634
 23
152.1662696050928
 33
0.0
  0
POLYLINE
  5
F88
330
1F
100
AcDbEntity
  8
LOGO
 62
     5
100
AcDb2dPolyline
 66
     1
 10
0.0
 20
0.0
 30
0.0
 70
     1
 40
0.3583481049773755
 41
0.3583481049773755
  0
VERTEX
  5
F89
330
F88
100
AcDbEntity
  8
LOGO
 62
     5
100
AcDbVertex
100
AcDb2dVertex
 10
206.7770604944084
 20
153.0607064751159
 30
0.0
 42
1.0
  0
VERTEX
  5
F8A
330
F88
100
AcDbEntity
  8
LOGO
 62
     5
100
AcDbVertex
100
AcDb2dVertex
 10
208.2104529143184
 20
153.0607064751159
 30
0.0
 42
1.0
  0
SEQEND
  5
F8B
330
F88
100
AcDbEntity
  8
LOGO
 62
     5
  0
SOLID
  5
F8C
330
1F
100
AcDbEntity
  8
LOGO
 62
     5
100
AcDbTrace
 10
208.0303830489032
 20
154.4918054671541
 30
0.0
 11
208.3881577969127
 21
154.4918054671541
 31
0.0
 12
208.0303830489032
 22
152.1662696050928
 32
0.0
 13
208.3881577969127
 23
152.1662696050928
 33
0.0
  0
SOLID
  5
F8D
330
1F
100
AcDbEntity
  8
LOGO
 62
     5
100
AcDbTrace
 10
208.8055735954161
 20
153.9551433451395
 30
0.0
 11
209.1633483434247
 21
153.9551433451395
 31
0.0
 12
208.8055735954161
 22
152.1662696050928
 32
0.0
 13
209.1633483434247
 23
152.1662696050928
 33
0.0
  0
SOLID
  5
F8E
330
1F
100
AcDbEntity
  8
LOGO
 62
     5
100
AcDbTrace
 10
209.8788978394436
 20
153.2395938491209
 30
0.0
 11
210.236672587453
 21
153.2395938491209
 31
0.0
 12
209.8788978394436
 22
152.1662696050928
 32
0.0
 13
210.236672587453
 23
152.1662696050928
 33
0.0
  0
SOLID
  5
F8F
330
1F
100
AcDbEntity
  8
LOGO
 62
     5
100
AcDbTrace
 10
210.9522220834719
 20
153.2395938491209
 30
0.0
 11
211.3099968314808
 21
153.2395938491209
 31
0.0
 12
210.9522220834719
 22
152.1662696050924
 32
0.0
 13
211.3099968314808
 23
152.1662696050924
 33
0.0
  0
SOLID
  5
F90
330
1F
100
AcDbEntity
  8
LOGO
 62
     5
100
AcDbTrace
 10
203.9755787198131
 20
154.2055856687464
 30
0.0
 11
204.3333534678235
 21
154.2055856687464
 31
0.0
 12
203.9755787198131
 22
154.4918054671541
 32
0.0
 13
204.3333534678235
 23
154.4918054671541
 33
0.0
  0
SOLID
  5
F91
330
1F
100
AcDbEntity
  8
LOGO
 62
     5
100
AcDbTrace
 10
203.9755787198131
 20
153.9551433451395
 30
0.0
 11
204.3333534678235
 21
153.9551433451395
 31
0.0
 12
203.9755787198131
 22
152.1662696050924
 32
0.0
 13
204.3333534678235
 23
152.1662696050928
 33
0.0
  0
SOLID
  5
F92
330
1F
100
AcDbEntity
  8
LOGO
 62
     5
100
AcDbTrace
 10
207.4937567043634
 20
155.7440170851867
 30
0.0
 11
208.5313034735913
 21
155.7440170851867
 31
0.0
 12
207.4937567043634
 22
160.9913800559912
 32
0.0
 13
208.5313034735913
 23
164.7957182098246
 33
0.0
  0
SOLID
  5
F93
330
1F
100
AcDbEntity
  8
LOGO
 62
     5
100
AcDbTrace
 10
208.9606331712029
 20
165.5828226554452
 30
0.0
 11
209.9981799404298
 21
165.5828226554457
 31
0.0
 12
208.9606331712029
 22
156.5311215308073
 32
0.0
 13
209.9981799404298
 23
160.3354596846407
 33
0.0
  0
SOLID
  5
F94
330
1F
100
AcDbEntity
  8
LOGO
 62
     2
100
AcDbTrace
 10
208.5313034735913
 20
165.5828226554452
 30
0.0
 11
208.9606331712029
 21
165.5828226554452
 31
0.0
 12
208.5313034735913
 22
155.7440170851867
 32
0.0
 13
208.9606331712029
 23
155.7440170851867
 33
0.0
  0
SOLID
  5
F95
330
1F
100
AcDbEntity
  8
LOGO
 62
     5
100
AcDbTrace
 10
208.9606331712029
 20
156.5311215308073
 30
0.0
 11
209.9981799404298
 21
160.3354596846407
 31
0.0
 12
213.8979246937319
 22
165.5828226554457
 32
0.0
 13
212.8603779245053
 23
165.5828226554457
 33
0.0
  0
SOLID
  5
F96
330
1F
100
AcDbEntity
  8
LOGO
 62
     5
100
AcDbTrace
 10
208.9606331712029
 20
155.7440170851867
 30
0.0
 11
209.9981799404298
 21
155.7440170851867
 31
0.0
 12
213.8979246937319
 22
164.7957182098246
 32
0.0
 13
212.8603779245053
 23
160.9913800559912
 33
0.0
  0
SOLID
  5
F97
330
1F
100
AcDbEntity
  8
LOGO
 62
     2
100
AcDbTrace
 10
208.5313034735913
 20
155.7440170851867
 30
0.0
 11
208.9606331712029
 21
155.7440170851867
 31
0.0
 12
213.8979246937319
 22
165.5828226554457
 32
0.0
 13
214.3272543913439
 23
165.5828226554452
 33
0.0
  0
LWPOLYLINE
  5
F98
330
1F
100
AcDbEntity
  8
LOGO
 62
     4
100
AcDbPolyline
 90
        4
 70
     1
 43
0.0
 10
199.6374575157155
 20
166.1528513185051
 10
458.7547349711448
 20
166.1528513185051
 10
458.7547349711448
 20
142.1563264316269
 10
199.6374575157155
 20
142.1563264316269
1001
GENIUS_GENREC_14
1002
{
1000
PYDIR
1011
199.6374575157155
1021
142.1563264316269
1031
0.0
1002
}
1002
{
1000
PXDIR
1011
458.7547349711448
1021
166.1528513185051
1031
0.0
1002
}
1002
{
1000
PORI
1011
199.6374575157155
1021
166.1528513185051
1031
0.0
1002
}
1002
{
1000
PINS
1011
199.6374575157155
1021
166.1528513185051
1031
0.0
1002
}
1002
{
1000
PINS2
1011
458.7547349711448
1021
142.1563264316269
1031
0.0
1002
}
1002
{
1000
C
1070
     1
1002
}
1001
GENIUS_GENOBJ-N-REC_13
1002
{
1000
OWNER
1000
GEN
1002
}
1001
GENIUS_GENODEF_13
1002
{
1000
HIER
1070
     0
1002
}
1002
{
1000
MANEDIT
1070
     0
1002
}
1002
{
1000
NOSEL
1070
     0
1002
}
1002
{
1000
BEHIND
1070
     0
1002
}
1002
{
1000
OTHER
1070
     0
1002
}
1002
{
1000
REACTOR
1002
}
  0
CIRCLE
  5
F99
330
1F
100
AcDbEntity
  8
LOGO
  6
Continuous
100
AcDbCircle
 10
240.8753857355222
 20
158.9590267266754
 30
0.0
 40
1.393294716384757
  0
CIRCLE
  5
F9A
330
1F
100
AcDbEntity
  8
LOGO
  6
Continuous
100
AcDbCircle
 10
240.8753857355222
 20
158.9590267266754
 30
0.0
 40
0.8163473623987165
  0
LINE
  5
F9B
330
1F
100
AcDbEntity
  8
LOGO
100
AcDbLine
 10
249.6310114043662
 20
157.5657320102903
 30
0.0
 11
249.6310114043662
 21
160.3523214430605
 31
0.0
  0
LINE
  5
F9C
330
1F
100
AcDbEntity
  8
LOGO
100
AcDbLine
 10
245.2631124474332
 20
158.1426793642768
 30
0.0
 11
245.2631124474332
 21
159.7753740890742
 31
0.0
  0
LINE
  5
F9D
330
1F
100
AcDbEntity
  8
LOGO
  6
Continuous
100
AcDbLine
 10
245.2631124474332
 20
159.7753740890742
 30
0.0
 11
249.6310114043662
 21
160.3523214430605
 31
0.0
  0
LINE
  5
F9E
330
1F
100
AcDbEntity
  8
LOGO
  6
Continuous
100
AcDbLine
 10
245.2631124474332
 20
158.1426793642768
 30
0.0
 11
249.6310114043662
 21
157.5657320102903
 31
0.0
  0
LINE
  5
F9F
330
1F
100
AcDbEntity
  8
LOGO
  6
AM_ISO08W050x2
 48
0.3
100
AcDbLine
 10
238.9547081060404
 20
158.9590267266754
 30
0.0
 11
242.796063365004
 21
158.9590267266754
 31
0.0
1001
GENIUS_GENOREF_13
1005
FE7
  0
LINE
  5
FA0
330
1F
100
AcDbEntity
  8
LOGO
  6
AM_ISO08W050x2
 48
0.3
100
AcDbLine
 10
240.8753857355222
 20
157.0383490971933
 30
0.0
 11
240.8753857355222
 21
160.8797043561572
 31
0.0
1001
GENIUS_GENOREF_13
1005
FE6
  0
LINE
  5
FA1
330
1F
100
AcDbEntity
  8
LOGO
  6
CENTER
 48
0.5
100
AcDbLine
 10
244.913801936062
 20
158.9590267266754
 30
0.0
 11
250.0708446897114
 21
158.9590267266754
 31
0.0
1001
GENIUS_GENOREF_13
1005
FE5
  0
TEXT
  5
FA2
330
1F
100
AcDbEntity
  8
LOGO
 62
     7
100
AcDbText
 10
253.8200217941643
 20
155.6403821013271
 30
0.0
 40
3.19953665158371
  1
Order example:
 41
0.8
  7
CHINESET
100
AcDbText
  0
TEXT
  5
FA3
330
1F
100
AcDbEntity
  8
LOGO
 62
     7
100
AcDbText
 10
254.3940451285501
 20
160.1446672342402
 30
0.0
 40
4.799304977375565
  1
訂購代號：
  7
CHINESET
100
AcDbText
  0
TEXT
  5
FA4
330
1F
100
AcDbEntity
  8
LOGO
100
AcDbText
 10
253.8616549763322
 20
143.4329320843329
 30
0.0
 40
2.4
  1
21110192
 41
0.7
  7
CHINESET
 72
     1
 11
259.3816549763322
 21
143.4329320843329
 31
0.0
100
AcDbText
  0
LINE
  5
FA5
330
1F
100
AcDbEntity
  8
LOGO
 62
     4
100
AcDbLine
 10
266.829812266846
 20
146.9556314090032
 30
0.0
 11
266.829812266847
 21
142.1563264316274
 31
0.0
  0
LINE
  5
FA6
330
1F
100
AcDbEntity
  8
LOGO
 62
     4
100
AcDbLine
 10
266.829812266846
 20
146.9556314090032
 30
0.0
 11
252.4298122668469
 21
146.9556314090032
 31
0.0
  0
LINE
  5
FA7
330
1F
100
AcDbEntity
  8
LOGO
 62
     4
100
AcDbLine
 10
301.4336504868255
 20
152.9547626307226
 30
0.0
 11
301.4336504868255
 21
144.1560368388671
 31
0.0
  0
LINE
  5
FA8
330
1F
100
AcDbEntity
  8
LOGO
 62
     4
100
AcDbLine
 10
285.4359672289069
 20
152.9547626307226
 30
0.0
 11
285.4359672289069
 21
144.1560368388671
 31
0.0
  0
LINE
  5
FA9
330
1F
100
AcDbEntity
  8
LOGO
 62
     4
100
AcDbLine
 10
301.4336504868255
 20
144.1560368388671
 30
0.0
 11
285.4359672289069
 21
144.1560368388671
 31
0.0
  0
LINE
  5
FAA
330
1F
100
AcDbEntity
  8
LOGO
 62
     4
100
AcDbLine
 10
304.3991328769984
 20
163.7531988298172
 30
0.0
 11
285.4359672289069
 21
163.7531988298172
 31
0.0
  0
LINE
  5
FAB
330
1F
100
AcDbEntity
  8
LOGO
 62
     4
100
AcDbLine
 10
304.3991328769984
 20
156.5542413637539
 30
0.0
 11
285.4359672289069
 21
156.5542413637539
 31
0.0
  0
LINE
  5
FAC
330
1F
100
AcDbEntity
  8
LOGO
 62
     4
100
AcDbLine
 10
285.4359672289069
 20
163.7531988298172
 30
0.0
 11
285.4359672289069
 21
156.5542413637539
 31
0.0
  0
LINE
  5
FAD
330
1F
100
AcDbEntity
  8
LOGO
 62
     4
100
AcDbLine
 10
304.3991328769984
 20
163.7531988298172
 30
0.0
 11
304.3991328769984
 21
156.5542413637539
 31
0.0
  0
LINE
  5
FAE
330
1F
100
AcDbEntity
  8
LOGO
 62
     4
100
AcDbLine
 10
294.2694861117501
 20
156.5542413637539
 30
0.0
 11
294.2694861117501
 21
152.9547626307226
 31
0.0
  0
TEXT
  5
FAF
330
1F
100
AcDbEntity
  8
LOGO
  6
Continuous
 62
     7
100
AcDbText
 10
286.7151092248431
 20
158.0570132099202
 30
0.0
 40
4.2
  1
MVSY
  7
CHINESET
100
AcDbText
  0
LINE
  5
FB0
330
1F
100
AcDbEntity
  8
LOGO
 62
     4
100
AcDbLine
 10
301.4336504868255
 20
152.9547626307226
 30
0.0
 11
285.4359672289069
 21
152.9547626307226
 31
0.0
  0
TEXT
  5
FB1
330
1F
100
AcDbEntity
  8
LOGO
  6
Continuous
100
AcDbText
 10
290.5695731384788
 20
145.397958326256
 30
157.2692709120597
 40
1.8
  1
Model
 41
0.8
  7
CHINESET
100
AcDbText
  0
TEXT
  5
FB2
330
1F
100
AcDbEntity
  8
LOGO
100
AcDbText
 10
290.0904716528797
 20
148.7347703985686
 30
157.2692709120597
 40
3.0
  1
型號
  7
CHINESET
100
AcDbText
  0
LINE
  5
FB3
330
1F
100
AcDbEntity
  8
LOGO
  6
Continuous
 62
     7
100
AcDbLine
 10
305.1644415542054
 20
160.1282202517366
 30
0.0
 11
308.3432384929328
 21
160.1282202517366
 31
0.0
  0
TEXT
  5
FB4
330
1F
100
AcDbEntity
  8
LOGO
  6
Continuous
 62
     7
100
AcDbText
 10
309.7028730558417
 20
158.0570132099202
 30
0.0
 40
4.2
  1
100
  7
CHINESET
100
AcDbText
  0
LINE
  5
FB5
330
1F
100
AcDbEntity
  8
LOGO
  6
Continuous
 62
     7
100
AcDbLine
 10
321.0223219697695
 20
160.1282202517366
 30
0.0
 11
324.2011189084973
 21
160.1282202517366
 31
0.0
  0
LINE
  5
FB6
330
1F
100
AcDbEntity
  8
LOGO
 62
     4
100
AcDbLine
 10
323.2385119900949
 20
152.9547626307226
 30
0.0
 11
323.2385119900949
 21
144.1560368388671
 31
0.0
  0
LINE
  5
FB7
330
1F
100
AcDbEntity
  8
LOGO
 62
     4
100
AcDbLine
 10
308.6264535249292
 20
152.9547626307226
 30
0.0
 11
308.6264535249292
 21
144.1560368388671
 31
0.0
  0
LINE
  5
FB8
330
1F
100
AcDbEntity
  8
LOGO
 62
     4
100
AcDbLine
 10
323.2385119900949
 20
144.1560368388671
 30
0.0
 11
308.6264535249292
 21
144.1560368388671
 31
0.0
  0
LINE
  5
FB9
330
1F
100
AcDbEntity
  8
LOGO
 62
     4
100
AcDbLine
 10
334.3079206408973
 20
163.7531988298172
 30
0.0
 11
325.203861778279
 21
163.7531988298172
 31
0.0
  0
LINE
  5
FBA
330
1F
100
AcDbEntity
  8
LOGO
 62
     4
100
AcDbLine
 10
334.3079206408973
 20
156.5542413637539
 30
0.0
 11
325.203861778279
 21
156.5542413637539
 31
0.0
  0
LINE
  5
FBB
330
1F
100
AcDbEntity
  8
LOGO
 62
     4
100
AcDbLine
 10
325.203861778279
 20
163.7531988298172
 30
0.0
 11
325.203861778279
 21
156.5542413637539
 31
0.0
  0
LINE
  5
FBC
330
1F
100
AcDbEntity
  8
LOGO
 62
     4
100
AcDbLine
 10
334.3079206408973
 20
163.7531988298172
 30
0.0
 11
334.3079206408973
 21
156.5542413637539
 31
0.0
  0
LINE
  5
FBD
330
1F
100
AcDbEntity
  8
LOGO
 62
     4
100
AcDbLine
 10
330.7349540519961
 20
156.5542413637539
 30
0.0
 11
330.7349540519961
 21
154.7545019972384
 31
0.0
  0
TEXT
  5
FBE
330
1F
100
AcDbEntity
  8
LOGO
  6
Continuous
 62
     7
100
AcDbText
 10
326.1620237670125
 20
158.0570132099202
 30
0.0
 40
4.2
  1
5B
  7
CHINESET
100
AcDbText
  0
LINE
  5
FBF
330
1F
100
AcDbEntity
  8
LOGO
 62
     4
100
AcDbLine
 10
323.2385119900949
 20
152.9547626307226
 30
0.0
 11
308.6264535249292
 21
152.9547626307226
 31
0.0
  0
LINE
  5
FC0
330
1F
100
AcDbEntity
  8
LOGO
 62
     4
100
AcDbLine
 10
341.3915486000618
 20
152.9547626307226
 30
0.0
 11
341.3915486000618
 21
144.1560368388671
 31
0.0
  0
LINE
  5
FC1
330
1F
100
AcDbEntity
  8
LOGO
 62
     4
100
AcDbLine
 10
328.3588852179563
 20
152.9547626307226
 30
0.0
 11
328.3588852179563
 21
144.1560368388671
 31
0.0
  0
LINE
  5
FC2
330
1F
100
AcDbEntity
  8
LOGO
 62
     4
100
AcDbLine
 10
341.3915486000618
 20
144.1560368388671
 30
0.0
 11
328.3588852179563
 21
144.1560368388671
 31
0.0
  0
LINE
  5
FC3
330
1F
100
AcDbEntity
  8
LOGO
 62
     4
100
AcDbLine
 10
341.3842259542938
 20
163.7531988298172
 30
0.0
 11
335.2806483062285
 21
163.7531988298172
 31
0.0
  0
LINE
  5
FC4
330
1F
100
AcDbEntity
  8
LOGO
 62
     4
100
AcDbLine
 10
341.3842259542938
 20
156.5542413637539
 30
0.0
 11
335.2806483062285
 21
156.5542413637539
 31
0.0
  0
LINE
  5
FC5
330
1F
100
AcDbEntity
  8
LOGO
 62
     4
100
AcDbLine
 10
335.2806483062285
 20
163.7531988298172
 30
0.0
 11
335.2806483062285
 21
156.5542413637539
 31
0.0
  0
LINE
  5
FC6
330
1F
100
AcDbEntity
  8
LOGO
 62
     4
100
AcDbLine
 10
341.3842259542938
 20
163.7531988298172
 30
0.0
 11
341.3842259542938
 21
156.5542413637539
 31
0.0
  0
LINE
  5
FC7
330
1F
100
AcDbEntity
  8
LOGO
 62
     4
100
AcDbLine
 10
339.1103937213628
 20
156.5542413637539
 30
0.0
 11
339.1103937213624
 21
154.7545019972384
 31
0.0
  0
TEXT
  5
FC8
330
1F
100
AcDbEntity
  8
LOGO
  6
Continuous
 62
     7
100
AcDbText
 10
336.8898142292682
 20
158.0570132099202
 30
0.0
 40
4.2
  1
*
  7
CHINESET
100
AcDbText
  0
LINE
  5
FC9
330
1F
100
AcDbEntity
  8
LOGO
 62
     4
100
AcDbLine
 10
341.3915486000618
 20
152.9547626307226
 30
0.0
 11
328.3588852179563
 21
152.9547626307226
 31
0.0
  0
TEXT
  5
FCA
330
1F
100
AcDbEntity
  8
LOGO
  6
Continuous
100
AcDbText
 10
311.9773143247597
 20
145.397958326256
 30
157.2692709120597
 40
1.8
  1
Manifold
 41
0.8
  7
CHINESET
100
AcDbText
  0
TEXT
  5
FCB
330
1F
100
AcDbEntity
  8
LOGO
100
AcDbText
 10
312.7030937179305
 20
148.7347703985686
 30
157.2692709120597
 40
3.0
  1
連座
  7
CHINESET
100
AcDbText
  0
TEXT
  5
FCC
330
1F
100
AcDbEntity
  8
LOGO
  6
Continuous
100
AcDbText
 10
330.5538821902959
 20
145.397958326256
 30
157.2692709120597
 40
1.8
  1
Number
 41
0.8
  7
CHINESET
100
AcDbText
  0
TEXT
  5
FCD
330
1F
100
AcDbEntity
  8
LOGO
100
AcDbText
 10
330.4290761073925
 20
148.7347703985686
 30
157.2692709120597
 40
3.0
  1
連座數
  7
CHINESET
100
AcDbText
  0
LINE
  5
FCE
330
1F
100
AcDbEntity
  8
LOGO
 62
     4
100
AcDbLine
 10
330.7349540519961
 20
154.7545019972384
 30
0.0
 11
316.6252951538885
 21
154.7545019972384
 31
0.0
  0
LINE
  5
FCF
330
1F
100
AcDbEntity
  8
LOGO
 62
     4
100
AcDbLine
 10
316.6252951538885
 20
152.9547626307226
 30
0.0
 11
316.6252951538885
 21
154.7545019972384
 31
0.0
  0
LINE
  5
FD0
330
1F
100
AcDbEntity
  8
LOGO
 62
     4
100
AcDbLine
 10
334.8752169090088
 20
152.9547626307226
 30
0.0
 11
334.8752169090088
 21
154.7545019972384
 31
0.0
  0
LINE
  5
FD1
330
1F
100
AcDbEntity
  8
LOGO
 62
     4
100
AcDbLine
 10
339.1103937213628
 20
154.7545019972384
 30
0.0
 11
334.8752169090088
 21
154.7545019972384
 31
0.0
  0
LINE
  5
FD2
330
1F
100
AcDbEntity
  8
0
 62
     4
100
AcDbLine
 10
331.261181510729
 20
334.2096726183815
 30
0.0
 11
331.261181510729
 21
346.7162627123945
 31
0.0
  0
TEXT
  5
FD3
330
1F
100
AcDbEntity
  8
0
 62
     4
100
AcDbText
 10
330.6308546128672
 20
349.8847456404934
 30
0.0
 40
3.0
  1
2
 41
0.75
  7
CHINESET
100
AcDbText
  0
LINE
  5
FD5
330
1F
100
AcDbEntity
  8
0
 62
     4
100
AcDbLine
 10
341.7611815107276
 20
334.2096726183815
 30
0.0
 11
341.7611815107276
 21
346.7162627123945
 31
0.0
  0
LINE
  5
FD6
330
1F
100
AcDbEntity
  8
0
 62
     4
100
AcDbLine
 10
352.2611815107276
 20
334.2096726183815
 30
0.0
 11
352.2611815107276
 21
346.7162627123945
 31
0.0
  0
LINE
  5
FD7
330
1F
100
AcDbEntity
  8
0
 62
     4
100
AcDbLine
 10
362.7611815107276
 20
334.2096726183815
 30
0.0
 11
362.7611815107276
 21
346.7162627123945
 31
0.0
  0
LINE
  5
FD8
330
1F
100
AcDbEntity
  8
0
 62
     4
100
AcDbLine
 10
373.2611815107276
 20
334.2096726183815
 30
0.0
 11
373.2611815107276
 21
346.7162627123945
 31
0.0
  0
LINE
  5
FD9
330
1F
100
AcDbEntity
  8
0
 62
     4
100
AcDbLine
 10
383.7611815107276
 20
334.2096726183815
 30
0.0
 11
383.7611815107276
 21
346.7162627123945
 31
0.0
  0
LINE
  5
FDA
330
1F
100
AcDbEntity
  8
0
 62
     4
100
AcDbLine
 10
394.2611815107276
 20
334.2096726183815
 30
0.0
 11
394.2611815107276
 21
346.7162627123945
 31
0.0
  0
LINE
  5
FDB
330
1F
100
AcDbEntity
  8
0
 62
     4
100
AcDbLine
 10
404.7611815107276
 20
334.2096726183815
 30
0.0
 11
404.7611815107276
 21
346.7162627123945
 31
0.0
  0
LINE
  5
FDC
330
1F
100
AcDbEntity
  8
0
 62
     4
100
AcDbLine
 10
415.2611815107276
 20
334.2096726183815
 30
0.0
 11
415.2611815107276
 21
346.7162627123945
 31
0.0
  0
TEXT
  5
FDD
330
1F
100
AcDbEntity
  8
0
 62
     4
100
AcDbText
 10
341.1308546128659
 20
349.8847456404934
 30
0.0
 40
3.0
  1
3
 41
0.75
  7
CHINESET
100
AcDbText
  0
TEXT
  5
FDE
330
1F
100
AcDbEntity
  8
0
 62
     4
100
AcDbText
 10
351.6308546128659
 20
349.8847456404934
 30
0.0
 40
3.0
  1
4
 41
0.75
  7
CHINESET
100
AcDbText
  0
TEXT
  5
FDF
330
1F
100
AcDbEntity
  8
0
 62
     4
100
AcDbText
 10
362.1308546128659
 20
349.8847456404934
 30
0.0
 40
3.0
  1
5
 41
0.75
  7
CHINESET
100
AcDbText
  0
TEXT
  5
FE0
330
1F
100
AcDbEntity
  8
0
 62
     4
100
AcDbText
 10
372.6308546128659
 20
349.8847456404934
 30
0.0
 40
3.0
  1
6
 41
0.75
  7
CHINESET
100
AcDbText
  0
TEXT
  5
FE1
330
1F
100
AcDbEntity
  8
0
 62
     4
100
AcDbText
 10
383.1308546128659
 20
349.8847456404934
 30
0.0
 40
3.0
  1
7
 41
0.75
  7
CHINESET
100
AcDbText
  0
TEXT
  5
FE2
330
1F
100
AcDbEntity
  8
0
 62
     4
100
AcDbText
 10
393.6308546128659
 20
349.8847456404934
 30
0.0
 40
3.0
  1
8
 41
0.75
  7
CHINESET
100
AcDbText
  0
TEXT
  5
FE3
330
1F
100
AcDbEntity
  8
0
 62
     4
100
AcDbText
 10
404.1308546128658
 20
349.8847456404934
 30
0.0
 40
3.0
  1
9
 41
0.75
  7
CHINESET
100
AcDbText
  0
TEXT
  5
FE4
330
1F
100
AcDbEntity
  8
0
 62
     4
100
AcDbText
 10
414.6308546128658
 20
349.8847456404934
 30
0.0
 40
3.0
  1
10
 41
0.75
  7
CHINESET
100
AcDbText
  0
POINT
  5
FE5
330
1F
100
AcDbEntity
  8
0
 60
     1
100
AcDbPoint
 10
-1885.918616060968
 20
-475.755636894764
 30
0.0
1001
GENIUS_GENOBJ-N-CRS_13
1002
{
1000
OWNER
1000
GEN
1002
}
1001
GENIUS_GENOLIS_13
1002
{
1000
ENT
1005
0
1005
0
1005
0
1005
FA1
1002
}
1001
GENIUS_GENOENT_13
1002
{
1000
MYREF
1005
FE5
1002
}
1002
{
1000
GRP
1005
0
1002
}
1001
GENIUS_GENODEF_13
1002
{
1000
HIER
1070
    10
1002
}
1002
{
1000
MANEDIT
1070
     1
1002
}
1002
{
1000
NOSEL
1070
     0
1002
}
1002
{
1000
BEHIND
1070
     0
1002
}
1002
{
1000
OTHER
1070
     0
1002
}
1002
{
1000
REACTOR
1002
}
  0
POINT
  5
FE6
330
1F
100
AcDbEntity
  8
0
 60
     1
100
AcDbPoint
 10
-1897.243201283823
 20
-466.8800504161278
 30
0.0
1001
GENIUS_GENOBJ-N-CRS_13
1002
{
1000
OWNER
1000
GEN
1002
}
1001
GENIUS_GENOLIS_13
1002
{
1000
ENT
1005
0
1005
0
1005
0
1005
FA0
1002
}
1001
GENIUS_GENOENT_13
1002
{
1000
MYREF
1005
FE6
1002
}
1002
{
1000
GRP
1005
0
1002
}
1001
GENIUS_GENODEF_13
1002
{
1000
HIER
1070
    10
1002
}
1002
{
1000
MANEDIT
1070
     1
1002
}
1002
{
1000
NOSEL
1070
     0
1002
}
1002
{
1000
BEHIND
1070
     0
1002
}
1002
{
1000
OTHER
1070
     0
1002
}
1002
{
1000
REACTOR
1002
}
  0
POINT
  5
FE7
330
1F
100
AcDbEntity
  8
0
 60
     1
100
AcDbPoint
 10
-1890.884527585986
 20
-475.755636894764
 30
0.0
1001
GENIUS_GENOBJ-N-CRS_13
1002
{
1000
OWNER
1000
GEN
1002
}
1001
GENIUS_GENOLIS_13
1002
{
1000
ENT
1005
0
1005
0
1005
0
1005
F9F
1002
}
1001
GENIUS_GENOENT_13
1002
{
1000
MYREF
1005
FE7
1002
}
1002
{
1000
GRP
1005
0
1002
}
1001
GENIUS_GENODEF_13
1002
{
1000
HIER
1070
    10
1002
}
1002
{
1000
MANEDIT
1070
     1
1002
}
1002
{
1000
NOSEL
1070
     0
1002
}
1002
{
1000
BEHIND
1070
     0
1002
}
1002
{
1000
OTHER
1070
     0
1002
}
1002
{
1000
REACTOR
1002
}
  0
POINT
  5
FEB
330
1F
100
AcDbEntity
  8
0
 60
     1
100
AcDbPoint
 10
-2074.545849972761
 20
-1150.600544788605
 30
0.0
1001
GENIUS_GENOBJ-N-CRS_13
1002
{
1000
OWNER
1000
GEN
1002
}
1001
GENIUS_GENOENT_13
1002
{
1000
MYREF
1005
FEB
1002
}
1002
{
1000
GRP
1005
0
1002
}
1001
GENIUS_GENOLIS_13
1002
{
1000
ENT
1005
F24
1005
F23
1005
F22
1005
F21
1002
}
1001
GENIUS_GENODEF_13
1002
{
1000
HIER
1070
    10
1002
}
1002
{
1000
MANEDIT
1070
     0
1002
}
1002
{
1000
NOSEL
1070
     0
1002
}
1002
{
1000
BEHIND
1070
     0
1002
}
1002
{
1000
OTHER
1070
     0
1002
}
1002
{
1000
REACTOR
1002
}
  0
POINT
  5
FEC
330
1F
100
AcDbEntity
  8
0
 60
     1
100
AcDbPoint
 10
-2074.545849972761
 20
-1150.600544788605
 30
0.0
1001
GENIUS_GENOENT_13
1002
{
1000
MYREF
1005
FEC
1002
}
1002
{
1000
GRP
1005
0
1002
}
1001
GENIUS_GENOLIS_13
1002
{
1000
ENT
1005
F20
1005
F1F
1005
F1E
1005
F1D
1002
}
1001
GENIUS_GENOBJ-N-CRS_13
1002
{
1000
OWNER
1000
GEN
1002
}
1001
GENIUS_GENODEF_13
1002
{
1000
HIER
1070
    10
1002
}
1002
{
1000
MANEDIT
1070
     0
1002
}
1002
{
1000
NOSEL
1070
     0
1002
}
1002
{
1000
BEHIND
1070
     0
1002
}
1002
{
1000
OTHER
1070
     0
1002
}
1002
{
1000
REACTOR
1002
}
  0
POINT
  5
FED
330
1F
100
AcDbEntity
  8
0
 60
     1
100
AcDbPoint
 10
-2074.545849972761
 20
-1140.100544788605
 30
0.0
1001
GENIUS_GENOLIS_13
1002
{
1000
ENT
1005
F1C
1005
F1B
1005
F1A
1005
F19
1002
}
1001
GENIUS_GENODEF_13
1002
{
1000
HIER
1070
    10
1002
}
1002
{
1000
MANEDIT
1070
     0
1002
}
1002
{
1000
NOSEL
1070
     0
1002
}
1002
{
1000
BEHIND
1070
     0
1002
}
1002
{
1000
OTHER
1070
     0
1002
}
1002
{
1000
REACTOR
1002
}
1001
GENIUS_GENOENT_13
1002
{
1000
MYREF
1005
FED
1002
}
1002
{
1000
GRP
1005
0
1002
}
1001
GENIUS_GENOBJ-N-CRS_13
1002
{
1000
OWNER
1000
GEN
1002
}
  0
POINT
  5
FEE
330
1F
100
AcDbEntity
  8
0
 60
     1
100
AcDbPoint
 10
-2074.545849972761
 20
-1140.100544788605
 30
0.0
1001
GENIUS_GENODEF_13
1002
{
1000
HIER
1070
    10
1002
}
1002
{
1000
MANEDIT
1070
     0
1002
}
1002
{
1000
NOSEL
1070
     0
1002
}
1002
{
1000
BEHIND
1070
     0
1002
}
1002
{
1000
OTHER
1070
     0
1002
}
1002
{
1000
REACTOR
1002
}
1001
GENIUS_GENOLIS_13
1002
{
1000
ENT
1005
F18
1005
F17
1005
F16
1005
F15
1002
}
1001
GENIUS_GENOENT_13
1002
{
1000
MYREF
1005
FEE
1002
}
1002
{
1000
GRP
1005
0
1002
}
1001
GENIUS_GENOBJ-N-CRS_13
1002
{
1000
OWNER
1000
GEN
1002
}
  0
POINT
  5
FEF
330
1F
100
AcDbEntity
  8
0
 60
     1
100
AcDbPoint
 10
-2074.545849972761
 20
-1150.600544788605
 30
0.0
1001
GENIUS_GENODEF_13
1002
{
1000
HIER
1070
    10
1002
}
1002
{
1000
MANEDIT
1070
     0
1002
}
1002
{
1000
NOSEL
1070
     0
1002
}
1002
{
1000
BEHIND
1070
     0
1002
}
1002
{
1000
OTHER
1070
     0
1002
}
1002
{
1000
REACTOR
1002
}
1001
GENIUS_GENOBJ-N-CRS_13
1002
{
1000
OWNER
1000
GEN
1002
}
1001
GENIUS_GENOLIS_13
1002
{
1000
ENT
1005
F14
1005
F13
1005
F12
1005
F11
1002
}
1001
GENIUS_GENOENT_13
1002
{
1000
MYREF
1005
FEF
1002
}
1002
{
1000
GRP
1005
0
1002
}
  0
POINT
  5
FF0
330
1F
100
AcDbEntity
  8
0
 60
     1
100
AcDbPoint
 10
-2074.545849972761
 20
-1150.600544788605
 30
0.0
1001
GENIUS_GENOLIS_13
1002
{
1000
ENT
1005
F10
1005
F0F
1005
F0E
1005
F0D
1002
}
1001
GENIUS_GENOENT_13
1002
{
1000
MYREF
1005
FF0
1002
}
1002
{
1000
GRP
1005
0
1002
}
1001
GENIUS_GENODEF_13
1002
{
1000
HIER
1070
    10
1002
}
1002
{
1000
MANEDIT
1070
     0
1002
}
1002
{
1000
NOSEL
1070
     0
1002
}
1002
{
1000
BEHIND
1070
     0
1002
}
1002
{
1000
OTHER
1070
     0
1002
}
1002
{
1000
REACTOR
1002
}
1001
GENIUS_GENOBJ-N-CRS_13
1002
{
1000
OWNER
1000
GEN
1002
}
  0
POINT
  5
FF1
330
1F
100
AcDbEntity
  8
0
 60
     1
100
AcDbPoint
 10
-2074.545849972761
 20
-1150.600544788605
 30
0.0
1001
GENIUS_GENOLIS_13
1002
{
1000
ENT
1005
F0C
1005
F0B
1005
F0A
1005
F09
1002
}
1001
GENIUS_GENODEF_13
1002
{
1000
HIER
1070
    10
1002
}
1002
{
1000
MANEDIT
1070
     0
1002
}
1002
{
1000
NOSEL
1070
     0
1002
}
1002
{
1000
BEHIND
1070
     0
1002
}
1002
{
1000
OTHER
1070
     0
1002
}
1002
{
1000
REACTOR
1002
}
1001
GENIUS_GENOENT_13
1002
{
1000
MYREF
1005
FF1
1002
}
1002
{
1000
GRP
1005
0
1002
}
1001
GENIUS_GENOBJ-N-CRS_13
1002
{
1000
OWNER
1000
GEN
1002
}
  0
POINT
  5
FF2
330
1F
100
AcDbEntity
  8
0
 60
     1
100
AcDbPoint
 10
-2074.545849972761
 20
-1150.600544788605
 30
0.0
1001
GENIUS_GENODEF_13
1002
{
1000
HIER
1070
    10
1002
}
1002
{
1000
MANEDIT
1070
     0
1002
}
1002
{
1000
NOSEL
1070
     0
1002
}
1002
{
1000
BEHIND
1070
     0
1002
}
1002
{
1000
OTHER
1070
     0
1002
}
1002
{
1000
REACTOR
1002
}
1001
GENIUS_GENOLIS_13
1002
{
1000
ENT
1005
F08
1005
F07
1005
F06
1005
F05
1002
}
1001
GENIUS_GENOENT_13
1002
{
1000
MYREF
1005
FF2
1002
}
1002
{
1000
GRP
1005
0
1002
}
1001
GENIUS_GENOBJ-N-CRS_13
1002
{
1000
OWNER
1000
GEN
1002
}
  0
INSERT
  5
1071
330
1F
100
AcDbEntity
  8
AM_5
100
AcDbBlockReference
  2
*S13
 10
0.0
 20
0.0
 30
0.0
  0
TEXT
  5
1084
330
1F
100
AcDbEntity
  8
AM_5
100
AcDbText
 10
235.5083360193823
 20
320.2595531806394
 30
0.0
 40
2.5
  1
2x3-PT1/8
 41
0.8
  7
CHINESET
100
AcDbText
  0
INSERT
  5
1085
330
1F
100
AcDbEntity
  8
AM_5
100
AcDbBlockReference
  2
*S14
 10
0.0
 20
0.0
 30
0.0
  0
LINE
  5
10D2
330
1F
100
AcDbEntity
  8
AM_7
100
AcDbLine
 10
326.0111815107288
 20
315.4941551007766
 30
0.0
 11
326.0111815107288
 21
260.8436696378108
 31
0.0
1001
GENIUS_GENODEF_13
1002
{
1000
HIER
1070
     0
1002
}
1002
{
1000
MANEDIT
1070
     0
1002
}
1002
{
1000
NOSEL
1070
     0
1002
}
1002
{
1000
BEHIND
1070
     0
1002
}
1002
{
1000
OTHER
1070
     0
1002
}
1002
{
1000
REACTOR
1002
}
1001
GENIUS_GENOBJ-N-CEN_13
1002
{
1000
OWNER
1000
GEN
1002
}
1001
GENIUS_GENCEN_19
1002
{
1040
2.0
1002
}
  0
LINE
  5
10D5
330
1F
100
AcDbEntity
  8
AM_7
100
AcDbLine
 10
336.5111815107288
 20
315.4941551007766
 30
0.0
 11
336.5111815107288
 21
260.8436696378108
 31
0.0
1001
GENIUS_GENODEF_13
1002
{
1000
HIER
1070
     0
1002
}
1002
{
1000
MANEDIT
1070
     0
1002
}
1002
{
1000
NOSEL
1070
     0
1002
}
1002
{
1000
BEHIND
1070
     0
1002
}
1002
{
1000
OTHER
1070
     0
1002
}
1002
{
1000
REACTOR
1002
}
1001
GENIUS_GENOBJ-N-CEN_13
1002
{
1000
OWNER
1000
GEN
1002
}
1001
GENIUS_GENCEN_19
1002
{
1040
2.0
1002
}
  0
ARC
  5
113F
330
1F
100
AcDbEntity
  8
AM_4
100
AcDbCircle
 10
265.5114767502134
 20
304.4941551007765
 30
0.0
 40
4.863999999999999
100
AcDbArc
 50
260.0
 51
170.0
  0
LINE
  5
1140
330
1F
100
AcDbEntity
  8
AM_7
  6
AM_ISO08W050x2
100
AcDbLine
 10
265.5114767502134
 20
311.3581551007765
 30
0.0
 11
265.5114767502134
 21
297.6301551007765
 31
0.0
  0
LINE
  5
1141
330
1F
100
AcDbEntity
  8
AM_7
  6
AM_ISO08W050x2
100
AcDbLine
 10
258.6474767502134
 20
304.4941551007765
 30
0.0
 11
272.3754767502135
 21
304.4941551007765
 31
0.0
  0
ARC
  5
1142
330
1F
100
AcDbEntity
  8
AM_4
100
AcDbCircle
 10
265.5114767502134
 20
287.9941551007765
 30
0.0
 40
4.863999999999999
100
AcDbArc
 50
260.0
 51
170.0
  0
LINE
  5
1143
330
1F
100
AcDbEntity
  8
AM_7
  6
AM_ISO08W050x2
100
AcDbLine
 10
265.5114767502134
 20
294.8581551007765
 30
0.0
 11
265.5114767502134
 21
281.1301551007765
 31
0.0
  0
LINE
  5
1144
330
1F
100
AcDbEntity
  8
AM_7
  6
AM_ISO08W050x2
100
AcDbLine
 10
258.6474767502134
 20
287.9941551007765
 30
0.0
 11
272.3754767502135
 21
287.9941551007765
 31
0.0
  0
ARC
  5
1145
330
1F
100
AcDbEntity
  8
AM_4
100
AcDbCircle
 10
265.5114767502134
 20
271.4941551007765
 30
0.0
 40
4.863999999999999
100
AcDbArc
 50
260.0
 51
170.0
  0
LINE
  5
1146
330
1F
100
AcDbEntity
  8
AM_7
  6
AM_ISO08W050x2
100
AcDbLine
 10
265.5114767502134
 20
278.3581551007765
 30
0.0
 11
265.5114767502134
 21
264.6301551007766
 31
0.0
  0
LINE
  5
1147
330
1F
100
AcDbEntity
  8
AM_7
  6
AM_ISO08W050x2
100
AcDbLine
 10
258.6474767502134
 20
271.4941551007765
 30
0.0
 11
272.3754767502135
 21
271.4941551007765
 31
0.0
  0
LINE
  5
12CB
330
1F
100
AcDbEntity
  8
SL
  6
ACISOTGB
100
AcDbLine
 10
331.2611815107285
 20
259.1008822213993
 30
0.0
 11
331.2611815107285
 21
326.6923179385305
 31
0.0
  0
LEADER
  5
12F9
330
1F
100
AcDbEntity
  8
0
 62
     4
100
AcDbLeader
  3
AM_ISO$7
 76
     2
 10
331.2894762740144
 20
323.8649034513195
 30
0.0
 10
318.5331699251251
 20
323.8649034513195
 30
0.0
1001
ACAD
1000
DSTYLE
1002
{
1070
   176
1070
     4
1070
    40
1040
1.5
1070
   147
1040
0.7
1070
    77
1070
     0
1070
   272
1070
     8
1002
}
  0
MTEXT
  5
12FA
330
1F
100
AcDbEntity
  8
0
 62
     4
100
AcDbMText
 10
320.0795225782882
 20
328.3637192527526
 30
0.0
 40
4.0
 41
9.973039285243089
 71
     1
 72
     5
  1
SL
 73
     1
 44
1.0
1001
ACAD
1000
MTEXTBEGIN
1070
    73
1070
     1
1070
    44
1040
1.0
1070
    74
1070
     0
1000
MTEXTEND
  0
LEADER
  5
12FD
330
1F
100
AcDbEntity
  8
0
 62
     4
100
AcDbLeader
  3
AM_ISO$7
 76
     2
 10
331.2894762740144
 20
220.2520938263418
 30
0.0
 10
318.5331699251251
 20
220.2520938263418
 30
0.0
1001
ACAD
1000
DSTYLE
1002
{
1070
   176
1070
     4
1070
    40
1040
1.5
1070
   147
1040
0.7
1070
    77
1070
     0
1070
   272
1070
     8
1002
}
  0
MTEXT
  5
12FE
330
1F
100
AcDbEntity
  8
0
 62
     4
100
AcDbMText
 10
320.0795225782882
 20
224.7509096277749
 30
0.0
 40
4.0
 41
9.973039285243089
 71
     1
 72
     5
  1
SL
 73
     1
 44
1.0
1001
ACAD
1000
MTEXTBEGIN
1070
    73
1070
     1
1070
    44
1040
1.0
1070
    74
1070
     0
1000
MTEXTEND
  0
ENDSEC
  0
SECTION
  2
OBJECTS
  0
DICTIONARY
  5
C
330
0
100
AcDbDictionary
281
     1
  3
ACAD_COLOR
350
BE
  3
ACAD_GROUP
350
D
  3
ACAD_LAYOUT
350
1A
  3
ACAD_MATERIAL
350
BD
  3
ACAD_MLINESTYLE
350
17
  3
ACAD_PLOTSETTINGS
350
19
  3
ACAD_PLOTSTYLENAME
350
E
  3
ACAD_TABLESTYLE
350
11A
  3
AcadDim
350
12F8
  3
ACDBHEADERROUNDTRIPXREC
350
1302
  3
AcDbVariableDictionary
350
94
  3
AcmDictionary
350
5B
  3
AMG
350
41
  3
AMGSNAPSETTINGS
350
1B8
  3
DWGPROPS
350
1301
  3
MAPISURF_MODULE
350
1216
  0
DICTIONARY
  5
3F9
330
2
100
AcDbDictionary
280
     1
281
     1
  3
ACAD_LAYERFILTERS
360
5B7
  3
ACAD_LAYERSTATES
360
AD2
  3
ACLYDICTIONARY
360
5B6
  3
AMLAYER_GROUPCOLORS
360
10FE
  0
DICTIONARY
  5
8F
330
1F
100
AcDbDictionary
280
     1
281
     1
  3
ACAD_INDEX
360
12A3
  3
ACAD_SORTENTS
360
1130
  0
DICTIONARY
  5
ABA
330
AB9
100
AcDbDictionary
280
     1
281
     1
  0
DICTIONARY
  5
F32
330
F31
100
AcDbDictionary
280
     1
281
     1
  3
ACAD_DIMASSOC
360
F33
  0
DICTIONARY
  5
F35
330
F34
100
AcDbDictionary
280
     1
281
     1
  3
ACAD_DIMASSOC
360
F36
  0
DICTIONARY
  5
F38
330
F37
100
AcDbDictionary
280
     1
281
     1
  3
ACAD_DIMASSOC
360
F39
  0
DICTIONARY
  5
F3B
330
F3A
100
AcDbDictionary
280
     1
281
     1
  3
ACAD_DIMASSOC
360
F3C
  0
DICTIONARY
  5
F41
330
F40
100
AcDbDictionary
280
     1
281
     1
  3
ACAD_DIMASSOC
360
F42
  0
DICTIONARY
  5
F46
330
F45
100
AcDbDictionary
280
     1
281
     1
  3
ACAD_DIMASSOC
360
F47
  0
DICTIONARY
  5
F49
330
F48
100
AcDbDictionary
280
     1
281
     1
  3
ACAD_DIMASSOC
360
F4A
  0
DICTIONARY
  5
F4C
330
F4B
100
AcDbDictionary
280
     1
281
     1
  3
ACAD_DIMASSOC
360
F4D
  0
DICTIONARY
  5
BE
102
{ACAD_REACTORS
330
C
102
}
330
C
100
AcDbDictionary
281
     1
  0
DICTIONARY
  5
D
102
{ACAD_REACTORS
330
C
102
}
330
C
100
AcDbDictionary
281
     1
  0
DICTIONARY
  5
1A
102
{ACAD_REACTORS
330
C
102
}
330
C
100
AcDbDictionary
281
     1
  3
Model
350
22
  3
配置1
350
1E
  3
配置2
350
26
  0
DICTIONARY
  5
BD
102
{ACAD_REACTORS
330
C
102
}
330
C
100
AcDbDictionary
281
     1
  0
DICTIONARY
  5
17
102
{ACAD_REACTORS
330
C
102
}
330
C
100
AcDbDictionary
281
     1
  3
Standard
350
18
  0
DICTIONARY
  5
19
102
{ACAD_REACTORS
330
C
102
}
330
C
100
AcDbDictionary
281
     1
  0
ACDBDICTIONARYWDFLT
  5
E
102
{ACAD_REACTORS
330
C
102
}
330
C
100
AcDbDictionary
281
     1
  3
Normal
350
F
100
AcDbDictionaryWithDefault
340
F
  0
DICTIONARY
  5
11A
102
{ACAD_REACTORS
330
C
102
}
330
C
100
AcDbDictionary
281
     1
  3
Standard
350
11B
  0
XRECORD
  5
12F8
102
{ACAD_REACTORS
330
C
102
}
330
C
100
AcDbXrecord
280
     1
 90
   990106
  3

 60
     4
 61
     0
 62
     1
 63
     3
 64
     0
 65
     0
 66
     0
 67
     3
 68
     0
 69
     0
 70
     0
 71
     0
 72
     0
 40
0.0
170
     0
  0
DICTIONARY
  5
1302
102
{ACAD_REACTORS
330
C
102
}
330
C
100
AcDbDictionary
281
     1
  0
DICTIONARY
  5
94
102
{ACAD_REACTORS
330
C
102
}
330
C
100
AcDbDictionary
281
     1
  3
CTABLESTYLE
350
138
  3
DIMASSOC
350
96
  3
INDEXCTL
350
95
  3
PROJECTNAME
350
1188
  0
DICTIONARY
  5
5B
102
{ACAD_REACTORS
330
C
102
}
330
C
100
AcDbDictionary
281
     1
  3
AcmBOM
350
1B5
  3
AcmStdDictionary
350
61
  3
AMDTSECTSYM_ARROWCOLOR
350
123
  0
DICTIONARY
  5
41
102
{ACAD_REACTORS
330
C
102
}
330
C
100
AcDbDictionary
281
     1
  3
AcMgSettings
350
1190
  0
DICTIONARY
  5
1B8
102
{ACAD_REACTORS
330
C
102
}
330
C
100
AcDbDictionary
281
     1
  0
XRECORD
  5
1301
102
{ACAD_REACTORS
330
C
102
}
330
C
100
AcDbXrecord
280
     1
  1
DWGPROPS COOKIE
  2

  3

  4

  6

  7

  8

  9

300
AmdtFileType=84
301
=
302
=
303
=
304
=
305
=
306
=
307
=
308
=
309
=
 40
0.0107785300925926
 41
2454013.630324248
 42
2455854.703937535
  1

 90
        1
  0
DICTIONARY
  5
5B7
102
{ACAD_REACTORS
330
3F9
102
}
330
3F9
100
AcDbDictionary
281
     1
  0
DICTIONARY
  5
AD2
102
{ACAD_REACTORS
330
3F9
102
}
330
3F9
100
AcDbDictionary
281
     1
  0
DICTIONARY
  5
5B6
102
{ACAD_REACTORS
330
3F9
102
}
330
3F9
100
AcDbDictionary
281
     1
1001
ACAD
1000
<All
  0
DICTIONARY
  5
10FE
102
{ACAD_REACTORS
330
3F9
102
}
330
3F9
100
AcDbDictionary
280
     1
281
     1
  0
DICTIONARY
  5
12A3
102
{ACAD_REACTORS
330
8F
102
}
330
8F
100
AcDbDictionary
281
     1
  3
*A1
350
12A4
  0
SORTENTSTABLE
  5
1130
102
{ACAD_REACTORS
330
8F
102
}
330
8F
100
AcDbSortentsTable
330
1F
331
EA9
  5
EA9
331
EE8
  5
EE8
331
FE4
  5
1071
331
FA5
  5
FA6
331
F6E
  5
F6F
331
EB1
  5
EB1
331
EF0
  5
EF0
331
FAD
  5
FAE
331
F76
  5
F77
331
EF8
  5
EF8
331
EB9
  5
EB9
331
F37
  5
F37
331
FB5
  5
FB6
331
F7E
  5
F82
331
F00
  5
F00
331
EC1
  5
EC1
331
FBD
  5
FBE
331
D80
  5
D80
331
F86
  5
F87
331
E35
  5
E35
331
DFE
  5
DFE
331
DBF
  5
DBF
331
D88
  5
D88
331
E74
  5
E74
331
E7C
  5
E7C
331
E06
  5
E06
331
DC7
  5
DC7
331
D90
  5
D90
331
E3D
  5
E3D
331
E45
  5
E45
331
DCF
  5
DCF
331
D98
  5
D98
331
E0E
  5
E0E
331
E84
  5
E84
331
E4D
  5
E4D
331
E16
  5
E16
331
DD7
  5
DD7
331
E8C
  5
E8C
331
EC9
  5
EC9
331
F08
  5
F08
331
10D2
  5
10D5
331
FC5
  5
FC6
331
F8E
  5
F8F
331
F10
  5
F10
331
ED1
  5
ED1
331
F4F
  5
F4F
331
FCD
  5
FCE
331
F96
  5
F97
331
F57
  5
F58
331
ED9
  5
ED9
331
F18
  5
F18
331
1143
  5
1144
331
FD5
  5
FD6
331
F5F
  5
F60
331
EE1
  5
EE1
331
F9E
  5
F9F
331
FDD
  5
FDE
331
DA0
  5
DA0
331
E94
  5
E94
331
E1E
  5
E1E
331
DA8
  5
DA8
331
D69
  5
D69
331
DDF
  5
DDF
331
E55
  5
E55
331
E9C
  5
E9C
331
E26
  5
E26
331
DE7
  5
DE7
331
D71
  5
D71
331
DB0
  5
DB0
331
E5D
  5
E5D
331
E65
  5
E65
331
DEF
  5
DEF
331
D79
  5
D79
331
E2E
  5
E2E
331
EA4
  5
EA4
331
E6D
  5
E6D
331
DF7
  5
DF7
331
F20
  5
F20
331
EE9
  5
EE9
331
EAA
  5
EAA
331
FA6
  5
FA7
331
F6F
  5
F73
331
EB2
  5
EB2
331
EF1
  5
EF1
331
FAE
  5
FAF
331
F77
  5
F78
331
EBA
  5
EBA
331
EF9
  5
EF9
331
FB6
  5
FB7
331
F01
  5
F01
331
EC2
  5
EC2
331
F40
  5
F40
331
DB8
  5
DB8
331
FBE
  5
FBF
331
D81
  5
D81
331
F87
  5
F88
331
E36
  5
E36
331
DC0
  5
DC0
331
D89
  5
D89
331
DFF
  5
DFF
331
E75
  5
E75
331
E3E
  5
E3E
331
E07
  5
E07
331
D91
  5
D91
331
DC8
  5
DC8
331
E7D
  5
E7D
331
E85
  5
E85
331
E0F
  5
E0F
331
DD0
  5
DD0
331
D99
  5
D99
331
E46
  5
E46
331
E8D
  5
E8D
331
E17
  5
E17
331
E4E
  5
E4E
331
F09
  5
F09
331
ECA
  5
ECA
331
F48
  5
F48
331
FC6
  5
FC7
331
F8F
  5
F90
331
F11
  5
F11
331
ED2
  5
ED2
331
F50
  5
F50
331
FCE
  5
FCF
331
F97
  5
F98
331
EDA
  5
EDA
331
F19
  5
F19
331
F58
  5
F59
331
1144
  5
1145
331
FD6
  5
FD7
331
F9F
  5
FA0
331
F60
  5
F61
331
EE2
  5
EE2
331
DD8
  5
DD8
331
FDE
  5
FDF
331
DA1
  5
DA1
331
E56
  5
E56
331
DE0
  5
DE0
331
DA9
  5
DA9
331
D6A
  5
D6A
331
E1F
  5
E1F
331
E95
  5
E95
331
E5E
  5
E5E
331
E27
  5
E27
331
DB1
  5
DB1
331
D72
  5
D72
331
DE8
  5
DE8
331
E9D
  5
E9D
331
EA5
  5
EA5
331
E2F
  5
E2F
331
D7A
  5
D7A
331
DF0
  5
DF0
331
E66
  5
E66
331
E6E
  5
E6E
331
F21
  5
F21
331
EAB
  5
EAB
331
EEA
  5
EEA
331
FA7
  5
FA8
331
EB3
  5
EB3
331
EF2
  5
EF2
331
F31
  5
F31
331
1084
  5
1085
331
FAF
  5
FB0
331
EFA
  5
EFA
331
EBB
  5
EBB
331
F78
  5
F79
331
FB7
  5
FB8
331
EC3
  5
EC3
331
F02
  5
F02
331
DB9
  5
DB9
331
FBF
  5
FC0
331
D82
  5
D82
331
DF8
  5
DF8
331
E37
  5
E37
331
E00
  5
E00
331
DC1
  5
DC1
331
D8A
  5
D8A
331
E76
  5
E76
331
E7E
  5
E7E
331
E3F
  5
E3F
331
DC9
  5
DC9
331
D92
  5
D92
331
E08
  5
E08
331
E47
  5
E47
331
DD1
  5
DD1
331
D9A
  5
D9A
331
E10
  5
E10
331
E86
  5
E86
331
E8E
  5
E8E
331
E4F
  5
E4F
331
F88
  5
F8C
331
ECB
  5
ECB
331
F0A
  5
F0A
331
FC7
  5
FC8
331
F90
  5
F91
331
F51
  5
F52
331
ED3
  5
ED3
331
F12
  5
F12
331
FCF
  5
FD0
331
F98
  5
F99
331
F59
  5
F5A
331
EDB
  5
EDB
331
F1A
  5
F1A
331
1145
  5
1146
331
FD7
  5
FD8
331
EE3
  5
EE3
331
F61
  5
F62
331
E18
  5
E18
331
FDF
  5
FE0
331
DA2
  5
DA2
331
DD9
  5
DD9
331
E96
  5
E96
331
E20
  5
E20
331
DE1
  5
DE1
331
D6B
  5
D6B
331
DAA
  5
DAA
331
E57
  5
E57
331
E9E
  5
E9E
331
E28
  5
E28
331
DE9
  5
DE9
331
D73
  5
D73
331
DB2
  5
DB2
331
E5F
  5
E5F
331
DF1
  5
DF1
331
D7B
  5
D7B
331
E67
  5
E67
331
EA6
  5
EA6
331
E6F
  5
E6F
331
FA0
  5
FA1
331
F22
  5
F22
331
EEB
  5
EEB
331
EAC
  5
EAC
331
FA8
  5
FA9
331
EB4
  5
EB4
331
EF3
  5
EF3
331
1085
  5
10D2
331
FB0
  5
FB1
331
F79
  5
F7A
331
EBC
  5
EBC
331
EFB
  5
EFB
331
F3A
  5
F3A
331
FB8
  5
FB9
331
F03
  5
F03
331
EC4
  5
EC4
331
E30
  5
E30
331
DBA
  5
DBA
331
D83
  5
D83
331
DF9
  5
DF9
331
E38
  5
E38
331
DC2
  5
DC2
331
D8B
  5
D8B
331
E01
  5
E01
331
E77
  5
E77
331
E7F
  5
E7F
331
E09
  5
E09
331
D93
  5
D93
331
DCA
  5
DCA
331
E40
  5
E40
331
E87
  5
E87
331
E11
  5
E11
331
DD2
  5
DD2
331
D9B
  5
D9B
331
E48
  5
E48
331
E8F
  5
E8F
331
FC0
  5
FC1
331
F0B
  5
F0B
331
ECC
  5
ECC
331
10D5
  5
113F
331
FC8
  5
FC9
331
F52
  5
F53
331
ED4
  5
ED4
331
F13
  5
F13
331
F91
  5
F92
331
FD0
  5
FD1
331
F99
  5
F9A
331
EDC
  5
EDC
331
F1B
  5
F1B
331
F5A
  5
F5B
331
1146
  5
1147
331
FD8
  5
FD9
331
F62
  5
F63
331
EE4
  5
EE4
331
E50
  5
E50
331
DDA
  5
DDA
331
DA3
  5
DA3
331
E19
  5
E19
331
E58
  5
E58
331
DE2
  5
DE2
331
DAB
  5
DAB
331
D6C
  5
D6C
331
E21
  5
E21
331
E97
  5
E97
331
E9F
  5
E9F
331
E29
  5
E29
331
DB3
  5
DB3
331
D74
  5
D74
331
DEA
  5
DEA
331
E60
  5
E60
331
EA7
  5
EA7
331
D7C
  5
D7C
331
DF2
  5
DF2
331
E68
  5
E68
331
FE0
  5
FE1
331
FA1
  5
FA2
331
F6A
  5
F6E
331
EAD
  5
EAD
331
EEC
  5
EEC
331
F23
  5
F23
331
FA9
  5
FAA
331
EF4
  5
EF4
331
EB5
  5
EB5
331
FB1
  5
FB2
331
F7A
  5
F7E
331
EFC
  5
EFC
331
EBD
  5
EBD
331
FB9
  5
FBA
331
F82
  5
F86
331
EC5
  5
EC5
331
F04
  5
F04
331
E31
  5
E31
331
DFA
  5
DFA
331
D84
  5
D84
331
DBB
  5
DBB
331
E70
  5
E70
331
E39
  5
E39
331
E02
  5
E02
331
DC3
  5
DC3
331
D8C
  5
D8C
331
E78
  5
E78
331
E80
  5
E80
331
E41
  5
E41
331
DCB
  5
DCB
331
113F
  5
1140
331
D94
  5
D94
331
E0A
  5
E0A
331
DD3
  5
DD3
331
D9C
  5
D9C
331
E49
  5
E49
331
E88
  5
E88
331
FC1
  5
FC2
331
F4B
  5
F4B
331
ECD
  5
ECD
331
F0C
  5
F0C
331
FC9
  5
FCA
331
F92
  5
F93
331
F53
  5
F54
331
ED5
  5
ED5
331
F14
  5
F14
331
FD1
  5
FD2
331
F9A
  5
F9B
331
F5B
  5
F5C
331
EDD
  5
EDD
331
F1C
  5
F1C
331
1147
  5
12CB
331
FD9
  5
FDA
331
EE5
  5
EE5
331
F63
  5
F64
331
E90
  5
E90
331
E1A
  5
E1A
331
DA4
  5
DA4
331
DDB
  5
DDB
331
E51
  5
E51
331
E98
  5
E98
331
E22
  5
E22
331
DE3
  5
DE3
331
D6D
  5
D6D
331
DAC
  5
DAC
331
E59
  5
E59
331
EA0
  5
EA0
331
E61
  5
E61
331
DEB
  5
DEB
331
D75
  5
D75
331
DB4
  5
DB4
331
E2A
  5
E2A
331
DF3
  5
DF3
331
D7D
  5
D7D
331
E69
  5
E69
331
FE1
  5
FE2
331
FA2
  5
FA3
331
EED
  5
EED
331
EAE
  5
EAE
331
F24
  5
F24
331
FAA
  5
FAB
331
F73
  5
F74
331
EB6
  5
EB6
331
EF5
  5
EF5
331
F34
  5
F34
331
FB2
  5
FB3
331
EFD
  5
EFD
331
EBE
  5
EBE
331
FBA
  5
FBB
331
F05
  5
F05
331
EC6
  5
EC6
331
F44
  5
F44
331
E32
  5
E32
331
DBC
  5
DBC
331
D85
  5
D85
331
DFB
  5
DFB
331
E71
  5
E71
331
E3A
  5
E3A
331
DC4
  5
DC4
331
D8D
  5
D8D
331
E03
  5
E03
331
E79
  5
E79
331
E81
  5
E81
331
E0B
  5
E0B
331
D95
  5
D95
331
DCC
  5
DCC
331
E42
  5
E42
331
E89
  5
E89
331
DD4
  5
DD4
331
D9D
  5
D9D
331
E4A
  5
E4A
331
FC2
  5
FC3
331
F0D
  5
F0D
331
ECE
  5
ECE
331
FCA
  5
FCB
331
F93
  5
F94
331
ED6
  5
ED6
331
F15
  5
F15
331
F54
  5
F55
331
1140
  5
1141
331
FD2
  5
FD3
331
F9B
  5
F9C
331
EDE
  5
EDE
331
F1D
  5
F1D
331
F5C
  5
F5D
331
FDA
  5
FDB
331
F64
  5
F65
331
EE6
  5
EE6
331
E91
  5
E91
331
E52
  5
E52
331
DDC
  5
DDC
331
DA5
  5
DA5
331
D66
  5
D66
331
E1B
  5
E1B
331
E5A
  5
E5A
331
DE4
  5
DE4
331
DAD
  5
DAD
331
D6E
  5
D6E
331
E23
  5
E23
331
E99
  5
E99
331
EA1
  5
EA1
331
E2B
  5
E2B
331
DB5
  5
DB5
331
D76
  5
D76
331
DEC
  5
DEC
331
E62
  5
E62
331
D7E
  5
D7E
331
DF4
  5
DF4
331
E6A
  5
E6A
331
FE2
  5
FE3
331
FA3
  5
FA4
331
EAF
  5
EAF
331
EEE
  5
EEE
331
FAB
  5
FAC
331
F74
  5
F75
331
EB7
  5
EB7
331
EF6
  5
EF6
331
FB3
  5
FB4
331
EFE
  5
EFE
331
EBF
  5
EBF
331
F3D
  5
F3D
331
FBB
  5
FBC
331
F45
  5
F45
331
EC7
  5
EC7
331
F06
  5
F06
331
E33
  5
E33
331
DFC
  5
DFC
331
D86
  5
D86
331
DBD
  5
DBD
331
E72
  5
E72
331
E7A
  5
E7A
331
DC5
  5
DC5
331
D8E
  5
D8E
331
E3B
  5
E3B
331
E43
  5
E43
331
DCD
  5
DCD
331
12CB
  5
F51
331
D96
  5
D96
331
E0C
  5
E0C
331
E82
  5
E82
331
E4B
  5
E4B
331
E14
  5
E14
331
D9E
  5
D9E
331
DD5
  5
DD5
331
E8A
  5
E8A
331
FC3
  5
FC4
331
F8C
  5
F8D
331
ECF
  5
ECF
331
F0E
  5
F0E
331
FCB
  5
FCC
331
F94
  5
F95
331
F55
  5
F56
331
ED7
  5
ED7
331
F16
  5
F16
331
1141
  5
1142
331
FD3
  5
FD4
331
F5D
  5
F5E
331
EDF
  5
EDF
331
F1E
  5
F1E
331
F9C
  5
F9D
331
FDB
  5
FDC
331
F65
  5
F66
331
EE7
  5
EE7
331
E92
  5
E92
331
E1C
  5
E1C
331
DA6
  5
DA6
331
D67
  5
D67
331
DDD
  5
DDD
331
E53
  5
E53
331
E9A
  5
E9A
331
E24
  5
E24
331
DE5
  5
DE5
331
D6F
  5
D6F
331
DAE
  5
DAE
331
E5B
  5
E5B
331
EA2
  5
EA2
331
E63
  5
E63
331
DED
  5
DED
331
DB6
  5
DB6
331
D77
  5
D77
331
E2C
  5
E2C
331
DF5
  5
DF5
331
D7F
  5
D7F
331
E6B
  5
E6B
331
EA8
  5
EA8
331
1071
  5
1084
331
FE3
  5
FE4
331
FA4
  5
FA5
331
EB0
  5
EB0
331
EEF
  5
EEF
331
FAC
  5
FAD
331
F75
  5
F76
331
EB8
  5
EB8
331
EF7
  5
EF7
331
FB4
  5
FB5
331
EFF
  5
EFF
331
EC0
  5
EC0
331
FBC
  5
FBD
331
F07
  5
F07
331
E34
  5
E34
331
DBE
  5
DBE
331
D87
  5
D87
331
DFD
  5
DFD
331
E73
  5
E73
331
E3C
  5
E3C
331
DC6
  5
DC6
331
D8F
  5
D8F
331
E05
  5
E05
331
E7B
  5
E7B
331
E83
  5
E83
331
E0D
  5
E0D
331
D97
  5
D97
331
DCE
  5
DCE
331
E44
  5
E44
331
E8B
  5
E8B
331
E15
  5
E15
331
DD6
  5
DD6
331
D9F
  5
D9F
331
E4C
  5
E4C
331
EC8
  5
EC8
331
FC4
  5
FC5
331
F8D
  5
F8E
331
F0F
  5
F0F
331
ED0
  5
ED0
331
F4E
  5
F4E
331
FCC
  5
FCD
331
F95
  5
F96
331
ED8
  5
ED8
331
F17
  5
F17
331
F56
  5
F57
331
1142
  5
1143
331
F9D
  5
F9E
331
F1F
  5
F1F
331
EE0
  5
EE0
331
F5E
  5
F5F
331
FDC
  5
FDD
331
F66
  5
F6A
331
E54
  5
E54
331
DDE
  5
DDE
331
DA7
  5
DA7
331
D68
  5
D68
331
E1D
  5
E1D
331
E93
  5
E93
331
E5C
  5
E5C
331
E25
  5
E25
331
DAF
  5
DAF
331
D70
  5
D70
331
DE6
  5
DE6
331
E9B
  5
E9B
331
EA3
  5
EA3
331
E2D
  5
E2D
331
DB7
  5
DB7
331
D78
  5
D78
331
DEE
  5
DEE
331
E64
  5
E64
331
DF6
  5
DF6
331
E6C
  5
E6C
  0
DIMASSOC
  5
F33
102
{ACAD_REACTORS
330
F32
102
}
330
F32
100
AcDbDimAssoc
330
F31
 90
        3
 70
     0
 71
     0
  1
AcDbOsnapPointRef
 72
     1
331
F10
 73
     0
 91
        0
 40
0.0
 10
0.0
 20
0.0
 30
2.000000000000000E+50
 75
     0
  1
AcDbOsnapPointRef
 72
     1
331
F14
 73
     0
 91
        0
 40
0.0
 10
0.0
 20
0.0
 30
2.000000000000000E+50
 75
     0
  0
DIMASSOC
  5
F36
102
{ACAD_REACTORS
330
F35
102
}
330
F35
100
AcDbDimAssoc
330
F34
 90
        3
 70
     0
 71
     0
  1
AcDbOsnapPointRef
 72
    13
331
E16
 73
     0
 91
        0
 40
0.0
 10
0.0
 20
0.0
 30
2.000000000000000E+50
 75
     0
  1
AcDbOsnapPointRef
 72
    13
331
E15
 73
     0
 91
        0
 40
0.0
 10
0.0
 20
0.0
 30
2.000000000000000E+50
 75
     0
  0
DIMASSOC
  5
F39
102
{ACAD_REACTORS
330
F38
102
}
330
F38
100
AcDbDimAssoc
330
F37
 90
        3
 70
     0
 71
     0
  1
AcDbOsnapPointRef
 72
    13
331
E15
 73
     0
 91
        0
 40
0.0
 10
0.0
 20
0.0
 30
2.000000000000000E+50
 75
     0
  1
AcDbOsnapPointRef
 72
     1
331
F11
 73
     0
 91
        0
 40
0.0
 10
0.0
 20
0.0
 30
2.000000000000000E+50
 75
     0
  0
DIMASSOC
  5
F3C
102
{ACAD_REACTORS
330
F3B
102
}
330
F3B
100
AcDbDimAssoc
330
F3A
 90
        3
 70
     0
 71
     0
  1
AcDbOsnapPointRef
 72
    13
331
E17
 73
     0
 91
        0
 40
0.0
 10
0.0
 20
0.0
 30
2.000000000000000E+50
 75
     0
  1
AcDbOsnapPointRef
 72
     1
331
F21
 73
     0
 91
        0
 40
0.0
 10
0.0
 20
0.0
 30
2.000000000000000E+50
 75
     0
  0
DIMASSOC
  5
F42
102
{ACAD_REACTORS
330
F41
102
}
330
F41
100
AcDbDimAssoc
330
F40
 90
        3
 70
     0
 71
     0
  1
AcDbOsnapPointRef
 72
    13
331
E05
 73
     0
 91
        0
 40
0.0
 10
0.0
 20
0.0
 30
2.000000000000000E+50
 75
     0
  1
AcDbOsnapPointRef
 72
    13
331
DF0
 73
     0
 91
        0
 40
0.0
 10
0.0
 20
0.0
 30
2.000000000000000E+50
 75
     0
  0
DIMASSOC
  5
F47
102
{ACAD_REACTORS
330
F46
102
}
330
F46
100
AcDbDimAssoc
330
F45
 90
        1
 70
     0
 71
     0
  1
AcDbOsnapPointRef
 72
    13
331
E05
 73
     0
 91
        0
 40
0.0
 10
0.0
 20
0.0
 30
2.000000000000000E+50
 75
     0
  0
DIMASSOC
  5
F4A
102
{ACAD_REACTORS
330
F49
102
}
330
F49
100
AcDbDimAssoc
330
F48
 90
        2
 70
     0
 71
     0
  1
AcDbOsnapPointRef
 72
     1
331
F11
 73
     0
 91
        0
 40
0.0
 10
0.0
 20
0.0
 30
2.000000000000000E+50
 75
     0
  0
DIMASSOC
  5
F4D
102
{ACAD_REACTORS
330
F4C
102
}
330
F4C
100
AcDbDimAssoc
330
F4B
 90
        3
 70
     0
 71
     0
  1
AcDbOsnapPointRef
 72
    13
331
E17
 73
     0
 91
        0
 40
0.0
 10
0.0
 20
0.0
 30
2.000000000000000E+50
 75
     0
  1
AcDbOsnapPointRef
 72
    13
331
E15
 73
     0
 91
        0
 40
0.0
 10
0.0
 20
0.0
 30
2.000000000000000E+50
 75
     0
  0
LAYOUT
  5
22
102
{ACAD_XDICTIONARY
360
1305
102
}
102
{ACAD_REACTORS
330
1A
102
}
330
1A
100
AcDbPlotSettings
  1

  2
\\RD\EPSON Stylus C63 Series單色
  4
A4
  6

 40
3.757083177566528
 41
3.757076978683471
 42
3.757080078125
 43
3.757080078125
 44
209.9733276367187
 45
296.9683227539062
 46
0.0
 47
0.0
 48
0.0
 49
0.0
140
0.0
141
0.0
142
1.0
143
0.3405120737814363
 70
 11952
 72
     1
 73
     0
 74
     0
  7
單色出圖.ctb
 75
     0
147
2.936753428137963
148
-2047.07469463503
149
-1261.649717473083
100
AcDbLayout
  1
Model
 70
     1
 71
     0
 10
0.0
 20
0.0
 11
12.0
 21
9.0
 12
0.0
 22
0.0
 32
0.0
 14
0.0
 24
0.0
 34
0.0
 15
0.0
 25
0.0
 35
0.0
146
0.0
 13
0.0
 23
0.0
 33
0.0
 16
1.0
 26
0.0
 36
0.0
 17
0.0
 27
1.0
 37
0.0
 76
     0
330
1F
1001
ACAD_PSEXT
1000
\\RD\EPSON Stylus C63 Series單色
1000
EPSON Stylus C63 Series
1000
\\RD
1000

1070
     0
  0
LAYOUT
  5
1E
102
{ACAD_XDICTIONARY
360
1303
102
}
102
{ACAD_REACTORS
330
1A
102
}
330
1A
100
AcDbPlotSettings
  1

  2

  4

  6

 40
0.0
 41
0.0
 42
0.0
 43
0.0
 44
0.0
 45
0.0
 46
0.0
 47
0.0
 48
0.0
 49
0.0
140
0.0
141
0.0
142
1.0
143
1.0
 70
   688
 72
     0
 73
     0
 74
     5
  7
單色出圖.ctb
 75
    16
147
1.0
148
0.0
149
0.0
100
AcDbLayout
  1
配置1
 70
     1
 71
     1
 10
0.0
 20
0.0
 11
420.0
 21
297.0
 12
0.0
 22
0.0
 32
0.0
 14
1.000000000000000E+20
 24
1.000000000000000E+20
 34
1.000000000000000E+20
 15
-1.000000000000000E+20
 25
-1.000000000000000E+20
 35
-1.000000000000000E+20
146
0.0
 13
0.0
 23
0.0
 33
0.0
 16
1.0
 26
0.0
 36
0.0
 17
0.0
 27
1.0
 37
0.0
 76
     0
330
1B
  0
LAYOUT
  5
26
102
{ACAD_XDICTIONARY
360
1307
102
}
102
{ACAD_REACTORS
330
1A
102
}
330
1A
100
AcDbPlotSettings
  1

  2

  4

  6

 40
0.0
 41
0.0
 42
0.0
 43
0.0
 44
0.0
 45
0.0
 46
0.0
 47
0.0
 48
0.0
 49
0.0
140
0.0
141
0.0
142
1.0
143
1.0
 70
   688
 72
     0
 73
     0
 74
     5
  7
單色出圖.ctb
 75
    16
147
1.0
148
0.0
149
0.0
100
AcDbLayout
  1
配置2
 70
     1
 71
     2
 10
0.0
 20
0.0
 11
12.0
 21
9.0
 12
0.0
 22
0.0
 32
0.0
 14
0.0
 24
0.0
 34
0.0
 15
0.0
 25
0.0
 35
0.0
146
0.0
 13
0.0
 23
0.0
 33
0.0
 16
1.0
 26
0.0
 36
0.0
 17
0.0
 27
1.0
 37
0.0
 76
     0
330
23
  0
MLINESTYLE
  5
18
102
{ACAD_REACTORS
330
17
102
}
330
17
100
AcDbMlineStyle
  2
STANDARD
 70
     0
  3

 62
   256
 51
90.0
 52
90.0
 71
     2
 49
0.5
 62
   256
  6
BYLAYER
 49
-0.5
 62
   256
  6
BYLAYER
  0
ACDBPLACEHOLDER
  5
F
102
{ACAD_REACTORS
330
E
102
}
330
E
  0
TABLESTYLE
  5
11B
102
{ACAD_REACTORS
330
11A
102
}
330
11A
100
AcDbTableStyle
  3
Standard
 70
     0
 71
     0
 40
1.5
 41
1.5
280
     0
281
     0
  7
STANDARD
140
4.5
170
     2
 62
     0
 63
     7
283
     0
274
    -2
284
     1
 64
     0
275
    -2
285
     1
 65
     0
276
    -2
286
     1
 66
     0
277
    -2
287
     1
 67
     0
278
    -2
288
     1
 68
     0
279
    -2
289
     1
 69
     0
  7
STANDARD
140
6.0
170
     5
 62
     0
 63
     7
283
     0
274
    -2
284
     1
 64
     0
275
    -2
285
     1
 65
     0
276
    -2
286
     1
 66
     0
277
    -2
287
     1
 67
     0
278
    -2
288
     1
 68
     0
279
    -2
289
     1
 69
     0
  7
STANDARD
140
4.5
170
     5
 62
     0
 63
     7
283
     0
274
    -2
284
     1
 64
     0
275
    -2
285
     1
 65
     0
276
    -2
286
     1
 66
     0
277
    -2
287
     1
 67
     0
278
    -2
288
     1
 68
     0
279
    -2
289
     1
 69
     0
  0
DICTIONARYVAR
  5
138
102
{ACAD_REACTORS
330
94
102
}
330
94
100
DictionaryVariables
280
     0
  1
STANDARD
  0
DICTIONARYVAR
  5
96
102
{ACAD_REACTORS
330
94
102
}
330
94
100
DictionaryVariables
280
     0
  1
2
  0
DICTIONARYVAR
  5
95
102
{ACAD_REACTORS
330
94
102
}
330
94
100
DictionaryVariables
280
     0
  1
1
  0
DICTIONARYVAR
  5
1188
102
{ACAD_REACTORS
330
94
102
}
330
94
100
DictionaryVariables
280
     0
  1

  0
DICTIONARY
  5
1B5
102
{ACAD_REACTORS
330
5B
102
}
330
5B
100
AcDbDictionary
281
     1
  0
DICTIONARY
  5
61
102
{ACAD_REACTORS
330
5B
102
}
330
5B
100
AcDbDictionary
281
     1
  0
XRECORD
  5
123
102
{ACAD_REACTORS
330
5B
102
}
330
5B
100
AcDbXrecord
280
     1
 90
-1023410169
  0
DICTIONARY
  5
1190
102
{ACAD_REACTORS
330
41
102
}
330
41
100
AcDbDictionary
281
     1
  3
DWGSETTINGS
350
1191
  3
TRANSSETTINGS
350
1194
  0
LAYER_INDEX
  5
12A4
102
{ACAD_REACTORS
330
12A3
102
}
330
12A3
100
AcDbIndex
 40
2455854.703937535
100
AcDbLayerIndex
  8
0
360
12A5
 90
       82
  8
Defpoints
360
12A6
 90
        0
  8
AM_7
360
12A7
 90
       40
  8
AM_VIS
360
12A8
 90
      365
  8
AM_5
360
12A9
 90
       13
  8
LOGO
360
12AA
 90
      108
  8
SL
360
12AB
 90
        2
  8
AM_4
360
12AC
 90
        3
  0
DICTIONARY
  5
1305
330
22
100
AcDbDictionary
280
     1
281
     1
  3
ACAD_XREC_ROUNDTRIP
360
1306
  0
DICTIONARY
  5
1303
330
1E
100
AcDbDictionary
280
     1
281
     1
  3
ACAD_XREC_ROUNDTRIP
360
1304
  0
DICTIONARY
  5
1307
330
26
100
AcDbDictionary
280
     1
281
     1
  3
ACAD_XREC_ROUNDTRIP
360
1308
  0
IDBUFFER
  5
12A5
330
0
100
AcDbIdBuffer
330
12FA
330
12FD
330
12FE
330
D66
330
D67
330
D68
330
D69
330
D6A
330
D6B
330
D6C
330
D6D
330
D6E
330
D6F
330
D70
330
D71
330
D72
330
D73
330
D74
330
D75
330
D76
330
D77
330
D78
330
D79
330
D7A
330
D7B
330
D7C
330
D7D
330
D7E
330
D7F
330
D80
330
D81
330
D82
330
D83
330
D84
330
D85
330
D86
330
D87
330
D88
330
D89
330
D8A
330
D8B
330
D8C
330
D8D
330
D8E
330
D8F
330
D90
330
D91
330
D92
330
D93
330
D94
330
F4E
330
F4F
330
FD2
330
FD3
330
FD5
330
FD6
330
FD7
330
FD8
330
FD9
330
FDA
330
FDB
330
FDC
330
FDD
330
FDE
330
FDF
330
FE0
330
FE1
330
FE2
330
FE3
330
FE4
330
FE5
330
FE6
330
FE7
330
FEB
330
FEC
330
FED
330
FEE
330
FEF
330
FF0
330
FF1
330
FF2
330
12F9
  0
IDBUFFER
  5
12A6
330
0
100
AcDbIdBuffer
  0
IDBUFFER
  5
12A7
330
0
100
AcDbIdBuffer
330
F05
330
F06
330
F07
330
F08
330
F09
330
F0A
330
F0B
330
F0C
330
F0D
330
F0E
330
F0F
330
F10
330
F11
330
F12
330
F13
330
F14
330
F15
330
F16
330
F17
330
F18
330
F19
330
F1A
330
F1B
330
F1C
330
F1D
330
F1E
330
F1F
330
F20
330
F21
330
F22
330
F23
330
F24
330
10D2
330
10D5
330
1140
330
1141
330
1143
330
1144
330
1146
330
1147
  0
IDBUFFER
  5
12A8
330
0
100
AcDbIdBuffer
330
D95
330
D96
330
D97
330
D98
330
D99
330
D9A
330
D9B
330
D9C
330
D9D
330
D9E
330
D9F
330
DA0
330
DA1
330
DA2
330
DA3
330
DA4
330
DA5
330
DA6
330
DA7
330
DA8
330
DA9
330
DAA
330
DAB
330
DAC
330
DAD
330
DAE
330
DAF
330
DB0
330
DB1
330
DB2
330
DB3
330
DB4
330
DB5
330
DB6
330
DB7
330
DB8
330
DB9
330
DBA
330
DBB
330
DBC
330
DBD
330
DBE
330
DBF
330
DC0
330
DC1
330
DC2
330
DC3
330
DC4
330
DC5
330
DC6
330
DC7
330
DC8
330
DC9
330
DCA
330
DCB
330
DCC
330
DCD
330
DCE
330
DCF
330
DD0
330
DD1
330
DD2
330
DD3
330
DD4
330
DD5
330
DD6
330
DD7
330
DD8
330
DD9
330
DDA
330
DDB
330
DDC
330
DDD
330
DDE
330
DDF
330
DE0
330
DE1
330
DE2
330
DE3
330
DE4
330
DE5
330
DE6
330
DE7
330
DE8
330
DE9
330
DEA
330
DEB
330
DEC
330
DED
330
DEE
330
DEF
330
DF0
330
DF1
330
DF2
330
DF3
330
DF4
330
DF5
330
DF6
330
DF7
330
DF8
330
DF9
330
DFA
330
DFB
330
DFC
330
DFD
330
DFE
330
DFF
330
E00
330
E01
330
E02
330
E03
330
E05
330
E06
330
E07
330
E08
330
E09
330
E0A
330
E0B
330
E0C
330
E0D
330
E0E
330
E0F
330
E10
330
E11
330
E14
330
E15
330
E16
330
E17
330
E18
330
E19
330
E1A
330
E1B
330
E1C
330
E1D
330
E1E
330
E1F
330
E20
330
E21
330
E22
330
E23
330
E24
330
E25
330
E26
330
E27
330
E28
330
E29
330
E2A
330
E2B
330
E2C
330
E2D
330
E2E
330
E2F
330
E30
330
E31
330
E32
330
E33
330
E34
330
E35
330
E36
330
E37
330
E38
330
E39
330
E3A
330
E3B
330
E3C
330
E3D
330
E3E
330
E3F
330
E40
330
E41
330
E42
330
E43
330
E44
330
E45
330
E46
330
E47
330
E48
330
E49
330
E4A
330
E4B
330
E4C
330
E4D
330
E4E
330
E4F
330
E50
330
E51
330
E52
330
E53
330
E54
330
E55
330
E56
330
E57
330
E58
330
E59
330
E5A
330
E5B
330
E5C
330
E5D
330
E5E
330
E5F
330
E60
330
E61
330
E62
330
E63
330
E64
330
E65
330
E66
330
E67
330
E68
330
E69
330
E6A
330
E6B
330
E6C
330
E6D
330
E6E
330
E6F
330
E70
330
E71
330
E72
330
E73
330
E74
330
E75
330
E76
330
E77
330
E78
330
E79
330
E7A
330
E7B
330
E7C
330
E7D
330
E7E
330
E7F
330
E80
330
E81
330
E82
330
E83
330
E84
330
E85
330
E86
330
E87
330
E88
330
E89
330
E8A
330
E8B
330
E8C
330
E8D
330
E8E
330
E8F
330
E90
330
E91
330
E92
330
E93
330
E94
330
E95
330
E96
330
E97
330
E98
330
E99
330
E9A
330
E9B
330
E9C
330
E9D
330
E9E
330
E9F
330
EA0
330
EA1
330
EA2
330
EA3
330
EA4
330
EA5
330
EA6
330
EA7
330
EA8
330
EA9
330
EAA
330
EAB
330
EAC
330
EAD
330
EAE
330
EAF
330
EB0
330
EB1
330
EB2
330
EB3
330
EB4
330
EB5
330
EB6
330
EB7
330
EB8
330
EB9
330
EBA
330
EBB
330
EBC
330
EBD
330
EBE
330
EBF
330
EC0
330
EC1
330
EC2
330
EC3
330
EC4
330
EC5
330
EC6
330
EC7
330
EC8
330
EC9
330
ECA
330
ECB
330
ECC
330
ECD
330
ECE
330
ECF
330
ED0
330
ED1
330
ED2
330
ED3
330
ED4
330
ED5
330
ED6
330
ED7
330
ED8
330
ED9
330
EDA
330
EDB
330
EDC
330
EDD
330
EDE
330
EDF
330
EE0
330
EE1
330
EE2
330
EE3
330
EE4
330
EE5
330
EE6
330
EE7
330
EE8
330
EE9
330
EEA
330
EEB
330
EEC
330
EED
330
EEE
330
EEF
330
EF0
330
EF1
330
EF2
330
EF3
330
EF4
330
EF5
330
EF6
330
EF7
330
EF8
330
EF9
330
EFA
330
EFB
330
EFC
330
EFD
330
EFE
330
EFF
330
F00
330
F01
330
F02
330
F03
330
F04
  0
IDBUFFER
  5
12A9
330
0
100
AcDbIdBuffer
330
F31
330
F34
330
F37
330
F3A
330
F3D
330
F40
330
F44
330
F45
330
F48
330
F4B
330
1071
330
1084
330
1085
  0
IDBUFFER
  5
12AA
330
0
100
AcDbIdBuffer
330
F51
330
F52
330
F53
330
F54
330
F55
330
F56
330
F57
330
F58
330
F59
330
F5A
330
F5B
330
F5C
330
F5D
330
F5E
330
F5F
330
F60
330
F61
330
F62
330
F63
330
F64
330
F65
330
F66
330
F6A
330
F6E
330
F6F
330
F73
330
F74
330
F75
330
F76
330
F77
330
F78
330
F79
330
F7A
330
F7E
330
F82
330
F86
330
F87
330
F88
330
F8C
330
F8D
330
F8E
330
F8F
330
F90
330
F91
330
F92
330
F93
330
F94
330
F95
330
F96
330
F97
330
F98
330
F99
330
F9A
330
F9B
330
F9C
330
F9D
330
F9E
330
F9F
330
FA0
330
FA1
330
FA2
330
FA3
330
FA4
330
FA5
330
FA6
330
FA7
330
FA8
330
FA9
330
FAA
330
FAB
330
FAC
330
FAD
330
FAE
330
FAF
330
FB0
330
FB1
330
FB2
330
FB3
330
FB4
330
FB5
330
FB6
330
FB7
330
FB8
330
FB9
330
FBA
330
FBB
330
FBC
330
FBD
330
FBE
330
FBF
330
FC0
330
FC1
330
FC2
330
FC3
330
FC4
330
FC5
330
FC6
330
FC7
330
FC8
330
FC9
330
FCA
330
FCB
330
FCC
330
FCD
330
FCE
330
FCF
330
FD0
330
FD1
  0
IDBUFFER
  5
12AB
330
0
100
AcDbIdBuffer
330
12CB
330
F50
  0
IDBUFFER
  5
12AC
330
0
100
AcDbIdBuffer
330
113F
330
1142
330
1145
  0
XRECORD
  5
1306
102
{ACAD_REACTORS
330
1305
102
}
330
1305
100
AcDbXrecord
280
     1
102
SHADEPLOT
 70
     0
102
SHADEPLOTRESLEVEL
 70
     2
102
SHADEPLOTCUSTOMDPI
 70
   300
  0
XRECORD
  5
1304
102
{ACAD_REACTORS
330
1303
102
}
330
1303
100
AcDbXrecord
280
     1
102
SHADEPLOT
 70
     0
102
SHADEPLOTRESLEVEL
 70
     2
102
SHADEPLOTCUSTOMDPI
 70
   300
  0
XRECORD
  5
1308
102
{ACAD_REACTORS
330
1307
102
}
330
1307
100
AcDbXrecord
280
     1
102
SHADEPLOT
 70
     0
102
SHADEPLOTRESLEVEL
 70
     2
102
SHADEPLOTCUSTOMDPI
 70
   300
  0
ENDSEC
  0
EOF
