  0
SECTION
  2
HEADER
  9
$ACADVER
  1
AC1015
  9
$ACADMAINTVER
 70
    20
  9
$DWGCODEPAGE
  3
ANSI_950
  9
$INSBASE
 10
0.0
 20
0.0
 30
0.0
  9
$EXTMIN
 10
130.339966949937
 20
66.94917374307897
 30
-0.0039238981191261
  9
$EXTMAX
 10
389.5074472314531
 20
260.2103583146938
 30
157.2716711866602
  9
$LIMMIN
 10
0.0
 20
0.0
  9
$LIMMAX
 10
420.0
 20
297.0
  9
$ORTHOMODE
 70
     1
  9
$REGENMODE
 70
     1
  9
$FILLMODE
 70
     1
  9
$QTEXTMODE
 70
     0
  9
$MIRRTEXT
 70
     1
  9
$LTSCALE
 40
1.0
  9
$ATTMODE
 70
     1
  9
$TEXTSIZE
 40
3.0
  9
$TRACEWID
 40
1.0
  9
$TEXTSTYLE
  7
STANDARD
  9
$CLAYER
  8
0
  9
$CELTYPE
  6
ByLayer
  9
$CECOLOR
 62
   256
  9
$CELTSCALE
 40
1.0
  9
$DISPSILH
 70
     0
  9
$DIMSCALE
 40
1.0
  9
$DIMASZ
 40
3.0
  9
$DIMEXO
 40
1.0
  9
$DIMDLI
 40
8.0
  9
$DIMRND
 40
0.0
  9
$DIMDLE
 40
0.0
  9
$DIMEXE
 40
1.5
  9
$DIMTP
 40
0.1
  9
$DIMTM
 40
0.1
  9
$DIMTXT
 40
3.5
  9
$DIMCEN
 40
0.0
  9
$DIMTSZ
 40
0.0
  9
$DIMTOL
 70
     0
  9
$DIMLIM
 70
     0
  9
$DIMTIH
 70
     0
  9
$DIMTOH
 70
     0
  9
$DIMSE1
 70
     0
  9
$DIMSE2
 70
     0
  9
$DIMTAD
 70
     1
  9
$DIMZIN
 70
     8
  9
$DIMBLK
  1

  9
$DIMASO
 70
     1
  9
$DIMSHO
 70
     1
  9
$DIMPOST
  1

  9
$DIMAPOST
  1
"
  9
$DIMALT
 70
     0
  9
$DIMALTD
 70
     2
  9
$DIMALTF
 40
0.0393701
  9
$DIMLFAC
 40
1.0
  9
$DIMTOFL
 70
     1
  9
$DIMTVP
 40
0.0
  9
$DIMTIX
 70
     0
  9
$DIMSOXD
 70
     0
  9
$DIMSAH
 70
     0
  9
$DIMBLK1
  1

  9
$DIMBLK2
  1

  9
$DIMSTYLE
  2
AM_ISO
  9
$DIMCLRD
 70
   256
  9
$DIMCLRE
 70
   256
  9
$DIMCLRT
 70
   256
  9
$DIMTFAC
 40
0.6
  9
$DIMGAP
 40
0.7
  9
$DIMJUST
 70
     0
  9
$DIMSD1
 70
     0
  9
$DIMSD2
 70
     0
  9
$DIMTOLJ
 70
     0
  9
$DIMTZIN
 70
     8
  9
$DIMALTZ
 70
     0
  9
$DIMALTTZ
 70
     0
  9
$DIMUPT
 70
     0
  9
$DIMDEC
 70
     2
  9
$DIMTDEC
 70
     8
  9
$DIMALTU
 70
     2
  9
$DIMALTTD
 70
     2
  9
$DIMTXSTY
  7
STANDARD
  9
$DIMAUNIT
 70
     0
  9
$DIMADEC
 70
     0
  9
$DIMALTRND
 40
0.0
  9
$DIMAZIN
 70
     2
  9
$DIMDSEP
 70
    46
  9
$DIMATFIT
 70
     3
  9
$DIMFRAC
 70
     0
  9
$DIMLDRBLK
  1

  9
$DIMLUNIT
 70
     2
  9
$DIMLWD
 70
    -1
  9
$DIMLWE
 70
    -1
  9
$DIMTMOVE
 70
     0
  9
$LUNITS
 70
     2
  9
$LUPREC
 70
     2
  9
$SKETCHINC
 40
1.0
  9
$FILLETRAD
 40
2.5
  9
$AUNITS
 70
     0
  9
$AUPREC
 70
     0
  9
$MENU
  1
.
  9
$ELEVATION
 40
0.0
  9
$PELEVATION
 40
0.0
  9
$THICKNESS
 40
0.0
  9
$LIMCHECK
 70
     0
  9
$CHAMFERA
 40
2.5
  9
$CHAMFERB
 40
2.5
  9
$CHAMFERC
 40
20.0
  9
$CHAMFERD
 40
0.0
  9
$SKPOLY
 70
     0
  9
$TDCREATE
 40
2454188.339225614
  9
$TDUCREATE
 40
2454188.005892280
  9
$TDUPDATE
 40
2454188.417510486
  9
$TDUUPDATE
 40
2454188.084177153
  9
$TDINDWG
 40
0.0522399537
  9
$TDUSRTIMER
 40
0.0522399537
  9
$USRTIMER
 70
     1
  9
$ANGBASE
 50
0.0
  9
$ANGDIR
 70
     0
  9
$PDMODE
 70
     0
  9
$PDSIZE
 40
0.0
  9
$PLINEWID
 40
0.0
  9
$SPLFRAME
 70
     0
  9
$SPLINETYPE
 70
     6
  9
$SPLINESEGS
 70
     8
  9
$HANDSEED
  5
1299
  9
$SURFTAB1
 70
     6
  9
$SURFTAB2
 70
     6
  9
$SURFTYPE
 70
     6
  9
$SURFU
 70
     6
  9
$SURFV
 70
     6
  9
$UCSBASE
  2

  9
$UCSNAME
  2

  9
$UCSORG
 10
0.0
 20
0.0
 30
0.0
  9
$UCSXDIR
 10
1.0
 20
0.0
 30
0.0
  9
$UCSYDIR
 10
0.0
 20
1.0
 30
0.0
  9
$UCSORTHOREF
  2

  9
$UCSORTHOVIEW
 70
     0
  9
$UCSORGTOP
 10
0.0
 20
0.0
 30
0.0
  9
$UCSORGBOTTOM
 10
0.0
 20
0.0
 30
0.0
  9
$UCSORGLEFT
 10
0.0
 20
0.0
 30
0.0
  9
$UCSORGRIGHT
 10
0.0
 20
0.0
 30
0.0
  9
$UCSORGFRONT
 10
0.0
 20
0.0
 30
0.0
  9
$UCSORGBACK
 10
0.0
 20
0.0
 30
0.0
  9
$PUCSBASE
  2

  9
$PUCSNAME
  2

  9
$PUCSORG
 10
0.0
 20
0.0
 30
0.0
  9
$PUCSXDIR
 10
1.0
 20
0.0
 30
0.0
  9
$PUCSYDIR
 10
0.0
 20
1.0
 30
0.0
  9
$PUCSORTHOREF
  2

  9
$PUCSORTHOVIEW
 70
     0
  9
$PUCSORGTOP
 10
0.0
 20
0.0
 30
0.0
  9
$PUCSORGBOTTOM
 10
0.0
 20
0.0
 30
0.0
  9
$PUCSORGLEFT
 10
0.0
 20
0.0
 30
0.0
  9
$PUCSORGRIGHT
 10
0.0
 20
0.0
 30
0.0
  9
$PUCSORGFRONT
 10
0.0
 20
0.0
 30
0.0
  9
$PUCSORGBACK
 10
0.0
 20
0.0
 30
0.0
  9
$USERI1
 70
     0
  9
$USERI2
 70
     0
  9
$USERI3
 70
     0
  9
$USERI4
 70
     0
  9
$USERI5
 70
     0
  9
$USERR1
 40
0.0
  9
$USERR2
 40
0.0
  9
$USERR3
 40
0.0
  9
$USERR4
 40
0.0
  9
$USERR5
 40
0.0
  9
$WORLDVIEW
 70
     1
  9
$SHADEDGE
 70
     3
  9
$SHADEDIF
 70
    70
  9
$TILEMODE
 70
     1
  9
$MAXACTVP
 70
    64
  9
$PINSBASE
 10
0.0
 20
0.0
 30
0.0
  9
$PLIMCHECK
 70
     0
  9
$PEXTMIN
 10
1.000000000000000E+20
 20
1.000000000000000E+20
 30
1.000000000000000E+20
  9
$PEXTMAX
 10
-1.000000000000000E+20
 20
-1.000000000000000E+20
 30
-1.000000000000000E+20
  9
$PLIMMIN
 10
0.0
 20
0.0
  9
$PLIMMAX
 10
420.0
 20
297.0
  9
$UNITMODE
 70
     0
  9
$VISRETAIN
 70
     1
  9
$PLINEGEN
 70
     0
  9
$PSLTSCALE
 70
     1
  9
$TREEDEPTH
 70
  3020
  9
$CMLSTYLE
  2
Standard
  9
$CMLJUST
 70
     0
  9
$CMLSCALE
 40
20.0
  9
$PROXYGRAPHICS
 70
     1
  9
$MEASUREMENT
 70
     1
  9
$CELWEIGHT
370
    -1
  9
$ENDCAPS
280
     0
  9
$JOINSTYLE
280
     0
  9
$LWDISPLAY
290
     0
  9
$INSUNITS
 70
     4
  9
$HYPERLINKBASE
  1

  9
$STYLESHEET
  1
彩色出圖.ctb
  9
$XEDIT
290
     1
  9
$CEPSNTYPE
380
     0
  9
$PSTYLEMODE
290
     1
  9
$FINGERPRINTGUID
  2
{A05341BE-50C2-4D4D-A352-865525512463}
  9
$VERSIONGUID
  2
{7EB27F83-3506-4E69-94B7-FEE75A789CDD}
  9
$EXTNAMES
290
     1
  9
$PSVPSCALE
 40
0.0
  9
$OLESTARTUP
290
     0
  0
ENDSEC
  0
SECTION
  2
CLASSES
  0
CLASS
  1
ACDBDICTIONARYWDFLT
  2
AcDbDictionaryWithDefault
  3
ObjectDBX Classes
 90
        0
280
     0
281
     0
  0
CLASS
  1
ACDBPLACEHOLDER
  2
AcDbPlaceHolder
  3
ObjectDBX Classes
 90
        0
280
     0
281
     0
  0
CLASS
  1
LAYOUT
  2
AcDbLayout
  3
ObjectDBX Classes
 90
        0
280
     0
281
     0
  0
CLASS
  1
ACME_DOCUMENT
  2
AcMeDbDoc
  3
AcMeServices
 90
        0
280
     0
281
     0
  0
CLASS
  1
AMGSETTINGSOBJ
  2
AmgSettingsObj
  3
"AcadM|Product Description: AutoCAD Mechanical 2000|Company: Autodesk"
 90
        0
280
     0
281
     0
  0
CLASS
  1
ACMESCOPE
  2
AcMeScope
  3
AcMeServices
 90
        0
280
     0
281
     0
  0
CLASS
  1
ACMECOMMANDHISTORY
  2
AcMeCommandHistory
  3
AcMeServices
 90
        0
280
     0
281
     0
  0
CLASS
  1
ACIMSYSVARMAN
  2
AcImSysVarManager
  3
AcMeServices
 90
        0
280
     0
281
     0
  0
CLASS
  1
ACIMREALSYSVAR
  2
AcImRealSysVar
  3
AcMeServices
 90
        0
280
     0
281
     0
  0
CLASS
  1
ACIMINTSYSVAR
  2
AcImIntSysVar
  3
AcMeServices
 90
        0
280
     0
281
     0
  0
CLASS
  1
ACMEDRAWINGMAN
  2
AcMeDrawingMan
  3
AcMeServices
 90
        0
280
     0
281
     0
  0
CLASS
  1
ACMEVIEW
  2
AcMeView
  3
AcMeServices
 90
        0
280
     0
281
     0
  0
CLASS
  1
ACDBENTITYCACHE
  2
AcMeEntityCache
  3
AcMeServices
 90
        0
280
     0
281
     0
  0
CLASS
  1
GSMANAGER
  2
AcMeGSManager
  3
AcMeServices
 90
        0
280
     0
281
     0
  0
CLASS
  1
AMDTINTERNALREACTOR
  2
AmdtInternalReactor
  3
AcMeServices
 90
        0
280
     0
281
     0
  0
CLASS
  1
ACMESTATEMGR
  2
AcMeStateMgr
  3
AcMeServices
 90
        0
280
     0
281
     0
  0
CLASS
  1
ACGREFMASTER
  2
AcGrefMaster
  3
AcAttribServices
 90
        0
280
     0
281
     0
  0
CLASS
  1
ACME_DATABASE
  2
AcMeDbDatabase
  3
AcMeServices
 90
        0
280
     0
281
     0
  0
CLASS
  1
ACRFINSADJUSTERMGR
  2
AcRfInsAdjusterMgr
  3
AcMeServices
 90
        0
280
     0
281
     0
  0
CLASS
  1
ACGREFACADMASTER
  2
AcGrefacadMaster
  3
AcGrefServices
 90
        0
280
     0
281
     0
  0
CLASS
  1
AMIMASTER
  2
AmiMaster
  3
AmiServices
 90
        0
280
     0
281
     0
  0
CLASS
  1
ACMDATADICTIONARY
  2
AcmDataDictionary
  3
"AcmSymBB|Product Description: AutoCAD Mechanical 2004 DX|Company: Autodesk"
 90
        0
280
     0
281
     0
  0
CLASS
  1
ACMDATAENTRYBLOCK
  2
AcmDataEntryBlock
  3
"AcmSymBB|Product Description: AutoCAD Mechanical 2004 DX|Company: Autodesk"
 90
        0
280
     0
281
     0
  0
CLASS
  1
ACIMSTRSYSVAR
  2
AcImStrSysVar
  3
AcMeServices
 90
        0
280
     0
281
     0
  0
CLASS
  1
ACMSTANDARDISO
  2
AcmStandardISO
  3
"Amdt_StdImp|Product Description: AutoCAD Mechanical 2004 DX|Company: Autodesk"
 90
        0
280
     0
281
     0
  0
CLASS
  1
AMGOBJPROPCFG
  2
AmgObjPropCfg
  3
"AmgLay|Product Description: AutoCAD Mechanical 2000|Company: Autodesk"
 90
        1
280
     0
281
     0
  0
CLASS
  1
AMDTEDGESTANDARDISO
  2
AmdtEdgeStdISO
  3
"Amdt_StdImp|Product Description: AutoCAD Mechanical 2004 DX|Company: Autodesk"
 90
        0
280
     0
281
     0
  0
CLASS
  1
ACMSURFSTANDARDISO
  2
AcmSurfTextStdISO
  3
"Amdt_StdImp|Product Description: AutoCAD Mechanical 2004 DX|Company: Autodesk"
 90
        0
280
     0
281
     0
  0
CLASS
  1
ACMFCFSTANDARDISO
  2
AcmFCFStdISO
  3
"Amdt_StdImp|Product Description: AutoCAD Mechanical 2004 DX|Company: Autodesk"
 90
        0
280
     0
281
     0
  0
CLASS
  1
ACMWELDSTANDARDISO
  2
AcmWeldingStdISO
  3
"Amdt_StdImp|Product Description: AutoCAD Mechanical 2004 DX|Company: Autodesk"
 90
        0
280
     0
281
     0
  0
CLASS
  1
ACMIDSTANDARDISO
  2
AcmIdStdISO
  3
"Amdt_StdImp|Product Description: AutoCAD Mechanical 2004 DX|Company: Autodesk"
 90
        0
280
     0
281
     0
  0
CLASS
  1
ACMDATUMSTANDARDISO
  2
AcmDatumStdISO
  3
"Amdt_StdImp|Product Description: AutoCAD Mechanical 2004 DX|Company: Autodesk"
 90
        0
280
     0
281
     0
  0
CLASS
  1
ACMBOMSTANDARDISO
  2
AcmBOMStdISO
  3
"Amdt_StdImp|Product Description: AutoCAD Mechanical 2004 DX|Company: Autodesk"
 90
        0
280
     0
281
     0
  0
CLASS
  1
ACMDETAILSTANDARDISO
  2
AmdtDetailSymStdISO
  3
"Amdt_StdImp|Product Description: AutoCAD Mechanical 2004 DX|Company: Autodesk"
 90
        0
280
     0
281
     0
  0
CLASS
  1
ACMSECTIONSTANDARDISO
  2
AmdtSectionSymStdISO
  3
"Amdt_StdImp|Product Description: AutoCAD Mechanical 2004 DX|Company: Autodesk"
 90
        0
280
     0
281
     0
  0
CLASS
  1
ACMCENTERLINESTANDARDISO
  2
AmdtCenterLineStdISO
  3
"Amdt_StdImp|Product Description: AutoCAD Mechanical 2004 DX|Company: Autodesk"
 90
        0
280
     0
281
     0
  0
CLASS
  1
ACMNOTESTANDARDISO
  2
AmdtNoteStdISO
  3
"Amdt_StdImp|Product Description: AutoCAD Mechanical 2004 DX|Company: Autodesk"
 90
        0
280
     0
281
     0
  0
CLASS
  1
ACAMGLAYSTD
  2
AcAmgLayStd
  3
"AcAmgLayStd|Product Description: AutoCAD Mechanical 2000|Company: Autodesk"
 90
        0
280
     0
281
     0
  0
CLASS
  1
ACAMGDIMSTD
  2
AcAmgDimStd
  3
"AcAmgDimStd|Product Description: AutoCAD Mechanical 2000|Company: Autodesk"
 90
        0
280
     0
281
     0
  0
CLASS
  1
ACAMGHOLECHARTSTDISO
  2
AcAmgHoleChartStdISO
  3
ACMSYMBB_MODULE_NAME
 90
        0
280
     0
281
     0
  0
CLASS
  1
ACAMGTITLESTD
  2
AcAmgTitleStd
  3
"TITLEAPP"
 90
        0
280
     0
281
     0
  0
CLASS
  1
LAYER_INDEX
  2
AcDbLayerIndex
  3
ObjectDBX Classes
 90
    32768
280
     0
281
     0
  0
CLASS
  1
IDBUFFER
  2
AcDbIdBuffer
  3
ObjectDBX Classes
 90
    32768
280
     0
281
     0
  0
CLASS
  1
DICTIONARYVAR
  2
AcDbDictionaryVar
  3
ObjectDBX Classes
 90
        0
280
     0
281
     0
  0
CLASS
  1
AM_DRAWING_MGR
  2
AcDmDwgMgr
  3
AcMechDwgViewMgmt
 90
        0
280
     0
281
     0
  0
CLASS
  1
AM_DWG_DOCUMENT
  2
AcDmDwgDocument
  3
AcMechDwgViewMgmt
 90
        0
280
     0
281
     0
  0
CLASS
  1
AM_DWG_SHEET
  2
AcDmSheet
  3
AcMechDwgViewMgmt
 90
        0
280
     0
281
     0
  0
CLASS
  1
AM_VIEWDIMPARMAP
  2
AcDmViewDimParMap
  3
AcMechDwgViewMgmt
 90
        0
280
     0
281
     0
  0
CLASS
  1
AM_DWGMGR_NAME
  2
AcDmDwgMgrName
  3
AcMechDwgViewMgmt
 90
        0
280
     0
281
     0
  0
CLASS
  1
AMDTMENUSTATEMGR
  2
AmdtMenuStateMgr
  3
McadcomServices
 90
        0
280
     0
281
     0
  0
CLASS
  1
AMDTMCOMMENUSTATE
  2
AmdtMcomMenuState
  3
McadcomServices
 90
        0
280
     0
281
     0
  0
CLASS
  1
MAPIAMMOUDLE
  2
MApiAmModule
  3
MApiAmServices
 90
        0
280
     0
281
     0
  0
CLASS
  1
AMDTADMENUSTATE
  2
AmdtAdMenuState
  3
DesignerServices
 90
        0
280
     0
281
     0
  0
CLASS
  1
ADAPPL
  2
AcAdAppl
  3
DesignerServices
 90
        0
280
     0
281
     0
  0
CLASS
  1
DEPMGR
  2
AcAdDepMgr
  3
DesignerServices
 90
        0
280
     0
281
     0
  0
CLASS
  1
PARAMMGR
  2
AcAdParamMgr
  3
DesignerServices
 90
        0
280
     0
281
     0
  0
CLASS
  1
PARAMSCOPE
  2
AcAdParamScope
  3
DesignerServices
 90
        0
280
     0
281
     0
  0
CLASS
  1
NAMEDAPPL
  2
AcAdNamedAppl
  3
DesignerServices
 90
        0
280
     0
281
     0
  0
CLASS
  1
AMDTDMMENUSTATE
  2
AmdtDmMenuState
  3
AcMechDwgViewMgmt
 90
        0
280
     0
281
     0
  0
CLASS
  1
AMDTAMMENUSTATE
  2
AmdtAmMenuState
  3
DesignerAssemblies
 90
        0
280
     0
281
     0
  0
CLASS
  1
ACAMPROJECT
  2
AcAmProject
  3
DesignerAssemblies
 90
        0
280
     0
281
     0
  0
CLASS
  1
ACAMGRCOMPDEF
  2
AcAmGrCompDef
  3
DesignerAssemblies
 90
        0
280
     0
281
     0
  0
CLASS
  1
ACCMCONTEXT
  2
AcCmContext
  3
DesignerAssemblies
 90
        0
280
     0
281
     0
  0
CLASS
  1
ACAMCOMPDEF
  2
AcAmCompDef
  3
DesignerAssemblies
 90
        0
280
     0
281
     0
  0
CLASS
  1
ACAMCOMPDEFMGR
  2
AcAmCompDefMgr
  3
DesignerAssemblies
 90
        0
280
     0
281
     0
  0
CLASS
  1
AMCONTEXTMGR
  2
AcAmContextMgr
  3
DesignerAssemblies
 90
        0
280
     0
281
     0
  0
CLASS
  1
ACAMCONTEXTMODELER
  2
AcAmContextModeler
  3
DesignerAssemblies
 90
        0
280
     0
281
     0
  0
CLASS
  1
ACMTHREADLINESTANDARDISO
  2
AmdtThreadLineStdISO
  3
"Amdt_StdImp|Product Description: AutoCAD Mechanical 2004 DX|Company: Autodesk"
 90
        0
280
     0
281
     0
  0
CLASS
  1
CATALOGSTATE
  2
AcAmCatalogState
  3
DesignerAssemblies
 90
        0
280
     0
281
     0
  0
CLASS
  1
ACAMGRCOMPDEFSET
  2
AcAmGrCompDefSet
  3
DesignerAssemblies
 90
        0
280
     0
281
     0
  0
CLASS
  1
AMDTBROWSERDBTAB
  2
AmdtBrowserDbTab
  3
McadcomServices
 90
        0
280
     0
281
     0
  0
CLASS
  1
CBROWSERAPPOBJECT
  2
CBrowserAppObject
  3
McadcomServices
 90
        0
280
     0
281
     0
  0
CLASS
  1
DM_PLACEHOLDER
  2
AcDmSelsetPlaceholder
  3
AcMechDwgViewMgmt
 90
        0
280
     0
281
     0
  0
CLASS
  1
TABLESTYLE
  2
AcDbTableStyle
  3
ObjectDBX Classes
 90
     2047
280
     0
281
     0
  0
CLASS
  1
VAACXREFPANELOBJECT
  2
VaAcXREFPanelObject
  3
VAAC_ADDIN
 90
    32768
280
     0
281
     0
  0
CLASS
  1
VAACIMAGEINVENTORY
  2
VaAcImageInventory
  3
VAAC_ADDIN
 90
    32768
280
     0
281
     0
  0
CLASS
  1
AMDTNOTETEMPLATEDB
  2
AmdtNoteTemplateDB
  3
AMDT_STDIMP_MODULE_NAME
 90
        0
280
     0
281
     0
  0
CLASS
  1
ACMBOM
  2
AcmBom
  3
"AcmSymBB|Product Description: AutoCAD Mechanical 2004 DX|Company: Autodesk"
 90
    32768
280
     0
281
     0
  0
CLASS
  1
AMDTFORMULAUPDATEDISPATCHER
  2
AmdtFormulaUpdateDispatcher
  3
AcMeServices
 90
    32768
280
     0
281
     0
  0
CLASS
  1
ACMPARTLIST
  2
AcmPartList
  3
"AcmSymBB|Product Description: AutoCAD Mechanical 2004 DX|Company: Autodesk"
 90
    33791
280
     0
281
     1
  0
CLASS
  1
ACAMGFILTERDAT
  2
AcAmgFilterDat
  3
"AcadM|Product Description: AutoCAD Mechanical 2000|Company: Autodesk"
 90
        0
280
     0
281
     0
  0
CLASS
  1
DIMASSOC
  2
AcDbDimAssoc
  3
"AcDbDimAssoc|Product Desc:     AcDim ARX App For Dimension|Company:          Autodesk, Inc.|WEB Address:      www.autodesk.com"
 90
        0
280
     0
281
     0
  0
CLASS
  1
AMDTNOTE
  2
AmdtNote
  3
"AcmSymBB|Product Description: AutoCAD Mechanical 2004 DX|Company: Autodesk"
 90
    33791
280
     0
281
     1
  0
CLASS
  1
SORTENTSTABLE
  2
AcDbSortentsTable
  3
ObjectDBX Classes
 90
    32768
280
     0
281
     0
  0
CLASS
  1
ACRFATTGENMGR
  2
AcRfAttGeneralMgr
  3
AcAttribServices
 90
        0
280
     0
281
     0
  0
ENDSEC
  0
SECTION
  2
TABLES
  0
TABLE
  2
VPORT
  5
8
330
0
100
AcDbSymbolTable
 70
     3
  0
VPORT
  5
1290
330
8
100
AcDbSymbolTableRecord
100
AcDbViewportTableRecord
  2
*Active
 70
     0
 10
0.0
 20
0.0
 11
1.0
 21
1.0
 12
259.923707090695
 22
163.5797660288864
 13
0.0
 23
0.0
 14
2.5
 24
2.5
 15
10.0
 25
10.0
 16
0.0
 26
0.0
 36
1.0
 17
0.0
 27
0.0
 37
0.0
 40
194.9369680255478
 41
1.661684782608695
 42
50.0
 43
0.0
 44
0.0
 50
0.0
 51
0.0
 71
     0
 72
   100
 73
     1
 74
     3
 75
     0
 76
     0
 77
     0
 78
     0
281
     0
 65
     1
110
0.0
120
0.0
130
0.0
111
1.0
121
0.0
131
0.0
112
0.0
122
1.0
132
0.0
 79
     0
146
0.0
  0
ENDTAB
  0
TABLE
  2
LTYPE
  5
5
330
0
100
AcDbSymbolTable
 70
    14
  0
LTYPE
  5
14
330
5
100
AcDbSymbolTableRecord
100
AcDbLinetypeTableRecord
  2
ByBlock
 70
     0
  3

 72
    65
 73
     0
 40
0.0
  0
LTYPE
  5
15
330
5
100
AcDbSymbolTableRecord
100
AcDbLinetypeTableRecord
  2
ByLayer
 70
     0
  3

 72
    65
 73
     0
 40
0.0
  0
LTYPE
  5
16
330
5
100
AcDbSymbolTableRecord
100
AcDbLinetypeTableRecord
  2
Continuous
 70
     0
  3
Solid line
 72
    65
 73
     0
 40
0.0
  0
LTYPE
  5
64
330
5
100
AcDbSymbolTableRecord
100
AcDbLinetypeTableRecord
  2
AM_ISO02W050
 70
     0
  3
__ __ __ __ __ __ __ __ __ __ __ __ __ __ __
 72
    65
 73
     2
 40
7.5
 49
6.0
 74
     0
 49
-1.5
 74
     0
  0
LTYPE
  5
65
330
5
100
AcDbSymbolTableRecord
100
AcDbLinetypeTableRecord
  2
AM_ISO08W050
 70
     0
  3
____ . ____ . ____ . ____ . ____ . ____ . ____
 72
    65
 73
     4
 40
18.0
 49
12.0
 74
     0
 49
-1.5
 74
     0
 49
3.0
 74
     0
 49
-1.5
 74
     0
  0
LTYPE
  5
66
330
5
100
AcDbSymbolTableRecord
100
AcDbLinetypeTableRecord
  2
AM_ISO09W050
 70
     0
  3
_____ . . _____ . . _____ . . ____ .. ____
 72
    65
 73
     6
 40
22.5
 49
12.0
 74
     0
 49
-1.5
 74
     0
 49
3.0
 74
     0
 49
-1.5
 74
     0
 49
3.0
 74
     0
 49
-1.5
 74
     0
  0
LTYPE
  5
67
330
5
100
AcDbSymbolTableRecord
100
AcDbLinetypeTableRecord
  2
Amconstr
 70
     0
  3
_______________________
 72
    65
 73
     2
 40
9999.0
 49
9999.0
 74
     0
 49
0.0
 74
     0
  0
LTYPE
  5
68
330
5
100
AcDbSymbolTableRecord
100
AcDbLinetypeTableRecord
  2
AM_ISO08W050x2
 70
     0
  3
__ . __ . __ . __ . __ . __
 72
    65
 73
     4
 40
9.0
 49
6.0
 74
     0
 49
-0.75
 74
     0
 49
1.5
 74
     0
 49
-0.75
 74
     0
  0
LTYPE
  5
69
330
5
100
AcDbSymbolTableRecord
100
AcDbLinetypeTableRecord
  2
AM_ISO02W050x2
 70
     0
  3
 _ _ _ _ _ _ _ _ _ _ _ _
 72
    65
 73
     2
 40
3.75
 49
3.0
 74
     0
 49
-0.75
 74
     0
  0
LTYPE
  5
6C
330
5
100
AcDbSymbolTableRecord
100
AcDbLinetypeTableRecord
  2
Amzigzag
 70
     0
  3
/\/-/\/-/\/-/\/-/\/-/\/
 72
    65
 73
     2
 40
11.0001
 49
0.0001
 74
     4
 75
   135
340
6B
 46
0.04
 50
0.0
 44
0.0
 45
0.0
 49
-11.0
 74
     0
  0
LTYPE
  5
7A
330
5
100
AcDbSymbolTableRecord
100
AcDbLinetypeTableRecord
  2
ACISOWELD
 70
     0
  3
_ _ _ _ _
 72
    65
 73
     2
 40
2.0
 49
2.0
 74
     0
 49
-1.0
 74
     0
  0
LTYPE
  5
7B
330
5
100
AcDbSymbolTableRecord
100
AcDbLinetypeTableRecord
  2
ACISOTGB
 70
     0
  3
__ . . __ . .
 72
    65
 73
     6
 40
9.0
 49
4.0
 74
     0
 49
-1.0
 74
     0
 49
1.0
 74
     0
 49
-1.0
 74
     0
 49
1.0
 74
     0
 49
-1.0
 74
     0
  0
LTYPE
  5
7C
330
5
100
AcDbSymbolTableRecord
100
AcDbLinetypeTableRecord
  2
ACISOTGL
 70
     0
  3
_ _ _ _ _
 72
    65
 73
     2
 40
3.0
 49
2.0
 74
     0
 49
-1.0
 74
     0
  0
LTYPE
  5
7E
330
5
100
AcDbSymbolTableRecord
100
AcDbLinetypeTableRecord
  2
CENTER
 70
     0
  3
__ . __
 72
    65
 73
     4
 40
7.0
 49
4.0
 74
     0
 49
-1.0
 74
     0
 49
1.0
 74
     0
 49
-1.0
 74
     0
  0
LTYPE
  5
D8
330
5
100
AcDbSymbolTableRecord
100
AcDbLinetypeTableRecord
  2
HIDDEN
 70
     0
  3
Hidden __ __ __ __ __ __ __ __ __ __ __ __ __ _
 72
    65
 73
     2
 40
9.524999999999998
 49
6.349999999999999
 74
     0
 49
-3.174999999999999
 74
     0
  0
LTYPE
  5
D9
330
5
100
AcDbSymbolTableRecord
100
AcDbLinetypeTableRecord
  2
PHANTOM2
 70
     0
  3
Phantom (.5x) ___ _ _ ___ _ _ ___ _ _ ___ _ _
 72
    65
 73
     6
 40
31.75
 49
15.875
 74
     0
 49
-3.174999999999999
 74
     0
 49
3.174999999999999
 74
     0
 49
-3.174999999999999
 74
     0
 49
3.174999999999999
 74
     0
 49
-3.174999999999999
 74
     0
  0
ENDTAB
  0
TABLE
  2
LAYER
  5
2
102
{ACAD_XDICTIONARY
360
3F9
102
}
330
0
100
AcDbSymbolTable
 70
     6
  0
LAYER
  5
10
330
2
100
AcDbSymbolTableRecord
100
AcDbLayerTableRecord
  2
0
 70
     0
 62
     7
  6
Continuous
370
    -3
390
F
  0
LAYER
  5
A7E
330
2
100
AcDbSymbolTableRecord
100
AcDbLayerTableRecord
  2
AM_VIS
 70
     0
 62
     7
  6
Continuous
370
    50
390
F
  0
LAYER
  5
C92
330
2
100
AcDbSymbolTableRecord
100
AcDbLayerTableRecord
  2
AM_7
 70
     0
 62
     1
  6
CENTER
370
    25
390
F
  0
LAYER
  5
DD0
330
2
100
AcDbSymbolTableRecord
100
AcDbLayerTableRecord
  2
AM_5
 70
     0
 62
     5
  6
Continuous
370
    50
390
F
  0
LAYER
  5
DE0
330
2
100
AcDbSymbolTableRecord
100
AcDbLayerTableRecord
  2
Defpoints
 70
     0
 62
     7
  6
Continuous
290
     0
370
    -3
390
F
  0
LAYER
  5
FFE
330
2
100
AcDbSymbolTableRecord
100
AcDbLayerTableRecord
  2
LOGO
 70
     0
 62
     7
  6
Continuous
370
    -3
390
F
  0
ENDTAB
  0
TABLE
  2
STYLE
  5
3
330
0
100
AcDbSymbolTable
 70
     6
  0
STYLE
  5
11
330
3
100
AcDbSymbolTableRecord
100
AcDbTextStyleTableRecord
  2
STANDARD
 70
     0
 40
0.0
 41
1.0
 50
0.0
 71
     0
 42
3.0
  3
ISOCP.SHX
  4
CHINESET.SHX
  0
STYLE
  5
6B
330
3
100
AcDbSymbolTableRecord
100
AcDbTextStyleTableRecord
  2

 70
     1
 40
0.0
 41
1.0
 50
0.0
 71
     0
 42
2.5
  3
ltypeshp.shx
  4

  0
STYLE
  5
6D
330
3
100
AcDbSymbolTableRecord
100
AcDbTextStyleTableRecord
  2
ACISOTS
 70
     0
 40
1.0
 41
1.0
 50
0.0
 71
     0
 42
1.0
  3
isocp.shx
  4
chineset.shx
  0
STYLE
  5
79
330
3
100
AcDbSymbolTableRecord
100
AcDbTextStyleTableRecord
  2
ACISOGDT
 70
     0
 40
0.0
 41
1.0
 50
0.0
 71
     0
 42
2.5
  3
amgdt.shx
  4
chineset.shx
  0
STYLE
  5
FFF
330
3
100
AcDbSymbolTableRecord
100
AcDbTextStyleTableRecord
  2
CHINESET
 70
     0
 40
0.0
 41
1.0
 50
0.0
 71
     0
 42
3.0
  3
simplex.shx
  4
CHINESET.SHX
  0
ENDTAB
  0
TABLE
  2
VIEW
  5
6
330
0
100
AcDbSymbolTable
 70
     0
  0
ENDTAB
  0
TABLE
  2
UCS
  5
7
330
0
100
AcDbSymbolTable
 70
     0
  0
ENDTAB
  0
TABLE
  2
APPID
  5
9
330
0
100
AcDbSymbolTable
 70
    18
  0
APPID
  5
12
330
9
100
AcDbSymbolTableRecord
100
AcDbRegAppTableRecord
  2
ACAD
 70
     0
  0
APPID
  5
46
330
9
100
AcDbSymbolTableRecord
100
AcDbRegAppTableRecord
  2
MCAD_NO_VIS
 70
     0
  0
APPID
  5
47
330
9
100
AcDbSymbolTableRecord
100
AcDbRegAppTableRecord
  2
ACAD_TEMP_GRAPHIC
 70
     0
  0
APPID
  5
58
330
9
100
AcDbSymbolTableRecord
100
AcDbRegAppTableRecord
  2
ACATTRIBSERVICES
 70
     0
  0
APPID
  5
EE
330
9
100
AcDbSymbolTableRecord
100
AcDbRegAppTableRecord
  2
AD_DRAW
 70
     0
  0
APPID
  5
10C
330
9
100
AcDbSymbolTableRecord
100
AcDbRegAppTableRecord
  2
DESIGNERASSEMBLIES
 70
     0
  0
APPID
  5
111
330
9
100
AcDbSymbolTableRecord
100
AcDbRegAppTableRecord
  2
ACADM_DIM_EDIT
 70
     0
  0
APPID
  5
112
330
9
100
AcDbSymbolTableRecord
100
AcDbRegAppTableRecord
  2
AMDT_DM_ADJ
 70
     0
  0
APPID
  5
22C
330
9
100
AcDbSymbolTableRecord
100
AcDbRegAppTableRecord
  2
ACAD_DSTYLE_DIMTEXT_FILL
 70
     0
  0
APPID
  5
452
330
9
100
AcDbSymbolTableRecord
100
AcDbRegAppTableRecord
  2
GENIUS_GENOENT_13
 70
     0
  0
APPID
  5
453
330
9
100
AcDbSymbolTableRecord
100
AcDbRegAppTableRecord
  2
GENIUS_GENOBJ-N-CRS_13
 70
     0
  0
APPID
  5
454
330
9
100
AcDbSymbolTableRecord
100
AcDbRegAppTableRecord
  2
GENIUS_GENOLIS_13
 70
     0
  0
APPID
  5
455
330
9
100
AcDbSymbolTableRecord
100
AcDbRegAppTableRecord
  2
GENIUS_GENODEF_13
 70
     0
  0
APPID
  5
456
330
9
100
AcDbSymbolTableRecord
100
AcDbRegAppTableRecord
  2
GENIUS_GENOREF_13
 70
     0
  0
APPID
  5
6F3
330
9
100
AcDbSymbolTableRecord
100
AcDbRegAppTableRecord
  2
ACAD_PSEXT
 70
     0
  0
APPID
  5
808
330
9
100
AcDbSymbolTableRecord
100
AcDbRegAppTableRecord
  2
GENIUS_GENDTOL_13
 70
     0
  0
APPID
  5
1000
330
9
100
AcDbSymbolTableRecord
100
AcDbRegAppTableRecord
  2
GENIUS_GENREC_14
 70
     0
  0
APPID
  5
1001
330
9
100
AcDbSymbolTableRecord
100
AcDbRegAppTableRecord
  2
GENIUS_GENOBJ-N-REC_13
 70
     0
  0
ENDTAB
  0
TABLE
  2
DIMSTYLE
  5
A
330
0
100
AcDbSymbolTable
 70
     9
100
AcDbDimStyleTable
 71
     3
340
81
340
8B
340
86
  0
DIMSTYLE
105
81
330
A
100
AcDbSymbolTableRecord
100
AcDbDimStyleTableRecord
  2
AM_ISO
 70
     0
  4
"
 41
3.0
 42
1.0
 43
8.0
 44
1.5
 47
0.1
 48
0.1
 73
     0
 74
     0
 77
     1
 78
     8
 79
     2
140
3.5
141
0.0
143
0.0393701
146
0.6
147
0.7
172
     1
176
   256
177
   256
178
   256
271
     2
272
     2
283
     0
284
     8
340
11
371
    -1
372
    -1
  0
DIMSTYLE
105
82
102
{ACAD_REACTORS
330
E4D
330
E90
102
}
330
A
100
AcDbSymbolTableRecord
100
AcDbDimStyleTableRecord
  2
AM_ISO$3
 70
     0
  4
"
 41
3.0
 42
1.0
 43
8.0
 44
1.5
 47
0.1
 48
0.1
 73
     0
 77
     1
 78
     8
 79
     2
140
3.5
141
0.0
143
0.0393701
146
0.6
147
0.7
176
   256
177
   256
178
   256
271
     2
272
     2
283
     0
284
     8
288
     1
289
     0
340
11
371
    -1
372
    -1
  0
DIMSTYLE
105
83
330
A
100
AcDbSymbolTableRecord
100
AcDbDimStyleTableRecord
  2
AM_ISO$4
 70
     0
  4
"
 41
3.0
 42
1.0
 43
8.0
 44
1.5
 47
0.1
 48
0.1
 73
     0
 77
     1
 78
     8
 79
     2
140
3.5
141
0.0
143
0.0393701
146
0.6
147
0.7
176
   256
177
   256
178
   256
271
     2
272
     2
283
     0
284
     8
288
     1
289
     0
340
11
371
    -1
372
    -1
  0
DIMSTYLE
105
84
330
A
100
AcDbSymbolTableRecord
100
AcDbDimStyleTableRecord
  2
AM_ISO$6
 70
     0
  4
"
 41
3.0
 42
1.0
 43
8.0
 44
1.5
 47
0.1
 48
0.1
 73
     0
 74
     0
 78
     8
 79
     2
140
3.5
141
0.0
143
0.0393701
146
0.6
147
0.7
172
     1
176
   256
177
   256
178
   256
271
     2
272
     2
283
     0
284
     8
340
11
371
    -1
372
    -1
  0
DIMSTYLE
105
85
330
A
100
AcDbSymbolTableRecord
100
AcDbDimStyleTableRecord
  2
AM_ISO$7
 70
     0
  4
"
 41
3.0
 42
1.0
 43
8.0
 44
1.5
 47
0.1
 48
0.1
 73
     0
 74
     0
 77
     1
 78
     8
 79
     2
140
5.0
141
0.0
143
0.0393701
146
0.6
147
0.7
172
     1
176
   256
177
   256
178
   256
271
     2
272
     2
283
     0
284
     8
340
11
371
    -1
372
    -1
  0
DIMSTYLE
105
86
330
A
100
AcDbSymbolTableRecord
100
AcDbDimStyleTableRecord
  2
AM_ISO$SF
 70
     0
  4
"
 41
2.5
 42
1.0
 43
10.0
 44
1.0
 47
0.1
 48
0.1
 73
     0
 74
     0
 75
     1
 76
     1
 77
     1
 78
     8
 79
     2
140
3.5
141
0.0
143
0.0393701
146
0.71
147
1.5
172
     1
176
   256
177
   256
178
     2
271
     2
272
     3
274
     4
283
     0
284
     8
340
11
371
    -1
372
    -1
  0
DIMSTYLE
105
8B
330
A
100
AcDbSymbolTableRecord
100
AcDbDimStyleTableRecord
  2
AM_ISO$SH
 70
     0
  4
"
 41
2.5
 42
1.0
 43
10.0
 44
1.0
 47
0.1
 48
0.1
 73
     0
 74
     0
 75
     1
 76
     1
 77
     1
 78
     8
 79
     2
140
3.5
141
0.0
143
0.0393701
144
2.0
146
0.71
147
1.5
172
     1
173
     1
176
   256
177
   256
178
     2
271
     2
272
     3
274
     4
283
     0
284
     8
340
11
343
87
371
    -1
372
    -1
  0
DIMSTYLE
105
40B
102
{ACAD_REACTORS
330
DDF
330
E06
330
E2C
330
EEB
330
F11
330
F3B
330
F6B
330
11E1
102
}
330
A
100
AcDbSymbolTableRecord
100
AcDbDimStyleTableRecord
  2
AM_ISO$0
 70
     0
  4
"
 41
3.0
 42
1.0
 43
8.0
 44
1.5
 47
0.1
 48
0.1
 73
     0
 74
     0
 77
     1
 78
     8
 79
     2
140
3.5
141
0.0
143
0.0393701
146
0.6
147
0.7
172
     1
176
   256
177
   256
178
   256
271
     2
272
     2
283
     0
284
     8
340
11
371
    -1
372
    -1
  0
ENDTAB
  0
TABLE
  2
BLOCK_RECORD
  5
1
330
0
100
AcDbSymbolTable
 70
    15
  0
BLOCK_RECORD
  5
1F
102
{ACAD_XDICTIONARY
360
8F
102
}
330
1
100
AcDbSymbolTableRecord
100
AcDbBlockTableRecord
  2
*Model_Space
340
22
  0
BLOCK_RECORD
  5
1B
330
1
100
AcDbSymbolTableRecord
100
AcDbBlockTableRecord
  2
*Paper_Space
340
1E
  0
BLOCK_RECORD
  5
23
330
1
100
AcDbSymbolTableRecord
100
AcDbBlockTableRecord
  2
*Paper_Space0
340
26
  0
BLOCK_RECORD
  5
87
330
1
100
AcDbSymbolTableRecord
100
AcDbBlockTableRecord
  2
GENAXEH
340
0
  0
BLOCK_RECORD
  5
DE1
330
1
100
AcDbSymbolTableRecord
100
AcDbBlockTableRecord
  2
*D3
340
0
  0
BLOCK_RECORD
  5
E07
330
1
100
AcDbSymbolTableRecord
100
AcDbBlockTableRecord
  2
*D4
340
0
  0
BLOCK_RECORD
  5
E2D
330
1
100
AcDbSymbolTableRecord
100
AcDbBlockTableRecord
  2
*D5
340
0
  0
BLOCK_RECORD
  5
E4E
330
1
100
AcDbSymbolTableRecord
100
AcDbBlockTableRecord
  2
*D6
340
0
  0
BLOCK_RECORD
  5
E91
330
1
100
AcDbSymbolTableRecord
100
AcDbBlockTableRecord
  2
*D7
340
0
  0
BLOCK_RECORD
  5
EEC
330
1
100
AcDbSymbolTableRecord
100
AcDbBlockTableRecord
  2
*D8
340
0
  0
BLOCK_RECORD
  5
F12
330
1
100
AcDbSymbolTableRecord
100
AcDbBlockTableRecord
  2
*D9
340
0
  0
BLOCK_RECORD
  5
F3C
330
1
100
AcDbSymbolTableRecord
100
AcDbBlockTableRecord
  2
*D10
340
0
  0
BLOCK_RECORD
  5
F6C
330
1
100
AcDbSymbolTableRecord
100
AcDbBlockTableRecord
  2
*D11
340
0
  0
BLOCK_RECORD
  5
11E2
330
1
100
AcDbSymbolTableRecord
100
AcDbBlockTableRecord
  2
*D13
340
0
  0
ENDTAB
  0
ENDSEC
  0
SECTION
  2
BLOCKS
  0
BLOCK
  5
20
330
1F
100
AcDbEntity
  8
0
100
AcDbBlockBegin
  2
*Model_Space
 70
     0
 10
0.0
 20
0.0
 30
0.0
  3
*Model_Space
  1

  0
ENDBLK
  5
21
330
1F
100
AcDbEntity
  8
0
100
AcDbBlockEnd
  0
BLOCK
  5
1C
330
1B
100
AcDbEntity
 67
     1
  8
0
100
AcDbBlockBegin
  2
*Paper_Space
 70
     0
 10
0.0
 20
0.0
 30
0.0
  3
*Paper_Space
  1

  0
ENDBLK
  5
1D
330
1B
100
AcDbEntity
 67
     1
  8
0
100
AcDbBlockEnd
  0
BLOCK
  5
24
330
23
100
AcDbEntity
  8
0
100
AcDbBlockBegin
  2
*Paper_Space0
 70
     0
 10
0.0
 20
0.0
 30
0.0
  3
*Paper_Space0
  1

  0
ENDBLK
  5
25
330
23
100
AcDbEntity
  8
0
100
AcDbBlockEnd
  0
BLOCK
  5
89
330
87
100
AcDbEntity
  8
0
100
AcDbBlockBegin
  2
GENAXEH
 70
     0
 10
0.0
 20
0.0
 30
0.0
  3
GENAXEH
  1

  0
LINE
  5
88
330
87
100
AcDbEntity
  8
0
100
AcDbLine
 10
-1.0
 20
0.0
 30
0.0
 11
1.0
 21
0.0
 31
0.0
  0
ENDBLK
  5
8A
330
87
100
AcDbEntity
  8
0
100
AcDbBlockEnd
  0
BLOCK
  5
DEB
330
DE1
100
AcDbEntity
  8
0
100
AcDbBlockBegin
  2
*D3
 70
     1
 10
0.0
 20
0.0
 30
0.0
  3
*D3
  1

  0
LINE
  5
1149
330
DE1
100
AcDbEntity
  8
AM_5
100
AcDbLine
 10
294.8512392756727
 20
199.2257881875099
 30
0.0
 11
287.685781060008
 21
199.2257881875099
 31
0.0
  0
LINE
  5
114A
330
DE1
100
AcDbEntity
  8
AM_5
100
AcDbLine
 10
325.8512392756726
 20
182.2257881875099
 30
0.0
 11
287.685781060008
 21
182.2257881875099
 31
0.0
  0
LINE
  5
114B
330
DE1
100
AcDbEntity
  8
AM_5
100
AcDbLine
 10
289.185781060008
 20
196.2257881875099
 30
0.0
 11
289.185781060008
 21
185.2257881875099
 31
0.0
  0
SOLID
  5
114C
330
DE1
100
AcDbEntity
  8
AM_5
100
AcDbTrace
 10
288.685781060008
 20
196.2257881875099
 30
0.0
 11
289.685781060008
 21
196.2257881875099
 31
0.0
 12
289.185781060008
 22
199.2257881875099
 32
0.0
 13
289.185781060008
 23
199.2257881875099
 33
0.0
  0
SOLID
  5
114D
330
DE1
100
AcDbEntity
  8
AM_5
100
AcDbTrace
 10
288.685781060008
 20
185.2257881875099
 30
0.0
 11
289.685781060008
 21
185.2257881875099
 31
0.0
 12
289.185781060008
 22
182.2257881875099
 32
0.0
 13
289.185781060008
 23
182.2257881875099
 33
0.0
  0
MTEXT
  5
114E
330
DE1
100
AcDbEntity
  8
AM_5
100
AcDbMText
 10
286.7357810600079
 20
190.7257881875099
 30
0.0
 40
3.5
 41
0.0
 71
     5
 72
     1
  1
17
 11
0.0000000000000001
 21
1.0
 31
0.0
 73
     1
 44
1.0
1001
ACAD
1000
MTEXTBEGIN
1070
    73
1070
     1
1070
    44
1040
1.0
1070
    74
1070
     0
1000
MTEXTEND
  0
POINT
  5
114F
330
DE1
100
AcDbEntity
  8
Defpoints
 62
     0
100
AcDbPoint
 10
295.8512392756727
 20
199.2257881875099
 30
0.0
  0
POINT
  5
1150
330
DE1
100
AcDbEntity
  8
Defpoints
 62
     0
100
AcDbPoint
 10
326.8512392756727
 20
182.2257881875099
 30
0.0
  0
POINT
  5
1151
330
DE1
100
AcDbEntity
  8
Defpoints
 62
     0
100
AcDbPoint
 10
289.185781060008
 20
182.2257881875099
 30
0.0
  0
ENDBLK
  5
DEC
330
DE1
100
AcDbEntity
  8
0
100
AcDbBlockEnd
  0
BLOCK
  5
E11
330
E07
100
AcDbEntity
  8
0
100
AcDbBlockBegin
  2
*D4
 70
     1
 10
0.0
 20
0.0
 30
0.0
  3
*D4
  1

  0
LINE
  5
1152
330
E07
100
AcDbEntity
  8
AM_5
100
AcDbLine
 10
298.9512392756727
 20
203.3257881875099
 30
0.0
 11
298.9512392756727
 21
211.0865099907867
 31
0.0
  0
LINE
  5
1153
330
E07
100
AcDbEntity
  8
AM_5
100
AcDbLine
 10
329.9512392756727
 20
186.3257881875099
 30
0.0
 11
329.9512392756727
 21
211.0865099907867
 31
0.0
  0
LINE
  5
1154
330
E07
100
AcDbEntity
  8
AM_5
100
AcDbLine
 10
301.9512392756727
 20
209.5865099907867
 30
0.0
 11
326.9512392756727
 21
209.5865099907867
 31
0.0
  0
SOLID
  5
1155
330
E07
100
AcDbEntity
  8
AM_5
100
AcDbTrace
 10
301.9512392756727
 20
210.0865099907867
 30
0.0
 11
301.9512392756727
 21
209.0865099907867
 31
0.0
 12
298.9512392756727
 22
209.5865099907867
 32
0.0
 13
298.9512392756727
 23
209.5865099907867
 33
0.0
  0
SOLID
  5
1156
330
E07
100
AcDbEntity
  8
AM_5
100
AcDbTrace
 10
326.9512392756727
 20
210.0865099907867
 30
0.0
 11
326.9512392756727
 21
209.0865099907867
 31
0.0
 12
329.9512392756727
 22
209.5865099907867
 32
0.0
 13
329.9512392756727
 23
209.5865099907867
 33
0.0
  0
MTEXT
  5
1157
330
E07
100
AcDbEntity
  8
AM_5
100
AcDbMText
 10
314.4512392756727
 20
212.0365099907867
 30
0.0
 40
3.5
 41
0.0
 71
     5
 72
     1
  1
31
 73
     1
 44
1.0
1001
ACAD
1000
MTEXTBEGIN
1070
    73
1070
     1
1070
    44
1040
1.0
1070
    74
1070
     0
1000
MTEXTEND
  0
POINT
  5
1158
330
E07
100
AcDbEntity
  8
Defpoints
 62
     0
100
AcDbPoint
 10
298.9512392756727
 20
202.3257881875099
 30
0.0
  0
POINT
  5
1159
330
E07
100
AcDbEntity
  8
Defpoints
 62
     0
100
AcDbPoint
 10
329.9512392756727
 20
185.3257881875099
 30
0.0
  0
POINT
  5
115A
330
E07
100
AcDbEntity
  8
Defpoints
 62
     0
100
AcDbPoint
 10
329.9512392756727
 20
209.5865099907867
 30
0.0
  0
ENDBLK
  5
E12
330
E07
100
AcDbEntity
  8
0
100
AcDbBlockEnd
  0
BLOCK
  5
E37
330
E2D
100
AcDbEntity
  8
0
100
AcDbBlockBegin
  2
*D5
 70
     1
 10
0.0
 20
0.0
 30
0.0
  3
*D5
  1

  0
LINE
  5
120B
330
E2D
100
AcDbEntity
  8
AM_5
100
AcDbLine
 10
173.9436496254171
 20
169.678611653833
 30
0.0
 11
173.9436496254171
 21
178.8533956812957
 31
0.0
  0
LINE
  5
120C
330
E2D
100
AcDbEntity
  8
AM_5
100
AcDbLine
 10
200.9436496254171
 20
169.678611653833
 30
0.0
 11
200.9436496254171
 21
178.8533956812957
 31
0.0
  0
LINE
  5
120D
330
E2D
100
AcDbEntity
  8
AM_5
100
AcDbLine
 10
176.9436496254171
 20
177.3533956812957
 30
0.0
 11
197.9436496254171
 21
177.3533956812957
 31
0.0
  0
SOLID
  5
120E
330
E2D
100
AcDbEntity
  8
AM_5
100
AcDbTrace
 10
176.9436496254171
 20
177.8533956812957
 30
0.0
 11
176.9436496254171
 21
176.8533956812957
 31
0.0
 12
173.9436496254171
 22
177.3533956812957
 32
0.0
 13
173.9436496254171
 23
177.3533956812957
 33
0.0
  0
SOLID
  5
120F
330
E2D
100
AcDbEntity
  8
AM_5
100
AcDbTrace
 10
197.9436496254171
 20
177.8533956812957
 30
0.0
 11
197.9436496254171
 21
176.8533956812957
 31
0.0
 12
200.9436496254171
 22
177.3533956812957
 32
0.0
 13
200.9436496254171
 23
177.3533956812957
 33
0.0
  0
MTEXT
  5
1210
330
E2D
100
AcDbEntity
  8
AM_5
100
AcDbMText
 10
187.4436496254171
 20
179.8037401694847
 30
0.0
 40
3.5
 41
0.0
 71
     5
 72
     1
  1
27
 73
     1
 44
1.0
1001
ACAD
1000
MTEXTBEGIN
1070
    73
1070
     1
1070
    44
1040
1.0
1070
    74
1070
     0
1000
MTEXTEND
  0
POINT
  5
1211
330
E2D
100
AcDbEntity
  8
Defpoints
 62
     0
100
AcDbPoint
 10
173.9436496254171
 20
168.6786116538329
 30
0.0
  0
POINT
  5
1212
330
E2D
100
AcDbEntity
  8
Defpoints
 62
     0
100
AcDbPoint
 10
200.9436496254171
 20
168.6786116538329
 30
0.0
  0
POINT
  5
1213
330
E2D
100
AcDbEntity
  8
Defpoints
 62
     0
100
AcDbPoint
 10
200.9436496254171
 20
177.3533956812957
 30
0.0
  0
ENDBLK
  5
E38
330
E2D
100
AcDbEntity
  8
0
100
AcDbBlockEnd
  0
BLOCK
  5
E57
330
E4E
100
AcDbEntity
  8
0
100
AcDbBlockBegin
  2
*D6
 70
     1
 10
0.0
 20
0.0
 30
0.0
  3
*D6
  1

  0
LINE
  5
1237
330
E4E
100
AcDbEntity
  8
AM_5
100
AcDbLine
 10
203.0174431486098
 20
169.6846292406394
 30
0.0
 11
206.135164998398
 21
175.8575778022172
 31
0.0
  0
LINE
  5
1238
330
E4E
100
AcDbEntity
  8
AM_5
100
AcDbLine
 10
206.135164998398
 20
175.8575778022172
 30
0.0
 11
220.0842496440673
 21
175.8575778022172
 31
0.0
  0
SOLID
  5
1239
330
E4E
100
AcDbEntity
  8
AM_5
100
AcDbTrace
 10
202.5711368891743
 20
169.9100415801169
 30
0.0
 11
203.4637494080453
 21
169.459216901162
 31
0.0
 12
201.664969111745
 22
167.0067916840265
 32
0.0
 13
201.664969111745
 23
167.0067916840265
 33
0.0
  0
MTEXT
  5
123A
330
E4E
100
AcDbEntity
  8
AM_5
100
AcDbMText
 10
213.4597073212326
 20
178.3079222904062
 30
0.0
 40
3.5
 41
0.0
 71
     5
 72
     1
  1
2-\U+22053.2
 73
     1
 44
1.0
1001
ACAD
1000
MTEXTBEGIN
1070
    73
1070
     1
1070
    44
1040
1.0
1070
    74
1070
     0
1000
MTEXTEND
  0
POINT
  5
123B
330
E4E
100
AcDbEntity
  8
Defpoints
 62
     0
100
AcDbPoint
 10
201.664969111745
 20
167.0067916840265
 30
0.0
  0
POINT
  5
123C
330
E4E
100
AcDbEntity
  8
Defpoints
 62
     0
100
AcDbPoint
 10
200.2223301390893
 20
164.1504316236394
 30
0.0
  0
ENDBLK
  5
E58
330
E4E
100
AcDbEntity
  8
0
100
AcDbBlockEnd
  0
BLOCK
  5
E9A
330
E91
100
AcDbEntity
  8
0
100
AcDbBlockBegin
  2
*D7
 70
     1
 10
0.0
 20
0.0
 30
0.0
  3
*D7
  1

  0
LINE
  5
1175
330
E91
100
AcDbEntity
  8
AM_5
100
AcDbLine
 10
295.8592797609599
 20
202.6316340970275
 30
0.0
 11
291.3159456076095
 21
207.6361938165605
 31
0.0
  0
LINE
  5
1176
330
E91
100
AcDbEntity
  8
AM_5
100
AcDbLine
 10
291.3159456076095
 20
207.6361938165605
 30
0.0
 11
277.3668609619403
 21
207.6361938165605
 31
0.0
  0
SOLID
  5
1177
330
E91
100
AcDbEntity
  8
AM_5
100
AcDbTrace
 10
296.2294804032988
 20
202.9677166529745
 30
0.0
 11
295.4890791186211
 21
202.2955515410804
 31
0.0
 12
297.8757750966422
 22
200.4104302429943
 32
0.0
 13
297.8757750966422
 23
200.4104302429943
 33
0.0
  0
MTEXT
  5
1178
330
E91
100
AcDbEntity
  8
AM_5
100
AcDbMText
 10
283.991403284775
 20
210.0865383047496
 30
0.0
 40
3.5
 41
0.0
 71
     5
 72
     1
  1
2-\U+22053.2
 73
     1
 44
1.0
1001
ACAD
1000
MTEXTBEGIN
1070
    73
1070
     1
1070
    44
1040
1.0
1070
    74
1070
     0
1000
MTEXTEND
  0
POINT
  5
1179
330
E91
100
AcDbEntity
  8
Defpoints
 62
     0
100
AcDbPoint
 10
297.8757750966422
 20
200.4104302429943
 30
0.0
  0
POINT
  5
117A
330
E91
100
AcDbEntity
  8
Defpoints
 62
     0
100
AcDbPoint
 10
300.0267034547035
 20
198.0411461320255
 30
0.0
  0
ENDBLK
  5
E9B
330
E91
100
AcDbEntity
  8
0
100
AcDbBlockEnd
  0
BLOCK
  5
EF6
330
EEC
100
AcDbEntity
  8
0
100
AcDbBlockBegin
  2
*D8
 70
     1
 10
0.0
 20
0.0
 30
0.0
  3
*D8
  1

  0
LINE
  5
121A
330
EEC
100
AcDbEntity
  8
AM_5
100
AcDbLine
 10
180.4436496254171
 20
134.078611653833
 30
0.0
 11
160.6927540237975
 21
134.078611653833
 31
0.0
  0
LINE
  5
121B
330
EEC
100
AcDbEntity
  8
AM_5
100
AcDbLine
 10
170.4436496254171
 20
169.578611653833
 30
0.0
 11
160.6927540237975
 21
169.578611653833
 31
0.0
  0
LINE
  5
121C
330
EEC
100
AcDbEntity
  8
AM_5
100
AcDbLine
 10
162.1927540237975
 20
137.0786116538329
 30
0.0
 11
162.1927540237975
 21
166.578611653833
 31
0.0
  0
SOLID
  5
121D
330
EEC
100
AcDbEntity
  8
AM_5
100
AcDbTrace
 10
161.6927540237975
 20
137.0786116538329
 30
0.0
 11
162.6927540237975
 21
137.0786116538329
 31
0.0
 12
162.1927540237975
 22
134.078611653833
 32
0.0
 13
162.1927540237975
 23
134.078611653833
 33
0.0
  0
SOLID
  5
121E
330
EEC
100
AcDbEntity
  8
AM_5
100
AcDbTrace
 10
161.6927540237975
 20
166.578611653833
 30
0.0
 11
162.6927540237975
 21
166.578611653833
 31
0.0
 12
162.1927540237975
 22
169.578611653833
 32
0.0
 13
162.1927540237975
 23
169.578611653833
 33
0.0
  0
MTEXT
  5
121F
330
EEC
100
AcDbEntity
  8
AM_5
100
AcDbMText
 10
159.7427540237975
 20
151.828611653833
 30
0.0
 40
3.5
 41
0.0
 71
     5
 72
     1
  1
35.5
 11
0.0000000000000001
 21
1.0
 31
0.0
 73
     1
 44
1.0
1001
ACAD
1000
MTEXTBEGIN
1070
    73
1070
     1
1070
    44
1040
1.0
1070
    74
1070
     0
1000
MTEXTEND
  0
POINT
  5
1220
330
EEC
100
AcDbEntity
  8
Defpoints
 62
     0
100
AcDbPoint
 10
181.4436496254171
 20
134.078611653833
 30
0.0
  0
POINT
  5
1221
330
EEC
100
AcDbEntity
  8
Defpoints
 62
     0
100
AcDbPoint
 10
171.4436496254171
 20
169.578611653833
 30
0.0
  0
POINT
  5
1222
330
EEC
100
AcDbEntity
  8
Defpoints
 62
     0
100
AcDbPoint
 10
162.1927540237975
 20
169.578611653833
 30
0.0
  0
ENDBLK
  5
EF7
330
EEC
100
AcDbEntity
  8
0
100
AcDbBlockEnd
  0
BLOCK
  5
F1C
330
F12
100
AcDbEntity
  8
0
100
AcDbBlockBegin
  2
*D9
 70
     1
 10
0.0
 20
0.0
 30
0.0
  3
*D9
  1

  0
LINE
  5
123D
330
F12
100
AcDbEntity
  8
AM_5
100
AcDbLine
 10
169.9436496254171
 20
196.720018907873
 30
0.0
 11
169.9436496254171
 21
203.0418879493912
 31
0.0
  0
LINE
  5
123E
330
F12
100
AcDbEntity
  8
AM_5
100
AcDbLine
 10
204.9436496254172
 20
196.7200189078731
 30
0.0
 11
204.9436496254172
 21
203.0418879493912
 31
0.0
  0
LINE
  5
123F
330
F12
100
AcDbEntity
  8
AM_5
100
AcDbLine
 10
172.9436496254171
 20
201.5418879493913
 30
0.0
 11
201.9436496254172
 21
201.5418879493913
 31
0.0
  0
SOLID
  5
1240
330
F12
100
AcDbEntity
  8
AM_5
100
AcDbTrace
 10
172.9436496254171
 20
202.0418879493913
 30
0.0
 11
172.9436496254171
 21
201.0418879493912
 31
0.0
 12
169.9436496254171
 22
201.5418879493913
 32
0.0
 13
169.9436496254171
 23
201.5418879493913
 33
0.0
  0
SOLID
  5
1241
330
F12
100
AcDbEntity
  8
AM_5
100
AcDbTrace
 10
201.9436496254172
 20
202.0418879493913
 30
0.0
 11
201.9436496254172
 21
201.0418879493912
 31
0.0
 12
204.9436496254172
 22
201.5418879493913
 32
0.0
 13
204.9436496254172
 23
201.5418879493913
 33
0.0
  0
MTEXT
  5
1242
330
F12
100
AcDbEntity
  8
AM_5
100
AcDbMText
 10
187.4436496254171
 20
203.9918879493912
 30
0.0
 40
3.5
 41
0.0
 71
     5
 72
     1
  1
35
 73
     1
 44
1.0
1001
ACAD
1000
MTEXTBEGIN
1070
    73
1070
     1
1070
    44
1040
1.0
1070
    74
1070
     0
1000
MTEXTEND
  0
POINT
  5
1243
330
F12
100
AcDbEntity
  8
Defpoints
 62
     0
100
AcDbPoint
 10
169.9436496254171
 20
195.720018907873
 30
0.0
  0
POINT
  5
1244
330
F12
100
AcDbEntity
  8
Defpoints
 62
     0
100
AcDbPoint
 10
204.9436496254172
 20
195.7200189078731
 30
0.0
  0
POINT
  5
1245
330
F12
100
AcDbEntity
  8
Defpoints
 62
     0
100
AcDbPoint
 10
204.9436496254172
 20
201.5418879493913
 30
0.0
  0
ENDBLK
  5
F1D
330
F12
100
AcDbEntity
  8
0
100
AcDbBlockEnd
  0
BLOCK
  5
F46
330
F3C
100
AcDbEntity
  8
0
100
AcDbBlockBegin
  2
*D10
 70
     1
 10
0.0
 20
0.0
 30
0.0
  3
*D10
  1

  0
LINE
  5
1161
330
F3C
100
AcDbEntity
  8
AM_5
100
AcDbLine
 10
294.4512392756727
 20
117.5693586976535
 30
0.0
 11
281.9512392756726
 21
117.5693586976536
 31
0.0
  0
LINE
  5
1162
330
F3C
100
AcDbEntity
  8
AM_5
100
AcDbLine
 10
303.4512392756727
 20
163.5693586976535
 30
0.0
 11
281.9512392756727
 21
163.5693586976535
 31
0.0
  0
LINE
  5
1163
330
F3C
100
AcDbEntity
  8
AM_5
100
AcDbLine
 10
283.4512392756726
 20
120.5693586976536
 30
0.0
 11
283.4512392756727
 21
160.5693586976535
 31
0.0
  0
SOLID
  5
1164
330
F3C
100
AcDbEntity
  8
AM_5
100
AcDbTrace
 10
282.9512392756726
 20
120.5693586976536
 30
0.0
 11
283.9512392756726
 21
120.5693586976536
 31
0.0
 12
283.4512392756726
 22
117.5693586976536
 32
0.0
 13
283.4512392756726
 23
117.5693586976536
 33
0.0
  0
SOLID
  5
1165
330
F3C
100
AcDbEntity
  8
AM_5
100
AcDbTrace
 10
282.9512392756726
 20
160.5693586976535
 30
0.0
 11
283.9512392756727
 21
160.5693586976535
 31
0.0
 12
283.4512392756727
 22
163.5693586976535
 32
0.0
 13
283.4512392756727
 23
163.5693586976535
 33
0.0
  0
MTEXT
  5
1166
330
F3C
100
AcDbEntity
  8
AM_5
100
AcDbMText
 10
281.0012392756726
 20
140.5693586976536
 30
0.0
 40
3.5
 41
0.0
 71
     5
 72
     1
  1
46
 11
0.0000000000000001
 21
1.0
 31
0.0
 73
     1
 44
1.0
1001
ACAD
1000
MTEXTBEGIN
1070
    73
1070
     1
1070
    44
1040
1.0
1070
    74
1070
     0
1000
MTEXTEND
  0
POINT
  5
1167
330
F3C
100
AcDbEntity
  8
Defpoints
 62
     0
100
AcDbPoint
 10
295.4512392756726
 20
117.5693586976535
 30
0.0
  0
POINT
  5
1168
330
F3C
100
AcDbEntity
  8
Defpoints
 62
     0
100
AcDbPoint
 10
304.4512392756727
 20
163.5693586976535
 30
0.0
  0
POINT
  5
1169
330
F3C
100
AcDbEntity
  8
Defpoints
 62
     0
100
AcDbPoint
 10
283.4512392756727
 20
163.5693586976535
 30
0.0
  0
ENDBLK
  5
F47
330
F3C
100
AcDbEntity
  8
0
100
AcDbBlockEnd
  0
BLOCK
  5
F78
330
F6C
100
AcDbEntity
  8
0
100
AcDbBlockBegin
  2
*D11
 70
     1
 10
0.0
 20
0.0
 30
0.0
  3
*D11
  1

  0
LINE
  5
116A
330
F6C
100
AcDbEntity
  8
AM_5
100
AcDbLine
 10
294.4512392756727
 20
117.5693586976535
 30
0.0
 11
289.9512392756727
 21
117.5693586976535
 31
0.0
  0
LINE
  5
116B
330
F6C
100
AcDbEntity
  8
AM_5
100
AcDbLine
 10
294.4512392756727
 20
118.7693586976535
 30
0.0
 11
289.9512392756727
 21
118.7693586976535
 31
0.0
  0
LINE
  5
116C
330
F6C
100
AcDbEntity
  8
AM_5
100
AcDbLine
 10
291.4512392756726
 20
114.5693586976535
 30
0.0
 11
291.4512392756726
 21
111.5693586976535
 31
0.0
  0
LINE
  5
116D
330
F6C
100
AcDbEntity
  8
AM_5
100
AcDbLine
 10
291.4512392756726
 20
121.7693586976535
 30
0.0
 11
291.4512392756727
 21
130.5795653905669
 31
0.0
  0
LINE
  5
116E
330
F6C
100
AcDbEntity
  8
AM_5
100
AcDbLine
 10
291.4512392756726
 20
117.5693586976535
 30
0.0
 11
291.4512392756726
 21
118.7693586976535
 31
0.0
  0
SOLID
  5
116F
330
F6C
100
AcDbEntity
  8
AM_5
100
AcDbTrace
 10
290.9512392756727
 20
114.5693586976535
 30
0.0
 11
291.9512392756727
 21
114.5693586976535
 31
0.0
 12
291.4512392756726
 22
117.5693586976535
 32
0.0
 13
291.4512392756726
 23
117.5693586976535
 33
0.0
  0
SOLID
  5
1170
330
F6C
100
AcDbEntity
  8
AM_5
100
AcDbTrace
 10
290.9512392756727
 20
121.7693586976535
 30
0.0
 11
291.9512392756727
 21
121.7693586976535
 31
0.0
 12
291.4512392756726
 22
118.7693586976535
 32
0.0
 13
291.4512392756726
 23
118.7693586976535
 33
0.0
  0
MTEXT
  5
1171
330
F6C
100
AcDbEntity
  8
AM_5
100
AcDbMText
 10
289.0008947874837
 20
127.6744620441103
 30
0.0
 40
3.5
 41
0.0
 71
     5
 72
     1
  1
1.2
 11
0.0000000000000001
 21
1.0
 31
0.0
 73
     1
 44
1.0
1001
ACAD
1000
MTEXTBEGIN
1070
    73
1070
     1
1070
    44
1040
1.0
1070
    74
1070
     0
1000
MTEXTEND
  0
POINT
  5
1172
330
F6C
100
AcDbEntity
  8
Defpoints
 62
     0
100
AcDbPoint
 10
295.4512392756726
 20
117.5693586976535
 30
0.0
  0
POINT
  5
1173
330
F6C
100
AcDbEntity
  8
Defpoints
 62
     0
100
AcDbPoint
 10
295.4512392756726
 20
118.7693586976535
 30
0.0
  0
POINT
  5
1174
330
F6C
100
AcDbEntity
  8
Defpoints
 62
     0
100
AcDbPoint
 10
291.4512392756726
 20
118.7693586976535
 30
0.0
  0
ENDBLK
  5
F79
330
F6C
100
AcDbEntity
  8
0
100
AcDbBlockEnd
  0
BLOCK
  5
11EE
330
11E2
100
AcDbEntity
  8
0
100
AcDbBlockBegin
  2
*D13
 70
     1
 10
0.0
 20
0.0
 30
0.0
  3
*D13
  1

  0
LINE
  5
1246
330
11E2
100
AcDbEntity
  8
AM_5
100
AcDbLine
 10
205.9436496254171
 20
195.7200189078731
 30
0.0
 11
215.9933051372282
 21
195.7200189078731
 31
0.0
  0
LINE
  5
1247
330
11E2
100
AcDbEntity
  8
AM_5
100
AcDbLine
 10
205.9436496254171
 20
194.5200189078731
 30
0.0
 11
215.9933051372282
 21
194.5200189078731
 31
0.0
  0
LINE
  5
1248
330
11E2
100
AcDbEntity
  8
AM_5
100
AcDbLine
 10
214.4933051372281
 20
191.5200189078731
 30
0.0
 11
214.4933051372281
 21
188.5200189078731
 31
0.0
  0
LINE
  5
1249
330
11E2
100
AcDbEntity
  8
AM_5
100
AcDbLine
 10
214.4933051372281
 20
198.7200189078731
 30
0.0
 11
214.4933051372281
 21
207.5302256007865
 31
0.0
  0
LINE
  5
124A
330
11E2
100
AcDbEntity
  8
AM_5
100
AcDbLine
 10
214.4933051372281
 20
194.5200189078731
 30
0.0
 11
214.4933051372281
 21
195.7200189078731
 31
0.0
  0
SOLID
  5
124B
330
11E2
100
AcDbEntity
  8
AM_5
100
AcDbTrace
 10
213.9933051372281
 20
191.5200189078731
 30
0.0
 11
214.9933051372281
 21
191.5200189078731
 31
0.0
 12
214.4933051372281
 22
194.5200189078731
 32
0.0
 13
214.4933051372281
 23
194.5200189078731
 33
0.0
  0
SOLID
  5
124C
330
11E2
100
AcDbEntity
  8
AM_5
100
AcDbTrace
 10
213.9933051372282
 20
198.7200189078731
 30
0.0
 11
214.9933051372282
 21
198.7200189078731
 31
0.0
 12
214.4933051372281
 22
195.7200189078731
 32
0.0
 13
214.4933051372281
 23
195.7200189078731
 33
0.0
  0
MTEXT
  5
124D
330
11E2
100
AcDbEntity
  8
AM_5
100
AcDbMText
 10
212.0429606490391
 20
204.6251222543299
 30
0.0
 40
3.5
 41
0.0
 71
     5
 72
     1
  1
1.2
 11
0.0000000000000001
 21
1.0
 31
0.0
 73
     1
 44
1.0
1001
ACAD
1000
MTEXTBEGIN
1070
    73
1070
     1
1070
    44
1040
1.0
1070
    74
1070
     0
1000
MTEXTEND
  0
POINT
  5
124E
330
11E2
100
AcDbEntity
  8
Defpoints
 62
     0
100
AcDbPoint
 10
204.9436496254172
 20
195.7200189078731
 30
0.0
  0
POINT
  5
124F
330
11E2
100
AcDbEntity
  8
Defpoints
 62
     0
100
AcDbPoint
 10
204.9436496254172
 20
194.5200189078731
 30
0.0
  0
POINT
  5
1250
330
11E2
100
AcDbEntity
  8
Defpoints
 62
     0
100
AcDbPoint
 10
214.4933051372281
 20
194.5200189078731
 30
0.0
  0
ENDBLK
  5
11EF
330
11E2
100
AcDbEntity
  8
0
100
AcDbBlockEnd
  0
ENDSEC
  0
SECTION
  2
ENTITIES
  0
LINE
  5
B04
330
1F
100
AcDbEntity
  8
AM_VIS
100
AcDbLine
 10
180.6436496254171
 20
192.720018907873
 30
0.0
 11
194.2436496254171
 21
192.720018907873
 31
0.0
  0
LINE
  5
B05
330
1F
100
AcDbEntity
  8
AM_VIS
100
AcDbLine
 10
195.9436496254171
 20
194.020018907873
 30
0.0
 11
195.9436496254171
 21
192.720018907873
 31
0.0
  0
LINE
  5
B06
330
1F
100
AcDbEntity
  8
AM_VIS
100
AcDbLine
 10
194.7436496254171
 20
191.520018907873
 30
0.0
 11
180.1436496254171
 21
191.520018907873
 31
0.0
  0
LINE
  5
B07
330
1F
100
AcDbEntity
  8
AM_VIS
100
AcDbLine
 10
194.7436496254171
 20
193.220018907873
 30
0.0
 11
194.7436496254171
 21
194.520018907873
 31
0.0
  0
LINE
  5
B08
330
1F
100
AcDbEntity
  8
AM_VIS
100
AcDbLine
 10
204.9436496254172
 20
194.5200189078731
 30
0.0
 11
203.4436496254171
 21
194.5200189078731
 31
0.0
  0
LINE
  5
B0A
330
1F
100
AcDbEntity
  8
AM_VIS
100
AcDbLine
 10
171.4436496254171
 20
194.520018907873
 30
0.0
 11
169.9436496254171
 21
194.520018907873
 31
0.0
  0
LINE
  5
B0C
330
1F
100
AcDbEntity
  8
AM_VIS
100
AcDbLine
 10
203.4436496254171
 20
195.7200189078731
 30
0.0
 11
204.9436496254172
 21
195.7200189078731
 31
0.0
  0
LINE
  5
B0D
330
1F
100
AcDbEntity
  8
AM_VIS
100
AcDbLine
 10
195.9436496254171
 20
195.720018907873
 30
0.0
 11
197.4436496254171
 21
195.720018907873
 31
0.0
  0
LINE
  5
B0E
330
1F
100
AcDbEntity
  8
AM_VIS
100
AcDbLine
 10
177.4436496254171
 20
195.720018907873
 30
0.0
 11
178.9436496254171
 21
195.720018907873
 31
0.0
  0
LINE
  5
B0F
330
1F
100
AcDbEntity
  8
AM_VIS
100
AcDbLine
 10
169.9436496254171
 20
195.720018907873
 30
0.0
 11
171.4436496254171
 21
195.720018907873
 31
0.0
  0
ARC
  5
B10
330
1F
100
AcDbEntity
  8
AM_VIS
100
AcDbCircle
 10
178.4436496254171
 20
194.020018907873
 30
0.0
 40
0.5
100
AcDbArc
 50
0.0
 51
90.0
  0
ARC
  5
B11
330
1F
100
AcDbEntity
  8
AM_VIS
100
AcDbCircle
 10
178.9436496254171
 20
194.520018907873
 30
0.0
 40
1.199999999999999
100
AcDbArc
 50
0.0
 51
90.0
  0
ARC
  5
B12
330
1F
100
AcDbEntity
  8
AM_VIS
100
AcDbCircle
 10
180.6436496254171
 20
193.220018907873
 30
0.0
 40
0.5
100
AcDbArc
 50
180.0
 51
270.0
  0
ARC
  5
B13
330
1F
100
AcDbEntity
  8
AM_VIS
100
AcDbCircle
 10
194.2436496254171
 20
193.220018907873
 30
0.0
 40
0.5
100
AcDbArc
 50
270.0
 51
0.0
  0
ARC
  5
B14
330
1F
100
AcDbEntity
  8
AM_VIS
100
AcDbCircle
 10
196.4436496254171
 20
194.020018907873
 30
0.0
 40
0.5
100
AcDbArc
 50
90.0
 51
180.0
  0
ARC
  5
B15
330
1F
100
AcDbEntity
  8
AM_VIS
100
AcDbCircle
 10
194.7436496254171
 20
192.720018907873
 30
0.0
 40
1.199999999999999
100
AcDbArc
 50
270.0
 51
0.0
  0
ARC
  5
B16
330
1F
100
AcDbEntity
  8
AM_VIS
100
AcDbCircle
 10
180.1436496254171
 20
192.720018907873
 30
0.0
 40
1.199999999999999
100
AcDbArc
 50
180.0
 51
270.0
  0
ARC
  5
B17
330
1F
100
AcDbEntity
  8
AM_VIS
100
AcDbCircle
 10
195.9436496254171
 20
194.520018907873
 30
0.0
 40
1.199999999999999
100
AcDbArc
 50
90.0
 51
180.0
  0
LINE
  5
B3C
330
1F
100
AcDbEntity
  8
AM_VIS
100
AcDbLine
 10
228.6680062986613
 20
169.578611653833
 30
0.0
 11
227.4680062986613
 21
169.578611653833
 31
0.0
  0
LINE
  5
B3D
330
1F
100
AcDbEntity
  8
AM_VIS
100
AcDbLine
 10
227.4680062986613
 20
145.2497762634396
 30
0.0
 11
227.4680062986613
 21
168.0786116538329
 31
0.0
  0
LINE
  5
B3E
330
1F
100
AcDbEntity
  8
AM_VIS
100
AcDbLine
 10
224.4680062986613
 20
134.078611653833
 30
0.0
 11
225.6680062986613
 21
134.078611653833
 31
0.0
  0
LINE
  5
B3F
330
1F
100
AcDbEntity
  8
AM_VIS
100
AcDbLine
 10
228.6680062986613
 20
145.2497762634396
 30
0.0
 11
228.6680062986613
 21
168.0786116538329
 31
0.0
  0
LINE
  5
B40
330
1F
100
AcDbEntity
  8
AM_VIS
100
AcDbLine
 10
225.6680062986613
 20
135.578611653833
 30
0.0
 11
225.6680062986613
 21
141.578611653833
 31
0.0
  0
ELLIPSE
  5
B41
330
1F
100
AcDbEntity
  8
AM_VIS
100
AcDbEllipse
 10
226.9680062986613
 20
141.953611653833
 30
0.0
 11
0.5
 21
0.0
 31
0.0
210
0.0
220
0.0
230
1.0
 40
0.2499999999999996
 41
4.712388980384689
 42
6.283185307179586
  0
LINE
  5
B42
330
1F
100
AcDbEntity
  8
AM_VIS
100
AcDbLine
 10
227.4680062986613
 20
141.953611653833
 30
0.0
 11
227.4680062986613
 21
143.7945625132216
 31
0.0
  0
LINE
  5
B43
330
1F
100
AcDbEntity
  8
AM_VIS
100
AcDbLine
 10
228.6680062986613
 20
143.7945625132216
 30
0.0
 11
228.6680062986613
 21
141.828611653833
 31
0.0
  0
LINE
  5
B45
330
1F
100
AcDbEntity
  8
AM_VIS
100
AcDbLine
 10
225.6680062986613
 20
141.828611653833
 30
0.0
 11
226.9680062986612
 21
141.828611653833
 31
0.0
  0
ELLIPSE
  5
B46
330
1F
100
AcDbEntity
  8
AM_VIS
100
AcDbEllipse
 10
225.6680062986613
 20
141.5286116538329
 30
0.0
 11
1.2
 21
-0.0000000000000002
 31
0.0
210
0.0
220
0.0
230
1.0
 40
0.2499999999999996
 41
1.570796326794897
 42
2.974144574370105
  0
LINE
  5
B47
330
1F
100
AcDbEntity
  8
AM_VIS
100
AcDbLine
 10
224.4847903420414
 20
135.578611653833
 30
0.0
 11
224.4847903420414
 21
141.578611653833
 31
0.0
  0
LINE
  5
B48
330
1F
100
AcDbEntity
  8
AM_VIS
100
AcDbLine
 10
224.4674524326626
 20
134.8302942209159
 30
0.0
 11
224.4864265435991
 21
135.5785701644999
 31
0.0
  0
LINE
  5
B49
330
1F
100
AcDbEntity
  8
AM_VIS
100
AcDbLine
 10
224.4680062986613
 20
153.078611653833
 30
0.0
 11
224.4680062986613
 21
134.8302801764782
 31
0.0
  0
LINE
  5
B4A
330
1F
100
AcDbEntity
  8
AM_VIS
100
AcDbLine
 10
226.9680062986612
 20
153.078611653833
 30
0.0
 11
225.6680062986613
 21
153.078611653833
 31
0.0
  0
ELLIPSE
  5
B4B
330
1F
100
AcDbEntity
  8
AM_VIS
100
AcDbEllipse
 10
227.4680062986613
 20
141.828611653833
 30
0.0
 11
-1.199999999999999
 21
0.0
 31
0.0
210
0.0
220
0.0
230
1.0
 40
0.2499999999999996
 41
2.156481870252047
 42
3.141592653589792
  0
LINE
  5
B4C
330
1F
100
AcDbEntity
  8
AM_VIS
100
AcDbLine
 10
228.1313312567324
 20
141.578611653833
 30
0.0
 11
225.6680062986613
 21
141.578611653833
 31
0.0
  0
LINE
  5
B4D
330
1F
100
AcDbEntity
  8
AM_VIS
100
AcDbLine
 10
227.4680062986613
 20
168.0786116538329
 30
0.0
 11
227.4680062986613
 21
169.578611653833
 31
0.0
  0
LINE
  5
B4E
330
1F
100
AcDbEntity
  8
AM_VIS
100
AcDbLine
 10
227.4680062986613
 20
143.7945625132216
 30
0.0
 11
227.4680062986613
 21
145.2497762634396
 31
0.0
  0
LINE
  5
B4F
330
1F
100
AcDbEntity
  8
AM_VIS
100
AcDbLine
 10
225.6680062986613
 20
135.578611653833
 30
0.0
 11
225.6680062986613
 21
134.078611653833
 31
0.0
  0
LINE
  5
B50
330
1F
100
AcDbEntity
  8
AM_VIS
100
AcDbLine
 10
228.6680062986613
 20
145.2497762634396
 30
0.0
 11
228.6680062986613
 21
143.7945625132216
 31
0.0
  0
LINE
  5
B51
330
1F
100
AcDbEntity
  8
AM_VIS
100
AcDbLine
 10
228.6680062986613
 20
169.578611653833
 30
0.0
 11
228.6680062986613
 21
168.0786116538329
 31
0.0
  0
LINE
  5
B52
330
1F
100
AcDbEntity
  8
AM_VIS
100
AcDbLine
 10
224.4680062986613
 20
134.078611653833
 30
0.0
 11
224.4680062986613
 21
134.8302801764782
 31
0.0
  0
LINE
  5
B53
330
1F
100
AcDbEntity
  8
AM_VIS
100
AcDbLine
 10
227.4680062986613
 20
153.078611653833
 30
0.0
 11
226.9680062986613
 21
153.078611653833
 31
0.0
  0
LINE
  5
B54
330
1F
100
AcDbEntity
  8
AM_VIS
100
AcDbLine
 10
224.4680062986613
 20
153.078611653833
 30
0.0
 11
225.6680062986613
 21
153.078611653833
 31
0.0
  0
LINE
  5
B55
330
1F
100
AcDbEntity
  8
AM_VIS
100
AcDbLine
 10
195.9436496254171
 20
153.078611653833
 30
0.0
 11
195.9436496254171
 21
168.0786116538329
 31
0.0
  0
LINE
  5
B56
330
1F
100
AcDbEntity
  8
AM_VIS
100
AcDbLine
 10
203.4436496254171
 20
169.578611653833
 30
0.0
 11
197.4436496254171
 21
169.578611653833
 31
0.0
  0
LINE
  5
B57
330
1F
100
AcDbEntity
  8
AM_VIS
100
AcDbLine
 10
204.9436496254172
 20
145.2497762634396
 30
0.0
 11
204.9436496254172
 21
168.0786116538329
 31
0.0
  0
LINE
  5
B58
330
1F
100
AcDbEntity
  8
AM_VIS
100
AcDbLine
 10
171.0798461878626
 20
143.7945625132216
 30
0.0
 11
178.4436496254171
 21
141.953611653833
 31
0.0
  0
LINE
  5
B59
330
1F
100
AcDbEntity
  8
AM_VIS
100
AcDbLine
 10
169.9436496254171
 20
145.2497762634396
 30
0.0
 11
169.9436496254171
 21
168.0786116538329
 31
0.0
  0
LINE
  5
B5A
330
1F
100
AcDbEntity
  8
AM_VIS
100
AcDbLine
 10
177.4436496254171
 20
169.578611653833
 30
0.0
 11
171.4436496254171
 21
169.578611653833
 31
0.0
  0
LINE
  5
B5B
330
1F
100
AcDbEntity
  8
AM_VIS
100
AcDbLine
 10
178.9436496254171
 20
153.078611653833
 30
0.0
 11
178.9436496254171
 21
168.0786116538329
 31
0.0
  0
LINE
  5
B5C
330
1F
100
AcDbEntity
  8
AM_VIS
100
AcDbLine
 10
178.4436496254171
 20
141.953611653833
 30
0.0
 11
178.9436496254171
 21
141.828611653833
 31
0.0
  0
LINE
  5
B5D
330
1F
100
AcDbEntity
  8
AM_VIS
100
AcDbLine
 10
195.9436496254171
 20
141.828611653833
 30
0.0
 11
196.4436496254171
 21
141.953611653833
 31
0.0
  0
LINE
  5
B5E
330
1F
100
AcDbEntity
  8
AM_VIS
100
AcDbLine
 10
196.4436496254171
 20
141.953611653833
 30
0.0
 11
203.8074530629716
 21
143.7945625132216
 31
0.0
  0
LINE
  5
B5F
330
1F
100
AcDbEntity
  8
AM_VIS
100
AcDbLine
 10
195.9436496254171
 20
141.828611653833
 30
0.0
 11
195.9436496254171
 21
153.078611653833
 31
0.0
  0
LINE
  5
B60
330
1F
100
AcDbEntity
  8
AM_VIS
100
AcDbLine
 10
195.9436496254171
 20
141.828611653833
 30
0.0
 11
194.9436496254171
 21
141.578611653833
 31
0.0
  0
LINE
  5
B61
330
1F
100
AcDbEntity
  8
AM_VIS
100
AcDbLine
 10
194.9436496254171
 20
135.578611653833
 30
0.0
 11
194.9436496254171
 21
141.578611653833
 31
0.0
  0
ARC
  5
B62
330
1F
100
AcDbEntity
  8
AM_VIS
100
AcDbCircle
 10
193.4433375002504
 20
135.5786950727927
 30
0.0
 40
1.500312127485797
100
AcDbArc
 50
330.0767508400348
 51
359.9968142933459
  0
LINE
  5
B63
330
1F
100
AcDbEntity
  8
AM_VIS
100
AcDbLine
 10
181.4436496254171
 20
134.078611653833
 30
0.0
 11
193.4436496254171
 21
134.078611653833
 31
0.0
  0
LINE
  5
B64
330
1F
100
AcDbEntity
  8
AM_VIS
100
AcDbLine
 10
195.9436496254172
 20
153.0786116538329
 30
0.0
 11
178.9436496254171
 21
153.0786116538329
 31
0.0
  0
LINE
  5
B65
330
1F
100
AcDbEntity
  8
AM_VIS
100
AcDbLine
 10
179.9436496254171
 20
141.578611653833
 30
0.0
 11
178.9436496254171
 21
141.828611653833
 31
0.0
  0
LINE
  5
B66
330
1F
100
AcDbEntity
  8
AM_VIS
100
AcDbLine
 10
178.9436496254171
 20
153.078611653833
 30
0.0
 11
178.9436496254171
 21
141.828611653833
 31
0.0
  0
ARC
  5
B67
330
1F
100
AcDbEntity
  8
AM_VIS
100
AcDbCircle
 10
181.4439617505837
 20
135.5786950727926
 30
0.0
 40
1.500312127485662
100
AcDbArc
 50
180.00318570665
 51
209.9232491599637
  0
LINE
  5
B68
330
1F
100
AcDbEntity
  8
AM_VIS
100
AcDbLine
 10
179.9436496254171
 20
141.578611653833
 30
0.0
 11
179.9436496254171
 21
135.578611653833
 31
0.0
  0
CIRCLE
  5
B69
102
{ACAD_REACTORS
330
E5A
102
}
330
1F
100
AcDbEntity
  8
AM_VIS
100
AcDbCircle
 10
200.9436496254171
 20
165.578611653833
 30
0.0
 40
1.6
  0
ARC
  5
B6A
330
1F
100
AcDbEntity
  8
AM_VIS
100
AcDbCircle
 10
203.4436496254171
 20
168.0786116538329
 30
0.0
 40
1.5
100
AcDbArc
 50
0.0
 51
90.0
  0
ARC
  5
B6B
330
1F
100
AcDbEntity
  8
AM_VIS
100
AcDbCircle
 10
197.4436496254171
 20
168.0786116538329
 30
0.0
 40
1.5
100
AcDbArc
 50
90.0
 51
180.0
  0
ARC
  5
B6C
330
1F
100
AcDbEntity
  8
AM_VIS
100
AcDbCircle
 10
203.4436496254171
 20
145.2497762634396
 30
0.0
 40
1.5
100
AcDbArc
 50
284.0362434679268
 51
0.0
  0
ARC
  5
B6D
330
1F
100
AcDbEntity
  8
AM_VIS
100
AcDbCircle
 10
171.4436496254171
 20
145.2497762634396
 30
0.0
 40
1.499999999999999
100
AcDbArc
 50
180.0
 51
255.9637565320731
  0
ARC
  5
B6E
102
{ACAD_REACTORS
330
EF9
102
}
330
1F
100
AcDbEntity
  8
AM_VIS
100
AcDbCircle
 10
171.4436496254171
 20
168.0786116538329
 30
0.0
 40
1.499999999999999
100
AcDbArc
 50
90.0
 51
180.0
  0
ARC
  5
B6F
330
1F
100
AcDbEntity
  8
AM_VIS
100
AcDbCircle
 10
177.4436496254171
 20
168.0786116538329
 30
0.0
 40
1.5
100
AcDbArc
 50
0.0
 51
90.0
  0
CIRCLE
  5
B70
330
1F
100
AcDbEntity
  8
AM_VIS
100
AcDbCircle
 10
173.9436496254171
 20
165.578611653833
 30
0.0
 40
1.6
  0
ARC
  5
B71
330
1F
100
AcDbEntity
  8
AM_VIS
100
AcDbCircle
 10
193.4436496254171
 20
135.578611653833
 30
0.0
 40
1.5
100
AcDbArc
 50
270.0
 51
330.073565133386
  0
CIRCLE
  5
B72
330
1F
100
AcDbEntity
  8
AM_VIS
100
AcDbCircle
 10
182.4436496254171
 20
137.578611653833
 30
0.0
 40
1.6
  0
CIRCLE
  5
B73
330
1F
100
AcDbEntity
  8
AM_VIS
100
AcDbCircle
 10
191.4436496254171
 20
137.578611653833
 30
0.0
 40
1.6
  0
ARC
  5
B78
102
{ACAD_REACTORS
330
EF9
102
}
330
1F
100
AcDbEntity
  8
AM_VIS
100
AcDbCircle
 10
181.4436496254171
 20
135.578611653833
 30
0.0
 40
1.5
100
AcDbArc
 50
209.9264348666141
 51
270.0
  0
LINE
  5
B79
330
1F
100
AcDbEntity
  8
AM_VIS
100
AcDbLine
 10
203.4436496254171
 20
194.5200189078731
 30
0.0
 11
196.4436496254171
 21
194.520018907873
 31
0.0
  0
LINE
  5
B7B
102
{ACAD_REACTORS
330
F1F
330
11F1
102
}
330
1F
100
AcDbEntity
  8
AM_VIS
100
AcDbLine
 10
204.9436496254172
 20
194.5200189078731
 30
0.0
 11
204.9436496254172
 21
195.7200189078731
 31
0.0
  0
LINE
  5
B7C
102
{ACAD_REACTORS
330
F1F
102
}
330
1F
100
AcDbEntity
  8
AM_VIS
100
AcDbLine
 10
169.9436496254171
 20
195.720018907873
 30
0.0
 11
169.9436496254171
 21
194.520018907873
 31
0.0
  0
LINE
  5
B7E
330
1F
100
AcDbEntity
  8
AM_VIS
100
AcDbLine
 10
178.4436496254171
 20
194.520018907873
 30
0.0
 11
171.4436496254171
 21
194.520018907873
 31
0.0
  0
LINE
  5
B7F
330
1F
100
AcDbEntity
  8
AM_VIS
100
AcDbLine
 10
197.4436496254171
 20
195.720018907873
 30
0.0
 11
203.4436496254171
 21
195.720018907873
 31
0.0
  0
LINE
  5
B80
330
1F
100
AcDbEntity
  8
AM_VIS
100
AcDbLine
 10
171.4436496254171
 20
195.720018907873
 30
0.0
 11
177.4436496254171
 21
195.720018907873
 31
0.0
  0
LINE
  5
B81
330
1F
100
AcDbEntity
  8
AM_VIS
100
AcDbLine
 10
178.9436496254171
 20
192.720018907873
 30
0.0
 11
178.9436496254171
 21
194.020018907873
 31
0.0
  0
LINE
  5
B82
330
1F
100
AcDbEntity
  8
AM_VIS
100
AcDbLine
 10
180.1436496254171
 20
194.520018907873
 30
0.0
 11
180.1436496254171
 21
193.220018907873
 31
0.0
  0
LINE
  5
C07
330
1F
100
AcDbEntity
  8
AM_VIS
100
AcDbLine
 10
303.4512392756727
 20
122.8713767620898
 30
0.0
 11
303.4512392756727
 21
125.0693586976536
 31
0.0
  0
LINE
  5
C08
330
1F
100
AcDbEntity
  8
AM_VIS
100
AcDbLine
 10
303.4512392756727
 20
119.2693586976536
 30
0.0
 11
303.4512392756727
 21
122.8713767620898
 31
0.0
  0
LINE
  5
C09
330
1F
100
AcDbEntity
  8
AM_VIS
100
AcDbLine
 10
303.4512392756727
 20
122.8713767620898
 30
0.0
 11
320.9512392756727
 21
122.8713767620898
 31
0.0
  0
LINE
  5
C0A
330
1F
100
AcDbEntity
  8
AM_VIS
100
AcDbLine
 10
320.9512392756727
 20
119.2693586976535
 30
0.0
 11
320.9512392756727
 21
122.8713767620898
 31
0.0
  0
LINE
  5
C0B
330
1F
100
AcDbEntity
  8
AM_VIS
100
AcDbLine
 10
320.9512392756727
 20
122.8713767620898
 30
0.0
 11
320.9512392756727
 21
125.0693586976535
 31
0.0
  0
LINE
  5
C0C
330
1F
100
AcDbEntity
  8
AM_VIS
100
AcDbLine
 10
333.4512392756727
 20
117.5693586976535
 30
0.0
 11
333.4512392756727
 21
118.7693586976535
 31
0.0
  0
LINE
  5
C0D
330
1F
100
AcDbEntity
  8
AM_VIS
100
AcDbLine
 10
295.4512392756726
 20
118.7693586976535
 30
0.0
 11
295.4512392756726
 21
117.5693586976535
 31
0.0
  0
LINE
  5
C0E
330
1F
100
AcDbEntity
  8
AM_VIS
100
AcDbLine
 10
295.9551003373158
 20
117.5693586976535
 30
0.0
 11
302.2206647743904
 21
117.5693586976535
 31
0.0
  0
LINE
  5
C0F
330
1F
100
AcDbEntity
  8
AM_VIS
100
AcDbLine
 10
302.7168037127473
 20
117.5693586976535
 30
0.0
 11
325.4512392756727
 21
117.5693586976535
 31
0.0
  0
LINE
  5
C10
330
1F
100
AcDbEntity
  8
AM_VIS
100
AcDbLine
 10
327.4512392756727
 20
117.5693586976535
 30
0.0
 11
332.4512392756727
 21
117.5693586976535
 31
0.0
  0
LINE
  5
C11
330
1F
100
AcDbEntity
  8
AM_VIS
100
AcDbLine
 10
326.4512392756726
 20
118.7693586976535
 30
0.0
 11
326.4512392756726
 21
117.5693586976535
 31
0.0
  0
LINE
  5
C12
330
1F
100
AcDbEntity
  8
AM_VIS
100
AcDbLine
 10
304.6512392756727
 20
146.5693586976535
 30
0.0
 11
304.6512392756727
 21
147.5693586976535
 31
0.0
  0
LINE
  5
C13
330
1F
100
AcDbEntity
  8
AM_VIS
100
AcDbLine
 10
309.2512392756727
 20
147.5693586976535
 30
0.0
 11
309.2512392756727
 21
146.5693586976535
 31
0.0
  0
LINE
  5
C14
330
1F
100
AcDbEntity
  8
AM_VIS
100
AcDbLine
 10
305.3512392756727
 20
146.5693586976535
 30
0.0
 11
305.3512392756727
 21
147.5693586976535
 31
0.0
  0
LINE
  5
C15
330
1F
100
AcDbEntity
  8
AM_VIS
100
AcDbLine
 10
308.5512392756727
 20
147.5693586976535
 30
0.0
 11
308.5512392756727
 21
146.5693586976535
 31
0.0
  0
LINE
  5
C16
330
1F
100
AcDbEntity
  8
AM_VIS
100
AcDbLine
 10
320.9512392756727
 20
125.0693586976535
 30
0.0
 11
320.9512392756727
 21
162.5693586976535
 31
0.0
  0
LINE
  5
C17
330
1F
100
AcDbEntity
  8
AM_VIS
100
AcDbLine
 10
303.4512392756727
 20
125.0693586976535
 30
0.0
 11
320.9512392756727
 21
125.0693586976535
 31
0.0
  0
LINE
  5
C18
330
1F
100
AcDbEntity
  8
AM_VIS
100
AcDbLine
 10
303.4512392756727
 20
125.0693586976535
 30
0.0
 11
303.4512392756727
 21
162.5693586976535
 31
0.0
  0
LINE
  5
C19
330
1F
100
AcDbEntity
  8
AM_VIS
100
AcDbLine
 10
304.4512392756727
 20
163.5693586976535
 30
0.0
 11
319.9512392756727
 21
163.5693586976535
 31
0.0
  0
LINE
  5
C1A
330
1F
100
AcDbEntity
  8
AM_VIS
100
AcDbLine
 10
332.4512392756727
 20
118.7693586976535
 30
0.0
 11
327.4512392756727
 21
118.7693586976535
 31
0.0
  0
LINE
  5
C1B
330
1F
100
AcDbEntity
  8
AM_VIS
100
AcDbLine
 10
325.4512392756727
 20
118.7693586976535
 30
0.0
 11
302.7168037127473
 21
118.7693586976535
 31
0.0
  0
LINE
  5
C1C
330
1F
100
AcDbEntity
  8
AM_VIS
100
AcDbLine
 10
302.2206647743904
 20
118.7693586976535
 30
0.0
 11
295.9551003373158
 21
118.7693586976535
 31
0.0
  0
LINE
  5
C1D
102
{ACAD_REACTORS
330
F49
330
F7B
102
}
330
1F
100
AcDbEntity
  8
AM_VIS
100
AcDbLine
 10
295.9551003373158
 20
117.5693586976535
 30
0.0
 11
295.4512392756726
 21
117.5693586976535
 31
0.0
  0
LINE
  5
C1E
330
1F
100
AcDbEntity
  8
AM_VIS
100
AcDbLine
 10
302.7168037127473
 20
117.5693586976535
 30
0.0
 11
302.2206647743904
 21
117.5693586976535
 31
0.0
  0
LINE
  5
C1F
330
1F
100
AcDbEntity
  8
AM_VIS
100
AcDbLine
 10
327.4512392756727
 20
117.5693586976535
 30
0.0
 11
326.4512392756726
 21
117.5693586976535
 31
0.0
  0
LINE
  5
C20
330
1F
100
AcDbEntity
  8
AM_VIS
100
AcDbLine
 10
333.4512392756727
 20
117.5693586976535
 30
0.0
 11
332.4512392756727
 21
117.5693586976535
 31
0.0
  0
LINE
  5
C21
330
1F
100
AcDbEntity
  8
AM_VIS
100
AcDbLine
 10
325.4512392756727
 20
117.5693586976535
 30
0.0
 11
326.4512392756726
 21
117.5693586976535
 31
0.0
  0
CIRCLE
  5
C22
330
1F
100
AcDbEntity
  8
AM_VIS
100
AcDbCircle
 10
306.9512392756727
 20
138.0693586976535
 30
0.0
 40
2.299999999999999
  0
ARC
  5
C23
330
1F
100
AcDbEntity
  8
AM_VIS
100
AcDbCircle
 10
306.9512392756727
 20
147.5693586976535
 30
0.0
 40
2.299999999999999
100
AcDbArc
 50
0.0
 51
180.0
  0
ARC
  5
C24
330
1F
100
AcDbEntity
  8
AM_VIS
100
AcDbCircle
 10
306.9512392756727
 20
146.5693586976535
 30
0.0
 40
2.299999999999999
100
AcDbArc
 50
180.0
 51
0.0
  0
CIRCLE
  5
C25
330
1F
100
AcDbEntity
  8
AM_VIS
100
AcDbCircle
 10
306.9512392756727
 20
138.0693586976535
 30
0.0
 40
1.6
  0
ARC
  5
C26
330
1F
100
AcDbEntity
  8
AM_VIS
100
AcDbCircle
 10
306.9512392756727
 20
146.5693586976535
 30
0.0
 40
1.6
100
AcDbArc
 50
180.0
 51
0.0
  0
ARC
  5
C27
330
1F
100
AcDbEntity
  8
AM_VIS
100
AcDbCircle
 10
306.9512392756727
 20
147.5693586976535
 30
0.0
 40
1.6
100
AcDbArc
 50
0.0
 51
180.0
  0
ARC
  5
C28
102
{ACAD_REACTORS
330
F49
102
}
330
1F
100
AcDbEntity
  8
AM_VIS
100
AcDbCircle
 10
304.4512392756727
 20
162.5693586976535
 30
0.0
 40
0.9999999999999998
100
AcDbArc
 50
90.0
 51
180.0
  0
CIRCLE
  5
C29
330
1F
100
AcDbEntity
  8
AM_VIS
100
AcDbCircle
 10
306.9512392756727
 20
156.0693586976535
 30
0.0
 40
1.6
  0
ARC
  5
C2A
330
1F
100
AcDbEntity
  8
AM_VIS
100
AcDbCircle
 10
319.9512392756727
 20
162.5693586976535
 30
0.0
 40
0.9999999999999998
100
AcDbArc
 50
0.0
 51
90.0
  0
LINE
  5
C2B
330
1F
100
AcDbEntity
  8
AM_VIS
100
AcDbLine
 10
332.4512392756727
 20
118.7693586976535
 30
0.0
 11
333.4512392756727
 21
118.7693586976535
 31
0.0
  0
LINE
  5
C2C
330
1F
100
AcDbEntity
  8
AM_VIS
100
AcDbLine
 10
326.4512392756726
 20
118.7693586976535
 30
0.0
 11
327.4512392756727
 21
118.7693586976535
 31
0.0
  0
LINE
  5
C2D
330
1F
100
AcDbEntity
  8
AM_VIS
100
AcDbLine
 10
326.4512392756726
 20
118.7693586976535
 30
0.0
 11
325.4512392756727
 21
118.7693586976535
 31
0.0
  0
LINE
  5
C2E
330
1F
100
AcDbEntity
  8
AM_VIS
100
AcDbLine
 10
302.2206647743904
 20
118.7693586976535
 30
0.0
 11
302.7168037127473
 21
118.7693586976535
 31
0.0
  0
LINE
  5
C2F
102
{ACAD_REACTORS
330
F7B
102
}
330
1F
100
AcDbEntity
  8
AM_VIS
100
AcDbLine
 10
295.4512392756726
 20
118.7693586976535
 30
0.0
 11
295.9551003373158
 21
118.7693586976535
 31
0.0
  0
LINE
  5
C30
330
1F
100
AcDbEntity
  8
AM_VIS
100
AcDbLine
 10
320.9512392756727
 20
118.7693586976535
 30
0.0
 11
320.9512392756727
 21
119.2693586976535
 31
0.0
  0
LINE
  5
C31
330
1F
100
AcDbEntity
  8
AM_VIS
100
AcDbLine
 10
303.4512392756727
 20
119.2693586976536
 30
0.0
 11
303.4512392756727
 21
118.7693586976535
 31
0.0
  0
LINE
  5
C32
330
1F
100
AcDbEntity
  8
AM_VIS
100
AcDbLine
 10
364.6307348398743
 20
124.8577663208034
 30
0.0
 11
363.8307348398742
 21
122.6597843852397
 31
0.0
  0
LINE
  5
C33
330
1F
100
AcDbEntity
  8
AM_VIS
100
AcDbLine
 10
363.8307348398742
 20
122.6597843852397
 30
0.0
 11
363.8307348398742
 21
118.5693586976535
 31
0.0
  0
LINE
  5
C34
330
1F
100
AcDbEntity
  8
AM_VIS
100
AcDbLine
 10
362.6307348398743
 20
119.2693586976535
 30
0.0
 11
362.6307348398743
 21
122.8713767620898
 31
0.0
  0
LINE
  5
C35
330
1F
100
AcDbEntity
  8
AM_VIS
100
AcDbLine
 10
362.6307348398742
 20
122.8713767620898
 30
0.0
 11
363.4307348398742
 21
125.0693586976535
 31
0.0
  0
LINE
  5
C36
330
1F
100
AcDbEntity
  8
AM_VIS
100
AcDbLine
 10
345.6307348398742
 20
118.7693586976535
 30
0.0
 11
345.6307348398742
 21
117.5693586976535
 31
0.0
  0
LINE
  5
C37
330
1F
100
AcDbEntity
  8
AM_VIS
100
AcDbLine
 10
362.1307348398743
 20
117.5693586976535
 30
0.0
 11
362.1307348398743
 21
118.7693586976535
 31
0.0
  0
LINE
  5
C38
330
1F
100
AcDbEntity
  8
AM_VIS
100
AcDbLine
 10
346.6307348398743
 20
117.5693586976535
 30
0.0
 11
357.550412304403
 21
117.5693586976535
 31
0.0
  0
LINE
  5
C39
330
1F
100
AcDbEntity
  8
AM_VIS
100
AcDbLine
 10
358.4186554465275
 20
117.5693586976535
 30
0.0
 11
361.9989779819988
 21
117.5693586976535
 31
0.0
  0
LINE
  5
C3A
330
1F
100
AcDbEntity
  8
AM_VIS
100
AcDbLine
 10
362.8307348398743
 20
117.5693586976535
 30
0.0
 11
362.1307348398743
 21
117.5693586976535
 31
0.0
  0
LINE
  5
C3B
330
1F
100
AcDbEntity
  8
AM_VIS
100
AcDbLine
 10
369.6307348398743
 20
117.5693586976535
 30
0.0
 11
369.6307348398743
 21
118.7693586976535
 31
0.0
  0
LINE
  5
C3C
330
1F
100
AcDbEntity
  8
AM_VIS
100
AcDbLine
 10
363.1307348398743
 20
117.5693586976535
 30
0.0
 11
368.6307348398742
 21
117.5693586976535
 31
0.0
  0
LINE
  5
C3D
330
1F
100
AcDbEntity
  8
AM_VIS
100
AcDbLine
 10
364.6307348398743
 20
162.5693586976535
 30
0.0
 11
364.6307348398743
 21
124.8577663208034
 31
0.0
  0
LINE
  5
C3E
330
1F
100
AcDbEntity
  8
AM_VIS
100
AcDbLine
 10
362.6307348398743
 20
149.7693586976535
 30
0.0
 11
362.6307348398743
 21
143.3693586976536
 31
0.0
  0
ARC
  5
C3F
330
1F
100
AcDbEntity
  8
AM_VIS
100
AcDbCircle
 10
363.4307348398743
 20
143.3693586976536
 30
0.0
 40
0.7999999999999999
100
AcDbArc
 50
180.0
 51
270.0
  0
ARC
  5
C40
330
1F
100
AcDbEntity
  8
AM_VIS
100
AcDbCircle
 10
363.4307348398743
 20
149.7693586976535
 30
0.0
 40
0.8000000000000007
100
AcDbArc
 50
90.0
 51
180.0
  0
LINE
  5
C41
330
1F
100
AcDbEntity
  8
AM_VIS
100
AcDbLine
 10
363.4307348398743
 20
125.0693586976535
 30
0.0
 11
363.4307348398743
 21
162.5693586976535
 31
0.0
  0
LINE
  5
C42
330
1F
100
AcDbEntity
  8
AM_VIS
100
AcDbLine
 10
364.6307348398743
 20
163.5693586976535
 30
0.0
 11
363.4307348398742
 21
163.5693586976535
 31
0.0
  0
LINE
  5
C43
330
1F
100
AcDbEntity
  8
AM_VIS
100
AcDbLine
 10
361.9989779819988
 20
118.7693586976535
 30
0.0
 11
358.4186554465275
 21
118.7693586976535
 31
0.0
  0
LINE
  5
C44
330
1F
100
AcDbEntity
  8
AM_VIS
100
AcDbLine
 10
357.550412304403
 20
118.7693586976535
 30
0.0
 11
346.6307348398743
 21
118.7693586976535
 31
0.0
  0
LINE
  5
C45
330
1F
100
AcDbEntity
  8
AM_VIS
100
AcDbLine
 10
368.6307348398742
 20
118.7693586976535
 30
0.0
 11
363.8307348398742
 21
118.7693586976535
 31
0.0
  0
LINE
  5
C46
330
1F
100
AcDbEntity
  8
AM_VIS
100
AcDbLine
 10
363.4307348398743
 20
140.3693586976536
 30
0.0
 11
362.6307348398743
 21
140.3693586976536
 31
0.0
  0
LINE
  5
C47
330
1F
100
AcDbEntity
  8
AM_VIS
100
AcDbLine
 10
363.4307348398743
 20
135.7693586976536
 30
0.0
 11
362.6307348398743
 21
135.7693586976536
 31
0.0
  0
LINE
  5
C48
330
1F
100
AcDbEntity
  8
AM_VIS
100
AcDbLine
 10
362.6370094465549
 20
149.8693586976536
 30
0.0
 11
362.6307348398743
 21
149.8693586976536
 31
0.0
  0
ARC
  5
C49
330
1F
100
AcDbEntity
  8
AM_VIS
100
AcDbCircle
 10
362.8307348398743
 20
118.5693586976535
 30
0.0
 40
0.9999999999999998
100
AcDbArc
 50
270.0
 51
0.0
  0
LINE
  5
C4A
330
1F
100
AcDbEntity
  8
AM_VIS
100
AcDbLine
 10
346.6307348398743
 20
117.5693586976535
 30
0.0
 11
345.6307348398742
 21
117.5693586976535
 31
0.0
  0
LINE
  5
C4B
330
1F
100
AcDbEntity
  8
AM_VIS
100
AcDbLine
 10
358.4186554465275
 20
117.5693586976535
 30
0.0
 11
357.550412304403
 21
117.5693586976535
 31
0.0
  0
LINE
  5
C4C
330
1F
100
AcDbEntity
  8
AM_VIS
100
AcDbLine
 10
362.1307348398743
 20
117.5693586976535
 30
0.0
 11
361.9989779819988
 21
117.5693586976535
 31
0.0
  0
LINE
  5
C4D
330
1F
100
AcDbEntity
  8
AM_VIS
100
AcDbLine
 10
369.6307348398743
 20
117.5693586976535
 30
0.0
 11
368.6307348398742
 21
117.5693586976535
 31
0.0
  0
LINE
  5
C4E
330
1F
100
AcDbEntity
  8
AM_VIS
100
AcDbLine
 10
362.8307348398743
 20
117.5693586976535
 30
0.0
 11
363.1307348398743
 21
117.5693586976535
 31
0.0
  0
LINE
  5
C4F
330
1F
100
AcDbEntity
  8
AM_VIS
100
AcDbLine
 10
362.6307348398743
 20
135.7693586976535
 30
0.0
 11
362.6307348398743
 21
140.3693586976536
 31
0.0
  0
LINE
  5
C50
330
1F
100
AcDbEntity
  8
AM_VIS
100
AcDbLine
 10
362.6307348398743
 20
149.7693586976535
 30
0.0
 11
362.6307348398743
 21
149.8693586976536
 31
0.0
  0
LINE
  5
C51
330
1F
100
AcDbEntity
  8
AM_VIS
100
AcDbLine
 10
363.4307348398743
 20
162.5693586976535
 30
0.0
 11
363.4307348398743
 21
163.5693586976535
 31
0.0
  0
LINE
  5
C52
330
1F
100
AcDbEntity
  8
AM_VIS
100
AcDbLine
 10
364.6307348398743
 20
163.5693586976535
 30
0.0
 11
364.6307348398743
 21
162.5693586976535
 31
0.0
  0
LINE
  5
C53
330
1F
100
AcDbEntity
  8
AM_VIS
100
AcDbLine
 10
361.9989779819988
 20
118.7693586976535
 30
0.0
 11
362.1307348398743
 21
118.7693586976535
 31
0.0
  0
LINE
  5
C54
330
1F
100
AcDbEntity
  8
AM_VIS
100
AcDbLine
 10
357.550412304403
 20
118.7693586976535
 30
0.0
 11
358.4186554465275
 21
118.7693586976535
 31
0.0
  0
LINE
  5
C55
330
1F
100
AcDbEntity
  8
AM_VIS
100
AcDbLine
 10
345.6307348398742
 20
118.7693586976535
 30
0.0
 11
346.6307348398743
 21
118.7693586976535
 31
0.0
  0
LINE
  5
C56
330
1F
100
AcDbEntity
  8
AM_VIS
100
AcDbLine
 10
368.6307348398742
 20
118.7693586976535
 30
0.0
 11
369.6307348398743
 21
118.7693586976535
 31
0.0
  0
ARC
  5
C57
330
1F
100
AcDbEntity
  8
AM_VIS
100
AcDbCircle
 10
362.1307348398743
 20
119.2693586976535
 30
0.0
 40
0.5
100
AcDbArc
 50
270.0
 51
0.0
  0
LINE
  5
C58
330
1F
100
AcDbEntity
  8
AM_VIS
100
AcDbLine
 10
303.4512392756727
 20
195.7257881875099
 30
0.0
 11
303.4512392756727
 21
196.5257881875099
 31
0.0
  0
LINE
  5
C59
330
1F
100
AcDbEntity
  8
AM_VIS
100
AcDbLine
 10
303.4512392756727
 20
195.7257881875099
 30
0.0
 11
304.6512392756727
 21
195.7257881875099
 31
0.0
  0
LINE
  5
C5A
330
1F
100
AcDbEntity
  8
AM_VIS
100
AcDbLine
 10
309.2512392756727
 20
195.7257881875099
 30
0.0
 11
312.7512392756727
 21
195.7257881875099
 31
0.0
  0
LINE
  5
C5B
330
1F
100
AcDbEntity
  8
AM_VIS
100
AcDbLine
 10
317.1512392756727
 20
195.7257881875099
 30
0.0
 11
320.9512392756727
 21
195.7257881875099
 31
0.0
  0
LINE
  5
C5C
330
1F
100
AcDbEntity
  8
AM_VIS
100
AcDbLine
 10
320.9512392756727
 20
195.7257881875099
 30
0.0
 11
320.9512392756727
 21
196.5257881875098
 31
0.0
  0
LINE
  5
C5D
330
1F
100
AcDbEntity
  8
AM_VIS
100
AcDbLine
 10
304.6512392756727
 20
196.5257881875099
 30
0.0
 11
304.6512392756727
 21
195.7257881875099
 31
0.0
  0
LINE
  5
C5E
330
1F
100
AcDbEntity
  8
AM_VIS
100
AcDbLine
 10
309.2512392756727
 20
196.5257881875099
 30
0.0
 11
309.2512392756727
 21
195.7257881875099
 31
0.0
  0
LINE
  5
C5F
330
1F
100
AcDbEntity
  8
AM_VIS
100
AcDbLine
 10
312.7512392756727
 20
195.7257881875099
 30
0.0
 11
317.1512392756727
 21
195.7257881875099
 31
0.0
  0
ARC
  5
C60
330
1F
100
AcDbEntity
  8
AM_VIS
100
AcDbCircle
 10
317.1512392756727
 20
196.5257881875099
 30
0.0
 40
0.8000000000000001
100
AcDbArc
 50
270.0
 51
0.0
  0
ARC
  5
C61
330
1F
100
AcDbEntity
  8
AM_VIS
100
AcDbCircle
 10
312.7512392756727
 20
196.5257881875099
 30
0.0
 40
0.7999999999999999
100
AcDbArc
 50
180.0
 51
270.0
  0
LINE
  5
C62
330
1F
100
AcDbEntity
  8
AM_VIS
100
AcDbLine
 10
303.4512392756727
 20
197.7257881875098
 30
0.0
 11
303.4512392756727
 21
196.5257881875098
 31
0.0
  0
LINE
  5
C63
330
1F
100
AcDbEntity
  8
AM_VIS
100
AcDbLine
 10
304.4512392756727
 20
197.7257881875099
 30
0.0
 11
319.9512392756727
 21
197.7257881875099
 31
0.0
  0
LINE
  5
C64
330
1F
100
AcDbEntity
  8
AM_VIS
100
AcDbLine
 10
304.4512392756727
 20
196.5257881875099
 30
0.0
 11
319.9512392756727
 21
196.5257881875099
 31
0.0
  0
LINE
  5
C65
330
1F
100
AcDbEntity
  8
AM_VIS
100
AcDbLine
 10
320.9512392756727
 20
196.5257881875098
 30
0.0
 11
320.9512392756727
 21
197.7257881875098
 31
0.0
  0
LINE
  5
C66
330
1F
100
AcDbEntity
  8
AM_VIS
100
AcDbLine
 10
320.9512392756727
 20
195.2257881875099
 30
0.0
 11
326.1856748385981
 21
195.2257881875099
 31
0.0
  0
LINE
  5
C67
330
1F
100
AcDbEntity
  8
AM_VIS
100
AcDbLine
 10
326.6818137769549
 20
195.0940313296344
 30
0.0
 11
332.9473782140295
 21
191.5137087941631
 31
0.0
  0
LINE
  5
C68
330
1F
100
AcDbEntity
  8
AM_VIS
100
AcDbLine
 10
333.4512392756727
 20
190.6454656520387
 30
0.0
 11
333.4512392756727
 21
179.7257881875099
 31
0.0
  0
LINE
  5
C69
330
1F
100
AcDbEntity
  8
AM_VIS
100
AcDbLine
 10
332.4512392756727
 20
178.7257881875099
 30
0.0
 11
327.4512392756727
 21
178.7257881875099
 31
0.0
  0
LINE
  5
C6A
330
1F
100
AcDbEntity
  8
AM_VIS
100
AcDbLine
 10
326.4512392756726
 20
179.7257881875099
 30
0.0
 11
326.4512392756726
 21
185.2257881875099
 31
0.0
  0
LINE
  5
C6B
330
1F
100
AcDbEntity
  8
AM_VIS
100
AcDbLine
 10
325.4512392756727
 20
186.2257881875099
 30
0.0
 11
302.7168037127473
 21
186.2257881875099
 31
0.0
  0
LINE
  5
C6C
330
1F
100
AcDbEntity
  8
AM_VIS
100
AcDbLine
 10
302.2206647743904
 20
186.3575450453854
 30
0.0
 11
295.9551003373158
 21
189.9378675808567
 31
0.0
  0
LINE
  5
C6D
330
1F
100
AcDbEntity
  8
AM_VIS
100
AcDbLine
 10
295.4512392756726
 20
190.8061107229811
 30
0.0
 11
295.4512392756726
 21
201.7257881875099
 31
0.0
  0
LINE
  5
C6E
330
1F
100
AcDbEntity
  8
AM_VIS
100
AcDbLine
 10
296.4512392756727
 20
202.7257881875099
 30
0.0
 11
300.9512392756727
 21
202.7257881875099
 31
0.0
  0
LINE
  5
C6F
330
1F
100
AcDbEntity
  8
AM_VIS
100
AcDbLine
 10
301.9512392756727
 20
201.7257881875099
 30
0.0
 11
301.9512392756727
 21
196.2257881875099
 31
0.0
  0
LINE
  5
C70
330
1F
100
AcDbEntity
  8
AM_VIS
100
AcDbLine
 10
302.9512392756727
 20
195.2257881875099
 30
0.0
 11
303.4512392756727
 21
195.2257881875099
 31
0.0
  0
LINE
  5
C71
330
1F
100
AcDbEntity
  8
AM_VIS
100
AcDbLine
 10
309.2512392756727
 20
195.7257881875099
 30
0.0
 11
304.6512392756727
 21
195.7257881875099
 31
0.0
  0
LINE
  5
C72
330
1F
100
AcDbEntity
  8
AM_VIS
100
AcDbLine
 10
303.4512392756727
 20
197.7257881875099
 30
0.0
 11
304.4512392756727
 21
197.7257881875099
 31
0.0
  0
LINE
  5
C73
330
1F
100
AcDbEntity
  8
AM_VIS
100
AcDbLine
 10
304.4512392756727
 20
196.5257881875099
 30
0.0
 11
303.4512392756727
 21
196.5257881875099
 31
0.0
  0
LINE
  5
C74
330
1F
100
AcDbEntity
  8
AM_VIS
100
AcDbLine
 10
320.9512392756727
 20
196.5257881875099
 30
0.0
 11
319.9512392756727
 21
196.5257881875099
 31
0.0
  0
LINE
  5
C75
330
1F
100
AcDbEntity
  8
AM_VIS
100
AcDbLine
 10
319.9512392756727
 20
197.7257881875099
 30
0.0
 11
320.9512392756727
 21
197.7257881875099
 31
0.0
  0
ARC
  5
C76
330
1F
100
AcDbEntity
  8
AM_VIS
100
AcDbCircle
 10
326.1856748385981
 20
194.2257881875099
 30
0.0
 40
1.0
100
AcDbArc
 50
60.25511870305617
 51
90.0
  0
ARC
  5
C77
330
1F
100
AcDbEntity
  8
AM_VIS
100
AcDbCircle
 10
332.4512392756727
 20
190.6454656520387
 30
0.0
 40
0.9999999999999998
100
AcDbArc
 50
0.0
 51
60.25511870305617
  0
ARC
  5
C78
330
1F
100
AcDbEntity
  8
AM_VIS
100
AcDbCircle
 10
332.4512392756727
 20
179.7257881875099
 30
0.0
 40
0.9999999999999998
100
AcDbArc
 50
270.0
 51
0.0
  0
ARC
  5
C79
330
1F
100
AcDbEntity
  8
AM_VIS
100
AcDbCircle
 10
327.4512392756727
 20
179.7257881875099
 30
0.0
 40
0.9999999999999998
100
AcDbArc
 50
180.0
 51
270.0
  0
ARC
  5
C7A
330
1F
100
AcDbEntity
  8
AM_VIS
100
AcDbCircle
 10
325.4512392756727
 20
185.2257881875099
 30
0.0
 40
0.9999999999999998
100
AcDbArc
 50
0.0
 51
90.0
  0
ARC
  5
C7B
330
1F
100
AcDbEntity
  8
AM_VIS
100
AcDbCircle
 10
302.7168037127473
 20
187.2257881875099
 30
0.0
 40
0.9999999999999998
100
AcDbArc
 50
240.2551187030562
 51
270.0
  0
ARC
  5
C7C
330
1F
100
AcDbEntity
  8
AM_VIS
100
AcDbCircle
 10
296.4512392756727
 20
190.8061107229811
 30
0.0
 40
0.9999999999999998
100
AcDbArc
 50
180.0
 51
240.2551187030594
  0
ARC
  5
C7D
330
1F
100
AcDbEntity
  8
AM_VIS
100
AcDbCircle
 10
296.4512392756727
 20
201.7257881875099
 30
0.0
 40
0.9999999999999998
100
AcDbArc
 50
90.0
 51
180.0
  0
ARC
  5
C7E
330
1F
100
AcDbEntity
  8
AM_VIS
100
AcDbCircle
 10
300.9512392756727
 20
201.7257881875099
 30
0.0
 40
0.9999999999999998
100
AcDbArc
 50
0.0
 51
90.0
  0
ARC
  5
C7F
330
1F
100
AcDbEntity
  8
AM_VIS
100
AcDbCircle
 10
302.9512392756727
 20
196.2257881875099
 30
0.0
 40
1.0
100
AcDbArc
 50
180.0
 51
270.0
  0
CIRCLE
  5
C80
102
{ACAD_REACTORS
330
E9D
102
}
330
1F
100
AcDbEntity
  8
AM_VIS
100
AcDbCircle
 10
298.9512392756727
 20
199.2257881875099
 30
0.0
 40
1.6
  0
CIRCLE
  5
C81
330
1F
100
AcDbEntity
  8
AM_VIS
100
AcDbCircle
 10
329.9512392756727
 20
182.2257881875099
 30
0.0
 40
1.6
  0
LINE
  5
C82
330
1F
100
AcDbEntity
  8
AM_VIS
100
AcDbLine
 10
320.9512392756727
 20
195.2257881875099
 30
0.0
 11
320.9512392756727
 21
195.7257881875099
 31
0.0
  0
LINE
  5
C83
330
1F
100
AcDbEntity
  8
AM_VIS
100
AcDbLine
 10
303.4512392756727
 20
195.7257881875099
 30
0.0
 11
303.4512392756727
 21
195.2257881875099
 31
0.0
  0
LINE
  5
CFF
330
1F
100
AcDbEntity
  8
AM_7
  6
AM_ISO08W050x2
100
AcDbLine
 10
173.9436496254171
 20
165.578611653833
 30
0.0
 11
177.0436496254171
 21
165.578611653833
 31
0.0
1001
GENIUS_GENOREF_13
1005
D03
  0
LINE
  5
D00
102
{ACAD_REACTORS
330
E3A
102
}
330
1F
100
AcDbEntity
  8
AM_7
  6
AM_ISO08W050x2
100
AcDbLine
 10
173.9436496254171
 20
165.578611653833
 30
0.0
 11
173.9436496254171
 21
168.6786116538329
 31
0.0
1001
GENIUS_GENOREF_13
1005
D03
  0
LINE
  5
D01
330
1F
100
AcDbEntity
  8
AM_7
  6
AM_ISO08W050x2
100
AcDbLine
 10
173.9436496254171
 20
165.578611653833
 30
0.0
 11
170.8436496254171
 21
165.578611653833
 31
0.0
1001
GENIUS_GENOREF_13
1005
D03
  0
LINE
  5
D02
330
1F
100
AcDbEntity
  8
AM_7
  6
AM_ISO08W050x2
100
AcDbLine
 10
173.9436496254171
 20
165.578611653833
 30
0.0
 11
173.9436496254171
 21
162.478611653833
 31
0.0
1001
GENIUS_GENOREF_13
1005
D03
  0
POINT
  5
D03
330
1F
100
AcDbEntity
  8
0
 60
     1
100
AcDbPoint
 10
0.0
 20
0.0
 30
0.0
1001
GENIUS_GENOLIS_13
1002
{
1000
ENT
1005
D02
1005
D01
1005
D00
1005
CFF
1002
}
1001
GENIUS_GENOENT_13
1002
{
1000
MYREF
1005
D03
1002
}
1002
{
1000
GRP
1005
0
1002
}
1001
GENIUS_GENODEF_13
1002
{
1000
HIER
1070
    10
1002
}
1002
{
1000
MANEDIT
1070
     0
1002
}
1002
{
1000
NOSEL
1070
     0
1002
}
1002
{
1000
BEHIND
1070
     0
1002
}
1002
{
1000
OTHER
1070
     0
1002
}
1002
{
1000
REACTOR
1002
}
1001
GENIUS_GENOBJ-N-CRS_13
1002
{
1000
OWNER
1000
GEN
1002
}
  0
LINE
  5
D11
330
1F
100
AcDbEntity
  8
AM_7
  6
AM_ISO08W050x2
100
AcDbLine
 10
200.9436496254171
 20
165.578611653833
 30
0.0
 11
204.0436496254172
 21
165.578611653833
 31
0.0
1001
GENIUS_GENOREF_13
1005
D15
  0
LINE
  5
D12
102
{ACAD_REACTORS
330
E3A
102
}
330
1F
100
AcDbEntity
  8
AM_7
  6
AM_ISO08W050x2
100
AcDbLine
 10
200.9436496254171
 20
165.578611653833
 30
0.0
 11
200.9436496254171
 21
168.6786116538329
 31
0.0
1001
GENIUS_GENOREF_13
1005
D15
  0
LINE
  5
D13
330
1F
100
AcDbEntity
  8
AM_7
  6
AM_ISO08W050x2
100
AcDbLine
 10
200.9436496254171
 20
165.578611653833
 30
0.0
 11
197.8436496254171
 21
165.578611653833
 31
0.0
1001
GENIUS_GENOREF_13
1005
D15
  0
LINE
  5
D14
330
1F
100
AcDbEntity
  8
AM_7
  6
AM_ISO08W050x2
100
AcDbLine
 10
200.9436496254171
 20
165.578611653833
 30
0.0
 11
200.9436496254171
 21
162.478611653833
 31
0.0
1001
GENIUS_GENOREF_13
1005
D15
  0
POINT
  5
D15
330
1F
100
AcDbEntity
  8
0
 60
     1
100
AcDbPoint
 10
0.0
 20
0.0
 30
0.0
1001
GENIUS_GENODEF_13
1002
{
1000
HIER
1070
    10
1002
}
1002
{
1000
MANEDIT
1070
     0
1002
}
1002
{
1000
NOSEL
1070
     0
1002
}
1002
{
1000
BEHIND
1070
     0
1002
}
1002
{
1000
OTHER
1070
     0
1002
}
1002
{
1000
REACTOR
1002
}
1001
GENIUS_GENOLIS_13
1002
{
1000
ENT
1005
D14
1005
D13
1005
D12
1005
D11
1002
}
1001
GENIUS_GENOBJ-N-CRS_13
1002
{
1000
OWNER
1000
GEN
1002
}
1001
GENIUS_GENOENT_13
1002
{
1000
MYREF
1005
D15
1002
}
1002
{
1000
GRP
1005
0
1002
}
  0
LINE
  5
D23
330
1F
100
AcDbEntity
  8
AM_7
  6
AM_ISO08W050x2
100
AcDbLine
 10
306.9512392756727
 20
156.0693586976535
 30
0.0
 11
310.0512392756727
 21
156.0693586976535
 31
0.0
1001
GENIUS_GENOREF_13
1005
D27
  0
LINE
  5
D24
330
1F
100
AcDbEntity
  8
AM_7
  6
AM_ISO08W050x2
100
AcDbLine
 10
306.9512392756727
 20
156.0693586976535
 30
0.0
 11
306.9512392756727
 21
159.1693586976536
 31
0.0
1001
GENIUS_GENOREF_13
1005
D27
  0
LINE
  5
D25
330
1F
100
AcDbEntity
  8
AM_7
  6
AM_ISO08W050x2
100
AcDbLine
 10
306.9512392756727
 20
156.0693586976535
 30
0.0
 11
303.8512392756727
 21
156.0693586976535
 31
0.0
1001
GENIUS_GENOREF_13
1005
D27
  0
LINE
  5
D26
330
1F
100
AcDbEntity
  8
AM_7
  6
AM_ISO08W050x2
100
AcDbLine
 10
306.9512392756727
 20
156.0693586976535
 30
0.0
 11
306.9512392756727
 21
152.9693586976535
 31
0.0
1001
GENIUS_GENOREF_13
1005
D27
  0
POINT
  5
D27
330
1F
100
AcDbEntity
  8
0
 60
     1
100
AcDbPoint
 10
0.0
 20
0.0
 30
0.0
1001
GENIUS_GENODEF_13
1002
{
1000
HIER
1070
    10
1002
}
1002
{
1000
MANEDIT
1070
     0
1002
}
1002
{
1000
NOSEL
1070
     0
1002
}
1002
{
1000
BEHIND
1070
     0
1002
}
1002
{
1000
OTHER
1070
     0
1002
}
1002
{
1000
REACTOR
1002
}
1001
GENIUS_GENOLIS_13
1002
{
1000
ENT
1005
D26
1005
D25
1005
D24
1005
D23
1002
}
1001
GENIUS_GENOENT_13
1002
{
1000
MYREF
1005
D27
1002
}
1002
{
1000
GRP
1005
0
1002
}
1001
GENIUS_GENOBJ-N-CRS_13
1002
{
1000
OWNER
1000
GEN
1002
}
  0
LINE
  5
D81
330
1F
100
AcDbEntity
  8
AM_7
  6
AM_ISO08W050x2
100
AcDbLine
 10
306.9512392756727
 20
147.5693586976535
 30
0.0
 11
310.7512392756727
 21
147.5693586976535
 31
0.0
1001
GENIUS_GENOREF_13
1005
D85
  0
LINE
  5
D82
330
1F
100
AcDbEntity
  8
AM_7
  6
AM_ISO08W050x2
100
AcDbLine
 10
306.9512392756727
 20
147.5693586976535
 30
0.0
 11
306.9512392756727
 21
151.3693586976535
 31
0.0
1001
GENIUS_GENOREF_13
1005
D85
  0
LINE
  5
D83
330
1F
100
AcDbEntity
  8
AM_7
  6
AM_ISO08W050x2
100
AcDbLine
 10
306.9512392756727
 20
147.5693586976535
 30
0.0
 11
303.1512392756726
 21
147.5693586976535
 31
0.0
1001
GENIUS_GENOREF_13
1005
D85
  0
LINE
  5
D84
330
1F
100
AcDbEntity
  8
AM_7
  6
AM_ISO08W050x2
100
AcDbLine
 10
306.9512392756727
 20
147.5693586976535
 30
0.0
 11
306.9512392756727
 21
143.7693586976535
 31
0.0
1001
GENIUS_GENOREF_13
1005
D85
  0
POINT
  5
D85
330
1F
100
AcDbEntity
  8
0
 60
     1
100
AcDbPoint
 10
0.0
 20
0.0
 30
0.0
1001
GENIUS_GENODEF_13
1002
{
1000
HIER
1070
    10
1002
}
1002
{
1000
MANEDIT
1070
     0
1002
}
1002
{
1000
NOSEL
1070
     0
1002
}
1002
{
1000
BEHIND
1070
     0
1002
}
1002
{
1000
OTHER
1070
     0
1002
}
1002
{
1000
REACTOR
1002
}
1001
GENIUS_GENOENT_13
1002
{
1000
MYREF
1005
D85
1002
}
1002
{
1000
GRP
1005
0
1002
}
1001
GENIUS_GENOBJ-N-CRS_13
1002
{
1000
OWNER
1000
GEN
1002
}
1001
GENIUS_GENOLIS_13
1002
{
1000
ENT
1005
D84
1005
D83
1005
D82
1005
D81
1002
}
  0
LINE
  5
D93
330
1F
100
AcDbEntity
  8
AM_7
  6
AM_ISO08W050x2
100
AcDbLine
 10
306.9512392756727
 20
146.5693586976535
 30
0.0
 11
310.7512392756727
 21
146.5693586976535
 31
0.0
1001
GENIUS_GENOREF_13
1005
D97
  0
LINE
  5
D94
330
1F
100
AcDbEntity
  8
AM_7
  6
AM_ISO08W050x2
100
AcDbLine
 10
306.9512392756727
 20
146.5693586976535
 30
0.0
 11
306.9512392756727
 21
150.3693586976535
 31
0.0
1001
GENIUS_GENOREF_13
1005
D97
  0
LINE
  5
D95
330
1F
100
AcDbEntity
  8
AM_7
  6
AM_ISO08W050x2
100
AcDbLine
 10
306.9512392756727
 20
146.5693586976535
 30
0.0
 11
303.1512392756726
 21
146.5693586976535
 31
0.0
1001
GENIUS_GENOREF_13
1005
D97
  0
LINE
  5
D96
330
1F
100
AcDbEntity
  8
AM_7
  6
AM_ISO08W050x2
100
AcDbLine
 10
306.9512392756727
 20
146.5693586976535
 30
0.0
 11
306.9512392756727
 21
142.7693586976535
 31
0.0
1001
GENIUS_GENOREF_13
1005
D97
  0
POINT
  5
D97
330
1F
100
AcDbEntity
  8
0
 60
     1
100
AcDbPoint
 10
0.0
 20
0.0
 30
0.0
1001
GENIUS_GENOBJ-N-CRS_13
1002
{
1000
OWNER
1000
GEN
1002
}
1001
GENIUS_GENOENT_13
1002
{
1000
MYREF
1005
D97
1002
}
1002
{
1000
GRP
1005
0
1002
}
1001
GENIUS_GENOLIS_13
1002
{
1000
ENT
1005
D96
1005
D95
1005
D94
1005
D93
1002
}
1001
GENIUS_GENODEF_13
1002
{
1000
HIER
1070
    10
1002
}
1002
{
1000
MANEDIT
1070
     0
1002
}
1002
{
1000
NOSEL
1070
     0
1002
}
1002
{
1000
BEHIND
1070
     0
1002
}
1002
{
1000
OTHER
1070
     0
1002
}
1002
{
1000
REACTOR
1002
}
  0
LINE
  5
DA5
330
1F
100
AcDbEntity
  8
AM_7
  6
AM_ISO08W050x2
100
AcDbLine
 10
306.9512392756727
 20
138.0693586976535
 30
0.0
 11
310.7512392756727
 21
138.0693586976535
 31
0.0
1001
GENIUS_GENOREF_13
1005
DA9
  0
LINE
  5
DA6
330
1F
100
AcDbEntity
  8
AM_7
  6
AM_ISO08W050x2
100
AcDbLine
 10
306.9512392756727
 20
138.0693586976535
 30
0.0
 11
306.9512392756727
 21
141.8693586976536
 31
0.0
1001
GENIUS_GENOREF_13
1005
DA9
  0
LINE
  5
DA7
330
1F
100
AcDbEntity
  8
AM_7
  6
AM_ISO08W050x2
100
AcDbLine
 10
306.9512392756727
 20
138.0693586976535
 30
0.0
 11
303.1512392756726
 21
138.0693586976535
 31
0.0
1001
GENIUS_GENOREF_13
1005
DA9
  0
LINE
  5
DA8
330
1F
100
AcDbEntity
  8
AM_7
  6
AM_ISO08W050x2
100
AcDbLine
 10
306.9512392756727
 20
138.0693586976535
 30
0.0
 11
306.9512392756727
 21
134.2693586976535
 31
0.0
1001
GENIUS_GENOREF_13
1005
DA9
  0
POINT
  5
DA9
330
1F
100
AcDbEntity
  8
0
 60
     1
100
AcDbPoint
 10
0.0
 20
0.0
 30
0.0
1001
GENIUS_GENODEF_13
1002
{
1000
HIER
1070
    10
1002
}
1002
{
1000
MANEDIT
1070
     0
1002
}
1002
{
1000
NOSEL
1070
     0
1002
}
1002
{
1000
BEHIND
1070
     0
1002
}
1002
{
1000
OTHER
1070
     0
1002
}
1002
{
1000
REACTOR
1002
}
1001
GENIUS_GENOENT_13
1002
{
1000
MYREF
1005
DA9
1002
}
1002
{
1000
GRP
1005
0
1002
}
1001
GENIUS_GENOLIS_13
1002
{
1000
ENT
1005
DA8
1005
DA7
1005
DA6
1005
DA5
1002
}
1001
GENIUS_GENOBJ-N-CRS_13
1002
{
1000
OWNER
1000
GEN
1002
}
  0
LINE
  5
DAA
330
1F
100
AcDbEntity
  8
AM_7
  6
AM_ISO08W050x2
100
AcDbLine
 10
361.6801234764761
 20
138.0693586976535
 30
0.0
 11
365.4801234764761
 21
138.0693586976535
 31
0.0
  0
LINE
  5
DB8
330
1F
100
AcDbEntity
  8
AM_7
  6
AM_ISO08W050x2
100
AcDbLine
 10
298.9512392756727
 20
199.2257881875099
 30
0.0
 11
302.0512392756726
 21
199.2257881875099
 31
0.0
1001
GENIUS_GENOREF_13
1005
DBC
  0
LINE
  5
DB9
102
{ACAD_REACTORS
330
E14
102
}
330
1F
100
AcDbEntity
  8
AM_7
  6
AM_ISO08W050x2
100
AcDbLine
 10
298.9512392756727
 20
199.2257881875099
 30
0.0
 11
298.9512392756727
 21
202.3257881875099
 31
0.0
1001
GENIUS_GENOREF_13
1005
DBC
  0
LINE
  5
DBA
102
{ACAD_REACTORS
330
DEE
102
}
330
1F
100
AcDbEntity
  8
AM_7
  6
AM_ISO08W050x2
100
AcDbLine
 10
298.9512392756727
 20
199.2257881875099
 30
0.0
 11
295.8512392756727
 21
199.2257881875099
 31
0.0
1001
GENIUS_GENOREF_13
1005
DBC
  0
LINE
  5
DBB
330
1F
100
AcDbEntity
  8
AM_7
  6
AM_ISO08W050x2
100
AcDbLine
 10
298.9512392756727
 20
199.2257881875099
 30
0.0
 11
298.9512392756727
 21
196.1257881875099
 31
0.0
1001
GENIUS_GENOREF_13
1005
DBC
  0
POINT
  5
DBC
330
1F
100
AcDbEntity
  8
0
 60
     1
100
AcDbPoint
 10
0.0
 20
0.0
 30
0.0
1001
GENIUS_GENODEF_13
1002
{
1000
HIER
1070
    10
1002
}
1002
{
1000
MANEDIT
1070
     0
1002
}
1002
{
1000
NOSEL
1070
     0
1002
}
1002
{
1000
BEHIND
1070
     0
1002
}
1002
{
1000
OTHER
1070
     0
1002
}
1002
{
1000
REACTOR
1002
}
1001
GENIUS_GENOLIS_13
1002
{
1000
ENT
1005
DBB
1005
DBA
1005
DB9
1005
DB8
1002
}
1001
GENIUS_GENOENT_13
1002
{
1000
MYREF
1005
DBC
1002
}
1002
{
1000
GRP
1005
0
1002
}
1001
GENIUS_GENOBJ-N-CRS_13
1002
{
1000
OWNER
1000
GEN
1002
}
  0
LINE
  5
DCA
330
1F
100
AcDbEntity
  8
AM_7
  6
AM_ISO08W050x2
100
AcDbLine
 10
329.9512392756727
 20
182.2257881875099
 30
0.0
 11
333.0512392756727
 21
182.2257881875099
 31
0.0
1001
GENIUS_GENOREF_13
1005
DCE
  0
LINE
  5
DCB
102
{ACAD_REACTORS
330
E14
102
}
330
1F
100
AcDbEntity
  8
AM_7
  6
AM_ISO08W050x2
100
AcDbLine
 10
329.9512392756727
 20
182.2257881875099
 30
0.0
 11
329.9512392756727
 21
185.3257881875099
 31
0.0
1001
GENIUS_GENOREF_13
1005
DCE
  0
LINE
  5
DCC
102
{ACAD_REACTORS
330
DEE
102
}
330
1F
100
AcDbEntity
  8
AM_7
  6
AM_ISO08W050x2
100
AcDbLine
 10
329.9512392756727
 20
182.2257881875099
 30
0.0
 11
326.8512392756727
 21
182.2257881875099
 31
0.0
1001
GENIUS_GENOREF_13
1005
DCE
  0
LINE
  5
DCD
330
1F
100
AcDbEntity
  8
AM_7
  6
AM_ISO08W050x2
100
AcDbLine
 10
329.9512392756727
 20
182.2257881875099
 30
0.0
 11
329.9512392756727
 21
179.1257881875099
 31
0.0
1001
GENIUS_GENOREF_13
1005
DCE
  0
POINT
  5
DCE
330
1F
100
AcDbEntity
  8
0
 60
     1
100
AcDbPoint
 10
0.0
 20
0.0
 30
0.0
1001
GENIUS_GENOENT_13
1002
{
1000
MYREF
1005
DCE
1002
}
1002
{
1000
GRP
1005
0
1002
}
1001
GENIUS_GENOBJ-N-CRS_13
1002
{
1000
OWNER
1000
GEN
1002
}
1001
GENIUS_GENOLIS_13
1002
{
1000
ENT
1005
DCD
1005
DCC
1005
DCB
1005
DCA
1002
}
1001
GENIUS_GENODEF_13
1002
{
1000
HIER
1070
    10
1002
}
1002
{
1000
MANEDIT
1070
     0
1002
}
1002
{
1000
NOSEL
1070
     0
1002
}
1002
{
1000
BEHIND
1070
     0
1002
}
1002
{
1000
OTHER
1070
     0
1002
}
1002
{
1000
REACTOR
1002
}
  0
DIMENSION
  5
DDF
102
{ACAD_XDICTIONARY
360
DED
102
}
102
{ACAD_REACTORS
330
DEE
102
}
330
1F
100
AcDbEntity
  8
AM_5
100
AcDbDimension
  2
*D3
 10
289.185781060008
 20
182.2257881875099
 30
0.0
 11
286.7357810600079
 21
190.7257881875099
 31
0.0
 70
    32
 71
     5
 42
16.99999999999997
  3
AM_ISO$0
100
AcDbAlignedDimension
 13
295.8512392756727
 23
199.2257881875099
 33
0.0
 14
326.8512392756727
 24
182.2257881875099
 34
0.0
 50
90.0
100
AcDbRotatedDimension
1001
ACAD
1000
DSTYLE
1002
{
1070
    40
1040
1.0
1070
   144
1040
1.0
1070
   272
1070
     8
1002
}
  0
DIMENSION
  5
E06
102
{ACAD_XDICTIONARY
360
E13
102
}
102
{ACAD_REACTORS
330
E14
102
}
330
1F
100
AcDbEntity
  8
AM_5
100
AcDbDimension
  2
*D4
 10
329.9512392756727
 20
209.5865099907867
 30
0.0
 11
314.4512392756727
 21
212.0365099907867
 31
0.0
 70
    32
 71
     5
 42
31.0
  3
AM_ISO$0
100
AcDbAlignedDimension
 13
298.9512392756727
 23
202.3257881875099
 33
0.0
 14
329.9512392756727
 24
185.3257881875099
 34
0.0
100
AcDbRotatedDimension
1001
ACAD
1000
DSTYLE
1002
{
1070
    40
1040
1.0
1070
   144
1040
1.0
1070
   272
1070
     8
1002
}
  0
DIMENSION
  5
E2C
102
{ACAD_XDICTIONARY
360
E39
102
}
102
{ACAD_REACTORS
330
E3A
102
}
330
1F
100
AcDbEntity
  8
AM_5
100
AcDbDimension
  2
*D5
 10
200.9436496254171
 20
177.3533956812957
 30
0.0
 11
187.4436496254171
 21
179.8037401694847
 31
0.0
 70
    32
 71
     5
 42
27.0
  3
AM_ISO$0
100
AcDbAlignedDimension
 13
173.9436496254171
 23
168.6786116538329
 33
0.0
 14
200.9436496254171
 24
168.6786116538329
 34
0.0
100
AcDbRotatedDimension
1001
ACAD
1000
DSTYLE
1002
{
1070
    40
1040
1.0
1070
   144
1040
1.0
1070
   272
1070
     8
1002
}
  0
DIMENSION
  5
E4D
102
{ACAD_XDICTIONARY
360
E59
102
}
102
{ACAD_REACTORS
330
E5A
102
}
330
1F
100
AcDbEntity
  8
AM_5
100
AcDbDimension
  2
*D6
 10
200.2223301390893
 20
164.1504316236394
 30
0.0
 11
213.4597073212326
 21
175.8575778022172
 31
0.0
 70
   163
  1
2-<>
 71
     5
 42
3.200000000000045
  3
AM_ISO$3
100
AcDbDiametricDimension
 15
201.664969111745
 25
167.0067916840265
 35
0.0
 40
0.0
1001
ACAD
1000
DSTYLE
1002
{
1070
    40
1040
1.0
1070
   144
1040
1.0
1070
   272
1070
     8
1002
}
  0
DIMENSION
  5
E90
102
{ACAD_XDICTIONARY
360
E9C
102
}
102
{ACAD_REACTORS
330
E9D
102
}
330
1F
100
AcDbEntity
  8
AM_5
100
AcDbDimension
  2
*D7
 10
300.0267034547035
 20
198.0411461320255
 30
0.0
 11
283.991403284775
 21
207.6361938165606
 31
0.0
 70
   163
  1
2-<>
 71
     5
 42
3.200000000000159
  3
AM_ISO$3
100
AcDbDiametricDimension
 15
297.8757750966422
 25
200.4104302429943
 35
0.0
 40
0.0
1001
ACAD
1000
DSTYLE
1002
{
1070
    40
1040
1.0
1070
   144
1040
1.0
1070
   272
1070
     8
1002
}
  0
LINE
  5
EC4
330
1F
100
AcDbEntity
  8
AM_7
  6
AM_ISO08W050x2
100
AcDbLine
 10
182.4436496254171
 20
137.578611653833
 30
0.0
 11
185.5436496254171
 21
137.578611653833
 31
0.0
1001
GENIUS_GENOREF_13
1005
EC8
  0
LINE
  5
EC5
330
1F
100
AcDbEntity
  8
AM_7
  6
AM_ISO08W050x2
100
AcDbLine
 10
182.4436496254171
 20
137.578611653833
 30
0.0
 11
182.4436496254171
 21
140.6786116538329
 31
0.0
1001
GENIUS_GENOREF_13
1005
EC8
  0
LINE
  5
EC6
330
1F
100
AcDbEntity
  8
AM_7
  6
AM_ISO08W050x2
100
AcDbLine
 10
182.4436496254171
 20
137.578611653833
 30
0.0
 11
179.3436496254171
 21
137.578611653833
 31
0.0
1001
GENIUS_GENOREF_13
1005
EC8
  0
LINE
  5
EC7
330
1F
100
AcDbEntity
  8
AM_7
  6
AM_ISO08W050x2
100
AcDbLine
 10
182.4436496254171
 20
137.578611653833
 30
0.0
 11
182.4436496254171
 21
134.478611653833
 31
0.0
1001
GENIUS_GENOREF_13
1005
EC8
  0
POINT
  5
EC8
330
1F
100
AcDbEntity
  8
0
 60
     1
100
AcDbPoint
 10
0.0
 20
0.0
 30
0.0
1001
GENIUS_GENODEF_13
1002
{
1000
HIER
1070
    10
1002
}
1002
{
1000
MANEDIT
1070
     0
1002
}
1002
{
1000
NOSEL
1070
     0
1002
}
1002
{
1000
BEHIND
1070
     0
1002
}
1002
{
1000
OTHER
1070
     0
1002
}
1002
{
1000
REACTOR
1002
}
1001
GENIUS_GENOLIS_13
1002
{
1000
ENT
1005
EC7
1005
EC6
1005
EC5
1005
EC4
1002
}
1001
GENIUS_GENOENT_13
1002
{
1000
MYREF
1005
EC8
1002
}
1002
{
1000
GRP
1005
0
1002
}
1001
GENIUS_GENOBJ-N-CRS_13
1002
{
1000
OWNER
1000
GEN
1002
}
  0
LINE
  5
ED6
330
1F
100
AcDbEntity
  8
AM_7
  6
AM_ISO08W050x2
100
AcDbLine
 10
191.4436496254171
 20
137.578611653833
 30
0.0
 11
194.5436496254171
 21
137.578611653833
 31
0.0
1001
GENIUS_GENOREF_13
1005
EDA
  0
LINE
  5
ED7
330
1F
100
AcDbEntity
  8
AM_7
  6
AM_ISO08W050x2
100
AcDbLine
 10
191.4436496254171
 20
137.578611653833
 30
0.0
 11
191.4436496254171
 21
140.6786116538329
 31
0.0
1001
GENIUS_GENOREF_13
1005
EDA
  0
LINE
  5
ED8
330
1F
100
AcDbEntity
  8
AM_7
  6
AM_ISO08W050x2
100
AcDbLine
 10
191.4436496254171
 20
137.578611653833
 30
0.0
 11
188.3436496254171
 21
137.578611653833
 31
0.0
1001
GENIUS_GENOREF_13
1005
EDA
  0
LINE
  5
ED9
330
1F
100
AcDbEntity
  8
AM_7
  6
AM_ISO08W050x2
100
AcDbLine
 10
191.4436496254171
 20
137.578611653833
 30
0.0
 11
191.4436496254171
 21
134.478611653833
 31
0.0
1001
GENIUS_GENOREF_13
1005
EDA
  0
POINT
  5
EDA
330
1F
100
AcDbEntity
  8
0
 60
     1
100
AcDbPoint
 10
0.0
 20
0.0
 30
0.0
1001
GENIUS_GENOENT_13
1002
{
1000
MYREF
1005
EDA
1002
}
1002
{
1000
GRP
1005
0
1002
}
1001
GENIUS_GENOBJ-N-CRS_13
1002
{
1000
OWNER
1000
GEN
1002
}
1001
GENIUS_GENODEF_13
1002
{
1000
HIER
1070
    10
1002
}
1002
{
1000
MANEDIT
1070
     0
1002
}
1002
{
1000
NOSEL
1070
     0
1002
}
1002
{
1000
BEHIND
1070
     0
1002
}
1002
{
1000
OTHER
1070
     0
1002
}
1002
{
1000
REACTOR
1002
}
1001
GENIUS_GENOLIS_13
1002
{
1000
ENT
1005
ED9
1005
ED8
1005
ED7
1005
ED6
1002
}
  0
DIMENSION
  5
EEB
102
{ACAD_XDICTIONARY
360
EF8
102
}
102
{ACAD_REACTORS
330
EF9
102
}
330
1F
100
AcDbEntity
  8
AM_5
100
AcDbDimension
  2
*D8
 10
162.1927540237975
 20
169.578611653833
 30
0.0
 11
159.7427540237975
 21
151.828611653833
 31
0.0
 70
    32
 71
     5
 42
35.5
  3
AM_ISO$0
100
AcDbAlignedDimension
 13
181.4436496254171
 23
134.078611653833
 33
0.0
 14
171.4436496254171
 24
169.578611653833
 34
0.0
 50
90.00000000000003
100
AcDbRotatedDimension
1001
ACAD
1000
DSTYLE
1002
{
1070
    40
1040
1.0
1070
   144
1040
1.0
1070
   272
1070
     8
1002
}
  0
DIMENSION
  5
F11
102
{ACAD_XDICTIONARY
360
F1E
102
}
102
{ACAD_REACTORS
330
F1F
102
}
330
1F
100
AcDbEntity
  8
AM_5
100
AcDbDimension
  2
*D9
 10
204.9436496254172
 20
201.5418879493913
 30
0.0
 11
187.4436496254171
 21
203.9918879493912
 31
0.0
 70
    32
 71
     5
 42
35.0
  3
AM_ISO$0
100
AcDbAlignedDimension
 13
169.9436496254171
 23
195.720018907873
 33
0.0
 14
204.9436496254172
 24
195.7200189078731
 34
0.0
100
AcDbRotatedDimension
1001
ACAD
1000
DSTYLE
1002
{
1070
    40
1040
1.0
1070
   144
1040
1.0
1070
   272
1070
     8
1002
}
  0
DIMENSION
  5
F3B
102
{ACAD_XDICTIONARY
360
F48
102
}
102
{ACAD_REACTORS
330
F49
102
}
330
1F
100
AcDbEntity
  8
AM_5
100
AcDbDimension
  2
*D10
 10
283.4512392756727
 20
163.5693586976535
 30
0.0
 11
281.0012392756726
 21
140.5693586976536
 31
0.0
 70
    32
 71
     5
 42
45.99999999999998
  3
AM_ISO$0
100
AcDbAlignedDimension
 13
295.4512392756726
 23
117.5693586976535
 33
0.0
 14
304.4512392756727
 24
163.5693586976535
 34
0.0
 50
90.0
100
AcDbRotatedDimension
1001
ACAD
1000
DSTYLE
1002
{
1070
    40
1040
1.0
1070
   144
1040
1.0
1070
   272
1070
     8
1002
}
  0
DIMENSION
  5
F6B
102
{ACAD_XDICTIONARY
360
F7A
102
}
102
{ACAD_REACTORS
330
F7B
102
}
330
1F
100
AcDbEntity
  8
AM_5
100
AcDbDimension
  2
*D11
 10
291.4512392756726
 20
118.7693586976535
 30
0.0
 11
289.0008947874837
 21
127.6744620441103
 31
0.0
 70
    32
 71
     5
 42
1.200000000000002
  3
AM_ISO$0
100
AcDbAlignedDimension
 13
295.4512392756726
 23
117.5693586976535
 33
0.0
 14
295.4512392756726
 24
118.7693586976535
 34
0.0
 50
90.0
100
AcDbRotatedDimension
1001
ACAD
1000
DSTYLE
1002
{
1070
    40
1040
1.0
1070
   144
1040
1.0
1070
   272
1070
     8
1002
}
  0
TEXT
  5
FC3
330
1F
100
AcDbEntity
  8
0
100
AcDbText
 10
142.5923310437613
 20
226.9280637231621
 30
0.0
 40
6.0
  1
1A
100
AcDbText
  0
TEXT
  5
FC4
330
1F
100
AcDbEntity
  8
0
100
AcDbText
 10
265.5916295434407
 20
226.9280637231621
 30
0.0
 40
6.0
  1
2A
100
AcDbText
  0
LINE
  5
108C
330
1F
100
AcDbEntity
  8
LOGO
 62
     4
100
AcDbLine
 10
183.1591692311603
 20
66.9510838510252
 30
0.0
 11
183.1591692311603
 21
90.94760873790319
 31
0.0
  0
TEXT
  5
108D
330
1F
100
AcDbEntity
  8
LOGO
  6
Continuous
100
AcDbText
 10
138.9864740858619
 20
71.66516495113882
 30
0.0
 40
3.599478733031673
  1
金器工業股份有限公司
  7
CHINESET
100
AcDbText
  0
TEXT
  5
108E
330
1F
100
AcDbEntity
  8
LOGO
  6
Continuous
100
AcDbText
 10
132.374943775032
 20
68.06498100248558
 30
0.0
 40
2.399652488687782
  1
MINDMAN INDUSTRIAL CO., LTD.
 41
0.85
  7
CHINESET
100
AcDbText
  0
LINE
  5
108F
330
1F
100
AcDbEntity
  8
LOGO
 62
     4
100
AcDbLine
 10
183.1591692311603
 20
86.14830376052754
 30
0.0
 11
147.9642660637395
 21
86.14830376052754
 31
0.0
  0
LINE
  5
1090
330
1F
100
AcDbEntity
  8
LOGO
 62
     4
100
AcDbLine
 10
183.1591692311603
 20
81.3489987831519
 30
0.0
 11
147.9642660637395
 21
81.3489987831519
 31
0.0
  0
LINE
  5
1091
330
1F
100
AcDbEntity
  8
LOGO
 62
     4
100
AcDbLine
 10
183.1591692311603
 20
76.54969380577671
 30
0.0
 11
130.3668144800289
 21
76.54969380577671
 31
0.0
  0
LINE
  5
1092
330
1F
100
AcDbEntity
  8
LOGO
 62
     4
100
AcDbLine
 10
147.9642660637395
 20
76.54969380577671
 30
0.0
 11
147.9642660637395
 21
90.94760873790319
 31
0.0
  0
TEXT
  5
1093
330
1F
100
AcDbEntity
  8
LOGO
100
AcDbText
 10
172.018321204545
 20
77.74952005012007
 30
0.0
 40
2.399652488687782
  1
mm
  7
CHINESET
 72
     1
 11
174.9893195238727
 21
78.94934629446396
 31
0.0
100
AcDbText
 73
     2
  0
TEXT
  5
1094
330
1F
100
AcDbEntity
  8
LOGO
100
AcDbText
 10
170.7613603771371
 20
87.34813000487134
 30
0.0
 40
2.399652488687782
  1
1 : 1
  7
CHINESET
 72
     1
 11
174.9893195238727
 21
88.54795624921525
 31
0.0
100
AcDbText
 73
     2
  0
LINE
  5
1095
330
1F
100
AcDbEntity
  8
LOGO
 62
     4
100
AcDbLine
 10
167.1614859732416
 20
76.54969380577671
 30
0.0
 11
167.1614859732416
 21
90.94760873790319
 31
0.0
  0
TEXT
  5
1096
330
1F
100
AcDbEntity
  8
LOGO
100
AcDbText
 10
149.9429080934742
 20
87.34931093621421
 30
157.2692709120597
 40
2.399652488687782
  1
比例 Scale:
 41
0.9
  7
CHINESET
 72
     4
 11
157.5628760184904
 21
88.54795624921525
 31
157.2692709120597
100
AcDbText
  0
TEXT
  5
1097
330
1F
100
AcDbEntity
  8
LOGO
100
AcDbText
 10
149.8047138206882
 20
82.58257998171242
 30
157.2692709120597
 40
2.399652488687782
  1
投影  View:
 41
0.9
  7
CHINESET
 72
     4
 11
157.5628760184904
 21
83.7486512718396
 31
157.2692709120597
100
AcDbText
  0
TEXT
  5
1098
330
1F
100
AcDbEntity
  8
LOGO
100
AcDbText
 10
150.0393227023947
 20
77.74952005012007
 30
157.2692709120597
 40
2.399652488687782
  1
單位  Unit:
 41
0.9
  7
CHINESET
 72
     4
 11
157.5628760184904
 21
78.94934629446396
 31
157.2692709120597
100
AcDbText
  0
LWPOLYLINE
  5
1099
330
1F
100
AcDbEntity
  8
LOGO
 62
     4
100
AcDbPolyline
 90
        4
 70
     1
 43
0.0
 10
130.3668144800289
 20
90.94760873790319
 10
389.4840919354582
 20
90.94760873790319
 10
389.4840919354582
 20
260.1946413363632
 10
130.3668144800289
 20
260.1946413363632
1001
GENIUS_GENREC_14
1002
{
1000
PYDIR
1011
130.3668144800289
1021
260.1946413363632
1031
0.0
1002
}
1002
{
1000
PXDIR
1011
389.4840919354582
1021
90.94760873790319
1031
0.0
1002
}
1002
{
1000
PORI
1011
130.3668144800289
1021
90.94760873790319
1031
0.0
1002
}
1002
{
1000
PINS
1011
130.3668144800289
1021
90.94760873790319
1031
0.0
1002
}
1002
{
1000
PINS2
1011
389.4840919354582
1021
260.1946413363632
1031
0.0
1002
}
1002
{
1000
C
1070
     1
1002
}
1001
GENIUS_GENODEF_13
1002
{
1000
HIER
1070
     0
1002
}
1002
{
1000
MANEDIT
1070
     0
1002
}
1002
{
1000
NOSEL
1070
     0
1002
}
1002
{
1000
BEHIND
1070
     0
1002
}
1002
{
1000
OTHER
1070
     0
1002
}
1002
{
1000
REACTOR
1002
}
1001
GENIUS_GENOBJ-N-REC_13
1002
{
1000
OWNER
1000
GEN
1002
}
  0
SOLID
  5
109A
330
1F
100
AcDbEntity
  8
LOGO
 62
     5
100
AcDbTrace
 10
132.8564924485358
 20
80.53877450458475
 30
0.0
 11
133.8940392177632
 21
80.53877450458452
 31
0.0
 12
138.2231136686768
 22
90.3775800748437
 32
0.0
 13
139.2606604379047
 23
90.37758007484326
 33
0.0
  0
SOLID
  5
109B
330
1F
100
AcDbEntity
  8
LOGO
 62
     5
100
AcDbTrace
 10
134.3233689153753
 20
80.53877450458475
 30
0.0
 11
135.3609156846027
 21
80.53877450458475
 31
0.0
 12
139.2606604379047
 22
89.59047562922268
 32
0.0
 13
138.2231136686768
 23
85.78613747538923
 33
0.0
  0
SOLID
  5
109C
330
1F
100
AcDbEntity
  8
LOGO
 62
     2
100
AcDbTrace
 10
133.8940392177632
 20
80.53877450458452
 30
0.0
 11
134.3233689153753
 21
80.53877450458475
 31
0.0
 12
139.2606604379047
 22
90.37758007484326
 32
0.0
 13
139.6899901355163
 23
90.37758007484326
 33
0.0
  0
SOLID
  5
109D
330
1F
100
AcDbEntity
  8
LOGO
 62
     5
100
AcDbTrace
 10
131.1930505398299
 20
76.96102702449088
 30
0.0
 11
131.5508252878393
 21
76.96102702449088
 31
0.0
 12
132.5583468251947
 22
78.74990076453759
 32
0.0
 13
132.9161215732037
 23
78.74990076453759
 33
0.0
  0
SOLID
  5
109E
330
1F
100
AcDbEntity
  8
LOGO
 62
     5
100
AcDbTrace
 10
132.5583468251947
 20
78.74990076453759
 30
0.0
 11
132.9161215732037
 21
78.74990076453759
 31
0.0
 12
132.5583468251947
 22
76.96102702449088
 32
0.0
 13
132.9161215732037
 23
76.96102702449088
 33
0.0
  0
SOLID
  5
109F
330
1F
100
AcDbEntity
  8
LOGO
 62
     5
100
AcDbTrace
 10
132.5583468251947
 20
76.96102702449088
 30
0.0
 11
132.9161215732037
 21
76.96102702449088
 31
0.0
 12
133.9236431105605
 22
78.74990076453759
 32
0.0
 13
134.2814178585699
 23
78.74990076453759
 33
0.0
  0
SOLID
  5
10A0
330
1F
100
AcDbEntity
  8
LOGO
 62
     5
100
AcDbTrace
 10
133.9236431105605
 20
78.74990076453759
 30
0.0
 11
134.2814178585699
 21
78.74990076453759
 31
0.0
 12
133.9236431105605
 22
76.96102702449088
 32
0.0
 13
134.2814178585699
 23
76.96102702449088
 33
0.0
  0
POLYLINE
  5
10A1
330
1F
100
AcDbEntity
  8
LOGO
 62
     5
100
AcDb2dPolyline
 66
     1
 10
0.0
 20
0.0
 30
0.0
 40
0.3583481049773755
 41
0.3583481049773755
  0
VERTEX
  5
10A2
330
10A1
100
AcDbEntity
  8
LOGO
 62
     5
100
AcDbVertex
100
AcDb2dVertex
 10
145.9161307863318
 20
78.03435126851894
 30
0.0
 42
1.0
  0
VERTEX
  5
10A3
330
10A1
100
AcDbEntity
  8
LOGO
 62
     5
100
AcDbVertex
100
AcDb2dVertex
 10
144.8410864713996
 20
78.03435126851894
 30
0.0
 42
1.0
  0
SEQEND
  5
10A4
330
10A1
100
AcDbEntity
  8
LOGO
 62
     5
  0
POLYLINE
  5
10A5
330
1F
100
AcDbEntity
  8
LOGO
 62
     5
100
AcDb2dPolyline
 66
     1
 10
0.0
 20
0.0
 30
0.0
 70
     1
  0
VERTEX
  5
10A6
330
10A5
100
AcDbEntity
  8
LOGO
 62
     5
100
AcDbVertex
100
AcDb2dVertex
 10
142.814580119781
 20
77.855463894514
 30
0.0
 42
1.000000057330635
  0
VERTEX
  5
10A7
330
10A5
100
AcDbEntity
  8
LOGO
 62
     5
100
AcDbVertex
100
AcDb2dVertex
 10
143.8879043638093
 20
77.855463894514
 30
0.0
 42
1.000000057330635
  0
SEQEND
  5
10A8
330
10A5
100
AcDbEntity
  8
LOGO
 62
     5
  0
CIRCLE
  5
10A9
330
1F
100
AcDbEntity
  8
LOGO
 62
     5
100
AcDbCircle
 10
143.3512422417956
 20
77.855463894514
 30
0.0
 40
0.5366621220141177
  0
POLYLINE
  5
10AA
330
1F
100
AcDbEntity
  8
LOGO
 62
     5
100
AcDb2dPolyline
 66
     1
 10
0.0
 20
0.0
 30
0.0
 70
     1
 40
0.3583481049773755
 41
0.3583481049773755
  0
VERTEX
  5
10AB
330
10AA
100
AcDbEntity
  8
LOGO
 62
     5
100
AcDbVertex
100
AcDb2dVertex
 10
142.6345460318406
 20
77.855463894514
 30
0.0
 42
1.0
  0
VERTEX
  5
10AC
330
10AA
100
AcDbEntity
  8
LOGO
 62
     5
100
AcDbVertex
100
AcDb2dVertex
 10
144.0679384517502
 20
77.855463894514
 30
0.0
 42
1.0
  0
SEQEND
  5
10AD
330
10AA
100
AcDbEntity
  8
LOGO
 62
     5
  0
LINE
  5
10AE
330
1F
100
AcDbEntity
  8
LOGO
100
AcDbLine
 10
146.0941581248839
 20
76.96102702449088
 30
0.0
 11
146.0941581248839
 21
78.03435126851894
 31
0.0
  0
SOLID
  5
10AF
330
1F
100
AcDbEntity
  8
LOGO
 62
     5
100
AcDbTrace
 10
143.8878685863359
 20
78.74990076453759
 30
0.0
 11
144.2456433343445
 21
78.74990076453759
 31
0.0
 12
143.8878685863359
 22
76.96102702449088
 32
0.0
 13
144.2456433343445
 23
76.96102702449088
 33
0.0
  0
SOLID
  5
10B0
330
1F
100
AcDbEntity
  8
LOGO
 62
     5
100
AcDbTrace
 10
144.6630591328466
 20
76.96102702449088
 30
0.0
 11
145.0208338808565
 21
76.96102702449088
 31
0.0
 12
144.6630591328466
 22
78.74990076453759
 32
0.0
 13
145.0208338808565
 23
78.74990076453759
 33
0.0
  0
SOLID
  5
10B1
330
1F
100
AcDbEntity
  8
LOGO
 62
     5
100
AcDbTrace
 10
145.7363833768754
 20
78.03435126851894
 30
0.0
 11
146.0941581248839
 21
78.03435126851894
 31
0.0
 12
145.7363833768754
 22
76.96102702449088
 32
0.0
 13
146.0941581248839
 23
76.96102702449088
 33
0.0
  0
SOLID
  5
10B2
330
1F
100
AcDbEntity
  8
LOGO
 62
     5
100
AcDbTrace
 10
144.6272816580453
 20
89.59047562922268
 30
0.0
 11
143.5897348888188
 21
85.78613747538923
 31
0.0
 12
144.6272816580453
 22
80.53877450458452
 32
0.0
 13
143.5897348888188
 23
80.53877450458452
 33
0.0
  0
SOLID
  5
10B3
330
1F
100
AcDbEntity
  8
LOGO
 62
     5
100
AcDbTrace
 10
145.0566113556573
 20
80.53877450458452
 30
0.0
 11
146.0941581248839
 21
80.53877450458452
 31
0.0
 12
145.0566113556573
 22
90.37758007484326
 32
0.0
 13
146.0941581248839
 23
90.3775800748437
 33
0.0
  0
SOLID
  5
10B4
330
1F
100
AcDbEntity
  8
LOGO
 62
     2
100
AcDbTrace
 10
144.6272816580453
 20
90.3775800748437
 30
0.0
 11
145.0566113556573
 21
90.37758007484326
 31
0.0
 12
144.6272816580453
 22
80.53877450458452
 32
0.0
 13
145.0566113556573
 23
80.53877450458452
 33
0.0
  0
POLYLINE
  5
10B5
330
1F
100
AcDbEntity
  8
LOGO
 62
     5
100
AcDb2dPolyline
 66
     1
 10
0.0
 20
0.0
 30
0.0
 40
0.3583481049773755
 41
0.3583481049773755
  0
VERTEX
  5
10B6
330
10B5
100
AcDbEntity
  8
LOGO
 62
     5
100
AcDbVertex
100
AcDb2dVertex
 10
140.7880022132139
 20
78.03435126851894
 30
0.0
 42
1.0
  0
VERTEX
  5
10B7
330
10B5
100
AcDbEntity
  8
LOGO
 62
     5
100
AcDbVertex
100
AcDb2dVertex
 10
139.7129578982816
 20
78.03435126851894
 30
0.0
 42
1.0
  0
SEQEND
  5
10B8
330
10B5
100
AcDbEntity
  8
LOGO
 62
     5
  0
POLYLINE
  5
10B9
330
1F
100
AcDbEntity
  8
LOGO
 62
     5
100
AcDb2dPolyline
 66
     1
 10
0.0
 20
0.0
 30
0.0
 40
0.3583481049773755
 41
0.3583481049773755
  0
VERTEX
  5
10BA
330
10B9
100
AcDbEntity
  8
LOGO
 62
     5
100
AcDbVertex
100
AcDb2dVertex
 10
141.8613264572413
 20
78.03435126851894
 30
0.0
 42
1.0
  0
VERTEX
  5
10BB
330
10B9
100
AcDbEntity
  8
LOGO
 62
     5
100
AcDbVertex
100
AcDb2dVertex
 10
140.7862821423095
 20
78.03435126851894
 30
0.0
 42
1.0
  0
SEQEND
  5
10BC
330
10B9
100
AcDbEntity
  8
LOGO
 62
     5
  0
POLYLINE
  5
10BD
330
1F
100
AcDbEntity
  8
LOGO
 62
     5
100
AcDb2dPolyline
 66
     1
 10
0.0
 20
0.0
 30
0.0
 40
0.3583481049773755
 41
0.3583481049773755
  0
VERTEX
  5
10BE
330
10BD
100
AcDbEntity
  8
LOGO
 62
     5
100
AcDbVertex
100
AcDb2dVertex
 10
136.7331978841234
 20
78.03435126851894
 30
0.0
 42
1.0
  0
VERTEX
  5
10BF
330
10BD
100
AcDbEntity
  8
LOGO
 62
     5
100
AcDbVertex
100
AcDb2dVertex
 10
135.6581535691916
 20
78.03435126851894
 30
0.0
 42
1.0
  0
SEQEND
  5
10C0
330
10BD
100
AcDbEntity
  8
LOGO
 62
     5
  0
SOLID
  5
10C1
330
1F
100
AcDbEntity
  8
LOGO
 62
     5
100
AcDbTrace
 10
135.4801262306386
 20
78.74990076453759
 30
0.0
 11
135.8379009786476
 21
78.74990076453759
 31
0.0
 12
135.4801262306386
 22
76.96102702449088
 32
0.0
 13
135.8379009786476
 23
76.96102702449088
 33
0.0
  0
SOLID
  5
10C2
330
1F
100
AcDbEntity
  8
LOGO
 62
     5
100
AcDbTrace
 10
136.5534504746669
 20
78.03435126851894
 30
0.0
 11
136.9112252226768
 21
78.03435126851894
 31
0.0
 12
136.5534504746669
 22
76.96102702449088
 32
0.0
 13
136.9112252226768
 23
76.96102702449088
 33
0.0
  0
POLYLINE
  5
10C3
330
1F
100
AcDbEntity
  8
LOGO
 62
     5
100
AcDb2dPolyline
 66
     1
 10
0.0
 20
0.0
 30
0.0
 70
     1
 40
0.3583481049773755
 41
0.3583481049773755
  0
VERTEX
  5
10C4
330
10C3
100
AcDbEntity
  8
LOGO
 62
     5
100
AcDbVertex
100
AcDb2dVertex
 10
137.5064174587218
 20
77.855463894514
 30
0.0
 42
1.0
  0
VERTEX
  5
10C5
330
10C3
100
AcDbEntity
  8
LOGO
 62
     5
100
AcDbVertex
100
AcDb2dVertex
 10
138.9398098786318
 20
77.855463894514
 30
0.0
 42
1.0
  0
SEQEND
  5
10C6
330
10C3
100
AcDbEntity
  8
LOGO
 62
     5
  0
SOLID
  5
10C7
330
1F
100
AcDbEntity
  8
LOGO
 62
     5
100
AcDbTrace
 10
138.7597400132167
 20
79.28656288655218
 30
0.0
 11
139.1175147612261
 21
79.28656288655218
 31
0.0
 12
138.7597400132167
 22
76.96102702449088
 32
0.0
 13
139.1175147612261
 23
76.96102702449088
 33
0.0
  0
SOLID
  5
10C8
330
1F
100
AcDbEntity
  8
LOGO
 62
     5
100
AcDbTrace
 10
139.5349305597296
 20
78.74990076453759
 30
0.0
 11
139.8927053077381
 21
78.74990076453759
 31
0.0
 12
139.5349305597296
 22
76.96102702449088
 32
0.0
 13
139.8927053077381
 23
76.96102702449088
 33
0.0
  0
SOLID
  5
10C9
330
1F
100
AcDbEntity
  8
LOGO
 62
     5
100
AcDbTrace
 10
140.608254803757
 20
78.03435126851894
 30
0.0
 11
140.9660295517664
 21
78.03435126851894
 31
0.0
 12
140.608254803757
 22
76.96102702449088
 32
0.0
 13
140.9660295517664
 23
76.96102702449088
 33
0.0
  0
SOLID
  5
10CA
330
1F
100
AcDbEntity
  8
LOGO
 62
     5
100
AcDbTrace
 10
141.6815790477853
 20
78.03435126851894
 30
0.0
 11
142.0393537957943
 21
78.03435126851894
 31
0.0
 12
141.6815790477853
 22
76.96102702449042
 32
0.0
 13
142.0393537957943
 23
76.96102702449042
 33
0.0
  0
SOLID
  5
10CB
330
1F
100
AcDbEntity
  8
LOGO
 62
     5
100
AcDbTrace
 10
134.7049356841266
 20
79.00034308814446
 30
0.0
 11
135.0627104321369
 21
79.00034308814446
 31
0.0
 12
134.7049356841266
 22
79.28656288655218
 32
0.0
 13
135.0627104321369
 23
79.28656288655218
 33
0.0
  0
SOLID
  5
10CC
330
1F
100
AcDbEntity
  8
LOGO
 62
     5
100
AcDbTrace
 10
134.7049356841266
 20
78.74990076453759
 30
0.0
 11
135.0627104321369
 21
78.74990076453759
 31
0.0
 12
134.7049356841266
 22
76.96102702449042
 32
0.0
 13
135.0627104321369
 23
76.96102702449088
 33
0.0
  0
SOLID
  5
10CD
330
1F
100
AcDbEntity
  8
LOGO
 62
     5
100
AcDbTrace
 10
138.2231136686768
 20
80.53877450458475
 30
0.0
 11
139.2606604379047
 21
80.53877450458475
 31
0.0
 12
138.2231136686768
 22
85.78613747538923
 32
0.0
 13
139.2606604379047
 23
89.59047562922268
 33
0.0
  0
SOLID
  5
10CE
330
1F
100
AcDbEntity
  8
LOGO
 62
     5
100
AcDbTrace
 10
139.6899901355163
 20
90.37758007484326
 30
0.0
 11
140.7275369047433
 21
90.3775800748437
 31
0.0
 12
139.6899901355163
 22
81.32587895020533
 32
0.0
 13
140.7275369047433
 23
85.13021710403876
 33
0.0
  0
SOLID
  5
10CF
330
1F
100
AcDbEntity
  8
LOGO
 62
     2
100
AcDbTrace
 10
139.2606604379047
 20
90.37758007484326
 30
0.0
 11
139.6899901355163
 21
90.37758007484326
 31
0.0
 12
139.2606604379047
 22
80.53877450458475
 32
0.0
 13
139.6899901355163
 23
80.53877450458475
 33
0.0
  0
SOLID
  5
10D0
330
1F
100
AcDbEntity
  8
LOGO
 62
     5
100
AcDbTrace
 10
139.6899901355163
 20
81.32587895020533
 30
0.0
 11
140.7275369047433
 21
85.13021710403876
 31
0.0
 12
144.6272816580453
 22
90.3775800748437
 32
0.0
 13
143.5897348888188
 23
90.3775800748437
 33
0.0
  0
SOLID
  5
10D1
330
1F
100
AcDbEntity
  8
LOGO
 62
     5
100
AcDbTrace
 10
139.6899901355163
 20
80.53877450458475
 30
0.0
 11
140.7275369047433
 21
80.53877450458475
 31
0.0
 12
144.6272816580453
 22
89.59047562922268
 32
0.0
 13
143.5897348888188
 23
85.78613747538923
 33
0.0
  0
SOLID
  5
10D2
330
1F
100
AcDbEntity
  8
LOGO
 62
     2
100
AcDbTrace
 10
139.2606604379047
 20
80.53877450458475
 30
0.0
 11
139.6899901355163
 21
80.53877450458475
 31
0.0
 12
144.6272816580453
 22
90.3775800748437
 32
0.0
 13
145.0566113556573
 23
90.37758007484326
 33
0.0
  0
LWPOLYLINE
  5
10D3
330
1F
100
AcDbEntity
  8
LOGO
 62
     4
100
AcDbPolyline
 90
        4
 70
     1
 43
0.0
 10
130.3668144800289
 20
90.94760873790319
 10
389.4840919354582
 20
90.94760873790319
 10
389.4840919354582
 20
66.95108385102497
 10
130.3668144800289
 20
66.95108385102497
1001
GENIUS_GENREC_14
1002
{
1000
PYDIR
1011
130.3668144800289
1021
66.95108385102497
1031
0.0
1002
}
1002
{
1000
PXDIR
1011
389.4840919354582
1021
90.94760873790319
1031
0.0
1002
}
1002
{
1000
PORI
1011
130.3668144800289
1021
90.94760873790319
1031
0.0
1002
}
1002
{
1000
PINS
1011
130.3668144800289
1021
90.94760873790319
1031
0.0
1002
}
1002
{
1000
PINS2
1011
389.4840919354582
1021
66.95108385102497
1031
0.0
1002
}
1002
{
1000
C
1070
     1
1002
}
1001
GENIUS_GENOBJ-N-REC_13
1002
{
1000
OWNER
1000
GEN
1002
}
1001
GENIUS_GENODEF_13
1002
{
1000
HIER
1070
     0
1002
}
1002
{
1000
MANEDIT
1070
     0
1002
}
1002
{
1000
NOSEL
1070
     0
1002
}
1002
{
1000
BEHIND
1070
     0
1002
}
1002
{
1000
OTHER
1070
     0
1002
}
1002
{
1000
REACTOR
1002
}
  0
CIRCLE
  5
10D4
330
1F
100
AcDbEntity
  8
LOGO
  6
Continuous
100
AcDbCircle
 10
171.6047426998356
 20
83.75378414607343
 30
0.0
 40
1.393294716384757
  0
CIRCLE
  5
10D5
330
1F
100
AcDbEntity
  8
LOGO
  6
Continuous
100
AcDbCircle
 10
171.6047426998356
 20
83.75378414607343
 30
0.0
 40
0.8163473623987165
  0
LINE
  5
10D6
330
1F
100
AcDbEntity
  8
LOGO
100
AcDbLine
 10
180.3603683686796
 20
82.36048942968835
 30
0.0
 11
180.3603683686796
 21
85.14707886245849
 31
0.0
  0
LINE
  5
10D7
330
1F
100
AcDbEntity
  8
LOGO
100
AcDbLine
 10
175.9924694117466
 20
82.93743678367485
 30
0.0
 11
175.9924694117466
 21
84.57013150847222
 31
0.0
  0
LINE
  5
10D8
330
1F
100
AcDbEntity
  8
LOGO
  6
Continuous
100
AcDbLine
 10
175.9924694117466
 20
84.57013150847222
 30
0.0
 11
180.3603683686796
 21
85.14707886245849
 31
0.0
  0
LINE
  5
10D9
330
1F
100
AcDbEntity
  8
LOGO
  6
Continuous
100
AcDbLine
 10
175.9924694117466
 20
82.93743678367485
 30
0.0
 11
180.3603683686796
 21
82.36048942968835
 31
0.0
  0
LINE
  5
10DA
330
1F
100
AcDbEntity
  8
LOGO
  6
AM_ISO08W050x2
 48
0.3
100
AcDbLine
 10
169.6840650703538
 20
83.75378414607343
 30
0.0
 11
173.5254203293174
 21
83.75378414607343
 31
0.0
1001
GENIUS_GENOREF_13
1005
110F
  0
LINE
  5
10DB
330
1F
100
AcDbEntity
  8
LOGO
  6
AM_ISO08W050x2
 48
0.3
100
AcDbLine
 10
171.6047426998356
 20
81.83310651659139
 30
0.0
 11
171.6047426998356
 21
85.67446177555524
 31
0.0
1001
GENIUS_GENOREF_13
1005
110E
  0
LINE
  5
10DC
330
1F
100
AcDbEntity
  8
LOGO
  6
CENTER
 48
0.5
100
AcDbLine
 10
175.6431589003754
 20
83.75378414607343
 30
0.0
 11
180.8002016540249
 21
83.75378414607343
 31
0.0
1001
GENIUS_GENOREF_13
1005
110D
  0
TEXT
  5
10DD
330
1F
100
AcDbEntity
  8
LOGO
 62
     7
100
AcDbText
 10
184.5493787584777
 20
80.43513952072515
 30
0.0
 40
3.19953665158371
  1
Order example:
 41
0.8
  7
CHINESET
100
AcDbText
  0
TEXT
  5
10DE
330
1F
100
AcDbEntity
  8
LOGO
 62
     7
100
AcDbText
 10
185.1234020928636
 20
84.93942465363824
 30
0.0
 40
4.799304977375565
  1
訂購代號：
  7
CHINESET
100
AcDbText
  0
TEXT
  5
10DF
330
1F
100
AcDbEntity
  8
LOGO
100
AcDbText
 10
184.1110119406457
 20
68.22768950373092
 30
0.0
 40
2.4
  1
10703282
 41
0.7
  7
CHINESET
 72
     1
 11
190.1110119406457
 21
68.22768950373092
 31
0.0
100
AcDbText
  0
LINE
  5
10E0
330
1F
100
AcDbEntity
  8
LOGO
 62
     4
100
AcDbLine
 10
197.5591692311595
 20
71.7503888284013
 30
0.0
 11
197.5591692311604
 21
66.95108385102543
 31
0.0
  0
LINE
  5
10E1
330
1F
100
AcDbEntity
  8
LOGO
 62
     4
100
AcDbLine
 10
197.5591692311595
 20
71.7503888284013
 30
0.0
 11
183.1591692311603
 21
71.7503888284013
 31
0.0
  0
LINE
  5
10E2
330
1F
100
AcDbEntity
  8
LOGO
 62
     4
100
AcDbLine
 10
232.163007451139
 20
77.74952005012067
 30
0.0
 11
232.163007451139
 21
68.95079425826515
 31
0.0
  0
LINE
  5
10E3
330
1F
100
AcDbEntity
  8
LOGO
 62
     4
100
AcDbLine
 10
216.1653241932203
 20
77.74952005012067
 30
0.0
 11
216.1653241932203
 21
68.95079425826515
 31
0.0
  0
LINE
  5
10E4
330
1F
100
AcDbEntity
  8
LOGO
 62
     4
100
AcDbLine
 10
232.163007451139
 20
68.95079425826515
 30
0.0
 11
216.1653241932203
 21
68.95079425826515
 31
0.0
  0
LINE
  5
10E5
330
1F
100
AcDbEntity
  8
LOGO
 62
     4
100
AcDbLine
 10
235.1284898413118
 20
88.54795624921525
 30
0.0
 11
216.1653241932203
 21
88.54795624921525
 31
0.0
  0
LINE
  5
10E6
330
1F
100
AcDbEntity
  8
LOGO
 62
     4
100
AcDbLine
 10
235.1284898413118
 20
81.3489987831519
 30
0.0
 11
216.1653241932203
 21
81.3489987831519
 31
0.0
  0
LINE
  5
10E7
330
1F
100
AcDbEntity
  8
LOGO
 62
     4
100
AcDbLine
 10
216.1653241932203
 20
88.54795624921525
 30
0.0
 11
216.1653241932203
 21
81.3489987831519
 31
0.0
  0
LINE
  5
10E8
330
1F
100
AcDbEntity
  8
LOGO
 62
     4
100
AcDbLine
 10
235.1284898413118
 20
88.54795624921525
 30
0.0
 11
235.1284898413118
 21
81.3489987831519
 31
0.0
  0
LINE
  5
10E9
330
1F
100
AcDbEntity
  8
LOGO
 62
     4
100
AcDbLine
 10
224.9988430760636
 20
81.3489987831519
 30
0.0
 11
224.9988430760636
 21
77.74952005012067
 31
0.0
  0
TEXT
  5
10EA
330
1F
100
AcDbEntity
  8
LOGO
  6
Continuous
 62
     7
100
AcDbText
 10
217.4444661891566
 20
82.8517706293182
 30
0.0
 40
4.2
  1
MVSY
  7
CHINESET
100
AcDbText
  0
LINE
  5
10EB
330
1F
100
AcDbEntity
  8
LOGO
 62
     4
100
AcDbLine
 10
232.163007451139
 20
77.74952005012067
 30
0.0
 11
216.1653241932203
 21
77.74952005012067
 31
0.0
  0
TEXT
  5
10EC
330
1F
100
AcDbEntity
  8
LOGO
  6
Continuous
100
AcDbText
 10
221.2989301027923
 20
70.19271574565408
 30
157.2692709120597
 40
1.8
  1
Model
 41
0.8
  7
CHINESET
100
AcDbText
  0
TEXT
  5
10ED
330
1F
100
AcDbEntity
  8
LOGO
100
AcDbText
 10
220.8198286171932
 20
73.52952781796665
 30
157.2692709120597
 40
3.0
  1
型號
  7
CHINESET
100
AcDbText
  0
LINE
  5
10EE
330
1F
100
AcDbEntity
  8
LOGO
  6
Continuous
 62
     7
100
AcDbLine
 10
235.8937985185189
 20
84.92297767113468
 30
0.0
 11
239.0725954572462
 21
84.92297767113468
 31
0.0
  0
TEXT
  5
10EF
330
1F
100
AcDbEntity
  8
LOGO
  6
Continuous
 62
     7
100
AcDbText
 10
240.4322300201552
 20
82.8517706293182
 30
0.0
 40
4.2
  1
100
  7
CHINESET
100
AcDbText
  0
LINE
  5
10F0
330
1F
100
AcDbEntity
  8
LOGO
  6
Continuous
 62
     7
100
AcDbLine
 10
251.7516789340829
 20
84.92297767113468
 30
0.0
 11
254.9304758728108
 21
84.92297767113468
 31
0.0
  0
LINE
  5
10F4
330
1F
100
AcDbEntity
  8
LOGO
 62
     4
100
AcDbLine
 10
277.5004089849421
 20
88.54795624921525
 30
0.0
 11
255.9332187425925
 21
88.54795624921525
 31
0.0
  0
LINE
  5
10F5
330
1F
100
AcDbEntity
  8
LOGO
 62
     4
100
AcDbLine
 10
277.5004089849421
 20
81.3489987831519
 30
0.0
 11
255.9332187425925
 21
81.3489987831519
 31
0.0
  0
LINE
  5
10F6
330
1F
100
AcDbEntity
  8
LOGO
 62
     4
100
AcDbLine
 10
255.9332187425925
 20
88.54795624921525
 30
0.0
 11
255.9332187425925
 21
81.3489987831519
 31
0.0
  0
LINE
  5
10F7
330
1F
100
AcDbEntity
  8
LOGO
 62
     4
100
AcDbLine
 10
277.5004089849421
 20
88.54795624921525
 30
0.0
 11
277.5004089849421
 21
81.3489987831519
 31
0.0
  0
TEXT
  5
10F9
330
1F
100
AcDbEntity
  8
LOGO
  6
Continuous
 62
     7
100
AcDbText
 10
256.891380731326
 20
82.8517706293182
 30
0.0
 40
4.2
  1
1A/2A
  7
CHINESET
100
AcDbText
  0
LINE
  5
10FB
330
1F
100
AcDbEntity
  8
LOGO
 62
     4
100
AcDbLine
 10
272.1209055643753
 20
77.74952005012067
 30
0.0
 11
272.1209055643753
 21
68.95079425826515
 31
0.0
  0
LINE
  5
10FC
330
1F
100
AcDbEntity
  8
LOGO
 62
     4
100
AcDbLine
 10
259.0882421822698
 20
77.74952005012067
 30
0.0
 11
259.0882421822698
 21
68.95079425826515
 31
0.0
  0
LINE
  5
10FD
330
1F
100
AcDbEntity
  8
LOGO
 62
     4
100
AcDbLine
 10
272.1209055643753
 20
68.95079425826515
 30
0.0
 11
259.0882421822698
 21
68.95079425826515
 31
0.0
  0
LINE
  5
1104
330
1F
100
AcDbEntity
  8
LOGO
 62
     4
100
AcDbLine
 10
272.1209055643753
 20
77.74952005012067
 30
0.0
 11
259.0882421822698
 21
77.74952005012067
 31
0.0
  0
TEXT
  5
1107
330
1F
100
AcDbEntity
  8
LOGO
  6
Continuous
100
AcDbText
 10
261.8208896983246
 20
70.19271574565408
 30
157.2692709120597
 40
1.8
  1
Bracket
 41
0.8
  7
CHINESET
100
AcDbText
  0
TEXT
  5
1108
330
1F
100
AcDbEntity
  8
LOGO
100
AcDbText
 10
262.5921688412424
 20
73.52952781796665
 30
157.2692709120597
 40
3.0
  1
支架
  7
CHINESET
100
AcDbText
  0
LINE
  5
110B
330
1F
100
AcDbEntity
  8
LOGO
 62
     4
100
AcDbLine
 10
265.6045738733223
 20
77.74952005012067
 30
0.0
 11
265.6045738733224
 21
81.34899878315192
 31
0.0
  0
POINT
  5
110D
330
1F
100
AcDbEntity
  8
0
 60
     1
100
AcDbPoint
 10
-1947.385127577553
 20
-563.0507483499114
 30
0.0
1001
GENIUS_GENOBJ-N-CRS_13
1002
{
1000
OWNER
1000
GEN
1002
}
1001
GENIUS_GENOLIS_13
1002
{
1000
ENT
1005
0
1005
0
1005
0
1005
10DC
1002
}
1001
GENIUS_GENOENT_13
1002
{
1000
MYREF
1005
110D
1002
}
1002
{
1000
GRP
1005
0
1002
}
1001
GENIUS_GENODEF_13
1002
{
1000
HIER
1070
    10
1002
}
1002
{
1000
MANEDIT
1070
     1
1002
}
1002
{
1000
NOSEL
1070
     0
1002
}
1002
{
1000
BEHIND
1070
     0
1002
}
1002
{
1000
OTHER
1070
     0
1002
}
1002
{
1000
REACTOR
1002
}
  0
POINT
  5
110E
330
1F
100
AcDbEntity
  8
0
 60
     1
100
AcDbPoint
 10
-1958.709712800408
 20
-554.175161871275
 30
0.0
1001
GENIUS_GENOBJ-N-CRS_13
1002
{
1000
OWNER
1000
GEN
1002
}
1001
GENIUS_GENOLIS_13
1002
{
1000
ENT
1005
0
1005
0
1005
0
1005
10DB
1002
}
1001
GENIUS_GENOENT_13
1002
{
1000
MYREF
1005
110E
1002
}
1002
{
1000
GRP
1005
0
1002
}
1001
GENIUS_GENODEF_13
1002
{
1000
HIER
1070
    10
1002
}
1002
{
1000
MANEDIT
1070
     1
1002
}
1002
{
1000
NOSEL
1070
     0
1002
}
1002
{
1000
BEHIND
1070
     0
1002
}
1002
{
1000
OTHER
1070
     0
1002
}
1002
{
1000
REACTOR
1002
}
  0
POINT
  5
110F
330
1F
100
AcDbEntity
  8
0
 60
     1
100
AcDbPoint
 10
-1952.351039102571
 20
-563.0507483499114
 30
0.0
1001
GENIUS_GENOBJ-N-CRS_13
1002
{
1000
OWNER
1000
GEN
1002
}
1001
GENIUS_GENOLIS_13
1002
{
1000
ENT
1005
0
1005
0
1005
0
1005
10DA
1002
}
1001
GENIUS_GENOENT_13
1002
{
1000
MYREF
1005
110F
1002
}
1002
{
1000
GRP
1005
0
1002
}
1001
GENIUS_GENODEF_13
1002
{
1000
HIER
1070
    10
1002
}
1002
{
1000
MANEDIT
1070
     1
1002
}
1002
{
1000
NOSEL
1070
     0
1002
}
1002
{
1000
BEHIND
1070
     0
1002
}
1002
{
1000
OTHER
1070
     0
1002
}
1002
{
1000
REACTOR
1002
}
  0
LINE
  5
1110
330
1F
100
AcDbEntity
  8
LOGO
 62
     4
100
AcDbLine
 10
259.9254532077436
 20
260.1946413363632
 30
0.0
 11
259.9254532077436
 21
90.94760873790319
 31
0.0
  0
DIMENSION
  5
11E1
102
{ACAD_XDICTIONARY
360
11F0
102
}
102
{ACAD_REACTORS
330
11F1
102
}
330
1F
100
AcDbEntity
  8
AM_5
100
AcDbDimension
  2
*D13
 10
214.4933051372281
 20
194.5200189078731
 30
0.0
 11
214.4933051372281
 21
204.6251222543299
 31
0.0
 70
   160
 71
     5
 42
1.199999999999988
  3
AM_ISO$0
100
AcDbAlignedDimension
 13
204.9436496254172
 23
195.7200189078731
 33
0.0
 14
204.9436496254172
 24
194.5200189078731
 34
0.0
 50
90.0
100
AcDbRotatedDimension
1001
ACAD
1000
DSTYLE
1002
{
1070
    40
1040
1.0
1070
   144
1040
1.0
1070
   272
1070
     8
1002
}
  0
LINE
  5
1251
330
1F
100
AcDbEntity
  8
AM_7
  6
AM_ISO08W050x2
100
AcDbLine
 10
173.9436496254171
 20
196.6284919206149
 30
0.0
 11
173.9436496254171
 21
193.5284919206149
 31
0.0
  0
LINE
  5
1252
330
1F
100
AcDbEntity
  8
AM_7
  6
AM_ISO08W050x2
100
AcDbLine
 10
200.9436496254171
 20
196.6284919206149
 30
0.0
 11
200.9436496254171
 21
193.5284919206149
 31
0.0
  0
LINE
  5
1253
330
1F
100
AcDbEntity
  8
AM_7
  6
AM_ISO08W050x2
100
AcDbLine
 10
182.4436496254171
 20
190.4571719644731
 30
0.0
 11
182.4436496254171
 21
193.5571719644731
 31
0.0
  0
LINE
  5
1254
330
1F
100
AcDbEntity
  8
AM_7
  6
AM_ISO08W050x2
100
AcDbLine
 10
191.4436496254171
 20
190.4571719644731
 30
0.0
 11
191.4436496254171
 21
193.5571719644731
 31
0.0
  0
LINE
  5
1256
330
1F
100
AcDbEntity
  8
AM_7
  6
AM_ISO08W050x2
100
AcDbLine
 10
226.5719156474306
 20
165.578611653833
 30
0.0
 11
229.6719156474306
 21
165.578611653833
 31
0.0
  0
LINE
  5
1257
330
1F
100
AcDbEntity
  8
AM_7
  6
AM_ISO08W050x2
100
AcDbLine
 10
223.4198692910654
 20
137.578611653833
 30
0.0
 11
226.5198692910654
 21
137.578611653833
 31
0.0
  0
LINE
  5
125A
330
1F
100
AcDbEntity
  8
AM_7
  6
AM_ISO08W050x2
100
AcDbLine
 10
362.572279437643
 20
156.0693586976535
 30
0.0
 11
365.672279437643
 21
156.0693586976535
 31
0.0
  0
LINE
  5
125B
330
1F
100
AcDbEntity
  8
AM_7
  6
AM_ISO08W050x2
100
AcDbLine
 10
361.8139624240888
 20
147.5693586976535
 30
0.0
 11
365.6139624240889
 21
147.5693586976535
 31
0.0
  0
LINE
  5
125C
330
1F
100
AcDbEntity
  8
AM_7
  6
AM_ISO08W050x2
100
AcDbLine
 10
361.8139624240888
 20
146.5693586976535
 30
0.0
 11
365.6139624240889
 21
146.5693586976535
 31
0.0
  0
LINE
  5
125D
330
1F
100
AcDbEntity
  8
AM_7
  6
AM_ISO08W050x2
100
AcDbLine
 10
329.9512392756727
 20
119.6142471345837
 30
0.0
 11
329.9512392756727
 21
116.5142471345837
 31
0.0
  0
LINE
  5
125E
330
1F
100
AcDbEntity
  8
AM_7
  6
AM_ISO08W050x2
100
AcDbLine
 10
298.9512392756727
 20
119.6759722612817
 30
0.0
 11
298.9512392756727
 21
116.5759722612817
 31
0.0
  0
ENDSEC
  0
SECTION
  2
OBJECTS
  0
DICTIONARY
  5
C
330
0
100
AcDbDictionary
281
     1
  3
ACAD_COLOR
350
BE
  3
ACAD_GROUP
350
D
  3
ACAD_LAYOUT
350
1A
  3
ACAD_MATERIAL
350
BD
  3
ACAD_MLINESTYLE
350
17
  3
ACAD_PLOTSETTINGS
350
19
  3
ACAD_PLOTSTYLENAME
350
E
  3
ACAD_TABLESTYLE
350
11A
  3
ACDBHEADERROUNDTRIPXREC
350
1292
  3
AcDbVariableDictionary
350
94
  3
AcmDictionary
350
5B
  3
AMG
350
41
  3
AMGSNAPSETTINGS
350
1B8
  3
DWGPROPS
350
1291
  0
DICTIONARY
  5
3F9
330
2
100
AcDbDictionary
280
     1
281
     1
  3
ACAD_LAYERFILTERS
360
5B7
  3
ACAD_LAYERSTATES
360
A7F
  3
ACLYDICTIONARY
360
5B6
  0
DICTIONARY
  5
8F
330
1F
100
AcDbDictionary
280
     1
281
     1
  0
DICTIONARY
  5
DED
330
DDF
100
AcDbDictionary
280
     1
281
     1
  3
ACAD_DIMASSOC
360
DEE
  0
DICTIONARY
  5
E13
330
E06
100
AcDbDictionary
280
     1
281
     1
  3
ACAD_DIMASSOC
360
E14
  0
DICTIONARY
  5
E39
330
E2C
100
AcDbDictionary
280
     1
281
     1
  3
ACAD_DIMASSOC
360
E3A
  0
DICTIONARY
  5
E59
330
E4D
100
AcDbDictionary
280
     1
281
     1
  3
ACAD_DIMASSOC
360
E5A
  0
DICTIONARY
  5
E9C
330
E90
100
AcDbDictionary
280
     1
281
     1
  3
ACAD_DIMASSOC
360
E9D
  0
DICTIONARY
  5
EF8
330
EEB
100
AcDbDictionary
280
     1
281
     1
  3
ACAD_DIMASSOC
360
EF9
  0
DICTIONARY
  5
F1E
330
F11
100
AcDbDictionary
280
     1
281
     1
  3
ACAD_DIMASSOC
360
F1F
  0
DICTIONARY
  5
F48
330
F3B
100
AcDbDictionary
280
     1
281
     1
  3
ACAD_DIMASSOC
360
F49
  0
DICTIONARY
  5
F7A
330
F6B
100
AcDbDictionary
280
     1
281
     1
  3
ACAD_DIMASSOC
360
F7B
  0
DICTIONARY
  5
11F0
330
11E1
100
AcDbDictionary
280
     1
281
     1
  3
ACAD_DIMASSOC
360
11F1
  0
DICTIONARY
  5
BE
102
{ACAD_REACTORS
330
C
102
}
330
C
100
AcDbDictionary
281
     1
  0
DICTIONARY
  5
D
102
{ACAD_REACTORS
330
C
102
}
330
C
100
AcDbDictionary
281
     1
  0
DICTIONARY
  5
1A
102
{ACAD_REACTORS
330
C
102
}
330
C
100
AcDbDictionary
281
     1
  3
Model
350
22
  3
配置1
350
1E
  3
配置2
350
26
  0
DICTIONARY
  5
BD
102
{ACAD_REACTORS
330
C
102
}
330
C
100
AcDbDictionary
281
     1
  0
DICTIONARY
  5
17
102
{ACAD_REACTORS
330
C
102
}
330
C
100
AcDbDictionary
281
     1
  3
Standard
350
18
  0
DICTIONARY
  5
19
102
{ACAD_REACTORS
330
C
102
}
330
C
100
AcDbDictionary
281
     1
  0
ACDBDICTIONARYWDFLT
  5
E
102
{ACAD_REACTORS
330
C
102
}
330
C
100
AcDbDictionary
281
     1
  3
Normal
350
F
100
AcDbDictionaryWithDefault
340
F
  0
DICTIONARY
  5
11A
102
{ACAD_REACTORS
330
C
102
}
330
C
100
AcDbDictionary
281
     1
  3
Standard
350
11B
  0
DICTIONARY
  5
1292
102
{ACAD_REACTORS
330
C
102
}
330
C
100
AcDbDictionary
281
     1
  0
DICTIONARY
  5
94
102
{ACAD_REACTORS
330
C
102
}
330
C
100
AcDbDictionary
281
     1
  3
CTABLESTYLE
350
138
  3
DIMASSOC
350
96
  3
INDEXCTL
350
95
  3
PROJECTNAME
350
128F
  0
DICTIONARY
  5
5B
102
{ACAD_REACTORS
330
C
102
}
330
C
100
AcDbDictionary
281
     1
  3
AcmBOM
350
1B5
  3
AcmStdDictionary
350
61
  3
AMDTSECTSYM_ARROWCOLOR
350
123
  0
DICTIONARY
  5
41
102
{ACAD_REACTORS
330
C
102
}
330
C
100
AcDbDictionary
281
     1
  0
DICTIONARY
  5
1B8
102
{ACAD_REACTORS
330
C
102
}
330
C
100
AcDbDictionary
281
     1
  0
XRECORD
  5
1291
102
{ACAD_REACTORS
330
C
102
}
330
C
100
AcDbXrecord
280
     1
  1
DWGPROPS COOKIE
  2

  3

  4

  6

  7

  8

  9

300
AmdtFileType=84
301
=
302
=
303
=
304
=
305
=
306
=
307
=
308
=
309
=
 40
0.0522395949074074
 41
2454188.339225614
 42
2454188.417510486
  1

 90
        1
  0
DICTIONARY
  5
5B7
102
{ACAD_REACTORS
330
3F9
102
}
330
3F9
100
AcDbDictionary
281
     1
  0
DICTIONARY
  5
A7F
102
{ACAD_REACTORS
330
3F9
102
}
330
3F9
100
AcDbDictionary
281
     1
  0
DICTIONARY
  5
5B6
102
{ACAD_REACTORS
330
3F9
102
}
330
3F9
100
AcDbDictionary
281
     1
1001
ACAD
1000
<All
  0
DIMASSOC
  5
DEE
102
{ACAD_REACTORS
330
DED
102
}
330
DED
100
AcDbDimAssoc
330
DDF
 90
        3
 70
     0
 71
     0
  1
AcDbOsnapPointRef
 72
     1
331
DBA
 73
     0
 91
        0
 40
0.0
 10
0.0
 20
0.0
 30
2.000000000000000E+50
 75
     0
  1
AcDbOsnapPointRef
 72
     1
331
DCC
 73
     0
 91
        0
 40
0.0
 10
0.0
 20
0.0
 30
2.000000000000000E+50
 75
     0
  0
DIMASSOC
  5
E14
102
{ACAD_REACTORS
330
E13
102
}
330
E13
100
AcDbDimAssoc
330
E06
 90
        3
 70
     0
 71
     0
  1
AcDbOsnapPointRef
 72
     1
331
DB9
 73
     0
 91
        0
 40
0.0
 10
0.0
 20
0.0
 30
2.000000000000000E+50
 75
     0
  1
AcDbOsnapPointRef
 72
     1
331
DCB
 73
     0
 91
        0
 40
0.0
 10
0.0
 20
0.0
 30
2.000000000000000E+50
 75
     0
  0
DIMASSOC
  5
E3A
102
{ACAD_REACTORS
330
E39
102
}
330
E39
100
AcDbDimAssoc
330
E2C
 90
        3
 70
     0
 71
     0
  1
AcDbOsnapPointRef
 72
     1
331
D00
 73
     0
 91
        0
 40
0.0
 10
0.0
 20
0.0
 30
2.000000000000000E+50
 75
     0
  1
AcDbOsnapPointRef
 72
     1
331
D12
 73
     0
 91
        0
 40
0.0
 10
0.0
 20
0.0
 30
2.000000000000000E+50
 75
     0
  0
DIMASSOC
  5
E5A
102
{ACAD_REACTORS
330
E59
102
}
330
E59
100
AcDbDimAssoc
330
E4D
 90
        2
 70
     0
 71
     0
  1
AcDbOsnapPointRef
 72
     3
331
B69
 73
     2
 91
        0
 40
0.0
 10
0.0
 20
0.0
 30
0.0
 75
     0
  0
DIMASSOC
  5
E9D
102
{ACAD_REACTORS
330
E9C
102
}
330
E9C
100
AcDbDimAssoc
330
E90
 90
        2
 70
     0
 71
     0
  1
AcDbOsnapPointRef
 72
     3
331
C80
 73
     2
 91
        0
 40
0.0
 10
0.0
 20
0.0
 30
0.0
 75
     0
  0
DIMASSOC
  5
EF9
102
{ACAD_REACTORS
330
EF8
102
}
330
EF8
100
AcDbDimAssoc
330
EEB
 90
        3
 70
     0
 71
     0
  1
AcDbOsnapPointRef
 72
     1
331
B78
 73
     0
 91
        0
 40
0.0
 10
0.0
 20
0.0
 30
2.000000000000000E+50
 75
     0
  1
AcDbOsnapPointRef
 72
    13
331
B6E
 73
     0
 91
        0
 40
0.0
 10
0.0
 20
0.0
 30
2.000000000000000E+50
 75
     0
  0
DIMASSOC
  5
F1F
102
{ACAD_REACTORS
330
F1E
102
}
330
F1E
100
AcDbDimAssoc
330
F11
 90
        3
 70
     0
 71
     0
  1
AcDbOsnapPointRef
 72
    13
331
B7C
 73
     0
 91
        0
 40
0.0
 10
0.0
 20
0.0
 30
2.000000000000000E+50
 75
     0
  1
AcDbOsnapPointRef
 72
     1
331
B7B
 73
     0
 91
        0
 40
0.0
 10
0.0
 20
0.0
 30
2.000000000000000E+50
 75
     0
  0
DIMASSOC
  5
F49
102
{ACAD_REACTORS
330
F48
102
}
330
F48
100
AcDbDimAssoc
330
F3B
 90
        3
 70
     0
 71
     0
  1
AcDbOsnapPointRef
 72
     1
331
C1D
 73
     0
 91
        0
 40
0.0
 10
0.0
 20
0.0
 30
2.000000000000000E+50
 75
     0
  1
AcDbOsnapPointRef
 72
    13
331
C28
 73
     0
 91
        0
 40
0.0
 10
0.0
 20
0.0
 30
2.000000000000000E+50
 75
     0
  0
DIMASSOC
  5
F7B
102
{ACAD_REACTORS
330
F7A
102
}
330
F7A
100
AcDbDimAssoc
330
F6B
 90
        3
 70
     0
 71
     0
  1
AcDbOsnapPointRef
 72
     1
331
C1D
 73
     0
 91
        0
 40
0.0
 10
0.0
 20
0.0
 30
2.000000000000000E+50
 75
     0
  1
AcDbOsnapPointRef
 72
    13
331
C2F
 73
     0
 91
        0
 40
0.0
 10
0.0
 20
0.0
 30
2.000000000000000E+50
 75
     0
  0
DIMASSOC
  5
11F1
102
{ACAD_REACTORS
330
11F0
102
}
330
11F0
100
AcDbDimAssoc
330
11E1
 90
        3
 70
     0
 71
     0
  1
AcDbOsnapPointRef
 72
     1
331
B7B
 73
     0
 91
        0
 40
0.0
 10
0.0
 20
0.0
 30
2.000000000000000E+50
 75
     0
  1
AcDbOsnapPointRef
 72
    13
331
B7B
 73
     0
 91
        0
 40
0.0
 10
0.0
 20
0.0
 30
2.000000000000000E+50
 75
     0
  0
LAYOUT
  5
22
102
{ACAD_XDICTIONARY
360
1295
102
}
102
{ACAD_REACTORS
330
1A
102
}
330
1A
100
AcDbPlotSettings
  1

  2
\\RD\EPSON Stylus C63 Series單色
  4
A4
  6

 40
3.757083177566528
 41
3.757076978683471
 42
3.757080078125
 43
3.757080078125
 44
209.9733276367187
 45
296.9683227539062
 46
0.0
 47
0.0
 48
0.0
 49
0.0
140
0.0
141
0.0
142
1.0
143
0.3405120737814363
 70
 11952
 72
     1
 73
     0
 74
     0
  7
彩色出圖.ctb
 75
     0
147
2.936753428137963
148
-2047.07469463503
149
-1261.649717473083
100
AcDbLayout
  1
Model
 70
     1
 71
     0
 10
0.0
 20
0.0
 11
12.0
 21
9.0
 12
0.0
 22
0.0
 32
0.0
 14
0.0
 24
0.0
 34
0.0
 15
0.0
 25
0.0
 35
0.0
146
0.0
 13
0.0
 23
0.0
 33
0.0
 16
1.0
 26
0.0
 36
0.0
 17
0.0
 27
1.0
 37
0.0
 76
     0
330
1F
1001
ACAD_PSEXT
1000
\\RD\EPSON Stylus C63 Series單色
1000
EPSON Stylus C63 Series
1000
\\RD
1000

1070
     0
  0
LAYOUT
  5
1E
102
{ACAD_XDICTIONARY
360
1293
102
}
102
{ACAD_REACTORS
330
1A
102
}
330
1A
100
AcDbPlotSettings
  1

  2

  4

  6

 40
0.0
 41
0.0
 42
0.0
 43
0.0
 44
0.0
 45
0.0
 46
0.0
 47
0.0
 48
0.0
 49
0.0
140
0.0
141
0.0
142
1.0
143
1.0
 70
   688
 72
     0
 73
     0
 74
     5
  7
彩色出圖.ctb
 75
    16
147
1.0
148
0.0
149
0.0
100
AcDbLayout
  1
配置1
 70
     1
 71
     1
 10
0.0
 20
0.0
 11
420.0
 21
297.0
 12
0.0
 22
0.0
 32
0.0
 14
1.000000000000000E+20
 24
1.000000000000000E+20
 34
1.000000000000000E+20
 15
-1.000000000000000E+20
 25
-1.000000000000000E+20
 35
-1.000000000000000E+20
146
0.0
 13
0.0
 23
0.0
 33
0.0
 16
1.0
 26
0.0
 36
0.0
 17
0.0
 27
1.0
 37
0.0
 76
     0
330
1B
  0
LAYOUT
  5
26
102
{ACAD_XDICTIONARY
360
1297
102
}
102
{ACAD_REACTORS
330
1A
102
}
330
1A
100
AcDbPlotSettings
  1

  2

  4

  6

 40
0.0
 41
0.0
 42
0.0
 43
0.0
 44
0.0
 45
0.0
 46
0.0
 47
0.0
 48
0.0
 49
0.0
140
0.0
141
0.0
142
1.0
143
1.0
 70
   688
 72
     0
 73
     0
 74
     5
  7
彩色出圖.ctb
 75
    16
147
1.0
148
0.0
149
0.0
100
AcDbLayout
  1
配置2
 70
     1
 71
     2
 10
0.0
 20
0.0
 11
12.0
 21
9.0
 12
0.0
 22
0.0
 32
0.0
 14
0.0
 24
0.0
 34
0.0
 15
0.0
 25
0.0
 35
0.0
146
0.0
 13
0.0
 23
0.0
 33
0.0
 16
1.0
 26
0.0
 36
0.0
 17
0.0
 27
1.0
 37
0.0
 76
     0
330
23
  0
MLINESTYLE
  5
18
102
{ACAD_REACTORS
330
17
102
}
330
17
100
AcDbMlineStyle
  2
STANDARD
 70
     0
  3

 62
   256
 51
90.0
 52
90.0
 71
     2
 49
0.5
 62
   256
  6
BYLAYER
 49
-0.5
 62
   256
  6
BYLAYER
  0
ACDBPLACEHOLDER
  5
F
102
{ACAD_REACTORS
330
E
102
}
330
E
  0
TABLESTYLE
  5
11B
102
{ACAD_REACTORS
330
11A
102
}
330
11A
100
AcDbTableStyle
  3
Standard
 70
     0
 71
     0
 40
1.5
 41
1.5
280
     0
281
     0
  7
STANDARD
140
4.5
170
     2
 62
     0
 63
     7
283
     0
274
    -2
284
     1
 64
     0
275
    -2
285
     1
 65
     0
276
    -2
286
     1
 66
     0
277
    -2
287
     1
 67
     0
278
    -2
288
     1
 68
     0
279
    -2
289
     1
 69
     0
  7
STANDARD
140
6.0
170
     5
 62
     0
 63
     7
283
     0
274
    -2
284
     1
 64
     0
275
    -2
285
     1
 65
     0
276
    -2
286
     1
 66
     0
277
    -2
287
     1
 67
     0
278
    -2
288
     1
 68
     0
279
    -2
289
     1
 69
     0
  7
STANDARD
140
4.5
170
     5
 62
     0
 63
     7
283
     0
274
    -2
284
     1
 64
     0
275
    -2
285
     1
 65
     0
276
    -2
286
     1
 66
     0
277
    -2
287
     1
 67
     0
278
    -2
288
     1
 68
     0
279
    -2
289
     1
 69
     0
  0
DICTIONARYVAR
  5
138
102
{ACAD_REACTORS
330
94
102
}
330
94
100
DictionaryVariables
280
     0
  1
STANDARD
  0
DICTIONARYVAR
  5
96
102
{ACAD_REACTORS
330
94
102
}
330
94
100
DictionaryVariables
280
     0
  1
2
  0
DICTIONARYVAR
  5
95
102
{ACAD_REACTORS
330
94
102
}
330
94
100
DictionaryVariables
280
     0
  1
0
  0
DICTIONARYVAR
  5
128F
102
{ACAD_REACTORS
330
94
102
}
330
94
100
DictionaryVariables
280
     0
  1

  0
DICTIONARY
  5
1B5
102
{ACAD_REACTORS
330
5B
102
}
330
5B
100
AcDbDictionary
281
     1
  0
DICTIONARY
  5
61
102
{ACAD_REACTORS
330
5B
102
}
330
5B
100
AcDbDictionary
281
     1
  0
XRECORD
  5
123
102
{ACAD_REACTORS
330
5B
102
}
330
5B
100
AcDbXrecord
280
     1
 90
-1023410169
  0
DICTIONARY
  5
1295
330
22
100
AcDbDictionary
280
     1
281
     1
  3
ACAD_XREC_ROUNDTRIP
360
1296
  0
DICTIONARY
  5
1293
330
1E
100
AcDbDictionary
280
     1
281
     1
  3
ACAD_XREC_ROUNDTRIP
360
1294
  0
DICTIONARY
  5
1297
330
26
100
AcDbDictionary
280
     1
281
     1
  3
ACAD_XREC_ROUNDTRIP
360
1298
  0
XRECORD
  5
1296
102
{ACAD_REACTORS
330
1295
102
}
330
1295
100
AcDbXrecord
280
     1
102
SHADEPLOT
 70
     0
102
SHADEPLOTRESLEVEL
 70
     2
102
SHADEPLOTCUSTOMDPI
 70
   300
  0
XRECORD
  5
1294
102
{ACAD_REACTORS
330
1293
102
}
330
1293
100
AcDbXrecord
280
     1
102
SHADEPLOT
 70
     0
102
SHADEPLOTRESLEVEL
 70
     2
102
SHADEPLOTCUSTOMDPI
 70
   300
  0
XRECORD
  5
1298
102
{ACAD_REACTORS
330
1297
102
}
330
1297
100
AcDbXrecord
280
     1
102
SHADEPLOT
 70
     0
102
SHADEPLOTRESLEVEL
 70
     2
102
SHADEPLOTCUSTOMDPI
 70
   300
  0
ENDSEC
  0
EOF
