  0
SECTION
  2
HEADER
  9
$ACADVER
  1
AC1015
  9
$ACADMAINTVER
 70
    20
  9
$DWGCODEPAGE
  3
ANSI_950
  9
$INSBASE
 10
0.0
 20
0.0
 30
0.0
  9
$EXTMIN
 10
166.4055725687921
 20
132.0317283763157
 30
-0.0047991110962471
  9
$EXTMAX
 10
496.44429861425
 20
372.0481282840382
 30
157.2740707554981
  9
$LIMMIN
 10
0.0
 20
0.0
  9
$LIMMAX
 10
420.0
 20
297.0
  9
$ORTHOMODE
 70
     1
  9
$REGENMODE
 70
     1
  9
$FILLMODE
 70
     1
  9
$QTEXTMODE
 70
     0
  9
$MIRRTEXT
 70
     1
  9
$LTSCALE
 40
1.0
  9
$ATTMODE
 70
     1
  9
$TEXTSIZE
 40
3.0
  9
$TRACEWID
 40
1.0
  9
$TEXTSTYLE
  7
STANDARD
  9
$CLAYER
  8
0
  9
$CELTYPE
  6
ByLayer
  9
$CECOLOR
 62
   256
  9
$CELTSCALE
 40
1.0
  9
$DISPSILH
 70
     0
  9
$DIMSCALE
 40
1.0
  9
$DIMASZ
 40
3.0
  9
$DIMEXO
 40
1.0
  9
$DIMDLI
 40
8.0
  9
$DIMRND
 40
0.0
  9
$DIMDLE
 40
0.0
  9
$DIMEXE
 40
1.5
  9
$DIMTP
 40
0.1
  9
$DIMTM
 40
0.1
  9
$DIMTXT
 40
3.5
  9
$DIMCEN
 40
0.0
  9
$DIMTSZ
 40
0.0
  9
$DIMTOL
 70
     0
  9
$DIMLIM
 70
     0
  9
$DIMTIH
 70
     0
  9
$DIMTOH
 70
     0
  9
$DIMSE1
 70
     0
  9
$DIMSE2
 70
     0
  9
$DIMTAD
 70
     1
  9
$DIMZIN
 70
     8
  9
$DIMBLK
  1

  9
$DIMASO
 70
     1
  9
$DIMSHO
 70
     1
  9
$DIMPOST
  1

  9
$DIMAPOST
  1
"
  9
$DIMALT
 70
     0
  9
$DIMALTD
 70
     2
  9
$DIMALTF
 40
0.0393701
  9
$DIMLFAC
 40
1.0
  9
$DIMTOFL
 70
     1
  9
$DIMTVP
 40
0.0
  9
$DIMTIX
 70
     0
  9
$DIMSOXD
 70
     0
  9
$DIMSAH
 70
     0
  9
$DIMBLK1
  1

  9
$DIMBLK2
  1

  9
$DIMSTYLE
  2
AM_ISO
  9
$DIMCLRD
 70
   256
  9
$DIMCLRE
 70
   256
  9
$DIMCLRT
 70
   256
  9
$DIMTFAC
 40
0.6
  9
$DIMGAP
 40
0.7
  9
$DIMJUST
 70
     0
  9
$DIMSD1
 70
     0
  9
$DIMSD2
 70
     0
  9
$DIMTOLJ
 70
     0
  9
$DIMTZIN
 70
     8
  9
$DIMALTZ
 70
     0
  9
$DIMALTTZ
 70
     0
  9
$DIMUPT
 70
     0
  9
$DIMDEC
 70
     2
  9
$DIMTDEC
 70
     8
  9
$DIMALTU
 70
     2
  9
$DIMALTTD
 70
     2
  9
$DIMTXSTY
  7
STANDARD
  9
$DIMAUNIT
 70
     0
  9
$DIMADEC
 70
     0
  9
$DIMALTRND
 40
0.0
  9
$DIMAZIN
 70
     2
  9
$DIMDSEP
 70
    46
  9
$DIMATFIT
 70
     3
  9
$DIMFRAC
 70
     0
  9
$DIMLDRBLK
  1

  9
$DIMLUNIT
 70
     2
  9
$DIMLWD
 70
    -1
  9
$DIMLWE
 70
    -1
  9
$DIMTMOVE
 70
     0
  9
$LUNITS
 70
     2
  9
$LUPREC
 70
     2
  9
$SKETCHINC
 40
1.0
  9
$FILLETRAD
 40
2.5
  9
$AUNITS
 70
     0
  9
$AUPREC
 70
     0
  9
$MENU
  1
.
  9
$ELEVATION
 40
0.0
  9
$PELEVATION
 40
0.0
  9
$THICKNESS
 40
0.0
  9
$LIMCHECK
 70
     0
  9
$CHAMFERA
 40
2.5
  9
$CHAMFERB
 40
2.5
  9
$CHAMFERC
 40
20.0
  9
$CHAMFERD
 40
0.0
  9
$SKPOLY
 70
     0
  9
$TDCREATE
 40
2454013.612854456
  9
$TDUCREATE
 40
2454013.279521123
  9
$TDUPDATE
 40
2454013.668056632
  9
$TDUUPDATE
 40
2454013.334723299
  9
$TDINDWG
 40
0.0134458218
  9
$TDUSRTIMER
 40
0.0134458218
  9
$USRTIMER
 70
     1
  9
$ANGBASE
 50
0.0
  9
$ANGDIR
 70
     0
  9
$PDMODE
 70
     0
  9
$PDSIZE
 40
0.0
  9
$PLINEWID
 40
0.0
  9
$SPLFRAME
 70
     0
  9
$SPLINETYPE
 70
     6
  9
$SPLINESEGS
 70
     8
  9
$HANDSEED
  5
FDB
  9
$SURFTAB1
 70
     6
  9
$SURFTAB2
 70
     6
  9
$SURFTYPE
 70
     6
  9
$SURFU
 70
     6
  9
$SURFV
 70
     6
  9
$UCSBASE
  2

  9
$UCSNAME
  2

  9
$UCSORG
 10
0.0
 20
0.0
 30
0.0
  9
$UCSXDIR
 10
1.0
 20
0.0
 30
0.0
  9
$UCSYDIR
 10
0.0
 20
1.0
 30
0.0
  9
$UCSORTHOREF
  2

  9
$UCSORTHOVIEW
 70
     0
  9
$UCSORGTOP
 10
0.0
 20
0.0
 30
0.0
  9
$UCSORGBOTTOM
 10
0.0
 20
0.0
 30
0.0
  9
$UCSORGLEFT
 10
0.0
 20
0.0
 30
0.0
  9
$UCSORGRIGHT
 10
0.0
 20
0.0
 30
0.0
  9
$UCSORGFRONT
 10
0.0
 20
0.0
 30
0.0
  9
$UCSORGBACK
 10
0.0
 20
0.0
 30
0.0
  9
$PUCSBASE
  2

  9
$PUCSNAME
  2

  9
$PUCSORG
 10
0.0
 20
0.0
 30
0.0
  9
$PUCSXDIR
 10
1.0
 20
0.0
 30
0.0
  9
$PUCSYDIR
 10
0.0
 20
1.0
 30
0.0
  9
$PUCSORTHOREF
  2

  9
$PUCSORTHOVIEW
 70
     0
  9
$PUCSORGTOP
 10
0.0
 20
0.0
 30
0.0
  9
$PUCSORGBOTTOM
 10
0.0
 20
0.0
 30
0.0
  9
$PUCSORGLEFT
 10
0.0
 20
0.0
 30
0.0
  9
$PUCSORGRIGHT
 10
0.0
 20
0.0
 30
0.0
  9
$PUCSORGFRONT
 10
0.0
 20
0.0
 30
0.0
  9
$PUCSORGBACK
 10
0.0
 20
0.0
 30
0.0
  9
$USERI1
 70
     0
  9
$USERI2
 70
     0
  9
$USERI3
 70
     0
  9
$USERI4
 70
     0
  9
$USERI5
 70
     0
  9
$USERR1
 40
0.0
  9
$USERR2
 40
0.0
  9
$USERR3
 40
0.0
  9
$USERR4
 40
0.0
  9
$USERR5
 40
0.0
  9
$WORLDVIEW
 70
     1
  9
$SHADEDGE
 70
     3
  9
$SHADEDIF
 70
    70
  9
$TILEMODE
 70
     1
  9
$MAXACTVP
 70
    64
  9
$PINSBASE
 10
0.0
 20
0.0
 30
0.0
  9
$PLIMCHECK
 70
     0
  9
$PEXTMIN
 10
1.000000000000000E+20
 20
1.000000000000000E+20
 30
1.000000000000000E+20
  9
$PEXTMAX
 10
-1.000000000000000E+20
 20
-1.000000000000000E+20
 30
-1.000000000000000E+20
  9
$PLIMMIN
 10
0.0
 20
0.0
  9
$PLIMMAX
 10
420.0
 20
297.0
  9
$UNITMODE
 70
     0
  9
$VISRETAIN
 70
     1
  9
$PLINEGEN
 70
     0
  9
$PSLTSCALE
 70
     1
  9
$TREEDEPTH
 70
  3020
  9
$CMLSTYLE
  2
Standard
  9
$CMLJUST
 70
     0
  9
$CMLSCALE
 40
20.0
  9
$PROXYGRAPHICS
 70
     1
  9
$MEASUREMENT
 70
     1
  9
$CELWEIGHT
370
    -1
  9
$ENDCAPS
280
     0
  9
$JOINSTYLE
280
     0
  9
$LWDISPLAY
290
     0
  9
$INSUNITS
 70
     4
  9
$HYPERLINKBASE
  1

  9
$STYLESHEET
  1
彩色出圖.ctb
  9
$XEDIT
290
     1
  9
$CEPSNTYPE
380
     0
  9
$PSTYLEMODE
290
     1
  9
$FINGERPRINTGUID
  2
{25AFC6F0-9DA1-4431-A483-4DF0D038E6B1}
  9
$VERSIONGUID
  2
{C73169A7-844D-4A7E-80A5-9914C217EEB2}
  9
$EXTNAMES
290
     1
  9
$PSVPSCALE
 40
0.0
  9
$OLESTARTUP
290
     0
  0
ENDSEC
  0
SECTION
  2
CLASSES
  0
CLASS
  1
ACDBDICTIONARYWDFLT
  2
AcDbDictionaryWithDefault
  3
ObjectDBX Classes
 90
        0
280
     0
281
     0
  0
CLASS
  1
ACDBPLACEHOLDER
  2
AcDbPlaceHolder
  3
ObjectDBX Classes
 90
        0
280
     0
281
     0
  0
CLASS
  1
LAYOUT
  2
AcDbLayout
  3
ObjectDBX Classes
 90
        0
280
     0
281
     0
  0
CLASS
  1
ACME_DOCUMENT
  2
AcMeDbDoc
  3
AcMeServices
 90
        0
280
     0
281
     0
  0
CLASS
  1
AMGSETTINGSOBJ
  2
AmgSettingsObj
  3
"AcadM|Product Description: AutoCAD Mechanical 2000|Company: Autodesk"
 90
        0
280
     0
281
     0
  0
CLASS
  1
ACMESCOPE
  2
AcMeScope
  3
AcMeServices
 90
        0
280
     0
281
     0
  0
CLASS
  1
ACMECOMMANDHISTORY
  2
AcMeCommandHistory
  3
AcMeServices
 90
        0
280
     0
281
     0
  0
CLASS
  1
ACIMSYSVARMAN
  2
AcImSysVarManager
  3
AcMeServices
 90
        0
280
     0
281
     0
  0
CLASS
  1
ACIMREALSYSVAR
  2
AcImRealSysVar
  3
AcMeServices
 90
        0
280
     0
281
     0
  0
CLASS
  1
ACIMINTSYSVAR
  2
AcImIntSysVar
  3
AcMeServices
 90
        0
280
     0
281
     0
  0
CLASS
  1
ACMEDRAWINGMAN
  2
AcMeDrawingMan
  3
AcMeServices
 90
        0
280
     0
281
     0
  0
CLASS
  1
ACMEVIEW
  2
AcMeView
  3
AcMeServices
 90
        0
280
     0
281
     0
  0
CLASS
  1
ACDBENTITYCACHE
  2
AcMeEntityCache
  3
AcMeServices
 90
        0
280
     0
281
     0
  0
CLASS
  1
GSMANAGER
  2
AcMeGSManager
  3
AcMeServices
 90
        0
280
     0
281
     0
  0
CLASS
  1
AMDTINTERNALREACTOR
  2
AmdtInternalReactor
  3
AcMeServices
 90
        0
280
     0
281
     0
  0
CLASS
  1
ACMESTATEMGR
  2
AcMeStateMgr
  3
AcMeServices
 90
        0
280
     0
281
     0
  0
CLASS
  1
ACGREFMASTER
  2
AcGrefMaster
  3
AcAttribServices
 90
        0
280
     0
281
     0
  0
CLASS
  1
ACME_DATABASE
  2
AcMeDbDatabase
  3
AcMeServices
 90
        0
280
     0
281
     0
  0
CLASS
  1
ACRFINSADJUSTERMGR
  2
AcRfInsAdjusterMgr
  3
AcMeServices
 90
        0
280
     0
281
     0
  0
CLASS
  1
ACGREFACADMASTER
  2
AcGrefacadMaster
  3
AcGrefServices
 90
        0
280
     0
281
     0
  0
CLASS
  1
AMIMASTER
  2
AmiMaster
  3
AmiServices
 90
        0
280
     0
281
     0
  0
CLASS
  1
ACMDATADICTIONARY
  2
AcmDataDictionary
  3
"AcmSymBB|Product Description: AutoCAD Mechanical 2004 DX|Company: Autodesk"
 90
        0
280
     0
281
     0
  0
CLASS
  1
ACMDATAENTRYBLOCK
  2
AcmDataEntryBlock
  3
"AcmSymBB|Product Description: AutoCAD Mechanical 2004 DX|Company: Autodesk"
 90
        0
280
     0
281
     0
  0
CLASS
  1
ACIMSTRSYSVAR
  2
AcImStrSysVar
  3
AcMeServices
 90
        0
280
     0
281
     0
  0
CLASS
  1
ACMSTANDARDISO
  2
AcmStandardISO
  3
"Amdt_StdImp|Product Description: AutoCAD Mechanical 2004 DX|Company: Autodesk"
 90
        0
280
     0
281
     0
  0
CLASS
  1
AMGOBJPROPCFG
  2
AmgObjPropCfg
  3
"AmgLay|Product Description: AutoCAD Mechanical 2000|Company: Autodesk"
 90
        1
280
     0
281
     0
  0
CLASS
  1
AMDTEDGESTANDARDISO
  2
AmdtEdgeStdISO
  3
"Amdt_StdImp|Product Description: AutoCAD Mechanical 2004 DX|Company: Autodesk"
 90
        0
280
     0
281
     0
  0
CLASS
  1
ACMSURFSTANDARDISO
  2
AcmSurfTextStdISO
  3
"Amdt_StdImp|Product Description: AutoCAD Mechanical 2004 DX|Company: Autodesk"
 90
        0
280
     0
281
     0
  0
CLASS
  1
ACMFCFSTANDARDISO
  2
AcmFCFStdISO
  3
"Amdt_StdImp|Product Description: AutoCAD Mechanical 2004 DX|Company: Autodesk"
 90
        0
280
     0
281
     0
  0
CLASS
  1
ACMWELDSTANDARDISO
  2
AcmWeldingStdISO
  3
"Amdt_StdImp|Product Description: AutoCAD Mechanical 2004 DX|Company: Autodesk"
 90
        0
280
     0
281
     0
  0
CLASS
  1
ACMIDSTANDARDISO
  2
AcmIdStdISO
  3
"Amdt_StdImp|Product Description: AutoCAD Mechanical 2004 DX|Company: Autodesk"
 90
        0
280
     0
281
     0
  0
CLASS
  1
ACMDATUMSTANDARDISO
  2
AcmDatumStdISO
  3
"Amdt_StdImp|Product Description: AutoCAD Mechanical 2004 DX|Company: Autodesk"
 90
        0
280
     0
281
     0
  0
CLASS
  1
ACMBOMSTANDARDISO
  2
AcmBOMStdISO
  3
"Amdt_StdImp|Product Description: AutoCAD Mechanical 2004 DX|Company: Autodesk"
 90
        0
280
     0
281
     0
  0
CLASS
  1
ACMDETAILSTANDARDISO
  2
AmdtDetailSymStdISO
  3
"Amdt_StdImp|Product Description: AutoCAD Mechanical 2004 DX|Company: Autodesk"
 90
        0
280
     0
281
     0
  0
CLASS
  1
ACMSECTIONSTANDARDISO
  2
AmdtSectionSymStdISO
  3
"Amdt_StdImp|Product Description: AutoCAD Mechanical 2004 DX|Company: Autodesk"
 90
        0
280
     0
281
     0
  0
CLASS
  1
ACMCENTERLINESTANDARDISO
  2
AmdtCenterLineStdISO
  3
"Amdt_StdImp|Product Description: AutoCAD Mechanical 2004 DX|Company: Autodesk"
 90
        0
280
     0
281
     0
  0
CLASS
  1
ACMNOTESTANDARDISO
  2
AmdtNoteStdISO
  3
"Amdt_StdImp|Product Description: AutoCAD Mechanical 2004 DX|Company: Autodesk"
 90
        0
280
     0
281
     0
  0
CLASS
  1
ACAMGLAYSTD
  2
AcAmgLayStd
  3
"AcAmgLayStd|Product Description: AutoCAD Mechanical 2000|Company: Autodesk"
 90
        0
280
     0
281
     0
  0
CLASS
  1
ACAMGDIMSTD
  2
AcAmgDimStd
  3
"AcAmgDimStd|Product Description: AutoCAD Mechanical 2000|Company: Autodesk"
 90
        0
280
     0
281
     0
  0
CLASS
  1
ACAMGHOLECHARTSTDISO
  2
AcAmgHoleChartStdISO
  3
ACMSYMBB_MODULE_NAME
 90
        0
280
     0
281
     0
  0
CLASS
  1
ACAMGTITLESTD
  2
AcAmgTitleStd
  3
"TITLEAPP"
 90
        0
280
     0
281
     0
  0
CLASS
  1
LAYER_INDEX
  2
AcDbLayerIndex
  3
ObjectDBX Classes
 90
    32768
280
     0
281
     0
  0
CLASS
  1
IDBUFFER
  2
AcDbIdBuffer
  3
ObjectDBX Classes
 90
    32768
280
     0
281
     0
  0
CLASS
  1
DICTIONARYVAR
  2
AcDbDictionaryVar
  3
ObjectDBX Classes
 90
        0
280
     0
281
     0
  0
CLASS
  1
AM_DRAWING_MGR
  2
AcDmDwgMgr
  3
AcMechDwgViewMgmt
 90
        0
280
     0
281
     0
  0
CLASS
  1
AM_DWG_DOCUMENT
  2
AcDmDwgDocument
  3
AcMechDwgViewMgmt
 90
        0
280
     0
281
     0
  0
CLASS
  1
AM_DWG_SHEET
  2
AcDmSheet
  3
AcMechDwgViewMgmt
 90
        0
280
     0
281
     0
  0
CLASS
  1
AM_VIEWDIMPARMAP
  2
AcDmViewDimParMap
  3
AcMechDwgViewMgmt
 90
        0
280
     0
281
     0
  0
CLASS
  1
AM_DWGMGR_NAME
  2
AcDmDwgMgrName
  3
AcMechDwgViewMgmt
 90
        0
280
     0
281
     0
  0
CLASS
  1
AMDTMENUSTATEMGR
  2
AmdtMenuStateMgr
  3
McadcomServices
 90
        0
280
     0
281
     0
  0
CLASS
  1
AMDTMCOMMENUSTATE
  2
AmdtMcomMenuState
  3
McadcomServices
 90
        0
280
     0
281
     0
  0
CLASS
  1
MAPIAMMOUDLE
  2
MApiAmModule
  3
MApiAmServices
 90
        0
280
     0
281
     0
  0
CLASS
  1
AMDTADMENUSTATE
  2
AmdtAdMenuState
  3
DesignerServices
 90
        0
280
     0
281
     0
  0
CLASS
  1
ADAPPL
  2
AcAdAppl
  3
DesignerServices
 90
        0
280
     0
281
     0
  0
CLASS
  1
DEPMGR
  2
AcAdDepMgr
  3
DesignerServices
 90
        0
280
     0
281
     0
  0
CLASS
  1
PARAMMGR
  2
AcAdParamMgr
  3
DesignerServices
 90
        0
280
     0
281
     0
  0
CLASS
  1
PARAMSCOPE
  2
AcAdParamScope
  3
DesignerServices
 90
        0
280
     0
281
     0
  0
CLASS
  1
NAMEDAPPL
  2
AcAdNamedAppl
  3
DesignerServices
 90
        0
280
     0
281
     0
  0
CLASS
  1
AMDTDMMENUSTATE
  2
AmdtDmMenuState
  3
AcMechDwgViewMgmt
 90
        0
280
     0
281
     0
  0
CLASS
  1
AMDTAMMENUSTATE
  2
AmdtAmMenuState
  3
DesignerAssemblies
 90
        0
280
     0
281
     0
  0
CLASS
  1
ACAMPROJECT
  2
AcAmProject
  3
DesignerAssemblies
 90
        0
280
     0
281
     0
  0
CLASS
  1
ACAMGRCOMPDEF
  2
AcAmGrCompDef
  3
DesignerAssemblies
 90
        0
280
     0
281
     0
  0
CLASS
  1
ACCMCONTEXT
  2
AcCmContext
  3
DesignerAssemblies
 90
        0
280
     0
281
     0
  0
CLASS
  1
ACAMCOMPDEF
  2
AcAmCompDef
  3
DesignerAssemblies
 90
        0
280
     0
281
     0
  0
CLASS
  1
ACAMCOMPDEFMGR
  2
AcAmCompDefMgr
  3
DesignerAssemblies
 90
        0
280
     0
281
     0
  0
CLASS
  1
AMCONTEXTMGR
  2
AcAmContextMgr
  3
DesignerAssemblies
 90
        0
280
     0
281
     0
  0
CLASS
  1
ACAMCONTEXTMODELER
  2
AcAmContextModeler
  3
DesignerAssemblies
 90
        0
280
     0
281
     0
  0
CLASS
  1
ACMTHREADLINESTANDARDISO
  2
AmdtThreadLineStdISO
  3
"Amdt_StdImp|Product Description: AutoCAD Mechanical 2004 DX|Company: Autodesk"
 90
        0
280
     0
281
     0
  0
CLASS
  1
CATALOGSTATE
  2
AcAmCatalogState
  3
DesignerAssemblies
 90
        0
280
     0
281
     0
  0
CLASS
  1
ACAMGRCOMPDEFSET
  2
AcAmGrCompDefSet
  3
DesignerAssemblies
 90
        0
280
     0
281
     0
  0
CLASS
  1
AMDTBROWSERDBTAB
  2
AmdtBrowserDbTab
  3
McadcomServices
 90
        0
280
     0
281
     0
  0
CLASS
  1
CBROWSERAPPOBJECT
  2
CBrowserAppObject
  3
McadcomServices
 90
        0
280
     0
281
     0
  0
CLASS
  1
DM_PLACEHOLDER
  2
AcDmSelsetPlaceholder
  3
AcMechDwgViewMgmt
 90
        0
280
     0
281
     0
  0
CLASS
  1
TABLESTYLE
  2
AcDbTableStyle
  3
ObjectDBX Classes
 90
     2047
280
     0
281
     0
  0
CLASS
  1
VAACXREFPANELOBJECT
  2
VaAcXREFPanelObject
  3
VAAC_ADDIN
 90
    32768
280
     0
281
     0
  0
CLASS
  1
VAACIMAGEINVENTORY
  2
VaAcImageInventory
  3
VAAC_ADDIN
 90
    32768
280
     0
281
     0
  0
CLASS
  1
AMDTNOTETEMPLATEDB
  2
AmdtNoteTemplateDB
  3
AMDT_STDIMP_MODULE_NAME
 90
        0
280
     0
281
     0
  0
CLASS
  1
ACMBOM
  2
AcmBom
  3
"AcmSymBB|Product Description: AutoCAD Mechanical 2004 DX|Company: Autodesk"
 90
    32768
280
     0
281
     0
  0
CLASS
  1
AMDTFORMULAUPDATEDISPATCHER
  2
AmdtFormulaUpdateDispatcher
  3
AcMeServices
 90
        0
280
     0
281
     0
  0
CLASS
  1
ACMPARTLIST
  2
AcmPartList
  3
"AcmSymBB|Product Description: AutoCAD Mechanical 2004 DX|Company: Autodesk"
 90
    33791
280
     0
281
     1
  0
CLASS
  1
ACAMGFILTERDAT
  2
AcAmgFilterDat
  3
"AcadM|Product Description: AutoCAD Mechanical 2000|Company: Autodesk"
 90
        0
280
     0
281
     0
  0
CLASS
  1
DIMASSOC
  2
AcDbDimAssoc
  3
"AcDbDimAssoc|Product Desc:     AcDim ARX App For Dimension|Company:          Autodesk, Inc.|WEB Address:      www.autodesk.com"
 90
        0
280
     0
281
     0
  0
CLASS
  1
SORTENTSTABLE
  2
AcDbSortentsTable
  3
ObjectDBX Classes
 90
        0
280
     0
281
     0
  0
CLASS
  1
AMDTNOTE
  2
AmdtNote
  3
"AcmSymBB|Product Description: AutoCAD Mechanical 2004 DX|Company: Autodesk"
 90
     1023
280
     0
281
     1
  0
CLASS
  1
ACRFATTGENMGR
  2
AcRfAttGeneralMgr
  3
AcAttribServices
 90
        0
280
     0
281
     0
  0
ENDSEC
  0
SECTION
  2
TABLES
  0
TABLE
  2
VPORT
  5
8
330
0
100
AcDbSymbolTable
 70
     4
  0
VPORT
  5
FD2
330
8
100
AcDbSymbolTableRecord
100
AcDbViewportTableRecord
  2
*Active
 70
     0
 10
0.0
 20
0.0
 11
1.0
 21
1.0
 12
325.3731749944762
 22
240.2454054498369
 13
0.0
 23
0.0
 14
2.5
 24
2.5
 15
10.0
 25
10.0
 16
0.0
 26
0.0
 36
1.0
 17
0.0
 27
0.0
 37
0.0
 40
241.9198517612973
 41
1.609210526315789
 42
50.0
 43
0.0
 44
0.0
 50
0.0
 51
0.0
 71
     0
 72
   100
 73
     1
 74
     3
 75
     0
 76
     0
 77
     0
 78
     0
281
     0
 65
     1
110
0.0
120
0.0
130
0.0
111
1.0
121
0.0
131
0.0
112
0.0
122
1.0
132
0.0
 79
     0
146
0.0
  0
ENDTAB
  0
TABLE
  2
LTYPE
  5
5
330
0
100
AcDbSymbolTable
 70
    14
  0
LTYPE
  5
14
330
5
100
AcDbSymbolTableRecord
100
AcDbLinetypeTableRecord
  2
ByBlock
 70
     0
  3

 72
    65
 73
     0
 40
0.0
  0
LTYPE
  5
15
330
5
100
AcDbSymbolTableRecord
100
AcDbLinetypeTableRecord
  2
ByLayer
 70
     0
  3

 72
    65
 73
     0
 40
0.0
  0
LTYPE
  5
16
330
5
100
AcDbSymbolTableRecord
100
AcDbLinetypeTableRecord
  2
Continuous
 70
     0
  3
Solid line
 72
    65
 73
     0
 40
0.0
  0
LTYPE
  5
64
330
5
100
AcDbSymbolTableRecord
100
AcDbLinetypeTableRecord
  2
AM_ISO02W050
 70
     0
  3
__ __ __ __ __ __ __ __ __ __ __ __ __ __ __
 72
    65
 73
     2
 40
7.5
 49
6.0
 74
     0
 49
-1.5
 74
     0
  0
LTYPE
  5
65
330
5
100
AcDbSymbolTableRecord
100
AcDbLinetypeTableRecord
  2
AM_ISO08W050
 70
     0
  3
____ . ____ . ____ . ____ . ____ . ____ . ____
 72
    65
 73
     4
 40
18.0
 49
12.0
 74
     0
 49
-1.5
 74
     0
 49
3.0
 74
     0
 49
-1.5
 74
     0
  0
LTYPE
  5
66
330
5
100
AcDbSymbolTableRecord
100
AcDbLinetypeTableRecord
  2
AM_ISO09W050
 70
     0
  3
_____ . . _____ . . _____ . . ____ .. ____
 72
    65
 73
     6
 40
22.5
 49
12.0
 74
     0
 49
-1.5
 74
     0
 49
3.0
 74
     0
 49
-1.5
 74
     0
 49
3.0
 74
     0
 49
-1.5
 74
     0
  0
LTYPE
  5
67
330
5
100
AcDbSymbolTableRecord
100
AcDbLinetypeTableRecord
  2
Amconstr
 70
     0
  3
_______________________
 72
    65
 73
     2
 40
9999.0
 49
9999.0
 74
     0
 49
0.0
 74
     0
  0
LTYPE
  5
68
330
5
100
AcDbSymbolTableRecord
100
AcDbLinetypeTableRecord
  2
AM_ISO08W050x2
 70
     0
  3
__ . __ . __ . __ . __ . __
 72
    65
 73
     4
 40
9.0
 49
6.0
 74
     0
 49
-0.75
 74
     0
 49
1.5
 74
     0
 49
-0.75
 74
     0
  0
LTYPE
  5
69
330
5
100
AcDbSymbolTableRecord
100
AcDbLinetypeTableRecord
  2
AM_ISO02W050x2
 70
     0
  3
 _ _ _ _ _ _ _ _ _ _ _ _
 72
    65
 73
     2
 40
3.75
 49
3.0
 74
     0
 49
-0.75
 74
     0
  0
LTYPE
  5
6C
330
5
100
AcDbSymbolTableRecord
100
AcDbLinetypeTableRecord
  2
Amzigzag
 70
     0
  3
/\/-/\/-/\/-/\/-/\/-/\/
 72
    65
 73
     2
 40
11.0001
 49
0.0001
 74
     4
 75
   135
340
6B
 46
0.04
 50
0.0
 44
0.0
 45
0.0
 49
-11.0
 74
     0
  0
LTYPE
  5
7A
330
5
100
AcDbSymbolTableRecord
100
AcDbLinetypeTableRecord
  2
ACISOWELD
 70
     0
  3
_ _ _ _ _
 72
    65
 73
     2
 40
2.0
 49
2.0
 74
     0
 49
-1.0
 74
     0
  0
LTYPE
  5
7B
330
5
100
AcDbSymbolTableRecord
100
AcDbLinetypeTableRecord
  2
ACISOTGB
 70
     0
  3
__ . . __ . .
 72
    65
 73
     6
 40
9.0
 49
4.0
 74
     0
 49
-1.0
 74
     0
 49
1.0
 74
     0
 49
-1.0
 74
     0
 49
1.0
 74
     0
 49
-1.0
 74
     0
  0
LTYPE
  5
7C
330
5
100
AcDbSymbolTableRecord
100
AcDbLinetypeTableRecord
  2
ACISOTGL
 70
     0
  3
_ _ _ _ _
 72
    65
 73
     2
 40
3.0
 49
2.0
 74
     0
 49
-1.0
 74
     0
  0
LTYPE
  5
7E
330
5
100
AcDbSymbolTableRecord
100
AcDbLinetypeTableRecord
  2
CENTER
 70
     0
  3
__ . __
 72
    65
 73
     4
 40
7.0
 49
4.0
 74
     0
 49
-1.0
 74
     0
 49
1.0
 74
     0
 49
-1.0
 74
     0
  0
LTYPE
  5
D8
330
5
100
AcDbSymbolTableRecord
100
AcDbLinetypeTableRecord
  2
HIDDEN
 70
     0
  3
Hidden __ __ __ __ __ __ __ __ __ __ __ __ __ _
 72
    65
 73
     2
 40
9.524999999999998
 49
6.349999999999999
 74
     0
 49
-3.174999999999999
 74
     0
  0
LTYPE
  5
D9
330
5
100
AcDbSymbolTableRecord
100
AcDbLinetypeTableRecord
  2
PHANTOM2
 70
     0
  3
Phantom (.5x) ___ _ _ ___ _ _ ___ _ _ ___ _ _
 72
    65
 73
     6
 40
31.75
 49
15.875
 74
     0
 49
-3.174999999999999
 74
     0
 49
3.174999999999999
 74
     0
 49
-3.174999999999999
 74
     0
 49
3.174999999999999
 74
     0
 49
-3.174999999999999
 74
     0
  0
ENDTAB
  0
TABLE
  2
LAYER
  5
2
102
{ACAD_XDICTIONARY
360
3F9
102
}
330
0
100
AcDbSymbolTable
 70
     9
  0
LAYER
  5
10
330
2
100
AcDbSymbolTableRecord
100
AcDbLayerTableRecord
  2
0
 70
     0
 62
     7
  6
Continuous
370
    -3
390
F
  0
LAYER
  5
AB7
330
2
100
AcDbSymbolTableRecord
100
AcDbLayerTableRecord
  2
AM_5
 70
     0
 62
     5
  6
Continuous
370
    50
390
F
  0
LAYER
  5
AB8
330
2
100
AcDbSymbolTableRecord
100
AcDbLayerTableRecord
  2
Defpoints
 70
     0
 62
     7
  6
Continuous
290
     0
370
    -3
390
F
  0
LAYER
  5
AB9
330
2
100
AcDbSymbolTableRecord
100
AcDbLayerTableRecord
  2
LOGO
 70
     0
 62
     7
  6
Continuous
370
    -3
390
F
  0
LAYER
  5
ABA
330
2
100
AcDbSymbolTableRecord
100
AcDbLayerTableRecord
  2
AM_VIS
 70
     0
 62
     7
  6
Continuous
370
    50
390
F
  0
LAYER
  5
ABB
330
2
100
AcDbSymbolTableRecord
100
AcDbLayerTableRecord
  2
AM_7
 70
     0
 62
     1
  6
CENTER
370
    25
390
F
  0
LAYER
  5
ABC
330
2
100
AcDbSymbolTableRecord
100
AcDbLayerTableRecord
  2
AM_4
 70
     0
 62
     3
  6
Continuous
370
    25
390
F
  0
LAYER
  5
ABD
330
2
100
AcDbSymbolTableRecord
100
AcDbLayerTableRecord
  2
AM_0
 70
     0
 62
     7
  6
Continuous
370
    50
390
F
  0
LAYER
  5
EF2
330
2
100
AcDbSymbolTableRecord
100
AcDbLayerTableRecord
  2
SL
 70
     0
 62
     4
  6
Continuous
370
    -3
390
F
1001
AcAecLayerStandard
1000

1000

  0
ENDTAB
  0
TABLE
  2
STYLE
  5
3
330
0
100
AcDbSymbolTable
 70
     7
  0
STYLE
  5
11
330
3
100
AcDbSymbolTableRecord
100
AcDbTextStyleTableRecord
  2
STANDARD
 70
     0
 40
0.0
 41
1.0
 50
0.0
 71
     0
 42
3.0
  3
ISOCP.SHX
  4
CHINESET.SHX
  0
STYLE
  5
6B
330
3
100
AcDbSymbolTableRecord
100
AcDbTextStyleTableRecord
  2

 70
     1
 40
0.0
 41
1.0
 50
0.0
 71
     0
 42
2.5
  3
ltypeshp.shx
  4

  0
STYLE
  5
6D
330
3
100
AcDbSymbolTableRecord
100
AcDbTextStyleTableRecord
  2
ACISOTS
 70
     0
 40
1.0
 41
1.0
 50
0.0
 71
     0
 42
1.0
  3
isocp.shx
  4
chineset.shx
  0
STYLE
  5
79
330
3
100
AcDbSymbolTableRecord
100
AcDbTextStyleTableRecord
  2
ACISOGDT
 70
     0
 40
0.0
 41
1.0
 50
0.0
 71
     0
 42
2.5
  3
amgdt.shx
  4
chineset.shx
  0
STYLE
  5
ABE
330
3
100
AcDbSymbolTableRecord
100
AcDbTextStyleTableRecord
  2
CHINESET
 70
     0
 40
0.0
 41
0.75
 50
0.0
 71
     0
 42
3.0
  3
simplex.shx
  4
CHINESET.SHX
  0
STYLE
  5
ABF
330
3
100
AcDbSymbolTableRecord
100
AcDbTextStyleTableRecord
  2
標楷體
 70
     0
 40
0.0
 41
1.0
 50
0.0
 71
     0
 42
2.5
  3
KAIU.TTF
  4

1001
ACAD
1000
DFKai-SB
1071
    34865
  0
ENDTAB
  0
TABLE
  2
VIEW
  5
6
330
0
100
AcDbSymbolTable
 70
     0
  0
ENDTAB
  0
TABLE
  2
UCS
  5
7
330
0
100
AcDbSymbolTable
 70
     0
  0
ENDTAB
  0
TABLE
  2
APPID
  5
9
330
0
100
AcDbSymbolTable
 70
    21
  0
APPID
  5
12
330
9
100
AcDbSymbolTableRecord
100
AcDbRegAppTableRecord
  2
ACAD
 70
     0
  0
APPID
  5
46
330
9
100
AcDbSymbolTableRecord
100
AcDbRegAppTableRecord
  2
MCAD_NO_VIS
 70
     0
  0
APPID
  5
47
330
9
100
AcDbSymbolTableRecord
100
AcDbRegAppTableRecord
  2
ACAD_TEMP_GRAPHIC
 70
     0
  0
APPID
  5
58
330
9
100
AcDbSymbolTableRecord
100
AcDbRegAppTableRecord
  2
ACATTRIBSERVICES
 70
     0
  0
APPID
  5
EE
330
9
100
AcDbSymbolTableRecord
100
AcDbRegAppTableRecord
  2
AD_DRAW
 70
     0
  0
APPID
  5
10C
330
9
100
AcDbSymbolTableRecord
100
AcDbRegAppTableRecord
  2
DESIGNERASSEMBLIES
 70
     0
  0
APPID
  5
111
330
9
100
AcDbSymbolTableRecord
100
AcDbRegAppTableRecord
  2
ACADM_DIM_EDIT
 70
     0
  0
APPID
  5
112
330
9
100
AcDbSymbolTableRecord
100
AcDbRegAppTableRecord
  2
AMDT_DM_ADJ
 70
     0
  0
APPID
  5
22C
330
9
100
AcDbSymbolTableRecord
100
AcDbRegAppTableRecord
  2
ACAD_DSTYLE_DIMTEXT_FILL
 70
     0
  0
APPID
  5
452
330
9
100
AcDbSymbolTableRecord
100
AcDbRegAppTableRecord
  2
GENIUS_GENOENT_13
 70
     0
  0
APPID
  5
453
330
9
100
AcDbSymbolTableRecord
100
AcDbRegAppTableRecord
  2
GENIUS_GENOBJ-N-CRS_13
 70
     0
  0
APPID
  5
454
330
9
100
AcDbSymbolTableRecord
100
AcDbRegAppTableRecord
  2
GENIUS_GENOLIS_13
 70
     0
  0
APPID
  5
455
330
9
100
AcDbSymbolTableRecord
100
AcDbRegAppTableRecord
  2
GENIUS_GENODEF_13
 70
     0
  0
APPID
  5
456
330
9
100
AcDbSymbolTableRecord
100
AcDbRegAppTableRecord
  2
GENIUS_GENOREF_13
 70
     0
  0
APPID
  5
6F3
330
9
100
AcDbSymbolTableRecord
100
AcDbRegAppTableRecord
  2
ACAD_PSEXT
 70
     0
  0
APPID
  5
808
330
9
100
AcDbSymbolTableRecord
100
AcDbRegAppTableRecord
  2
GENIUS_GENDTOL_13
 70
     0
  0
APPID
  5
AC0
330
9
100
AcDbSymbolTableRecord
100
AcDbRegAppTableRecord
  2
GENIUS_GENREC_14
 70
     0
  0
APPID
  5
AC1
330
9
100
AcDbSymbolTableRecord
100
AcDbRegAppTableRecord
  2
GENIUS_GENOBJ-N-REC_13
 70
     0
  0
APPID
  5
AC2
330
9
100
AcDbSymbolTableRecord
100
AcDbRegAppTableRecord
  2
GENIUS_GENOBJ-N-CEN_13
 70
     0
  0
APPID
  5
AC3
330
9
100
AcDbSymbolTableRecord
100
AcDbRegAppTableRecord
  2
GENIUS_GENCEN_19
 70
     0
  0
APPID
  5
EF3
330
9
100
AcDbSymbolTableRecord
100
AcDbRegAppTableRecord
  2
AcAecLayerStandard
 70
     0
  0
ENDTAB
  0
TABLE
  2
DIMSTYLE
  5
A
330
0
100
AcDbSymbolTable
 70
     9
100
AcDbDimStyleTable
 71
     3
340
81
340
8B
340
86
  0
DIMSTYLE
105
81
330
A
100
AcDbSymbolTableRecord
100
AcDbDimStyleTableRecord
  2
AM_ISO
 70
     0
  4
"
 41
3.0
 42
1.0
 43
8.0
 44
1.5
 47
0.1
 48
0.1
 73
     0
 74
     0
 77
     1
 78
     8
 79
     2
140
3.5
141
0.0
143
0.0393701
146
0.6
147
0.7
172
     1
176
   256
177
   256
178
   256
271
     2
272
     2
283
     0
284
     8
340
11
371
    -1
372
    -1
  0
DIMSTYLE
105
82
330
A
100
AcDbSymbolTableRecord
100
AcDbDimStyleTableRecord
  2
AM_ISO$3
 70
     0
  4
"
 41
3.0
 42
1.0
 43
8.0
 44
1.5
 47
0.1
 48
0.1
 73
     0
 77
     1
 78
     8
 79
     2
140
3.5
141
0.0
143
0.0393701
146
0.6
147
0.7
176
   256
177
   256
178
   256
271
     2
272
     2
283
     0
284
     8
288
     1
289
     0
340
11
371
    -1
372
    -1
  0
DIMSTYLE
105
83
330
A
100
AcDbSymbolTableRecord
100
AcDbDimStyleTableRecord
  2
AM_ISO$4
 70
     0
  4
"
 41
3.0
 42
1.0
 43
8.0
 44
1.5
 47
0.1
 48
0.1
 73
     0
 77
     1
 78
     8
 79
     2
140
3.5
141
0.0
143
0.0393701
146
0.6
147
0.7
176
   256
177
   256
178
   256
271
     2
272
     2
283
     0
284
     8
288
     1
289
     0
340
11
371
    -1
372
    -1
  0
DIMSTYLE
105
84
330
A
100
AcDbSymbolTableRecord
100
AcDbDimStyleTableRecord
  2
AM_ISO$6
 70
     0
  4
"
 41
3.0
 42
1.0
 43
8.0
 44
1.5
 47
0.1
 48
0.1
 73
     0
 74
     0
 78
     8
 79
     2
140
3.5
141
0.0
143
0.0393701
146
0.6
147
0.7
172
     1
176
   256
177
   256
178
   256
271
     2
272
     2
283
     0
284
     8
340
11
371
    -1
372
    -1
  0
DIMSTYLE
105
85
330
A
100
AcDbSymbolTableRecord
100
AcDbDimStyleTableRecord
  2
AM_ISO$7
 70
     0
  4
"
 41
3.0
 42
1.0
 43
8.0
 44
1.5
 47
0.1
 48
0.1
 73
     0
 74
     0
 77
     1
 78
     8
 79
     2
140
5.0
141
0.0
143
0.0393701
146
0.6
147
0.7
172
     1
176
   256
177
   256
178
   256
271
     2
272
     2
283
     0
284
     8
340
11
371
    -1
372
    -1
  0
DIMSTYLE
105
86
330
A
100
AcDbSymbolTableRecord
100
AcDbDimStyleTableRecord
  2
AM_ISO$SF
 70
     0
  4
"
 41
2.5
 42
1.0
 43
10.0
 44
1.0
 47
0.1
 48
0.1
 73
     0
 74
     0
 75
     1
 76
     1
 77
     1
 78
     8
 79
     2
140
3.5
141
0.0
143
0.0393701
146
0.71
147
1.5
172
     1
176
   256
177
   256
178
     2
271
     2
272
     3
274
     4
283
     0
284
     8
340
11
371
    -1
372
    -1
  0
DIMSTYLE
105
8B
330
A
100
AcDbSymbolTableRecord
100
AcDbDimStyleTableRecord
  2
AM_ISO$SH
 70
     0
  4
"
 41
2.5
 42
1.0
 43
10.0
 44
1.0
 47
0.1
 48
0.1
 73
     0
 74
     0
 75
     1
 76
     1
 77
     1
 78
     8
 79
     2
140
3.5
141
0.0
143
0.0393701
144
2.0
146
0.71
147
1.5
172
     1
173
     1
176
   256
177
   256
178
     2
271
     2
272
     3
274
     4
283
     0
284
     8
340
11
343
87
371
    -1
372
    -1
  0
DIMSTYLE
105
40B
102
{ACAD_REACTORS
330
DB4
330
DB7
330
DBF
330
DC2
330
DC7
102
}
330
A
100
AcDbSymbolTableRecord
100
AcDbDimStyleTableRecord
  2
AM_ISO$0
 70
     0
  4
"
 41
3.0
 42
1.0
 43
8.0
 44
1.5
 47
0.1
 48
0.1
 73
     0
 74
     0
 77
     1
 78
     8
 79
     2
140
3.5
141
0.0
143
0.0393701
146
0.6
147
0.7
172
     1
176
   256
177
   256
178
   256
271
     2
272
     2
283
     0
284
     8
340
11
371
    -1
372
    -1
  0
ENDTAB
  0
TABLE
  2
BLOCK_RECORD
  5
1
330
0
100
AcDbSymbolTable
 70
    16
  0
BLOCK_RECORD
  5
1F
102
{ACAD_XDICTIONARY
360
8F
102
}
330
1
100
AcDbSymbolTableRecord
100
AcDbBlockTableRecord
  2
*Model_Space
340
22
  0
BLOCK_RECORD
  5
1B
330
1
100
AcDbSymbolTableRecord
100
AcDbBlockTableRecord
  2
*Paper_Space
340
1E
  0
BLOCK_RECORD
  5
23
330
1
100
AcDbSymbolTableRecord
100
AcDbBlockTableRecord
  2
*Paper_Space0
340
26
  0
BLOCK_RECORD
  5
87
330
1
100
AcDbSymbolTableRecord
100
AcDbBlockTableRecord
  2
GENAXEH
340
0
  0
BLOCK_RECORD
  5
A5E
102
{ACAD_XDICTIONARY
360
A5F
102
}
330
1
100
AcDbSymbolTableRecord
100
AcDbBlockTableRecord
  2
A$C31CA2D34
340
0
102
{BLKREFS
331
DBA
102
}
  0
BLOCK_RECORD
  5
A99
102
{ACAD_XDICTIONARY
360
A9A
102
}
330
1
100
AcDbSymbolTableRecord
100
AcDbBlockTableRecord
  2
A$C47AB699F
340
0
  0
BLOCK_RECORD
  5
E58
330
1
100
AcDbSymbolTableRecord
100
AcDbBlockTableRecord
  2
*D5
340
0
  0
BLOCK_RECORD
  5
E64
330
1
100
AcDbSymbolTableRecord
100
AcDbBlockTableRecord
  2
*D6
340
0
  0
BLOCK_RECORD
  5
E70
330
1
100
AcDbSymbolTableRecord
100
AcDbBlockTableRecord
  2
*D7
340
0
  0
BLOCK_RECORD
  5
E7C
330
1
100
AcDbSymbolTableRecord
100
AcDbBlockTableRecord
  2
*D8
340
0
  0
BLOCK_RECORD
  5
E88
330
1
100
AcDbSymbolTableRecord
100
AcDbBlockTableRecord
  2
*D9
340
0
  0
BLOCK_RECORD
  5
EC9
102
{ACAD_XDICTIONARY
360
ECE
102
}
330
1
100
AcDbSymbolTableRecord
100
AcDbBlockTableRecord
  2
A$C758C629E
340
0
  0
BLOCK_RECORD
  5
EFF
102
{ACAD_XDICTIONARY
360
F04
102
}
330
1
100
AcDbSymbolTableRecord
100
AcDbBlockTableRecord
  2
A$C00151B21
340
0
102
{BLKREFS
331
F08
102
}
  0
BLOCK_RECORD
  5
FB8
330
1
100
AcDbSymbolTableRecord
100
AcDbBlockTableRecord
  2
*S13
340
0
  0
BLOCK_RECORD
  5
FC0
330
1
100
AcDbSymbolTableRecord
100
AcDbBlockTableRecord
  2
*S14
340
0
  0
BLOCK_RECORD
  5
FC8
330
1
100
AcDbSymbolTableRecord
100
AcDbBlockTableRecord
  2
*S15
340
0
  0
ENDTAB
  0
ENDSEC
  0
SECTION
  2
BLOCKS
  0
BLOCK
  5
20
330
1F
100
AcDbEntity
  8
0
100
AcDbBlockBegin
  2
*Model_Space
 70
     0
 10
0.0
 20
0.0
 30
0.0
  3
*Model_Space
  1

  0
ENDBLK
  5
21
330
1F
100
AcDbEntity
  8
0
100
AcDbBlockEnd
  0
BLOCK
  5
1C
330
1B
100
AcDbEntity
 67
     1
  8
0
100
AcDbBlockBegin
  2
*Paper_Space
 70
     0
 10
0.0
 20
0.0
 30
0.0
  3
*Paper_Space
  1

  0
ENDBLK
  5
1D
330
1B
100
AcDbEntity
 67
     1
  8
0
100
AcDbBlockEnd
  0
BLOCK
  5
24
330
23
100
AcDbEntity
  8
0
100
AcDbBlockBegin
  2
*Paper_Space0
 70
     0
 10
0.0
 20
0.0
 30
0.0
  3
*Paper_Space0
  1

  0
ENDBLK
  5
25
330
23
100
AcDbEntity
  8
0
100
AcDbBlockEnd
  0
BLOCK
  5
89
330
87
100
AcDbEntity
  8
0
100
AcDbBlockBegin
  2
GENAXEH
 70
     0
 10
0.0
 20
0.0
 30
0.0
  3
GENAXEH
  1

  0
LINE
  5
88
330
87
100
AcDbEntity
  8
0
100
AcDbLine
 10
-1.0
 20
0.0
 30
0.0
 11
1.0
 21
0.0
 31
0.0
  0
ENDBLK
  5
8A
330
87
100
AcDbEntity
  8
0
100
AcDbBlockEnd
  0
BLOCK
  5
A61
330
A5E
100
AcDbEntity
  8
0
100
AcDbBlockBegin
  2
A$C31CA2D34
 70
     0
 10
0.0
 20
0.0
 30
0.0
  3
A$C31CA2D34
  1

  0
LINE
  5
A62
330
A5E
100
AcDbEntity
  8
0
 62
     4
100
AcDbLine
 10
-22.60000000000002
 20
13.71533047124296
 30
0.0
 11
-22.60000000000002
 21
26.22192056525603
 31
0.0
  0
LINE
  5
A63
330
A5E
100
AcDbEntity
  8
0
 62
     4
100
AcDbLine
 10
-35.10000000000002
 20
13.71533047124296
 30
0.0
 11
-35.10000000000002
 21
26.22192056525603
 31
0.0
  0
LINE
  5
A64
330
A5E
100
AcDbEntity
  8
0
 62
     4
100
AcDbLine
 10
-47.60000000000002
 20
13.71533047124296
 30
0.0
 11
-47.60000000000002
 21
26.22192056525603
 31
0.0
  0
LINE
  5
A65
330
A5E
100
AcDbEntity
  8
0
 62
     4
100
AcDbLine
 10
-60.10000000000002
 20
13.71533047124296
 30
0.0
 11
-60.10000000000002
 21
26.22192056525603
 31
0.0
  0
LINE
  5
A66
330
A5E
100
AcDbEntity
  8
0
 62
     4
100
AcDbLine
 10
-72.60000000000002
 20
13.71533047124296
 30
0.0
 11
-72.60000000000002
 21
26.22192056525603
 31
0.0
  0
LINE
  5
A67
330
A5E
100
AcDbEntity
  8
0
 62
     4
100
AcDbLine
 10
-85.10000000000003
 20
13.71533047124296
 30
0.0
 11
-85.10000000000003
 21
26.22192056525603
 31
0.0
  0
LINE
  5
A68
330
A5E
100
AcDbEntity
  8
0
 62
     4
100
AcDbLine
 10
-110.1
 20
13.71533047124296
 30
0.0
 11
-110.1
 21
26.22192056525603
 31
0.0
  0
LINE
  5
A69
330
A5E
100
AcDbEntity
  8
0
 62
     4
100
AcDbLine
 10
-122.6
 20
13.71533047124296
 30
0.0
 11
-122.6
 21
26.22192056525603
 31
0.0
  0
LINE
  5
A6A
330
A5E
100
AcDbEntity
  8
0
 62
     4
100
AcDbLine
 10
-97.60000000000003
 20
13.71533047124296
 30
0.0
 11
-97.60000000000003
 21
26.22192056525603
 31
0.0
  0
TEXT
  5
A6B
330
A5E
100
AcDbEntity
  8
0
 62
     4
100
AcDbText
 10
-23.23032689786157
 20
29.39040349335494
 30
0.0
 40
3.0
  1
2
 41
0.75
  7
CHINESET
100
AcDbText
  0
TEXT
  5
A6C
330
A5E
100
AcDbEntity
  8
0
 62
     4
100
AcDbText
 10
-35.73032689786157
 20
29.39040349335494
 30
0.0
 40
3.0
  1
3
 41
0.75
  7
CHINESET
100
AcDbText
  0
TEXT
  5
A6D
330
A5E
100
AcDbEntity
  8
0
 62
     4
100
AcDbText
 10
-48.23032689786157
 20
29.39040349335494
 30
0.0
 40
3.0
  1
4
 41
0.75
  7
CHINESET
100
AcDbText
  0
TEXT
  5
A6E
330
A5E
100
AcDbEntity
  8
0
 62
     4
100
AcDbText
 10
-60.73032689786157
 20
29.39040349335494
 30
0.0
 40
3.0
  1
5
 41
0.75
  7
CHINESET
100
AcDbText
  0
TEXT
  5
A6F
330
A5E
100
AcDbEntity
  8
0
 62
     4
100
AcDbText
 10
-73.23032689786157
 20
29.39040349335494
 30
0.0
 40
3.0
  1
6
 41
0.75
  7
CHINESET
100
AcDbText
  0
TEXT
  5
A70
330
A5E
100
AcDbEntity
  8
0
 62
     4
100
AcDbText
 10
-85.73032689786158
 20
29.39040349335494
 30
0.0
 40
3.0
  1
7
 41
0.75
  7
CHINESET
100
AcDbText
  0
TEXT
  5
A71
330
A5E
100
AcDbEntity
  8
0
 62
     4
100
AcDbText
 10
-98.23032689786158
 20
29.39040349335494
 30
0.0
 40
3.0
  1
8
 41
0.75
  7
CHINESET
100
AcDbText
  0
TEXT
  5
A72
330
A5E
100
AcDbEntity
  8
0
 62
     4
100
AcDbText
 10
-110.7303268978615
 20
29.39040349335494
 30
0.0
 40
3.0
  1
9
 41
0.75
  7
CHINESET
100
AcDbText
  0
TEXT
  5
A73
330
A5E
100
AcDbEntity
  8
0
 62
     4
100
AcDbText
 10
-123.2303268978615
 20
29.39040349335494
 30
0.0
 40
3.0
  1
10
 41
0.75
  7
CHINESET
100
AcDbText
  0
ENDBLK
  5
A74
330
A5E
100
AcDbEntity
  8
0
100
AcDbBlockEnd
  0
BLOCK
  5
A9C
330
A99
100
AcDbEntity
  8
0
100
AcDbBlockBegin
  2
A$C47AB699F
 70
     0
 10
0.0
 20
0.0
 30
0.0
  3
A$C47AB699F
  1

  0
LINE
  5
A9D
330
A99
100
AcDbEntity
  8
AM_5
 62
     2
100
AcDbLine
 10
18.86770011340877
 20
0.6911758441171401
 30
0.0
 11
10.63713511475532
 21
0.6911758441171401
 31
0.0
  0
LINE
  5
A9E
330
A99
100
AcDbEntity
  8
AM_5
 62
     2
100
AcDbLine
 10
10.63713511475532
 20
0.6911758441171401
 30
0.0
 11
5.249999814277316
 21
0.6911758441171401
 31
0.0
  0
TRACE
  5
A9F
330
A99
100
AcDbEntity
  8
AM_5
 62
     2
370
    35
100
AcDbTrace
 10
5.249999814277316
 20
1.382351453367107
 30
0.0
 11
5.249999814277316
 21
0.0000002348671728
 31
0.0
 12
-0.0000001857226835
 22
0.6911758441171401
 32
0.0
 13
-0.0000001857226835
 23
0.6911758441171401
 33
0.0
  0
MTEXT
  5
AA0
330
A99
100
AcDbEntity
  8
AM_5
 62
     2
100
AcDbMText
 10
9.905672369318494
 20
2.131627715847912
 30
0.0
 40
3.674999999999999
 41
0.0
 71
     7
 72
     5
  1
SL
  7
ACISOTS
 73
     1
 44
1.0
1001
ACAD
1000
MTEXTBEGIN
1070
    73
1070
     1
1070
    44
1040
1.0
1070
    74
1070
     0
1000
MTEXTEND
  0
ENDBLK
  5
AA1
330
A99
100
AcDbEntity
  8
0
100
AcDbBlockEnd
  0
BLOCK
  5
E62
330
E58
100
AcDbEntity
  8
0
100
AcDbBlockBegin
  2
*D5
 70
     1
 10
0.0
 20
0.0
 30
0.0
  3
*D5
  1

  0
LINE
  5
E59
330
E58
100
AcDbEntity
  8
AM_5
100
AcDbLine
 10
342.2356847406945
 20
262.1450468680499
 30
0.0
 11
342.2356847406945
 21
241.6450468680499
 31
0.0
  0
LINE
  5
E5A
330
E58
100
AcDbEntity
  8
AM_5
100
AcDbLine
 10
294.7356847406946
 20
262.1450468680499
 30
0.0
 11
294.7356847406946
 21
241.6450468680499
 31
0.0
  0
LINE
  5
E5B
330
E58
100
AcDbEntity
  8
AM_5
100
AcDbLine
 10
339.2356847406944
 20
243.1450468680499
 30
0.0
 11
297.7356847406946
 21
243.1450468680499
 31
0.0
  0
SOLID
  5
E5C
330
E58
100
AcDbEntity
  8
AM_5
100
AcDbTrace
 10
339.2356847406944
 20
243.6450468680499
 30
0.0
 11
339.2356847406944
 21
242.6450468680499
 31
0.0
 12
342.2356847406945
 22
243.1450468680499
 32
0.0
 13
342.2356847406945
 23
243.1450468680499
 33
0.0
  0
SOLID
  5
E5D
330
E58
100
AcDbEntity
  8
AM_5
100
AcDbTrace
 10
297.7356847406946
 20
243.6450468680499
 30
0.0
 11
297.7356847406946
 21
242.6450468680499
 31
0.0
 12
294.7356847406946
 22
243.1450468680499
 32
0.0
 13
294.7356847406946
 23
243.1450468680499
 33
0.0
  0
MTEXT
  5
E5E
330
E58
100
AcDbEntity
  8
AM_5
100
AcDbMText
 10
318.4856847406945
 20
245.5950468680499
 30
0.0
 40
3.5
 41
0.0
 71
     5
 72
     1
  1
L
 73
     1
 44
1.0
1001
ACAD
1000
MTEXTBEGIN
1070
    73
1070
     1
1070
    44
1040
1.0
1070
    74
1070
     0
1000
MTEXTEND
  0
POINT
  5
E5F
330
E58
100
AcDbEntity
  8
Defpoints
 62
     0
100
AcDbPoint
 10
342.2356847406945
 20
263.1450468680499
 30
0.0
  0
POINT
  5
E60
330
E58
100
AcDbEntity
  8
Defpoints
 62
     0
100
AcDbPoint
 10
294.7356847406946
 20
263.1450468680499
 30
0.0
  0
POINT
  5
E61
330
E58
100
AcDbEntity
  8
Defpoints
 62
     0
100
AcDbPoint
 10
294.7356847406946
 20
243.1450468680499
 30
0.0
  0
ENDBLK
  5
E63
330
E58
100
AcDbEntity
  8
0
100
AcDbBlockEnd
  0
BLOCK
  5
E6E
330
E64
100
AcDbEntity
  8
0
100
AcDbBlockBegin
  2
*D6
 70
     1
 10
0.0
 20
0.0
 30
0.0
  3
*D6
  1

  0
LINE
  5
E65
330
E64
100
AcDbEntity
  8
AM_5
100
AcDbLine
 10
338.2356847406945
 20
283.1617135347165
 30
0.0
 11
338.2356847406945
 21
249.6450468680499
 31
0.0
  0
LINE
  5
E66
330
E64
100
AcDbEntity
  8
AM_5
100
AcDbLine
 10
298.7356847406945
 20
283.1617135347165
 30
0.0
 11
298.7356847406945
 21
249.6450468680499
 31
0.0
  0
LINE
  5
E67
330
E64
100
AcDbEntity
  8
AM_5
100
AcDbLine
 10
335.2356847406945
 20
251.1450468680499
 30
0.0
 11
301.7356847406944
 21
251.1450468680499
 31
0.0
  0
SOLID
  5
E68
330
E64
100
AcDbEntity
  8
AM_5
100
AcDbTrace
 10
335.2356847406945
 20
251.6450468680499
 30
0.0
 11
335.2356847406945
 21
250.6450468680499
 31
0.0
 12
338.2356847406945
 22
251.1450468680499
 32
0.0
 13
338.2356847406945
 23
251.1450468680499
 33
0.0
  0
SOLID
  5
E69
330
E64
100
AcDbEntity
  8
AM_5
100
AcDbTrace
 10
301.7356847406944
 20
251.6450468680499
 30
0.0
 11
301.7356847406944
 21
250.6450468680499
 31
0.0
 12
298.7356847406945
 22
251.1450468680499
 32
0.0
 13
298.7356847406945
 23
251.1450468680499
 33
0.0
  0
MTEXT
  5
E6A
330
E64
100
AcDbEntity
  8
AM_5
100
AcDbMText
 10
318.4856847406944
 20
253.5950468680499
 30
0.0
 40
3.5
 41
0.0
 71
     5
 72
     1
  1
P
 73
     1
 44
1.0
1001
ACAD
1000
MTEXTBEGIN
1070
    73
1070
     1
1070
    44
1040
1.0
1070
    74
1070
     0
1000
MTEXTEND
  0
POINT
  5
E6B
330
E64
100
AcDbEntity
  8
Defpoints
 62
     0
100
AcDbPoint
 10
338.2356847406945
 20
284.1617135347166
 30
0.0
  0
POINT
  5
E6C
330
E64
100
AcDbEntity
  8
Defpoints
 62
     0
100
AcDbPoint
 10
298.7356847406945
 20
284.1617135347166
 30
0.0
  0
POINT
  5
E6D
330
E64
100
AcDbEntity
  8
Defpoints
 62
     0
100
AcDbPoint
 10
298.7356847406945
 20
251.1450468680499
 30
0.0
  0
ENDBLK
  5
E6F
330
E64
100
AcDbEntity
  8
0
100
AcDbBlockEnd
  0
BLOCK
  5
E7A
330
E70
100
AcDbEntity
  8
0
100
AcDbBlockBegin
  2
*D7
 70
     1
 10
0.0
 20
0.0
 30
0.0
  3
*D7
  1

  0
LINE
  5
E71
330
E70
100
AcDbEntity
  8
AM_5
100
AcDbLine
 10
383.1850879793817
 20
270.1450468680499
 30
0.0
 11
383.1850879793817
 21
249.6450468680499
 31
0.0
  0
LINE
  5
E72
330
E70
100
AcDbEntity
  8
AM_5
100
AcDbLine
 10
415.1850879793816
 20
262.1450468680499
 30
0.0
 11
415.1850879793816
 21
249.6450468680499
 31
0.0
  0
LINE
  5
E73
330
E70
100
AcDbEntity
  8
AM_5
100
AcDbLine
 10
386.1850879793816
 20
251.1450468680499
 30
0.0
 11
412.1850879793816
 21
251.1450468680499
 31
0.0
  0
SOLID
  5
E74
330
E70
100
AcDbEntity
  8
AM_5
100
AcDbTrace
 10
386.1850879793816
 20
251.6450468680499
 30
0.0
 11
386.1850879793816
 21
250.6450468680499
 31
0.0
 12
383.1850879793817
 22
251.1450468680499
 32
0.0
 13
383.1850879793817
 23
251.1450468680499
 33
0.0
  0
SOLID
  5
E75
330
E70
100
AcDbEntity
  8
AM_5
100
AcDbTrace
 10
412.1850879793816
 20
251.6450468680499
 30
0.0
 11
412.1850879793816
 21
250.6450468680499
 31
0.0
 12
415.1850879793816
 22
251.1450468680499
 32
0.0
 13
415.1850879793816
 23
251.1450468680499
 33
0.0
  0
MTEXT
  5
E76
330
E70
100
AcDbEntity
  8
AM_5
100
AcDbMText
 10
399.1850879793816
 20
253.5953913562389
 30
0.0
 40
3.5
 41
0.0
 71
     5
 72
     1
  1
32
 73
     1
 44
1.0
1001
ACAD
1000
MTEXTBEGIN
1070
    73
1070
     1
1070
    44
1040
1.0
1070
    74
1070
     0
1000
MTEXTEND
  0
POINT
  5
E77
330
E70
100
AcDbEntity
  8
Defpoints
 62
     0
100
AcDbPoint
 10
383.1850879793817
 20
271.1450468680499
 30
0.0
  0
POINT
  5
E78
330
E70
100
AcDbEntity
  8
Defpoints
 62
     0
100
AcDbPoint
 10
415.1850879793816
 20
263.1450468680499
 30
0.0
  0
POINT
  5
E79
330
E70
100
AcDbEntity
  8
Defpoints
 62
     0
100
AcDbPoint
 10
415.1850879793816
 20
251.1450468680499
 30
0.0
  0
ENDBLK
  5
E7B
330
E70
100
AcDbEntity
  8
0
100
AcDbBlockEnd
  0
BLOCK
  5
E86
330
E7C
100
AcDbEntity
  8
0
100
AcDbBlockBegin
  2
*D8
 70
     1
 10
0.0
 20
0.0
 30
0.0
  3
*D8
  1

  0
LINE
  5
E7D
330
E7C
100
AcDbEntity
  8
AM_5
100
AcDbLine
 10
416.1850879793816
 20
318.9450468680499
 30
0.0
 11
428.6850879793816
 21
318.9450468680499
 31
0.0
  0
LINE
  5
E7E
330
E7C
100
AcDbEntity
  8
AM_5
100
AcDbLine
 10
416.1850879793816
 20
263.1450468680499
 30
0.0
 11
428.6850879793816
 21
263.1450468680499
 31
0.0
  0
LINE
  5
E7F
330
E7C
100
AcDbEntity
  8
AM_5
100
AcDbLine
 10
427.1850879793816
 20
315.9450468680499
 30
0.0
 11
427.1850879793816
 21
266.1450468680499
 31
0.0
  0
SOLID
  5
E80
330
E7C
100
AcDbEntity
  8
AM_5
100
AcDbTrace
 10
426.6850879793816
 20
315.9450468680499
 30
0.0
 11
427.6850879793816
 21
315.9450468680499
 31
0.0
 12
427.1850879793816
 22
318.9450468680499
 32
0.0
 13
427.1850879793816
 23
318.9450468680499
 33
0.0
  0
SOLID
  5
E81
330
E7C
100
AcDbEntity
  8
AM_5
100
AcDbTrace
 10
426.6850879793816
 20
266.1450468680499
 30
0.0
 11
427.6850879793816
 21
266.1450468680499
 31
0.0
 12
427.1850879793816
 22
263.1450468680499
 32
0.0
 13
427.1850879793816
 23
263.1450468680499
 33
0.0
  0
MTEXT
  5
E82
330
E7C
100
AcDbEntity
  8
AM_5
100
AcDbMText
 10
424.7350879793816
 20
291.04504686805
 30
0.0
 40
3.5
 41
0.0
 71
     5
 72
     1
  1
55.8
 11
0.0000000000000001
 21
1.0
 31
0.0
 73
     1
 44
1.0
1001
ACAD
1000
MTEXTBEGIN
1070
    73
1070
     1
1070
    44
1040
1.0
1070
    74
1070
     0
1000
MTEXTEND
  0
POINT
  5
E83
330
E7C
100
AcDbEntity
  8
Defpoints
 62
     0
100
AcDbPoint
 10
415.1850879793816
 20
318.9450468680499
 30
0.0
  0
POINT
  5
E84
330
E7C
100
AcDbEntity
  8
Defpoints
 62
     0
100
AcDbPoint
 10
415.1850879793816
 20
263.1450468680499
 30
0.0
  0
POINT
  5
E85
330
E7C
100
AcDbEntity
  8
Defpoints
 62
     0
100
AcDbPoint
 10
427.1850879793816
 20
263.1450468680499
 30
0.0
  0
ENDBLK
  5
E87
330
E7C
100
AcDbEntity
  8
0
100
AcDbBlockEnd
  0
BLOCK
  5
E92
330
E88
100
AcDbEntity
  8
0
100
AcDbBlockBegin
  2
*D9
 70
     1
 10
0.0
 20
0.0
 30
0.0
  3
*D9
  1

  0
LINE
  5
E89
330
E88
100
AcDbEntity
  8
AM_5
100
AcDbLine
 10
342.8190180740279
 20
287.7450468680499
 30
0.0
 11
355.7356857406944
 21
287.7450468680499
 31
0.0
  0
LINE
  5
E8A
330
E88
100
AcDbEntity
  8
AM_5
100
AcDbLine
 10
342.8190180740279
 20
303.7450468680499
 30
0.0
 11
355.7356857406944
 21
303.7450468680499
 31
0.0
  0
LINE
  5
E8B
330
E88
100
AcDbEntity
  8
AM_5
100
AcDbLine
 10
354.2356857406945
 20
290.7450468680499
 30
0.0
 11
354.2356857406945
 21
300.7450468680499
 31
0.0
  0
SOLID
  5
E8C
330
E88
100
AcDbEntity
  8
AM_5
100
AcDbTrace
 10
353.7356857406944
 20
290.7450468680499
 30
0.0
 11
354.7356857406945
 21
290.7450468680499
 31
0.0
 12
354.2356857406945
 22
287.7450468680499
 32
0.0
 13
354.2356857406945
 23
287.7450468680499
 33
0.0
  0
SOLID
  5
E8D
330
E88
100
AcDbEntity
  8
AM_5
100
AcDbTrace
 10
353.7356857406944
 20
300.7450468680499
 30
0.0
 11
354.7356857406945
 21
300.7450468680499
 31
0.0
 12
354.2356857406945
 22
303.7450468680499
 32
0.0
 13
354.2356857406945
 23
303.7450468680499
 33
0.0
  0
MTEXT
  5
E8E
330
E88
100
AcDbEntity
  8
AM_5
100
AcDbMText
 10
351.7856857406944
 20
295.74504686805
 30
0.0
 40
3.5
 41
0.0
 71
     5
 72
     1
  1
16
 11
0.0000000000000001
 21
1.0
 31
0.0
 73
     1
 44
1.0
1001
ACAD
1000
MTEXTBEGIN
1070
    73
1070
     1
1070
    44
1040
1.0
1070
    74
1070
     0
1000
MTEXTEND
  0
POINT
  5
E8F
330
E88
100
AcDbEntity
  8
Defpoints
 62
     0
100
AcDbPoint
 10
341.8190180740278
 20
287.7450468680499
 30
0.0
  0
POINT
  5
E90
330
E88
100
AcDbEntity
  8
Defpoints
 62
     0
100
AcDbPoint
 10
341.8190180740278
 20
303.7450468680499
 30
0.0
  0
POINT
  5
E91
330
E88
100
AcDbEntity
  8
Defpoints
 62
     0
100
AcDbPoint
 10
354.2356857406945
 20
303.7450468680499
 30
0.0
  0
ENDBLK
  5
E93
330
E88
100
AcDbEntity
  8
0
100
AcDbBlockEnd
  0
BLOCK
  5
ED0
330
EC9
100
AcDbEntity
  8
0
100
AcDbBlockBegin
  2
A$C758C629E
 70
     0
 10
0.0
 20
0.0
 30
0.0
  3
A$C758C629E
  1

  0
LINE
  5
ECA
330
EC9
100
AcDbEntity
  8
AM_5
 62
     4
100
AcDbLine
 10
0.0
 20
0.0
 30
0.0
 11
-8.230564998653449
 21
0.0
 31
0.0
  0
LINE
  5
ECB
330
EC9
100
AcDbEntity
  8
AM_5
 62
     4
100
AcDbLine
 10
-8.230564998653449
 20
0.0
 30
0.0
 11
-13.61770029913145
 21
0.0
 31
0.0
  0
TRACE
  5
ECC
330
EC9
100
AcDbEntity
  8
AM_5
 62
     4
370
    35
100
AcDbTrace
 10
-13.61770029913145
 20
0.6911756092499673
 30
0.0
 11
-13.61770029913145
 21
-0.6911756092499673
 31
0.0
 12
-18.86770029913146
 22
0.0
 32
0.0
 13
-18.86770029913146
 23
0.0
 33
0.0
  0
MTEXT
  5
ECD
330
EC9
100
AcDbEntity
  8
AM_5
 62
     4
100
AcDbMText
 10
-8.962027744090278
 20
1.440451871730772
 30
0.0
 40
3.674999999999999
 41
0.0
 71
     7
 72
     5
  1
SL
  7
ACISOTS
 73
     1
 44
1.0
1001
ACAD
1000
MTEXTBEGIN
1070
    73
1070
     1
1070
    44
1040
1.0
1070
    74
1070
     0
1000
MTEXTEND
  0
ENDBLK
  5
ED1
330
EC9
100
AcDbEntity
  8
0
100
AcDbBlockEnd
  0
BLOCK
  5
F06
330
EFF
100
AcDbEntity
  8
0
100
AcDbBlockBegin
  2
A$C00151B21
 70
     0
 10
0.0
 20
0.0
 30
0.0
  3
A$C00151B21
  1

  0
LINE
  5
F00
330
EFF
100
AcDbEntity
  8
SL
100
AcDbLine
 10
0.0
 20
0.0
 30
0.0
 11
-8.230564998653449
 21
0.0
 31
0.0
  0
LINE
  5
F01
330
EFF
100
AcDbEntity
  8
SL
100
AcDbLine
 10
-8.230564998653449
 20
0.0
 30
0.0
 11
-13.61770029913145
 21
0.0
 31
0.0
  0
TRACE
  5
F02
330
EFF
100
AcDbEntity
  8
SL
370
    35
100
AcDbTrace
 10
-13.61770029913145
 20
0.6911756092499673
 30
0.0
 11
-13.61770029913145
 21
-0.6911756092499673
 31
0.0
 12
-18.86770029913146
 22
0.0
 32
0.0
 13
-18.86770029913146
 23
0.0
 33
0.0
  0
MTEXT
  5
F03
330
EFF
100
AcDbEntity
  8
SL
100
AcDbMText
 10
-8.962027744090278
 20
1.440451871730772
 30
0.0
 40
3.674999999999999
 41
0.0
 71
     7
 72
     5
  1
SL
  7
ACISOTS
 73
     1
 44
1.0
1001
ACAD
1000
MTEXTBEGIN
1070
    73
1070
     1
1070
    44
1040
1.0
1070
    74
1070
     0
1000
MTEXTEND
  0
ENDBLK
  5
F07
330
EFF
100
AcDbEntity
  8
0
100
AcDbBlockEnd
  0
BLOCK
  5
FBD
330
FB8
100
AcDbEntity
  8
0
100
AcDbBlockBegin
  2
*S13
 70
     1
 10
0.0
 20
0.0
 30
0.0
  3
*S13
  1

  0
LINE
  5
FB9
330
FB8
100
AcDbEntity
  8
AM_5
 62
     5
100
AcDbLine
 10
371.9898345563669
 20
327.3347607854057
 30
0.0
 11
352.8034601361674
 21
327.3347607854057
 31
0.0
  0
LINE
  5
FBA
330
FB8
100
AcDbEntity
  8
AM_5
 62
     5
100
AcDbLine
 10
352.8034601361674
 20
327.3347607854057
 30
0.0
 11
341.6239041234883
 21
308.3298304272954
 31
0.0
  0
TRACE
  5
FBB
330
FB8
100
AcDbEntity
  8
AM_5
 62
     5
370
    35
100
AcDbTrace
 10
341.22674054415
 20
308.563459932784
 30
0.0
 11
342.0210677028266
 21
308.0962009218069
 31
0.0
 12
339.8493118384024
 22
305.313073522652
 32
0.0
 13
339.8493118384024
 23
305.313073522652
 33
0.0
  0
MTEXT
  5
FBC
330
FB8
100
AcDbEntity
  8
AM_5
 62
     5
100
AcDbMText
 10
371.9898345563669
 20
333.6631245430842
 30
0.0
 40
3.5
 41
0.0
 71
     7
 72
     5
  1

  7
ACISOTS
 73
     1
 44
1.0
1001
ACAD
1000
MTEXTBEGIN
1070
    73
1070
     1
1070
    44
1040
1.0
1070
    74
1070
     0
1000
MTEXTEND
  0
ENDBLK
  5
FBE
330
FB8
100
AcDbEntity
  8
0
100
AcDbBlockEnd
  0
BLOCK
  5
FC5
330
FC0
100
AcDbEntity
  8
0
100
AcDbBlockBegin
  2
*S14
 70
     1
 10
0.0
 20
0.0
 30
0.0
  3
*S14
  1

  0
LINE
  5
FC1
330
FC0
100
AcDbEntity
  8
AM_5
 62
     5
100
AcDbLine
 10
428.1390022223665
 20
327.3347607854057
 30
0.0
 11
410.7221047081303
 21
327.3347607854057
 31
0.0
  0
LINE
  5
FC2
330
FC0
100
AcDbEntity
  8
AM_5
 62
     5
100
AcDbLine
 10
410.7221047081303
 20
327.3347607854057
 30
0.0
 11
405.3057244728291
 21
318.3007646634118
 31
0.0
  0
TRACE
  5
FC3
330
FC0
100
AcDbEntity
  8
AM_5
 62
     5
370
    35
100
AcDbTrace
 10
404.9105281626443
 20
318.5377067048565
 30
0.0
 11
405.7009207830138
 21
318.0638226219671
 31
0.0
 12
403.5059709790182
 22
315.2989506515991
 32
0.0
 13
403.5059709790182
 23
315.2989506515991
 33
0.0
  0
MTEXT
  5
FC4
330
FC0
100
AcDbEntity
  8
AM_5
 62
     5
100
AcDbMText
 10
428.1390022223665
 20
336.7670120616537
 30
0.0
 40
3.5
 41
0.0
 71
     7
 72
     5
  1

  7
ACISOTS
 73
     1
 44
1.0
1001
ACAD
1000
MTEXTBEGIN
1070
    73
1070
     1
1070
    44
1040
1.0
1070
    74
1070
     0
1000
MTEXTEND
  0
ENDBLK
  5
FC6
330
FC0
100
AcDbEntity
  8
0
100
AcDbBlockEnd
  0
BLOCK
  5
FCD
330
FC8
100
AcDbEntity
  8
0
100
AcDbBlockBegin
  2
*S15
 70
     1
 10
0.0
 20
0.0
 30
0.0
  3
*S15
  1

  0
LINE
  5
FC9
330
FC8
100
AcDbEntity
  8
AM_5
 62
     5
100
AcDbLine
 10
357.8435538810254
 20
173.7255887052078
 30
0.0
 11
334.5359308858643
 21
173.7255887052078
 31
0.0
  0
LINE
  5
FCA
330
FC8
100
AcDbEntity
  8
AM_5
 62
     5
100
AcDbLine
 10
334.5359308858643
 20
173.7255887052078
 30
0.0
 11
327.0823102574801
 21
185.416684042022
 31
0.0
  0
TRACE
  5
FCB
330
FC8
100
AcDbEntity
  8
AM_5
 62
     5
370
    35
100
AcDbTrace
 10
327.4708473934138
 20
185.664394656627
 30
0.0
 11
326.6937731215464
 21
185.1689734274169
 31
0.0
 12
325.200761329433
 22
188.3679166034045
 32
0.0
 13
325.200761329433
 23
188.3679166034045
 33
0.0
  0
MTEXT
  5
FCC
330
FC8
100
AcDbEntity
  8
AM_5
 62
     5
100
AcDbMText
 10
357.8435538810254
 20
183.3208523058535
 30
0.0
 40
3.5
 41
0.0
 71
     7
 72
     5
  1

  7
ACISOTS
 73
     1
 44
1.0
1001
ACAD
1000
MTEXTBEGIN
1070
    73
1070
     1
1070
    44
1040
1.0
1070
    74
1070
     0
1000
MTEXTEND
  0
ENDBLK
  5
FCE
330
FC8
100
AcDbEntity
  8
0
100
AcDbBlockEnd
  0
ENDSEC
  0
SECTION
  2
ENTITIES
  0
LINE
  5
C92
330
1F
100
AcDbEntity
  8
0
100
AcDbLine
 10
386.3182518911336
 20
222.167480353271
 30
0.0
 11
386.3182518911336
 21
181.8474803532712
 31
0.0
  0
LINE
  5
C93
330
1F
100
AcDbEntity
  8
0
100
AcDbLine
 10
424.2911086627619
 20
222.1674803532713
 30
0.0
 11
424.2911086627619
 21
214.1034803532712
 31
0.0
  0
LINE
  5
C94
330
1F
100
AcDbEntity
  8
0
100
AcDbLine
 10
439.4111086627618
 20
222.1674803532713
 30
0.0
 11
439.4111086627618
 21
214.1034803532715
 31
0.0
  0
LINE
  5
C95
330
1F
100
AcDbEntity
  8
0
100
AcDbLine
 10
409.1711086627613
 20
222.167480353271
 30
0.0
 11
409.1711086627638
 21
181.8474803532712
 31
0.0
  0
LINE
  5
C96
330
1F
100
AcDbEntity
  8
0
100
AcDbLine
 10
386.3182518911336
 20
214.1034803532712
 30
0.0
 11
439.4111086627618
 21
214.1034803532712
 31
0.0
  0
LINE
  5
C97
330
1F
100
AcDbEntity
  8
0
100
AcDbLine
 10
386.3182518911336
 20
218.1354803532713
 30
0.0
 11
439.4111086627618
 21
218.1354803532713
 31
0.0
  0
TEXT
  5
C98
330
1F
100
AcDbEntity
  8
0
100
AcDbText
 10
397.1375326406363
 20
214.7888619353328
 30
0.0
 40
2.531438691876864
  1
2
 41
0.8
  7
CHINESET
 72
     4
 11
397.8125829584702
 21
216.0545812812712
 31
0.0
100
AcDbText
  0
TEXT
  5
C99
330
1F
100
AcDbEntity
  8
0
100
AcDbText
 10
387.7917685789008
 20
219.370500111919
 30
0.0
 40
2.016
  1
No. of stations
 41
0.8
  7
CHINESET
100
AcDbText
  0
TEXT
  5
C9A
330
1F
100
AcDbEntity
  8
0
100
AcDbText
 10
412.9385995092689
 20
214.8097496985642
 30
0.0
 40
2.519999999999999
  1
39.5
 41
0.8
  7
CHINESET
100
AcDbText
  0
TEXT
  5
C9B
330
1F
100
AcDbEntity
  8
0
100
AcDbText
 10
415.3884973607713
 20
218.8600313185934
 30
0.0
 40
2.519999999999999
  1
P
 41
0.8
  7
CHINESET
100
AcDbText
  0
LINE
  5
C9C
330
1F
100
AcDbEntity
  8
0
100
AcDbLine
 10
386.3182518911336
 20
222.1674803532713
 30
0.0
 11
439.4111086627618
 21
222.1674803532713
 31
0.0
  0
LINE
  5
C9D
330
1F
100
AcDbEntity
  8
0
100
AcDbLine
 10
424.2911086627614
 20
222.167480353271
 30
0.0
 11
424.2911086627637
 21
181.8474803532712
 31
0.0
  0
LINE
  5
C9E
330
1F
100
AcDbEntity
  8
0
100
AcDbLine
 10
439.4111086627615
 20
222.167480353271
 30
0.0
 11
439.4111086627636
 21
181.8474803532712
 31
0.0
  0
LINE
  5
C9F
330
1F
100
AcDbEntity
  8
0
100
AcDbLine
 10
386.3182518911336
 20
210.0714803532713
 30
0.0
 11
439.4111086627618
 21
210.0714803532713
 31
0.0
  0
LINE
  5
CA0
330
1F
100
AcDbEntity
  8
0
100
AcDbLine
 10
386.3182518911336
 20
206.0394803532713
 30
0.0
 11
439.4111086627618
 21
206.0394803532713
 31
0.0
  0
LINE
  5
CA1
330
1F
100
AcDbEntity
  8
0
100
AcDbLine
 10
386.3182518911336
 20
202.0074803532712
 30
0.0
 11
439.4111086627618
 21
202.0074803532712
 31
0.0
  0
LINE
  5
CA2
330
1F
100
AcDbEntity
  8
0
100
AcDbLine
 10
386.3182518911336
 20
197.9754803532712
 30
0.0
 11
439.4111086627618
 21
197.9754803532712
 31
0.0
  0
LINE
  5
CA3
330
1F
100
AcDbEntity
  8
0
100
AcDbLine
 10
386.3182518911336
 20
193.9434803532712
 30
0.0
 11
439.4111086627618
 21
193.9434803532712
 31
0.0
  0
LINE
  5
CA4
330
1F
100
AcDbEntity
  8
0
100
AcDbLine
 10
386.3182518911336
 20
189.9114803532713
 30
0.0
 11
439.4111086627618
 21
189.9114803532713
 31
0.0
  0
LINE
  5
CA5
330
1F
100
AcDbEntity
  8
0
100
AcDbLine
 10
386.3182518911336
 20
185.8794803532713
 30
0.0
 11
439.4111086627618
 21
185.8794803532713
 31
0.0
  0
LINE
  5
CA6
330
1F
100
AcDbEntity
  8
0
100
AcDbLine
 10
386.3182518911336
 20
181.8474803532712
 30
0.0
 11
439.4111086627618
 21
181.8474803532712
 31
0.0
  0
TEXT
  5
CA7
330
1F
100
AcDbEntity
  8
0
100
AcDbText
 10
397.1375326406363
 20
210.7568619353328
 30
0.0
 40
2.531438691876864
  1
3
 41
0.8
  7
CHINESET
 72
     4
 11
397.8125829584702
 21
212.0225812812712
 31
0.0
100
AcDbText
  0
TEXT
  5
CA8
330
1F
100
AcDbEntity
  8
0
100
AcDbText
 10
397.0893147607915
 20
206.7248619353328
 30
0.0
 40
2.531438691876864
  1
4
 41
0.8
  7
CHINESET
 72
     4
 11
397.8125829584706
 21
207.9905812812712
 31
0.0
100
AcDbText
  0
TEXT
  5
CA9
330
1F
100
AcDbEntity
  8
0
100
AcDbText
 10
397.1375326406372
 20
202.6928619353328
 30
0.0
 40
2.531438691876864
  1
5
 41
0.8
  7
CHINESET
 72
     4
 11
397.812582958471
 21
203.9585812812712
 31
0.0
100
AcDbText
  0
TEXT
  5
CAA
330
1F
100
AcDbEntity
  8
0
100
AcDbText
 10
397.1857505204825
 20
198.6608619353328
 30
0.0
 40
2.531438691876864
  1
6
 41
0.8
  7
CHINESET
 72
     4
 11
397.812582958471
 21
199.9265812812712
 31
0.0
100
AcDbText
  0
TEXT
  5
CAB
330
1F
100
AcDbEntity
  8
0
100
AcDbText
 10
397.1375326406372
 20
194.6288619353328
 30
0.0
 40
2.531438691876864
  1
7
 41
0.8
  7
CHINESET
 72
     4
 11
397.812582958471
 21
195.8945812812712
 31
0.0
100
AcDbText
  0
TEXT
  5
CAC
330
1F
100
AcDbEntity
  8
0
100
AcDbText
 10
397.1375326406377
 20
190.5968619353328
 30
0.0
 40
2.531438691876864
  1
8
 41
0.8
  7
CHINESET
 72
     4
 11
397.8125829584715
 21
191.8625812812712
 31
0.0
100
AcDbText
  0
TEXT
  5
CAD
330
1F
100
AcDbEntity
  8
0
100
AcDbText
 10
397.1857505204834
 20
186.5648619353328
 30
0.0
 40
2.531438691876864
  1
9
 41
0.8
  7
CHINESET
 72
     4
 11
397.812582958472
 21
187.8305812812712
 31
0.0
100
AcDbText
  0
TEXT
  5
CAE
330
1F
100
AcDbEntity
  8
0
100
AcDbText
 10
396.3660465631138
 20
182.5328619353328
 30
0.0
 40
2.531438691876864
  1
10
 41
0.8
  7
CHINESET
 72
     4
 11
397.812582958472
 21
183.7985812812713
 31
0.0
100
AcDbText
  0
TEXT
  5
CAF
330
1F
100
AcDbEntity
  8
0
100
AcDbText
 10
428.0585995092691
 20
214.8097496985642
 30
0.0
 40
2.519999999999999
  1
47.5
 41
0.8
  7
CHINESET
100
AcDbText
  0
TEXT
  5
CB0
330
1F
100
AcDbEntity
  8
0
100
AcDbText
 10
412.9385995092689
 20
210.7777496985642
 30
0.0
 40
2.519999999999999
  1
52
 41
0.8
  7
CHINESET
100
AcDbText
  0
TEXT
  5
CB1
330
1F
100
AcDbEntity
  8
0
100
AcDbText
 10
428.0585995092691
 20
210.7777496985642
 30
0.0
 40
2.519999999999999
  1
60
 41
0.8
  7
CHINESET
100
AcDbText
  0
TEXT
  5
CB2
330
1F
100
AcDbEntity
  8
0
100
AcDbText
 10
412.9385995092696
 20
206.7457496985642
 30
0.0
 40
2.519999999999999
  1
64.5
 41
0.8
  7
CHINESET
100
AcDbText
  0
TEXT
  5
CB3
330
1F
100
AcDbEntity
  8
0
100
AcDbText
 10
428.0585995092695
 20
206.7457496985642
 30
0.0
 40
2.519999999999999
  1
72.5
 41
0.8
  7
CHINESET
100
AcDbText
  0
TEXT
  5
CB4
330
1F
100
AcDbEntity
  8
0
100
AcDbText
 10
412.93859950927
 20
202.7137496985642
 30
0.0
 40
2.519999999999999
  1
77
 41
0.8
  7
CHINESET
100
AcDbText
  0
TEXT
  5
CB5
330
1F
100
AcDbEntity
  8
0
100
AcDbText
 10
428.05859950927
 20
202.7137496985642
 30
0.0
 40
2.519999999999999
  1
85
 41
0.8
  7
CHINESET
100
AcDbText
  0
TEXT
  5
CB6
330
1F
100
AcDbEntity
  8
0
100
AcDbText
 10
412.93859950927
 20
198.6817496985642
 30
0.0
 40
2.519999999999999
  1
89.5
 41
0.8
  7
CHINESET
100
AcDbText
  0
TEXT
  5
CB7
330
1F
100
AcDbEntity
  8
0
100
AcDbText
 10
428.05859950927
 20
198.6817496985642
 30
0.0
 40
2.519999999999999
  1
97.5
 41
0.8
  7
CHINESET
100
AcDbText
  0
TEXT
  5
CB8
330
1F
100
AcDbEntity
  8
0
100
AcDbText
 10
412.93859950927
 20
194.6497496985642
 30
0.0
 40
2.519999999999999
  1
102
 41
0.8
  7
CHINESET
100
AcDbText
  0
TEXT
  5
CB9
330
1F
100
AcDbEntity
  8
0
100
AcDbText
 10
428.05859950927
 20
194.6497496985642
 30
0.0
 40
2.519999999999999
  1
110
 41
0.8
  7
CHINESET
100
AcDbText
  0
TEXT
  5
CBA
330
1F
100
AcDbEntity
  8
0
100
AcDbText
 10
412.9385995092705
 20
190.6177496985641
 30
0.0
 40
2.519999999999999
  1
114.5
 41
0.8
  7
CHINESET
100
AcDbText
  0
TEXT
  5
CBB
330
1F
100
AcDbEntity
  8
0
100
AcDbText
 10
428.0585995092704
 20
190.6177496985641
 30
0.0
 40
2.519999999999999
  1
122.5
 41
0.8
  7
CHINESET
100
AcDbText
  0
TEXT
  5
CBC
330
1F
100
AcDbEntity
  8
0
100
AcDbText
 10
412.9385995092709
 20
186.5857496985642
 30
0.0
 40
2.519999999999999
  1
127
 41
0.8
  7
CHINESET
100
AcDbText
  0
TEXT
  5
CBD
330
1F
100
AcDbEntity
  8
0
100
AcDbText
 10
428.0585995092708
 20
186.5857496985642
 30
0.0
 40
2.519999999999999
  1
135
 41
0.8
  7
CHINESET
100
AcDbText
  0
TEXT
  5
CBE
330
1F
100
AcDbEntity
  8
0
100
AcDbText
 10
412.9385995092709
 20
182.5537496985642
 30
0.0
 40
2.519999999999999
  1
139.5
 41
0.8
  7
CHINESET
100
AcDbText
  0
TEXT
  5
CBF
330
1F
100
AcDbEntity
  8
0
100
AcDbText
 10
428.0585995092708
 20
182.5537496985642
 30
0.0
 40
2.519999999999999
  1
147.5
 41
0.8
  7
CHINESET
100
AcDbText
  0
TEXT
  5
CC0
330
1F
100
AcDbEntity
  8
0
100
AcDbText
 10
430.5084973607711
 20
218.8600313185934
 30
0.0
 40
2.519999999999999
  1
L
 41
0.8
  7
CHINESET
100
AcDbText
  0
TEXT
  5
CC1
330
1F
100
AcDbEntity
  8
0
100
AcDbText
 10
173.5132885949199
 20
360.1966545629491
 30
0.0
 40
4.8
  1
MVSY-100M-5M2
 41
0.75
  7
CHINESET
100
AcDbText
  0
CIRCLE
  5
CC2
330
1F
100
AcDbEntity
  8
0
100
AcDbCircle
 10
384.4026426304441
 20
215.904552471533
 30
0.0
 40
1.026978008781671
  0
CIRCLE
  5
CC3
330
1F
100
AcDbEntity
  8
0
100
AcDbCircle
 10
384.4026426304441
 20
215.904552471533
 30
0.0
 40
0.6682580190975268
  0
LINE
  5
CC4
330
1F
100
AcDbEntity
  8
AM_VIS
100
AcDbLine
 10
340.0545632453559
 20
205.8266863459226
 30
0.0
 11
338.9330679182531
 21
205.8266863459226
 31
0.0
  0
LINE
  5
CC5
330
1F
100
AcDbEntity
  8
AM_VIS
100
AcDbLine
 10
338.933067918253
 20
205.8266863459226
 30
0.0
 11
338.7328008955561
 21
205.3180081082725
 31
0.0
  0
SPLINE
  5
CC6
330
1F
100
AcDbEntity
  8
AM_VIS
100
AcDbSpline
210
0.0
220
0.0
230
1.0
 70
     8
 71
     3
 72
     8
 73
     4
 74
     0
 42
0.0000000001
 43
0.0000000001
 40
0.0
 40
0.0
 40
0.0
 40
0.0
 40
80.0
 40
80.0
 40
80.0
 40
80.0
 10
338.7328008955561
 20
205.3180081082725
 30
0.0
 10
338.7114390390573
 20
205.2646035281423
 30
0.0
 10
338.7007581719246
 20
205.2058585755623
 30
0.0
 10
338.7007581719246
 20
205.1417731282992
 30
0.0
  0
SPLINE
  5
CC7
330
1F
100
AcDbEntity
  8
AM_VIS
100
AcDbSpline
210
0.0
220
0.0
230
1.0
 70
     8
 71
     3
 72
     8
 73
     4
 74
     0
 42
0.0000000001
 43
0.0000000001
 40
0.0
 40
0.0
 40
0.0
 40
0.0
 40
80.0
 40
80.0
 40
80.0
 40
80.0
 10
338.7007581719246
 20
205.1417731282992
 30
0.0
 10
338.7007581719246
 20
205.056325885654
 30
0.0
 10
338.7328008955561
 20
205.0002511192989
 30
0.0
 10
338.7968863428192
 20
204.9735488292338
 30
0.0
  0
SPLINE
  5
CC8
330
1F
100
AcDbEntity
  8
AM_VIS
100
AcDbSpline
210
0.0
220
0.0
230
1.0
 70
     8
 71
     3
 72
     8
 73
     4
 74
     0
 42
0.0000000001
 43
0.0000000001
 40
0.0
 40
0.0
 40
0.0
 40
0.0
 40
80.0
 40
80.0
 40
80.0
 40
80.0
 10
338.7968863428192
 20
204.9735488292338
 30
0.0
 10
338.8262588191091
 20
204.957527467418
 30
0.0
 10
338.8823335854643
 20
204.9468466002853
 30
0.0
 10
338.9651106418846
 20
204.9415061056022
 30
0.0
  0
LINE
  5
CC9
330
1F
100
AcDbEntity
  8
AM_VIS
100
AcDbLine
 10
338.9651106418846
 20
204.9415061056022
 30
0.0
 11
338.9651106418846
 21
204.8613992965235
 31
0.0
  0
LINE
  5
CCA
330
1F
100
AcDbEntity
  8
AM_VIS
100
AcDbLine
 10
338.9651106418846
 20
204.8613992965235
 30
0.0
 11
338.2321333388139
 21
204.8613992965235
 31
0.0
  0
LINE
  5
CCB
330
1F
100
AcDbEntity
  8
AM_VIS
100
AcDbLine
 10
338.2321333388138
 20
204.8613992965235
 30
0.0
 11
338.2321333388138
 21
204.9415061056022
 31
0.0
  0
LINE
  5
CCC
330
1F
100
AcDbEntity
  8
AM_VIS
100
AcDbLine
 10
338.2322582595123
 20
204.9408568882226
 30
0.0
 11
338.3363949921109
 21
204.9608946040712
 31
0.0
  0
SPLINE
  5
CCD
330
1F
100
AcDbEntity
  8
AM_VIS
100
AcDbSpline
210
0.0
220
0.0
230
1.0
 70
     8
 71
     3
 72
     8
 73
     4
 74
     0
 42
0.0000000001
 43
0.0000000001
 40
0.0
 40
0.0
 40
0.0
 40
0.0
 40
80.0
 40
80.0
 40
80.0
 40
80.0
 10
338.3362721906162
 20
204.961532807872
 30
0.0
 10
338.368314853131
 20
204.9695434887799
 30
0.0
 10
338.3990224836502
 20
204.992240438391
 30
0.0
 10
338.4283950210568
 20
205.0296235955889
 30
0.0
  0
SPLINE
  5
CCE
330
1F
100
AcDbEntity
  8
AM_VIS
100
AcDbSpline
210
0.0
220
0.0
230
1.0
 70
     8
 71
     3
 72
     8
 73
     4
 74
     0
 42
0.0000000001
 43
0.0000000001
 40
0.0
 40
0.0
 40
0.0
 40
0.0
 40
80.0
 40
80.0
 40
80.0
 40
80.0
 10
338.4283950210568
 20
205.0296235955889
 30
0.0
 10
338.5031613354525
 20
205.1257517053668
 30
0.0
 10
338.6006246605761
 20
205.3366996563132
 30
0.0
 10
338.7207848741943
 20
205.6624673873113
 30
0.0
  0
LINE
  5
CCF
330
1F
100
AcDbEntity
  8
AM_VIS
100
AcDbLine
 10
338.7207848741943
 20
205.6624673873113
 30
0.0
 11
339.52986364589
 21
207.8613992965235
 31
0.0
  0
LINE
  5
CD0
330
1F
100
AcDbEntity
  8
AM_VIS
100
AcDbLine
 10
339.5298636458899
 20
207.8613992965235
 30
0.0
 11
339.5458850077056
 21
207.8613992965235
 31
0.0
  0
LINE
  5
CD1
330
1F
100
AcDbEntity
  8
AM_VIS
100
AcDbLine
 10
339.5458850077056
 20
207.8613992965235
 30
0.0
 11
340.4951506952892
 21
205.3340294700882
 31
0.0
  0
SPLINE
  5
CD2
330
1F
100
AcDbEntity
  8
AM_VIS
100
AcDbSpline
210
0.0
220
0.0
230
1.0
 70
     8
 71
     3
 72
     8
 73
     4
 74
     0
 42
0.0000000001
 43
0.0000000001
 40
0.0
 40
0.0
 40
0.0
 40
0.0
 40
80.0
 40
80.0
 40
80.0
 40
80.0
 10
340.4951506952891
 20
205.3340294700882
 30
0.0
 10
340.5538956478691
 20
205.1738158519307
 30
0.0
 10
340.6179810951322
 20
205.0656716596744
 30
0.0
 10
340.6874070370781
 20
205.0095968933192
 30
0.0
  0
SPLINE
  5
CD3
330
1F
100
AcDbEntity
  8
AM_VIS
100
AcDbSpline
210
0.0
220
0.0
230
1.0
 70
     8
 71
     3
 72
     8
 73
     4
 74
     0
 42
0.0000000001
 43
0.0000000001
 40
0.0
 40
0.0
 40
0.0
 40
0.0
 40
80.0
 40
80.0
 40
80.0
 40
80.0
 10
340.6874070370781
 20
205.0095968933192
 30
0.0
 10
340.7274604416175
 20
204.9775541696878
 30
0.0
 10
340.796886322447
 20
204.9548572811932
 30
0.0
 10
340.8956847406829
 20
204.9415061056022
 30
0.0
  0
LINE
  5
CD4
330
1F
100
AcDbEntity
  8
AM_VIS
100
AcDbLine
 10
340.8956847406829
 20
204.9415061056022
 30
0.0
 11
340.8956847406829
 21
204.8613992965235
 31
0.0
  0
LINE
  5
CD5
330
1F
100
AcDbEntity
  8
AM_VIS
100
AcDbLine
 10
413.8850879793817
 20
278.9450468680499
 30
0.0
 11
413.8850879793817
 21
303.3450468680499
 31
0.0
  0
LINE
  5
CD6
330
1F
100
AcDbEntity
  8
AM_VIS
100
AcDbLine
 10
415.1850879793816
 20
277.6450468680499
 30
0.0
 11
413.8850879793817
 21
278.9450468680499
 31
0.0
  0
LINE
  5
CD7
330
1F
100
AcDbEntity
  8
AM_VIS
100
AcDbLine
 10
415.1850879793816
 20
277.6450468680499
 30
0.0
 11
415.1850879793816
 21
263.1450468680499
 31
0.0
  0
LINE
  5
CD8
330
1F
100
AcDbEntity
  8
AM_VIS
100
AcDbLine
 10
385.1850879793817
 20
263.1450468680499
 30
0.0
 11
385.1850879793817
 21
271.1450468680499
 31
0.0
  0
LINE
  5
CD9
330
1F
100
AcDbEntity
  8
AM_VIS
100
AcDbLine
 10
385.1850879793817
 20
271.1450468680499
 30
0.0
 11
383.1850879793817
 21
271.1450468680499
 31
0.0
  0
LINE
  5
CDA
330
1F
100
AcDbEntity
  8
AM_VIS
100
AcDbLine
 10
383.1850879793817
 20
314.4450468680499
 30
0.0
 11
385.1850879793817
 21
314.4450468680499
 31
0.0
  0
LINE
  5
CDB
330
1F
100
AcDbEntity
  8
AM_VIS
100
AcDbLine
 10
385.1850879793817
 20
314.4450468680499
 30
0.0
 11
385.1850879793817
 21
318.9450468680499
 31
0.0
  0
LINE
  5
CDC
330
1F
100
AcDbEntity
  8
AM_VIS
100
AcDbLine
 10
385.1850879793817
 20
318.9450468680499
 30
0.0
 11
415.1850879793816
 21
318.9450468680499
 31
0.0
  0
LINE
  5
CDD
102
{ACAD_REACTORS
330
DC4
102
}
330
1F
100
AcDbEntity
  8
AM_VIS
100
AcDbLine
 10
415.1850879793816
 20
318.9450468680499
 30
0.0
 11
415.1850879793816
 21
304.6450468680499
 31
0.0
  0
LINE
  5
CDE
330
1F
100
AcDbEntity
  8
AM_VIS
100
AcDbLine
 10
413.8850879793817
 20
303.3450468680499
 30
0.0
 11
415.1850879793816
 21
304.6450468680499
 31
0.0
  0
LINE
  5
CDF
102
{ACAD_REACTORS
330
DC1
102
}
330
1F
100
AcDbEntity
  8
AM_VIS
100
AcDbLine
 10
383.1850879793817
 20
271.1450468680499
 30
0.0
 11
383.1850879793817
 21
314.4450468680499
 31
0.0
  0
LINE
  5
CE0
102
{ACAD_REACTORS
330
DC1
330
DC4
102
}
330
1F
100
AcDbEntity
  8
AM_VIS
100
AcDbLine
 10
415.1850879793816
 20
263.1450468680499
 30
0.0
 11
385.1850879793817
 21
263.1450468680499
 31
0.0
  0
LINE
  5
CE1
330
1F
100
AcDbEntity
  8
AM_VIS
100
AcDbLine
 10
407.8258488489469
 20
263.1450468680499
 30
0.0
 11
408.4780227619904
 21
263.1450468680499
 31
0.0
  0
LINE
  5
CE2
330
1F
100
AcDbEntity
  8
AM_VIS
100
AcDbLine
 10
407.7606314576425
 20
263.1450468680499
 30
0.0
 11
407.8258488489469
 21
263.1450468680499
 31
0.0
  0
LINE
  5
CE3
330
1F
100
AcDbEntity
  8
AM_VIS
100
AcDbLine
 10
408.4780227619904
 20
263.1450468680499
 30
0.0
 11
409.1505771098164
 21
263.1450468680499
 31
0.0
  0
LINE
  5
CE4
330
1F
100
AcDbEntity
  8
AM_VIS
100
AcDbLine
 10
406.4195988489469
 20
263.1450468680499
 30
0.0
 11
407.0676966750339
 21
263.1450468680499
 31
0.0
  0
LINE
  5
CE5
330
1F
100
AcDbEntity
  8
AM_VIS
100
AcDbLine
 10
407.5445988489469
 20
263.1450468680499
 30
0.0
 11
407.5894358054687
 21
263.1450468680499
 31
0.0
  0
LINE
  5
CE6
330
1F
100
AcDbEntity
  8
AM_VIS
100
AcDbLine
 10
407.0676966750339
 20
263.1450468680499
 30
0.0
 11
407.5445988489469
 21
263.1450468680499
 31
0.0
  0
LINE
  5
CE7
330
1F
100
AcDbEntity
  8
AM_VIS
100
AcDbLine
 10
407.8258488489469
 20
263.1450468680499
 30
0.0
 11
408.4780227619904
 21
263.1450468680499
 31
0.0
  0
LINE
  5
CE8
330
1F
100
AcDbEntity
  8
AM_VIS
100
AcDbLine
 10
407.7606314576425
 20
263.1450468680499
 30
0.0
 11
407.8258488489469
 21
263.1450468680499
 31
0.0
  0
LINE
  5
CE9
330
1F
100
AcDbEntity
  8
AM_VIS
100
AcDbLine
 10
408.4780227619904
 20
263.1450468680499
 30
0.0
 11
409.1505771098164
 21
263.1450468680499
 31
0.0
  0
LINE
  5
CEA
330
1F
100
AcDbEntity
  8
AM_VIS
100
AcDbLine
 10
406.4195988489469
 20
263.1450468680499
 30
0.0
 11
407.0676966750339
 21
263.1450468680499
 31
0.0
  0
LINE
  5
CEB
330
1F
100
AcDbEntity
  8
AM_VIS
100
AcDbLine
 10
407.5445988489469
 20
263.1450468680499
 30
0.0
 11
407.5894358054687
 21
263.1450468680499
 31
0.0
  0
LINE
  5
CEC
330
1F
100
AcDbEntity
  8
AM_VIS
100
AcDbLine
 10
407.0676966750339
 20
263.1450468680499
 30
0.0
 11
407.5445988489469
 21
263.1450468680499
 31
0.0
  0
LINE
  5
CED
330
1F
100
AcDbEntity
  8
AM_VIS
100
AcDbLine
 10
294.7356847406946
 20
318.9450468680499
 30
0.0
 11
342.2356847406945
 21
318.9450468680499
 31
0.0
  0
LINE
  5
CEE
330
1F
100
AcDbEntity
  8
AM_VIS
100
AcDbLine
 10
342.2356847406945
 20
263.1450468680499
 30
0.0
 11
342.2356847406945
 21
271.1450468680499
 31
0.0
  0
LINE
  5
CEF
330
1F
100
AcDbEntity
  8
AM_VIS
100
AcDbLine
 10
342.2356847406945
 20
314.4450468680499
 30
0.0
 11
342.2356847406945
 21
318.9450468680499
 31
0.0
  0
LINE
  5
CF0
330
1F
100
AcDbEntity
  8
AM_VIS
100
AcDbLine
 10
294.7356847406946
 20
318.9450468680499
 30
0.0
 11
294.7356847406946
 21
314.4450468680499
 31
0.0
  0
LINE
  5
CF1
330
1F
100
AcDbEntity
  8
AM_VIS
100
AcDbLine
 10
294.7356847406946
 20
271.1450468680499
 30
0.0
 11
294.7356847406946
 21
263.1450468680499
 31
0.0
  0
LINE
  5
CF2
330
1F
100
AcDbEntity
  8
AM_VIS
100
AcDbLine
 10
294.7356847406946
 20
271.1450468680499
 30
0.0
 11
342.2356847406945
 21
271.1450468680499
 31
0.0
  0
LINE
  5
CF3
330
1F
100
AcDbEntity
  8
AM_VIS
100
AcDbLine
 10
294.7356847406946
 20
314.4450468680499
 30
0.0
 11
294.7356847406946
 21
271.1450468680499
 31
0.0
  0
LINE
  5
CF4
330
1F
100
AcDbEntity
  8
AM_VIS
100
AcDbLine
 10
294.7356847406946
 20
314.4450468680499
 30
0.0
 11
342.2356847406945
 21
314.4450468680499
 31
0.0
  0
LINE
  5
CF5
330
1F
100
AcDbEntity
  8
AM_VIS
100
AcDbLine
 10
342.2356847406945
 20
271.1450468680499
 30
0.0
 11
342.2356847406945
 21
314.4450468680499
 31
0.0
  0
LINE
  5
CF6
102
{ACAD_REACTORS
330
DB6
102
}
330
1F
100
AcDbEntity
  8
AM_VIS
100
AcDbLine
 10
294.7356847406946
 20
263.1450468680499
 30
0.0
 11
342.2356847406945
 21
263.1450468680499
 31
0.0
  0
LINE
  5
CF7
330
1F
100
AcDbEntity
  8
AM_VIS
100
AcDbLine
 10
299.9082390885202
 20
263.1450468680499
 30
0.0
 11
300.421826045042
 21
263.1450468680499
 31
0.0
  0
LINE
  5
CF8
330
1F
100
AcDbEntity
  8
AM_VIS
100
AcDbLine
 10
299.1663912624332
 20
263.1450468680499
 30
0.0
 11
299.9082390885202
 21
263.1450468680499
 31
0.0
  0
LINE
  5
CF9
330
1F
100
AcDbEntity
  8
AM_VIS
100
AcDbLine
 10
299.4598695233029
 20
263.1450468680499
 30
0.0
 11
300.3403043059115
 21
263.1450468680499
 31
0.0
  0
LINE
  5
CFA
330
1F
100
AcDbEntity
  8
AM_VIS
100
AcDbLine
 10
299.2723695233029
 20
263.1450468680499
 30
0.0
 11
299.4598695233029
 21
263.1450468680499
 31
0.0
  0
LINE
  5
CFB
330
1F
100
AcDbEntity
  8
AM_VIS
100
AcDbLine
 10
299.1826956102594
 20
263.1450468680499
 30
0.0
 11
299.2723695233029
 21
263.1450468680499
 31
0.0
  0
LINE
  5
CFC
330
1F
100
AcDbEntity
  8
AM_VIS
100
AcDbLine
 10
299.1663912002371
 20
263.1450468680499
 30
0.0
 11
299.1826956102594
 21
263.1450468680499
 31
0.0
  0
LINE
  5
CFD
330
1F
100
AcDbEntity
  8
AM_VIS
100
AcDbLine
 10
332.6682390885202
 20
263.1450468680499
 30
0.0
 11
333.181826045042
 21
263.1450468680499
 31
0.0
  0
LINE
  5
CFE
330
1F
100
AcDbEntity
  8
AM_VIS
100
AcDbLine
 10
331.9263912624332
 20
263.1450468680499
 30
0.0
 11
332.6682390885202
 21
263.1450468680499
 31
0.0
  0
LINE
  5
CFF
330
1F
100
AcDbEntity
  8
AM_VIS
100
AcDbLine
 10
332.2198695233029
 20
263.1450468680499
 30
0.0
 11
333.1003043059115
 21
263.1450468680499
 31
0.0
  0
LINE
  5
D00
330
1F
100
AcDbEntity
  8
AM_VIS
100
AcDbLine
 10
332.0323695233029
 20
263.1450468680499
 30
0.0
 11
332.2198695233029
 21
263.1450468680499
 31
0.0
  0
LINE
  5
D01
330
1F
100
AcDbEntity
  8
AM_VIS
100
AcDbLine
 10
331.9426956102593
 20
263.1450468680499
 30
0.0
 11
332.0323695233029
 21
263.1450468680499
 31
0.0
  0
LINE
  5
D02
330
1F
100
AcDbEntity
  8
AM_VIS
100
AcDbLine
 10
331.9263912002371
 20
263.1450468680499
 30
0.0
 11
331.9426956102593
 21
263.1450468680499
 31
0.0
  0
CIRCLE
  5
D03
330
1F
100
AcDbEntity
  8
AM_VIS
100
AcDbCircle
 10
298.7356847406945
 20
287.7450468680499
 30
0.0
 40
2.25
  0
CIRCLE
  5
D04
330
1F
100
AcDbEntity
  8
AM_VIS
100
AcDbCircle
 10
338.2356847406945
 20
287.7450468680499
 30
0.0
 40
2.25
  0
CIRCLE
  5
D05
330
1F
100
AcDbEntity
  8
AM_VIS
100
AcDbCircle
 10
298.7356847406945
 20
303.7450468680499
 30
0.0
 40
2.25
  0
CIRCLE
  5
D06
330
1F
100
AcDbEntity
  8
AM_VIS
100
AcDbCircle
 10
338.2356847406945
 20
303.7450468680499
 30
0.0
 40
2.25
  0
LINE
  5
D07
330
1F
100
AcDbEntity
  8
AM_VIS
100
AcDbLine
 10
342.2356847406945
 20
214.1613992965235
 30
0.0
 11
342.2356847406945
 21
216.1613992965235
 31
0.0
  0
LINE
  5
D08
330
1F
100
AcDbEntity
  8
AM_VIS
100
AcDbLine
 10
294.7356847406946
 20
216.1613992965235
 30
0.0
 11
294.7356847406946
 21
214.1613992965235
 31
0.0
  0
LINE
  5
D09
330
1F
100
AcDbEntity
  8
AM_VIS
100
AcDbLine
 10
294.7356847406946
 20
216.1613992965235
 30
0.0
 11
342.2356847406945
 21
216.1613992965235
 31
0.0
  0
LINE
  5
D0A
330
1F
100
AcDbEntity
  8
AM_VIS
100
AcDbLine
 10
294.7356847406946
 20
184.1613992965235
 30
0.0
 11
342.2356847406945
 21
184.1613992965235
 31
0.0
  0
LINE
  5
D0B
330
1F
100
AcDbEntity
  8
AM_VIS
100
AcDbLine
 10
294.7356847406946
 20
214.1613992965235
 30
0.0
 11
294.7356847406946
 21
184.1613992965235
 31
0.0
  0
LINE
  5
D0C
330
1F
100
AcDbEntity
  8
AM_VIS
100
AcDbLine
 10
294.7356847406946
 20
214.1613992965235
 30
0.0
 11
342.2356847406945
 21
214.1613992965235
 31
0.0
  0
LINE
  5
D0D
330
1F
100
AcDbEntity
  8
AM_VIS
100
AcDbLine
 10
342.2356847406945
 20
184.1613992965235
 30
0.0
 11
342.2356847406945
 21
214.1613992965235
 31
0.0
  0
SPLINE
  5
D0E
330
1F
100
AcDbEntity
  8
AM_VIS
100
AcDbSpline
210
0.0
220
0.0
230
1.0
 70
     8
 71
     3
 72
     8
 73
     4
 74
     0
 42
0.0000000001
 43
0.0000000001
 40
0.0
 40
0.0
 40
0.0
 40
0.0
 40
80.0
 40
80.0
 40
80.0
 40
80.0
 10
300.421826045042
 20
190.8684645139149
 30
0.0
 10
300.4218259828459
 20
191.1863992343274
 30
0.0
 10
300.2506303306719
 20
191.4037905801393
 30
0.0
 10
299.9082390885202
 20
191.5206384269582
 30
0.0
  0
SPLINE
  5
D0F
330
1F
100
AcDbEntity
  8
AM_VIS
100
AcDbSpline
210
0.0
220
0.0
230
1.0
 70
     8
 71
     3
 72
     8
 73
     4
 74
     0
 42
0.0000000001
 43
0.0000000001
 40
0.0
 40
0.0
 40
0.0
 40
0.0
 40
80.0
 40
80.0
 40
80.0
 40
80.0
 10
299.9082390885202
 20
191.5206384269582
 30
0.0
 10
299.7805216557518
 20
191.5641166463638
 30
0.0
 10
299.5332390885203
 20
191.5858558182626
 30
0.0
 10
299.1663912624332
 20
191.5858558182626
 30
0.0
  0
LINE
  5
D10
330
1F
100
AcDbEntity
  8
AM_VIS
100
AcDbLine
 10
299.1663912624332
 20
191.5858558182626
 30
0.0
 11
299.1663912624332
 21
190.4119427747844
 31
0.0
  0
SPLINE
  5
D11
330
1F
100
AcDbEntity
  8
AM_VIS
100
AcDbSpline
210
0.0
220
0.0
230
1.0
 70
     8
 71
     3
 72
     8
 73
     4
 74
     0
 42
0.0000000001
 43
0.0000000001
 40
0.0
 40
0.0
 40
0.0
 40
0.0
 40
80.0
 40
80.0
 40
80.0
 40
80.0
 10
299.1663912624332
 20
190.4119427747844
 30
0.0
 10
299.1663912002371
 20
190.3168340376682
 30
0.0
 10
299.2098694818388
 20
190.25297538348
 30
0.0
 10
299.296826045042
 20
190.2203666878279
 30
0.0
  0
SPLINE
  5
D12
330
1F
100
AcDbEntity
  8
AM_VIS
100
AcDbSpline
210
0.0
220
0.0
230
1.0
 70
     8
 71
     3
 72
     8
 73
     4
 74
     0
 42
0.0000000001
 43
0.0000000001
 40
0.0
 40
0.0
 40
0.0
 40
0.0
 40
80.0
 40
80.0
 40
80.0
 40
80.0
 10
299.296826045042
 20
190.2203666878279
 30
0.0
 10
299.3484564383605
 20
190.2040624021979
 30
0.0
 10
299.4340542644474
 20
190.1959102282849
 30
0.0
 10
299.5536195233029
 20
190.1959101660887
 30
0.0
  0
SPLINE
  5
D13
330
1F
100
AcDbEntity
  8
AM_VIS
100
AcDbSpline
210
0.0
220
0.0
230
1.0
 70
     8
 71
     3
 72
     8
 73
     4
 74
     0
 42
0.0000000001
 43
0.0000000001
 40
0.0
 40
0.0
 40
0.0
 40
0.0
 40
80.0
 40
80.0
 40
80.0
 40
80.0
 10
299.5536195233029
 20
190.1959101660887
 30
0.0
 10
300.1324238089328
 20
190.1959102282849
 30
0.0
 10
300.4218259828459
 20
190.4200949486974
 30
0.0
 10
300.421826045042
 20
190.8684645139149
 30
0.0
  0
SPLINE
  5
D14
330
1F
100
AcDbEntity
  8
AM_VIS
100
AcDbSpline
210
0.0
220
0.0
230
1.0
 70
     8
 71
     3
 72
     8
 73
     4
 74
     0
 42
0.0000000001
 43
0.0000000001
 40
0.0
 40
0.0
 40
0.0
 40
0.0
 40
80.0
 40
80.0
 40
80.0
 40
80.0
 10
300.3403043059115
 20
192.2787906008714
 30
0.0
 10
300.3403043059115
 20
192.7108558182626
 30
0.0
 10
300.046826045042
 20
192.9268884269582
 30
0.0
 10
299.4598695233029
 20
192.9268884269582
 30
0.0
  0
SPLINE
  5
D15
330
1F
100
AcDbEntity
  8
AM_VIS
100
AcDbSpline
210
0.0
220
0.0
230
1.0
 70
     8
 71
     3
 72
     8
 73
     4
 74
     0
 42
0.0000000001
 43
0.0000000001
 40
0.0
 40
0.0
 40
0.0
 40
0.0
 40
80.0
 40
80.0
 40
80.0
 40
80.0
 10
299.4598695233029
 20
192.9268884269582
 30
0.0
 10
299.3457390263241
 20
192.9268884269582
 30
0.0
 10
299.2832390470562
 20
192.925529689842
 30
0.0
 10
299.2723695233029
 20
192.9228123400017
 30
0.0
  0
SPLINE
  5
D16
330
1F
100
AcDbEntity
  8
AM_VIS
100
AcDbSpline
210
0.0
220
0.0
230
1.0
 70
     8
 71
     3
 72
     8
 73
     4
 74
     0
 42
0.0000000001
 43
0.0000000001
 40
0.0
 40
0.0
 40
0.0
 40
0.0
 40
80.0
 40
80.0
 40
80.0
 40
80.0
 10
299.2723695233029
 20
192.9228123400017
 30
0.0
 10
299.2234564798246
 20
192.917377515929
 30
0.0
 10
299.1935651340126
 20
192.9078666670958
 30
0.0
 10
299.1826956102594
 20
192.8942797313061
 30
0.0
  0
SPLINE
  5
D17
330
1F
100
AcDbEntity
  8
AM_VIS
100
AcDbSpline
210
0.0
220
0.0
230
1.0
 70
     8
 71
     3
 72
     8
 73
     4
 74
     0
 42
0.0000000001
 43
0.0000000001
 40
0.0
 40
0.0
 40
0.0
 40
0.0
 40
80.0
 40
80.0
 40
80.0
 40
80.0
 10
299.1826956102594
 20
192.8942797313061
 30
0.0
 10
299.17182602431
 20
192.8806927333203
 30
0.0
 10
299.1663912002371
 20
192.8521601246247
 30
0.0
 10
299.1663912624332
 20
192.8086819052191
 30
0.0
  0
LINE
  5
D18
330
1F
100
AcDbEntity
  8
AM_VIS
100
AcDbLine
 10
299.1663912624332
 20
192.8086819052191
 30
0.0
 11
299.1663912624332
 21
191.75297538348
 31
0.0
  0
LINE
  5
D19
330
1F
100
AcDbEntity
  8
AM_VIS
100
AcDbLine
 10
299.1663912624332
 20
191.75297538348
 30
0.0
 11
299.6269890885202
 21
191.7570514704366
 31
0.0
  0
SPLINE
  5
D1A
330
1F
100
AcDbEntity
  8
AM_VIS
100
AcDbSpline
210
0.0
220
0.0
230
1.0
 70
     8
 71
     3
 72
     8
 73
     4
 74
     0
 42
0.0000000001
 43
0.0000000001
 40
0.0
 40
0.0
 40
0.0
 40
0.0
 40
80.0
 40
80.0
 40
80.0
 40
80.0
 10
299.6269890885202
 20
191.7570514704366
 30
0.0
 10
299.8117716764838
 20
191.7597688202768
 30
0.0
 10
299.9462825460491
 20
191.7747144931828
 30
0.0
 10
300.0305216972159
 20
191.8018884269582
 30
0.0
  0
SPLINE
  5
D1B
330
1F
100
AcDbEntity
  8
AM_VIS
100
AcDbSpline
210
0.0
220
0.0
230
1.0
 70
     8
 71
     3
 72
     8
 73
     4
 74
     0
 42
0.0000000001
 43
0.0000000001
 40
0.0
 40
0.0
 40
0.0
 40
0.0
 40
80.0
 40
80.0
 40
80.0
 40
80.0
 10
300.0305216972159
 20
191.8018884269582
 30
0.0
 10
300.2370433948823
 20
191.8779753420159
 30
0.0
 10
300.3403043059115
 20
192.0369427333203
 30
0.0
 10
300.3403043059115
 20
192.2787906008714
 30
0.0
  0
SPLINE
  5
D1C
330
1F
100
AcDbEntity
  8
AM_VIS
100
AcDbSpline
210
0.0
220
0.0
230
1.0
 70
     8
 71
     3
 72
     8
 73
     4
 74
     0
 42
0.0000000001
 43
0.0000000001
 40
0.0
 40
0.0
 40
0.0
 40
0.0
 40
80.0
 40
80.0
 40
80.0
 40
80.0
 10
300.7356847406941
 20
190.8521601660887
 30
0.0
 10
300.7356847406941
 20
190.6782471018784
 30
0.0
 10
300.6867716972159
 20
190.5247144724508
 30
0.0
 10
300.5889456102594
 20
190.3915623400017
 30
0.0
  0
SPLINE
  5
D1D
330
1F
100
AcDbEntity
  8
AM_VIS
100
AcDbSpline
210
0.0
220
0.0
230
1.0
 70
     8
 71
     3
 72
     8
 73
     4
 74
     0
 42
0.0000000001
 43
0.0000000001
 40
0.0
 40
0.0
 40
0.0
 40
0.0
 40
80.0
 40
80.0
 40
80.0
 40
80.0
 10
300.5889456102594
 20
190.3915623400017
 30
0.0
 10
300.4286194818388
 20
190.1714536443496
 30
0.0
 10
300.1636738296648
 20
190.0613992965235
 30
0.0
 10
299.7941086537376
 20
190.0613992965235
 30
0.0
  0
LINE
  5
D1E
330
1F
100
AcDbEntity
  8
AM_VIS
100
AcDbLine
 10
299.7941086537376
 20
190.0613992965235
 30
0.0
 11
298.4775325667811
 21
190.0613992965235
 31
0.0
  0
LINE
  5
D1F
330
1F
100
AcDbEntity
  8
AM_VIS
100
AcDbLine
 10
298.4775325667811
 20
190.0613992965235
 30
0.0
 11
298.4775325667811
 21
190.142921035654
 31
0.0
  0
SPLINE
  5
D20
330
1F
100
AcDbEntity
  8
AM_VIS
100
AcDbSpline
210
0.0
220
0.0
230
1.0
 70
     8
 71
     3
 72
     8
 73
     4
 74
     0
 42
0.0000000001
 43
0.0000000001
 40
0.0
 40
0.0
 40
0.0
 40
0.0
 40
80.0
 40
80.0
 40
80.0
 40
80.0
 10
298.4775325667811
 20
190.142921035654
 30
0.0
 10
298.6460108069187
 20
190.1537906216034
 30
0.0
 10
298.7614999166214
 20
190.1904754042121
 30
0.0
 10
298.8239999580855
 20
190.25297538348
 30
0.0
  0
SPLINE
  5
D21
330
1F
100
AcDbEntity
  8
AM_VIS
100
AcDbSpline
210
0.0
220
0.0
230
1.0
 70
     8
 71
     3
 72
     8
 73
     4
 74
     0
 42
0.0000000001
 43
0.0000000001
 40
0.0
 40
0.0
 40
0.0
 40
0.0
 40
80.0
 40
80.0
 40
80.0
 40
80.0
 10
298.8239999580855
 20
190.25297538348
 30
0.0
 10
298.883782525317
 20
190.315475362748
 30
0.0
 10
298.913673871129
 20
190.4309644724508
 30
0.0
 10
298.913673871129
 20
190.5994427747844
 30
0.0
  0
LINE
  5
D22
330
1F
100
AcDbEntity
  8
AM_VIS
100
AcDbLine
 10
298.913673871129
 20
190.5994427747844
 30
0.0
 11
298.913673871129
 21
192.588573209567
 31
0.0
  0
SPLINE
  5
D23
330
1F
100
AcDbEntity
  8
AM_VIS
100
AcDbSpline
210
0.0
220
0.0
230
1.0
 70
     8
 71
     3
 72
     8
 73
     4
 74
     0
 42
0.0000000001
 43
0.0000000001
 40
0.0
 40
0.0
 40
0.0
 40
0.0
 40
80.0
 40
80.0
 40
80.0
 40
80.0
 10
298.913673871129
 20
192.588573209567
 30
0.0
 10
298.913673871129
 20
192.7516166878279
 30
0.0
 10
298.8824238503969
 20
192.8575949486974
 30
0.0
 10
298.819923871129
 20
192.9065079921757
 30
0.0
  0
SPLINE
  5
D24
330
1F
100
AcDbEntity
  8
AM_VIS
100
AcDbSpline
210
0.0
220
0.0
230
1.0
 70
     8
 71
     3
 72
     8
 73
     4
 74
     0
 42
0.0000000001
 43
0.0000000001
 40
0.0
 40
0.0
 40
0.0
 40
0.0
 40
80.0
 40
80.0
 40
80.0
 40
80.0
 10
298.819923871129
 20
192.9065079921757
 30
0.0
 10
298.7682934156143
 20
192.9445514497045
 30
0.0
 10
298.6541629808317
 20
192.9690079714437
 30
0.0
 10
298.4775325667811
 20
192.9798775573931
 30
0.0
  0
LINE
  5
D25
330
1F
100
AcDbEntity
  8
AM_VIS
100
AcDbLine
 10
298.4775325667811
 20
192.9798775573931
 30
0.0
 11
298.4775325667811
 21
193.0613992965235
 31
0.0
  0
LINE
  5
D26
330
1F
100
AcDbEntity
  8
AM_VIS
100
AcDbLine
 10
298.4775325667811
 20
193.0613992965235
 30
0.0
 11
299.5739999580855
 21
193.0613992965235
 31
0.0
  0
SPLINE
  5
D27
330
1F
100
AcDbEntity
  8
AM_VIS
100
AcDbSpline
210
0.0
220
0.0
230
1.0
 70
     8
 71
     3
 72
     8
 73
     4
 74
     0
 42
0.0000000001
 43
0.0000000001
 40
0.0
 40
0.0
 40
0.0
 40
0.0
 40
80.0
 40
80.0
 40
80.0
 40
80.0
 10
299.5739999580855
 20
193.0613992965235
 30
0.0
 10
300.2614999166214
 20
193.0613992965235
 30
0.0
 10
300.6052499580855
 20
192.8113992550594
 30
0.0
 10
300.6052499580855
 20
192.3113992965235
 30
0.0
  0
SPLINE
  5
D28
330
1F
100
AcDbEntity
  8
AM_VIS
100
AcDbSpline
210
0.0
220
0.0
230
1.0
 70
     8
 71
     3
 72
     8
 73
     4
 74
     0
 42
0.0000000001
 43
0.0000000001
 40
0.0
 40
0.0
 40
0.0
 40
0.0
 40
80.0
 40
80.0
 40
80.0
 40
80.0
 10
300.6052499580855
 20
192.3113992965235
 30
0.0
 10
300.6052499580855
 20
191.9744427540523
 30
0.0
 10
300.4082390470562
 20
191.7516166463638
 30
0.0
 10
300.0142173493899
 20
191.642921035654
 30
0.0
  0
LINE
  5
D29
330
1F
100
AcDbEntity
  8
AM_VIS
100
AcDbLine
 10
300.0142173493899
 20
191.642921035654
 30
0.0
 11
300.0835108276508
 21
191.6266166878279
 31
0.0
  0
SPLINE
  5
D2A
330
1F
100
AcDbEntity
  8
AM_VIS
100
AcDbSpline
210
0.0
220
0.0
230
1.0
 70
     8
 71
     3
 72
     8
 73
     4
 74
     0
 42
0.0000000001
 43
0.0000000001
 40
0.0
 40
0.0
 40
0.0
 40
0.0
 40
80.0
 40
80.0
 40
80.0
 40
80.0
 10
300.0835108276506
 20
191.6266166878279
 30
0.0
 10
300.5182933948823
 20
191.5233557767985
 30
0.0
 10
300.7356847406941
 20
191.2652036236176
 30
0.0
 10
300.7356847406941
 20
190.8521601660887
 30
0.0
  0
SPLINE
  5
D2B
330
1F
100
AcDbEntity
  8
AM_VIS
100
AcDbSpline
210
0.0
220
0.0
230
1.0
 70
     8
 71
     3
 72
     8
 73
     4
 74
     0
 42
0.0000000001
 43
0.0000000001
 40
0.0
 40
0.0
 40
0.0
 40
0.0
 40
80.0
 40
80.0
 40
80.0
 40
80.0
 10
333.181826045042
 20
190.8684645139149
 30
0.0
 10
333.1818259828458
 20
191.1863992343274
 30
0.0
 10
333.0106303306719
 20
191.4037905801393
 30
0.0
 10
332.6682390885202
 20
191.5206384269582
 30
0.0
  0
SPLINE
  5
D2C
330
1F
100
AcDbEntity
  8
AM_VIS
100
AcDbSpline
210
0.0
220
0.0
230
1.0
 70
     8
 71
     3
 72
     8
 73
     4
 74
     0
 42
0.0000000001
 43
0.0000000001
 40
0.0
 40
0.0
 40
0.0
 40
0.0
 40
80.0
 40
80.0
 40
80.0
 40
80.0
 10
332.6682390885202
 20
191.5206384269582
 30
0.0
 10
332.5405216557518
 20
191.5641166463638
 30
0.0
 10
332.2932390885203
 20
191.5858558182626
 30
0.0
 10
331.9263912624332
 20
191.5858558182626
 30
0.0
  0
LINE
  5
D2D
330
1F
100
AcDbEntity
  8
AM_VIS
100
AcDbLine
 10
331.9263912624332
 20
191.5858558182626
 30
0.0
 11
331.9263912624332
 21
190.4119427747844
 31
0.0
  0
SPLINE
  5
D2E
330
1F
100
AcDbEntity
  8
AM_VIS
100
AcDbSpline
210
0.0
220
0.0
230
1.0
 70
     8
 71
     3
 72
     8
 73
     4
 74
     0
 42
0.0000000001
 43
0.0000000001
 40
0.0
 40
0.0
 40
0.0
 40
0.0
 40
80.0
 40
80.0
 40
80.0
 40
80.0
 10
331.9263912624332
 20
190.4119427747844
 30
0.0
 10
331.9263912002371
 20
190.3168340376682
 30
0.0
 10
331.9698694818388
 20
190.25297538348
 30
0.0
 10
332.056826045042
 20
190.2203666878279
 30
0.0
  0
SPLINE
  5
D2F
330
1F
100
AcDbEntity
  8
AM_VIS
100
AcDbSpline
210
0.0
220
0.0
230
1.0
 70
     8
 71
     3
 72
     8
 73
     4
 74
     0
 42
0.0000000001
 43
0.0000000001
 40
0.0
 40
0.0
 40
0.0
 40
0.0
 40
80.0
 40
80.0
 40
80.0
 40
80.0
 10
332.056826045042
 20
190.2203666878279
 30
0.0
 10
332.1084564383605
 20
190.2040624021979
 30
0.0
 10
332.1940542644474
 20
190.1959102282849
 30
0.0
 10
332.3136195233029
 20
190.1959101660887
 30
0.0
  0
SPLINE
  5
D30
330
1F
100
AcDbEntity
  8
AM_VIS
100
AcDbSpline
210
0.0
220
0.0
230
1.0
 70
     8
 71
     3
 72
     8
 73
     4
 74
     0
 42
0.0000000001
 43
0.0000000001
 40
0.0
 40
0.0
 40
0.0
 40
0.0
 40
80.0
 40
80.0
 40
80.0
 40
80.0
 10
332.3136195233029
 20
190.1959101660887
 30
0.0
 10
332.8924238089328
 20
190.1959102282849
 30
0.0
 10
333.1818259828458
 20
190.4200949486974
 30
0.0
 10
333.181826045042
 20
190.8684645139149
 30
0.0
  0
SPLINE
  5
D31
330
1F
100
AcDbEntity
  8
AM_VIS
100
AcDbSpline
210
0.0
220
0.0
230
1.0
 70
     8
 71
     3
 72
     8
 73
     4
 74
     0
 42
0.0000000001
 43
0.0000000001
 40
0.0
 40
0.0
 40
0.0
 40
0.0
 40
80.0
 40
80.0
 40
80.0
 40
80.0
 10
333.1003043059115
 20
192.2787906008714
 30
0.0
 10
333.1003043059115
 20
192.7108558182626
 30
0.0
 10
332.806826045042
 20
192.9268884269582
 30
0.0
 10
332.2198695233029
 20
192.9268884269582
 30
0.0
  0
SPLINE
  5
D32
330
1F
100
AcDbEntity
  8
AM_VIS
100
AcDbSpline
210
0.0
220
0.0
230
1.0
 70
     8
 71
     3
 72
     8
 73
     4
 74
     0
 42
0.0000000001
 43
0.0000000001
 40
0.0
 40
0.0
 40
0.0
 40
0.0
 40
80.0
 40
80.0
 40
80.0
 40
80.0
 10
332.2198695233029
 20
192.9268884269582
 30
0.0
 10
332.1057390263241
 20
192.9268884269582
 30
0.0
 10
332.0432390470561
 20
192.925529689842
 30
0.0
 10
332.0323695233029
 20
192.9228123400017
 30
0.0
  0
SPLINE
  5
D33
330
1F
100
AcDbEntity
  8
AM_VIS
100
AcDbSpline
210
0.0
220
0.0
230
1.0
 70
     8
 71
     3
 72
     8
 73
     4
 74
     0
 42
0.0000000001
 43
0.0000000001
 40
0.0
 40
0.0
 40
0.0
 40
0.0
 40
80.0
 40
80.0
 40
80.0
 40
80.0
 10
332.0323695233029
 20
192.9228123400017
 30
0.0
 10
331.9834564798246
 20
192.917377515929
 30
0.0
 10
331.9535651340126
 20
192.9078666670958
 30
0.0
 10
331.9426956102593
 20
192.8942797313061
 30
0.0
  0
SPLINE
  5
D34
330
1F
100
AcDbEntity
  8
AM_VIS
100
AcDbSpline
210
0.0
220
0.0
230
1.0
 70
     8
 71
     3
 72
     8
 73
     4
 74
     0
 42
0.0000000001
 43
0.0000000001
 40
0.0
 40
0.0
 40
0.0
 40
0.0
 40
80.0
 40
80.0
 40
80.0
 40
80.0
 10
331.9426956102593
 20
192.8942797313061
 30
0.0
 10
331.9318260243099
 20
192.8806927333203
 30
0.0
 10
331.9263912002371
 20
192.8521601246247
 30
0.0
 10
331.9263912624332
 20
192.8086819052191
 30
0.0
  0
LINE
  5
D35
330
1F
100
AcDbEntity
  8
AM_VIS
100
AcDbLine
 10
331.9263912624332
 20
192.8086819052191
 30
0.0
 11
331.9263912624332
 21
191.75297538348
 31
0.0
  0
LINE
  5
D36
330
1F
100
AcDbEntity
  8
AM_VIS
100
AcDbLine
 10
331.9263912624332
 20
191.75297538348
 30
0.0
 11
332.3869890885202
 21
191.7570514704365
 31
0.0
  0
SPLINE
  5
D37
330
1F
100
AcDbEntity
  8
AM_VIS
100
AcDbSpline
210
0.0
220
0.0
230
1.0
 70
     8
 71
     3
 72
     8
 73
     4
 74
     0
 42
0.0000000001
 43
0.0000000001
 40
0.0
 40
0.0
 40
0.0
 40
0.0
 40
80.0
 40
80.0
 40
80.0
 40
80.0
 10
332.3869890885202
 20
191.7570514704365
 30
0.0
 10
332.5717716764838
 20
191.7597688202768
 30
0.0
 10
332.7062825460491
 20
191.7747144931827
 30
0.0
 10
332.7905216972159
 20
191.8018884269582
 30
0.0
  0
SPLINE
  5
D38
330
1F
100
AcDbEntity
  8
AM_VIS
100
AcDbSpline
210
0.0
220
0.0
230
1.0
 70
     8
 71
     3
 72
     8
 73
     4
 74
     0
 42
0.0000000001
 43
0.0000000001
 40
0.0
 40
0.0
 40
0.0
 40
0.0
 40
80.0
 40
80.0
 40
80.0
 40
80.0
 10
332.7905216972159
 20
191.8018884269582
 30
0.0
 10
332.9970433948823
 20
191.8779753420159
 30
0.0
 10
333.1003043059115
 20
192.0369427333203
 30
0.0
 10
333.1003043059115
 20
192.2787906008714
 30
0.0
  0
SPLINE
  5
D39
330
1F
100
AcDbEntity
  8
AM_VIS
100
AcDbSpline
210
0.0
220
0.0
230
1.0
 70
     8
 71
     3
 72
     8
 73
     4
 74
     0
 42
0.0000000001
 43
0.0000000001
 40
0.0
 40
0.0
 40
0.0
 40
0.0
 40
80.0
 40
80.0
 40
80.0
 40
80.0
 10
333.4956847406941
 20
190.8521601660887
 30
0.0
 10
333.4956847406941
 20
190.6782471018784
 30
0.0
 10
333.4467716972159
 20
190.5247144724507
 30
0.0
 10
333.3489456102594
 20
190.3915623400017
 30
0.0
  0
SPLINE
  5
D3A
330
1F
100
AcDbEntity
  8
AM_VIS
100
AcDbSpline
210
0.0
220
0.0
230
1.0
 70
     8
 71
     3
 72
     8
 73
     4
 74
     0
 42
0.0000000001
 43
0.0000000001
 40
0.0
 40
0.0
 40
0.0
 40
0.0
 40
80.0
 40
80.0
 40
80.0
 40
80.0
 10
333.3489456102594
 20
190.3915623400017
 30
0.0
 10
333.1886194818388
 20
190.1714536443496
 30
0.0
 10
332.9236738296648
 20
190.0613992965235
 30
0.0
 10
332.5541086537376
 20
190.0613992965235
 30
0.0
  0
LINE
  5
D3B
330
1F
100
AcDbEntity
  8
AM_VIS
100
AcDbLine
 10
332.5541086537376
 20
190.0613992965235
 30
0.0
 11
331.2375325667811
 21
190.0613992965235
 31
0.0
  0
LINE
  5
D3C
330
1F
100
AcDbEntity
  8
AM_VIS
100
AcDbLine
 10
331.2375325667811
 20
190.0613992965235
 30
0.0
 11
331.2375325667811
 21
190.142921035654
 31
0.0
  0
SPLINE
  5
D3D
330
1F
100
AcDbEntity
  8
AM_VIS
100
AcDbSpline
210
0.0
220
0.0
230
1.0
 70
     8
 71
     3
 72
     8
 73
     4
 74
     0
 42
0.0000000001
 43
0.0000000001
 40
0.0
 40
0.0
 40
0.0
 40
0.0
 40
80.0
 40
80.0
 40
80.0
 40
80.0
 10
331.2375325667811
 20
190.142921035654
 30
0.0
 10
331.4060108069186
 20
190.1537906216034
 30
0.0
 10
331.5214999166213
 20
190.1904754042121
 30
0.0
 10
331.5839999580855
 20
190.25297538348
 30
0.0
  0
SPLINE
  5
D3E
330
1F
100
AcDbEntity
  8
AM_VIS
100
AcDbSpline
210
0.0
220
0.0
230
1.0
 70
     8
 71
     3
 72
     8
 73
     4
 74
     0
 42
0.0000000001
 43
0.0000000001
 40
0.0
 40
0.0
 40
0.0
 40
0.0
 40
80.0
 40
80.0
 40
80.0
 40
80.0
 10
331.5839999580855
 20
190.25297538348
 30
0.0
 10
331.643782525317
 20
190.315475362748
 30
0.0
 10
331.6736738711289
 20
190.4309644724507
 30
0.0
 10
331.6736738711289
 20
190.5994427747844
 30
0.0
  0
LINE
  5
D3F
330
1F
100
AcDbEntity
  8
AM_VIS
100
AcDbLine
 10
331.6736738711289
 20
190.5994427747844
 30
0.0
 11
331.6736738711289
 21
192.588573209567
 31
0.0
  0
SPLINE
  5
D40
330
1F
100
AcDbEntity
  8
AM_VIS
100
AcDbSpline
210
0.0
220
0.0
230
1.0
 70
     8
 71
     3
 72
     8
 73
     4
 74
     0
 42
0.0000000001
 43
0.0000000001
 40
0.0
 40
0.0
 40
0.0
 40
0.0
 40
80.0
 40
80.0
 40
80.0
 40
80.0
 10
331.6736738711289
 20
192.588573209567
 30
0.0
 10
331.6736738711289
 20
192.7516166878279
 30
0.0
 10
331.6424238503969
 20
192.8575949486974
 30
0.0
 10
331.5799238711289
 20
192.9065079921756
 30
0.0
  0
SPLINE
  5
D41
330
1F
100
AcDbEntity
  8
AM_VIS
100
AcDbSpline
210
0.0
220
0.0
230
1.0
 70
     8
 71
     3
 72
     8
 73
     4
 74
     0
 42
0.0000000001
 43
0.0000000001
 40
0.0
 40
0.0
 40
0.0
 40
0.0
 40
80.0
 40
80.0
 40
80.0
 40
80.0
 10
331.5799238711289
 20
192.9065079921756
 30
0.0
 10
331.5282934156142
 20
192.9445514497045
 30
0.0
 10
331.4141629808317
 20
192.9690079714436
 30
0.0
 10
331.2375325667811
 20
192.9798775573931
 30
0.0
  0
LINE
  5
D42
330
1F
100
AcDbEntity
  8
AM_VIS
100
AcDbLine
 10
331.2375325667811
 20
192.9798775573931
 30
0.0
 11
331.2375325667811
 21
193.0613992965235
 31
0.0
  0
LINE
  5
D43
330
1F
100
AcDbEntity
  8
AM_VIS
100
AcDbLine
 10
331.2375325667811
 20
193.0613992965235
 30
0.0
 11
332.3339999580855
 21
193.0613992965235
 31
0.0
  0
SPLINE
  5
D44
330
1F
100
AcDbEntity
  8
AM_VIS
100
AcDbSpline
210
0.0
220
0.0
230
1.0
 70
     8
 71
     3
 72
     8
 73
     4
 74
     0
 42
0.0000000001
 43
0.0000000001
 40
0.0
 40
0.0
 40
0.0
 40
0.0
 40
80.0
 40
80.0
 40
80.0
 40
80.0
 10
332.3339999580855
 20
193.0613992965235
 30
0.0
 10
333.0214999166213
 20
193.0613992965235
 30
0.0
 10
333.3652499580855
 20
192.8113992550594
 30
0.0
 10
333.3652499580855
 20
192.3113992965235
 30
0.0
  0
SPLINE
  5
D45
330
1F
100
AcDbEntity
  8
AM_VIS
100
AcDbSpline
210
0.0
220
0.0
230
1.0
 70
     8
 71
     3
 72
     8
 73
     4
 74
     0
 42
0.0000000001
 43
0.0000000001
 40
0.0
 40
0.0
 40
0.0
 40
0.0
 40
80.0
 40
80.0
 40
80.0
 40
80.0
 10
333.3652499580855
 20
192.3113992965235
 30
0.0
 10
333.3652499580855
 20
191.9744427540523
 30
0.0
 10
333.1682390470561
 20
191.7516166463638
 30
0.0
 10
332.7742173493899
 20
191.642921035654
 30
0.0
  0
LINE
  5
D46
330
1F
100
AcDbEntity
  8
AM_VIS
100
AcDbLine
 10
332.7742173493899
 20
191.6429210356539
 30
0.0
 11
332.8435108276506
 21
191.6266166878279
 31
0.0
  0
SPLINE
  5
D47
330
1F
100
AcDbEntity
  8
AM_VIS
100
AcDbSpline
210
0.0
220
0.0
230
1.0
 70
     8
 71
     3
 72
     8
 73
     4
 74
     0
 42
0.0000000001
 43
0.0000000001
 40
0.0
 40
0.0
 40
0.0
 40
0.0
 40
80.0
 40
80.0
 40
80.0
 40
80.0
 10
332.8435108276506
 20
191.6266166878279
 30
0.0
 10
333.2782933948823
 20
191.5233557767985
 30
0.0
 10
333.4956847406941
 20
191.2652036236176
 30
0.0
 10
333.4956847406941
 20
190.8521601660887
 30
0.0
  0
LINE
  5
D48
330
1F
100
AcDbEntity
  8
AM_VIS
100
AcDbLine
 10
306.8424938194547
 20
205.9748839427184
 30
0.0
 11
306.3378209222585
 21
207.4448438893139
 31
0.0
  0
LINE
  5
D49
330
1F
100
AcDbEntity
  8
AM_VIS
100
AcDbLine
 10
306.3378209222585
 20
207.4448438893139
 30
0.0
 11
305.8091159823385
 21
205.9748839427184
 31
0.0
  0
LINE
  5
D4A
330
1F
100
AcDbEntity
  8
AM_VIS
100
AcDbLine
 10
305.8091159823385
 20
205.9748839427184
 30
0.0
 11
306.8424938194547
 21
205.9748839427184
 31
0.0
  0
LINE
  5
D4B
330
1F
100
AcDbEntity
  8
AM_VIS
100
AcDbLine
 10
307.735684740683
 20
204.8613992965235
 30
0.0
 11
306.7864190530996
 21
204.8613992965235
 31
0.0
  0
LINE
  5
D4C
330
1F
100
AcDbEntity
  8
AM_VIS
100
AcDbLine
 10
306.7864190530996
 20
204.8613992965235
 30
0.0
 11
306.7864190530996
 21
204.9415061056022
 31
0.0
  0
SPLINE
  5
D4D
330
1F
100
AcDbEntity
  8
AM_VIS
100
AcDbSpline
210
0.0
220
0.0
230
1.0
 70
     8
 71
     3
 72
     8
 73
     4
 74
     0
 42
0.0000000001
 43
0.0000000001
 40
0.0
 40
0.0
 40
0.0
 40
0.0
 40
80.0
 40
80.0
 40
80.0
 40
80.0
 10
306.7864190530996
 20
204.9415061056022
 30
0.0
 10
306.890557904902
 20
204.9468466002853
 30
0.0
 10
306.9639891261853
 20
204.957527467418
 30
0.0
 10
307.0067127780662
 20
204.9735488292338
 30
0.0
  0
SPLINE
  5
D4E
330
1F
100
AcDbEntity
  8
AM_VIS
100
AcDbSpline
210
0.0
220
0.0
230
1.0
 70
     8
 71
     3
 72
     8
 73
     4
 74
     0
 42
0.0000000001
 43
0.0000000001
 40
0.0
 40
0.0
 40
0.0
 40
0.0
 40
80.0
 40
80.0
 40
80.0
 40
80.0
 10
307.0067127780662
 20
204.9735488292338
 30
0.0
 10
307.0734684115541
 20
205.0029213666404
 30
0.0
 10
307.1068462894146
 20
205.0589961329956
 30
0.0
 10
307.1068462894146
 20
205.1417731282992
 30
0.0
  0
SPLINE
  5
D4F
330
1F
100
AcDbEntity
  8
AM_VIS
100
AcDbSpline
210
0.0
220
0.0
230
1.0
 70
     8
 71
     3
 72
     8
 73
     4
 74
     0
 42
0.0000000001
 43
0.0000000001
 40
0.0
 40
0.0
 40
0.0
 40
0.0
 40
80.0
 40
80.0
 40
80.0
 40
80.0
 10
307.1068462894146
 20
205.1417731282992
 30
0.0
 10
307.1068462894146
 20
205.2085287617871
 30
0.0
 10
307.0841493398035
 20
205.3046569326816
 30
0.0
 10
307.0387555016976
 20
205.4301576409828
 30
0.0
  0
LINE
  5
D50
330
1F
100
AcDbEntity
  8
AM_VIS
100
AcDbLine
 10
307.0387555016976
 20
205.4301576409828
 30
0.0
 11
306.8945632453559
 21
205.8266863459226
 31
0.0
  0
LINE
  5
D51
330
1F
100
AcDbEntity
  8
AM_VIS
100
AcDbLine
 10
306.8945632453559
 20
205.8266863459226
 30
0.0
 11
305.773067918253
 21
205.8266863459226
 31
0.0
  0
LINE
  5
D52
330
1F
100
AcDbEntity
  8
AM_VIS
100
AcDbLine
 10
305.773067918253
 20
205.8266863459226
 30
0.0
 11
305.5728008955561
 21
205.3180081082725
 31
0.0
  0
SPLINE
  5
D53
330
1F
100
AcDbEntity
  8
AM_VIS
100
AcDbSpline
210
0.0
220
0.0
230
1.0
 70
     8
 71
     3
 72
     8
 73
     4
 74
     0
 42
0.0000000001
 43
0.0000000001
 40
0.0
 40
0.0
 40
0.0
 40
0.0
 40
80.0
 40
80.0
 40
80.0
 40
80.0
 10
305.5728008955561
 20
205.3180081082725
 30
0.0
 10
305.5514390390574
 20
205.2646035281423
 30
0.0
 10
305.5407581719247
 20
205.2058585755623
 30
0.0
 10
305.5407581719247
 20
205.1417731282992
 30
0.0
  0
SPLINE
  5
D54
330
1F
100
AcDbEntity
  8
AM_VIS
100
AcDbSpline
210
0.0
220
0.0
230
1.0
 70
     8
 71
     3
 72
     8
 73
     4
 74
     0
 42
0.0000000001
 43
0.0000000001
 40
0.0
 40
0.0
 40
0.0
 40
0.0
 40
80.0
 40
80.0
 40
80.0
 40
80.0
 10
305.5407581719247
 20
205.1417731282992
 30
0.0
 10
305.5407581719247
 20
205.0563258856541
 30
0.0
 10
305.5728008955561
 20
205.0002511192989
 30
0.0
 10
305.6368863428192
 20
204.9735488292338
 30
0.0
  0
SPLINE
  5
D55
330
1F
100
AcDbEntity
  8
AM_VIS
100
AcDbSpline
210
0.0
220
0.0
230
1.0
 70
     8
 71
     3
 72
     8
 73
     4
 74
     0
 42
0.0000000001
 43
0.0000000001
 40
0.0
 40
0.0
 40
0.0
 40
0.0
 40
80.0
 40
80.0
 40
80.0
 40
80.0
 10
305.6368863428192
 20
204.9735488292338
 30
0.0
 10
305.6662588191092
 20
204.957527467418
 30
0.0
 10
305.7223335854642
 20
204.9468466002853
 30
0.0
 10
305.8051106418846
 20
204.9415061056022
 30
0.0
  0
LINE
  5
D56
330
1F
100
AcDbEntity
  8
AM_VIS
100
AcDbLine
 10
305.8051106418846
 20
204.9415061056024
 30
0.0
 11
305.8051106418846
 21
204.8613992965235
 31
0.0
  0
LINE
  5
D57
330
1F
100
AcDbEntity
  8
AM_VIS
100
AcDbLine
 10
305.8051106418846
 20
204.8613992965235
 30
0.0
 11
305.0721333388138
 21
204.8613992965235
 31
0.0
  0
LINE
  5
D58
330
1F
100
AcDbEntity
  8
AM_VIS
100
AcDbLine
 10
305.0721333388138
 20
204.8613992965235
 30
0.0
 11
305.0721333388138
 21
204.9415061056022
 31
0.0
  0
LINE
  5
D59
330
1F
100
AcDbEntity
  8
AM_VIS
100
AcDbLine
 10
305.0722582595124
 20
204.9408568882226
 30
0.0
 11
305.1763949921109
 21
204.9608946040712
 31
0.0
  0
SPLINE
  5
D5A
330
1F
100
AcDbEntity
  8
AM_VIS
100
AcDbSpline
210
0.0
220
0.0
230
1.0
 70
     8
 71
     3
 72
     8
 73
     4
 74
     0
 42
0.0000000001
 43
0.0000000001
 40
0.0
 40
0.0
 40
0.0
 40
0.0
 40
80.0
 40
80.0
 40
80.0
 40
80.0
 10
305.1762721906162
 20
204.961532807872
 30
0.0
 10
305.2083148531311
 20
204.9695434887799
 30
0.0
 10
305.2390224836501
 20
204.992240438391
 30
0.0
 10
305.2683950210568
 20
205.029623595589
 30
0.0
  0
SPLINE
  5
D5B
330
1F
100
AcDbEntity
  8
AM_VIS
100
AcDbSpline
210
0.0
220
0.0
230
1.0
 70
     8
 71
     3
 72
     8
 73
     4
 74
     0
 42
0.0000000001
 43
0.0000000001
 40
0.0
 40
0.0
 40
0.0
 40
0.0
 40
80.0
 40
80.0
 40
80.0
 40
80.0
 10
305.2683950210568
 20
205.029623595589
 30
0.0
 10
305.3431613354525
 20
205.1257517053668
 30
0.0
 10
305.4406246605761
 20
205.3366996563132
 30
0.0
 10
305.5607848741943
 20
205.6624673873113
 30
0.0
  0
LINE
  5
D5C
330
1F
100
AcDbEntity
  8
AM_VIS
100
AcDbLine
 10
305.5607848741943
 20
205.6624673873113
 30
0.0
 11
306.3698636458899
 21
207.8613992965235
 31
0.0
  0
LINE
  5
D5D
330
1F
100
AcDbEntity
  8
AM_VIS
100
AcDbLine
 10
306.3698636458899
 20
207.8613992965235
 30
0.0
 11
306.3858850077057
 21
207.8613992965235
 31
0.0
  0
LINE
  5
D5E
330
1F
100
AcDbEntity
  8
AM_VIS
100
AcDbLine
 10
306.3858850077057
 20
207.8613992965235
 30
0.0
 11
307.3351506952891
 21
205.3340294700882
 31
0.0
  0
SPLINE
  5
D5F
330
1F
100
AcDbEntity
  8
AM_VIS
100
AcDbSpline
210
0.0
220
0.0
230
1.0
 70
     8
 71
     3
 72
     8
 73
     4
 74
     0
 42
0.0000000001
 43
0.0000000001
 40
0.0
 40
0.0
 40
0.0
 40
0.0
 40
80.0
 40
80.0
 40
80.0
 40
80.0
 10
307.3351506952891
 20
205.3340294700882
 30
0.0
 10
307.3938956478691
 20
205.1738158519307
 30
0.0
 10
307.4579810951321
 20
205.0656716596744
 30
0.0
 10
307.5274070370781
 20
205.0095968933192
 30
0.0
  0
SPLINE
  5
D60
330
1F
100
AcDbEntity
  8
AM_VIS
100
AcDbSpline
210
0.0
220
0.0
230
1.0
 70
     8
 71
     3
 72
     8
 73
     4
 74
     0
 42
0.0000000001
 43
0.0000000001
 40
0.0
 40
0.0
 40
0.0
 40
0.0
 40
80.0
 40
80.0
 40
80.0
 40
80.0
 10
307.5274070370781
 20
205.0095968933192
 30
0.0
 10
307.5674604416176
 20
204.9775541696878
 30
0.0
 10
307.636886322447
 20
204.9548572811932
 30
0.0
 10
307.735684740683
 20
204.9415061056022
 30
0.0
  0
LINE
  5
D61
330
1F
100
AcDbEntity
  8
AM_VIS
100
AcDbLine
 10
307.735684740683
 20
204.9415061056022
 30
0.0
 11
307.735684740683
 21
204.8613992965235
 31
0.0
  0
LINE
  5
D62
330
1F
100
AcDbEntity
  8
AM_VIS
100
AcDbLine
 10
340.0024938194546
 20
205.9748839427184
 30
0.0
 11
339.4978209222584
 21
207.4448438893139
 31
0.0
  0
LINE
  5
D63
330
1F
100
AcDbEntity
  8
AM_VIS
100
AcDbLine
 10
339.4978209222584
 20
207.4448438893139
 30
0.0
 11
338.9691159823386
 21
205.9748839427184
 31
0.0
  0
LINE
  5
D64
330
1F
100
AcDbEntity
  8
AM_VIS
100
AcDbLine
 10
338.9691159823385
 20
205.9748839427184
 30
0.0
 11
340.0024938194546
 21
205.9748839427184
 31
0.0
  0
LINE
  5
D65
330
1F
100
AcDbEntity
  8
AM_VIS
100
AcDbLine
 10
340.8956847406829
 20
204.8613992965235
 30
0.0
 11
339.9464190530995
 21
204.8613992965235
 31
0.0
  0
LINE
  5
D66
330
1F
100
AcDbEntity
  8
AM_VIS
100
AcDbLine
 10
339.9464190530995
 20
204.8613992965235
 30
0.0
 11
339.9464190530995
 21
204.9415061056022
 31
0.0
  0
SPLINE
  5
D67
330
1F
100
AcDbEntity
  8
AM_VIS
100
AcDbSpline
210
0.0
220
0.0
230
1.0
 70
     8
 71
     3
 72
     8
 73
     4
 74
     0
 42
0.0000000001
 43
0.0000000001
 40
0.0
 40
0.0
 40
0.0
 40
0.0
 40
80.0
 40
80.0
 40
80.0
 40
80.0
 10
339.9464190530995
 20
204.9415061056022
 30
0.0
 10
340.050557904902
 20
204.9468466002853
 30
0.0
 10
340.1239891261852
 20
204.957527467418
 30
0.0
 10
340.1667127780661
 20
204.9735488292338
 30
0.0
  0
SPLINE
  5
D68
330
1F
100
AcDbEntity
  8
AM_VIS
100
AcDbSpline
210
0.0
220
0.0
230
1.0
 70
     8
 71
     3
 72
     8
 73
     4
 74
     0
 42
0.0000000001
 43
0.0000000001
 40
0.0
 40
0.0
 40
0.0
 40
0.0
 40
80.0
 40
80.0
 40
80.0
 40
80.0
 10
340.1667127780661
 20
204.9735488292338
 30
0.0
 10
340.233468411554
 20
205.0029213666404
 30
0.0
 10
340.2668462894145
 20
205.0589961329956
 30
0.0
 10
340.2668462894145
 20
205.1417731282992
 30
0.0
  0
SPLINE
  5
D69
330
1F
100
AcDbEntity
  8
AM_VIS
100
AcDbSpline
210
0.0
220
0.0
230
1.0
 70
     8
 71
     3
 72
     8
 73
     4
 74
     0
 42
0.0000000001
 43
0.0000000001
 40
0.0
 40
0.0
 40
0.0
 40
0.0
 40
80.0
 40
80.0
 40
80.0
 40
80.0
 10
340.2668462894145
 20
205.1417731282992
 30
0.0
 10
340.2668462894145
 20
205.2085287617871
 30
0.0
 10
340.2441493398034
 20
205.3046569326816
 30
0.0
 10
340.1987555016977
 20
205.4301576409828
 30
0.0
  0
LINE
  5
D6A
330
1F
100
AcDbEntity
  8
AM_VIS
100
AcDbLine
 10
340.1987555016977
 20
205.4301576409828
 30
0.0
 11
340.0545632453559
 21
205.8266863459226
 31
0.0
  0
ARC
  5
D6B
330
1F
100
AcDbEntity
  8
AM_4
100
AcDbCircle
 10
309.7356847406945
 20
191.5613992965235
 30
0.0
 40
4.863999999999999
100
AcDbArc
 50
350.0000000000014
 51
259.9999999999982
  0
LINE
  5
D6C
330
1F
100
AcDbEntity
  8
AM_7
  6
AM_ISO08W050x2
100
AcDbLine
 10
302.8716847406946
 20
191.5613992965235
 30
0.0
 11
316.5996847406945
 21
191.5613992965235
 31
0.0
  0
CIRCLE
  5
D6D
330
1F
100
AcDbEntity
  8
AM_0
100
AcDbCircle
 10
309.7356847406945
 20
191.5613992965235
 30
0.0
 40
4.283
  0
LINE
  5
D6E
330
1F
100
AcDbEntity
  8
AM_7
  6
AM_ISO08W050x2
100
AcDbLine
 10
309.7356847406945
 20
184.6973992965235
 30
0.0
 11
309.7356847406945
 21
198.4253992965235
 31
0.0
  0
ARC
  5
D6F
330
1F
100
AcDbEntity
  8
AM_4
100
AcDbCircle
 10
322.2356847406945
 20
191.5613992965235
 30
0.0
 40
4.863999999999999
100
AcDbArc
 50
350.0000000000014
 51
259.9999999999982
  0
LINE
  5
D70
330
1F
100
AcDbEntity
  8
AM_7
  6
AM_ISO08W050x2
100
AcDbLine
 10
315.3716847406946
 20
191.5613992965235
 30
0.0
 11
329.0996847406945
 21
191.5613992965235
 31
0.0
  0
CIRCLE
  5
D71
330
1F
100
AcDbEntity
  8
AM_0
100
AcDbCircle
 10
322.2356847406945
 20
191.5613992965235
 30
0.0
 40
4.283
  0
LINE
  5
D72
330
1F
100
AcDbEntity
  8
AM_7
  6
AM_ISO08W050x2
100
AcDbLine
 10
322.2356847406945
 20
184.6973992965235
 30
0.0
 11
322.2356847406945
 21
198.4253992965235
 31
0.0
  0
ARC
  5
D73
330
1F
100
AcDbEntity
  8
AM_4
100
AcDbCircle
 10
316.7356847406945
 20
206.3613992965236
 30
0.0
 40
4.863999999999999
100
AcDbArc
 50
350.0000000000014
 51
259.9999999999982
  0
LINE
  5
D74
330
1F
100
AcDbEntity
  8
AM_7
  6
AM_ISO08W050x2
100
AcDbLine
 10
309.8716847406945
 20
206.3613992965236
 30
0.0
 11
323.5996847406945
 21
206.3613992965236
 31
0.0
  0
CIRCLE
  5
D75
330
1F
100
AcDbEntity
  8
AM_0
100
AcDbCircle
 10
316.7356847406945
 20
206.3613992965236
 30
0.0
 40
4.283
  0
LINE
  5
D76
330
1F
100
AcDbEntity
  8
AM_7
  6
AM_ISO08W050x2
100
AcDbLine
 10
316.7356847406945
 20
199.4973992965235
 30
0.0
 11
316.7356847406945
 21
213.2253992965235
 31
0.0
  0
ARC
  5
D77
330
1F
100
AcDbEntity
  8
AM_4
100
AcDbCircle
 10
329.2356847406945
 20
206.3613992965236
 30
0.0
 40
4.863999999999999
100
AcDbArc
 50
350.0000000000014
 51
259.9999999999982
  0
LINE
  5
D78
330
1F
100
AcDbEntity
  8
AM_7
  6
AM_ISO08W050x2
100
AcDbLine
 10
322.3716847406945
 20
206.3613992965236
 30
0.0
 11
336.0996847406945
 21
206.3613992965236
 31
0.0
  0
CIRCLE
  5
D79
330
1F
100
AcDbEntity
  8
AM_0
100
AcDbCircle
 10
329.2356847406945
 20
206.3613992965236
 30
0.0
 40
4.283
  0
LINE
  5
D7A
330
1F
100
AcDbEntity
  8
AM_7
  6
AM_ISO08W050x2
100
AcDbLine
 10
329.2356847406945
 20
199.4973992965235
 30
0.0
 11
329.2356847406945
 21
213.2253992965235
 31
0.0
  0
ARC
  5
D7B
330
1F
100
AcDbEntity
  8
AM_4
100
AcDbCircle
 10
400.1850879793816
 20
311.74504686805
 30
0.0
 40
4.863999999999999
100
AcDbArc
 50
350.0000000000014
 51
259.9999999999982
  0
LINE
  5
D7C
330
1F
100
AcDbEntity
  8
AM_7
  6
AM_ISO08W050x2
100
AcDbLine
 10
393.3210879793817
 20
311.74504686805
 30
0.0
 11
407.0490879793816
 21
311.74504686805
 31
0.0
  0
CIRCLE
  5
D7D
330
1F
100
AcDbEntity
  8
AM_0
100
AcDbCircle
 10
400.1850879793816
 20
311.74504686805
 30
0.0
 40
4.283
  0
LINE
  5
D7E
330
1F
100
AcDbEntity
  8
AM_7
  6
AM_ISO08W050x2
100
AcDbLine
 10
400.1850879793816
 20
304.8810468680499
 30
0.0
 11
400.1850879793816
 21
318.6090468680498
 31
0.0
  0
ARC
  5
D7F
330
1F
100
AcDbEntity
  8
AM_4
100
AcDbCircle
 10
407.1850879793816
 20
295.7450468680499
 30
0.0
 40
4.863999999999999
100
AcDbArc
 50
350.0000000000014
 51
259.9999999999982
  0
LINE
  5
D80
330
1F
100
AcDbEntity
  8
AM_7
  6
AM_ISO08W050x2
100
AcDbLine
 10
400.3210879793817
 20
295.7450468680499
 30
0.0
 11
414.0490879793817
 21
295.7450468680499
 31
0.0
  0
CIRCLE
  5
D81
330
1F
100
AcDbEntity
  8
AM_0
100
AcDbCircle
 10
407.1850879793816
 20
295.7450468680499
 30
0.0
 40
4.283
  0
LINE
  5
D82
330
1F
100
AcDbEntity
  8
AM_7
  6
AM_ISO08W050x2
100
AcDbLine
 10
407.1850879793816
 20
288.8810468680499
 30
0.0
 11
407.1850879793816
 21
302.6090468680499
 31
0.0
  0
ARC
  5
D83
330
1F
100
AcDbEntity
  8
AM_4
100
AcDbCircle
 10
400.1850879793816
 20
279.7450468680499
 30
0.0
 40
4.863999999999999
100
AcDbArc
 50
350.0000000000014
 51
259.9999999999982
  0
LINE
  5
D84
330
1F
100
AcDbEntity
  8
AM_7
  6
AM_ISO08W050x2
100
AcDbLine
 10
393.3210879793817
 20
279.7450468680499
 30
0.0
 11
407.0490879793816
 21
279.7450468680499
 31
0.0
  0
CIRCLE
  5
D85
330
1F
100
AcDbEntity
  8
AM_0
100
AcDbCircle
 10
400.1850879793816
 20
279.7450468680499
 30
0.0
 40
4.283
  0
LINE
  5
D86
330
1F
100
AcDbEntity
  8
AM_7
  6
AM_ISO08W050x2
100
AcDbLine
 10
400.1850879793816
 20
272.8810468680499
 30
0.0
 11
400.1850879793816
 21
286.6090468680499
 31
0.0
  0
LINE
  5
D87
330
1F
100
AcDbEntity
  8
AM_7
  6
AM_ISO08W050x2
100
AcDbLine
 10
308.9356847406945
 20
281.5450468680499
 30
0.0
 11
308.9356847406945
 21
283.3512135347167
 31
0.0
1001
GENIUS_GENOREF_13
1005
E57
  0
LINE
  5
D88
330
1F
100
AcDbEntity
  8
AM_7
  6
AM_ISO08W050x2
100
AcDbLine
 10
308.9356847406945
 20
281.5450468680499
 30
0.0
 11
307.1295180740278
 21
281.5450468680499
 31
0.0
1001
GENIUS_GENOREF_13
1005
E57
  0
LINE
  5
D89
330
1F
100
AcDbEntity
  8
AM_7
  6
AM_ISO08W050x2
100
AcDbLine
 10
308.9356847406945
 20
281.5450468680499
 30
0.0
 11
308.9356847406945
 21
279.7388802013831
 31
0.0
1001
GENIUS_GENOREF_13
1005
E57
  0
LINE
  5
D8A
330
1F
100
AcDbEntity
  8
AM_7
  6
AM_ISO08W050x2
100
AcDbLine
 10
308.9356847406945
 20
281.5450468680499
 30
0.0
 11
310.7418514073611
 21
281.5450468680499
 31
0.0
1001
GENIUS_GENOREF_13
1005
E57
  0
LINE
  5
D8B
330
1F
100
AcDbEntity
  8
AM_7
  6
AM_ISO08W050x2
100
AcDbLine
 10
317.5356847406945
 20
302.9450468680499
 30
0.0
 11
317.5356847406945
 21
304.7512135347165
 31
0.0
1001
GENIUS_GENOREF_13
1005
E56
  0
LINE
  5
D8C
330
1F
100
AcDbEntity
  8
AM_7
  6
AM_ISO08W050x2
100
AcDbLine
 10
317.5356847406945
 20
302.9450468680499
 30
0.0
 11
315.7295180740279
 21
302.9450468680499
 31
0.0
1001
GENIUS_GENOREF_13
1005
E56
  0
LINE
  5
D8D
330
1F
100
AcDbEntity
  8
AM_7
  6
AM_ISO08W050x2
100
AcDbLine
 10
317.5356847406945
 20
302.9450468680499
 30
0.0
 11
317.5356847406945
 21
301.1388802013832
 31
0.0
1001
GENIUS_GENOREF_13
1005
E56
  0
LINE
  5
D8E
330
1F
100
AcDbEntity
  8
AM_7
  6
AM_ISO08W050x2
100
AcDbLine
 10
317.5356847406945
 20
302.9450468680499
 30
0.0
 11
319.3418514073611
 21
302.9450468680499
 31
0.0
1001
GENIUS_GENOREF_13
1005
E56
  0
LINE
  5
D8F
330
1F
100
AcDbEntity
  8
AM_7
  6
AM_ISO08W050x2
100
AcDbLine
 10
330.0356847406945
 20
302.9450468680499
 30
0.0
 11
330.0356847406945
 21
304.7512135347165
 31
0.0
1001
GENIUS_GENOREF_13
1005
E55
  0
LINE
  5
D90
330
1F
100
AcDbEntity
  8
AM_7
  6
AM_ISO08W050x2
100
AcDbLine
 10
330.0356847406945
 20
302.9450468680499
 30
0.0
 11
328.2295180740278
 21
302.9450468680499
 31
0.0
1001
GENIUS_GENOREF_13
1005
E55
  0
LINE
  5
D91
330
1F
100
AcDbEntity
  8
AM_7
  6
AM_ISO08W050x2
100
AcDbLine
 10
330.0356847406945
 20
302.9450468680499
 30
0.0
 11
330.0356847406945
 21
301.1388802013832
 31
0.0
1001
GENIUS_GENOREF_13
1005
E55
  0
LINE
  5
D92
330
1F
100
AcDbEntity
  8
AM_7
  6
AM_ISO08W050x2
100
AcDbLine
 10
330.0356847406945
 20
302.9450468680499
 30
0.0
 11
331.8418514073611
 21
302.9450468680499
 31
0.0
1001
GENIUS_GENOREF_13
1005
E55
  0
LINE
  5
D93
330
1F
100
AcDbEntity
  8
AM_7
  6
AM_ISO08W050x2
100
AcDbLine
 10
321.4356847406945
 20
281.5450468680499
 30
0.0
 11
321.4356847406945
 21
283.3512135347167
 31
0.0
1001
GENIUS_GENOREF_13
1005
E54
  0
LINE
  5
D94
330
1F
100
AcDbEntity
  8
AM_7
  6
AM_ISO08W050x2
100
AcDbLine
 10
321.4356847406945
 20
281.5450468680499
 30
0.0
 11
319.6295180740278
 21
281.5450468680499
 31
0.0
1001
GENIUS_GENOREF_13
1005
E54
  0
LINE
  5
D95
330
1F
100
AcDbEntity
  8
AM_7
  6
AM_ISO08W050x2
100
AcDbLine
 10
321.4356847406945
 20
281.5450468680499
 30
0.0
 11
321.4356847406945
 21
279.7388802013831
 31
0.0
1001
GENIUS_GENOREF_13
1005
E54
  0
LINE
  5
D96
330
1F
100
AcDbEntity
  8
AM_7
  6
AM_ISO08W050x2
100
AcDbLine
 10
321.4356847406945
 20
281.5450468680499
 30
0.0
 11
323.2418514073611
 21
281.5450468680499
 31
0.0
1001
GENIUS_GENOREF_13
1005
E54
  0
LINE
  5
D97
330
1F
100
AcDbEntity
  8
AM_7
  6
AM_ISO08W050x2
100
AcDbLine
 10
338.2356847406945
 20
287.7450468680499
 30
0.0
 11
338.2356847406945
 21
291.3283802013832
 31
0.0
1001
GENIUS_GENOREF_13
1005
E53
  0
LINE
  5
D98
330
1F
100
AcDbEntity
  8
AM_7
  6
AM_ISO08W050x2
100
AcDbLine
 10
338.2356847406945
 20
287.7450468680499
 30
0.0
 11
334.6523514073612
 21
287.7450468680499
 31
0.0
1001
GENIUS_GENOREF_13
1005
E53
  0
LINE
  5
D99
102
{ACAD_REACTORS
330
DB9
102
}
330
1F
100
AcDbEntity
  8
AM_7
  6
AM_ISO08W050x2
100
AcDbLine
 10
338.2356847406945
 20
287.7450468680499
 30
0.0
 11
338.2356847406945
 21
284.1617135347166
 31
0.0
1001
GENIUS_GENOREF_13
1005
E53
  0
LINE
  5
D9A
102
{ACAD_REACTORS
330
DC9
102
}
330
1F
100
AcDbEntity
  8
AM_7
  6
AM_ISO08W050x2
100
AcDbLine
 10
338.2356847406945
 20
287.7450468680499
 30
0.0
 11
341.8190180740278
 21
287.7450468680499
 31
0.0
1001
GENIUS_GENOREF_13
1005
E53
  0
LINE
  5
D9B
330
1F
100
AcDbEntity
  8
AM_7
  6
AM_ISO08W050x2
100
AcDbLine
 10
338.2356847406945
 20
303.7450468680499
 30
0.0
 11
338.2356847406945
 21
307.3283802013832
 31
0.0
1001
GENIUS_GENOREF_13
1005
E52
  0
LINE
  5
D9C
330
1F
100
AcDbEntity
  8
AM_7
  6
AM_ISO08W050x2
100
AcDbLine
 10
338.2356847406945
 20
303.7450468680499
 30
0.0
 11
334.6523514073611
 21
303.7450468680499
 31
0.0
1001
GENIUS_GENOREF_13
1005
E52
  0
LINE
  5
D9D
330
1F
100
AcDbEntity
  8
AM_7
  6
AM_ISO08W050x2
100
AcDbLine
 10
338.2356847406945
 20
303.7450468680499
 30
0.0
 11
338.2356847406945
 21
300.1617135347166
 31
0.0
1001
GENIUS_GENOREF_13
1005
E52
  0
LINE
  5
D9E
102
{ACAD_REACTORS
330
DC9
102
}
330
1F
100
AcDbEntity
  8
AM_7
  6
AM_ISO08W050x2
100
AcDbLine
 10
338.2356847406945
 20
303.7450468680499
 30
0.0
 11
341.8190180740278
 21
303.7450468680499
 31
0.0
1001
GENIUS_GENOREF_13
1005
E52
  0
LINE
  5
D9F
330
1F
100
AcDbEntity
  8
AM_7
  6
AM_ISO08W050x2
100
AcDbLine
 10
298.7356847406945
 20
303.7450468680499
 30
0.0
 11
298.7356847406945
 21
307.3283802013832
 31
0.0
1001
GENIUS_GENOREF_13
1005
E51
  0
LINE
  5
DA0
330
1F
100
AcDbEntity
  8
AM_7
  6
AM_ISO08W050x2
100
AcDbLine
 10
298.7356847406945
 20
303.7450468680499
 30
0.0
 11
295.1523514073612
 21
303.7450468680499
 31
0.0
1001
GENIUS_GENOREF_13
1005
E51
  0
LINE
  5
DA1
330
1F
100
AcDbEntity
  8
AM_7
  6
AM_ISO08W050x2
100
AcDbLine
 10
298.7356847406945
 20
303.7450468680499
 30
0.0
 11
298.7356847406945
 21
300.1617135347166
 31
0.0
1001
GENIUS_GENOREF_13
1005
E51
  0
LINE
  5
DA2
330
1F
100
AcDbEntity
  8
AM_7
  6
AM_ISO08W050x2
100
AcDbLine
 10
298.7356847406945
 20
303.7450468680499
 30
0.0
 11
302.3190180740278
 21
303.7450468680499
 31
0.0
1001
GENIUS_GENOREF_13
1005
E51
  0
LINE
  5
DA3
330
1F
100
AcDbEntity
  8
AM_7
  6
AM_ISO08W050x2
100
AcDbLine
 10
298.7356847406945
 20
287.7450468680499
 30
0.0
 11
298.7356847406945
 21
291.3283802013832
 31
0.0
1001
GENIUS_GENOREF_13
1005
E50
  0
LINE
  5
DA4
330
1F
100
AcDbEntity
  8
AM_7
  6
AM_ISO08W050x2
100
AcDbLine
 10
298.7356847406945
 20
287.7450468680499
 30
0.0
 11
295.1523514073612
 21
287.7450468680499
 31
0.0
1001
GENIUS_GENOREF_13
1005
E50
  0
LINE
  5
DA5
102
{ACAD_REACTORS
330
DB9
102
}
330
1F
100
AcDbEntity
  8
AM_7
  6
AM_ISO08W050x2
100
AcDbLine
 10
298.7356847406945
 20
287.7450468680499
 30
0.0
 11
298.7356847406945
 21
284.1617135347166
 31
0.0
1001
GENIUS_GENOREF_13
1005
E50
  0
LINE
  5
DA6
330
1F
100
AcDbEntity
  8
AM_7
  6
AM_ISO08W050x2
100
AcDbLine
 10
298.7356847406945
 20
287.7450468680499
 30
0.0
 11
302.3190180740278
 21
287.7450468680499
 31
0.0
1001
GENIUS_GENOREF_13
1005
E50
  0
TEXT
  5
DA7
330
1F
100
AcDbEntity
  8
0
100
AcDbText
 10
339.8613596596526
 20
294.4288360394871
 30
0.0
 40
3.0
  1
P
 50
90.0
  7
標楷體
100
AcDbText
  0
LINE
  5
DA8
330
1F
100
AcDbEntity
  8
AM_7
100
AcDbLine
 10
344.2356847406945
 20
295.7450468680499
 30
0.0
 11
292.7356847406946
 21
295.7450468680499
 31
0.0
1001
GENIUS_GENODEF_13
1002
{
1000
HIER
1070
     0
1002
}
1002
{
1000
MANEDIT
1070
     0
1002
}
1002
{
1000
NOSEL
1070
     0
1002
}
1002
{
1000
BEHIND
1070
     0
1002
}
1002
{
1000
OTHER
1070
     0
1002
}
1002
{
1000
REACTOR
1002
}
1001
GENIUS_GENOBJ-N-CEN_13
1002
{
1000
OWNER
1000
GEN
1002
}
1001
GENIUS_GENCEN_19
1002
{
1040
2.0
1002
}
  0
TEXT
  5
DA9
330
1F
100
AcDbEntity
  8
0
100
AcDbText
 10
339.8613596596526
 20
309.4347152996727
 30
0.0
 40
3.0
  1
R1
 50
90.0
  7
標楷體
100
AcDbText
  0
TEXT
  5
DAA
330
1F
100
AcDbEntity
  8
0
100
AcDbText
 10
339.8613596596526
 20
277.5128795893774
 30
0.0
 40
3.0
  1
R2
 50
90.0
  7
標楷體
100
AcDbText
  0
TEXT
  5
DAB
330
1F
100
AcDbEntity
  8
0
100
AcDbText
 10
297.1317930404758
 20
296.8504208497593
 30
0.0
 40
3.0
  1
P
 50
270.0
  7
標楷體
100
AcDbText
  0
TEXT
  5
DAC
330
1F
100
AcDbEntity
  8
0
100
AcDbText
 10
297.1317930404758
 20
281.8678203365612
 30
0.0
 40
3.0
  1
R2
 50
270.0
  7
標楷體
100
AcDbText
  0
TEXT
  5
DAD
330
1F
100
AcDbEntity
  8
0
100
AcDbText
 10
297.1317930404758
 20
313.9117527811529
 30
0.0
 40
3.0
  1
R1
 50
270.0
  7
標楷體
100
AcDbText
  0
LINE
  5
DAE
330
1F
100
AcDbEntity
  8
AM_7
100
AcDbLine
 10
313.2356847406945
 20
268.1957494086623
 30
0.0
 11
313.2356847406945
 21
317.1901726176545
 31
0.0
1001
GENIUS_GENOBJ-N-CEN_13
1002
{
1000
OWNER
1000
GEN
1002
}
1001
GENIUS_GENODEF_13
1002
{
1000
HIER
1070
     0
1002
}
1002
{
1000
MANEDIT
1070
     0
1002
}
1002
{
1000
NOSEL
1070
     0
1002
}
1002
{
1000
BEHIND
1070
     0
1002
}
1002
{
1000
OTHER
1070
     0
1002
}
1002
{
1000
REACTOR
1002
}
1001
GENIUS_GENCEN_19
1002
{
1040
2.0
1002
}
  0
LINE
  5
DAF
330
1F
100
AcDbEntity
  8
AM_7
100
AcDbLine
 10
325.7356847406945
 20
268.1957494086623
 30
0.0
 11
325.7356847406945
 21
317.1901726176545
 31
0.0
1001
GENIUS_GENOBJ-N-CEN_13
1002
{
1000
OWNER
1000
GEN
1002
}
1001
GENIUS_GENODEF_13
1002
{
1000
HIER
1070
     0
1002
}
1002
{
1000
MANEDIT
1070
     0
1002
}
1002
{
1000
NOSEL
1070
     0
1002
}
1002
{
1000
BEHIND
1070
     0
1002
}
1002
{
1000
OTHER
1070
     0
1002
}
1002
{
1000
REACTOR
1002
}
1001
GENIUS_GENCEN_19
1002
{
1040
2.0
1002
}
  0
TEXT
  5
DB0
330
1F
100
AcDbEntity
  8
AM_5
100
AcDbText
 10
334.5211377097978
 20
174.6118867056563
 30
0.0
 40
3.5
  1
Nx2-PT1/8
100
AcDbText
  0
TEXT
  5
DB1
330
1F
100
AcDbEntity
  8
AM_5
100
AcDbText
 10
410.7073115320636
 20
328.2210587858542
 30
0.0
 40
3.5
  1
3-PT1/8
100
AcDbText
  0
LINE
  5
DB3
330
1F
100
AcDbEntity
  8
SL
  6
ACISOTGB
 62
     4
100
AcDbLine
 10
319.6356847406944
 20
221.7479624061969
 30
0.0
 11
319.6356847406944
 21
325.1430226594416
 31
0.0
  0
DIMENSION
  5
DB4
102
{ACAD_XDICTIONARY
360
DB5
102
}
102
{ACAD_REACTORS
330
DB6
102
}
330
1F
100
AcDbEntity
  8
AM_5
100
AcDbDimension
  2
*D5
 10
294.7356847406946
 20
243.1450468680499
 30
0.0
 11
318.4856847406945
 21
245.5950468680499
 31
0.0
 70
    32
  1
L
 71
     5
 42
47.49999999999988
  3
AM_ISO$0
100
AcDbAlignedDimension
 13
342.2356847406945
 23
263.1450468680499
 33
0.0
 14
294.7356847406946
 24
263.1450468680499
 34
0.0
 50
180.0
100
AcDbRotatedDimension
1001
ACAD
1000
DSTYLE
1002
{
1070
    40
1040
1.0
1070
   144
1040
1.0
1070
   272
1070
     8
1002
}
  0
DIMENSION
  5
DB7
102
{ACAD_XDICTIONARY
360
DB8
102
}
102
{ACAD_REACTORS
330
DB9
102
}
330
1F
100
AcDbEntity
  8
AM_5
100
AcDbDimension
  2
*D6
 10
298.7356847406945
 20
251.1450468680499
 30
0.0
 11
318.4856847406944
 21
253.5950468680499
 31
0.0
 70
    32
  1
P
 71
     5
 42
39.5
  3
AM_ISO$0
100
AcDbAlignedDimension
 13
338.2356847406945
 23
284.1617135347166
 33
0.0
 14
298.7356847406945
 24
284.1617135347166
 34
0.0
 50
180.0
100
AcDbRotatedDimension
1001
ACAD
1000
DSTYLE
1002
{
1070
    40
1040
1.0
1070
   144
1040
1.0
1070
   272
1070
     8
1002
}
  0
INSERT
  5
DBA
330
1F
100
AcDbEntity
  8
0
100
AcDbBlockReference
  2
A$C31CA2D34
 10
342.2356847406945
 20
318.9450468680499
 30
0.0
  0
LINE
  5
DBB
330
1F
100
AcDbEntity
  8
SL
  6
ACISOTGB
 62
     4
100
AcDbLine
 10
322.9856847406945
 20
198.9613992965235
 30
0.0
 11
322.9856847406945
 21
221.7479624061969
 31
0.0
  0
LINE
  5
DBC
330
1F
100
AcDbEntity
  8
SL
  6
ACISOTGB
 62
     4
100
AcDbLine
 10
322.9856847406945
 20
221.7479624061969
 30
0.0
 11
319.6356847406944
 21
221.7479624061969
 31
0.0
  0
LINE
  5
DBD
330
1F
100
AcDbEntity
  8
SL
  6
ACISOTGB
 62
     4
100
AcDbLine
 10
315.9856847406945
 20
198.9613992965235
 30
0.0
 11
322.9856847406945
 21
198.9613992965235
 31
0.0
  0
LINE
  5
DBE
330
1F
100
AcDbEntity
  8
SL
  6
ACISOTGB
 62
     4
100
AcDbLine
 10
315.9856847406945
 20
171.303047644763
 30
0.0
 11
315.9856847406945
 21
198.9613992965235
 31
0.0
  0
DIMENSION
  5
DBF
102
{ACAD_XDICTIONARY
360
DC0
102
}
102
{ACAD_REACTORS
330
DC1
102
}
330
1F
100
AcDbEntity
  8
AM_5
100
AcDbDimension
  2
*D7
 10
415.1850879793816
 20
251.1450468680499
 30
0.0
 11
399.1850879793816
 21
253.5953913562389
 31
0.0
 70
    32
 71
     5
 42
32.0
  3
AM_ISO$0
100
AcDbAlignedDimension
 13
383.1850879793817
 23
271.1450468680499
 33
0.0
 14
415.1850879793816
 24
263.1450468680499
 34
0.0
100
AcDbRotatedDimension
1001
ACAD
1000
DSTYLE
1002
{
1070
    40
1040
1.0
1070
   144
1040
1.0
1070
   272
1070
     8
1002
}
  0
DIMENSION
  5
DC2
102
{ACAD_XDICTIONARY
360
DC3
102
}
102
{ACAD_REACTORS
330
DC4
102
}
330
1F
100
AcDbEntity
  8
AM_5
100
AcDbDimension
  2
*D8
 10
427.1850879793816
 20
263.1450468680499
 30
0.0
 11
424.7350879793816
 21
291.04504686805
 31
0.0
 70
    32
 71
     5
 42
55.79999999999995
  3
AM_ISO$0
100
AcDbAlignedDimension
 13
415.1850879793816
 23
318.9450468680499
 33
0.0
 14
415.1850879793816
 24
263.1450468680499
 34
0.0
 50
90.0
100
AcDbRotatedDimension
1001
ACAD
1000
DSTYLE
1002
{
1070
    40
1040
1.0
1070
   144
1040
1.0
1070
   272
1070
     8
1002
}
  0
TEXT
  5
DC5
330
1F
100
AcDbEntity
  8
AM_5
100
AcDbText
 10
352.7886669601008
 20
328.2210587858542
 30
0.0
 40
3.5
  1
2x2-%%C4.5
100
AcDbText
  0
DIMENSION
  5
DC7
102
{ACAD_XDICTIONARY
360
DC8
102
}
102
{ACAD_REACTORS
330
DC9
102
}
330
1F
100
AcDbEntity
  8
AM_5
100
AcDbDimension
  2
*D9
 10
354.2356857406945
 20
303.7450468680499
 30
0.0
 11
351.7856857406944
 21
295.74504686805
 31
0.0
 70
    32
 71
     5
 42
16.0
  3
AM_ISO$0
100
AcDbAlignedDimension
 13
341.8190180740278
 23
287.7450468680499
 33
0.0
 14
341.8190180740278
 24
303.7450468680499
 34
0.0
 50
90.0
100
AcDbRotatedDimension
1001
ACAD
1000
DSTYLE
1002
{
1070
    40
1040
1.0
1070
   144
1040
1.0
1070
   272
1070
     8
1002
}
  0
LINE
  5
DCA
330
1F
100
AcDbEntity
  8
LOGO
 62
     4
100
AcDbLine
 10
219.2215023942278
 20
132.0367737565013
 30
0.0
 11
219.2215023942278
 21
156.0332986433793
 31
0.0
  0
TEXT
  5
DCB
330
1F
100
AcDbEntity
  8
LOGO
  6
Continuous
100
AcDbText
 10
175.0488072489294
 20
136.750854856615
 30
0.0
 40
3.599478733031673
  1
金器工業股份有限公司
  7
CHINESET
100
AcDbText
  0
TEXT
  5
DCC
330
1F
100
AcDbEntity
  8
LOGO
  6
Continuous
100
AcDbText
 10
168.4372769380995
 20
133.1506709079617
 30
0.0
 40
2.399652488687782
  1
MINDMAN INDUSTRIAL CO., LTD.
 41
0.85
  7
CHINESET
100
AcDbText
  0
LINE
  5
DCD
330
1F
100
AcDbEntity
  8
LOGO
 62
     4
100
AcDbLine
 10
219.2215023942278
 20
151.2339936660037
 30
0.0
 11
184.0265992268068
 21
151.2339936660037
 31
0.0
  0
LINE
  5
DCE
330
1F
100
AcDbEntity
  8
LOGO
 62
     4
100
AcDbLine
 10
219.2215023942278
 20
146.4346886886281
 30
0.0
 11
184.0265992268068
 21
146.4346886886281
 31
0.0
  0
LINE
  5
DCF
330
1F
100
AcDbEntity
  8
LOGO
 62
     4
100
AcDbLine
 10
219.2215023942278
 20
141.6353837112528
 30
0.0
 11
166.4291476430965
 21
141.6353837112528
 31
0.0
  0
LINE
  5
DD0
330
1F
100
AcDbEntity
  8
LOGO
 62
     4
100
AcDbLine
 10
184.0265992268068
 20
141.6353837112528
 30
0.0
 11
184.0265992268068
 21
156.0332986433793
 31
0.0
  0
TEXT
  5
DD1
330
1F
100
AcDbEntity
  8
LOGO
100
AcDbText
 10
208.0806543676124
 20
142.8352099555963
 30
0.0
 40
2.399652488687782
  1
mm
  7
CHINESET
 72
     1
 11
211.0516526869401
 21
144.0350361999402
 31
0.0
100
AcDbText
 73
     2
  0
TEXT
  5
DD2
330
1F
100
AcDbEntity
  8
LOGO
100
AcDbText
 10
206.8236935402045
 20
152.4338199103475
 30
0.0
 40
2.399652488687782
  1
1 : 1
  7
CHINESET
 72
     1
 11
211.0516526869401
 21
153.6336461546914
 31
0.0
100
AcDbText
 73
     2
  0
LINE
  5
DD3
330
1F
100
AcDbEntity
  8
LOGO
 62
     4
100
AcDbLine
 10
203.2238191363092
 20
141.6353837112528
 30
0.0
 11
203.2238191363092
 21
156.0332986433793
 31
0.0
  0
TEXT
  5
DD4
330
1F
100
AcDbEntity
  8
LOGO
100
AcDbText
 10
186.0052412565418
 20
152.4350008416903
 30
157.2692709120597
 40
2.399652488687782
  1
比例 Scale:
 41
0.9
  7
CHINESET
 72
     4
 11
193.625209181558
 21
153.6336461546914
 31
157.2692709120597
100
AcDbText
  0
TEXT
  5
DD5
330
1F
100
AcDbEntity
  8
LOGO
100
AcDbText
 10
185.8670469837558
 20
147.6682698871886
 30
157.2692709120597
 40
2.399652488687782
  1
投影  View:
 41
0.9
  7
CHINESET
 72
     4
 11
193.625209181558
 21
148.8343411773158
 31
157.2692709120597
100
AcDbText
  0
TEXT
  5
DD6
330
1F
100
AcDbEntity
  8
LOGO
100
AcDbText
 10
186.1016558654623
 20
142.8352099555963
 30
157.2692709120597
 40
2.399652488687782
  1
單位  Unit:
 41
0.9
  7
CHINESET
 72
     4
 11
193.625209181558
 21
144.0350361999402
 31
157.2692709120597
100
AcDbText
  0
LWPOLYLINE
  5
DD7
330
1F
100
AcDbEntity
  8
LOGO
 62
     4
100
AcDbPolyline
 90
        4
 70
     1
 43
0.0
 10
166.4291476430965
 20
156.0332986433793
 10
496.4291476430965
 20
156.0332986433793
 10
496.4291476430965
 20
372.0367737565009
 10
166.4291476430965
 20
372.0367737565009
1001
GENIUS_GENREC_14
1002
{
1000
PYDIR
1011
166.4291476430965
1021
372.0367737565009
1031
0.0
1002
}
1002
{
1000
PXDIR
1011
496.4291476430965
1021
156.0332986433793
1031
0.0
1002
}
1002
{
1000
PORI
1011
166.4291476430965
1021
156.0332986433793
1031
0.0
1002
}
1002
{
1000
PINS
1011
166.4291476430965
1021
156.0332986433793
1031
0.0
1002
}
1002
{
1000
PINS2
1011
496.4291476430965
1021
372.0367737565009
1031
0.0
1002
}
1002
{
1000
C
1070
     1
1002
}
1001
GENIUS_GENODEF_13
1002
{
1000
HIER
1070
     0
1002
}
1002
{
1000
MANEDIT
1070
     0
1002
}
1002
{
1000
NOSEL
1070
     0
1002
}
1002
{
1000
BEHIND
1070
     0
1002
}
1002
{
1000
OTHER
1070
     0
1002
}
1002
{
1000
REACTOR
1002
}
1001
GENIUS_GENOBJ-N-REC_13
1002
{
1000
OWNER
1000
GEN
1002
}
  0
SOLID
  5
DD8
330
1F
100
AcDbEntity
  8
LOGO
 62
     5
100
AcDbTrace
 10
168.9188256116032
 20
145.6244644100609
 30
0.0
 11
169.9563723808305
 21
145.6244644100606
 31
0.0
 12
174.2854468317441
 22
155.4632699803199
 32
0.0
 13
175.322993600972
 23
155.4632699803194
 33
0.0
  0
SOLID
  5
DD9
330
1F
100
AcDbEntity
  8
LOGO
 62
     5
100
AcDbTrace
 10
170.3857020784429
 20
145.6244644100609
 30
0.0
 11
171.4232488476701
 21
145.6244644100609
 31
0.0
 12
175.322993600972
 22
154.6761655346988
 32
0.0
 13
174.2854468317441
 23
150.8718273808653
 33
0.0
  0
SOLID
  5
DDA
330
1F
100
AcDbEntity
  8
LOGO
 62
     2
100
AcDbTrace
 10
169.9563723808305
 20
145.6244644100606
 30
0.0
 11
170.3857020784429
 21
145.6244644100609
 31
0.0
 12
175.322993600972
 22
155.4632699803194
 32
0.0
 13
175.7523232985838
 23
155.4632699803194
 33
0.0
  0
SOLID
  5
DDB
330
1F
100
AcDbEntity
  8
LOGO
 62
     5
100
AcDbTrace
 10
167.2553837028972
 20
142.046716929967
 30
0.0
 11
167.6131584509069
 21
142.046716929967
 31
0.0
 12
168.6206799882623
 22
143.8355906700138
 32
0.0
 13
168.978454736271
 23
143.8355906700138
 33
0.0
  0
SOLID
  5
DDC
330
1F
100
AcDbEntity
  8
LOGO
 62
     5
100
AcDbTrace
 10
168.6206799882623
 20
143.8355906700138
 30
0.0
 11
168.978454736271
 21
143.8355906700138
 31
0.0
 12
168.6206799882623
 22
142.046716929967
 32
0.0
 13
168.978454736271
 23
142.046716929967
 33
0.0
  0
SOLID
  5
DDD
330
1F
100
AcDbEntity
  8
LOGO
 62
     5
100
AcDbTrace
 10
168.6206799882623
 20
142.046716929967
 30
0.0
 11
168.978454736271
 21
142.046716929967
 31
0.0
 12
169.9859762736281
 22
143.8355906700138
 32
0.0
 13
170.3437510216373
 23
143.8355906700138
 33
0.0
  0
SOLID
  5
DDE
330
1F
100
AcDbEntity
  8
LOGO
 62
     5
100
AcDbTrace
 10
169.9859762736281
 20
143.8355906700138
 30
0.0
 11
170.3437510216373
 21
143.8355906700138
 31
0.0
 12
169.9859762736281
 22
142.046716929967
 32
0.0
 13
170.3437510216373
 23
142.046716929967
 33
0.0
  0
POLYLINE
  5
DDF
330
1F
100
AcDbEntity
  8
LOGO
 62
     5
100
AcDb2dPolyline
 66
     1
 10
0.0
 20
0.0
 30
0.0
 40
0.3583481049773755
 41
0.3583481049773755
  0
VERTEX
  5
DE0
330
DDF
100
AcDbEntity
  8
LOGO
 62
     5
100
AcDbVertex
100
AcDb2dVertex
 10
181.9784639493994
 20
143.120041173995
 30
0.0
 42
1.0
  0
VERTEX
  5
DE1
330
DDF
100
AcDbEntity
  8
LOGO
 62
     5
100
AcDbVertex
100
AcDb2dVertex
 10
180.903419634467
 20
143.120041173995
 30
0.0
 42
1.0
  0
SEQEND
  5
DE2
330
DDF
100
AcDbEntity
  8
LOGO
 62
     5
  0
POLYLINE
  5
DE3
330
1F
100
AcDbEntity
  8
LOGO
 62
     5
100
AcDb2dPolyline
 66
     1
 10
0.0
 20
0.0
 30
0.0
 70
     1
  0
VERTEX
  5
DE4
330
DE3
100
AcDbEntity
  8
LOGO
 62
     5
100
AcDbVertex
100
AcDb2dVertex
 10
178.8769132828483
 20
142.9411537999901
 30
0.0
 42
1.000000057330635
  0
VERTEX
  5
DE5
330
DE3
100
AcDbEntity
  8
LOGO
 62
     5
100
AcDbVertex
100
AcDb2dVertex
 10
179.9502375268766
 20
142.9411537999901
 30
0.0
 42
1.000000057330635
  0
SEQEND
  5
DE6
330
DE3
100
AcDbEntity
  8
LOGO
 62
     5
  0
CIRCLE
  5
DE7
330
1F
100
AcDbEntity
  8
LOGO
 62
     5
100
AcDbCircle
 10
179.4135754048632
 20
142.9411537999901
 30
0.0
 40
0.5366621220141177
  0
POLYLINE
  5
DE8
330
1F
100
AcDbEntity
  8
LOGO
 62
     5
100
AcDb2dPolyline
 66
     1
 10
0.0
 20
0.0
 30
0.0
 70
     1
 40
0.3583481049773755
 41
0.3583481049773755
  0
VERTEX
  5
DE9
330
DE8
100
AcDbEntity
  8
LOGO
 62
     5
100
AcDbVertex
100
AcDb2dVertex
 10
178.6968791949079
 20
142.9411537999901
 30
0.0
 42
1.0
  0
VERTEX
  5
DEA
330
DE8
100
AcDbEntity
  8
LOGO
 62
     5
100
AcDbVertex
100
AcDb2dVertex
 10
180.1302716148174
 20
142.9411537999901
 30
0.0
 42
1.0
  0
SEQEND
  5
DEB
330
DE8
100
AcDbEntity
  8
LOGO
 62
     5
  0
LINE
  5
DEC
330
1F
100
AcDbEntity
  8
LOGO
100
AcDbLine
 10
182.1564912879515
 20
142.046716929967
 30
0.0
 11
182.1564912879515
 21
143.120041173995
 31
0.0
  0
SOLID
  5
DED
330
1F
100
AcDbEntity
  8
LOGO
 62
     5
100
AcDbTrace
 10
179.9502017494034
 20
143.8355906700138
 30
0.0
 11
180.307976497412
 21
143.8355906700138
 31
0.0
 12
179.9502017494034
 22
142.046716929967
 32
0.0
 13
180.307976497412
 23
142.046716929967
 33
0.0
  0
SOLID
  5
DEE
330
1F
100
AcDbEntity
  8
LOGO
 62
     5
100
AcDbTrace
 10
180.7253922959139
 20
142.046716929967
 30
0.0
 11
181.0831670439237
 21
142.046716929967
 31
0.0
 12
180.7253922959139
 22
143.8355906700138
 32
0.0
 13
181.0831670439237
 23
143.8355906700138
 33
0.0
  0
SOLID
  5
DEF
330
1F
100
AcDbEntity
  8
LOGO
 62
     5
100
AcDbTrace
 10
181.7987165399428
 20
143.120041173995
 30
0.0
 11
182.1564912879515
 21
143.120041173995
 31
0.0
 12
181.7987165399428
 22
142.046716929967
 32
0.0
 13
182.1564912879515
 23
142.046716929967
 33
0.0
  0
SOLID
  5
DF0
330
1F
100
AcDbEntity
  8
LOGO
 62
     5
100
AcDbTrace
 10
180.6896148211129
 20
154.6761655346988
 30
0.0
 11
179.6520680518862
 21
150.8718273808653
 31
0.0
 12
180.6896148211129
 22
145.6244644100606
 32
0.0
 13
179.6520680518862
 23
145.6244644100606
 33
0.0
  0
SOLID
  5
DF1
330
1F
100
AcDbEntity
  8
LOGO
 62
     5
100
AcDbTrace
 10
181.1189445187248
 20
145.6244644100606
 30
0.0
 11
182.1564912879515
 21
145.6244644100606
 31
0.0
 12
181.1189445187248
 22
155.4632699803194
 32
0.0
 13
182.1564912879515
 23
155.4632699803199
 33
0.0
  0
SOLID
  5
DF2
330
1F
100
AcDbEntity
  8
LOGO
 62
     2
100
AcDbTrace
 10
180.6896148211129
 20
155.4632699803199
 30
0.0
 11
181.1189445187248
 21
155.4632699803194
 31
0.0
 12
180.6896148211129
 22
145.6244644100606
 32
0.0
 13
181.1189445187248
 23
145.6244644100606
 33
0.0
  0
POLYLINE
  5
DF3
330
1F
100
AcDbEntity
  8
LOGO
 62
     5
100
AcDb2dPolyline
 66
     1
 10
0.0
 20
0.0
 30
0.0
 40
0.3583481049773755
 41
0.3583481049773755
  0
VERTEX
  5
DF4
330
DF3
100
AcDbEntity
  8
LOGO
 62
     5
100
AcDbVertex
100
AcDb2dVertex
 10
176.8503353762814
 20
143.120041173995
 30
0.0
 42
1.0
  0
VERTEX
  5
DF5
330
DF3
100
AcDbEntity
  8
LOGO
 62
     5
100
AcDbVertex
100
AcDb2dVertex
 10
175.7752910613491
 20
143.120041173995
 30
0.0
 42
1.0
  0
SEQEND
  5
DF6
330
DF3
100
AcDbEntity
  8
LOGO
 62
     5
  0
POLYLINE
  5
DF7
330
1F
100
AcDbEntity
  8
LOGO
 62
     5
100
AcDb2dPolyline
 66
     1
 10
0.0
 20
0.0
 30
0.0
 40
0.3583481049773755
 41
0.3583481049773755
  0
VERTEX
  5
DF8
330
DF7
100
AcDbEntity
  8
LOGO
 62
     5
100
AcDbVertex
100
AcDb2dVertex
 10
177.9236596203086
 20
143.120041173995
 30
0.0
 42
1.0
  0
VERTEX
  5
DF9
330
DF7
100
AcDbEntity
  8
LOGO
 62
     5
100
AcDbVertex
100
AcDb2dVertex
 10
176.8486153053768
 20
143.120041173995
 30
0.0
 42
1.0
  0
SEQEND
  5
DFA
330
DF7
100
AcDbEntity
  8
LOGO
 62
     5
  0
POLYLINE
  5
DFB
330
1F
100
AcDbEntity
  8
LOGO
 62
     5
100
AcDb2dPolyline
 66
     1
 10
0.0
 20
0.0
 30
0.0
 40
0.3583481049773755
 41
0.3583481049773755
  0
VERTEX
  5
DFC
330
DFB
100
AcDbEntity
  8
LOGO
 62
     5
100
AcDbVertex
100
AcDb2dVertex
 10
172.7955310471906
 20
143.120041173995
 30
0.0
 42
1.0
  0
VERTEX
  5
DFD
330
DFB
100
AcDbEntity
  8
LOGO
 62
     5
100
AcDbVertex
100
AcDb2dVertex
 10
171.7204867322588
 20
143.120041173995
 30
0.0
 42
1.0
  0
SEQEND
  5
DFE
330
DFB
100
AcDbEntity
  8
LOGO
 62
     5
  0
SOLID
  5
DFF
330
1F
100
AcDbEntity
  8
LOGO
 62
     5
100
AcDbTrace
 10
171.5424593937062
 20
143.8355906700138
 30
0.0
 11
171.9002341417149
 21
143.8355906700138
 31
0.0
 12
171.5424593937062
 22
142.046716929967
 32
0.0
 13
171.9002341417149
 23
142.046716929967
 33
0.0
  0
SOLID
  5
E00
330
1F
100
AcDbEntity
  8
LOGO
 62
     5
100
AcDbTrace
 10
172.6157836377345
 20
143.120041173995
 30
0.0
 11
172.9735583857443
 21
143.120041173995
 31
0.0
 12
172.6157836377345
 22
142.046716929967
 32
0.0
 13
172.9735583857443
 23
142.046716929967
 33
0.0
  0
POLYLINE
  5
E01
330
1F
100
AcDbEntity
  8
LOGO
 62
     5
100
AcDb2dPolyline
 66
     1
 10
0.0
 20
0.0
 30
0.0
 70
     1
 40
0.3583481049773755
 41
0.3583481049773755
  0
VERTEX
  5
E02
330
E01
100
AcDbEntity
  8
LOGO
 62
     5
100
AcDbVertex
100
AcDb2dVertex
 10
173.5687506217894
 20
142.9411537999901
 30
0.0
 42
1.0
  0
VERTEX
  5
E03
330
E01
100
AcDbEntity
  8
LOGO
 62
     5
100
AcDbVertex
100
AcDb2dVertex
 10
175.0021430416994
 20
142.9411537999901
 30
0.0
 42
1.0
  0
SEQEND
  5
E04
330
E01
100
AcDbEntity
  8
LOGO
 62
     5
  0
SOLID
  5
E05
330
1F
100
AcDbEntity
  8
LOGO
 62
     5
100
AcDbTrace
 10
174.8220731762843
 20
144.3722527920282
 30
0.0
 11
175.1798479242935
 21
144.3722527920282
 31
0.0
 12
174.8220731762843
 22
142.046716929967
 32
0.0
 13
175.1798479242935
 23
142.046716929967
 33
0.0
  0
SOLID
  5
E06
330
1F
100
AcDbEntity
  8
LOGO
 62
     5
100
AcDbTrace
 10
175.597263722797
 20
143.8355906700138
 30
0.0
 11
175.9550384708057
 21
143.8355906700138
 31
0.0
 12
175.597263722797
 22
142.046716929967
 32
0.0
 13
175.9550384708057
 23
142.046716929967
 33
0.0
  0
SOLID
  5
E07
330
1F
100
AcDbEntity
  8
LOGO
 62
     5
100
AcDbTrace
 10
176.6705879668242
 20
143.120041173995
 30
0.0
 11
177.028362714834
 21
143.120041173995
 31
0.0
 12
176.6705879668242
 22
142.046716929967
 32
0.0
 13
177.028362714834
 23
142.046716929967
 33
0.0
  0
SOLID
  5
E08
330
1F
100
AcDbEntity
  8
LOGO
 62
     5
100
AcDbTrace
 10
177.7439122108525
 20
143.120041173995
 30
0.0
 11
178.1016869588617
 21
143.120041173995
 31
0.0
 12
177.7439122108525
 22
142.0467169299665
 32
0.0
 13
178.1016869588617
 23
142.0467169299665
 33
0.0
  0
SOLID
  5
E09
330
1F
100
AcDbEntity
  8
LOGO
 62
     5
100
AcDbTrace
 10
170.767268847194
 20
144.0860329936205
 30
0.0
 11
171.1250435952043
 21
144.0860329936205
 31
0.0
 12
170.767268847194
 22
144.3722527920282
 32
0.0
 13
171.1250435952043
 23
144.3722527920282
 33
0.0
  0
SOLID
  5
E0A
330
1F
100
AcDbEntity
  8
LOGO
 62
     5
100
AcDbTrace
 10
170.767268847194
 20
143.8355906700138
 30
0.0
 11
171.1250435952043
 21
143.8355906700138
 31
0.0
 12
170.767268847194
 22
142.0467169299665
 32
0.0
 13
171.1250435952043
 23
142.046716929967
 33
0.0
  0
SOLID
  5
E0B
330
1F
100
AcDbEntity
  8
LOGO
 62
     5
100
AcDbTrace
 10
174.2854468317441
 20
145.6244644100609
 30
0.0
 11
175.322993600972
 21
145.6244644100609
 31
0.0
 12
174.2854468317441
 22
150.8718273808653
 32
0.0
 13
175.322993600972
 23
154.6761655346988
 33
0.0
  0
SOLID
  5
E0C
330
1F
100
AcDbEntity
  8
LOGO
 62
     5
100
AcDbTrace
 10
175.7523232985838
 20
155.4632699803194
 30
0.0
 11
176.7898700678105
 21
155.4632699803199
 31
0.0
 12
175.7523232985838
 22
146.4115688556814
 32
0.0
 13
176.7898700678105
 23
150.215907009515
 33
0.0
  0
SOLID
  5
E0D
330
1F
100
AcDbEntity
  8
LOGO
 62
     2
100
AcDbTrace
 10
175.322993600972
 20
155.4632699803194
 30
0.0
 11
175.7523232985838
 21
155.4632699803194
 31
0.0
 12
175.322993600972
 22
145.6244644100609
 32
0.0
 13
175.7523232985838
 23
145.6244644100609
 33
0.0
  0
SOLID
  5
E0E
330
1F
100
AcDbEntity
  8
LOGO
 62
     5
100
AcDbTrace
 10
175.7523232985838
 20
146.4115688556814
 30
0.0
 11
176.7898700678105
 21
150.215907009515
 31
0.0
 12
180.6896148211129
 22
155.4632699803199
 32
0.0
 13
179.6520680518862
 23
155.4632699803199
 33
0.0
  0
SOLID
  5
E0F
330
1F
100
AcDbEntity
  8
LOGO
 62
     5
100
AcDbTrace
 10
175.7523232985838
 20
145.6244644100609
 30
0.0
 11
176.7898700678105
 21
145.6244644100609
 31
0.0
 12
180.6896148211129
 22
154.6761655346988
 32
0.0
 13
179.6520680518862
 23
150.8718273808653
 33
0.0
  0
SOLID
  5
E10
330
1F
100
AcDbEntity
  8
LOGO
 62
     2
100
AcDbTrace
 10
175.322993600972
 20
145.6244644100609
 30
0.0
 11
175.7523232985838
 21
145.6244644100609
 31
0.0
 12
180.6896148211129
 22
155.4632699803199
 32
0.0
 13
181.1189445187248
 23
155.4632699803194
 33
0.0
  0
LWPOLYLINE
  5
E11
330
1F
100
AcDbEntity
  8
LOGO
 62
     4
100
AcDbPolyline
 90
        4
 70
     1
 43
0.0
 10
166.4291476430965
 20
156.0332986433793
 10
496.4291476430965
 20
156.0332986433793
 10
496.4291476430965
 20
132.036773756501
 10
166.4291476430965
 20
132.036773756501
1001
GENIUS_GENREC_14
1002
{
1000
PYDIR
1011
166.4291476430965
1021
132.036773756501
1031
0.0
1002
}
1002
{
1000
PXDIR
1011
496.4291476430965
1021
156.0332986433793
1031
0.0
1002
}
1002
{
1000
PORI
1011
166.4291476430965
1021
156.0332986433793
1031
0.0
1002
}
1002
{
1000
PINS
1011
166.4291476430965
1021
156.0332986433793
1031
0.0
1002
}
1002
{
1000
PINS2
1011
496.4291476430965
1021
132.036773756501
1031
0.0
1002
}
1002
{
1000
C
1070
     1
1002
}
1001
GENIUS_GENOBJ-N-REC_13
1002
{
1000
OWNER
1000
GEN
1002
}
1001
GENIUS_GENODEF_13
1002
{
1000
HIER
1070
     0
1002
}
1002
{
1000
MANEDIT
1070
     0
1002
}
1002
{
1000
NOSEL
1070
     0
1002
}
1002
{
1000
BEHIND
1070
     0
1002
}
1002
{
1000
OTHER
1070
     0
1002
}
1002
{
1000
REACTOR
1002
}
  0
CIRCLE
  5
E12
330
1F
100
AcDbEntity
  8
LOGO
  6
Continuous
100
AcDbCircle
 10
207.6670758629031
 20
148.8394740515495
 30
0.0
 40
1.393294716384757
  0
CIRCLE
  5
E13
330
1F
100
AcDbEntity
  8
LOGO
  6
Continuous
100
AcDbCircle
 10
207.6670758629031
 20
148.8394740515495
 30
0.0
 40
0.8163473623987165
  0
LINE
  5
E14
330
1F
100
AcDbEntity
  8
LOGO
100
AcDbLine
 10
216.422701531747
 20
147.4461793351645
 30
0.0
 11
216.422701531747
 21
150.2327687679345
 31
0.0
  0
LINE
  5
E15
330
1F
100
AcDbEntity
  8
LOGO
100
AcDbLine
 10
212.0548025748139
 20
148.0231266891509
 30
0.0
 11
212.0548025748139
 21
149.6558214139484
 31
0.0
  0
LINE
  5
E16
330
1F
100
AcDbEntity
  8
LOGO
  6
Continuous
100
AcDbLine
 10
212.0548025748139
 20
149.6558214139484
 30
0.0
 11
216.422701531747
 21
150.2327687679345
 31
0.0
  0
LINE
  5
E17
330
1F
100
AcDbEntity
  8
LOGO
  6
Continuous
100
AcDbLine
 10
212.0548025748139
 20
148.0231266891509
 30
0.0
 11
216.422701531747
 21
147.4461793351645
 31
0.0
  0
LINE
  5
E18
330
1F
100
AcDbEntity
  8
LOGO
  6
AM_ISO08W050x2
 48
0.3
100
AcDbLine
 10
205.7463982334212
 20
148.8394740515495
 30
0.0
 11
209.587753492385
 21
148.8394740515495
 31
0.0
1001
GENIUS_GENOREF_13
1005
E4F
  0
LINE
  5
E19
330
1F
100
AcDbEntity
  8
LOGO
  6
AM_ISO08W050x2
 48
0.3
100
AcDbLine
 10
207.6670758629031
 20
146.9187964220676
 30
0.0
 11
207.6670758629031
 21
150.7601516810314
 31
0.0
1001
GENIUS_GENOREF_13
1005
E4E
  0
LINE
  5
E1A
330
1F
100
AcDbEntity
  8
LOGO
  6
CENTER
 48
0.5
100
AcDbLine
 10
211.7054920634427
 20
148.8394740515495
 30
0.0
 11
216.8625348170922
 21
148.8394740515495
 31
0.0
1001
GENIUS_GENOREF_13
1005
E4D
  0
TEXT
  5
E1B
330
1F
100
AcDbEntity
  8
LOGO
 62
     7
100
AcDbText
 10
220.6117119215453
 20
145.5208294262013
 30
0.0
 40
3.19953665158371
  1
Order example:
 41
0.8
  7
CHINESET
100
AcDbText
  0
TEXT
  5
E1C
330
1F
100
AcDbEntity
  8
LOGO
 62
     7
100
AcDbText
 10
221.1857352559312
 20
150.0251145591144
 30
0.0
 40
4.799304977375565
  1
訂購代號：
  7
CHINESET
100
AcDbText
  0
TEXT
  5
E1D
330
1F
100
AcDbEntity
  8
LOGO
100
AcDbText
 10
220.6933451037131
 20
133.313379409207
 30
0.0
 40
2.4
  1
10610061
 41
0.7
  7
CHINESET
 72
     1
 11
226.1733451037131
 21
133.313379409207
 31
0.0
100
AcDbText
  0
LINE
  5
E1E
330
1F
100
AcDbEntity
  8
LOGO
 62
     4
100
AcDbLine
 10
233.6215023942267
 20
136.8360787338775
 30
0.0
 11
233.6215023942278
 21
132.0367737565016
 31
0.0
  0
LINE
  5
E1F
330
1F
100
AcDbEntity
  8
LOGO
 62
     4
100
AcDbLine
 10
233.6215023942267
 20
136.8360787338775
 30
0.0
 11
219.2215023942278
 21
136.8360787338775
 31
0.0
  0
LINE
  5
E20
330
1F
100
AcDbEntity
  8
LOGO
 62
     4
100
AcDbLine
 10
268.2253406142066
 20
142.8352099555968
 30
0.0
 11
268.2253406142066
 21
134.0364841637414
 31
0.0
  0
LINE
  5
E21
330
1F
100
AcDbEntity
  8
LOGO
 62
     4
100
AcDbLine
 10
252.2276573562879
 20
142.8352099555968
 30
0.0
 11
252.2276573562879
 21
134.0364841637414
 31
0.0
  0
LINE
  5
E22
330
1F
100
AcDbEntity
  8
LOGO
 62
     4
100
AcDbLine
 10
268.2253406142066
 20
134.0364841637414
 30
0.0
 11
252.2276573562879
 21
134.0364841637414
 31
0.0
  0
LINE
  5
E23
330
1F
100
AcDbEntity
  8
LOGO
 62
     4
100
AcDbLine
 10
271.1908230043792
 20
153.6336461546914
 30
0.0
 11
252.2276573562879
 21
153.6336461546914
 31
0.0
  0
LINE
  5
E24
330
1F
100
AcDbEntity
  8
LOGO
 62
     4
100
AcDbLine
 10
271.1908230043792
 20
146.4346886886281
 30
0.0
 11
252.2276573562879
 21
146.4346886886281
 31
0.0
  0
LINE
  5
E25
330
1F
100
AcDbEntity
  8
LOGO
 62
     4
100
AcDbLine
 10
252.2276573562879
 20
153.6336461546914
 30
0.0
 11
252.2276573562879
 21
146.4346886886281
 31
0.0
  0
LINE
  5
E26
330
1F
100
AcDbEntity
  8
LOGO
 62
     4
100
AcDbLine
 10
271.1908230043792
 20
153.6336461546914
 30
0.0
 11
271.1908230043792
 21
146.4346886886281
 31
0.0
  0
LINE
  5
E27
330
1F
100
AcDbEntity
  8
LOGO
 62
     4
100
AcDbLine
 10
261.0611762391309
 20
146.4346886886281
 30
0.0
 11
261.0611762391309
 21
142.8352099555968
 31
0.0
  0
TEXT
  5
E28
330
1F
100
AcDbEntity
  8
LOGO
  6
Continuous
 62
     7
100
AcDbText
 10
253.5067993522239
 20
147.9374605347944
 30
0.0
 40
4.2
  1
MVSY
  7
CHINESET
100
AcDbText
  0
LINE
  5
E29
330
1F
100
AcDbEntity
  8
LOGO
 62
     4
100
AcDbLine
 10
268.2253406142066
 20
142.8352099555968
 30
0.0
 11
252.2276573562879
 21
142.8352099555968
 31
0.0
  0
TEXT
  5
E2A
330
1F
100
AcDbEntity
  8
LOGO
  6
Continuous
100
AcDbText
 10
257.3612632658596
 20
135.2784056511303
 30
157.2692709120597
 40
1.8
  1
Model
 41
0.8
  7
CHINESET
100
AcDbText
  0
TEXT
  5
E2B
330
1F
100
AcDbEntity
  8
LOGO
100
AcDbText
 10
256.8821617802606
 20
138.6152177234429
 30
157.2692709120597
 40
3.0
  1
型號
  7
CHINESET
100
AcDbText
  0
LINE
  5
E2C
330
1F
100
AcDbEntity
  8
LOGO
  6
Continuous
 62
     7
100
AcDbLine
 10
271.9561316815861
 20
150.0086675766109
 30
0.0
 11
275.1349286203136
 21
150.0086675766109
 31
0.0
  0
TEXT
  5
E2D
330
1F
100
AcDbEntity
  8
LOGO
  6
Continuous
 62
     7
100
AcDbText
 10
276.4945631832226
 20
147.9374605347944
 30
0.0
 40
4.2
  1
100M
  7
CHINESET
100
AcDbText
  0
LINE
  5
E2E
330
1F
100
AcDbEntity
  8
LOGO
  6
Continuous
 62
     7
100
AcDbLine
 10
292.1370607198705
 20
150.0086675766109
 30
0.0
 11
295.315857658598
 21
150.0086675766109
 31
0.0
  0
LINE
  5
E2F
330
1F
100
AcDbEntity
  8
LOGO
 62
     4
100
AcDbLine
 10
294.3532507401956
 20
142.8352099555968
 30
0.0
 11
294.3532507401956
 21
134.0364841637414
 31
0.0
  0
LINE
  5
E30
330
1F
100
AcDbEntity
  8
LOGO
 62
     4
100
AcDbLine
 10
279.74119227503
 20
142.8352099555968
 30
0.0
 11
279.74119227503
 21
134.0364841637414
 31
0.0
  0
LINE
  5
E31
330
1F
100
AcDbEntity
  8
LOGO
 62
     4
100
AcDbLine
 10
294.3532507401956
 20
134.0364841637414
 30
0.0
 11
279.74119227503
 21
134.0364841637414
 31
0.0
  0
LINE
  5
E32
330
1F
100
AcDbEntity
  8
LOGO
 62
     4
100
AcDbLine
 10
305.4226593909983
 20
153.6336461546914
 30
0.0
 11
296.31860052838
 21
153.6336461546914
 31
0.0
  0
LINE
  5
E33
330
1F
100
AcDbEntity
  8
LOGO
 62
     4
100
AcDbLine
 10
305.4226593909983
 20
146.4346886886281
 30
0.0
 11
296.31860052838
 21
146.4346886886281
 31
0.0
  0
LINE
  5
E34
330
1F
100
AcDbEntity
  8
LOGO
 62
     4
100
AcDbLine
 10
296.31860052838
 20
153.6336461546914
 30
0.0
 11
296.31860052838
 21
146.4346886886281
 31
0.0
  0
LINE
  5
E35
330
1F
100
AcDbEntity
  8
LOGO
 62
     4
100
AcDbLine
 10
305.4226593909983
 20
153.6336461546914
 30
0.0
 11
305.4226593909983
 21
146.4346886886281
 31
0.0
  0
LINE
  5
E36
330
1F
100
AcDbEntity
  8
LOGO
 62
     4
100
AcDbLine
 10
301.8496928020971
 20
146.4346886886281
 30
0.0
 11
301.8496928020971
 21
144.6349493221124
 31
0.0
  0
TEXT
  5
E37
330
1F
100
AcDbEntity
  8
LOGO
  6
Continuous
 62
     7
100
AcDbText
 10
297.2767625171136
 20
147.9374605347944
 30
0.0
 40
4.2
  1
5M
  7
CHINESET
100
AcDbText
  0
LINE
  5
E38
330
1F
100
AcDbEntity
  8
LOGO
 62
     4
100
AcDbLine
 10
294.3532507401956
 20
142.8352099555968
 30
0.0
 11
279.74119227503
 21
142.8352099555968
 31
0.0
  0
LINE
  5
E39
330
1F
100
AcDbEntity
  8
LOGO
 62
     4
100
AcDbLine
 10
312.5062873501626
 20
142.8352099555968
 30
0.0
 11
312.5062873501626
 21
134.0364841637414
 31
0.0
  0
LINE
  5
E3A
330
1F
100
AcDbEntity
  8
LOGO
 62
     4
100
AcDbLine
 10
299.4736239680572
 20
142.8352099555968
 30
0.0
 11
299.4736239680572
 21
134.0364841637414
 31
0.0
  0
LINE
  5
E3B
330
1F
100
AcDbEntity
  8
LOGO
 62
     4
100
AcDbLine
 10
312.5062873501626
 20
134.0364841637414
 30
0.0
 11
299.4736239680572
 21
134.0364841637414
 31
0.0
  0
LINE
  5
E3C
330
1F
100
AcDbEntity
  8
LOGO
 62
     4
100
AcDbLine
 10
312.4989647043946
 20
153.6336461546914
 30
0.0
 11
306.3953870563293
 21
153.6336461546914
 31
0.0
  0
LINE
  5
E3D
330
1F
100
AcDbEntity
  8
LOGO
 62
     4
100
AcDbLine
 10
312.4989647043946
 20
146.4346886886281
 30
0.0
 11
306.3953870563293
 21
146.4346886886281
 31
0.0
  0
LINE
  5
E3E
330
1F
100
AcDbEntity
  8
LOGO
 62
     4
100
AcDbLine
 10
306.3953870563293
 20
153.6336461546914
 30
0.0
 11
306.3953870563293
 21
146.4346886886281
 31
0.0
  0
LINE
  5
E3F
330
1F
100
AcDbEntity
  8
LOGO
 62
     4
100
AcDbLine
 10
312.4989647043946
 20
153.6336461546914
 30
0.0
 11
312.4989647043946
 21
146.4346886886281
 31
0.0
  0
LINE
  5
E40
330
1F
100
AcDbEntity
  8
LOGO
 62
     4
100
AcDbLine
 10
310.2251324714636
 20
146.4346886886281
 30
0.0
 11
310.2251324714631
 21
144.6349493221124
 31
0.0
  0
TEXT
  5
E41
330
1F
100
AcDbEntity
  8
LOGO
  6
Continuous
 62
     7
100
AcDbText
 10
308.0045529793689
 20
147.9374605347944
 30
0.0
 40
4.2
  1
*
  7
CHINESET
100
AcDbText
  0
LINE
  5
E42
330
1F
100
AcDbEntity
  8
LOGO
 62
     4
100
AcDbLine
 10
312.5062873501626
 20
142.8352099555968
 30
0.0
 11
299.4736239680572
 21
142.8352099555968
 31
0.0
  0
TEXT
  5
E43
330
1F
100
AcDbEntity
  8
LOGO
  6
Continuous
100
AcDbText
 10
283.0920530748605
 20
135.2784056511303
 30
157.2692709120597
 40
1.8
  1
Manifold
 41
0.8
  7
CHINESET
100
AcDbText
  0
TEXT
  5
E44
330
1F
100
AcDbEntity
  8
LOGO
100
AcDbText
 10
283.8178324680313
 20
138.6152177234429
 30
157.2692709120597
 40
3.0
  1
連座
  7
CHINESET
100
AcDbText
  0
TEXT
  5
E45
330
1F
100
AcDbEntity
  8
LOGO
  6
Continuous
100
AcDbText
 10
301.6686209403967
 20
135.2784056511303
 30
157.2692709120597
 40
1.8
  1
Number
 41
0.8
  7
CHINESET
100
AcDbText
  0
TEXT
  5
E46
330
1F
100
AcDbEntity
  8
LOGO
100
AcDbText
 10
301.5438148574933
 20
138.6152177234429
 30
157.2692709120597
 40
3.0
  1
連座數
  7
CHINESET
100
AcDbText
  0
LINE
  5
E47
330
1F
100
AcDbEntity
  8
LOGO
 62
     4
100
AcDbLine
 10
301.8496928020971
 20
144.6349493221124
 30
0.0
 11
287.7400339039895
 21
144.6349493221124
 31
0.0
  0
LINE
  5
E48
330
1F
100
AcDbEntity
  8
LOGO
 62
     4
100
AcDbLine
 10
287.7400339039895
 20
142.8352099555968
 30
0.0
 11
287.7400339039895
 21
144.6349493221124
 31
0.0
  0
LINE
  5
E49
330
1F
100
AcDbEntity
  8
LOGO
 62
     4
100
AcDbLine
 10
305.9899556591096
 20
142.8352099555968
 30
0.0
 11
305.9899556591096
 21
144.6349493221124
 31
0.0
  0
LINE
  5
E4A
330
1F
100
AcDbEntity
  8
LOGO
 62
     4
100
AcDbLine
 10
310.2251324714636
 20
144.6349493221124
 30
0.0
 11
305.9899556591096
 21
144.6349493221124
 31
0.0
  0
POINT
  5
E4D
330
1F
100
AcDbEntity
  8
0
 60
     1
100
AcDbPoint
 10
-1897.544112831003
 20
-477.3049321738528
 30
0.0
1001
GENIUS_GENOBJ-N-CRS_13
1002
{
1000
OWNER
1000
GEN
1002
}
1001
GENIUS_GENOLIS_13
1002
{
1000
ENT
1005
0
1005
0
1005
0
1005
E1A
1002
}
1001
GENIUS_GENOENT_13
1002
{
1000
MYREF
1005
E4D
1002
}
1002
{
1000
GRP
1005
0
1002
}
1001
GENIUS_GENODEF_13
1002
{
1000
HIER
1070
    10
1002
}
1002
{
1000
MANEDIT
1070
     1
1002
}
1002
{
1000
NOSEL
1070
     0
1002
}
1002
{
1000
BEHIND
1070
     0
1002
}
1002
{
1000
OTHER
1070
     0
1002
}
1002
{
1000
REACTOR
1002
}
  0
POINT
  5
E4E
330
1F
100
AcDbEntity
  8
0
 60
     1
100
AcDbPoint
 10
-1908.868698053857
 20
-468.4293456952166
 30
0.0
1001
GENIUS_GENOBJ-N-CRS_13
1002
{
1000
OWNER
1000
GEN
1002
}
1001
GENIUS_GENOLIS_13
1002
{
1000
ENT
1005
0
1005
0
1005
0
1005
E19
1002
}
1001
GENIUS_GENOENT_13
1002
{
1000
MYREF
1005
E4E
1002
}
1002
{
1000
GRP
1005
0
1002
}
1001
GENIUS_GENODEF_13
1002
{
1000
HIER
1070
    10
1002
}
1002
{
1000
MANEDIT
1070
     1
1002
}
1002
{
1000
NOSEL
1070
     0
1002
}
1002
{
1000
BEHIND
1070
     0
1002
}
1002
{
1000
OTHER
1070
     0
1002
}
1002
{
1000
REACTOR
1002
}
  0
POINT
  5
E4F
330
1F
100
AcDbEntity
  8
0
 60
     1
100
AcDbPoint
 10
-1902.51002435602
 20
-477.3049321738528
 30
0.0
1001
GENIUS_GENOBJ-N-CRS_13
1002
{
1000
OWNER
1000
GEN
1002
}
1001
GENIUS_GENOLIS_13
1002
{
1000
ENT
1005
0
1005
0
1005
0
1005
E18
1002
}
1001
GENIUS_GENOENT_13
1002
{
1000
MYREF
1005
E4F
1002
}
1002
{
1000
GRP
1005
0
1002
}
1001
GENIUS_GENODEF_13
1002
{
1000
HIER
1070
    10
1002
}
1002
{
1000
MANEDIT
1070
     1
1002
}
1002
{
1000
NOSEL
1070
     0
1002
}
1002
{
1000
BEHIND
1070
     0
1002
}
1002
{
1000
OTHER
1070
     0
1002
}
1002
{
1000
REACTOR
1002
}
  0
POINT
  5
E50
330
1F
100
AcDbEntity
  8
0
 60
     1
100
AcDbPoint
 10
408.6278141617281
 20
203.2495773470877
 30
0.0
1001
GENIUS_GENODEF_13
1002
{
1000
HIER
1070
    10
1002
}
1002
{
1000
MANEDIT
1070
     0
1002
}
1002
{
1000
NOSEL
1070
     0
1002
}
1002
{
1000
BEHIND
1070
     0
1002
}
1002
{
1000
OTHER
1070
     0
1002
}
1002
{
1000
REACTOR
1002
}
1001
GENIUS_GENOENT_13
1002
{
1000
MYREF
1005
E50
1002
}
1002
{
1000
GRP
1005
0
1002
}
1001
GENIUS_GENOBJ-N-CRS_13
1002
{
1000
OWNER
1000
GEN
1002
}
1001
GENIUS_GENOLIS_13
1002
{
1000
ENT
1005
DA6
1005
DA5
1005
DA4
1005
DA3
1002
}
  0
POINT
  5
E51
330
1F
100
AcDbEntity
  8
0
 60
     1
100
AcDbPoint
 10
408.6278141617281
 20
203.2495773470877
 30
0.0
1001
GENIUS_GENOBJ-N-CRS_13
1002
{
1000
OWNER
1000
GEN
1002
}
1001
GENIUS_GENODEF_13
1002
{
1000
HIER
1070
    10
1002
}
1002
{
1000
MANEDIT
1070
     0
1002
}
1002
{
1000
NOSEL
1070
     0
1002
}
1002
{
1000
BEHIND
1070
     0
1002
}
1002
{
1000
OTHER
1070
     0
1002
}
1002
{
1000
REACTOR
1002
}
1001
GENIUS_GENOLIS_13
1002
{
1000
ENT
1005
DA2
1005
DA1
1005
DA0
1005
D9F
1002
}
1001
GENIUS_GENOENT_13
1002
{
1000
MYREF
1005
E51
1002
}
1002
{
1000
GRP
1005
0
1002
}
  0
POINT
  5
E52
330
1F
100
AcDbEntity
  8
0
 60
     1
100
AcDbPoint
 10
408.6278141617281
 20
203.2495773470877
 30
0.0
1001
GENIUS_GENODEF_13
1002
{
1000
HIER
1070
    10
1002
}
1002
{
1000
MANEDIT
1070
     0
1002
}
1002
{
1000
NOSEL
1070
     0
1002
}
1002
{
1000
BEHIND
1070
     0
1002
}
1002
{
1000
OTHER
1070
     0
1002
}
1002
{
1000
REACTOR
1002
}
1001
GENIUS_GENOBJ-N-CRS_13
1002
{
1000
OWNER
1000
GEN
1002
}
1001
GENIUS_GENOLIS_13
1002
{
1000
ENT
1005
D9E
1005
D9D
1005
D9C
1005
D9B
1002
}
1001
GENIUS_GENOENT_13
1002
{
1000
MYREF
1005
E52
1002
}
1002
{
1000
GRP
1005
0
1002
}
  0
POINT
  5
E53
330
1F
100
AcDbEntity
  8
0
 60
     1
100
AcDbPoint
 10
408.6278141617281
 20
203.2495773470877
 30
0.0
1001
GENIUS_GENOLIS_13
1002
{
1000
ENT
1005
D9A
1005
D99
1005
D98
1005
D97
1002
}
1001
GENIUS_GENODEF_13
1002
{
1000
HIER
1070
    10
1002
}
1002
{
1000
MANEDIT
1070
     0
1002
}
1002
{
1000
NOSEL
1070
     0
1002
}
1002
{
1000
BEHIND
1070
     0
1002
}
1002
{
1000
OTHER
1070
     0
1002
}
1002
{
1000
REACTOR
1002
}
1001
GENIUS_GENOENT_13
1002
{
1000
MYREF
1005
E53
1002
}
1002
{
1000
GRP
1005
0
1002
}
1001
GENIUS_GENOBJ-N-CRS_13
1002
{
1000
OWNER
1000
GEN
1002
}
  0
POINT
  5
E54
330
1F
100
AcDbEntity
  8
0
 60
     1
100
AcDbPoint
 10
408.6278141617281
 20
203.2495773470877
 30
0.0
1001
GENIUS_GENODEF_13
1002
{
1000
HIER
1070
    10
1002
}
1002
{
1000
MANEDIT
1070
     0
1002
}
1002
{
1000
NOSEL
1070
     0
1002
}
1002
{
1000
BEHIND
1070
     0
1002
}
1002
{
1000
OTHER
1070
     0
1002
}
1002
{
1000
REACTOR
1002
}
1001
GENIUS_GENOLIS_13
1002
{
1000
ENT
1005
D96
1005
D95
1005
D94
1005
D93
1002
}
1001
GENIUS_GENOENT_13
1002
{
1000
MYREF
1005
E54
1002
}
1002
{
1000
GRP
1005
0
1002
}
1001
GENIUS_GENOBJ-N-CRS_13
1002
{
1000
OWNER
1000
GEN
1002
}
  0
POINT
  5
E55
330
1F
100
AcDbEntity
  8
0
 60
     1
100
AcDbPoint
 10
408.6278141617281
 20
203.2495773470877
 30
0.0
1001
GENIUS_GENOENT_13
1002
{
1000
MYREF
1005
E55
1002
}
1002
{
1000
GRP
1005
0
1002
}
1001
GENIUS_GENODEF_13
1002
{
1000
HIER
1070
    10
1002
}
1002
{
1000
MANEDIT
1070
     0
1002
}
1002
{
1000
NOSEL
1070
     0
1002
}
1002
{
1000
BEHIND
1070
     0
1002
}
1002
{
1000
OTHER
1070
     0
1002
}
1002
{
1000
REACTOR
1002
}
1001
GENIUS_GENOBJ-N-CRS_13
1002
{
1000
OWNER
1000
GEN
1002
}
1001
GENIUS_GENOLIS_13
1002
{
1000
ENT
1005
D92
1005
D91
1005
D90
1005
D8F
1002
}
  0
POINT
  5
E56
330
1F
100
AcDbEntity
  8
0
 60
     1
100
AcDbPoint
 10
408.6278141617281
 20
203.2495773470877
 30
0.0
1001
GENIUS_GENOLIS_13
1002
{
1000
ENT
1005
D8E
1005
D8D
1005
D8C
1005
D8B
1002
}
1001
GENIUS_GENODEF_13
1002
{
1000
HIER
1070
    10
1002
}
1002
{
1000
MANEDIT
1070
     0
1002
}
1002
{
1000
NOSEL
1070
     0
1002
}
1002
{
1000
BEHIND
1070
     0
1002
}
1002
{
1000
OTHER
1070
     0
1002
}
1002
{
1000
REACTOR
1002
}
1001
GENIUS_GENOENT_13
1002
{
1000
MYREF
1005
E56
1002
}
1002
{
1000
GRP
1005
0
1002
}
1001
GENIUS_GENOBJ-N-CRS_13
1002
{
1000
OWNER
1000
GEN
1002
}
  0
POINT
  5
E57
330
1F
100
AcDbEntity
  8
0
 60
     1
100
AcDbPoint
 10
408.6278141617281
 20
203.2495773470877
 30
0.0
1001
GENIUS_GENOLIS_13
1002
{
1000
ENT
1005
D8A
1005
D89
1005
D88
1005
D87
1002
}
1001
GENIUS_GENODEF_13
1002
{
1000
HIER
1070
    10
1002
}
1002
{
1000
MANEDIT
1070
     0
1002
}
1002
{
1000
NOSEL
1070
     0
1002
}
1002
{
1000
BEHIND
1070
     0
1002
}
1002
{
1000
OTHER
1070
     0
1002
}
1002
{
1000
REACTOR
1002
}
1001
GENIUS_GENOENT_13
1002
{
1000
MYREF
1005
E57
1002
}
1002
{
1000
GRP
1005
0
1002
}
1001
GENIUS_GENOBJ-N-CRS_13
1002
{
1000
OWNER
1000
GEN
1002
}
  0
INSERT
  5
E94
330
1F
100
AcDbEntity
  8
AM_5
100
AcDbBlockReference
  2
*S13
 10
0.0
 20
0.0
 30
0.0
  0
INSERT
  5
E96
330
1F
100
AcDbEntity
  8
AM_5
100
AcDbBlockReference
  2
*S14
 10
0.0
 20
0.0
 30
0.0
  0
INSERT
  5
E97
330
1F
100
AcDbEntity
  8
AM_5
100
AcDbBlockReference
  2
*S15
 10
0.0
 20
0.0
 30
0.0
  0
INSERT
  5
F08
330
1F
100
AcDbEntity
  8
0
100
AcDbBlockReference
  2
A$C00151B21
 10
338.5316798031082
 20
228.1302660310708
 30
0.0
  0
ENDSEC
  0
SECTION
  2
OBJECTS
  0
DICTIONARY
  5
C
330
0
100
AcDbDictionary
281
     1
  3
ACAD_COLOR
350
BE
  3
ACAD_GROUP
350
D
  3
ACAD_LAYOUT
350
1A
  3
ACAD_MATERIAL
350
BD
  3
ACAD_MLINESTYLE
350
17
  3
ACAD_PLOTSETTINGS
350
19
  3
ACAD_PLOTSTYLENAME
350
E
  3
ACAD_TABLESTYLE
350
11A
  3
ACDBHEADERROUNDTRIPXREC
350
FD4
  3
AcDbVariableDictionary
350
94
  3
AcmDictionary
350
5B
  3
AMG
350
41
  3
AMGSNAPSETTINGS
350
1B8
  3
DWGPROPS
350
FD3
  0
DICTIONARY
  5
3F9
330
2
100
AcDbDictionary
280
     1
281
     1
  3
ACAD_LAYERFILTERS
360
EF7
  3
ACAD_LAYERSTATES
360
AC4
  3
ACLYDICTIONARY
360
EF6
  3
AMLAYER_GROUPCOLORS
360
EBF
  0
DICTIONARY
  5
8F
330
1F
100
AcDbDictionary
280
     1
281
     1
  3
ACAD_SORTENTS
360
EC5
  0
DICTIONARY
  5
A5F
330
A5E
100
AcDbDictionary
280
     1
281
     1
  3
ACAD_SORTENTS
360
A60
  0
DICTIONARY
  5
A9A
330
A99
100
AcDbDictionary
280
     1
281
     1
  3
ACAD_SORTENTS
360
A9B
  0
DICTIONARY
  5
ECE
330
EC9
100
AcDbDictionary
280
     1
281
     1
  3
ACAD_SORTENTS
360
ECF
  0
DICTIONARY
  5
F04
330
EFF
100
AcDbDictionary
280
     1
281
     1
  3
ACAD_SORTENTS
360
F05
  0
DICTIONARY
  5
DB5
330
DB4
100
AcDbDictionary
280
     1
281
     1
  3
ACAD_DIMASSOC
360
DB6
  0
DICTIONARY
  5
DB8
330
DB7
100
AcDbDictionary
280
     1
281
     1
  3
ACAD_DIMASSOC
360
DB9
  0
DICTIONARY
  5
DC0
330
DBF
100
AcDbDictionary
280
     1
281
     1
  3
ACAD_DIMASSOC
360
DC1
  0
DICTIONARY
  5
DC3
330
DC2
100
AcDbDictionary
280
     1
281
     1
  3
ACAD_DIMASSOC
360
DC4
  0
DICTIONARY
  5
DC8
330
DC7
100
AcDbDictionary
280
     1
281
     1
  3
ACAD_DIMASSOC
360
DC9
  0
DICTIONARY
  5
BE
102
{ACAD_REACTORS
330
C
102
}
330
C
100
AcDbDictionary
281
     1
  0
DICTIONARY
  5
D
102
{ACAD_REACTORS
330
C
102
}
330
C
100
AcDbDictionary
281
     1
  0
DICTIONARY
  5
1A
102
{ACAD_REACTORS
330
C
102
}
330
C
100
AcDbDictionary
281
     1
  3
Model
350
22
  3
配置1
350
1E
  3
配置2
350
26
  0
DICTIONARY
  5
BD
102
{ACAD_REACTORS
330
C
102
}
330
C
100
AcDbDictionary
281
     1
  0
DICTIONARY
  5
17
102
{ACAD_REACTORS
330
C
102
}
330
C
100
AcDbDictionary
281
     1
  3
Standard
350
18
  0
DICTIONARY
  5
19
102
{ACAD_REACTORS
330
C
102
}
330
C
100
AcDbDictionary
281
     1
  0
ACDBDICTIONARYWDFLT
  5
E
102
{ACAD_REACTORS
330
C
102
}
330
C
100
AcDbDictionary
281
     1
  3
Normal
350
F
100
AcDbDictionaryWithDefault
340
F
  0
DICTIONARY
  5
11A
102
{ACAD_REACTORS
330
C
102
}
330
C
100
AcDbDictionary
281
     1
  3
Standard
350
11B
  0
DICTIONARY
  5
FD4
102
{ACAD_REACTORS
330
C
102
}
330
C
100
AcDbDictionary
281
     1
  0
DICTIONARY
  5
94
102
{ACAD_REACTORS
330
C
102
}
330
C
100
AcDbDictionary
281
     1
  3
CTABLESTYLE
350
138
  3
DIMASSOC
350
96
  3
INDEXCTL
350
95
  3
PROJECTNAME
350
FD1
  0
DICTIONARY
  5
5B
102
{ACAD_REACTORS
330
C
102
}
330
C
100
AcDbDictionary
281
     1
  3
AcmBOM
350
1B5
  3
AcmStdDictionary
350
61
  3
AMDTSECTSYM_ARROWCOLOR
350
123
  0
DICTIONARY
  5
41
102
{ACAD_REACTORS
330
C
102
}
330
C
100
AcDbDictionary
281
     1
  0
DICTIONARY
  5
1B8
102
{ACAD_REACTORS
330
C
102
}
330
C
100
AcDbDictionary
281
     1
  0
XRECORD
  5
FD3
102
{ACAD_REACTORS
330
C
102
}
330
C
100
AcDbXrecord
280
     1
  1
DWGPROPS COOKIE
  2

  3

  4

  6

  7

  8

  9

300
AmdtFileType=84
301
=
302
=
303
=
304
=
305
=
306
=
307
=
308
=
309
=
 40
0.0134456365740741
 41
2454013.612854456
 42
2454013.668056632
  1

 90
        1
  0
DICTIONARY
  5
EF7
102
{ACAD_REACTORS
330
3F9
102
}
330
3F9
100
AcDbDictionary
281
     1
  0
DICTIONARY
  5
AC4
102
{ACAD_REACTORS
330
3F9
102
}
330
3F9
100
AcDbDictionary
281
     1
  0
DICTIONARY
  5
EF6
102
{ACAD_REACTORS
330
3F9
102
}
330
3F9
100
AcDbDictionary
281
     1
1001
ACAD
1000
<All
  0
DICTIONARY
  5
EBF
102
{ACAD_REACTORS
330
3F9
102
}
330
3F9
100
AcDbDictionary
280
     1
281
     1
  0
SORTENTSTABLE
  5
EC5
102
{ACAD_REACTORS
330
8F
102
}
330
8F
100
AcDbSortentsTable
330
1F
331
E0A
  5
E0A
331
D55
  5
D55
331
D94
  5
D94
331
DCB
  5
DCB
331
E41
  5
E41
331
DD3
  5
DD3
331
D5D
  5
D5D
331
D9C
  5
D9C
331
E12
  5
E12
331
E49
  5
E49
331
CDB
  5
CDB
331
CA4
  5
CA4
331
D1A
  5
D1A
331
DA4
  5
DA4
331
D65
  5
D65
331
DDB
  5
DDB
331
E1A
  5
E1A
331
D22
  5
D22
331
CAC
  5
CAC
331
CE3
  5
CE3
331
E22
  5
E22
331
DAC
  5
DAC
331
D6D
  5
D6D
331
DE3
  5
DE3
331
D2A
  5
D2A
331
CB4
  5
CB4
331
CEB
  5
CEB
331
D32
  5
D32
331
CBC
  5
CBC
331
CF3
  5
CF3
331
E2A
  5
E2A
331
D75
  5
D75
331
DB4
  5
DB4
331
DF3
  5
DF3
331
D7D
  5
D7D
331
DBC
  5
DBC
331
E32
  5
E32
331
D3A
  5
D3A
331
CC4
  5
CC4
331
CFB
  5
CFB
331
DFB
  5
DFB
331
D85
  5
D85
331
E3A
  5
E3A
331
D42
  5
D42
331
CCC
  5
CCC
331
D03
  5
D03
331
D8D
  5
D8D
331
D4A
  5
D4A
331
D0B
  5
D0B
331
C95
  5
C95
331
CD4
  5
CD4
331
D13
  5
D13
331
C9D
  5
C9D
331
E42
  5
E42
331
D95
  5
D95
331
D56
  5
D56
331
DCC
  5
DCC
331
E0B
  5
E0B
331
E13
  5
E13
331
D9D
  5
D9D
331
D5E
  5
D5E
331
DD4
  5
DD4
331
E4A
  5
E4A
331
D1B
  5
D1B
331
CA5
  5
CA5
331
CDC
  5
CDC
331
E1B
  5
E1B
331
D66
  5
D66
331
DA5
  5
DA5
331
DDC
  5
DDC
331
D23
  5
D23
331
CAD
  5
CAD
331
CE4
  5
CE4
331
E23
  5
E23
331
D6E
  5
D6E
331
DAD
  5
DAD
331
CEC
  5
CEC
331
CB5
  5
CB5
331
D2B
  5
D2B
331
D33
  5
D33
331
CBD
  5
CBD
331
CF4
  5
CF4
331
DEC
  5
DEC
331
D76
  5
D76
331
E2B
  5
E2B
331
E33
  5
E33
331
DBD
  5
DBD
331
D7E
  5
D7E
331
D3B
  5
D3B
331
E3B
  5
E3B
331
D86
  5
D86
331
DC5
  5
DC5
331
CC5
  5
CC5
331
CFC
  5
CFC
331
D43
  5
D43
331
D8E
  5
D8E
331
CCD
  5
CCD
331
D04
  5
D04
331
D0C
  5
D0C
331
C96
  5
C96
331
CD5
  5
CD5
331
D4B
  5
D4B
331
D14
  5
D14
331
C9E
  5
C9E
331
E0C
  5
E0C
331
D57
  5
D57
331
D96
  5
D96
331
DCD
  5
DCD
331
E43
  5
E43
331
D9E
  5
D9E
331
D5F
  5
D5F
331
DD5
  5
DD5
331
E14
  5
E14
331
CDD
  5
CDD
331
DA6
  5
DA6
331
D67
  5
D67
331
DDD
  5
DDD
331
E1C
  5
E1C
331
CA6
  5
CA6
331
D1C
  5
D1C
331
D24
  5
D24
331
E24
  5
E24
331
DAE
  5
DAE
331
D6F
  5
D6F
331
CAE
  5
CAE
331
CE5
  5
CE5
331
D2C
  5
D2C
331
CB6
  5
CB6
331
CED
  5
CED
331
D34
  5
D34
331
CBE
  5
CBE
331
CF5
  5
CF5
331
E2C
  5
E2C
331
D77
  5
D77
331
DED
  5
DED
331
E34
  5
E34
331
D7F
  5
D7F
331
DBE
  5
DBE
331
CFD
  5
CFD
331
D87
  5
D87
331
E3C
  5
E3C
331
CC6
  5
CC6
331
D3C
  5
D3C
331
D44
  5
D44
331
D8F
  5
D8F
331
E05
  5
E05
331
CCE
  5
CCE
331
D05
  5
D05
331
D0D
  5
D0D
331
C97
  5
C97
331
CD6
  5
CD6
331
D4C
  5
D4C
331
D15
  5
D15
331
C9F
  5
C9F
331
D50
  5
D50
331
E0D
  5
E0D
331
D97
  5
D97
331
D58
  5
D58
331
DCE
  5
DCE
331
E44
  5
E44
331
E15
  5
E15
331
D9F
  5
D9F
331
D60
  5
D60
331
DD6
  5
DD6
331
D1D
  5
D1D
331
E1D
  5
E1D
331
DA7
  5
DA7
331
D68
  5
D68
331
DDE
  5
DDE
331
CA7
  5
CA7
331
CDE
  5
CDE
331
D25
  5
D25
331
DAF
  5
DAF
331
E25
  5
E25
331
CAF
  5
CAF
331
CE6
  5
CE6
331
CEE
  5
CEE
331
CB7
  5
CB7
331
D2D
  5
D2D
331
D35
  5
D35
331
CBF
  5
CBF
331
CF6
  5
CF6
331
D70
  5
D70
331
DB7
  5
DB7
331
D78
  5
D78
331
DEE
  5
DEE
331
E2D
  5
E2D
331
E35
  5
E35
331
D80
  5
D80
331
DBF
  5
DBF
331
D3D
  5
D3D
331
E3D
  5
E3D
331
D88
  5
D88
331
DC7
  5
DC7
331
CC7
  5
CC7
331
CFE
  5
CFE
331
D45
  5
D45
331
E06
  5
E06
331
CCF
  5
CCF
331
D06
  5
D06
331
D0E
  5
D0E
331
C98
  5
C98
331
CD7
  5
CD7
331
D4D
  5
D4D
331
D16
  5
D16
331
D51
  5
D51
331
D90
  5
D90
331
E0E
  5
E0E
331
D59
  5
D59
331
D98
  5
D98
331
DCF
  5
DCF
331
E45
  5
E45
331
DA0
  5
DA0
331
D61
  5
D61
331
DD7
  5
DD7
331
E16
  5
E16
331
CA0
  5
CA0
331
D1E
  5
D1E
331
E1E
  5
E1E
331
DDF
  5
DDF
331
DA8
  5
DA8
331
D69
  5
D69
331
E94
  5
E94
331
CA8
  5
CA8
331
CDF
  5
CDF
331
D26
  5
D26
331
E26
  5
E26
331
DE7
  5
DE7
331
CB0
  5
CB0
331
CE7
  5
CE7
331
D2E
  5
D2E
331
CEF
  5
CEF
331
CB8
  5
CB8
331
D36
  5
D36
331
CF7
  5
CF7
331
DB0
  5
DB0
331
D71
  5
D71
331
E2E
  5
E2E
331
D79
  5
D79
331
DEF
  5
DEF
331
DF7
  5
DF7
331
D81
  5
D81
331
E36
  5
E36
331
CC0
  5
CC0
331
CFF
  5
CFF
331
DFF
  5
DFF
331
D89
  5
D89
331
E3E
  5
E3E
331
CC8
  5
CC8
331
D3E
  5
D3E
331
D46
  5
D46
331
D07
  5
D07
331
E07
  5
E07
331
CD0
  5
CD0
331
D0F
  5
D0F
331
C99
  5
C99
331
D4E
  5
D4E
331
D17
  5
D17
331
D91
  5
D91
331
D52
  5
D52
331
E0F
  5
E0F
331
D99
  5
D99
331
D5A
  5
D5A
331
DD0
  5
DD0
331
E46
  5
E46
331
E17
  5
E17
331
D62
  5
D62
331
DA1
  5
DA1
331
DD8
  5
DD8
331
CA1
  5
CA1
331
CD8
  5
CD8
331
D1F
  5
D1F
331
E1F
  5
E1F
331
D6A
  5
D6A
331
DA9
  5
DA9
331
CA9
  5
CA9
331
CE0
  5
CE0
331
D27
  5
D27
331
E27
  5
E27
331
CB1
  5
CB1
331
CE8
  5
CE8
331
D2F
  5
D2F
331
CB9
  5
CB9
331
CF0
  5
CF0
331
D37
  5
D37
331
DB1
  5
DB1
331
D72
  5
D72
331
DE8
  5
DE8
331
E2F
  5
E2F
331
DF0
  5
DF0
331
D7A
  5
D7A
331
D82
  5
D82
331
E37
  5
E37
331
CC1
  5
CC1
331
CF8
  5
CF8
331
D3F
  5
D3F
331
E00
  5
E00
331
D8A
  5
D8A
331
E3F
  5
E3F
331
CC9
  5
CC9
331
D00
  5
D00
331
D08
  5
D08
331
C92
  5
C92
331
CD1
  5
CD1
331
D47
  5
D47
331
D10
  5
D10
331
C9A
  5
C9A
331
D4F
  5
D4F
331
E08
  5
E08
331
D53
  5
D53
331
D92
  5
D92
331
DD1
  5
DD1
331
D5B
  5
D5B
331
D9A
  5
D9A
331
E10
  5
E10
331
E47
  5
E47
331
D18
  5
D18
331
CA2
  5
CA2
331
CD9
  5
CD9
331
DA2
  5
DA2
331
D63
  5
D63
331
DD9
  5
DD9
331
E18
  5
E18
331
D20
  5
D20
331
CAA
  5
CAA
331
CE1
  5
CE1
331
E96
  5
E96
331
E20
  5
E20
331
DAA
  5
DAA
331
D6B
  5
D6B
331
D28
  5
D28
331
CB2
  5
CB2
331
CE9
  5
CE9
331
D30
  5
D30
331
CBA
  5
CBA
331
CF1
  5
CF1
331
D73
  5
D73
331
E28
  5
E28
331
E30
  5
E30
331
D7B
  5
D7B
331
DBA
  5
DBA
331
DF1
  5
DF1
331
D38
  5
D38
331
CC2
  5
CC2
331
CF9
  5
CF9
331
D83
  5
D83
331
DC2
  5
DC2
331
E38
  5
E38
331
D40
  5
D40
331
CCA
  5
CCA
331
D01
  5
D01
331
E01
  5
E01
331
D8B
  5
D8B
331
D09
  5
D09
331
C93
  5
C93
331
CD2
  5
CD2
331
D48
  5
D48
331
D11
  5
D11
331
C9B
  5
C9B
331
E40
  5
E40
331
D93
  5
D93
331
D54
  5
D54
331
DCA
  5
DCA
331
E09
  5
E09
331
E11
  5
E11
331
D9B
  5
D9B
331
D5C
  5
D5C
331
DD2
  5
DD2
331
E48
  5
E48
331
D19
  5
D19
331
CA3
  5
CA3
331
CDA
  5
CDA
331
E19
  5
E19
331
D64
  5
D64
331
DA3
  5
DA3
331
DDA
  5
DDA
331
D21
  5
D21
331
CAB
  5
CAB
331
CE2
  5
CE2
331
E97
  5
E97
331
E21
  5
E21
331
D6C
  5
D6C
331
DAB
  5
DAB
331
D29
  5
D29
331
CB3
  5
CB3
331
CEA
  5
CEA
331
D31
  5
D31
331
CBB
  5
CBB
331
CF2
  5
CF2
331
DB3
  5
DB3
331
D74
  5
D74
331
E29
  5
E29
331
E31
  5
E31
331
DBB
  5
DBB
331
D7C
  5
D7C
331
DF2
  5
DF2
331
D39
  5
D39
331
CC3
  5
CC3
331
CFA
  5
CFA
331
D84
  5
D84
331
E39
  5
E39
331
D41
  5
D41
331
CCB
  5
CCB
331
D02
  5
D02
331
D8C
  5
D8C
331
D49
  5
D49
331
D0A
  5
D0A
331
C94
  5
C94
331
CD3
  5
CD3
331
D12
  5
D12
331
C9C
  5
C9C
  0
SORTENTSTABLE
  5
A60
102
{ACAD_REACTORS
330
A5F
102
}
330
A5F
100
AcDbSortentsTable
330
A5E
  0
SORTENTSTABLE
  5
A9B
102
{ACAD_REACTORS
330
A9A
102
}
330
A9A
100
AcDbSortentsTable
330
A99
  0
SORTENTSTABLE
  5
ECF
102
{ACAD_REACTORS
330
ECE
102
}
330
ECE
100
AcDbSortentsTable
330
EC9
  0
SORTENTSTABLE
  5
F05
102
{ACAD_REACTORS
330
F04
102
}
330
F04
100
AcDbSortentsTable
330
EFF
  0
DIMASSOC
  5
DB6
102
{ACAD_REACTORS
330
DB5
102
}
330
DB5
100
AcDbDimAssoc
330
DB4
 90
        3
 70
     0
 71
     0
  1
AcDbOsnapPointRef
 72
     1
331
CF6
 73
     0
 91
        0
 40
0.0
 10
0.0
 20
0.0
 30
2.000000000000000E+50
 75
     0
  1
AcDbOsnapPointRef
 72
    13
331
CF6
 73
     0
 91
        0
 40
0.0
 10
0.0
 20
0.0
 30
2.000000000000000E+50
 75
     0
  0
DIMASSOC
  5
DB9
102
{ACAD_REACTORS
330
DB8
102
}
330
DB8
100
AcDbDimAssoc
330
DB7
 90
        3
 70
     0
 71
     0
  1
AcDbOsnapPointRef
 72
     1
331
D99
 73
     0
 91
        0
 40
0.0
 10
0.0
 20
0.0
 30
2.000000000000000E+50
 75
     0
  1
AcDbOsnapPointRef
 72
     1
331
DA5
 73
     0
 91
        0
 40
0.0
 10
0.0
 20
0.0
 30
2.000000000000000E+50
 75
     0
  0
DIMASSOC
  5
DC1
102
{ACAD_REACTORS
330
DC0
102
}
330
DC0
100
AcDbDimAssoc
330
DBF
 90
        3
 70
     0
 71
     0
  1
AcDbOsnapPointRef
 72
    13
331
CDF
 73
     0
 91
        0
 40
0.0
 10
0.0
 20
0.0
 30
2.000000000000000E+50
 75
     0
  1
AcDbOsnapPointRef
 72
    13
331
CE0
 73
     0
 91
        0
 40
0.0
 10
0.0
 20
0.0
 30
2.000000000000000E+50
 75
     0
  0
DIMASSOC
  5
DC4
102
{ACAD_REACTORS
330
DC3
102
}
330
DC3
100
AcDbDimAssoc
330
DC2
 90
        3
 70
     0
 71
     0
  1
AcDbOsnapPointRef
 72
    13
331
CDD
 73
     0
 91
        0
 40
0.0
 10
0.0
 20
0.0
 30
2.000000000000000E+50
 75
     0
  1
AcDbOsnapPointRef
 72
    13
331
CE0
 73
     0
 91
        0
 40
0.0
 10
0.0
 20
0.0
 30
2.000000000000000E+50
 75
     0
  0
DIMASSOC
  5
DC9
102
{ACAD_REACTORS
330
DC8
102
}
330
DC8
100
AcDbDimAssoc
330
DC7
 90
        3
 70
     0
 71
     0
  1
AcDbOsnapPointRef
 72
     1
331
D9A
 73
     0
 91
        0
 40
0.0
 10
0.0
 20
0.0
 30
2.000000000000000E+50
 75
     0
  1
AcDbOsnapPointRef
 72
     1
331
D9E
 73
     0
 91
        0
 40
0.0
 10
0.0
 20
0.0
 30
2.000000000000000E+50
 75
     0
  0
LAYOUT
  5
22
102
{ACAD_XDICTIONARY
360
FD7
102
}
102
{ACAD_REACTORS
330
1A
102
}
330
1A
100
AcDbPlotSettings
  1

  2
\\RD\EPSON Stylus C63 Series單色
  4
A4
  6

 40
3.757083177566528
 41
3.757076978683471
 42
3.757080078125
 43
3.757080078125
 44
209.9733276367187
 45
296.9683227539062
 46
0.0
 47
0.0
 48
0.0
 49
0.0
140
0.0
141
0.0
142
1.0
143
0.3405120737814363
 70
 11952
 72
     1
 73
     0
 74
     0
  7
單色出圖.ctb
 75
     0
147
2.936753428137963
148
-2047.07469463503
149
-1261.649717473083
100
AcDbLayout
  1
Model
 70
     1
 71
     0
 10
0.0
 20
0.0
 11
12.0
 21
9.0
 12
0.0
 22
0.0
 32
0.0
 14
0.0
 24
0.0
 34
0.0
 15
0.0
 25
0.0
 35
0.0
146
0.0
 13
0.0
 23
0.0
 33
0.0
 16
1.0
 26
0.0
 36
0.0
 17
0.0
 27
1.0
 37
0.0
 76
     0
330
1F
1001
ACAD_PSEXT
1000
\\RD\EPSON Stylus C63 Series單色
1000
EPSON Stylus C63 Series
1000
\\RD
1000

1070
     0
  0
LAYOUT
  5
1E
102
{ACAD_XDICTIONARY
360
FD5
102
}
102
{ACAD_REACTORS
330
1A
102
}
330
1A
100
AcDbPlotSettings
  1

  2

  4

  6

 40
0.0
 41
0.0
 42
0.0
 43
0.0
 44
0.0
 45
0.0
 46
0.0
 47
0.0
 48
0.0
 49
0.0
140
0.0
141
0.0
142
1.0
143
1.0
 70
   688
 72
     0
 73
     0
 74
     5
  7
單色出圖.ctb
 75
    16
147
1.0
148
0.0
149
0.0
100
AcDbLayout
  1
配置1
 70
     1
 71
     1
 10
0.0
 20
0.0
 11
420.0
 21
297.0
 12
0.0
 22
0.0
 32
0.0
 14
1.000000000000000E+20
 24
1.000000000000000E+20
 34
1.000000000000000E+20
 15
-1.000000000000000E+20
 25
-1.000000000000000E+20
 35
-1.000000000000000E+20
146
0.0
 13
0.0
 23
0.0
 33
0.0
 16
1.0
 26
0.0
 36
0.0
 17
0.0
 27
1.0
 37
0.0
 76
     0
330
1B
  0
LAYOUT
  5
26
102
{ACAD_XDICTIONARY
360
FD9
102
}
102
{ACAD_REACTORS
330
1A
102
}
330
1A
100
AcDbPlotSettings
  1

  2

  4

  6

 40
0.0
 41
0.0
 42
0.0
 43
0.0
 44
0.0
 45
0.0
 46
0.0
 47
0.0
 48
0.0
 49
0.0
140
0.0
141
0.0
142
1.0
143
1.0
 70
   688
 72
     0
 73
     0
 74
     5
  7
單色出圖.ctb
 75
    16
147
1.0
148
0.0
149
0.0
100
AcDbLayout
  1
配置2
 70
     1
 71
     2
 10
0.0
 20
0.0
 11
12.0
 21
9.0
 12
0.0
 22
0.0
 32
0.0
 14
0.0
 24
0.0
 34
0.0
 15
0.0
 25
0.0
 35
0.0
146
0.0
 13
0.0
 23
0.0
 33
0.0
 16
1.0
 26
0.0
 36
0.0
 17
0.0
 27
1.0
 37
0.0
 76
     0
330
23
  0
MLINESTYLE
  5
18
102
{ACAD_REACTORS
330
17
102
}
330
17
100
AcDbMlineStyle
  2
STANDARD
 70
     0
  3

 62
   256
 51
90.0
 52
90.0
 71
     2
 49
0.5
 62
   256
  6
BYLAYER
 49
-0.5
 62
   256
  6
BYLAYER
  0
ACDBPLACEHOLDER
  5
F
102
{ACAD_REACTORS
330
E
102
}
330
E
  0
TABLESTYLE
  5
11B
102
{ACAD_REACTORS
330
11A
102
}
330
11A
100
AcDbTableStyle
  3
Standard
 70
     0
 71
     0
 40
1.5
 41
1.5
280
     0
281
     0
  7
STANDARD
140
4.5
170
     2
 62
     0
 63
     7
283
     0
274
    -2
284
     1
 64
     0
275
    -2
285
     1
 65
     0
276
    -2
286
     1
 66
     0
277
    -2
287
     1
 67
     0
278
    -2
288
     1
 68
     0
279
    -2
289
     1
 69
     0
  7
STANDARD
140
6.0
170
     5
 62
     0
 63
     7
283
     0
274
    -2
284
     1
 64
     0
275
    -2
285
     1
 65
     0
276
    -2
286
     1
 66
     0
277
    -2
287
     1
 67
     0
278
    -2
288
     1
 68
     0
279
    -2
289
     1
 69
     0
  7
STANDARD
140
4.5
170
     5
 62
     0
 63
     7
283
     0
274
    -2
284
     1
 64
     0
275
    -2
285
     1
 65
     0
276
    -2
286
     1
 66
     0
277
    -2
287
     1
 67
     0
278
    -2
288
     1
 68
     0
279
    -2
289
     1
 69
     0
  0
DICTIONARYVAR
  5
138
102
{ACAD_REACTORS
330
94
102
}
330
94
100
DictionaryVariables
280
     0
  1
STANDARD
  0
DICTIONARYVAR
  5
96
102
{ACAD_REACTORS
330
94
102
}
330
94
100
DictionaryVariables
280
     0
  1
2
  0
DICTIONARYVAR
  5
95
102
{ACAD_REACTORS
330
94
102
}
330
94
100
DictionaryVariables
280
     0
  1
0
  0
DICTIONARYVAR
  5
FD1
102
{ACAD_REACTORS
330
94
102
}
330
94
100
DictionaryVariables
280
     0
  1

  0
DICTIONARY
  5
1B5
102
{ACAD_REACTORS
330
5B
102
}
330
5B
100
AcDbDictionary
281
     1
  0
DICTIONARY
  5
61
102
{ACAD_REACTORS
330
5B
102
}
330
5B
100
AcDbDictionary
281
     1
  0
XRECORD
  5
123
102
{ACAD_REACTORS
330
5B
102
}
330
5B
100
AcDbXrecord
280
     1
 90
-1023410169
  0
DICTIONARY
  5
FD7
330
22
100
AcDbDictionary
280
     1
281
     1
  3
ACAD_XREC_ROUNDTRIP
360
FD8
  0
DICTIONARY
  5
FD5
330
1E
100
AcDbDictionary
280
     1
281
     1
  3
ACAD_XREC_ROUNDTRIP
360
FD6
  0
DICTIONARY
  5
FD9
330
26
100
AcDbDictionary
280
     1
281
     1
  3
ACAD_XREC_ROUNDTRIP
360
FDA
  0
XRECORD
  5
FD8
102
{ACAD_REACTORS
330
FD7
102
}
330
FD7
100
AcDbXrecord
280
     1
102
SHADEPLOT
 70
     0
102
SHADEPLOTRESLEVEL
 70
     2
102
SHADEPLOTCUSTOMDPI
 70
   300
  0
XRECORD
  5
FD6
102
{ACAD_REACTORS
330
FD5
102
}
330
FD5
100
AcDbXrecord
280
     1
102
SHADEPLOT
 70
     0
102
SHADEPLOTRESLEVEL
 70
     2
102
SHADEPLOTCUSTOMDPI
 70
   300
  0
XRECORD
  5
FDA
102
{ACAD_REACTORS
330
FD9
102
}
330
FD9
100
AcDbXrecord
280
     1
102
SHADEPLOT
 70
     0
102
SHADEPLOTRESLEVEL
 70
     2
102
SHADEPLOTCUSTOMDPI
 70
   300
  0
ENDSEC
  0
EOF
