  0
SECTION
  2
HEADER
  9
$ACADVER
  1
AC1015
  9
$ACADMAINTVER
 70
    20
  9
$DWGCODEPAGE
  3
ANSI_950
  9
$INSBASE
 10
0.0
 20
0.0
 30
0.0
  9
$EXTMIN
 10
41.32324321349528
 20
51.51818922804455
 30
-0.0082435061776209
  9
$EXTMAX
 10
352.3049935748627
 20
283.43614264349
 30
188.7267914340314
  9
$LIMMIN
 10
0.0
 20
0.0
  9
$LIMMAX
 10
420.0
 20
297.0
  9
$ORTHOMODE
 70
     1
  9
$REGENMODE
 70
     1
  9
$FILLMODE
 70
     1
  9
$QTEXTMODE
 70
     0
  9
$MIRRTEXT
 70
     1
  9
$LTSCALE
 40
1.0
  9
$ATTMODE
 70
     1
  9
$TEXTSIZE
 40
3.0
  9
$TRACEWID
 40
1.0
  9
$TEXTSTYLE
  7
STANDARD
  9
$CLAYER
  8
0
  9
$CELTYPE
  6
ByLayer
  9
$CECOLOR
 62
   256
  9
$CELTSCALE
 40
1.0
  9
$DISPSILH
 70
     0
  9
$DIMSCALE
 40
1.0
  9
$DIMASZ
 40
3.0
  9
$DIMEXO
 40
1.0
  9
$DIMDLI
 40
8.0
  9
$DIMRND
 40
0.0
  9
$DIMDLE
 40
0.0
  9
$DIMEXE
 40
1.5
  9
$DIMTP
 40
0.1
  9
$DIMTM
 40
0.1
  9
$DIMTXT
 40
3.5
  9
$DIMCEN
 40
0.0
  9
$DIMTSZ
 40
0.0
  9
$DIMTOL
 70
     0
  9
$DIMLIM
 70
     0
  9
$DIMTIH
 70
     0
  9
$DIMTOH
 70
     0
  9
$DIMSE1
 70
     0
  9
$DIMSE2
 70
     0
  9
$DIMTAD
 70
     1
  9
$DIMZIN
 70
     8
  9
$DIMBLK
  1

  9
$DIMASO
 70
     1
  9
$DIMSHO
 70
     1
  9
$DIMPOST
  1

  9
$DIMAPOST
  1
"
  9
$DIMALT
 70
     0
  9
$DIMALTD
 70
     2
  9
$DIMALTF
 40
0.0393701
  9
$DIMLFAC
 40
1.0
  9
$DIMTOFL
 70
     1
  9
$DIMTVP
 40
0.0
  9
$DIMTIX
 70
     0
  9
$DIMSOXD
 70
     0
  9
$DIMSAH
 70
     0
  9
$DIMBLK1
  1

  9
$DIMBLK2
  1

  9
$DIMSTYLE
  2
AM_ISO
  9
$DIMCLRD
 70
   256
  9
$DIMCLRE
 70
   256
  9
$DIMCLRT
 70
   256
  9
$DIMTFAC
 40
0.6
  9
$DIMGAP
 40
0.7
  9
$DIMJUST
 70
     0
  9
$DIMSD1
 70
     0
  9
$DIMSD2
 70
     0
  9
$DIMTOLJ
 70
     0
  9
$DIMTZIN
 70
     8
  9
$DIMALTZ
 70
     0
  9
$DIMALTTZ
 70
     0
  9
$DIMUPT
 70
     0
  9
$DIMDEC
 70
     2
  9
$DIMTDEC
 70
     8
  9
$DIMALTU
 70
     2
  9
$DIMALTTD
 70
     2
  9
$DIMTXSTY
  7
STANDARD
  9
$DIMAUNIT
 70
     0
  9
$DIMADEC
 70
     0
  9
$DIMALTRND
 40
0.0
  9
$DIMAZIN
 70
     2
  9
$DIMDSEP
 70
    46
  9
$DIMATFIT
 70
     3
  9
$DIMFRAC
 70
     0
  9
$DIMLDRBLK
  1

  9
$DIMLUNIT
 70
     2
  9
$DIMLWD
 70
    -1
  9
$DIMLWE
 70
    -1
  9
$DIMTMOVE
 70
     0
  9
$LUNITS
 70
     2
  9
$LUPREC
 70
     2
  9
$SKETCHINC
 40
1.0
  9
$FILLETRAD
 40
2.5
  9
$AUNITS
 70
     0
  9
$AUPREC
 70
     0
  9
$MENU
  1
.
  9
$ELEVATION
 40
0.0
  9
$PELEVATION
 40
0.0
  9
$THICKNESS
 40
0.0
  9
$LIMCHECK
 70
     0
  9
$CHAMFERA
 40
2.5
  9
$CHAMFERB
 40
2.5
  9
$CHAMFERC
 40
20.0
  9
$CHAMFERD
 40
0.0
  9
$SKPOLY
 70
     0
  9
$TDCREATE
 40
2454188.339225614
  9
$TDUCREATE
 40
2454188.005892280
  9
$TDUPDATE
 40
2454188.418145428
  9
$TDUUPDATE
 40
2454188.084812095
  9
$TDINDWG
 40
0.0694352315
  9
$TDUSRTIMER
 40
0.0694352315
  9
$USRTIMER
 70
     1
  9
$ANGBASE
 50
0.0
  9
$ANGDIR
 70
     0
  9
$PDMODE
 70
     0
  9
$PDSIZE
 40
0.0
  9
$PLINEWID
 40
0.0
  9
$SPLFRAME
 70
     0
  9
$SPLINETYPE
 70
     6
  9
$SPLINESEGS
 70
     8
  9
$HANDSEED
  5
1936
  9
$SURFTAB1
 70
     6
  9
$SURFTAB2
 70
     6
  9
$SURFTYPE
 70
     6
  9
$SURFU
 70
     6
  9
$SURFV
 70
     6
  9
$UCSBASE
  2

  9
$UCSNAME
  2

  9
$UCSORG
 10
0.0
 20
0.0
 30
0.0
  9
$UCSXDIR
 10
1.0
 20
0.0
 30
0.0
  9
$UCSYDIR
 10
0.0
 20
1.0
 30
0.0
  9
$UCSORTHOREF
  2

  9
$UCSORTHOVIEW
 70
     0
  9
$UCSORGTOP
 10
0.0
 20
0.0
 30
0.0
  9
$UCSORGBOTTOM
 10
0.0
 20
0.0
 30
0.0
  9
$UCSORGLEFT
 10
0.0
 20
0.0
 30
0.0
  9
$UCSORGRIGHT
 10
0.0
 20
0.0
 30
0.0
  9
$UCSORGFRONT
 10
0.0
 20
0.0
 30
0.0
  9
$UCSORGBACK
 10
0.0
 20
0.0
 30
0.0
  9
$PUCSBASE
  2

  9
$PUCSNAME
  2

  9
$PUCSORG
 10
0.0
 20
0.0
 30
0.0
  9
$PUCSXDIR
 10
1.0
 20
0.0
 30
0.0
  9
$PUCSYDIR
 10
0.0
 20
1.0
 30
0.0
  9
$PUCSORTHOREF
  2

  9
$PUCSORTHOVIEW
 70
     0
  9
$PUCSORGTOP
 10
0.0
 20
0.0
 30
0.0
  9
$PUCSORGBOTTOM
 10
0.0
 20
0.0
 30
0.0
  9
$PUCSORGLEFT
 10
0.0
 20
0.0
 30
0.0
  9
$PUCSORGRIGHT
 10
0.0
 20
0.0
 30
0.0
  9
$PUCSORGFRONT
 10
0.0
 20
0.0
 30
0.0
  9
$PUCSORGBACK
 10
0.0
 20
0.0
 30
0.0
  9
$USERI1
 70
     0
  9
$USERI2
 70
     0
  9
$USERI3
 70
     0
  9
$USERI4
 70
     0
  9
$USERI5
 70
     0
  9
$USERR1
 40
0.0
  9
$USERR2
 40
0.0
  9
$USERR3
 40
0.0
  9
$USERR4
 40
0.0
  9
$USERR5
 40
0.0
  9
$WORLDVIEW
 70
     1
  9
$SHADEDGE
 70
     3
  9
$SHADEDIF
 70
    70
  9
$TILEMODE
 70
     1
  9
$MAXACTVP
 70
    64
  9
$PINSBASE
 10
0.0
 20
0.0
 30
0.0
  9
$PLIMCHECK
 70
     0
  9
$PEXTMIN
 10
1.000000000000000E+20
 20
1.000000000000000E+20
 30
1.000000000000000E+20
  9
$PEXTMAX
 10
-1.000000000000000E+20
 20
-1.000000000000000E+20
 30
-1.000000000000000E+20
  9
$PLIMMIN
 10
0.0
 20
0.0
  9
$PLIMMAX
 10
420.0
 20
297.0
  9
$UNITMODE
 70
     0
  9
$VISRETAIN
 70
     1
  9
$PLINEGEN
 70
     0
  9
$PSLTSCALE
 70
     1
  9
$TREEDEPTH
 70
  3020
  9
$CMLSTYLE
  2
Standard
  9
$CMLJUST
 70
     0
  9
$CMLSCALE
 40
20.0
  9
$PROXYGRAPHICS
 70
     1
  9
$MEASUREMENT
 70
     1
  9
$CELWEIGHT
370
    -1
  9
$ENDCAPS
280
     0
  9
$JOINSTYLE
280
     0
  9
$LWDISPLAY
290
     0
  9
$INSUNITS
 70
     4
  9
$HYPERLINKBASE
  1

  9
$STYLESHEET
  1
彩色出圖.ctb
  9
$XEDIT
290
     1
  9
$CEPSNTYPE
380
     0
  9
$PSTYLEMODE
290
     1
  9
$FINGERPRINTGUID
  2
{A05341BE-50C2-4D4D-A352-865525512463}
  9
$VERSIONGUID
  2
{3FB34C17-1BB1-4B49-A3BB-A30D3F3D99CC}
  9
$EXTNAMES
290
     1
  9
$PSVPSCALE
 40
0.0
  9
$OLESTARTUP
290
     0
  0
ENDSEC
  0
SECTION
  2
CLASSES
  0
CLASS
  1
ACDBDICTIONARYWDFLT
  2
AcDbDictionaryWithDefault
  3
ObjectDBX Classes
 90
        0
280
     0
281
     0
  0
CLASS
  1
ACDBPLACEHOLDER
  2
AcDbPlaceHolder
  3
ObjectDBX Classes
 90
        0
280
     0
281
     0
  0
CLASS
  1
LAYOUT
  2
AcDbLayout
  3
ObjectDBX Classes
 90
        0
280
     0
281
     0
  0
CLASS
  1
ACME_DOCUMENT
  2
AcMeDbDoc
  3
AcMeServices
 90
        0
280
     0
281
     0
  0
CLASS
  1
AMGSETTINGSOBJ
  2
AmgSettingsObj
  3
"AcadM|Product Description: AutoCAD Mechanical 2000|Company: Autodesk"
 90
        0
280
     0
281
     0
  0
CLASS
  1
ACMESCOPE
  2
AcMeScope
  3
AcMeServices
 90
        0
280
     0
281
     0
  0
CLASS
  1
ACMECOMMANDHISTORY
  2
AcMeCommandHistory
  3
AcMeServices
 90
        0
280
     0
281
     0
  0
CLASS
  1
ACIMSYSVARMAN
  2
AcImSysVarManager
  3
AcMeServices
 90
        0
280
     0
281
     0
  0
CLASS
  1
ACIMREALSYSVAR
  2
AcImRealSysVar
  3
AcMeServices
 90
        0
280
     0
281
     0
  0
CLASS
  1
ACIMINTSYSVAR
  2
AcImIntSysVar
  3
AcMeServices
 90
        0
280
     0
281
     0
  0
CLASS
  1
ACMEDRAWINGMAN
  2
AcMeDrawingMan
  3
AcMeServices
 90
        0
280
     0
281
     0
  0
CLASS
  1
ACMEVIEW
  2
AcMeView
  3
AcMeServices
 90
        0
280
     0
281
     0
  0
CLASS
  1
ACDBENTITYCACHE
  2
AcMeEntityCache
  3
AcMeServices
 90
        0
280
     0
281
     0
  0
CLASS
  1
GSMANAGER
  2
AcMeGSManager
  3
AcMeServices
 90
        0
280
     0
281
     0
  0
CLASS
  1
AMDTINTERNALREACTOR
  2
AmdtInternalReactor
  3
AcMeServices
 90
        0
280
     0
281
     0
  0
CLASS
  1
ACMESTATEMGR
  2
AcMeStateMgr
  3
AcMeServices
 90
        0
280
     0
281
     0
  0
CLASS
  1
ACGREFMASTER
  2
AcGrefMaster
  3
AcAttribServices
 90
        0
280
     0
281
     0
  0
CLASS
  1
ACME_DATABASE
  2
AcMeDbDatabase
  3
AcMeServices
 90
        0
280
     0
281
     0
  0
CLASS
  1
ACRFINSADJUSTERMGR
  2
AcRfInsAdjusterMgr
  3
AcMeServices
 90
        0
280
     0
281
     0
  0
CLASS
  1
ACGREFACADMASTER
  2
AcGrefacadMaster
  3
AcGrefServices
 90
        0
280
     0
281
     0
  0
CLASS
  1
AMIMASTER
  2
AmiMaster
  3
AmiServices
 90
        0
280
     0
281
     0
  0
CLASS
  1
ACMDATADICTIONARY
  2
AcmDataDictionary
  3
"AcmSymBB|Product Description: AutoCAD Mechanical 2004 DX|Company: Autodesk"
 90
        0
280
     0
281
     0
  0
CLASS
  1
ACMDATAENTRYBLOCK
  2
AcmDataEntryBlock
  3
"AcmSymBB|Product Description: AutoCAD Mechanical 2004 DX|Company: Autodesk"
 90
        0
280
     0
281
     0
  0
CLASS
  1
ACIMSTRSYSVAR
  2
AcImStrSysVar
  3
AcMeServices
 90
        0
280
     0
281
     0
  0
CLASS
  1
ACMSTANDARDISO
  2
AcmStandardISO
  3
"Amdt_StdImp|Product Description: AutoCAD Mechanical 2004 DX|Company: Autodesk"
 90
        0
280
     0
281
     0
  0
CLASS
  1
AMGOBJPROPCFG
  2
AmgObjPropCfg
  3
"AmgLay|Product Description: AutoCAD Mechanical 2000|Company: Autodesk"
 90
        1
280
     0
281
     0
  0
CLASS
  1
AMDTEDGESTANDARDISO
  2
AmdtEdgeStdISO
  3
"Amdt_StdImp|Product Description: AutoCAD Mechanical 2004 DX|Company: Autodesk"
 90
        0
280
     0
281
     0
  0
CLASS
  1
ACMSURFSTANDARDISO
  2
AcmSurfTextStdISO
  3
"Amdt_StdImp|Product Description: AutoCAD Mechanical 2004 DX|Company: Autodesk"
 90
        0
280
     0
281
     0
  0
CLASS
  1
ACMFCFSTANDARDISO
  2
AcmFCFStdISO
  3
"Amdt_StdImp|Product Description: AutoCAD Mechanical 2004 DX|Company: Autodesk"
 90
        0
280
     0
281
     0
  0
CLASS
  1
ACMWELDSTANDARDISO
  2
AcmWeldingStdISO
  3
"Amdt_StdImp|Product Description: AutoCAD Mechanical 2004 DX|Company: Autodesk"
 90
        0
280
     0
281
     0
  0
CLASS
  1
ACMIDSTANDARDISO
  2
AcmIdStdISO
  3
"Amdt_StdImp|Product Description: AutoCAD Mechanical 2004 DX|Company: Autodesk"
 90
        0
280
     0
281
     0
  0
CLASS
  1
ACMDATUMSTANDARDISO
  2
AcmDatumStdISO
  3
"Amdt_StdImp|Product Description: AutoCAD Mechanical 2004 DX|Company: Autodesk"
 90
        0
280
     0
281
     0
  0
CLASS
  1
ACMBOMSTANDARDISO
  2
AcmBOMStdISO
  3
"Amdt_StdImp|Product Description: AutoCAD Mechanical 2004 DX|Company: Autodesk"
 90
        0
280
     0
281
     0
  0
CLASS
  1
ACMDETAILSTANDARDISO
  2
AmdtDetailSymStdISO
  3
"Amdt_StdImp|Product Description: AutoCAD Mechanical 2004 DX|Company: Autodesk"
 90
        0
280
     0
281
     0
  0
CLASS
  1
ACMSECTIONSTANDARDISO
  2
AmdtSectionSymStdISO
  3
"Amdt_StdImp|Product Description: AutoCAD Mechanical 2004 DX|Company: Autodesk"
 90
        0
280
     0
281
     0
  0
CLASS
  1
ACMCENTERLINESTANDARDISO
  2
AmdtCenterLineStdISO
  3
"Amdt_StdImp|Product Description: AutoCAD Mechanical 2004 DX|Company: Autodesk"
 90
        0
280
     0
281
     0
  0
CLASS
  1
ACMNOTESTANDARDISO
  2
AmdtNoteStdISO
  3
"Amdt_StdImp|Product Description: AutoCAD Mechanical 2004 DX|Company: Autodesk"
 90
        0
280
     0
281
     0
  0
CLASS
  1
ACAMGLAYSTD
  2
AcAmgLayStd
  3
"AcAmgLayStd|Product Description: AutoCAD Mechanical 2000|Company: Autodesk"
 90
        0
280
     0
281
     0
  0
CLASS
  1
ACAMGDIMSTD
  2
AcAmgDimStd
  3
"AcAmgDimStd|Product Description: AutoCAD Mechanical 2000|Company: Autodesk"
 90
        0
280
     0
281
     0
  0
CLASS
  1
ACAMGHOLECHARTSTDISO
  2
AcAmgHoleChartStdISO
  3
ACMSYMBB_MODULE_NAME
 90
        0
280
     0
281
     0
  0
CLASS
  1
ACAMGTITLESTD
  2
AcAmgTitleStd
  3
"TITLEAPP"
 90
        0
280
     0
281
     0
  0
CLASS
  1
LAYER_INDEX
  2
AcDbLayerIndex
  3
ObjectDBX Classes
 90
    32768
280
     0
281
     0
  0
CLASS
  1
IDBUFFER
  2
AcDbIdBuffer
  3
ObjectDBX Classes
 90
    32768
280
     0
281
     0
  0
CLASS
  1
DICTIONARYVAR
  2
AcDbDictionaryVar
  3
ObjectDBX Classes
 90
        0
280
     0
281
     0
  0
CLASS
  1
AM_DRAWING_MGR
  2
AcDmDwgMgr
  3
AcMechDwgViewMgmt
 90
        0
280
     0
281
     0
  0
CLASS
  1
AM_DWG_DOCUMENT
  2
AcDmDwgDocument
  3
AcMechDwgViewMgmt
 90
        0
280
     0
281
     0
  0
CLASS
  1
AM_DWG_SHEET
  2
AcDmSheet
  3
AcMechDwgViewMgmt
 90
        0
280
     0
281
     0
  0
CLASS
  1
AM_VIEWDIMPARMAP
  2
AcDmViewDimParMap
  3
AcMechDwgViewMgmt
 90
        0
280
     0
281
     0
  0
CLASS
  1
AM_DWGMGR_NAME
  2
AcDmDwgMgrName
  3
AcMechDwgViewMgmt
 90
        0
280
     0
281
     0
  0
CLASS
  1
AMDTMENUSTATEMGR
  2
AmdtMenuStateMgr
  3
McadcomServices
 90
        0
280
     0
281
     0
  0
CLASS
  1
AMDTMCOMMENUSTATE
  2
AmdtMcomMenuState
  3
McadcomServices
 90
        0
280
     0
281
     0
  0
CLASS
  1
MAPIAMMOUDLE
  2
MApiAmModule
  3
MApiAmServices
 90
        0
280
     0
281
     0
  0
CLASS
  1
AMDTADMENUSTATE
  2
AmdtAdMenuState
  3
DesignerServices
 90
        0
280
     0
281
     0
  0
CLASS
  1
ADAPPL
  2
AcAdAppl
  3
DesignerServices
 90
        0
280
     0
281
     0
  0
CLASS
  1
DEPMGR
  2
AcAdDepMgr
  3
DesignerServices
 90
        0
280
     0
281
     0
  0
CLASS
  1
PARAMMGR
  2
AcAdParamMgr
  3
DesignerServices
 90
        0
280
     0
281
     0
  0
CLASS
  1
PARAMSCOPE
  2
AcAdParamScope
  3
DesignerServices
 90
        0
280
     0
281
     0
  0
CLASS
  1
NAMEDAPPL
  2
AcAdNamedAppl
  3
DesignerServices
 90
        0
280
     0
281
     0
  0
CLASS
  1
AMDTDMMENUSTATE
  2
AmdtDmMenuState
  3
AcMechDwgViewMgmt
 90
        0
280
     0
281
     0
  0
CLASS
  1
AMDTAMMENUSTATE
  2
AmdtAmMenuState
  3
DesignerAssemblies
 90
        0
280
     0
281
     0
  0
CLASS
  1
ACAMPROJECT
  2
AcAmProject
  3
DesignerAssemblies
 90
        0
280
     0
281
     0
  0
CLASS
  1
ACAMGRCOMPDEF
  2
AcAmGrCompDef
  3
DesignerAssemblies
 90
        0
280
     0
281
     0
  0
CLASS
  1
ACCMCONTEXT
  2
AcCmContext
  3
DesignerAssemblies
 90
        0
280
     0
281
     0
  0
CLASS
  1
ACAMCOMPDEF
  2
AcAmCompDef
  3
DesignerAssemblies
 90
        0
280
     0
281
     0
  0
CLASS
  1
ACAMCOMPDEFMGR
  2
AcAmCompDefMgr
  3
DesignerAssemblies
 90
        0
280
     0
281
     0
  0
CLASS
  1
AMCONTEXTMGR
  2
AcAmContextMgr
  3
DesignerAssemblies
 90
        0
280
     0
281
     0
  0
CLASS
  1
ACAMCONTEXTMODELER
  2
AcAmContextModeler
  3
DesignerAssemblies
 90
        0
280
     0
281
     0
  0
CLASS
  1
ACMTHREADLINESTANDARDISO
  2
AmdtThreadLineStdISO
  3
"Amdt_StdImp|Product Description: AutoCAD Mechanical 2004 DX|Company: Autodesk"
 90
        0
280
     0
281
     0
  0
CLASS
  1
CATALOGSTATE
  2
AcAmCatalogState
  3
DesignerAssemblies
 90
        0
280
     0
281
     0
  0
CLASS
  1
ACAMGRCOMPDEFSET
  2
AcAmGrCompDefSet
  3
DesignerAssemblies
 90
        0
280
     0
281
     0
  0
CLASS
  1
AMDTBROWSERDBTAB
  2
AmdtBrowserDbTab
  3
McadcomServices
 90
        0
280
     0
281
     0
  0
CLASS
  1
CBROWSERAPPOBJECT
  2
CBrowserAppObject
  3
McadcomServices
 90
        0
280
     0
281
     0
  0
CLASS
  1
DM_PLACEHOLDER
  2
AcDmSelsetPlaceholder
  3
AcMechDwgViewMgmt
 90
        0
280
     0
281
     0
  0
CLASS
  1
TABLESTYLE
  2
AcDbTableStyle
  3
ObjectDBX Classes
 90
     2047
280
     0
281
     0
  0
CLASS
  1
VAACXREFPANELOBJECT
  2
VaAcXREFPanelObject
  3
VAAC_ADDIN
 90
    32768
280
     0
281
     0
  0
CLASS
  1
VAACIMAGEINVENTORY
  2
VaAcImageInventory
  3
VAAC_ADDIN
 90
    32768
280
     0
281
     0
  0
CLASS
  1
AMDTNOTETEMPLATEDB
  2
AmdtNoteTemplateDB
  3
AMDT_STDIMP_MODULE_NAME
 90
        0
280
     0
281
     0
  0
CLASS
  1
ACMBOM
  2
AcmBom
  3
"AcmSymBB|Product Description: AutoCAD Mechanical 2004 DX|Company: Autodesk"
 90
    32768
280
     0
281
     0
  0
CLASS
  1
AMDTFORMULAUPDATEDISPATCHER
  2
AmdtFormulaUpdateDispatcher
  3
AcMeServices
 90
    32768
280
     0
281
     0
  0
CLASS
  1
ACMPARTLIST
  2
AcmPartList
  3
"AcmSymBB|Product Description: AutoCAD Mechanical 2004 DX|Company: Autodesk"
 90
    33791
280
     0
281
     1
  0
CLASS
  1
ACAMGFILTERDAT
  2
AcAmgFilterDat
  3
"AcadM|Product Description: AutoCAD Mechanical 2000|Company: Autodesk"
 90
        0
280
     0
281
     0
  0
CLASS
  1
DIMASSOC
  2
AcDbDimAssoc
  3
"AcDbDimAssoc|Product Desc:     AcDim ARX App For Dimension|Company:          Autodesk, Inc.|WEB Address:      www.autodesk.com"
 90
        0
280
     0
281
     0
  0
CLASS
  1
AMDTNOTE
  2
AmdtNote
  3
"AcmSymBB|Product Description: AutoCAD Mechanical 2004 DX|Company: Autodesk"
 90
    33791
280
     0
281
     1
  0
CLASS
  1
SORTENTSTABLE
  2
AcDbSortentsTable
  3
ObjectDBX Classes
 90
    32768
280
     0
281
     0
  0
CLASS
  1
ACRFATTGENMGR
  2
AcRfAttGeneralMgr
  3
AcAttribServices
 90
        0
280
     0
281
     0
  0
ENDSEC
  0
SECTION
  2
TABLES
  0
TABLE
  2
VPORT
  5
8
330
0
100
AcDbSymbolTable
 70
     3
  0
VPORT
  5
192D
330
8
100
AcDbSymbolTableRecord
100
AcDbViewportTableRecord
  2
*Active
 70
     0
 10
0.0
 20
0.0
 11
1.0
 21
1.0
 12
196.814118394179
 22
167.4771659357673
 13
0.0
 23
0.0
 14
2.5
 24
2.5
 15
10.0
 25
10.0
 16
0.0
 26
0.0
 36
1.0
 17
0.0
 27
0.0
 37
0.0
 40
233.8060235925047
 41
1.661684782608695
 42
50.0
 43
0.0
 44
0.0
 50
0.0
 51
0.0
 71
     0
 72
   100
 73
     1
 74
     3
 75
     0
 76
     0
 77
     0
 78
     0
281
     0
 65
     1
110
0.0
120
0.0
130
0.0
111
1.0
121
0.0
131
0.0
112
0.0
122
1.0
132
0.0
 79
     0
146
0.0
  0
ENDTAB
  0
TABLE
  2
LTYPE
  5
5
330
0
100
AcDbSymbolTable
 70
    14
  0
LTYPE
  5
14
330
5
100
AcDbSymbolTableRecord
100
AcDbLinetypeTableRecord
  2
ByBlock
 70
     0
  3

 72
    65
 73
     0
 40
0.0
  0
LTYPE
  5
15
330
5
100
AcDbSymbolTableRecord
100
AcDbLinetypeTableRecord
  2
ByLayer
 70
     0
  3

 72
    65
 73
     0
 40
0.0
  0
LTYPE
  5
16
330
5
100
AcDbSymbolTableRecord
100
AcDbLinetypeTableRecord
  2
Continuous
 70
     0
  3
Solid line
 72
    65
 73
     0
 40
0.0
  0
LTYPE
  5
64
330
5
100
AcDbSymbolTableRecord
100
AcDbLinetypeTableRecord
  2
AM_ISO02W050
 70
     0
  3
__ __ __ __ __ __ __ __ __ __ __ __ __ __ __
 72
    65
 73
     2
 40
7.5
 49
6.0
 74
     0
 49
-1.5
 74
     0
  0
LTYPE
  5
65
330
5
100
AcDbSymbolTableRecord
100
AcDbLinetypeTableRecord
  2
AM_ISO08W050
 70
     0
  3
____ . ____ . ____ . ____ . ____ . ____ . ____
 72
    65
 73
     4
 40
18.0
 49
12.0
 74
     0
 49
-1.5
 74
     0
 49
3.0
 74
     0
 49
-1.5
 74
     0
  0
LTYPE
  5
66
330
5
100
AcDbSymbolTableRecord
100
AcDbLinetypeTableRecord
  2
AM_ISO09W050
 70
     0
  3
_____ . . _____ . . _____ . . ____ .. ____
 72
    65
 73
     6
 40
22.5
 49
12.0
 74
     0
 49
-1.5
 74
     0
 49
3.0
 74
     0
 49
-1.5
 74
     0
 49
3.0
 74
     0
 49
-1.5
 74
     0
  0
LTYPE
  5
67
330
5
100
AcDbSymbolTableRecord
100
AcDbLinetypeTableRecord
  2
Amconstr
 70
     0
  3
_______________________
 72
    65
 73
     2
 40
9999.0
 49
9999.0
 74
     0
 49
0.0
 74
     0
  0
LTYPE
  5
68
330
5
100
AcDbSymbolTableRecord
100
AcDbLinetypeTableRecord
  2
AM_ISO08W050x2
 70
     0
  3
__ . __ . __ . __ . __ . __
 72
    65
 73
     4
 40
9.0
 49
6.0
 74
     0
 49
-0.75
 74
     0
 49
1.5
 74
     0
 49
-0.75
 74
     0
  0
LTYPE
  5
69
330
5
100
AcDbSymbolTableRecord
100
AcDbLinetypeTableRecord
  2
AM_ISO02W050x2
 70
     0
  3
 _ _ _ _ _ _ _ _ _ _ _ _
 72
    65
 73
     2
 40
3.75
 49
3.0
 74
     0
 49
-0.75
 74
     0
  0
LTYPE
  5
6C
330
5
100
AcDbSymbolTableRecord
100
AcDbLinetypeTableRecord
  2
Amzigzag
 70
     0
  3
/\/-/\/-/\/-/\/-/\/-/\/
 72
    65
 73
     2
 40
11.0001
 49
0.0001
 74
     4
 75
   135
340
6B
 46
0.04
 50
0.0
 44
0.0
 45
0.0
 49
-11.0
 74
     0
  0
LTYPE
  5
7A
330
5
100
AcDbSymbolTableRecord
100
AcDbLinetypeTableRecord
  2
ACISOWELD
 70
     0
  3
_ _ _ _ _
 72
    65
 73
     2
 40
2.0
 49
2.0
 74
     0
 49
-1.0
 74
     0
  0
LTYPE
  5
7B
330
5
100
AcDbSymbolTableRecord
100
AcDbLinetypeTableRecord
  2
ACISOTGB
 70
     0
  3
__ . . __ . .
 72
    65
 73
     6
 40
9.0
 49
4.0
 74
     0
 49
-1.0
 74
     0
 49
1.0
 74
     0
 49
-1.0
 74
     0
 49
1.0
 74
     0
 49
-1.0
 74
     0
  0
LTYPE
  5
7C
330
5
100
AcDbSymbolTableRecord
100
AcDbLinetypeTableRecord
  2
ACISOTGL
 70
     0
  3
_ _ _ _ _
 72
    65
 73
     2
 40
3.0
 49
2.0
 74
     0
 49
-1.0
 74
     0
  0
LTYPE
  5
7E
330
5
100
AcDbSymbolTableRecord
100
AcDbLinetypeTableRecord
  2
CENTER
 70
     0
  3
__ . __
 72
    65
 73
     4
 40
7.0
 49
4.0
 74
     0
 49
-1.0
 74
     0
 49
1.0
 74
     0
 49
-1.0
 74
     0
  0
LTYPE
  5
D8
330
5
100
AcDbSymbolTableRecord
100
AcDbLinetypeTableRecord
  2
HIDDEN
 70
     0
  3
Hidden __ __ __ __ __ __ __ __ __ __ __ __ __ _
 72
    65
 73
     2
 40
9.524999999999998
 49
6.349999999999999
 74
     0
 49
-3.174999999999999
 74
     0
  0
LTYPE
  5
D9
330
5
100
AcDbSymbolTableRecord
100
AcDbLinetypeTableRecord
  2
PHANTOM2
 70
     0
  3
Phantom (.5x) ___ _ _ ___ _ _ ___ _ _ ___ _ _
 72
    65
 73
     6
 40
31.75
 49
15.875
 74
     0
 49
-3.174999999999999
 74
     0
 49
3.174999999999999
 74
     0
 49
-3.174999999999999
 74
     0
 49
3.174999999999999
 74
     0
 49
-3.174999999999999
 74
     0
  0
ENDTAB
  0
TABLE
  2
LAYER
  5
2
102
{ACAD_XDICTIONARY
360
3F9
102
}
330
0
100
AcDbSymbolTable
 70
     6
  0
LAYER
  5
10
330
2
100
AcDbSymbolTableRecord
100
AcDbLayerTableRecord
  2
0
 70
     0
 62
     7
  6
Continuous
370
    -3
390
F
  0
LAYER
  5
A7E
330
2
100
AcDbSymbolTableRecord
100
AcDbLayerTableRecord
  2
AM_VIS
 70
     0
 62
     7
  6
Continuous
370
    50
390
F
  0
LAYER
  5
C92
330
2
100
AcDbSymbolTableRecord
100
AcDbLayerTableRecord
  2
AM_7
 70
     0
 62
     1
  6
CENTER
370
    25
390
F
  0
LAYER
  5
DD0
330
2
100
AcDbSymbolTableRecord
100
AcDbLayerTableRecord
  2
AM_5
 70
     0
 62
     5
  6
Continuous
370
    50
390
F
  0
LAYER
  5
DE0
330
2
100
AcDbSymbolTableRecord
100
AcDbLayerTableRecord
  2
Defpoints
 70
     0
 62
     7
  6
Continuous
290
     0
370
    -3
390
F
  0
LAYER
  5
FFE
330
2
100
AcDbSymbolTableRecord
100
AcDbLayerTableRecord
  2
LOGO
 70
     0
 62
     7
  6
Continuous
370
    -3
390
F
  0
ENDTAB
  0
TABLE
  2
STYLE
  5
3
330
0
100
AcDbSymbolTable
 70
     6
  0
STYLE
  5
11
330
3
100
AcDbSymbolTableRecord
100
AcDbTextStyleTableRecord
  2
STANDARD
 70
     0
 40
0.0
 41
1.0
 50
0.0
 71
     0
 42
3.0
  3
ISOCP.SHX
  4
CHINESET.SHX
  0
STYLE
  5
6B
330
3
100
AcDbSymbolTableRecord
100
AcDbTextStyleTableRecord
  2

 70
     1
 40
0.0
 41
1.0
 50
0.0
 71
     0
 42
2.5
  3
ltypeshp.shx
  4

  0
STYLE
  5
6D
330
3
100
AcDbSymbolTableRecord
100
AcDbTextStyleTableRecord
  2
ACISOTS
 70
     0
 40
1.0
 41
1.0
 50
0.0
 71
     0
 42
1.0
  3
isocp.shx
  4
chineset.shx
  0
STYLE
  5
79
330
3
100
AcDbSymbolTableRecord
100
AcDbTextStyleTableRecord
  2
ACISOGDT
 70
     0
 40
0.0
 41
1.0
 50
0.0
 71
     0
 42
2.5
  3
amgdt.shx
  4
chineset.shx
  0
STYLE
  5
FFF
330
3
100
AcDbSymbolTableRecord
100
AcDbTextStyleTableRecord
  2
CHINESET
 70
     0
 40
0.0
 41
1.0
 50
0.0
 71
     0
 42
3.0
  3
simplex.shx
  4
CHINESET.SHX
  0
ENDTAB
  0
TABLE
  2
VIEW
  5
6
330
0
100
AcDbSymbolTable
 70
     0
  0
ENDTAB
  0
TABLE
  2
UCS
  5
7
330
0
100
AcDbSymbolTable
 70
     0
  0
ENDTAB
  0
TABLE
  2
APPID
  5
9
330
0
100
AcDbSymbolTable
 70
    18
  0
APPID
  5
12
330
9
100
AcDbSymbolTableRecord
100
AcDbRegAppTableRecord
  2
ACAD
 70
     0
  0
APPID
  5
46
330
9
100
AcDbSymbolTableRecord
100
AcDbRegAppTableRecord
  2
MCAD_NO_VIS
 70
     0
  0
APPID
  5
47
330
9
100
AcDbSymbolTableRecord
100
AcDbRegAppTableRecord
  2
ACAD_TEMP_GRAPHIC
 70
     0
  0
APPID
  5
58
330
9
100
AcDbSymbolTableRecord
100
AcDbRegAppTableRecord
  2
ACATTRIBSERVICES
 70
     0
  0
APPID
  5
EE
330
9
100
AcDbSymbolTableRecord
100
AcDbRegAppTableRecord
  2
AD_DRAW
 70
     0
  0
APPID
  5
10C
330
9
100
AcDbSymbolTableRecord
100
AcDbRegAppTableRecord
  2
DESIGNERASSEMBLIES
 70
     0
  0
APPID
  5
111
330
9
100
AcDbSymbolTableRecord
100
AcDbRegAppTableRecord
  2
ACADM_DIM_EDIT
 70
     0
  0
APPID
  5
112
330
9
100
AcDbSymbolTableRecord
100
AcDbRegAppTableRecord
  2
AMDT_DM_ADJ
 70
     0
  0
APPID
  5
22C
330
9
100
AcDbSymbolTableRecord
100
AcDbRegAppTableRecord
  2
ACAD_DSTYLE_DIMTEXT_FILL
 70
     0
  0
APPID
  5
452
330
9
100
AcDbSymbolTableRecord
100
AcDbRegAppTableRecord
  2
GENIUS_GENOENT_13
 70
     0
  0
APPID
  5
453
330
9
100
AcDbSymbolTableRecord
100
AcDbRegAppTableRecord
  2
GENIUS_GENOBJ-N-CRS_13
 70
     0
  0
APPID
  5
454
330
9
100
AcDbSymbolTableRecord
100
AcDbRegAppTableRecord
  2
GENIUS_GENOLIS_13
 70
     0
  0
APPID
  5
455
330
9
100
AcDbSymbolTableRecord
100
AcDbRegAppTableRecord
  2
GENIUS_GENODEF_13
 70
     0
  0
APPID
  5
456
330
9
100
AcDbSymbolTableRecord
100
AcDbRegAppTableRecord
  2
GENIUS_GENOREF_13
 70
     0
  0
APPID
  5
6F3
330
9
100
AcDbSymbolTableRecord
100
AcDbRegAppTableRecord
  2
ACAD_PSEXT
 70
     0
  0
APPID
  5
808
330
9
100
AcDbSymbolTableRecord
100
AcDbRegAppTableRecord
  2
GENIUS_GENDTOL_13
 70
     0
  0
APPID
  5
1000
330
9
100
AcDbSymbolTableRecord
100
AcDbRegAppTableRecord
  2
GENIUS_GENREC_14
 70
     0
  0
APPID
  5
1001
330
9
100
AcDbSymbolTableRecord
100
AcDbRegAppTableRecord
  2
GENIUS_GENOBJ-N-REC_13
 70
     0
  0
ENDTAB
  0
TABLE
  2
DIMSTYLE
  5
A
330
0
100
AcDbSymbolTable
 70
     9
100
AcDbDimStyleTable
 71
     3
340
81
340
8B
340
86
  0
DIMSTYLE
105
81
330
A
100
AcDbSymbolTableRecord
100
AcDbDimStyleTableRecord
  2
AM_ISO
 70
     0
  4
"
 41
3.0
 42
1.0
 43
8.0
 44
1.5
 47
0.1
 48
0.1
 73
     0
 74
     0
 77
     1
 78
     8
 79
     2
140
3.5
141
0.0
143
0.0393701
146
0.6
147
0.7
172
     1
176
   256
177
   256
178
   256
271
     2
272
     2
283
     0
284
     8
340
11
371
    -1
372
    -1
  0
DIMSTYLE
105
82
102
{ACAD_REACTORS
330
15B4
330
15E4
102
}
330
A
100
AcDbSymbolTableRecord
100
AcDbDimStyleTableRecord
  2
AM_ISO$3
 70
     0
  4
"
 41
3.0
 42
1.0
 43
8.0
 44
1.5
 47
0.1
 48
0.1
 73
     0
 77
     1
 78
     8
 79
     2
140
3.5
141
0.0
143
0.0393701
146
0.6
147
0.7
176
   256
177
   256
178
   256
271
     2
272
     2
283
     0
284
     8
288
     1
289
     0
340
11
371
    -1
372
    -1
  0
DIMSTYLE
105
83
330
A
100
AcDbSymbolTableRecord
100
AcDbDimStyleTableRecord
  2
AM_ISO$4
 70
     0
  4
"
 41
3.0
 42
1.0
 43
8.0
 44
1.5
 47
0.1
 48
0.1
 73
     0
 77
     1
 78
     8
 79
     2
140
3.5
141
0.0
143
0.0393701
146
0.6
147
0.7
176
   256
177
   256
178
   256
271
     2
272
     2
283
     0
284
     8
288
     1
289
     0
340
11
371
    -1
372
    -1
  0
DIMSTYLE
105
84
330
A
100
AcDbSymbolTableRecord
100
AcDbDimStyleTableRecord
  2
AM_ISO$6
 70
     0
  4
"
 41
3.0
 42
1.0
 43
8.0
 44
1.5
 47
0.1
 48
0.1
 73
     0
 74
     0
 78
     8
 79
     2
140
3.5
141
0.0
143
0.0393701
146
0.6
147
0.7
172
     1
176
   256
177
   256
178
   256
271
     2
272
     2
283
     0
284
     8
340
11
371
    -1
372
    -1
  0
DIMSTYLE
105
85
330
A
100
AcDbSymbolTableRecord
100
AcDbDimStyleTableRecord
  2
AM_ISO$7
 70
     0
  4
"
 41
3.0
 42
1.0
 43
8.0
 44
1.5
 47
0.1
 48
0.1
 73
     0
 74
     0
 77
     1
 78
     8
 79
     2
140
5.0
141
0.0
143
0.0393701
146
0.6
147
0.7
172
     1
176
   256
177
   256
178
   256
271
     2
272
     2
283
     0
284
     8
340
11
371
    -1
372
    -1
  0
DIMSTYLE
105
86
330
A
100
AcDbSymbolTableRecord
100
AcDbDimStyleTableRecord
  2
AM_ISO$SF
 70
     0
  4
"
 41
2.5
 42
1.0
 43
10.0
 44
1.0
 47
0.1
 48
0.1
 73
     0
 74
     0
 75
     1
 76
     1
 77
     1
 78
     8
 79
     2
140
3.5
141
0.0
143
0.0393701
146
0.71
147
1.5
172
     1
176
   256
177
   256
178
     2
271
     2
272
     3
274
     4
283
     0
284
     8
340
11
371
    -1
372
    -1
  0
DIMSTYLE
105
8B
330
A
100
AcDbSymbolTableRecord
100
AcDbDimStyleTableRecord
  2
AM_ISO$SH
 70
     0
  4
"
 41
2.5
 42
1.0
 43
10.0
 44
1.0
 47
0.1
 48
0.1
 73
     0
 74
     0
 75
     1
 76
     1
 77
     1
 78
     8
 79
     2
140
3.5
141
0.0
143
0.0393701
144
2.0
146
0.71
147
1.5
172
     1
173
     1
176
   256
177
   256
178
     2
271
     2
272
     3
274
     4
283
     0
284
     8
340
11
343
87
371
    -1
372
    -1
  0
DIMSTYLE
105
40B
102
{ACAD_REACTORS
330
1451
330
1477
330
14C7
330
156F
330
1595
330
1658
330
1682
330
1888
102
}
330
A
100
AcDbSymbolTableRecord
100
AcDbDimStyleTableRecord
  2
AM_ISO$0
 70
     0
  4
"
 41
3.0
 42
1.0
 43
8.0
 44
1.5
 47
0.1
 48
0.1
 73
     0
 74
     0
 77
     1
 78
     8
 79
     2
140
3.5
141
0.0
143
0.0393701
146
0.6
147
0.7
172
     1
176
   256
177
   256
178
   256
271
     2
272
     2
283
     0
284
     8
340
11
371
    -1
372
    -1
  0
ENDTAB
  0
TABLE
  2
BLOCK_RECORD
  5
1
330
0
100
AcDbSymbolTable
 70
    16
  0
BLOCK_RECORD
  5
1F
102
{ACAD_XDICTIONARY
360
8F
102
}
330
1
100
AcDbSymbolTableRecord
100
AcDbBlockTableRecord
  2
*Model_Space
340
22
  0
BLOCK_RECORD
  5
1B
330
1
100
AcDbSymbolTableRecord
100
AcDbBlockTableRecord
  2
*Paper_Space
340
1E
  0
BLOCK_RECORD
  5
23
330
1
100
AcDbSymbolTableRecord
100
AcDbBlockTableRecord
  2
*Paper_Space0
340
26
  0
BLOCK_RECORD
  5
87
330
1
100
AcDbSymbolTableRecord
100
AcDbBlockTableRecord
  2
GENAXEH
340
0
  0
BLOCK_RECORD
  5
1452
330
1
100
AcDbSymbolTableRecord
100
AcDbBlockTableRecord
  2
*D3
340
0
  0
BLOCK_RECORD
  5
1478
330
1
100
AcDbSymbolTableRecord
100
AcDbBlockTableRecord
  2
*D4
340
0
  0
BLOCK_RECORD
  5
14C8
330
1
100
AcDbSymbolTableRecord
100
AcDbBlockTableRecord
  2
*D6
340
0
  0
BLOCK_RECORD
  5
1570
330
1
100
AcDbSymbolTableRecord
100
AcDbBlockTableRecord
  2
*D7
340
0
  0
BLOCK_RECORD
  5
1596
330
1
100
AcDbSymbolTableRecord
100
AcDbBlockTableRecord
  2
*D8
340
0
  0
BLOCK_RECORD
  5
15B5
330
1
100
AcDbSymbolTableRecord
100
AcDbBlockTableRecord
  2
*D9
340
0
  0
BLOCK_RECORD
  5
15E5
330
1
100
AcDbSymbolTableRecord
100
AcDbBlockTableRecord
  2
*D10
340
0
  0
BLOCK_RECORD
  5
1659
330
1
100
AcDbSymbolTableRecord
100
AcDbBlockTableRecord
  2
*D11
340
0
  0
BLOCK_RECORD
  5
1683
330
1
100
AcDbSymbolTableRecord
100
AcDbBlockTableRecord
  2
*D12
340
0
  0
BLOCK_RECORD
  5
17D6
102
{ACAD_XDICTIONARY
360
1855
102
}
330
1
100
AcDbSymbolTableRecord
100
AcDbBlockTableRecord
  2
A$C531C3E04
340
0
  0
BLOCK_RECORD
  5
1889
330
1
100
AcDbSymbolTableRecord
100
AcDbBlockTableRecord
  2
*D14
340
0
  0
ENDTAB
  0
ENDSEC
  0
SECTION
  2
BLOCKS
  0
BLOCK
  5
20
330
1F
100
AcDbEntity
  8
0
100
AcDbBlockBegin
  2
*Model_Space
 70
     0
 10
0.0
 20
0.0
 30
0.0
  3
*Model_Space
  1

  0
ENDBLK
  5
21
330
1F
100
AcDbEntity
  8
0
100
AcDbBlockEnd
  0
BLOCK
  5
1C
330
1B
100
AcDbEntity
 67
     1
  8
0
100
AcDbBlockBegin
  2
*Paper_Space
 70
     0
 10
0.0
 20
0.0
 30
0.0
  3
*Paper_Space
  1

  0
ENDBLK
  5
1D
330
1B
100
AcDbEntity
 67
     1
  8
0
100
AcDbBlockEnd
  0
BLOCK
  5
24
330
23
100
AcDbEntity
  8
0
100
AcDbBlockBegin
  2
*Paper_Space0
 70
     0
 10
0.0
 20
0.0
 30
0.0
  3
*Paper_Space0
  1

  0
ENDBLK
  5
25
330
23
100
AcDbEntity
  8
0
100
AcDbBlockEnd
  0
BLOCK
  5
89
330
87
100
AcDbEntity
  8
0
100
AcDbBlockBegin
  2
GENAXEH
 70
     0
 10
0.0
 20
0.0
 30
0.0
  3
GENAXEH
  1

  0
LINE
  5
88
330
87
100
AcDbEntity
  8
0
100
AcDbLine
 10
-1.0
 20
0.0
 30
0.0
 11
1.0
 21
0.0
 31
0.0
  0
ENDBLK
  5
8A
330
87
100
AcDbEntity
  8
0
100
AcDbBlockEnd
  0
BLOCK
  5
145C
330
1452
100
AcDbEntity
  8
0
100
AcDbBlockBegin
  2
*D3
 70
     1
 10
0.0
 20
0.0
 30
0.0
  3
*D3
  1

  0
LINE
  5
18A7
330
1452
100
AcDbEntity
  8
AM_5
100
AcDbLine
 10
92.87524956446986
 20
175.3590386071381
 30
0.0
 11
92.87524956446986
 21
188.259039617138
 31
0.0
  0
LINE
  5
18A8
330
1452
100
AcDbEntity
  8
AM_5
100
AcDbLine
 10
129.8752495644698
 20
175.3590386071381
 30
0.0
 11
129.8752495644698
 21
188.259039617138
 31
0.0
  0
LINE
  5
18A9
330
1452
100
AcDbEntity
  8
AM_5
100
AcDbLine
 10
95.87524956446987
 20
186.7590396171381
 30
0.0
 11
126.8752495644698
 21
186.7590396171381
 31
0.0
  0
SOLID
  5
18AA
330
1452
100
AcDbEntity
  8
AM_5
100
AcDbTrace
 10
95.87524956446987
 20
187.259039617138
 30
0.0
 11
95.87524956446987
 21
186.2590396171381
 31
0.0
 12
92.87524956446986
 22
186.7590396171381
 32
0.0
 13
92.87524956446986
 23
186.7590396171381
 33
0.0
  0
SOLID
  5
18AB
330
1452
100
AcDbEntity
  8
AM_5
100
AcDbTrace
 10
126.8752495644698
 20
187.259039617138
 30
0.0
 11
126.8752495644698
 21
186.2590396171381
 31
0.0
 12
129.8752495644698
 22
186.7590396171381
 32
0.0
 13
129.8752495644698
 23
186.7590396171381
 33
0.0
  0
MTEXT
  5
18AC
330
1452
100
AcDbEntity
  8
AM_5
100
AcDbMText
 10
111.3752495644698
 20
189.2090396171381
 30
0.0
 40
3.5
 41
0.0
 71
     5
 72
     1
  1
37
 73
     1
 44
1.0
1001
ACAD
1000
MTEXTBEGIN
1070
    73
1070
     1
1070
    44
1040
1.0
1070
    74
1070
     0
1000
MTEXTEND
  0
POINT
  5
18AD
330
1452
100
AcDbEntity
  8
Defpoints
 62
     0
100
AcDbPoint
 10
92.87524956446986
 20
174.3590386071381
 30
0.0
  0
POINT
  5
18AE
330
1452
100
AcDbEntity
  8
Defpoints
 62
     0
100
AcDbPoint
 10
129.8752495644698
 20
174.3590386071381
 30
0.0
  0
POINT
  5
18AF
330
1452
100
AcDbEntity
  8
Defpoints
 62
     0
100
AcDbPoint
 10
129.8752495644698
 20
186.7590396171381
 30
0.0
  0
ENDBLK
  5
145D
330
1452
100
AcDbEntity
  8
0
100
AcDbBlockEnd
  0
BLOCK
  5
1482
330
1478
100
AcDbEntity
  8
0
100
AcDbBlockBegin
  2
*D4
 70
     1
 10
0.0
 20
0.0
 30
0.0
  3
*D4
  1

  0
LINE
  5
18B0
330
1478
100
AcDbEntity
  8
AM_5
100
AcDbLine
 10
88.62524956446987
 20
174.7590386071381
 30
0.0
 11
76.12524956446988
 21
174.7590386071381
 31
0.0
  0
LINE
  5
18B1
330
1478
100
AcDbEntity
  8
AM_5
100
AcDbLine
 10
95.62524956446987
 20
135.0590386071381
 30
0.0
 11
76.12524956446987
 21
135.0590386071381
 31
0.0
  0
LINE
  5
18B2
330
1478
100
AcDbEntity
  8
AM_5
100
AcDbLine
 10
77.62524956446988
 20
171.7590386071381
 30
0.0
 11
77.62524956446987
 21
138.0590386071381
 31
0.0
  0
SOLID
  5
18B3
330
1478
100
AcDbEntity
  8
AM_5
100
AcDbTrace
 10
77.12524956446988
 20
171.7590386071381
 30
0.0
 11
78.12524956446988
 21
171.7590386071381
 31
0.0
 12
77.62524956446988
 22
174.7590386071381
 32
0.0
 13
77.62524956446988
 23
174.7590386071381
 33
0.0
  0
SOLID
  5
18B4
330
1478
100
AcDbEntity
  8
AM_5
100
AcDbTrace
 10
77.12524956446987
 20
138.0590386071381
 30
0.0
 11
78.12524956446987
 21
138.0590386071381
 31
0.0
 12
77.62524956446987
 22
135.0590386071381
 32
0.0
 13
77.62524956446987
 23
135.0590386071381
 33
0.0
  0
MTEXT
  5
18B5
330
1478
100
AcDbEntity
  8
AM_5
100
AcDbMText
 10
75.17524956446985
 20
154.9090386071381
 30
0.0
 40
3.5
 41
0.0
 71
     5
 72
     1
  1
39.7
 11
0.0000000000000001
 21
1.0
 31
0.0
 73
     1
 44
1.0
1001
ACAD
1000
MTEXTBEGIN
1070
    73
1070
     1
1070
    44
1040
1.0
1070
    74
1070
     0
1000
MTEXTEND
  0
POINT
  5
18B6
330
1478
100
AcDbEntity
  8
Defpoints
 62
     0
100
AcDbPoint
 10
89.62524956446987
 20
174.7590386071381
 30
0.0
  0
POINT
  5
18B7
330
1478
100
AcDbEntity
  8
Defpoints
 62
     0
100
AcDbPoint
 10
96.62524956446986
 20
135.0590386071381
 30
0.0
  0
POINT
  5
18B8
330
1478
100
AcDbEntity
  8
Defpoints
 62
     0
100
AcDbPoint
 10
77.62524956446987
 20
135.0590386071381
 30
0.0
  0
ENDBLK
  5
1483
330
1478
100
AcDbEntity
  8
0
100
AcDbBlockEnd
  0
BLOCK
  5
14D2
330
14C8
100
AcDbEntity
  8
0
100
AcDbBlockBegin
  2
*D6
 70
     1
 10
0.0
 20
0.0
 30
0.0
  3
*D6
  1

  0
LINE
  5
18D9
330
14C8
100
AcDbEntity
  8
AM_5
100
AcDbLine
 10
88.62524956446987
 20
209.5281958158899
 30
0.0
 11
88.62524956446987
 21
217.6809197983447
 31
0.0
  0
LINE
  5
18DA
330
14C8
100
AcDbEntity
  8
AM_5
100
AcDbLine
 10
134.1252495644698
 20
209.5281958158899
 30
0.0
 11
134.1252495644698
 21
217.6809197983447
 31
0.0
  0
LINE
  5
18DB
330
14C8
100
AcDbEntity
  8
AM_5
100
AcDbLine
 10
91.62524956446986
 20
216.1809197983447
 30
0.0
 11
131.1252495644698
 21
216.1809197983447
 31
0.0
  0
SOLID
  5
18DC
330
14C8
100
AcDbEntity
  8
AM_5
100
AcDbTrace
 10
91.62524956446986
 20
216.6809197983447
 30
0.0
 11
91.62524956446986
 21
215.6809197983447
 31
0.0
 12
88.62524956446987
 22
216.1809197983447
 32
0.0
 13
88.62524956446987
 23
216.1809197983447
 33
0.0
  0
SOLID
  5
18DD
330
14C8
100
AcDbEntity
  8
AM_5
100
AcDbTrace
 10
131.1252495644698
 20
216.6809197983447
 30
0.0
 11
131.1252495644698
 21
215.6809197983447
 31
0.0
 12
134.1252495644698
 22
216.1809197983447
 32
0.0
 13
134.1252495644698
 23
216.1809197983447
 33
0.0
  0
MTEXT
  5
18DE
330
14C8
100
AcDbEntity
  8
AM_5
100
AcDbMText
 10
111.3752495644698
 20
218.6309197983447
 30
0.0
 40
3.5
 41
0.0
 71
     5
 72
     1
  1
45.5
 73
     1
 44
1.0
1001
ACAD
1000
MTEXTBEGIN
1070
    73
1070
     1
1070
    44
1040
1.0
1070
    74
1070
     0
1000
MTEXTEND
  0
POINT
  5
18DF
330
14C8
100
AcDbEntity
  8
Defpoints
 62
     0
100
AcDbPoint
 10
88.62524956446987
 20
208.5281958158899
 30
0.0
  0
POINT
  5
18E0
330
14C8
100
AcDbEntity
  8
Defpoints
 62
     0
100
AcDbPoint
 10
134.1252495644698
 20
208.5281958158899
 30
0.0
  0
POINT
  5
18E1
330
14C8
100
AcDbEntity
  8
Defpoints
 62
     0
100
AcDbPoint
 10
134.1252495644698
 20
216.1809197983447
 30
0.0
  0
ENDBLK
  5
14D3
330
14C8
100
AcDbEntity
  8
0
100
AcDbBlockEnd
  0
BLOCK
  5
157A
330
1570
100
AcDbEntity
  8
0
100
AcDbBlockBegin
  2
*D7
 70
     1
 10
0.0
 20
0.0
 30
0.0
  3
*D7
  1

  0
LINE
  5
178C
330
1570
100
AcDbEntity
  8
AM_5
100
AcDbLine
 10
239.8470624423103
 20
220.8006842637569
 30
0.0
 11
239.8470624423103
 21
233.3006842637569
 31
0.0
  0
LINE
  5
178D
330
1570
100
AcDbEntity
  8
AM_5
100
AcDbLine
 10
277.8470624423103
 20
198.8006842637569
 30
0.0
 11
277.8470624423103
 21
233.3006842637569
 31
0.0
  0
LINE
  5
178E
330
1570
100
AcDbEntity
  8
AM_5
100
AcDbLine
 10
242.8470624423103
 20
231.8006842637569
 30
0.0
 11
274.8470624423103
 21
231.8006842637569
 31
0.0
  0
SOLID
  5
178F
330
1570
100
AcDbEntity
  8
AM_5
100
AcDbTrace
 10
242.8470624423103
 20
232.3006842637569
 30
0.0
 11
242.8470624423103
 21
231.3006842637569
 31
0.0
 12
239.8470624423103
 22
231.8006842637569
 32
0.0
 13
239.8470624423103
 23
231.8006842637569
 33
0.0
  0
SOLID
  5
1790
330
1570
100
AcDbEntity
  8
AM_5
100
AcDbTrace
 10
274.8470624423103
 20
232.3006842637569
 30
0.0
 11
274.8470624423103
 21
231.3006842637569
 31
0.0
 12
277.8470624423103
 22
231.8006842637569
 32
0.0
 13
277.8470624423103
 23
231.8006842637569
 33
0.0
  0
MTEXT
  5
1791
330
1570
100
AcDbEntity
  8
AM_5
100
AcDbMText
 10
258.8470624423103
 20
234.2506842637569
 30
0.0
 40
3.5
 41
0.0
 71
     5
 72
     1
  1
38
 73
     1
 44
1.0
1001
ACAD
1000
MTEXTBEGIN
1070
    73
1070
     1
1070
    44
1040
1.0
1070
    74
1070
     0
1000
MTEXTEND
  0
POINT
  5
1792
330
1570
100
AcDbEntity
  8
Defpoints
 62
     0
100
AcDbPoint
 10
239.8470624423103
 20
219.8006842637569
 30
0.0
  0
POINT
  5
1793
330
1570
100
AcDbEntity
  8
Defpoints
 62
     0
100
AcDbPoint
 10
277.8470624423103
 20
197.8006842637569
 30
0.0
  0
POINT
  5
1794
330
1570
100
AcDbEntity
  8
Defpoints
 62
     0
100
AcDbPoint
 10
277.8470624423103
 20
231.8006842637569
 30
0.0
  0
ENDBLK
  5
157B
330
1570
100
AcDbEntity
  8
0
100
AcDbBlockEnd
  0
BLOCK
  5
15A0
330
1596
100
AcDbEntity
  8
0
100
AcDbBlockBegin
  2
*D8
 70
     1
 10
0.0
 20
0.0
 30
0.0
  3
*D8
  1

  0
LINE
  5
1795
330
1596
100
AcDbEntity
  8
AM_5
100
AcDbLine
 10
235.7470624423103
 20
216.7006842637569
 30
0.0
 11
223.2470624423104
 21
216.7006842637569
 31
0.0
  0
LINE
  5
1796
330
1596
100
AcDbEntity
  8
AM_5
100
AcDbLine
 10
273.7470624423103
 20
194.7006842637569
 30
0.0
 11
223.2470624423104
 21
194.7006842637569
 31
0.0
  0
LINE
  5
1797
330
1596
100
AcDbEntity
  8
AM_5
100
AcDbLine
 10
224.7470624423104
 20
213.7006842637569
 30
0.0
 11
224.7470624423104
 21
197.7006842637569
 31
0.0
  0
SOLID
  5
1798
330
1596
100
AcDbEntity
  8
AM_5
100
AcDbTrace
 10
224.2470624423104
 20
213.7006842637569
 30
0.0
 11
225.2470624423104
 21
213.7006842637569
 31
0.0
 12
224.7470624423104
 22
216.7006842637569
 32
0.0
 13
224.7470624423104
 23
216.7006842637569
 33
0.0
  0
SOLID
  5
1799
330
1596
100
AcDbEntity
  8
AM_5
100
AcDbTrace
 10
224.2470624423104
 20
197.7006842637569
 30
0.0
 11
225.2470624423104
 21
197.7006842637569
 31
0.0
 12
224.7470624423104
 22
194.7006842637569
 32
0.0
 13
224.7470624423104
 23
194.7006842637569
 33
0.0
  0
MTEXT
  5
179A
330
1596
100
AcDbEntity
  8
AM_5
100
AcDbMText
 10
222.2967179541214
 20
205.7006842637569
 30
0.0
 40
3.5
 41
0.0
 71
     5
 72
     1
  1
22
 11
0.0000000000000001
 21
1.0
 31
0.0
 73
     1
 44
1.0
1001
ACAD
1000
MTEXTBEGIN
1070
    73
1070
     1
1070
    44
1040
1.0
1070
    74
1070
     0
1000
MTEXTEND
  0
POINT
  5
179B
330
1596
100
AcDbEntity
  8
Defpoints
 62
     0
100
AcDbPoint
 10
236.7470624423102
 20
216.7006842637569
 30
0.0
  0
POINT
  5
179C
330
1596
100
AcDbEntity
  8
Defpoints
 62
     0
100
AcDbPoint
 10
274.7470624423103
 20
194.7006842637569
 30
0.0
  0
POINT
  5
179D
330
1596
100
AcDbEntity
  8
Defpoints
 62
     0
100
AcDbPoint
 10
224.7470624423104
 20
194.7006842637569
 30
0.0
  0
ENDBLK
  5
15A1
330
1596
100
AcDbEntity
  8
0
100
AcDbBlockEnd
  0
BLOCK
  5
15BE
330
15B5
100
AcDbEntity
  8
0
100
AcDbBlockBegin
  2
*D9
 70
     1
 10
0.0
 20
0.0
 30
0.0
  3
*D9
  1

  0
LINE
  5
17CA
330
15B5
100
AcDbEntity
  8
AM_5
100
AcDbLine
 10
236.744242430085
 20
220.0966389118249
 30
0.0
 11
231.2240835278784
 21
226.1383072033023
 31
0.0
  0
LINE
  5
17CB
330
15B5
100
AcDbEntity
  8
AM_5
100
AcDbLine
 10
231.2240835278784
 20
226.1383072033023
 30
0.0
 11
217.2749988822091
 21
226.1383072033023
 31
0.0
  0
SOLID
  5
17CC
330
15B5
100
AcDbEntity
  8
AM_5
100
AcDbTrace
 10
237.1133679353099
 20
220.433901956632
 30
0.0
 11
236.3751169248603
 21
219.7593758670178
 31
0.0
 12
238.7678206989276
 22
217.8818858804762
 32
0.0
 13
238.7678206989276
 23
217.8818858804762
 33
0.0
  0
MTEXT
  5
17CD
330
15B5
100
AcDbEntity
  8
AM_5
100
AcDbMText
 10
223.8995412050437
 20
228.5886516914913
 30
0.0
 40
3.5
 41
0.0
 71
     5
 72
     1
  1
2-\U+22053.2
 73
     1
 44
1.0
1001
ACAD
1000
MTEXTBEGIN
1070
    73
1070
     1
1070
    44
1040
1.0
1070
    74
1070
     0
1000
MTEXTEND
  0
POINT
  5
17CE
330
15B5
100
AcDbEntity
  8
Defpoints
 62
     0
100
AcDbPoint
 10
238.7678206989276
 20
217.8818858804762
 30
0.0
  0
POINT
  5
17CF
330
15B5
100
AcDbEntity
  8
Defpoints
 62
     0
100
AcDbPoint
 10
240.926304185693
 20
215.5194826470375
 30
0.0
  0
ENDBLK
  5
15BF
330
15B5
100
AcDbEntity
  8
0
100
AcDbBlockEnd
  0
BLOCK
  5
15EB
330
15E5
100
AcDbEntity
  8
0
100
AcDbBlockBegin
  2
*D10
 70
     1
 10
0.0
 20
0.0
 30
0.0
  3
*D10
  1

  0
LINE
  5
18D3
330
15E5
100
AcDbEntity
  8
AM_5
100
AcDbLine
 10
132.1880187685815
 20
175.2353558239247
 30
0.0
 11
136.1326126192799
 21
182.0172501927524
 31
0.0
  0
LINE
  5
18D4
330
15E5
100
AcDbEntity
  8
AM_5
100
AcDbLine
 10
136.1326126192799
 20
182.0172501927524
 30
0.0
 11
150.0816972649492
 21
182.0172501927524
 31
0.0
  0
SOLID
  5
18D5
330
15E5
100
AcDbEntity
  8
AM_5
100
AcDbTrace
 10
131.7558103754525
 20
175.4867437808933
 30
0.0
 11
132.6202271617104
 21
174.983967866956
 31
0.0
 12
130.6796910267695
 22
172.6421054651509
 32
0.0
 13
130.6796910267695
 23
172.6421054651509
 33
0.0
  0
MTEXT
  5
18D6
330
15E5
100
AcDbEntity
  8
AM_5
100
AcDbMText
 10
143.4571549421145
 20
184.4675946809414
 30
0.0
 40
3.5
 41
0.0
 71
     5
 72
     1
  1
2-\U+22053.2
 73
     1
 44
1.0
1001
ACAD
1000
MTEXTBEGIN
1070
    73
1070
     1
1070
    44
1040
1.0
1070
    74
1070
     0
1000
MTEXTEND
  0
POINT
  5
18D7
330
15E5
100
AcDbEntity
  8
Defpoints
 62
     0
100
AcDbPoint
 10
130.6796910267695
 20
172.6421054651509
 30
0.0
  0
POINT
  5
18D8
330
15E5
100
AcDbEntity
  8
Defpoints
 62
     0
100
AcDbPoint
 10
129.0708081021702
 20
169.8759717491253
 30
0.0
  0
ENDBLK
  5
15EC
330
15E5
100
AcDbEntity
  8
0
100
AcDbBlockEnd
  0
BLOCK
  5
1665
330
1659
100
AcDbEntity
  8
0
100
AcDbBlockBegin
  2
*D11
 70
     1
 10
0.0
 20
0.0
 30
0.0
  3
*D11
  1

  0
LINE
  5
18F0
330
1659
100
AcDbEntity
  8
AM_5
100
AcDbLine
 10
246.6174115836602
 20
109.7759577826085
 30
0.0
 11
244.8908225379472
 21
109.7759577826085
 31
0.0
  0
LINE
  5
18F1
330
1659
100
AcDbEntity
  8
AM_5
100
AcDbLine
 10
246.1135405581361
 20
110.9759577826084
 30
0.0
 11
244.8908225379472
 21
110.9759577826084
 31
0.0
  0
LINE
  5
18F2
330
1659
100
AcDbEntity
  8
AM_5
100
AcDbLine
 10
246.3908225379472
 20
106.7759577826085
 30
0.0
 11
246.3908225379472
 21
103.7759577826085
 31
0.0
  0
LINE
  5
18F3
330
1659
100
AcDbEntity
  8
AM_5
100
AcDbLine
 10
246.3908225379472
 20
113.9759577826084
 30
0.0
 11
246.3908225379472
 21
122.7861644755218
 31
0.0
  0
LINE
  5
18F4
330
1659
100
AcDbEntity
  8
AM_5
100
AcDbLine
 10
246.3908225379472
 20
109.7759577826085
 30
0.0
 11
246.3908225379472
 21
110.9759577826084
 31
0.0
  0
SOLID
  5
18F5
330
1659
100
AcDbEntity
  8
AM_5
100
AcDbTrace
 10
245.8908225379472
 20
106.7759577826085
 30
0.0
 11
246.8908225379472
 21
106.7759577826085
 31
0.0
 12
246.3908225379472
 22
109.7759577826085
 32
0.0
 13
246.3908225379472
 23
109.7759577826085
 33
0.0
  0
SOLID
  5
18F6
330
1659
100
AcDbEntity
  8
AM_5
100
AcDbTrace
 10
245.8908225379472
 20
113.9759577826084
 30
0.0
 11
246.8908225379472
 21
113.9759577826084
 31
0.0
 12
246.3908225379472
 22
110.9759577826084
 32
0.0
 13
246.3908225379472
 23
110.9759577826084
 33
0.0
  0
MTEXT
  5
18F7
330
1659
100
AcDbEntity
  8
AM_5
100
AcDbMText
 10
243.9404780497582
 20
119.8810611290652
 30
0.0
 40
3.5
 41
0.0
 71
     5
 72
     1
  1
1.2
 11
0.0000000000000001
 21
1.0
 31
0.0
 73
     1
 44
1.0
1001
ACAD
1000
MTEXTBEGIN
1070
    73
1070
     1
1070
    44
1040
1.0
1070
    74
1070
     0
1000
MTEXTEND
  0
POINT
  5
18F8
330
1659
100
AcDbEntity
  8
Defpoints
 62
     0
100
AcDbPoint
 10
247.6174115836602
 20
109.7759577826085
 30
0.0
  0
POINT
  5
18F9
330
1659
100
AcDbEntity
  8
Defpoints
 62
     0
100
AcDbPoint
 10
247.1135405581362
 20
110.9759577826084
 30
0.0
  0
POINT
  5
18FA
330
1659
100
AcDbEntity
  8
Defpoints
 62
     0
100
AcDbPoint
 10
246.3908225379472
 20
110.9759577826084
 30
0.0
  0
ENDBLK
  5
1666
330
1659
100
AcDbEntity
  8
0
100
AcDbBlockEnd
  0
BLOCK
  5
168D
330
1683
100
AcDbEntity
  8
0
100
AcDbBlockBegin
  2
*D12
 70
     1
 10
0.0
 20
0.0
 30
0.0
  3
*D12
  1

  0
LINE
  5
17AF
330
1683
100
AcDbEntity
  8
AM_5
100
AcDbLine
 10
234.3470624423103
 20
109.7759577826085
 30
0.0
 11
228.9044889403574
 21
109.7759577826085
 31
0.0
  0
LINE
  5
17B0
330
1683
100
AcDbEntity
  8
AM_5
100
AcDbLine
 10
252.3470624423103
 20
178.2759577826085
 30
0.0
 11
228.9044889403574
 21
178.2759577826085
 31
0.0
  0
LINE
  5
17B1
330
1683
100
AcDbEntity
  8
AM_5
100
AcDbLine
 10
230.4044889403574
 20
112.7759577826085
 30
0.0
 11
230.4044889403574
 21
175.2759577826085
 31
0.0
  0
SOLID
  5
17B2
330
1683
100
AcDbEntity
  8
AM_5
100
AcDbTrace
 10
229.9044889403574
 20
112.7759577826085
 30
0.0
 11
230.9044889403574
 21
112.7759577826085
 31
0.0
 12
230.4044889403574
 22
109.7759577826085
 32
0.0
 13
230.4044889403574
 23
109.7759577826085
 33
0.0
  0
SOLID
  5
17B3
330
1683
100
AcDbEntity
  8
AM_5
100
AcDbTrace
 10
229.9044889403574
 20
175.2759577826085
 30
0.0
 11
230.9044889403574
 21
175.2759577826085
 31
0.0
 12
230.4044889403574
 22
178.2759577826085
 32
0.0
 13
230.4044889403574
 23
178.2759577826085
 33
0.0
  0
MTEXT
  5
17B4
330
1683
100
AcDbEntity
  8
AM_5
100
AcDbMText
 10
227.9544889403574
 20
144.0259577826085
 30
0.0
 40
3.5
 41
0.0
 71
     5
 72
     1
  1
68.5
 11
0.0000000000000001
 21
1.0
 31
0.0
 73
     1
 44
1.0
1001
ACAD
1000
MTEXTBEGIN
1070
    73
1070
     1
1070
    44
1040
1.0
1070
    74
1070
     0
1000
MTEXTEND
  0
POINT
  5
17B5
330
1683
100
AcDbEntity
  8
Defpoints
 62
     0
100
AcDbPoint
 10
235.3470624423103
 20
109.7759577826085
 30
0.0
  0
POINT
  5
17B6
330
1683
100
AcDbEntity
  8
Defpoints
 62
     0
100
AcDbPoint
 10
253.3470624423103
 20
178.2759577826085
 30
0.0
  0
POINT
  5
17B7
330
1683
100
AcDbEntity
  8
Defpoints
 62
     0
100
AcDbPoint
 10
230.4044889403574
 20
178.2759577826085
 30
0.0
  0
ENDBLK
  5
168E
330
1683
100
AcDbEntity
  8
0
100
AcDbBlockEnd
  0
BLOCK
  5
1856
330
17D6
100
AcDbEntity
  8
0
100
AcDbBlockBegin
  2
A$C531C3E04
 70
     0
 10
0.0
 20
0.0
 30
0.0
  3
A$C531C3E04
  1

  0
LINE
  5
17D7
330
17D6
100
AcDbEntity
  8
AM_VIS
100
AcDbLine
 10
49.49999965054246
 20
62.04664842215914
 30
0.0
 11
49.49999965054246
 21
80.54664842215913
 31
0.0
  0
LINE
  5
17D8
330
17D6
100
AcDbEntity
  8
AM_VIS
100
AcDbLine
 10
64.49999965054246
 20
82.04664842215914
 30
0.0
 11
50.99999965054246
 21
82.04664842215914
 31
0.0
  0
LINE
  5
17D9
330
17D6
100
AcDbEntity
  8
AM_VIS
100
AcDbLine
 10
65.99999965054246
 20
52.12201297746481
 30
0.0
 11
65.99999965054246
 21
80.54664842215913
 31
0.0
  0
LINE
  5
17DA
330
17D6
100
AcDbEntity
  8
AM_VIS
100
AcDbLine
 10
19.19999965054246
 20
35.04664842215914
 30
0.0
 11
46.79999965054247
 21
35.04664842215914
 31
0.0
  0
LINE
  5
17DB
330
17D6
100
AcDbEntity
  8
AM_VIS
100
AcDbLine
 10
48.29999965054245
 20
36.54664842215914
 30
0.0
 11
48.29999965054245
 21
45.04664842215913
 31
0.0
  0
ARC
  5
17DC
330
17D6
100
AcDbEntity
  8
AM_VIS
100
AcDbCircle
 10
46.79841668427497
 20
36.54760298673461
 30
0.0
 40
1.501583269678446
100
AcDbArc
 50
297.8545625228685
 51
359.9635767617852
  0
ARC
  5
17DD
330
17D6
100
AcDbEntity
  8
AM_VIS
100
AcDbCircle
 10
19.20158261680987
 20
36.54760298673457
 30
0.0
 40
1.501583269678369
100
AcDbArc
 50
180.0364232382135
 51
242.1454374771335
  0
LINE
  5
17DE
330
17D6
100
AcDbEntity
  8
AM_VIS
100
AcDbLine
 10
17.69999965054246
 20
45.04664842215913
 30
0.0
 11
17.69999965054246
 21
36.54664842215914
 31
0.0
  0
LINE
  5
17DF
330
17D6
100
AcDbEntity
  8
AM_VIS
100
AcDbLine
 10
17.69999965054246
 20
45.04664842215913
 30
0.0
 11
16.49999965054246
 21
45.45342808317609
 31
0.0
  0
LINE
  5
17E0
330
17D6
100
AcDbEntity
  8
AM_VIS
100
AcDbLine
 10
16.49999965054246
 20
62.04664842215914
 30
0.0
 11
16.49999965054246
 21
45.45342808317609
 31
0.0
  0
LINE
  5
17E1
330
17D6
100
AcDbEntity
  8
AM_VIS
100
AcDbLine
 10
49.49999965054246
 20
45.45342808317609
 30
0.0
 11
49.49999965054246
 21
62.04664842215914
 31
0.0
  0
LINE
  5
17E2
330
17D6
100
AcDbEntity
  8
AM_VIS
100
AcDbLine
 10
1.018440728805614
 20
50.70141415834112
 30
0.0
 11
15.49999965054246
 21
45.79241113402355
 31
0.0
  0
LINE
  5
17E3
330
17D6
100
AcDbEntity
  8
AM_VIS
100
AcDbLine
 10
-0.0000003494575367
 20
52.12201297746481
 30
0.0
 11
-0.0000003494575367
 21
80.54664842215913
 31
0.0
  0
LINE
  5
17E4
330
17D6
100
AcDbEntity
  8
AM_VIS
100
AcDbLine
 10
14.99999965054246
 20
82.04664842215914
 30
0.0
 11
1.499999650542463
 21
82.04664842215914
 31
0.0
  0
LINE
  5
17E5
330
17D6
100
AcDbEntity
  8
AM_VIS
100
AcDbLine
 10
15.49999965054246
 20
45.79241113402353
 30
0.0
 11
16.49999965054246
 21
45.45342808317608
 31
0.0
  0
LINE
  5
17E6
330
17D6
100
AcDbEntity
  8
AM_VIS
100
AcDbLine
 10
49.49999965054246
 20
45.45342808317609
 30
0.0
 11
48.29999965054248
 21
45.04664842215913
 31
0.0
  0
LINE
  5
17E7
330
17D6
100
AcDbEntity
  8
AM_VIS
100
AcDbLine
 10
49.49999965054246
 20
45.45342808317609
 30
0.0
 11
50.49999965054246
 21
45.79241113402355
 31
0.0
  0
LINE
  5
17E8
330
17D6
100
AcDbEntity
  8
AM_VIS
100
AcDbLine
 10
50.49999965054246
 20
45.79241113402355
 30
0.0
 11
64.98155857227931
 21
50.70141415834112
 31
0.0
  0
LINE
  5
17E9
330
17D6
100
AcDbEntity
  8
AM_VIS
100
AcDbLine
 10
16.49999965054246
 20
62.04664842215914
 30
0.0
 11
16.49999965054246
 21
80.54664842215913
 31
0.0
  0
LINE
  5
17EA
330
17D6
100
AcDbEntity
  8
AM_VIS
100
AcDbLine
 10
47.49999965054246
 20
62.04664842215914
 30
0.0
 11
18.49999965054246
 21
62.04664842215914
 31
0.0
  0
CIRCLE
  5
17EB
330
17D6
100
AcDbEntity
  8
AM_VIS
100
AcDbCircle
 10
58.99999965054246
 20
75.04664842215913
 30
0.0
 40
2.1
  0
ARC
  5
17EC
330
17D6
100
AcDbEntity
  8
AM_VIS
100
AcDbCircle
 10
64.49999965054246
 20
80.54664842215913
 30
0.0
 40
1.5
100
AcDbArc
 50
0.0
 51
90.0
  0
ARC
  5
17ED
330
17D6
100
AcDbEntity
  8
AM_VIS
100
AcDbCircle
 10
50.99999965054246
 20
80.54664842215913
 30
0.0
 40
1.5
100
AcDbArc
 50
90.0
 51
180.0
  0
ARC
  5
17EE
330
17D6
100
AcDbEntity
  8
AM_VIS
100
AcDbCircle
 10
64.49999965054246
 20
52.12201297746481
 30
0.0
 40
1.5
100
AcDbArc
 50
288.7257878452724
 51
0.0
  0
CIRCLE
  5
17EF
330
17D6
100
AcDbEntity
  8
AM_VIS
100
AcDbCircle
 10
22.99999965054246
 20
40.54664842215913
 30
0.0
 40
2.1
  0
CIRCLE
  5
17F0
330
17D6
100
AcDbEntity
  8
AM_VIS
100
AcDbCircle
 10
42.99999965054246
 20
40.54664842215913
 30
0.0
 40
2.1
  0
ARC
  5
17F1
330
17D6
100
AcDbEntity
  8
AM_VIS
100
AcDbCircle
 10
46.79999965054244
 20
36.54664842215914
 30
0.0
 40
1.5
100
AcDbArc
 50
270.0
 51
297.818139284654
  0
ARC
  5
17F2
330
17D6
100
AcDbEntity
  8
AM_VIS
100
AcDbCircle
 10
19.19999965054246
 20
36.54664842215914
 30
0.0
 40
1.5
100
AcDbArc
 50
242.1818607153461
 51
270.0
  0
CIRCLE
  5
17F3
330
17D6
100
AcDbEntity
  8
AM_VIS
100
AcDbCircle
 10
6.999999650542463
 20
75.04664842215913
 30
0.0
 40
2.1
  0
ARC
  5
17F4
330
17D6
100
AcDbEntity
  8
AM_VIS
100
AcDbCircle
 10
1.499999650542463
 20
52.12201297746481
 30
0.0
 40
1.5
100
AcDbArc
 50
179.9999999999996
 51
251.2742121547277
  0
ARC
  5
17F5
330
17D6
100
AcDbEntity
  8
AM_VIS
100
AcDbCircle
 10
1.499999650542463
 20
80.54664842215913
 30
0.0
 40
1.5
100
AcDbArc
 50
90.0
 51
180.0
  0
ARC
  5
17F6
330
17D6
100
AcDbEntity
  8
AM_VIS
100
AcDbCircle
 10
14.99999965054246
 20
80.54664842215913
 30
0.0
 40
1.5
100
AcDbArc
 50
0.0
 51
90.0
  0
LINE
  5
17F7
330
17D6
100
AcDbEntity
  8
AM_VIS
100
AcDbLine
 10
50.49999965054246
 20
62.04664842215914
 30
0.0
 11
49.49999965054246
 21
62.04664842215914
 31
0.0
  0
LINE
  5
17F8
330
17D6
100
AcDbEntity
  8
AM_VIS
100
AcDbLine
 10
47.49999965054246
 20
62.04664842215914
 30
0.0
 11
49.49999965054246
 21
62.04664842215914
 31
0.0
  0
LINE
  5
17F9
330
17D6
100
AcDbEntity
  8
AM_VIS
100
AcDbLine
 10
16.49999965054246
 20
62.04664842215914
 30
0.0
 11
18.49999965054246
 21
62.04664842215914
 31
0.0
  0
LINE
  5
17FA
330
17D6
100
AcDbEntity
  8
AM_VIS
100
AcDbLine
 10
16.49999965054246
 20
62.04664842215914
 30
0.0
 11
15.49999965054246
 21
62.04664842215914
 31
0.0
  0
LINE
  5
17FB
330
17D6
100
AcDbEntity
  8
AM_VIS
100
AcDbLine
 10
64.49999965054246
 20
125.7476528832114
 30
0.0
 11
50.99999965054246
 21
125.7476528832114
 31
0.0
  0
LINE
  5
17FC
330
17D6
100
AcDbEntity
  8
AM_VIS
100
AcDbLine
 10
49.49999965054246
 20
126.7806831611937
 30
0.0
 11
49.49999965054246
 21
125.7476528832114
 31
0.0
  0
LINE
  5
17FD
330
17D6
100
AcDbEntity
  8
AM_VIS
100
AcDbLine
 10
65.99999965054246
 20
125.7476528832114
 30
0.0
 11
65.99999965054246
 21
126.9476528832114
 31
0.0
  0
LINE
  5
17FE
330
17D6
100
AcDbEntity
  8
AM_VIS
100
AcDbLine
 10
1.499999650542463
 20
126.9476528832114
 30
0.0
 11
14.99999965054246
 21
126.9476528832114
 31
0.0
  0
LINE
  5
17FF
330
17D6
100
AcDbEntity
  8
AM_VIS
100
AcDbLine
 10
-0.0000003494575367
 20
126.9476528832114
 30
0.0
 11
-0.0000003494575367
 21
125.7476528832114
 31
0.0
  0
LINE
  5
1800
330
17D6
100
AcDbEntity
  8
AM_VIS
100
AcDbLine
 10
14.99999965054246
 20
125.7476528832114
 30
0.0
 11
1.499999650542463
 21
125.7476528832114
 31
0.0
  0
LINE
  5
1801
330
17D6
100
AcDbEntity
  8
AM_VIS
100
AcDbLine
 10
50.99999965054246
 20
126.9476528832114
 30
0.0
 11
64.49999965054246
 21
126.9476528832114
 31
0.0
  0
ARC
  5
1802
330
17D6
100
AcDbEntity
  8
AM_VIS
100
AcDbCircle
 10
50.30130670365821
 20
124.9413904155018
 30
0.0
 40
2.006262893473292
100
AcDbArc
 50
90.03732742736398
 51
113.5408510508371
  0
LINE
  5
1803
330
17D6
100
AcDbEntity
  8
AM_VIS
100
AcDbLine
 10
16.49999965054246
 20
125.7476528832114
 30
0.0
 11
16.49999965054246
 21
126.7806831611937
 31
0.0
  0
LINE
  5
1804
330
17D6
100
AcDbEntity
  8
AM_VIS
100
AcDbLine
 10
17.69999965054246
 20
124.9476528832114
 30
0.0
 11
17.69999965054246
 21
124.1476528832114
 31
0.0
  0
LINE
  5
1805
330
17D6
100
AcDbEntity
  8
AM_VIS
100
AcDbLine
 10
18.69999965054246
 20
123.1476528832114
 30
0.0
 11
47.29999965054247
 21
123.1476528832114
 31
0.0
  0
LINE
  5
1806
330
17D6
100
AcDbEntity
  8
AM_VIS
100
AcDbLine
 10
48.29999965054248
 20
124.1476528832114
 30
0.0
 11
48.29999965054248
 21
124.9476528832114
 31
0.0
  0
LINE
  5
1807
330
17D6
100
AcDbEntity
  8
AM_VIS
100
AcDbLine
 10
49.49999965054246
 20
124.7476528832113
 30
0.0
 11
49.49999965054246
 21
123.9476528832113
 31
0.0
  0
LINE
  5
1808
330
17D6
100
AcDbEntity
  8
AM_VIS
100
AcDbLine
 10
47.49999965054246
 20
121.9476528832114
 30
0.0
 11
18.49999965054246
 21
121.9476528832114
 31
0.0
  0
LINE
  5
1809
330
17D6
100
AcDbEntity
  8
AM_VIS
100
AcDbLine
 10
16.49999965054246
 20
123.9476528832114
 30
0.0
 11
16.49999965054246
 21
124.7476528832114
 31
0.0
  0
ARC
  5
180A
330
17D6
100
AcDbEntity
  8
AM_VIS
100
AcDbCircle
 10
15.69869259742623
 20
124.9413904154988
 30
0.0
 40
2.006262893476335
100
AcDbArc
 50
66.45914894918239
 51
89.96267257261891
  0
LINE
  5
180B
330
17D6
100
AcDbEntity
  8
AM_VIS
100
AcDbLine
 10
65.99999965054246
 20
125.7476528832114
 30
0.0
 11
64.49999965054246
 21
125.7476528832114
 31
0.0
  0
LINE
  5
180C
330
17D6
100
AcDbEntity
  8
AM_VIS
100
AcDbLine
 10
50.99999965054246
 20
125.7476528832114
 30
0.0
 11
49.49999965054246
 21
125.7476528832114
 31
0.0
  0
LINE
  5
180D
330
17D6
100
AcDbEntity
  8
AM_VIS
100
AcDbLine
 10
-0.0000003494575367
 20
126.9476528832114
 30
0.0
 11
1.499999650542463
 21
126.9476528832114
 31
0.0
  0
LINE
  5
180E
330
17D6
100
AcDbEntity
  8
AM_VIS
100
AcDbLine
 10
1.499999650542463
 20
125.7476528832114
 30
0.0
 11
-0.0000003494575367
 21
125.7476528832114
 31
0.0
  0
LINE
  5
180F
330
17D6
100
AcDbEntity
  8
AM_VIS
100
AcDbLine
 10
64.49999965054246
 20
126.9476528832114
 30
0.0
 11
65.99999965054246
 21
126.9476528832114
 31
0.0
  0
LINE
  5
1810
330
17D6
100
AcDbEntity
  8
AM_VIS
100
AcDbLine
 10
50.29999965054248
 20
126.9476528832114
 30
0.0
 11
50.99999965054246
 21
126.9476528832114
 31
0.0
  0
LINE
  5
1811
330
17D6
100
AcDbEntity
  8
AM_VIS
100
AcDbLine
 10
16.49999965054246
 20
125.7476528832114
 30
0.0
 11
14.99999965054246
 21
125.7476528832114
 31
0.0
  0
LINE
  5
1812
330
17D6
100
AcDbEntity
  8
AM_VIS
100
AcDbLine
 10
14.99999965054246
 20
126.9476528832114
 30
0.0
 11
15.69999965054248
 21
126.9476528832114
 31
0.0
  0
ARC
  5
1813
330
17D6
100
AcDbEntity
  8
AM_VIS
100
AcDbCircle
 10
18.69999965054246
 20
124.1476528832114
 30
0.0
 40
1.0
100
AcDbArc
 50
180.0
 51
270.0
  0
ARC
  5
1814
330
17D6
100
AcDbEntity
  8
AM_VIS
100
AcDbCircle
 10
47.29999965054247
 20
124.1476528832114
 30
0.0
 40
1.0
100
AcDbArc
 50
270.0
 51
0.0
  0
ARC
  5
1815
330
17D6
100
AcDbEntity
  8
AM_VIS
100
AcDbCircle
 10
50.29999965054248
 20
124.9476528832114
 30
0.0
 40
2.0
100
AcDbArc
 50
113.5781784782022
 51
180.0
  0
ARC
  5
1816
330
17D6
100
AcDbEntity
  8
AM_VIS
100
AcDbCircle
 10
50.49999965054246
 20
124.7476528832114
 30
0.0
 40
0.9999999999999998
100
AcDbArc
 50
90.0
 51
180.0
  0
ARC
  5
1817
330
17D6
100
AcDbEntity
  8
AM_VIS
100
AcDbCircle
 10
47.49999965054246
 20
123.9476528832114
 30
0.0
 40
1.999999999999999
100
AcDbArc
 50
270.0
 51
0.0
  0
ARC
  5
1818
330
17D6
100
AcDbEntity
  8
AM_VIS
100
AcDbCircle
 10
18.49999965054246
 20
123.9476528832114
 30
0.0
 40
1.999999999999999
100
AcDbArc
 50
180.0
 51
270.0
  0
ARC
  5
1819
330
17D6
100
AcDbEntity
  8
AM_VIS
100
AcDbCircle
 10
15.49999965054246
 20
124.7476528832114
 30
0.0
 40
0.9999999999999998
100
AcDbArc
 50
0.0
 51
90.0
  0
ARC
  5
181A
330
17D6
100
AcDbEntity
  8
AM_VIS
100
AcDbCircle
 10
15.69999965054246
 20
124.9476528832114
 30
0.0
 40
2.0
100
AcDbArc
 50
0.0
 51
66.42182152179856
  0
LINE
  5
181B
330
17D6
100
AcDbEntity
  8
AM_VIS
100
AcDbLine
 10
65.99999965054246
 20
0.0000001140676886
 30
0.0
 11
65.99999965054246
 21
1.200000114067677
 31
0.0
  0
LINE
  5
181C
330
17D6
100
AcDbEntity
  8
AM_VIS
100
AcDbLine
 10
-0.0000003494575367
 20
1.200000114067677
 30
0.0
 11
-0.0000003494575367
 21
0.0000001140676318
 31
0.0
  0
LINE
  5
181D
330
17D6
100
AcDbEntity
  8
AM_VIS
100
AcDbLine
 10
46.79999965054244
 20
3.800000114067699
 30
0.0
 11
19.19999965054245
 21
3.800000114067707
 31
0.0
  0
LINE
  5
181E
330
17D6
100
AcDbEntity
  8
AM_VIS
100
AcDbLine
 10
19.19999965054246
 20
5.000000114067688
 30
0.0
 11
46.79999965054247
 21
5.000000114067681
 31
0.0
  0
LINE
  5
181F
330
17D6
100
AcDbEntity
  8
AM_VIS
100
AcDbLine
 10
48.29999965054245
 20
3.800000114067699
 30
0.0
 11
48.29999965054245
 21
4.833030392050034
 31
0.0
  0
ARC
  5
1820
330
17D6
100
AcDbEntity
  8
AM_VIS
100
AcDbCircle
 10
47.49869259742689
 20
2.993737646358397
 30
0.0
 40
2.006262893473049
100
AcDbArc
 50
66.45914894917272
 51
89.96267257264824
  0
LINE
  5
1821
330
17D6
100
AcDbEntity
  8
AM_VIS
100
AcDbLine
 10
15.69999965054246
 20
0.0000001140676886
 30
0.0
 11
1.018440728805614
 21
0.0000001140676886
 31
0.0
  0
LINE
  5
1822
330
17D6
100
AcDbEntity
  8
AM_VIS
100
AcDbLine
 10
16.49999965054246
 20
2.200000114067677
 30
0.0
 11
16.49999965054246
 21
3.000000114067688
 31
0.0
  0
ARC
  5
1823
330
17D6
100
AcDbEntity
  8
AM_VIS
100
AcDbCircle
 10
18.69999965054246
 20
2.800000114067699
 30
0.0
 40
1.0
100
AcDbArc
 50
90.0
 51
180.0
  0
LINE
  5
1824
330
17D6
100
AcDbEntity
  8
AM_VIS
100
AcDbLine
 10
17.69999965054246
 20
2.800000114067699
 30
0.0
 11
17.69999965054246
 21
2.000000114067688
 31
0.0
  0
LINE
  5
1825
330
17D6
100
AcDbEntity
  8
AM_VIS
100
AcDbLine
 10
17.69999965054246
 20
4.833030392050034
 30
0.0
 11
17.69999965054246
 21
3.800000114067699
 31
0.0
  0
ARC
  5
1826
330
17D6
100
AcDbEntity
  8
AM_VIS
100
AcDbCircle
 10
18.50130670365752
 20
2.993737646361353
 30
0.0
 40
2.006262893470065
100
AcDbArc
 50
90.03732742734444
 51
113.5408510508557
  0
ARC
  5
1827
330
17D6
100
AcDbEntity
  8
AM_VIS
100
AcDbCircle
 10
18.49999965054246
 20
3.000000114067688
 30
0.0
 40
1.999999999999999
100
AcDbArc
 50
113.5781784782022
 51
180.0
  0
LINE
  5
1828
330
17D6
100
AcDbEntity
  8
AM_VIS
100
AcDbLine
 10
1.018440728805614
 20
1.200000114067677
 30
0.0
 11
15.49999965054246
 21
1.200000114067677
 31
0.0
  0
ARC
  5
1829
330
17D6
100
AcDbEntity
  8
AM_VIS
100
AcDbCircle
 10
15.49999965054246
 20
2.200000114067677
 30
0.0
 40
0.9999999999999998
100
AcDbArc
 50
270.0
 51
0.0
  0
ARC
  5
182A
330
17D6
100
AcDbEntity
  8
AM_VIS
100
AcDbCircle
 10
47.29999965054247
 20
2.800000114067699
 30
0.0
 40
1.0
100
AcDbArc
 50
0.0
 51
90.0
  0
ARC
  5
182B
330
17D6
100
AcDbEntity
  8
AM_VIS
100
AcDbCircle
 10
47.49999965054246
 20
3.000000114067688
 30
0.0
 40
1.999999999999999
100
AcDbArc
 50
0.0
 51
66.42182152179782
  0
LINE
  5
182C
330
17D6
100
AcDbEntity
  8
AM_VIS
100
AcDbLine
 10
49.49999965054246
 20
3.000000114067745
 30
0.0
 11
49.49999965054246
 21
2.200000114067734
 31
0.0
  0
ARC
  5
182D
330
17D6
100
AcDbEntity
  8
AM_VIS
100
AcDbCircle
 10
50.49999965054246
 20
2.200000114067677
 30
0.0
 40
0.9999999999999998
100
AcDbArc
 50
180.0
 51
270.0
  0
LINE
  5
182E
330
17D6
100
AcDbEntity
  8
AM_VIS
100
AcDbLine
 10
50.49999965054246
 20
1.200000114067677
 30
0.0
 11
64.98155857227931
 21
1.200000114067677
 31
0.0
  0
LINE
  5
182F
330
17D6
100
AcDbEntity
  8
AM_VIS
100
AcDbLine
 10
64.98155857227931
 20
0.0000001140676886
 30
0.0
 11
50.29999965054248
 21
0.0000001140676886
 31
0.0
  0
LINE
  5
1830
330
17D6
100
AcDbEntity
  8
AM_VIS
100
AcDbLine
 10
48.29999965054248
 20
2.000000114067688
 30
0.0
 11
48.29999965054248
 21
2.800000114067699
 31
0.0
  0
ARC
  5
1831
330
17D6
100
AcDbEntity
  8
AM_VIS
100
AcDbCircle
 10
50.29999965054248
 20
2.000000114067688
 30
0.0
 40
2.0
100
AcDbArc
 50
180.0
 51
270.0
  0
ARC
  5
1832
330
17D6
100
AcDbEntity
  8
AM_VIS
100
AcDbCircle
 10
15.69999965054246
 20
2.000000114067688
 30
0.0
 40
2.0
100
AcDbArc
 50
270.0
 51
0.0
  0
LINE
  5
1833
330
17D6
100
AcDbEntity
  8
AM_VIS
100
AcDbLine
 10
64.98155857227931
 20
1.200000114067677
 30
0.0
 11
65.99999965054246
 21
1.200000114067677
 31
0.0
  0
LINE
  5
1834
330
17D6
100
AcDbEntity
  8
AM_VIS
100
AcDbLine
 10
1.018440728805614
 20
0.0000001140676886
 30
0.0
 11
-0.0000003494575367
 21
0.0000001140676886
 31
0.0
  0
LINE
  5
1835
330
17D6
100
AcDbEntity
  8
AM_VIS
100
AcDbLine
 10
48.29999965054245
 20
3.800000114067699
 30
0.0
 11
46.79999965054244
 21
3.800000114067699
 31
0.0
  0
LINE
  5
1836
330
17D6
100
AcDbEntity
  8
AM_VIS
100
AcDbLine
 10
46.79999965054244
 20
5.000000114067688
 30
0.0
 11
47.49999965054246
 21
5.000000114067688
 31
0.0
  0
LINE
  5
1837
330
17D6
100
AcDbEntity
  8
AM_VIS
100
AcDbLine
 10
18.49999965054246
 20
5.000000114067688
 30
0.0
 11
19.19999965054246
 21
5.000000114067688
 31
0.0
  0
LINE
  5
1838
330
17D6
100
AcDbEntity
  8
AM_VIS
100
AcDbLine
 10
19.19999965054246
 20
3.800000114067699
 30
0.0
 11
17.69999965054246
 21
3.800000114067699
 31
0.0
  0
LINE
  5
1839
330
17D6
100
AcDbEntity
  8
AM_VIS
100
AcDbLine
 10
-0.0000003494575367
 20
1.200000114067677
 30
0.0
 11
1.018440728805614
 21
1.200000114067677
 31
0.0
  0
LINE
  5
183A
330
17D6
100
AcDbEntity
  8
AM_VIS
100
AcDbLine
 10
65.99999965054246
 20
0.0000001140676886
 30
0.0
 11
64.98155857227931
 21
0.0000001140676886
 31
0.0
  0
LINE
  5
183B
330
17D6
100
AcDbEntity
  8
AM_VIS
100
AcDbLine
 10
110.6677880115023
 20
82.04664842215914
 30
0.0
 11
109.4677880115023
 21
82.04664842215914
 31
0.0
  0
LINE
  5
183C
330
17D6
100
AcDbEntity
  8
AM_VIS
100
AcDbLine
 10
109.4677880115023
 20
52.12201297746481
 30
0.0
 11
109.4677880115023
 21
80.54664842215913
 31
0.0
  0
LINE
  5
183D
330
17D6
100
AcDbEntity
  8
AM_VIS
100
AcDbLine
 10
106.8677880115023
 20
36.54664842215914
 30
0.0
 11
106.8677880115023
 21
45.04664842215913
 31
0.0
  0
LINE
  5
183E
330
17D6
100
AcDbEntity
  8
AM_VIS
100
AcDbLine
 10
105.6677880115023
 20
35.04664842215914
 30
0.0
 11
106.8677880115023
 21
35.04664842215914
 31
0.0
  0
LINE
  5
183F
330
17D6
100
AcDbEntity
  8
AM_VIS
100
AcDbLine
 10
105.83475773352
 20
36.54664842215914
 30
0.0
 11
105.83475773352
 21
45.04664842215913
 31
0.0
  0
ARC
  5
1840
330
17D6
100
AcDbEntity
  8
AM_VIS
100
AcDbCircle
 10
93.65694993108462
 20
37.40549273794844
 30
0.0
 40
12.20805539108576
100
AcDbArc
 50
349.6872783055554
 51
355.9658738517809
  0
LINE
  5
1841
330
17D6
100
AcDbEntity
  8
AM_VIS
100
AcDbLine
 10
105.6677880115023
 20
62.04664842215914
 30
0.0
 11
105.6677880115023
 21
35.21999850601698
 31
0.0
  0
LINE
  5
1842
330
17D6
100
AcDbEntity
  8
AM_VIS
100
AcDbLine
 10
110.6677880115023
 20
52.12201297746481
 30
0.0
 11
110.6677880115023
 21
80.54664842215913
 31
0.0
  0
ELLIPSE
  5
1843
330
17D6
100
AcDbEntity
  8
AM_VIS
100
AcDbEllipse
 10
107.8677880115023
 20
44.70766537131168
 30
0.0
 11
-1.0
 21
0.0
 31
0.0
210
0.0
220
0.0
230
1.0
 40
0.3389830508474577
 41
4.712388980384689
 42
6.283185307179586
  0
LINE
  5
1844
330
17D6
100
AcDbEntity
  8
AM_VIS
100
AcDbLine
 10
106.8677880115023
 20
45.04664842215913
 30
0.0
 11
105.83475773352
 21
45.04664842215913
 31
0.0
  0
ELLIPSE
  5
1845
330
17D6
100
AcDbEntity
  8
AM_VIS
100
AcDbEllipse
 10
107.6677880115023
 20
44.77546198148117
 30
0.0
 11
1.999999999999999
 21
0.0000000000000001
 31
0.0
210
0.0
220
0.0
230
1.0
 40
0.3389830508474578
 41
1.570796326794896
 42
2.730075807522306
  0
LINE
  5
1846
330
17D6
100
AcDbEntity
  8
AM_VIS
100
AcDbLine
 10
107.6677880115023
 20
45.45342808317609
 30
0.0
 11
108.4677880115023
 21
45.45342808317609
 31
0.0
  0
ELLIPSE
  5
1847
330
17D6
100
AcDbEntity
  8
AM_VIS
100
AcDbEllipse
 10
108.4677880115023
 20
45.79241113402355
 30
0.0
 11
0.9999999999999998
 21
0.0000000000000001
 31
0.0
210
0.0
220
0.0
230
1.0
 40
0.3389830508474578
 41
4.712388980384689
 42
6.283185307179586
  0
LINE
  5
1848
330
17D6
100
AcDbEntity
  8
AM_VIS
100
AcDbLine
 10
109.4677880115023
 20
45.79241113402355
 30
0.0
 11
109.4677880115023
 21
50.70141415834112
 31
0.0
  0
LINE
  5
1849
330
17D6
100
AcDbEntity
  8
AM_VIS
100
AcDbLine
 10
110.6677880115023
 20
50.70141415834112
 30
0.0
 11
110.6677880115023
 21
45.72461452385406
 31
0.0
  0
LINE
  5
184A
330
17D6
100
AcDbEntity
  8
AM_VIS
100
AcDbLine
 10
108.6677880115023
 20
45.04664842215913
 30
0.0
 11
107.8677880115023
 21
45.04664842215913
 31
0.0
  0
ELLIPSE
  5
184B
330
17D6
100
AcDbEntity
  8
AM_VIS
100
AcDbEllipse
 10
108.6677880115023
 20
45.72461452385406
 30
0.0
 11
-2.0
 21
-0.0000000000000001
 31
0.0
210
0.0
220
0.0
230
1.0
 40
0.3389830508474577
 41
1.570796326794896
 42
3.141592653589792
  0
LINE
  5
184C
330
17D6
100
AcDbEntity
  8
AM_VIS
100
AcDbLine
 10
108.4677880115023
 20
62.04664842215914
 30
0.0
 11
107.6677880115023
 21
62.04664842215914
 31
0.0
  0
LINE
  5
184D
330
17D6
100
AcDbEntity
  8
AM_VIS
100
AcDbLine
 10
109.4677880115023
 20
80.54664842215913
 30
0.0
 11
109.4677880115023
 21
82.04664842215914
 31
0.0
  0
LINE
  5
184E
330
17D6
100
AcDbEntity
  8
AM_VIS
100
AcDbLine
 10
109.4677880115023
 20
50.70141415834112
 30
0.0
 11
109.4677880115023
 21
52.12201297746481
 31
0.0
  0
LINE
  5
184F
330
17D6
100
AcDbEntity
  8
AM_VIS
100
AcDbLine
 10
106.8677880115023
 20
36.54664842215914
 30
0.0
 11
106.8677880115023
 21
35.04664842215914
 31
0.0
  0
LINE
  5
1850
330
17D6
100
AcDbEntity
  8
AM_VIS
100
AcDbLine
 10
105.6677880115023
 20
35.04664842215914
 30
0.0
 11
105.6677880115023
 21
35.21999850601698
 31
0.0
  0
LINE
  5
1851
330
17D6
100
AcDbEntity
  8
AM_VIS
100
AcDbLine
 10
110.6677880115023
 20
52.12201297746481
 30
0.0
 11
110.6677880115023
 21
50.70141415834112
 31
0.0
  0
LINE
  5
1852
330
17D6
100
AcDbEntity
  8
AM_VIS
100
AcDbLine
 10
110.6677880115023
 20
82.04664842215914
 30
0.0
 11
110.6677880115023
 21
80.54664842215913
 31
0.0
  0
LINE
  5
1853
330
17D6
100
AcDbEntity
  8
AM_VIS
100
AcDbLine
 10
109.4677880115023
 20
62.04664842215914
 30
0.0
 11
108.4677880115023
 21
62.04664842215914
 31
0.0
  0
LINE
  5
1854
330
17D6
100
AcDbEntity
  8
AM_VIS
100
AcDbLine
 10
105.6677880115023
 20
62.04664842215914
 30
0.0
 11
107.6677880115023
 21
62.04664842215914
 31
0.0
  0
ENDBLK
  5
1857
330
17D6
100
AcDbEntity
  8
0
100
AcDbBlockEnd
  0
BLOCK
  5
1895
330
1889
100
AcDbEntity
  8
0
100
AcDbBlockBegin
  2
*D14
 70
     1
 10
0.0
 20
0.0
 30
0.0
  3
*D14
  1

  0
LINE
  5
18E2
330
1889
100
AcDbEntity
  8
AM_5
100
AcDbLine
 10
135.1252495644698
 20
207.3281958158899
 30
0.0
 11
147.6252505644698
 21
207.3281958158899
 31
0.0
  0
LINE
  5
18E3
330
1889
100
AcDbEntity
  8
AM_5
100
AcDbLine
 10
135.1252495644698
 20
208.5281958158898
 30
0.0
 11
147.6252505644698
 21
208.5281958158898
 31
0.0
  0
LINE
  5
18E4
330
1889
100
AcDbEntity
  8
AM_5
100
AcDbLine
 10
146.1252505644698
 20
204.3281958158898
 30
0.0
 11
146.1252505644698
 21
201.3281958158898
 31
0.0
  0
LINE
  5
18E5
330
1889
100
AcDbEntity
  8
AM_5
100
AcDbLine
 10
146.1252505644698
 20
211.5281958158898
 30
0.0
 11
146.1252505644698
 21
220.3384025088032
 31
0.0
  0
LINE
  5
18E6
330
1889
100
AcDbEntity
  8
AM_5
100
AcDbLine
 10
146.1252505644698
 20
207.3281958158899
 30
0.0
 11
146.1252505644698
 21
208.5281958158898
 31
0.0
  0
SOLID
  5
18E7
330
1889
100
AcDbEntity
  8
AM_5
100
AcDbTrace
 10
145.6252505644698
 20
204.3281958158898
 30
0.0
 11
146.6252505644698
 21
204.3281958158898
 31
0.0
 12
146.1252505644698
 22
207.3281958158899
 32
0.0
 13
146.1252505644698
 23
207.3281958158899
 33
0.0
  0
SOLID
  5
18E8
330
1889
100
AcDbEntity
  8
AM_5
100
AcDbTrace
 10
145.6252505644698
 20
211.5281958158898
 30
0.0
 11
146.6252505644698
 21
211.5281958158898
 31
0.0
 12
146.1252505644698
 22
208.5281958158898
 32
0.0
 13
146.1252505644698
 23
208.5281958158898
 33
0.0
  0
MTEXT
  5
18E9
330
1889
100
AcDbEntity
  8
AM_5
100
AcDbMText
 10
143.6749060762808
 20
217.4332991623465
 30
0.0
 40
3.5
 41
0.0
 71
     5
 72
     1
  1
1.2
 11
0.0000000000000001
 21
1.0
 31
0.0
 73
     1
 44
1.0
1001
ACAD
1000
MTEXTBEGIN
1070
    73
1070
     1
1070
    44
1040
1.0
1070
    74
1070
     0
1000
MTEXTEND
  0
POINT
  5
18EA
330
1889
100
AcDbEntity
  8
Defpoints
 62
     0
100
AcDbPoint
 10
134.1252495644698
 20
207.3281958158899
 30
0.0
  0
POINT
  5
18EB
330
1889
100
AcDbEntity
  8
Defpoints
 62
     0
100
AcDbPoint
 10
134.1252495644698
 20
208.5281958158898
 30
0.0
  0
POINT
  5
18EC
330
1889
100
AcDbEntity
  8
Defpoints
 62
     0
100
AcDbPoint
 10
146.1252505644698
 20
208.5281958158898
 30
0.0
  0
ENDBLK
  5
1896
330
1889
100
AcDbEntity
  8
0
100
AcDbBlockEnd
  0
ENDSEC
  0
SECTION
  2
ENTITIES
  0
TEXT
  5
FC3
330
1F
100
AcDbEntity
  8
0
100
AcDbText
 10
56.01897023121694
 20
253.0618816148422
 30
0.0
 40
7.199999999999999
  1
1A
100
AcDbText
  0
TEXT
  5
FC4
330
1F
100
AcDbEntity
  8
0
100
AcDbText
 10
203.6181284308322
 20
253.0618816148422
 30
0.0
 40
7.199999999999999
  1
2A
100
AcDbText
  0
LINE
  5
108C
330
1F
100
AcDbEntity
  8
LOGO
 62
     4
100
AcDbLine
 10
104.6991760560957
 20
51.52904951775347
 30
0.0
 11
104.6991760560957
 21
80.32487938200706
 31
0.0
  0
TEXT
  5
108D
330
1F
100
AcDbEntity
  8
LOGO
  6
Continuous
100
AcDbText
 10
51.69194188173776
 20
57.18594683788982
 30
0.0
 40
4.319374479638008
  1
金器工業股份有限公司
  7
CHINESET
100
AcDbText
  0
TEXT
  5
108E
330
1F
100
AcDbEntity
  8
LOGO
  6
Continuous
100
AcDbText
 10
43.75810550874184
 20
52.86572609950593
 30
0.0
 40
2.879582986425339
  1
MINDMAN INDUSTRIAL CO., LTD.
 41
0.85
  7
CHINESET
100
AcDbText
  0
LINE
  5
108F
330
1F
100
AcDbEntity
  8
LOGO
 62
     4
100
AcDbLine
 10
104.6991760560957
 20
74.56571340915629
 30
0.0
 11
62.46529225519089
 21
74.56571340915629
 31
0.0
  0
LINE
  5
1090
330
1F
100
AcDbEntity
  8
LOGO
 62
     4
100
AcDbLine
 10
104.6991760560957
 20
68.80654743630552
 30
0.0
 11
62.46529225519089
 21
68.80654743630552
 31
0.0
  0
LINE
  5
1091
330
1F
100
AcDbEntity
  8
LOGO
 62
     4
100
AcDbLine
 10
104.6991760560957
 20
63.04738146345529
 30
0.0
 11
41.34835035473815
 21
63.04738146345529
 31
0.0
  0
LINE
  5
1092
330
1F
100
AcDbEntity
  8
LOGO
 62
     4
100
AcDbLine
 10
62.46529225519089
 20
63.04738146345529
 30
0.0
 11
62.46529225519089
 21
80.32487938200706
 31
0.0
  0
TEXT
  5
1093
330
1F
100
AcDbEntity
  8
LOGO
100
AcDbText
 10
91.33015842415746
 20
64.48717295666732
 30
0.0
 40
2.879582986425339
  1
mm
  7
CHINESET
 72
     1
 11
94.89535640735073
 21
65.92696444987999
 31
0.0
100
AcDbText
 73
     2
  0
TEXT
  5
1094
330
1F
100
AcDbEntity
  8
LOGO
100
AcDbText
 10
89.821805431268
 20
76.00550490236887
 30
0.0
 40
2.879582986425339
  1
1 : 1
  7
CHINESET
 72
     1
 11
94.89535640735073
 21
77.44529639558153
 31
0.0
100
AcDbText
 73
     2
  0
LINE
  5
1095
330
1F
100
AcDbEntity
  8
LOGO
 62
     4
100
AcDbLine
 10
85.50195614659344
 20
63.04738146345529
 30
0.0
 11
85.50195614659344
 21
80.32487938200706
 31
0.0
  0
TEXT
  5
1096
330
1F
100
AcDbEntity
  8
LOGO
100
AcDbText
 10
64.8396626908725
 20
76.00692201998029
 30
188.7231250944717
 40
2.879582986425339
  1
比例 Scale:
 41
0.9
  7
CHINESET
 72
     4
 11
73.98362420089188
 21
77.44529639558153
 31
188.7231250944717
100
AcDbText
  0
TEXT
  5
1097
330
1F
100
AcDbEntity
  8
LOGO
100
AcDbText
 10
64.67382956352924
 20
70.28684487457813
 30
188.7231250944717
 40
2.879582986425339
  1
投影  View:
 41
0.9
  7
CHINESET
 72
     4
 11
73.98362420089188
 21
71.68613042273077
 31
188.7231250944717
100
AcDbText
  0
TEXT
  5
1098
330
1F
100
AcDbEntity
  8
LOGO
100
AcDbText
 10
64.95536022157708
 20
64.48717295666732
 30
188.7231250944717
 40
2.879582986425339
  1
單位  Unit:
 41
0.9
  7
CHINESET
 72
     4
 11
73.98362420089188
 21
65.92696444987999
 31
188.7231250944717
100
AcDbText
  0
LWPOLYLINE
  5
1099
330
1F
100
AcDbEntity
  8
LOGO
 62
     4
100
AcDbPolyline
 90
        4
 70
     1
 43
0.0
 10
41.34835035473815
 20
80.32487938200706
 10
352.2890833012533
 20
80.32487938200706
 10
352.2890833012533
 20
283.4213185001591
 10
41.34835035473815
 20
283.4213185001591
1001
GENIUS_GENREC_14
1002
{
1000
PYDIR
1011
41.34835035473815
1021
283.4213185001591
1031
0.0
1002
}
1002
{
1000
PXDIR
1011
352.2890833012533
1021
80.32487938200706
1031
0.0
1002
}
1002
{
1000
PORI
1011
41.34835035473815
1021
80.32487938200706
1031
0.0
1002
}
1002
{
1000
PINS
1011
41.34835035473815
1021
80.32487938200706
1031
0.0
1002
}
1002
{
1000
PINS2
1011
352.2890833012533
1021
283.4213185001591
1031
0.0
1002
}
1002
{
1000
C
1070
     1
1002
}
1001
GENIUS_GENODEF_13
1002
{
1000
HIER
1070
     0
1002
}
1002
{
1000
MANEDIT
1070
     0
1002
}
1002
{
1000
NOSEL
1070
     0
1002
}
1002
{
1000
BEHIND
1070
     0
1002
}
1002
{
1000
OTHER
1070
     0
1002
}
1002
{
1000
REACTOR
1002
}
1001
GENIUS_GENOBJ-N-REC_13
1002
{
1000
OWNER
1000
GEN
1002
}
  0
SOLID
  5
109A
330
1F
100
AcDbEntity
  8
LOGO
 62
     5
100
AcDbTrace
 10
44.33596391694635
 20
67.83427830202494
 30
0.0
 11
45.58102004001932
 21
67.83427830202467
 31
0.0
 12
50.77590938111564
 22
79.64084498633567
 32
0.0
 13
52.02096550418912
 23
79.64084498633514
 33
0.0
  0
SOLID
  5
109B
330
1F
100
AcDbEntity
  8
LOGO
 62
     5
100
AcDbTrace
 10
46.09621567715374
 20
67.83427830202494
 30
0.0
 11
47.34127180022665
 21
67.83427830202494
 31
0.0
 12
52.02096550418912
 22
78.69631965159046
 32
0.0
 13
50.77590938111564
 23
74.13111386699032
 33
0.0
  0
SOLID
  5
109C
330
1F
100
AcDbEntity
  8
LOGO
 62
     2
100
AcDbTrace
 10
45.58102004001932
 20
67.83427830202467
 30
0.0
 11
46.09621567715374
 21
67.83427830202494
 31
0.0
 12
52.02096550418912
 22
79.64084498633514
 32
0.0
 13
52.53616114132296
 23
79.64084498633514
 33
0.0
  0
SOLID
  5
109D
330
1F
100
AcDbEntity
  8
LOGO
 62
     5
100
AcDbTrace
 10
42.33983362649929
 20
63.54098132591229
 30
0.0
 11
42.76916332411064
 21
63.54098132591229
 31
0.0
 12
43.97818916893709
 22
65.68762981396834
 32
0.0
 13
44.40751886654789
 23
65.68762981396834
 33
0.0
  0
SOLID
  5
109E
330
1F
100
AcDbEntity
  8
LOGO
 62
     5
100
AcDbTrace
 10
43.97818916893709
 20
65.68762981396834
 30
0.0
 11
44.40751886654789
 21
65.68762981396834
 31
0.0
 12
43.97818916893709
 22
63.54098132591229
 32
0.0
 13
44.40751886654789
 23
63.54098132591229
 33
0.0
  0
SOLID
  5
109F
330
1F
100
AcDbEntity
  8
LOGO
 62
     5
100
AcDbTrace
 10
43.97818916893709
 20
63.54098132591229
 30
0.0
 11
44.40751886654789
 21
63.54098132591229
 31
0.0
 12
45.61654471137598
 22
65.68762981396834
 32
0.0
 13
46.04587440898728
 23
65.68762981396834
 33
0.0
  0
SOLID
  5
10A0
330
1F
100
AcDbEntity
  8
LOGO
 62
     5
100
AcDbTrace
 10
45.61654471137598
 20
65.68762981396834
 30
0.0
 11
46.04587440898728
 21
65.68762981396834
 31
0.0
 12
45.61654471137598
 22
63.54098132591229
 32
0.0
 13
46.04587440898728
 23
63.54098132591229
 33
0.0
  0
POLYLINE
  5
10A1
330
1F
100
AcDbEntity
  8
LOGO
 62
     5
100
AcDb2dPolyline
 66
     1
 10
0.0
 20
0.0
 30
0.0
 40
0.4300177259728506
 41
0.4300177259728506
  0
VERTEX
  5
10A2
330
10A1
100
AcDbEntity
  8
LOGO
 62
     5
100
AcDbVertex
100
AcDb2dVertex
 10
60.00752992230161
 20
64.82897041874597
 30
0.0
 42
1.0
  0
VERTEX
  5
10A3
330
10A1
100
AcDbEntity
  8
LOGO
 62
     5
100
AcDbVertex
100
AcDb2dVertex
 10
58.71747674438291
 20
64.82897041874597
 30
0.0
 42
1.0
  0
SEQEND
  5
10A4
330
10A1
100
AcDbEntity
  8
LOGO
 62
     5
  0
POLYLINE
  5
10A5
330
1F
100
AcDbEntity
  8
LOGO
 62
     5
100
AcDb2dPolyline
 66
     1
 10
0.0
 20
0.0
 30
0.0
 70
     1
  0
VERTEX
  5
10A6
330
10A5
100
AcDbEntity
  8
LOGO
 62
     5
100
AcDbVertex
100
AcDb2dVertex
 10
56.28566912244071
 20
64.61430556994004
 30
0.0
 42
1.000000057330635
  0
VERTEX
  5
10A7
330
10A5
100
AcDbEntity
  8
LOGO
 62
     5
100
AcDbVertex
100
AcDb2dVertex
 10
57.57365821527463
 20
64.61430556994004
 30
0.0
 42
1.000000057330635
  0
SEQEND
  5
10A8
330
10A5
100
AcDbEntity
  8
LOGO
 62
     5
  0
CIRCLE
  5
10A9
330
1F
100
AcDbEntity
  8
LOGO
 62
     5
100
AcDbCircle
 10
56.92966366885821
 20
64.61430556994004
 30
0.0
 40
0.6439945464169412
  0
POLYLINE
  5
10AA
330
1F
100
AcDbEntity
  8
LOGO
 62
     5
100
AcDb2dPolyline
 66
     1
 10
0.0
 20
0.0
 30
0.0
 70
     1
 40
0.4300177259728506
 41
0.4300177259728506
  0
VERTEX
  5
10AB
330
10AA
100
AcDbEntity
  8
LOGO
 62
     5
100
AcDbVertex
100
AcDb2dVertex
 10
56.06962821691218
 20
64.61430556994004
 30
0.0
 42
1.0
  0
VERTEX
  5
10AC
330
10AA
100
AcDbEntity
  8
LOGO
 62
     5
100
AcDbVertex
100
AcDb2dVertex
 10
57.78969912080367
 20
64.61430556994004
 30
0.0
 42
1.0
  0
SEQEND
  5
10AD
330
10AA
100
AcDbEntity
  8
LOGO
 62
     5
  0
LINE
  5
10AE
330
1F
100
AcDbEntity
  8
LOGO
100
AcDbLine
 10
60.22116272856408
 20
63.54098132591229
 30
0.0
 11
60.22116272856408
 21
64.82897041874597
 31
0.0
  0
SOLID
  5
10AF
330
1F
100
AcDbEntity
  8
LOGO
 62
     5
100
AcDbTrace
 10
57.5736152823066
 20
65.68762981396834
 30
0.0
 11
58.00294497991683
 21
65.68762981396834
 31
0.0
 12
57.5736152823066
 22
63.54098132591229
 32
0.0
 13
58.00294497991683
 23
63.54098132591229
 33
0.0
  0
SOLID
  5
10B0
330
1F
100
AcDbEntity
  8
LOGO
 62
     5
100
AcDbTrace
 10
58.50384393811935
 20
63.54098132591229
 30
0.0
 11
58.93317363573124
 21
63.54098132591229
 31
0.0
 12
58.50384393811935
 22
65.68762981396834
 32
0.0
 13
58.93317363573124
 23
65.68762981396834
 33
0.0
  0
SOLID
  5
10B1
330
1F
100
AcDbEntity
  8
LOGO
 62
     5
100
AcDbTrace
 10
59.79183303095386
 20
64.82897041874597
 30
0.0
 11
60.22116272856408
 21
64.82897041874597
 31
0.0
 12
59.79183303095386
 22
63.54098132591229
 32
0.0
 13
60.22116272856408
 23
63.54098132591229
 33
0.0
  0
SOLID
  5
10B2
330
1F
100
AcDbEntity
  8
LOGO
 62
     5
100
AcDbTrace
 10
58.46091096835777
 20
78.69631965159046
 30
0.0
 11
57.21585484528595
 21
74.13111386699032
 31
0.0
 12
58.46091096835777
 22
67.83427830202467
 32
0.0
 13
57.21585484528595
 23
67.83427830202467
 33
0.0
  0
SOLID
  5
10B3
330
1F
100
AcDbEntity
  8
LOGO
 62
     5
100
AcDbTrace
 10
58.97610660549225
 20
67.83427830202467
 30
0.0
 11
60.22116272856408
 21
67.83427830202467
 31
0.0
 12
58.97610660549225
 22
79.64084498633514
 32
0.0
 13
60.22116272856408
 23
79.64084498633567
 33
0.0
  0
SOLID
  5
10B4
330
1F
100
AcDbEntity
  8
LOGO
 62
     2
100
AcDbTrace
 10
58.46091096835777
 20
79.64084498633567
 30
0.0
 11
58.97610660549225
 21
79.64084498633514
 31
0.0
 12
58.46091096835777
 22
67.83427830202467
 32
0.0
 13
58.97610660549225
 23
67.83427830202467
 33
0.0
  0
POLYLINE
  5
10B5
330
1F
100
AcDbEntity
  8
LOGO
 62
     5
100
AcDb2dPolyline
 66
     1
 10
0.0
 20
0.0
 30
0.0
 40
0.4300177259728506
 41
0.4300177259728506
  0
VERTEX
  5
10B6
330
10B5
100
AcDbEntity
  8
LOGO
 62
     5
100
AcDbVertex
100
AcDb2dVertex
 10
53.85377563456012
 20
64.82897041874597
 30
0.0
 42
1.0
  0
VERTEX
  5
10B7
330
10B5
100
AcDbEntity
  8
LOGO
 62
     5
100
AcDbVertex
100
AcDb2dVertex
 10
52.56372245664142
 20
64.82897041874597
 30
0.0
 42
1.0
  0
SEQEND
  5
10B8
330
10B5
100
AcDbEntity
  8
LOGO
 62
     5
  0
POLYLINE
  5
10B9
330
1F
100
AcDbEntity
  8
LOGO
 62
     5
100
AcDb2dPolyline
 66
     1
 10
0.0
 20
0.0
 30
0.0
 40
0.4300177259728506
 41
0.4300177259728506
  0
VERTEX
  5
10BA
330
10B9
100
AcDbEntity
  8
LOGO
 62
     5
100
AcDbVertex
100
AcDb2dVertex
 10
55.14176472739302
 20
64.82897041874597
 30
0.0
 42
1.0
  0
VERTEX
  5
10BB
330
10B9
100
AcDbEntity
  8
LOGO
 62
     5
100
AcDbVertex
100
AcDb2dVertex
 10
53.85171154947482
 20
64.82897041874597
 30
0.0
 42
1.0
  0
SEQEND
  5
10BC
330
10B9
100
AcDbEntity
  8
LOGO
 62
     5
  0
POLYLINE
  5
10BD
330
1F
100
AcDbEntity
  8
LOGO
 62
     5
100
AcDb2dPolyline
 66
     1
 10
0.0
 20
0.0
 30
0.0
 40
0.4300177259728506
 41
0.4300177259728506
  0
VERTEX
  5
10BE
330
10BD
100
AcDbEntity
  8
LOGO
 62
     5
100
AcDbVertex
100
AcDb2dVertex
 10
48.98801043965147
 20
64.82897041874597
 30
0.0
 42
1.0
  0
VERTEX
  5
10BF
330
10BD
100
AcDbEntity
  8
LOGO
 62
     5
100
AcDbVertex
100
AcDb2dVertex
 10
47.69795726173334
 20
64.82897041874597
 30
0.0
 42
1.0
  0
SEQEND
  5
10C0
330
10BD
100
AcDbEntity
  8
LOGO
 62
     5
  0
SOLID
  5
10C1
330
1F
100
AcDbEntity
  8
LOGO
 62
     5
100
AcDbTrace
 10
47.48432445546973
 20
65.68762981396834
 30
0.0
 11
47.91365415308052
 21
65.68762981396834
 31
0.0
 12
47.48432445546973
 22
63.54098132591229
 32
0.0
 13
47.91365415308052
 23
63.54098132591229
 33
0.0
  0
SOLID
  5
10C2
330
1F
100
AcDbEntity
  8
LOGO
 62
     5
100
AcDbTrace
 10
48.77231354830371
 20
64.82897041874597
 30
0.0
 11
49.20164324591559
 21
64.82897041874597
 31
0.0
 12
48.77231354830371
 22
63.54098132591229
 32
0.0
 13
49.20164324591559
 23
63.54098132591229
 33
0.0
  0
POLYLINE
  5
10C3
330
1F
100
AcDbEntity
  8
LOGO
 62
     5
100
AcDb2dPolyline
 66
     1
 10
0.0
 20
0.0
 30
0.0
 70
     1
 40
0.4300177259728506
 41
0.4300177259728506
  0
VERTEX
  5
10C4
330
10C3
100
AcDbEntity
  8
LOGO
 62
     5
100
AcDbVertex
100
AcDb2dVertex
 10
49.91587392916961
 20
64.61430556994004
 30
0.0
 42
1.0
  0
VERTEX
  5
10C5
330
10C3
100
AcDbEntity
  8
LOGO
 62
     5
100
AcDbVertex
100
AcDb2dVertex
 10
51.63594483306155
 20
64.61430556994004
 30
0.0
 42
1.0
  0
SEQEND
  5
10C6
330
10C3
100
AcDbEntity
  8
LOGO
 62
     5
  0
SOLID
  5
10C7
330
1F
100
AcDbEntity
  8
LOGO
 62
     5
100
AcDbTrace
 10
51.41986099456346
 20
66.33162436038586
 30
0.0
 11
51.84919069217471
 21
66.33162436038586
 31
0.0
 12
51.41986099456346
 22
63.54098132591229
 32
0.0
 13
51.84919069217471
 23
63.54098132591229
 33
0.0
  0
SOLID
  5
10C8
330
1F
100
AcDbEntity
  8
LOGO
 62
     5
100
AcDbTrace
 10
52.35008965037895
 20
65.68762981396834
 30
0.0
 11
52.77941934798917
 21
65.68762981396834
 31
0.0
 12
52.35008965037895
 22
63.54098132591229
 32
0.0
 13
52.77941934798917
 23
63.54098132591229
 33
0.0
  0
SOLID
  5
10C9
330
1F
100
AcDbEntity
  8
LOGO
 62
     5
100
AcDbTrace
 10
53.63807874321185
 20
64.82897041874597
 30
0.0
 11
54.0674084408231
 21
64.82897041874597
 31
0.0
 12
53.63807874321185
 22
63.54098132591229
 32
0.0
 13
54.0674084408231
 23
63.54098132591229
 33
0.0
  0
SOLID
  5
10CA
330
1F
100
AcDbEntity
  8
LOGO
 62
     5
100
AcDbTrace
 10
54.92606783604577
 20
64.82897041874597
 30
0.0
 11
55.35539753365651
 21
64.82897041874597
 31
0.0
 12
54.92606783604577
 22
63.54098132591174
 32
0.0
 13
55.35539753365651
 23
63.54098132591174
 33
0.0
  0
SOLID
  5
10CB
330
1F
100
AcDbEntity
  8
LOGO
 62
     5
100
AcDbTrace
 10
46.55409579965533
 20
65.98816060229658
 30
0.0
 11
46.98342549726771
 21
65.98816060229658
 31
0.0
 12
46.55409579965533
 22
66.33162436038586
 32
0.0
 13
46.98342549726771
 23
66.33162436038586
 33
0.0
  0
SOLID
  5
10CC
330
1F
100
AcDbEntity
  8
LOGO
 62
     5
100
AcDbTrace
 10
46.55409579965533
 20
65.68762981396834
 30
0.0
 11
46.98342549726771
 21
65.68762981396834
 31
0.0
 12
46.55409579965533
 22
63.54098132591174
 32
0.0
 13
46.98342549726771
 23
63.54098132591229
 33
0.0
  0
SOLID
  5
10CD
330
1F
100
AcDbEntity
  8
LOGO
 62
     5
100
AcDbTrace
 10
50.77590938111564
 20
67.83427830202494
 30
0.0
 11
52.02096550418912
 21
67.83427830202494
 31
0.0
 12
50.77590938111564
 22
74.13111386699032
 32
0.0
 13
52.02096550418912
 23
78.69631965159046
 33
0.0
  0
SOLID
  5
10CE
330
1F
100
AcDbEntity
  8
LOGO
 62
     5
100
AcDbTrace
 10
52.53616114132296
 20
79.64084498633514
 30
0.0
 11
53.78121726439542
 21
79.64084498633567
 31
0.0
 12
52.53616114132296
 22
68.77880363676962
 32
0.0
 13
53.78121726439542
 23
73.34400942136975
 33
0.0
  0
SOLID
  5
10CF
330
1F
100
AcDbEntity
  8
LOGO
 62
     2
100
AcDbTrace
 10
52.02096550418912
 20
79.64084498633514
 30
0.0
 11
52.53616114132296
 21
79.64084498633514
 31
0.0
 12
52.02096550418912
 22
67.83427830202494
 32
0.0
 13
52.53616114132296
 23
67.83427830202494
 33
0.0
  0
SOLID
  5
10D0
330
1F
100
AcDbEntity
  8
LOGO
 62
     5
100
AcDbTrace
 10
52.53616114132296
 20
68.77880363676962
 30
0.0
 11
53.78121726439542
 21
73.34400942136975
 31
0.0
 12
58.46091096835777
 22
79.64084498633567
 32
0.0
 13
57.21585484528595
 23
79.64084498633567
 33
0.0
  0
SOLID
  5
10D1
330
1F
100
AcDbEntity
  8
LOGO
 62
     5
100
AcDbTrace
 10
52.53616114132296
 20
67.83427830202494
 30
0.0
 11
53.78121726439542
 21
67.83427830202494
 31
0.0
 12
58.46091096835777
 22
78.69631965159046
 32
0.0
 13
57.21585484528595
 23
74.13111386699032
 33
0.0
  0
SOLID
  5
10D2
330
1F
100
AcDbEntity
  8
LOGO
 62
     2
100
AcDbTrace
 10
52.02096550418912
 20
67.83427830202494
 30
0.0
 11
52.53616114132296
 21
67.83427830202494
 31
0.0
 12
58.46091096835777
 22
79.64084498633567
 32
0.0
 13
58.97610660549225
 23
79.64084498633514
 33
0.0
  0
LWPOLYLINE
  5
10D3
330
1F
100
AcDbEntity
  8
LOGO
 62
     4
100
AcDbPolyline
 90
        4
 70
     1
 43
0.0
 10
41.34835035473815
 20
80.32487938200706
 10
352.2890833012533
 20
80.32487938200706
 10
352.2890833012533
 20
51.52904951775321
 10
41.34835035473815
 20
51.52904951775321
1001
GENIUS_GENREC_14
1002
{
1000
PYDIR
1011
41.34835035473815
1021
51.52904951775321
1031
0.0
1002
}
1002
{
1000
PXDIR
1011
352.2890833012533
1021
80.32487938200706
1031
0.0
1002
}
1002
{
1000
PORI
1011
41.34835035473815
1021
80.32487938200706
1031
0.0
1002
}
1002
{
1000
PINS
1011
41.34835035473815
1021
80.32487938200706
1031
0.0
1002
}
1002
{
1000
PINS2
1011
352.2890833012533
1021
51.52904951775321
1031
0.0
1002
}
1002
{
1000
C
1070
     1
1002
}
1001
GENIUS_GENOBJ-N-REC_13
1002
{
1000
OWNER
1000
GEN
1002
}
1001
GENIUS_GENODEF_13
1002
{
1000
HIER
1070
     0
1002
}
1002
{
1000
MANEDIT
1070
     0
1002
}
1002
{
1000
NOSEL
1070
     0
1002
}
1002
{
1000
BEHIND
1070
     0
1002
}
1002
{
1000
OTHER
1070
     0
1002
}
1002
{
1000
REACTOR
1002
}
  0
CIRCLE
  5
10D4
330
1F
100
AcDbEntity
  8
LOGO
  6
Continuous
100
AcDbCircle
 10
90.83386421850617
 20
71.69228987181135
 30
0.0
 40
1.671953659661709
  0
CIRCLE
  5
10D5
330
1F
100
AcDbEntity
  8
LOGO
  6
Continuous
100
AcDbCircle
 10
90.83386421850617
 20
71.69228987181135
 30
0.0
 40
0.9796168348784599
  0
LINE
  5
10D6
330
1F
100
AcDbEntity
  8
LOGO
100
AcDbLine
 10
101.340615021119
 20
70.02033621214926
 30
0.0
 11
101.340615021119
 21
73.36424353147343
 31
0.0
  0
LINE
  5
10D7
330
1F
100
AcDbEntity
  8
LOGO
100
AcDbLine
 10
96.0991362727994
 20
70.71267303693307
 30
0.0
 11
96.0991362727994
 21
72.67190670668991
 31
0.0
  0
LINE
  5
10D8
330
1F
100
AcDbEntity
  8
LOGO
  6
Continuous
100
AcDbLine
 10
96.0991362727994
 20
72.67190670668991
 30
0.0
 11
101.340615021119
 21
73.36424353147343
 31
0.0
  0
LINE
  5
10D9
330
1F
100
AcDbEntity
  8
LOGO
  6
Continuous
100
AcDbLine
 10
96.0991362727994
 20
70.71267303693307
 30
0.0
 11
101.340615021119
 21
70.02033621214926
 31
0.0
  0
LINE
  5
10DA
330
1F
100
AcDbEntity
  8
LOGO
  6
AM_ISO08W050x2
 48
0.3
100
AcDbLine
 10
88.52905106312801
 20
71.69228987181135
 30
0.0
 11
93.13867737388438
 21
71.69228987181135
 31
0.0
1001
GENIUS_GENOREF_13
1005
110F
  0
LINE
  5
10DB
330
1F
100
AcDbEntity
  8
LOGO
  6
AM_ISO08W050x2
 48
0.3
100
AcDbLine
 10
90.83386421850617
 20
69.3874767164329
 30
0.0
 11
90.83386421850617
 21
73.99710302718952
 31
0.0
1001
GENIUS_GENOREF_13
1005
110E
  0
LINE
  5
10DC
330
1F
100
AcDbEntity
  8
LOGO
  6
CENTER
 48
0.5
100
AcDbLine
 10
95.67996365915394
 20
71.69228987181135
 30
0.0
 11
101.8684149635332
 21
71.69228987181135
 31
0.0
1001
GENIUS_GENOREF_13
1005
110D
  0
TEXT
  5
10DD
330
1F
100
AcDbEntity
  8
LOGO
 62
     7
100
AcDbText
 10
106.3674274888767
 20
67.70991632139342
 30
0.0
 40
3.839443981900452
  1
Order example:
 41
0.8
  7
CHINESET
100
AcDbText
  0
TEXT
  5
10DE
330
1F
100
AcDbEntity
  8
LOGO
 62
     7
100
AcDbText
 10
107.0562554901397
 20
73.11505848088913
 30
0.0
 40
5.759165972850678
  1
訂購代號：
  7
CHINESET
100
AcDbText
  0
TEXT
  5
10DF
330
1F
100
AcDbEntity
  8
LOGO
100
AcDbText
 10
105.8893873074782
 20
53.06097630100033
 30
0.0
 40
2.88
  1
10703286
 41
0.7
  7
CHINESET
 72
     1
 11
113.0413873074782
 21
53.06097630100033
 31
0.0
100
AcDbText
  0
LINE
  5
10E0
330
1F
100
AcDbEntity
  8
LOGO
 62
     4
100
AcDbLine
 10
121.9791760560948
 20
57.2882154906048
 30
0.0
 11
121.9791760560959
 21
51.52904951775376
 31
0.0
  0
LINE
  5
10E1
330
1F
100
AcDbEntity
  8
LOGO
 62
     4
100
AcDbLine
 10
121.9791760560948
 20
57.2882154906048
 30
0.0
 11
104.6991760560957
 21
57.2882154906048
 31
0.0
  0
LINE
  5
10E2
330
1F
100
AcDbEntity
  8
LOGO
 62
     4
100
AcDbLine
 10
163.5037819200702
 20
64.48717295666805
 30
0.0
 11
163.5037819200702
 21
53.92870200644141
 31
0.0
  0
LINE
  5
10E3
330
1F
100
AcDbEntity
  8
LOGO
 62
     4
100
AcDbLine
 10
144.3065620105678
 20
64.48717295666805
 30
0.0
 11
144.3065620105678
 21
53.92870200644141
 31
0.0
  0
LINE
  5
10E4
330
1F
100
AcDbEntity
  8
LOGO
 62
     4
100
AcDbLine
 10
163.5037819200702
 20
53.92870200644141
 30
0.0
 11
144.3065620105678
 21
53.92870200644141
 31
0.0
  0
LINE
  5
10E5
330
1F
100
AcDbEntity
  8
LOGO
 62
     4
100
AcDbLine
 10
167.0623607882776
 20
77.44529639558153
 30
0.0
 11
144.3065620105678
 21
77.44529639558153
 31
0.0
  0
LINE
  5
10E6
330
1F
100
AcDbEntity
  8
LOGO
 62
     4
100
AcDbLine
 10
167.0623607882776
 20
68.80654743630552
 30
0.0
 11
144.3065620105678
 21
68.80654743630552
 31
0.0
  0
LINE
  5
10E7
330
1F
100
AcDbEntity
  8
LOGO
 62
     4
100
AcDbLine
 10
144.3065620105678
 20
77.44529639558153
 30
0.0
 11
144.3065620105678
 21
68.80654743630552
 31
0.0
  0
LINE
  5
10E8
330
1F
100
AcDbEntity
  8
LOGO
 62
     4
100
AcDbLine
 10
167.0623607882776
 20
77.44529639558153
 30
0.0
 11
167.0623607882776
 21
68.80654743630552
 31
0.0
  0
LINE
  5
10E9
330
1F
100
AcDbEntity
  8
LOGO
 62
     4
100
AcDbLine
 10
154.9067846699797
 20
68.80654743630552
 30
0.0
 11
154.9067846699797
 21
64.48717295666805
 31
0.0
  0
TEXT
  5
10EA
330
1F
100
AcDbEntity
  8
LOGO
  6
Continuous
 62
     7
100
AcDbText
 10
145.8415324056913
 20
70.60987365170507
 30
0.0
 40
5.04
  1
MVSY
  7
CHINESET
100
AcDbText
  0
LINE
  5
10EB
330
1F
100
AcDbEntity
  8
LOGO
 62
     4
100
AcDbLine
 10
163.5037819200702
 20
64.48717295666805
 30
0.0
 11
144.3065620105678
 21
64.48717295666805
 31
0.0
  0
TEXT
  5
10EC
330
1F
100
AcDbEntity
  8
LOGO
  6
Continuous
100
AcDbText
 10
150.4668891020542
 20
55.41900779130813
 30
188.7231250944717
 40
2.16
  1
Model
 41
0.8
  7
CHINESET
100
AcDbText
  0
TEXT
  5
10ED
330
1F
100
AcDbEntity
  8
LOGO
100
AcDbText
 10
149.8919673193352
 20
59.42318227808321
 30
188.7231250944717
 40
3.599999999999999
  1
型號
  7
CHINESET
100
AcDbText
  0
LINE
  5
10EE
330
1F
100
AcDbEntity
  8
LOGO
  6
Continuous
 62
     7
100
AcDbLine
 10
167.980731200926
 20
73.09532210188485
 30
0.0
 11
171.7952875273988
 21
73.09532210188485
 31
0.0
  0
TEXT
  5
10EF
330
1F
100
AcDbEntity
  8
LOGO
  6
Continuous
 62
     7
100
AcDbText
 10
173.4268490028896
 20
70.60987365170507
 30
0.0
 40
5.04
  1
156
  7
CHINESET
100
AcDbText
  0
LINE
  5
10F0
330
1F
100
AcDbEntity
  8
LOGO
  6
Continuous
 62
     7
100
AcDbLine
 10
187.0101876996029
 20
73.09532210188485
 30
0.0
 11
190.8247440260763
 21
73.09532210188485
 31
0.0
  0
LINE
  5
10F4
330
1F
100
AcDbEntity
  8
LOGO
 62
     4
100
AcDbLine
 10
217.908663760634
 20
77.44529639558153
 30
0.0
 11
192.0280354698144
 21
77.44529639558153
 31
0.0
  0
LINE
  5
10F5
330
1F
100
AcDbEntity
  8
LOGO
 62
     4
100
AcDbLine
 10
217.908663760634
 20
68.80654743630552
 30
0.0
 11
192.0280354698144
 21
68.80654743630552
 31
0.0
  0
LINE
  5
10F6
330
1F
100
AcDbEntity
  8
LOGO
 62
     4
100
AcDbLine
 10
192.0280354698144
 20
77.44529639558153
 30
0.0
 11
192.0280354698144
 21
68.80654743630552
 31
0.0
  0
LINE
  5
10F7
330
1F
100
AcDbEntity
  8
LOGO
 62
     4
100
AcDbLine
 10
217.908663760634
 20
77.44529639558153
 30
0.0
 11
217.908663760634
 21
68.80654743630552
 31
0.0
  0
TEXT
  5
10F9
330
1F
100
AcDbEntity
  8
LOGO
  6
Continuous
 62
     7
100
AcDbText
 10
193.1778298562946
 20
70.60987365170507
 30
0.0
 40
5.04
  1
1A/2A
  7
CHINESET
100
AcDbText
  0
LINE
  5
10FB
330
1F
100
AcDbEntity
  8
LOGO
 62
     4
100
AcDbLine
 10
211.4532596559537
 20
64.48717295666805
 30
0.0
 11
211.4532596559537
 21
53.92870200644141
 31
0.0
  0
LINE
  5
10FC
330
1F
100
AcDbEntity
  8
LOGO
 62
     4
100
AcDbLine
 10
195.8140635974271
 20
64.48717295666805
 30
0.0
 11
195.8140635974271
 21
53.92870200644141
 31
0.0
  0
LINE
  5
10FD
330
1F
100
AcDbEntity
  8
LOGO
 62
     4
100
AcDbLine
 10
211.4532596559537
 20
53.92870200644141
 30
0.0
 11
195.8140635974271
 21
53.92870200644141
 31
0.0
  0
LINE
  5
1104
330
1F
100
AcDbEntity
  8
LOGO
 62
     4
100
AcDbLine
 10
211.4532596559537
 20
64.48717295666805
 30
0.0
 11
195.8140635974271
 21
64.48717295666805
 31
0.0
  0
TEXT
  5
1107
330
1F
100
AcDbEntity
  8
LOGO
  6
Continuous
100
AcDbText
 10
199.0932406166929
 20
55.41900779130813
 30
188.7231250944717
 40
2.16
  1
Bracket
 41
0.8
  7
CHINESET
100
AcDbText
  0
TEXT
  5
1108
330
1F
100
AcDbEntity
  8
LOGO
100
AcDbText
 10
200.0187755881943
 20
59.42318227808321
 30
188.7231250944717
 40
3.599999999999999
  1
支架
  7
CHINESET
100
AcDbText
  0
LINE
  5
110B
330
1F
100
AcDbEntity
  8
LOGO
 62
     4
100
AcDbLine
 10
203.6336616266901
 20
64.48717295666805
 30
0.0
 11
203.6336616266902
 21
68.80654743630554
 31
0.0
  0
POINT
  5
110D
330
1F
100
AcDbEntity
  8
0
 60
     1
100
AcDbPoint
 10
-1947.385127577553
 20
-563.0507483499114
 30
0.0
1001
GENIUS_GENOBJ-N-CRS_13
1002
{
1000
OWNER
1000
GEN
1002
}
1001
GENIUS_GENOLIS_13
1002
{
1000
ENT
1005
0
1005
0
1005
0
1005
10DC
1002
}
1001
GENIUS_GENOENT_13
1002
{
1000
MYREF
1005
110D
1002
}
1002
{
1000
GRP
1005
0
1002
}
1001
GENIUS_GENODEF_13
1002
{
1000
HIER
1070
    10
1002
}
1002
{
1000
MANEDIT
1070
     1
1002
}
1002
{
1000
NOSEL
1070
     0
1002
}
1002
{
1000
BEHIND
1070
     0
1002
}
1002
{
1000
OTHER
1070
     0
1002
}
1002
{
1000
REACTOR
1002
}
  0
POINT
  5
110E
330
1F
100
AcDbEntity
  8
0
 60
     1
100
AcDbPoint
 10
-1958.709712800408
 20
-554.175161871275
 30
0.0
1001
GENIUS_GENOBJ-N-CRS_13
1002
{
1000
OWNER
1000
GEN
1002
}
1001
GENIUS_GENOLIS_13
1002
{
1000
ENT
1005
0
1005
0
1005
0
1005
10DB
1002
}
1001
GENIUS_GENOENT_13
1002
{
1000
MYREF
1005
110E
1002
}
1002
{
1000
GRP
1005
0
1002
}
1001
GENIUS_GENODEF_13
1002
{
1000
HIER
1070
    10
1002
}
1002
{
1000
MANEDIT
1070
     1
1002
}
1002
{
1000
NOSEL
1070
     0
1002
}
1002
{
1000
BEHIND
1070
     0
1002
}
1002
{
1000
OTHER
1070
     0
1002
}
1002
{
1000
REACTOR
1002
}
  0
POINT
  5
110F
330
1F
100
AcDbEntity
  8
0
 60
     1
100
AcDbPoint
 10
-1952.351039102571
 20
-563.0507483499114
 30
0.0
1001
GENIUS_GENOBJ-N-CRS_13
1002
{
1000
OWNER
1000
GEN
1002
}
1001
GENIUS_GENOLIS_13
1002
{
1000
ENT
1005
0
1005
0
1005
0
1005
10DA
1002
}
1001
GENIUS_GENOENT_13
1002
{
1000
MYREF
1005
110F
1002
}
1002
{
1000
GRP
1005
0
1002
}
1001
GENIUS_GENODEF_13
1002
{
1000
HIER
1070
    10
1002
}
1002
{
1000
MANEDIT
1070
     1
1002
}
1002
{
1000
NOSEL
1070
     0
1002
}
1002
{
1000
BEHIND
1070
     0
1002
}
1002
{
1000
OTHER
1070
     0
1002
}
1002
{
1000
REACTOR
1002
}
  0
LINE
  5
1110
330
1F
100
AcDbEntity
  8
LOGO
 62
     4
100
AcDbLine
 10
196.8187168279957
 20
283.4213185001591
 30
0.0
 11
196.8187168279957
 21
80.32487938200706
 31
0.0
  0
LINE
  5
120C
330
1F
100
AcDbEntity
  8
AM_VIS
100
AcDbLine
 10
160.4454745569401
 20
174.7590386071381
 30
0.0
 11
159.24547455694
 21
174.7590386071381
 31
0.0
  0
LINE
  5
120D
330
1F
100
AcDbEntity
  8
AM_VIS
100
AcDbLine
 10
159.24547455694
 20
159.269959135066
 30
0.0
 11
159.24547455694
 21
173.7590386071381
 31
0.0
  0
LINE
  5
120E
330
1F
100
AcDbEntity
  8
AM_VIS
100
AcDbLine
 10
159.24547455694
 20
157.5590386071381
 30
0.0
 11
159.24547455694
 21
158.3040333087936
 31
0.0
  0
LINE
  5
120F
330
1F
100
AcDbEntity
  8
AM_VIS
100
AcDbLine
 10
158.0454745569401
 20
156.3590386071381
 30
0.0
 11
160.4454745569401
 21
156.3590386071381
 31
0.0
  0
LINE
  5
1210
330
1F
100
AcDbEntity
  8
AM_VIS
100
AcDbLine
 10
158.0454745569402
 20
156.3590386071381
 30
0.0
 11
157.3454745569402
 21
156.3590386071381
 31
0.0
  0
ARC
  5
1211
330
1F
100
AcDbEntity
  8
AM_VIS
100
AcDbCircle
 10
158.0454745569401
 20
157.5590386071381
 30
0.0
 40
1.199999999999999
100
AcDbArc
 50
270.0
 51
359.9999999999968
  0
LINE
  5
1212
330
1F
100
AcDbEntity
  8
AM_VIS
100
AcDbLine
 10
160.4454745569401
 20
136.2590386071381
 30
0.0
 11
160.4454745569401
 21
135.0590386071381
 31
0.0
  0
LINE
  5
1213
330
1F
100
AcDbEntity
  8
AM_VIS
100
AcDbLine
 10
157.3454745569402
 20
155.1590386071381
 30
0.0
 11
159.2454745569401
 21
155.1590386071381
 31
0.0
  0
LINE
  5
1214
330
1F
100
AcDbEntity
  8
AM_VIS
100
AcDbLine
 10
157.3454745569402
 20
136.2590386071381
 30
0.0
 11
157.3454745569402
 21
155.1590386071381
 31
0.0
  0
LINE
  5
1215
330
1F
100
AcDbEntity
  8
AM_VIS
100
AcDbLine
 10
160.4454745569401
 20
136.2590386071381
 30
0.0
 11
157.3454745569402
 21
136.2590386071381
 31
0.0
  0
LINE
  5
1216
330
1F
100
AcDbEntity
  8
AM_VIS
100
AcDbLine
 10
156.1454745569401
 20
155.1590386071381
 30
0.0
 11
156.1454745569401
 21
136.2590386071381
 31
0.0
  0
LINE
  5
1217
330
1F
100
AcDbEntity
  8
AM_VIS
100
AcDbLine
 10
160.4454745569401
 20
156.3590386071382
 30
0.0
 11
160.4454745569401
 21
158.3040333087936
 31
0.0
  0
LINE
  5
1218
330
1F
100
AcDbEntity
  8
AM_VIS
100
AcDbLine
 10
160.4454745569401
 20
159.269959135066
 30
0.0
 11
160.4454745569401
 21
173.7590386071381
 31
0.0
  0
LINE
  5
1219
330
1F
100
AcDbEntity
  8
AM_VIS
100
AcDbLine
 10
160.4454745569401
 20
135.0590386071381
 30
0.0
 11
157.3454745569402
 21
135.0590386071381
 31
0.0
  0
LINE
  5
121A
330
1F
100
AcDbEntity
  8
AM_VIS
100
AcDbLine
 10
159.24547455694
 20
173.7590386071381
 30
0.0
 11
159.24547455694
 21
174.7590386071381
 31
0.0
  0
LINE
  5
121B
330
1F
100
AcDbEntity
  8
AM_VIS
100
AcDbLine
 10
159.24547455694
 20
158.3040333087936
 30
0.0
 11
159.24547455694
 21
159.269959135066
 31
0.0
  0
ARC
  5
121C
330
1F
100
AcDbEntity
  8
AM_VIS
100
AcDbCircle
 10
157.3454745569402
 20
155.1590386071381
 30
0.0
 40
1.199999999999999
100
AcDbArc
 50
90.0
 51
180.0
  0
LINE
  5
121D
330
1F
100
AcDbEntity
  8
AM_VIS
100
AcDbLine
 10
160.4454745569401
 20
159.269959135066
 30
0.0
 11
160.4454745569401
 21
158.3040333087936
 31
0.0
  0
LINE
  5
121E
330
1F
100
AcDbEntity
  8
AM_VIS
100
AcDbLine
 10
160.4454745569401
 20
174.7590386071381
 30
0.0
 11
160.4454745569401
 21
173.7590386071381
 31
0.0
  0
ARC
  5
121F
330
1F
100
AcDbEntity
  8
AM_VIS
100
AcDbCircle
 10
159.24547455694
 20
156.3590386071381
 30
0.0
 40
1.199999999999999
100
AcDbArc
 50
270.0
 51
0.0
  0
ARC
  5
1220
330
1F
100
AcDbEntity
  8
AM_VIS
100
AcDbCircle
 10
157.3454745569402
 20
136.2590386071381
 30
0.0
 40
1.199999999999999
100
AcDbArc
 50
180.0
 51
270.0
  0
LINE
  5
1221
330
1F
100
AcDbEntity
  8
AM_VIS
100
AcDbLine
 10
89.36643051930525
 20
158.3040333087936
 30
0.0
 11
92.14678859653833
 21
157.5590386071381
 31
0.0
  0
LINE
  5
1222
330
1F
100
AcDbEntity
  8
AM_VIS
100
AcDbLine
 10
88.62524956446987
 20
173.7590386071381
 30
0.0
 11
88.62524956446987
 21
159.269959135066
 31
0.0
  0
LINE
  5
1223
330
1F
100
AcDbEntity
  8
AM_VIS
100
AcDbLine
 10
96.12524956446987
 20
174.7590386071381
 30
0.0
 11
89.62524956446987
 21
174.7590386071381
 31
0.0
  0
LINE
  5
1224
330
1F
100
AcDbEntity
  8
AM_VIS
100
AcDbLine
 10
97.12524956446987
 20
163.4590386071381
 30
0.0
 11
97.12524956446987
 21
173.7590386071381
 31
0.0
  0
LINE
  5
1225
330
1F
100
AcDbEntity
  8
AM_VIS
100
AcDbLine
 10
124.6252495644698
 20
162.459038607138
 30
0.0
 11
98.12524956446987
 21
162.459038607138
 31
0.0
  0
LINE
  5
1226
330
1F
100
AcDbEntity
  8
AM_VIS
100
AcDbLine
 10
125.6252495644698
 20
173.7590386071381
 30
0.0
 11
125.6252495644698
 21
163.459038607138
 31
0.0
  0
LINE
  5
1227
330
1F
100
AcDbEntity
  8
AM_VIS
100
AcDbLine
 10
133.1252495644698
 20
174.7590386071381
 30
0.0
 11
126.6252495644698
 21
174.7590386071381
 31
0.0
  0
LINE
  5
1228
330
1F
100
AcDbEntity
  8
AM_VIS
100
AcDbLine
 10
134.1252495644698
 20
159.269959135066
 30
0.0
 11
134.1252495644698
 21
173.7590386071381
 31
0.0
  0
LINE
  5
1229
330
1F
100
AcDbEntity
  8
AM_VIS
100
AcDbLine
 10
130.603710532401
 20
157.5590386071381
 30
0.0
 11
133.3840686096344
 21
158.3040333087936
 31
0.0
  0
LINE
  5
122A
330
1F
100
AcDbEntity
  8
AM_VIS
100
AcDbLine
 10
92.14678859653833
 20
157.5590386071381
 30
0.0
 11
96.62524956446986
 21
156.3590386071381
 31
0.0
  0
LINE
  5
122B
330
1F
100
AcDbEntity
  8
AM_VIS
100
AcDbLine
 10
126.1252495644698
 20
156.3590386071381
 30
0.0
 11
130.603710532401
 21
157.559038607138
 31
0.0
  0
LINE
  5
122C
330
1F
100
AcDbEntity
  8
AM_VIS
100
AcDbLine
 10
126.1252495644698
 20
155.1590386071381
 30
0.0
 11
126.1252495644698
 21
136.2590386071381
 31
0.0
  0
LINE
  5
122D
330
1F
100
AcDbEntity
  8
AM_VIS
100
AcDbLine
 10
126.1252495644698
 20
156.3590386071381
 30
0.0
 11
96.62524956446986
 21
156.3590386071381
 31
0.0
  0
LINE
  5
122E
330
1F
100
AcDbEntity
  8
AM_VIS
100
AcDbLine
 10
96.62524956446986
 20
136.2590386071381
 30
0.0
 11
96.62524956446986
 21
155.1590386071381
 31
0.0
  0
LINE
  5
122F
330
1F
100
AcDbEntity
  8
AM_VIS
100
AcDbLine
 10
96.62524956446986
 20
135.0590386071381
 30
0.0
 11
126.1252495644698
 21
135.0590386071381
 31
0.0
  0
ARC
  5
1230
330
1F
100
AcDbEntity
  8
AM_VIS
100
AcDbCircle
 10
89.62524956446987
 20
159.269959135066
 30
0.0
 40
0.9999999999999998
100
AcDbArc
 50
180.0
 51
254.9999999963169
  0
ARC
  5
1231
102
{ACAD_REACTORS
330
1485
102
}
330
1F
100
AcDbEntity
  8
AM_VIS
100
AcDbCircle
 10
89.62524956446987
 20
173.7590386071381
 30
0.0
 40
0.9999999999999998
100
AcDbArc
 50
90.0
 51
180.0
  0
ARC
  5
1232
330
1F
100
AcDbEntity
  8
AM_VIS
100
AcDbCircle
 10
96.12524956446987
 20
173.7590386071381
 30
0.0
 40
0.9999999999999998
100
AcDbArc
 50
0.0
 51
90.0
  0
ARC
  5
1233
330
1F
100
AcDbEntity
  8
AM_VIS
100
AcDbCircle
 10
98.12524956446987
 20
163.459038607138
 30
0.0
 40
0.9999999999999998
100
AcDbArc
 50
180.0
 51
270.0
  0
ARC
  5
1234
330
1F
100
AcDbEntity
  8
AM_VIS
100
AcDbCircle
 10
124.6252495644698
 20
163.459038607138
 30
0.0
 40
0.9999999999999998
100
AcDbArc
 50
270.0
 51
0.0
  0
ARC
  5
1235
330
1F
100
AcDbEntity
  8
AM_VIS
100
AcDbCircle
 10
126.6252495644698
 20
173.7590386071381
 30
0.0
 40
0.9999999999999998
100
AcDbArc
 50
90.0
 51
180.0
  0
ARC
  5
1236
330
1F
100
AcDbEntity
  8
AM_VIS
100
AcDbCircle
 10
133.1252495644698
 20
173.7590386071381
 30
0.0
 40
1.0
100
AcDbArc
 50
0.0
 51
90.0
  0
ARC
  5
1237
330
1F
100
AcDbEntity
  8
AM_VIS
100
AcDbCircle
 10
133.1252495644698
 20
159.269959135066
 30
0.0
 40
1.0
100
AcDbArc
 50
285.00000000368
 51
0.0
  0
CIRCLE
  5
1238
330
1F
100
AcDbEntity
  8
AM_VIS
100
AcDbCircle
 10
92.87524956446986
 20
171.2590386071381
 30
0.0
 40
1.6
  0
CIRCLE
  5
1239
102
{ACAD_REACTORS
330
15EE
102
}
330
1F
100
AcDbEntity
  8
AM_VIS
100
AcDbCircle
 10
129.8752495644698
 20
171.2590386071381
 30
0.0
 40
1.6
  0
LINE
  5
123A
330
1F
100
AcDbEntity
  8
AM_VIS
100
AcDbLine
 10
126.1252495644698
 20
156.3590386071381
 30
0.0
 11
126.1252495644698
 21
155.1590386071381
 31
0.0
  0
LINE
  5
123B
330
1F
100
AcDbEntity
  8
AM_VIS
100
AcDbLine
 10
96.62524956446986
 20
155.1590386071381
 30
0.0
 11
96.62524956446986
 21
156.3590386071381
 31
0.0
  0
LINE
  5
123C
330
1F
100
AcDbEntity
  8
AM_VIS
100
AcDbLine
 10
126.1252495644698
 20
136.2590386071381
 30
0.0
 11
126.1252495644698
 21
135.0590386071381
 31
0.0
  0
LINE
  5
123D
102
{ACAD_REACTORS
330
1485
102
}
330
1F
100
AcDbEntity
  8
AM_VIS
100
AcDbLine
 10
96.62524956446986
 20
135.0590386071381
 30
0.0
 11
96.62524956446986
 21
136.2590386071381
 31
0.0
  0
CIRCLE
  5
123E
330
1F
100
AcDbEntity
  8
AM_VIS
100
AcDbCircle
 10
104.6252495644699
 20
139.5590386071381
 30
0.0
 40
1.6
  0
CIRCLE
  5
123F
330
1F
100
AcDbEntity
  8
AM_VIS
100
AcDbCircle
 10
118.1252495644699
 20
139.5590386071381
 30
0.0
 40
1.6
  0
LINE
  5
1240
330
1F
100
AcDbEntity
  8
AM_VIS
100
AcDbLine
 10
97.12524956446987
 20
207.3281958158899
 30
0.0
 11
97.12524956446987
 21
208.5281958158898
 31
0.0
  0
LINE
  5
1241
102
{ACAD_REACTORS
330
1898
102
}
330
1F
100
AcDbEntity
  8
AM_VIS
100
AcDbLine
 10
134.1252495644698
 20
207.3281958158899
 30
0.0
 11
134.1252495644698
 21
208.5281958158898
 31
0.0
  0
LINE
  5
1242
330
1F
100
AcDbEntity
  8
AM_VIS
100
AcDbLine
 10
125.6252495644698
 20
208.5281958158898
 30
0.0
 11
125.6252495644698
 21
207.3281958158899
 31
0.0
  0
LINE
  5
1243
330
1F
100
AcDbEntity
  8
AM_VIS
100
AcDbLine
 10
88.62524956446987
 20
208.5281958158898
 30
0.0
 11
88.62524956446987
 21
207.3281958158899
 31
0.0
  0
LINE
  5
1244
330
1F
100
AcDbEntity
  8
AM_VIS
100
AcDbLine
 10
96.12524956446987
 20
207.3281958158899
 30
0.0
 11
89.62524956446987
 21
207.3281958158899
 31
0.0
  0
LINE
  5
1245
330
1F
100
AcDbEntity
  8
AM_VIS
100
AcDbLine
 10
124.6252495644698
 20
207.3281958158899
 30
0.0
 11
98.12524956446987
 21
207.3281958158899
 31
0.0
  0
LINE
  5
1246
330
1F
100
AcDbEntity
  8
AM_VIS
100
AcDbLine
 10
133.1252495644698
 20
207.3281958158899
 30
0.0
 11
126.6252495644698
 21
207.3281958158899
 31
0.0
  0
LINE
  5
1247
330
1F
100
AcDbEntity
  8
AM_VIS
100
AcDbLine
 10
126.1252495644698
 20
206.1281958158899
 30
0.0
 11
126.1252495644698
 21
205.4281958158898
 31
0.0
  0
ELLIPSE
  5
1248
330
1F
100
AcDbEntity
  8
AM_VIS
100
AcDbEllipse
 10
92.14678859653838
 20
206.1281958158899
 30
0.0
 11
4.478460967931484
 21
0.0000000000000001
 31
0.0
210
0.0
220
0.0
230
1.0
 40
0.2679491924999979
 41
0.0000000000000011
 42
1.570796326794907
  0
ELLIPSE
  5
1249
330
1F
100
AcDbEntity
  8
AM_VIS
100
AcDbEllipse
 10
130.6037105324013
 20
206.1281958158899
 30
0.0
 11
-4.478460967931479
 21
0.0
 31
0.0
210
0.0
220
0.0
230
1.0
 40
0.2679491924999981
 41
4.712388980384754
 42
6.283185307179586
  0
LINE
  5
124A
330
1F
100
AcDbEntity
  8
AM_VIS
100
AcDbLine
 10
96.62524956446986
 20
204.2281958158899
 30
0.0
 11
126.1252495644698
 21
204.2281958158899
 31
0.0
  0
LINE
  5
124B
330
1F
100
AcDbEntity
  8
AM_VIS
100
AcDbLine
 10
133.1252495644698
 20
208.5281958158899
 30
0.0
 11
126.6252495644698
 21
208.5281958158899
 31
0.0
  0
LINE
  5
124C
330
1F
100
AcDbEntity
  8
AM_VIS
100
AcDbLine
 10
124.6252495644698
 20
208.5281958158899
 30
0.0
 11
98.12524956446987
 21
208.5281958158899
 31
0.0
  0
LINE
  5
124D
330
1F
100
AcDbEntity
  8
AM_VIS
100
AcDbLine
 10
96.12524956446987
 20
208.5281958158899
 30
0.0
 11
89.62524956446987
 21
208.5281958158899
 31
0.0
  0
LINE
  5
124E
330
1F
100
AcDbEntity
  8
AM_VIS
100
AcDbLine
 10
96.62524956446986
 20
206.1281958158899
 30
0.0
 11
96.62524956446986
 21
205.4281958158898
 31
0.0
  0
LINE
  5
124F
330
1F
100
AcDbEntity
  8
AM_VIS
100
AcDbLine
 10
89.62524956446987
 20
207.3281958158899
 30
0.0
 11
88.62524956446987
 21
207.3281958158899
 31
0.0
  0
LINE
  5
1250
330
1F
100
AcDbEntity
  8
AM_VIS
100
AcDbLine
 10
97.12524956446987
 20
207.3281958158899
 30
0.0
 11
96.12524956446987
 21
207.3281958158899
 31
0.0
  0
LINE
  5
1251
330
1F
100
AcDbEntity
  8
AM_VIS
100
AcDbLine
 10
97.12524956446987
 20
207.3281958158899
 30
0.0
 11
98.12524956446987
 21
207.3281958158899
 31
0.0
  0
LINE
  5
1252
330
1F
100
AcDbEntity
  8
AM_VIS
100
AcDbLine
 10
124.6252495644698
 20
207.3281958158899
 30
0.0
 11
125.6252495644698
 21
207.3281958158899
 31
0.0
  0
LINE
  5
1253
330
1F
100
AcDbEntity
  8
AM_VIS
100
AcDbLine
 10
126.6252495644698
 20
207.3281958158899
 30
0.0
 11
125.6252495644698
 21
207.3281958158899
 31
0.0
  0
LINE
  5
1254
102
{ACAD_REACTORS
330
1898
102
}
330
1F
100
AcDbEntity
  8
AM_VIS
100
AcDbLine
 10
134.1252495644698
 20
207.3281958158899
 30
0.0
 11
133.1252495644698
 21
207.3281958158899
 31
0.0
  0
LINE
  5
1255
330
1F
100
AcDbEntity
  8
AM_VIS
100
AcDbLine
 10
126.1252495644698
 20
205.4281958158898
 30
0.0
 11
126.1252495644698
 21
204.2281958158899
 31
0.0
  0
LINE
  5
1256
102
{ACAD_REACTORS
330
14D5
102
}
330
1F
100
AcDbEntity
  8
AM_VIS
100
AcDbLine
 10
133.1252495644698
 20
208.5281958158899
 30
0.0
 11
134.1252495644698
 21
208.5281958158899
 31
0.0
  0
LINE
  5
1257
330
1F
100
AcDbEntity
  8
AM_VIS
100
AcDbLine
 10
125.6252495644698
 20
208.5281958158899
 30
0.0
 11
126.6252495644698
 21
208.5281958158899
 31
0.0
  0
LINE
  5
1258
330
1F
100
AcDbEntity
  8
AM_VIS
100
AcDbLine
 10
125.6252495644698
 20
208.5281958158899
 30
0.0
 11
124.6252495644698
 21
208.5281958158899
 31
0.0
  0
LINE
  5
1259
330
1F
100
AcDbEntity
  8
AM_VIS
100
AcDbLine
 10
98.12524956446987
 20
208.5281958158899
 30
0.0
 11
97.12524956446987
 21
208.5281958158899
 31
0.0
  0
LINE
  5
125A
330
1F
100
AcDbEntity
  8
AM_VIS
100
AcDbLine
 10
96.12524956446987
 20
208.5281958158899
 30
0.0
 11
97.12524956446987
 21
208.5281958158899
 31
0.0
  0
LINE
  5
125B
102
{ACAD_REACTORS
330
14D5
102
}
330
1F
100
AcDbEntity
  8
AM_VIS
100
AcDbLine
 10
88.62524956446987
 20
208.5281958158899
 30
0.0
 11
89.62524956446987
 21
208.5281958158899
 31
0.0
  0
LINE
  5
125C
330
1F
100
AcDbEntity
  8
AM_VIS
100
AcDbLine
 10
96.62524956446986
 20
204.2281958158899
 30
0.0
 11
96.62524956446986
 21
205.4281958158898
 31
0.0
  0
ARC
  5
12F8
330
1F
100
AcDbEntity
  8
AM_VIS
100
AcDbCircle
 10
256.6470624423102
 20
214.0006842637569
 30
0.0
 40
0.8
100
AcDbArc
 50
180.0
 51
270.0
  0
LINE
  5
12F9
330
1F
100
AcDbEntity
  8
AM_VIS
100
AcDbLine
 10
252.3470624423103
 20
215.2006842637569
 30
0.0
 11
252.3470624423103
 21
214.0006842637569
 31
0.0
  0
LINE
  5
12FA
330
1F
100
AcDbEntity
  8
AM_VIS
100
AcDbLine
 10
253.3470624423103
 20
215.2006842637569
 30
0.0
 11
273.3470624423103
 21
215.2006842637569
 31
0.0
  0
LINE
  5
12FB
330
1F
100
AcDbEntity
  8
AM_VIS
100
AcDbLine
 10
253.3470624423103
 20
214.0006842637569
 30
0.0
 11
273.3470624423103
 21
214.0006842637569
 31
0.0
  0
LINE
  5
12FC
330
1F
100
AcDbEntity
  8
AM_VIS
100
AcDbLine
 10
274.3470624423103
 20
214.0006842637569
 30
0.0
 11
274.3470624423103
 21
215.2006842637569
 31
0.0
  0
LINE
  5
12FD
330
1F
100
AcDbEntity
  8
AM_VIS
100
AcDbLine
 10
274.3470624423103
 20
212.7006842637569
 30
0.0
 11
274.9328488799372
 21
212.7006842637569
 31
0.0
  0
LINE
  5
12FE
330
1F
100
AcDbEntity
  8
AM_VIS
100
AcDbLine
 10
275.6399556611238
 20
212.4077910449435
 30
0.0
 11
282.0541692234968
 21
205.9935774825703
 31
0.0
  0
LINE
  5
12FF
330
1F
100
AcDbEntity
  8
AM_VIS
100
AcDbLine
 10
282.3470624423103
 20
205.2864707013838
 30
0.0
 11
282.3470624423103
 21
192.2006842637569
 31
0.0
  0
LINE
  5
1300
330
1F
100
AcDbEntity
  8
AM_VIS
100
AcDbLine
 10
281.3470624423103
 20
191.2006842637569
 30
0.0
 11
274.3470624423103
 21
191.2006842637569
 31
0.0
  0
LINE
  5
1301
330
1F
100
AcDbEntity
  8
AM_VIS
100
AcDbLine
 10
273.3470624423103
 20
192.2006842637569
 30
0.0
 11
273.3470624423103
 21
197.7006842637569
 31
0.0
  0
LINE
  5
1302
330
1F
100
AcDbEntity
  8
AM_VIS
100
AcDbLine
 10
272.3470624423103
 20
198.7006842637569
 30
0.0
 11
247.6174115836602
 21
198.7006842637569
 31
0.0
  0
LINE
  5
1303
330
1F
100
AcDbEntity
  8
AM_VIS
100
AcDbLine
 10
247.1135405581362
 20
198.8369053628585
 30
0.0
 11
235.8431914167862
 21
205.4112756953126
 31
0.0
  0
LINE
  5
1304
330
1F
100
AcDbEntity
  8
AM_VIS
100
AcDbLine
 10
235.3470624423103
 20
206.275054596211
 30
0.0
 11
235.3470624423103
 21
219.2006842637569
 31
0.0
  0
LINE
  5
1305
330
1F
100
AcDbEntity
  8
AM_VIS
100
AcDbLine
 10
236.3470624423103
 20
220.2006842637569
 30
0.0
 11
243.3470624423103
 21
220.2006842637569
 31
0.0
  0
LINE
  5
1306
330
1F
100
AcDbEntity
  8
AM_VIS
100
AcDbLine
 10
244.3470624423103
 20
219.2006842637569
 30
0.0
 11
244.3470624423103
 21
213.7006842637569
 31
0.0
  0
LINE
  5
1307
330
1F
100
AcDbEntity
  8
AM_VIS
100
AcDbLine
 10
245.3470624423103
 20
212.7006842637569
 30
0.0
 11
251.3470624423103
 21
212.7006842637569
 31
0.0
  0
ARC
  5
1308
330
1F
100
AcDbEntity
  8
AM_VIS
100
AcDbCircle
 10
251.3470624423103
 20
213.7006842637569
 30
0.0
 40
0.9999999999999998
100
AcDbArc
 50
329.9999999999987
 51
0.0
  0
ARC
  5
1309
330
1F
100
AcDbEntity
  8
AM_VIS
100
AcDbCircle
 10
251.3469160424333
 20
213.7009378357819
 30
0.0
 40
1.000253582738736
100
AcDbArc
 50
270.0083859685538
 51
329.9916140314343
  0
LINE
  5
130A
330
1F
100
AcDbEntity
  8
AM_VIS
100
AcDbLine
 10
267.5470624423103
 20
214.0006842637569
 30
0.0
 11
267.5470624423103
 21
213.2006842637569
 31
0.0
  0
LINE
  5
130B
330
1F
100
AcDbEntity
  8
AM_VIS
100
AcDbLine
 10
272.1470624423103
 20
214.0006842637569
 30
0.0
 11
272.1470624423103
 21
213.2006842637569
 31
0.0
  0
LINE
  5
130C
330
1F
100
AcDbEntity
  8
AM_VIS
100
AcDbLine
 10
272.1470624423103
 20
213.2006842637569
 30
0.0
 11
267.5470624423103
 21
213.2006842637569
 31
0.0
  0
LINE
  5
130D
330
1F
100
AcDbEntity
  8
AM_VIS
100
AcDbLine
 10
252.3470624423103
 20
215.2006842637569
 30
0.0
 11
253.3470624423103
 21
215.2006842637569
 31
0.0
  0
LINE
  5
130E
330
1F
100
AcDbEntity
  8
AM_VIS
100
AcDbLine
 10
253.3470624423103
 20
214.0006842637569
 30
0.0
 11
252.3470624423103
 21
214.0006842637569
 31
0.0
  0
LINE
  5
130F
330
1F
100
AcDbEntity
  8
AM_VIS
100
AcDbLine
 10
274.3470624423103
 20
214.0006842637569
 30
0.0
 11
273.3470624423103
 21
214.0006842637569
 31
0.0
  0
LINE
  5
1310
330
1F
100
AcDbEntity
  8
AM_VIS
100
AcDbLine
 10
273.3470624423103
 20
215.2006842637569
 30
0.0
 11
274.3470624423103
 21
215.2006842637569
 31
0.0
  0
ARC
  5
1311
330
1F
100
AcDbEntity
  8
AM_VIS
100
AcDbCircle
 10
274.9328488799372
 20
211.7006842637569
 30
0.0
 40
1.0
100
AcDbArc
 50
45.0
 51
90.0
  0
ARC
  5
1312
330
1F
100
AcDbEntity
  8
AM_VIS
100
AcDbCircle
 10
281.3470624423103
 20
205.2864707013838
 30
0.0
 40
1.0
100
AcDbArc
 50
0.0
 51
45.0
  0
ARC
  5
1313
330
1F
100
AcDbEntity
  8
AM_VIS
100
AcDbCircle
 10
281.3470624423103
 20
192.2006842637569
 30
0.0
 40
0.9999999999999998
100
AcDbArc
 50
270.0
 51
0.0
  0
ARC
  5
1314
330
1F
100
AcDbEntity
  8
AM_VIS
100
AcDbCircle
 10
274.3470624423103
 20
192.2006842637569
 30
0.0
 40
0.9999999999999998
100
AcDbArc
 50
180.0
 51
270.0
  0
ARC
  5
1315
330
1F
100
AcDbEntity
  8
AM_VIS
100
AcDbCircle
 10
272.3470624423103
 20
197.7006842637569
 30
0.0
 40
0.9999999999999998
100
AcDbArc
 50
0.0
 51
90.0
  0
ARC
  5
1316
330
1F
100
AcDbEntity
  8
AM_VIS
100
AcDbCircle
 10
247.6174115836602
 20
199.7006842637569
 30
0.0
 40
0.9999999999999998
100
AcDbArc
 50
239.7435628364716
 51
270.0
  0
ARC
  5
1317
330
1F
100
AcDbEntity
  8
AM_VIS
100
AcDbCircle
 10
236.3470624423103
 20
206.275054596211
 30
0.0
 40
0.9999999999999998
100
AcDbArc
 50
180.0
 51
239.7435628364716
  0
ARC
  5
1318
330
1F
100
AcDbEntity
  8
AM_VIS
100
AcDbCircle
 10
236.3470624423103
 20
219.2006842637569
 30
0.0
 40
0.9999999999999998
100
AcDbArc
 50
90.0
 51
180.0
  0
ARC
  5
1319
330
1F
100
AcDbEntity
  8
AM_VIS
100
AcDbCircle
 10
243.3470624423103
 20
219.2006842637569
 30
0.0
 40
0.9999999999999998
100
AcDbArc
 50
0.0
 51
90.0
  0
ARC
  5
131A
330
1F
100
AcDbEntity
  8
AM_VIS
100
AcDbCircle
 10
245.3470624423103
 20
213.7006842637569
 30
0.0
 40
0.9999999999999998
100
AcDbArc
 50
180.0
 51
270.0
  0
CIRCLE
  5
131B
102
{ACAD_REACTORS
330
15C1
102
}
330
1F
100
AcDbEntity
  8
AM_VIS
100
AcDbCircle
 10
239.8470624423103
 20
216.7006842637569
 30
0.0
 40
1.6
  0
CIRCLE
  5
131C
330
1F
100
AcDbEntity
  8
AM_VIS
100
AcDbCircle
 10
277.8470624423103
 20
194.7006842637569
 30
0.0
 40
1.6
  0
LINE
  5
131D
330
1F
100
AcDbEntity
  8
AM_VIS
100
AcDbLine
 10
274.3470624423103
 20
212.7006842637569
 30
0.0
 11
274.3470624423103
 21
213.2006842637569
 31
0.0
  0
LINE
  5
131E
330
1F
100
AcDbEntity
  8
AM_VIS
100
AcDbLine
 10
315.7791158919911
 20
119.0643654057583
 30
0.0
 11
314.9791158919911
 21
116.8663834701946
 31
0.0
  0
LINE
  5
131F
330
1F
100
AcDbEntity
  8
AM_VIS
100
AcDbLine
 10
314.9791158919911
 20
116.8663834701946
 30
0.0
 11
314.9791158919911
 21
110.7759577826085
 31
0.0
  0
LINE
  5
1320
330
1F
100
AcDbEntity
  8
AM_VIS
100
AcDbLine
 10
313.7791158919911
 20
111.4759577826085
 30
0.0
 11
313.7791158919911
 21
117.0779758470448
 31
0.0
  0
LINE
  5
1321
330
1F
100
AcDbEntity
  8
AM_VIS
100
AcDbLine
 10
313.7791158919911
 20
117.0779758470448
 30
0.0
 11
314.579115891991
 21
119.2759577826085
 31
0.0
  0
LINE
  5
1322
330
1F
100
AcDbEntity
  8
AM_VIS
100
AcDbLine
 10
291.7791158919911
 20
110.9759577826085
 30
0.0
 11
291.7791158919911
 21
109.7759577826085
 31
0.0
  0
LINE
  5
1323
330
1F
100
AcDbEntity
  8
AM_VIS
100
AcDbLine
 10
313.2791158919911
 20
109.7759577826085
 30
0.0
 11
313.2791158919911
 21
110.9759577826085
 31
0.0
  0
LINE
  5
1324
330
1F
100
AcDbEntity
  8
AM_VIS
100
AcDbLine
 10
292.7791158919911
 20
109.7759577826085
 30
0.0
 11
305.864902329618
 21
109.7759577826085
 31
0.0
  0
LINE
  5
1325
330
1F
100
AcDbEntity
  8
AM_VIS
100
AcDbLine
 10
306.5720091108045
 20
109.7759577826085
 30
0.0
 11
312.9862226731776
 21
109.7759577826085
 31
0.0
  0
LINE
  5
1326
330
1F
100
AcDbEntity
  8
AM_VIS
100
AcDbLine
 10
313.9791158919911
 20
109.7759577826085
 30
0.0
 11
313.2791158919911
 21
109.7759577826085
 31
0.0
  0
LINE
  5
1327
330
1F
100
AcDbEntity
  8
AM_VIS
100
AcDbLine
 10
320.7791158919911
 20
109.7759577826085
 30
0.0
 11
320.7791158919911
 21
110.9759577826085
 31
0.0
  0
LINE
  5
1328
330
1F
100
AcDbEntity
  8
AM_VIS
100
AcDbLine
 10
314.2791158919911
 20
109.7759577826085
 30
0.0
 11
319.7791158919911
 21
109.7759577826085
 31
0.0
  0
LINE
  5
1329
330
1F
100
AcDbEntity
  8
AM_VIS
100
AcDbLine
 10
315.7791158919911
 20
177.2759577826085
 30
0.0
 11
315.7791158919911
 21
119.0643654057583
 31
0.0
  0
LINE
  5
132A
330
1F
100
AcDbEntity
  8
AM_VIS
100
AcDbLine
 10
313.7791158919911
 20
157.4759577826085
 30
0.0
 11
313.7791158919911
 21
157.0759577826085
 31
0.0
  0
ARC
  5
132B
330
1F
100
AcDbEntity
  8
AM_VIS
100
AcDbCircle
 10
314.579115891991
 20
157.4759577826085
 30
0.0
 40
0.7999999999999999
100
AcDbArc
 50
90.0
 51
180.0
  0
LINE
  5
132C
330
1F
100
AcDbEntity
  8
AM_VIS
100
AcDbLine
 10
314.579115891991
 20
119.2759577826085
 30
0.0
 11
314.579115891991
 21
177.2759577826085
 31
0.0
  0
LINE
  5
132D
330
1F
100
AcDbEntity
  8
AM_VIS
100
AcDbLine
 10
315.7791158919911
 20
178.2759577826085
 30
0.0
 11
314.579115891991
 21
178.2759577826085
 31
0.0
  0
LINE
  5
132E
330
1F
100
AcDbEntity
  8
AM_VIS
100
AcDbLine
 10
312.9862226731776
 20
110.9759577826084
 30
0.0
 11
306.5720091108045
 21
110.9759577826084
 31
0.0
  0
LINE
  5
132F
330
1F
100
AcDbEntity
  8
AM_VIS
100
AcDbLine
 10
305.864902329618
 20
110.9759577826085
 30
0.0
 11
292.7791158919911
 21
110.9759577826085
 31
0.0
  0
LINE
  5
1330
330
1F
100
AcDbEntity
  8
AM_VIS
100
AcDbLine
 10
319.7791158919911
 20
110.9759577826085
 30
0.0
 11
314.9791158919911
 21
110.9759577826085
 31
0.0
  0
LINE
  5
1331
330
1F
100
AcDbEntity
  8
AM_VIS
100
AcDbLine
 10
313.7791158919911
 20
154.7759577826085
 30
0.0
 11
313.7791158919911
 21
149.7759577826085
 31
0.0
  0
LINE
  5
1332
330
1F
100
AcDbEntity
  8
AM_VIS
100
AcDbLine
 10
314.579115891991
 20
165.5759577826085
 30
0.0
 11
313.7791158919911
 21
165.5759577826085
 31
0.0
  0
LINE
  5
1333
330
1F
100
AcDbEntity
  8
AM_VIS
100
AcDbLine
 10
314.579115891991
 20
160.9759577826084
 30
0.0
 11
313.7791158919911
 21
160.9759577826084
 31
0.0
  0
LINE
  5
1334
330
1F
100
AcDbEntity
  8
AM_VIS
100
AcDbLine
 10
314.579115891991
 20
157.0759577826085
 30
0.0
 11
313.7791158919911
 21
157.0759577826085
 31
0.0
  0
LINE
  5
1335
330
1F
100
AcDbEntity
  8
AM_VIS
100
AcDbLine
 10
314.579115891991
 20
147.4759577826085
 30
0.0
 11
313.7791158919911
 21
147.4759577826085
 31
0.0
  0
ARC
  5
1336
330
1F
100
AcDbEntity
  8
AM_VIS
100
AcDbCircle
 10
313.9791158919911
 20
110.7759577826085
 30
0.0
 40
0.9999999999999998
100
AcDbArc
 50
270.0
 51
0.0
  0
LINE
  5
1337
330
1F
100
AcDbEntity
  8
AM_VIS
100
AcDbLine
 10
292.7791158919911
 20
109.7759577826085
 30
0.0
 11
291.7791158919911
 21
109.7759577826085
 31
0.0
  0
LINE
  5
1338
330
1F
100
AcDbEntity
  8
AM_VIS
100
AcDbLine
 10
306.5720091108045
 20
109.7759577826085
 30
0.0
 11
305.864902329618
 21
109.7759577826085
 31
0.0
  0
LINE
  5
1339
330
1F
100
AcDbEntity
  8
AM_VIS
100
AcDbLine
 10
313.2791158919911
 20
109.7759577826085
 30
0.0
 11
312.9862226731776
 21
109.7759577826085
 31
0.0
  0
LINE
  5
133A
330
1F
100
AcDbEntity
  8
AM_VIS
100
AcDbLine
 10
320.7791158919911
 20
109.7759577826085
 30
0.0
 11
319.7791158919911
 21
109.7759577826085
 31
0.0
  0
LINE
  5
133B
330
1F
100
AcDbEntity
  8
AM_VIS
100
AcDbLine
 10
313.9791158919916
 20
109.7759577826085
 30
0.0
 11
314.2791158919911
 21
109.7759577826085
 31
0.0
  0
LINE
  5
133C
330
1F
100
AcDbEntity
  8
AM_VIS
100
AcDbLine
 10
313.7791158919911
 20
160.9759577826085
 30
0.0
 11
313.7791158919911
 21
165.5759577826085
 31
0.0
  0
LINE
  5
133D
330
1F
100
AcDbEntity
  8
AM_VIS
100
AcDbLine
 10
314.579115891991
 20
177.2759577826085
 30
0.0
 11
314.579115891991
 21
178.2759577826085
 31
0.0
  0
LINE
  5
133E
330
1F
100
AcDbEntity
  8
AM_VIS
100
AcDbLine
 10
315.7791158919911
 20
178.2759577826085
 30
0.0
 11
315.7791158919911
 21
177.2759577826085
 31
0.0
  0
LINE
  5
133F
330
1F
100
AcDbEntity
  8
AM_VIS
100
AcDbLine
 10
312.9862226731776
 20
110.9759577826084
 30
0.0
 11
313.2791158919911
 21
110.9759577826084
 31
0.0
  0
LINE
  5
1340
330
1F
100
AcDbEntity
  8
AM_VIS
100
AcDbLine
 10
305.864902329618
 20
110.9759577826084
 30
0.0
 11
306.5720091108045
 21
110.9759577826084
 31
0.0
  0
LINE
  5
1341
330
1F
100
AcDbEntity
  8
AM_VIS
100
AcDbLine
 10
291.7791158919911
 20
110.9759577826084
 30
0.0
 11
292.7791158919911
 21
110.9759577826084
 31
0.0
  0
LINE
  5
1342
330
1F
100
AcDbEntity
  8
AM_VIS
100
AcDbLine
 10
319.7791158919911
 20
110.9759577826084
 30
0.0
 11
320.7791158919911
 21
110.9759577826084
 31
0.0
  0
ARC
  5
1343
330
1F
100
AcDbEntity
  8
AM_VIS
100
AcDbCircle
 10
313.2791158919911
 20
111.4759577826085
 30
0.0
 40
0.5
100
AcDbArc
 50
270.0
 51
0.0
  0
LINE
  5
1344
330
1F
100
AcDbEntity
  8
AM_VIS
100
AcDbLine
 10
313.7791158919911
 20
154.7759577826085
 30
0.0
 11
313.7791158919911
 21
157.0759577826085
 31
0.0
  0
LINE
  5
1345
330
1F
100
AcDbEntity
  8
AM_VIS
100
AcDbLine
 10
313.7791158919911
 20
147.4759577826085
 30
0.0
 11
313.7791158919911
 21
149.7759577826085
 31
0.0
  0
LINE
  5
1346
330
1F
100
AcDbEntity
  8
AM_VIS
100
AcDbLine
 10
252.3470624423103
 20
118.4517145567721
 30
0.0
 11
252.3470624423103
 21
119.2759577826085
 31
0.0
  0
LINE
  5
1347
330
1F
100
AcDbEntity
  8
AM_VIS
100
AcDbLine
 10
252.2130878460947
 20
117.0779758470448
 30
0.0
 11
274.3470624423103
 21
117.0779758470448
 31
0.0
  0
LINE
  5
1348
330
1F
100
AcDbEntity
  8
AM_VIS
100
AcDbLine
 10
274.3470624423103
 20
111.4759577826085
 30
0.0
 11
274.3470624423103
 21
117.0779758470448
 31
0.0
  0
LINE
  5
1349
330
1F
100
AcDbEntity
  8
AM_VIS
100
AcDbLine
 10
274.3470624423103
 20
117.0779758470448
 30
0.0
 11
274.3470624423103
 21
119.2759577826085
 31
0.0
  0
LINE
  5
134A
330
1F
100
AcDbEntity
  8
AM_VIS
100
AcDbLine
 10
282.3470624423103
 20
109.7759577826085
 30
0.0
 11
282.3470624423103
 21
110.9759577826085
 31
0.0
  0
LINE
  5
134B
330
1F
100
AcDbEntity
  8
AM_VIS
100
AcDbLine
 10
235.3470624423103
 20
110.9759577826085
 30
0.0
 11
235.3470624423103
 21
109.7759577826085
 31
0.0
  0
LINE
  5
134C
330
1F
100
AcDbEntity
  8
AM_VIS
100
AcDbLine
 10
235.8431914167862
 20
109.7759577826085
 30
0.0
 11
247.1135405581362
 21
109.7759577826085
 31
0.0
  0
LINE
  5
134D
330
1F
100
AcDbEntity
  8
AM_VIS
100
AcDbLine
 10
247.6174115836602
 20
109.7759577826085
 30
0.0
 11
272.3470624423103
 21
109.7759577826085
 31
0.0
  0
LINE
  5
134E
330
1F
100
AcDbEntity
  8
AM_VIS
100
AcDbLine
 10
274.3470624423103
 20
109.7759577826085
 30
0.0
 11
281.3470624423103
 21
109.7759577826085
 31
0.0
  0
LINE
  5
134F
330
1F
100
AcDbEntity
  8
AM_VIS
100
AcDbLine
 10
273.3470624423103
 20
110.9759577826085
 30
0.0
 11
273.3470624423103
 21
109.7759577826085
 31
0.0
  0
LINE
  5
1350
330
1F
100
AcDbEntity
  8
AM_VIS
100
AcDbLine
 10
274.3470624423103
 20
119.2759577826085
 30
0.0
 11
274.3470624423103
 21
177.2759577826085
 31
0.0
  0
LINE
  5
1351
330
1F
100
AcDbEntity
  8
AM_VIS
100
AcDbLine
 10
252.3470624423103
 20
119.2759577826085
 30
0.0
 11
274.3470624423103
 21
119.2759577826085
 31
0.0
  0
LINE
  5
1352
330
1F
100
AcDbEntity
  8
AM_VIS
100
AcDbLine
 10
252.3470624423103
 20
119.2759577826085
 30
0.0
 11
252.3470624423103
 21
177.2759577826085
 31
0.0
  0
LINE
  5
1353
330
1F
100
AcDbEntity
  8
AM_VIS
100
AcDbLine
 10
253.3470624423103
 20
178.2759577826085
 30
0.0
 11
273.3470624423103
 21
178.2759577826085
 31
0.0
  0
LINE
  5
1358
330
1F
100
AcDbEntity
  8
AM_VIS
100
AcDbLine
 10
281.3470624423103
 20
110.9759577826085
 30
0.0
 11
274.3470624423103
 21
110.9759577826085
 31
0.0
  0
LINE
  5
1359
330
1F
100
AcDbEntity
  8
AM_VIS
100
AcDbLine
 10
272.3470624423103
 20
110.9759577826085
 30
0.0
 11
247.6174115836602
 21
110.9759577826085
 31
0.0
  0
LINE
  5
135A
330
1F
100
AcDbEntity
  8
AM_VIS
100
AcDbLine
 10
247.1135405581362
 20
110.9759577826084
 30
0.0
 11
235.8431914167862
 21
110.9759577826084
 31
0.0
  0
ELLIPSE
  5
135B
330
1F
100
AcDbEntity
  8
AM_VIS
100
AcDbEllipse
 10
251.3470624423103
 20
118.4517145567721
 30
0.0
 11
0.0000000000000001
 21
-2.747477419454628
 31
0.0
210
0.0
220
0.0
230
1.0
 40
0.3639702342662015
 41
1.047197551196576
 42
1.570796326794895
  0
LINE
  5
135C
330
1F
100
AcDbEntity
  8
AM_VIS
100
AcDbLine
 10
252.2130878460947
 20
111.4759577826085
 30
0.0
 11
252.2130878460947
 21
117.0779758470448
 31
0.0
  0
SPLINE
  5
135D
330
1F
100
AcDbEntity
  8
AM_VIS
100
AcDbSpline
210
0.0
220
0.0
230
1.0
 70
     8
 71
     3
 72
    20
 73
    16
 74
     0
 42
0.0000000001
 43
0.0000000001
 40
1.253093672087189
 40
1.253093672087189
 40
1.253093672087189
 40
1.253093672087189
 40
1.532416546043941
 40
1.532416546043941
 40
1.811739420000692
 40
1.811739420000692
 40
1.933445525533479
 40
1.933445525533479
 40
2.055151631066266
 40
2.055151631066266
 40
2.280669487620322
 40
2.280669487620322
 40
2.39342841589735
 40
2.39342841589735
 40
2.506187344174378
 40
2.506187344174378
 40
2.506187344174378
 40
2.506187344174378
 10
251.3470624423103
 20
110.9759577826085
 30
0.0
 10
251.4401700669625
 20
110.9759577826085
 30
0.0
 10
251.5408320966931
 20
110.9753062204039
 30
0.0
 10
251.7322796270343
 20
110.9802831975264
 30
0.0
 10
251.8230446082703
 20
110.9866199491525
 30
0.0
 10
251.9324397791453
 20
111.0121678181019
 30
0.0
 10
251.9669407196873
 20
111.0231083470974
 30
0.0
 10
252.0300020877126
 20
111.0529368041875
 30
0.0
 10
252.0585614621982
 20
111.0719701650979
 30
0.0
 10
252.1253300934776
 20
111.1328218502015
 30
0.0
 10
252.1598935806797
 20
111.1889477341933
 30
0.0
 10
252.1924223511849
 20
111.2895206687187
 30
0.0
 10
252.200315118949
 20
111.3256648400425
 30
0.0
 10
252.2106409221643
 20
111.4000911541277
 30
0.0
 10
252.2130878460947
 20
111.4383714731828
 30
0.0
 10
252.2130878460947
 20
111.4759577826085
 30
0.0
  0
LINE
  5
135E
330
1F
100
AcDbEntity
  8
AM_VIS
100
AcDbLine
 10
267.5470624423103
 20
149.7759577826085
 30
0.0
 11
267.5470624423103
 21
154.7759577826085
 31
0.0
  0
LINE
  5
135F
330
1F
100
AcDbEntity
  8
AM_VIS
100
AcDbLine
 10
272.1470624423103
 20
154.7759577826085
 30
0.0
 11
272.1470624423103
 21
149.7759577826085
 31
0.0
  0
LINE
  5
1360
330
1F
100
AcDbEntity
  8
AM_VIS
100
AcDbLine
 10
268.2470624423103
 20
149.7759577826085
 30
0.0
 11
268.2470624423103
 21
154.7759577826085
 31
0.0
  0
LINE
  5
1361
330
1F
100
AcDbEntity
  8
AM_VIS
100
AcDbLine
 10
271.4470624423103
 20
154.7759577826085
 30
0.0
 11
271.4470624423103
 21
149.7759577826085
 31
0.0
  0
LINE
  5
1362
102
{ACAD_REACTORS
330
1690
102
}
330
1F
100
AcDbEntity
  8
AM_VIS
100
AcDbLine
 10
235.8431914167861
 20
109.7759577826085
 30
0.0
 11
235.3470624423103
 21
109.7759577826085
 31
0.0
  0
LINE
  5
1363
102
{ACAD_REACTORS
330
1668
102
}
330
1F
100
AcDbEntity
  8
AM_VIS
100
AcDbLine
 10
247.6174115836602
 20
109.7759577826085
 30
0.0
 11
247.1135405581362
 21
109.7759577826085
 31
0.0
  0
LINE
  5
1364
330
1F
100
AcDbEntity
  8
AM_VIS
100
AcDbLine
 10
274.3470624423103
 20
109.7759577826085
 30
0.0
 11
273.3470624423103
 21
109.7759577826085
 31
0.0
  0
LINE
  5
1365
330
1F
100
AcDbEntity
  8
AM_VIS
100
AcDbLine
 10
282.3470624423103
 20
109.7759577826085
 30
0.0
 11
281.3470624423103
 21
109.7759577826085
 31
0.0
  0
LINE
  5
1366
330
1F
100
AcDbEntity
  8
AM_VIS
100
AcDbLine
 10
272.3470624423103
 20
109.7759577826085
 30
0.0
 11
273.3470624423103
 21
109.7759577826085
 31
0.0
  0
CIRCLE
  5
1367
330
1F
100
AcDbEntity
  8
AM_VIS
100
AcDbCircle
 10
269.8470624423103
 20
163.2759577826085
 30
0.0
 40
2.299999999999999
  0
CIRCLE
  5
1368
330
1F
100
AcDbEntity
  8
AM_VIS
100
AcDbCircle
 10
269.8470624423103
 20
163.2759577826085
 30
0.0
 40
1.6
  0
ARC
  5
1369
102
{ACAD_REACTORS
330
1690
102
}
330
1F
100
AcDbEntity
  8
AM_VIS
100
AcDbCircle
 10
253.3470624423103
 20
177.2759577826085
 30
0.0
 40
1.0
100
AcDbArc
 50
90.0
 51
180.0
  0
ARC
  5
136E
330
1F
100
AcDbEntity
  8
AM_VIS
100
AcDbCircle
 10
273.3470624423103
 20
177.2759577826085
 30
0.0
 40
0.9999999999999998
100
AcDbArc
 50
0.0
 51
90.0
  0
LINE
  5
136F
330
1F
100
AcDbEntity
  8
AM_VIS
100
AcDbLine
 10
281.3470624423103
 20
110.9759577826084
 30
0.0
 11
282.3470624423103
 21
110.9759577826084
 31
0.0
  0
LINE
  5
1370
330
1F
100
AcDbEntity
  8
AM_VIS
100
AcDbLine
 10
273.3470624423103
 20
110.9759577826084
 30
0.0
 11
274.3470624423103
 21
110.9759577826084
 31
0.0
  0
LINE
  5
1371
330
1F
100
AcDbEntity
  8
AM_VIS
100
AcDbLine
 10
273.3470624423103
 20
110.9759577826084
 30
0.0
 11
272.3470624423103
 21
110.9759577826084
 31
0.0
  0
LINE
  5
1372
102
{ACAD_REACTORS
330
1668
102
}
330
1F
100
AcDbEntity
  8
AM_VIS
100
AcDbLine
 10
247.1135405581362
 20
110.9759577826084
 30
0.0
 11
247.6174115836602
 21
110.9759577826084
 31
0.0
  0
LINE
  5
1373
330
1F
100
AcDbEntity
  8
AM_VIS
100
AcDbLine
 10
235.3470624423103
 20
110.9759577826084
 30
0.0
 11
235.8431914167861
 21
110.9759577826084
 31
0.0
  0
LINE
  5
1374
330
1F
100
AcDbEntity
  8
AM_VIS
100
AcDbLine
 10
274.3470624423103
 20
110.9759577826084
 30
0.0
 11
274.3470624423103
 21
111.4759577826085
 31
0.0
  0
CIRCLE
  5
1375
330
1F
100
AcDbEntity
  8
AM_VIS
100
AcDbCircle
 10
269.8470624423103
 20
141.2759577826085
 30
0.0
 40
1.6
  0
ARC
  5
1376
330
1F
100
AcDbEntity
  8
AM_VIS
100
AcDbCircle
 10
269.8470624423103
 20
154.7759577826085
 30
0.0
 40
2.3
100
AcDbArc
 50
0.0
 51
180.0
  0
ARC
  5
1377
330
1F
100
AcDbEntity
  8
AM_VIS
100
AcDbCircle
 10
269.8470624423103
 20
149.7759577826085
 30
0.0
 40
2.299999999999999
100
AcDbArc
 50
180.0
 51
0.0
  0
ARC
  5
1378
330
1F
100
AcDbEntity
  8
AM_VIS
100
AcDbCircle
 10
269.8470624423103
 20
149.7759577826085
 30
0.0
 40
1.599999999999999
100
AcDbArc
 50
180.0
 51
0.0
  0
ARC
  5
1379
330
1F
100
AcDbEntity
  8
AM_VIS
100
AcDbCircle
 10
269.8470624423103
 20
154.7759577826085
 30
0.0
 40
1.6
100
AcDbArc
 50
0.0
 51
180.0
  0
LINE
  5
137A
330
1F
100
AcDbEntity
  8
AM_VIS
100
AcDbLine
 10
252.3470624423103
 20
213.7006842637569
 30
0.0
 11
252.3470624423103
 21
214.0006842637569
 31
0.0
  0
LINE
  5
137B
330
1F
100
AcDbEntity
  8
AM_VIS
100
AcDbLine
 10
252.2130878460947
 20
213.2006842637569
 30
0.0
 11
256.6470624423102
 21
213.2006842637569
 31
0.0
  0
LINE
  5
137C
330
1F
100
AcDbEntity
  8
AM_VIS
100
AcDbLine
 10
261.0470624423103
 20
213.2006842637569
 30
0.0
 11
267.5470624423103
 21
213.2006842637569
 31
0.0
  0
LINE
  5
137D
330
1F
100
AcDbEntity
  8
AM_VIS
100
AcDbLine
 10
272.1470624423103
 20
213.2006842637569
 30
0.0
 11
274.3470624423103
 21
213.2006842637569
 31
0.0
  0
LINE
  5
137E
330
1F
100
AcDbEntity
  8
AM_VIS
100
AcDbLine
 10
274.3470624423103
 20
213.2006842637569
 30
0.0
 11
274.3470624423103
 21
214.0006842637569
 31
0.0
  0
LINE
  5
137F
330
1F
100
AcDbEntity
  8
AM_VIS
100
AcDbLine
 10
256.6470624423102
 20
213.2006842637569
 30
0.0
 11
261.0470624423103
 21
213.2006842637569
 31
0.0
  0
ARC
  5
1380
330
1F
100
AcDbEntity
  8
AM_VIS
100
AcDbCircle
 10
261.0470624423103
 20
214.0006842637569
 30
0.0
 40
0.8000000000000001
100
AcDbArc
 50
270.0
 51
0.0
  0
LINE
  5
138F
330
1F
100
AcDbEntity
  8
AM_7
  6
AM_ISO08W050x2
100
AcDbLine
 10
239.8470624423103
 20
216.7006842637569
 30
0.0
 11
242.9470624423103
 21
216.7006842637569
 31
0.0
1001
GENIUS_GENOREF_13
1005
1393
  0
LINE
  5
1390
102
{ACAD_REACTORS
330
157D
102
}
330
1F
100
AcDbEntity
  8
AM_7
  6
AM_ISO08W050x2
100
AcDbLine
 10
239.8470624423103
 20
216.7006842637569
 30
0.0
 11
239.8470624423103
 21
219.8006842637569
 31
0.0
1001
GENIUS_GENOREF_13
1005
1393
  0
LINE
  5
1391
102
{ACAD_REACTORS
330
15A3
102
}
330
1F
100
AcDbEntity
  8
AM_7
  6
AM_ISO08W050x2
100
AcDbLine
 10
239.8470624423103
 20
216.7006842637569
 30
0.0
 11
236.7470624423102
 21
216.7006842637569
 31
0.0
1001
GENIUS_GENOREF_13
1005
1393
  0
LINE
  5
1392
330
1F
100
AcDbEntity
  8
AM_7
  6
AM_ISO08W050x2
100
AcDbLine
 10
239.8470624423103
 20
216.7006842637569
 30
0.0
 11
239.8470624423103
 21
213.6006842637569
 31
0.0
1001
GENIUS_GENOREF_13
1005
1393
  0
POINT
  5
1393
330
1F
100
AcDbEntity
  8
0
 60
     1
100
AcDbPoint
 10
0.0
 20
0.0
 30
0.0
1001
GENIUS_GENOLIS_13
1002
{
1000
ENT
1005
1392
1005
1391
1005
1390
1005
138F
1002
}
1001
GENIUS_GENODEF_13
1002
{
1000
HIER
1070
    10
1002
}
1002
{
1000
MANEDIT
1070
     0
1002
}
1002
{
1000
NOSEL
1070
     0
1002
}
1002
{
1000
BEHIND
1070
     0
1002
}
1002
{
1000
OTHER
1070
     0
1002
}
1002
{
1000
REACTOR
1002
}
1001
GENIUS_GENOENT_13
1002
{
1000
MYREF
1005
1393
1002
}
1002
{
1000
GRP
1005
0
1002
}
1001
GENIUS_GENOBJ-N-CRS_13
1002
{
1000
OWNER
1000
GEN
1002
}
  0
LINE
  5
13A1
330
1F
100
AcDbEntity
  8
AM_7
  6
AM_ISO08W050x2
100
AcDbLine
 10
277.8470624423103
 20
194.7006842637569
 30
0.0
 11
280.9470624423103
 21
194.7006842637569
 31
0.0
1001
GENIUS_GENOREF_13
1005
13A5
  0
LINE
  5
13A2
102
{ACAD_REACTORS
330
157D
102
}
330
1F
100
AcDbEntity
  8
AM_7
  6
AM_ISO08W050x2
100
AcDbLine
 10
277.8470624423103
 20
194.7006842637569
 30
0.0
 11
277.8470624423103
 21
197.8006842637569
 31
0.0
1001
GENIUS_GENOREF_13
1005
13A5
  0
LINE
  5
13A3
102
{ACAD_REACTORS
330
15A3
102
}
330
1F
100
AcDbEntity
  8
AM_7
  6
AM_ISO08W050x2
100
AcDbLine
 10
277.8470624423103
 20
194.7006842637569
 30
0.0
 11
274.7470624423103
 21
194.7006842637569
 31
0.0
1001
GENIUS_GENOREF_13
1005
13A5
  0
LINE
  5
13A4
330
1F
100
AcDbEntity
  8
AM_7
  6
AM_ISO08W050x2
100
AcDbLine
 10
277.8470624423103
 20
194.7006842637569
 30
0.0
 11
277.8470624423103
 21
191.6006842637568
 31
0.0
1001
GENIUS_GENOREF_13
1005
13A5
  0
POINT
  5
13A5
330
1F
100
AcDbEntity
  8
0
 60
     1
100
AcDbPoint
 10
0.0
 20
0.0
 30
0.0
1001
GENIUS_GENOENT_13
1002
{
1000
MYREF
1005
13A5
1002
}
1002
{
1000
GRP
1005
0
1002
}
1001
GENIUS_GENOBJ-N-CRS_13
1002
{
1000
OWNER
1000
GEN
1002
}
1001
GENIUS_GENODEF_13
1002
{
1000
HIER
1070
    10
1002
}
1002
{
1000
MANEDIT
1070
     0
1002
}
1002
{
1000
NOSEL
1070
     0
1002
}
1002
{
1000
BEHIND
1070
     0
1002
}
1002
{
1000
OTHER
1070
     0
1002
}
1002
{
1000
REACTOR
1002
}
1001
GENIUS_GENOLIS_13
1002
{
1000
ENT
1005
13A4
1005
13A3
1005
13A2
1005
13A1
1002
}
  0
LINE
  5
13B3
330
1F
100
AcDbEntity
  8
AM_7
  6
AM_ISO08W050x2
100
AcDbLine
 10
269.8470624423103
 20
163.2759577826085
 30
0.0
 11
273.6470624423102
 21
163.2759577826085
 31
0.0
1001
GENIUS_GENOREF_13
1005
13B7
  0
LINE
  5
13B4
330
1F
100
AcDbEntity
  8
AM_7
  6
AM_ISO08W050x2
100
AcDbLine
 10
269.8470624423103
 20
163.2759577826085
 30
0.0
 11
269.8470624423103
 21
167.0759577826084
 31
0.0
1001
GENIUS_GENOREF_13
1005
13B7
  0
LINE
  5
13B5
330
1F
100
AcDbEntity
  8
AM_7
  6
AM_ISO08W050x2
100
AcDbLine
 10
269.8470624423103
 20
163.2759577826085
 30
0.0
 11
266.0470624423104
 21
163.2759577826085
 31
0.0
1001
GENIUS_GENOREF_13
1005
13B7
  0
LINE
  5
13B6
330
1F
100
AcDbEntity
  8
AM_7
  6
AM_ISO08W050x2
100
AcDbLine
 10
269.8470624423103
 20
163.2759577826085
 30
0.0
 11
269.8470624423103
 21
159.4759577826085
 31
0.0
1001
GENIUS_GENOREF_13
1005
13B7
  0
POINT
  5
13B7
330
1F
100
AcDbEntity
  8
0
 60
     1
100
AcDbPoint
 10
0.0
 20
0.0
 30
0.0
1001
GENIUS_GENODEF_13
1002
{
1000
HIER
1070
    10
1002
}
1002
{
1000
MANEDIT
1070
     0
1002
}
1002
{
1000
NOSEL
1070
     0
1002
}
1002
{
1000
BEHIND
1070
     0
1002
}
1002
{
1000
OTHER
1070
     0
1002
}
1002
{
1000
REACTOR
1002
}
1001
GENIUS_GENOBJ-N-CRS_13
1002
{
1000
OWNER
1000
GEN
1002
}
1001
GENIUS_GENOENT_13
1002
{
1000
MYREF
1005
13B7
1002
}
1002
{
1000
GRP
1005
0
1002
}
1001
GENIUS_GENOLIS_13
1002
{
1000
ENT
1005
13B6
1005
13B5
1005
13B4
1005
13B3
1002
}
  0
LINE
  5
13C5
330
1F
100
AcDbEntity
  8
AM_7
  6
AM_ISO08W050x2
100
AcDbLine
 10
269.8470624423103
 20
141.2759577826085
 30
0.0
 11
272.9470624423103
 21
141.2759577826085
 31
0.0
1001
GENIUS_GENOREF_13
1005
13C9
  0
LINE
  5
13C6
330
1F
100
AcDbEntity
  8
AM_7
  6
AM_ISO08W050x2
100
AcDbLine
 10
269.8470624423103
 20
141.2759577826085
 30
0.0
 11
269.8470624423103
 21
144.3759577826085
 31
0.0
1001
GENIUS_GENOREF_13
1005
13C9
  0
LINE
  5
13C7
330
1F
100
AcDbEntity
  8
AM_7
  6
AM_ISO08W050x2
100
AcDbLine
 10
269.8470624423103
 20
141.2759577826085
 30
0.0
 11
266.7470624423103
 21
141.2759577826085
 31
0.0
1001
GENIUS_GENOREF_13
1005
13C9
  0
LINE
  5
13C8
330
1F
100
AcDbEntity
  8
AM_7
  6
AM_ISO08W050x2
100
AcDbLine
 10
269.8470624423103
 20
141.2759577826085
 30
0.0
 11
269.8470624423103
 21
138.1759577826084
 31
0.0
1001
GENIUS_GENOREF_13
1005
13C9
  0
POINT
  5
13C9
330
1F
100
AcDbEntity
  8
0
 60
     1
100
AcDbPoint
 10
0.0
 20
0.0
 30
0.0
1001
GENIUS_GENOLIS_13
1002
{
1000
ENT
1005
13C8
1005
13C7
1005
13C6
1005
13C5
1002
}
1001
GENIUS_GENODEF_13
1002
{
1000
HIER
1070
    10
1002
}
1002
{
1000
MANEDIT
1070
     0
1002
}
1002
{
1000
NOSEL
1070
     0
1002
}
1002
{
1000
BEHIND
1070
     0
1002
}
1002
{
1000
OTHER
1070
     0
1002
}
1002
{
1000
REACTOR
1002
}
1001
GENIUS_GENOENT_13
1002
{
1000
MYREF
1005
13C9
1002
}
1002
{
1000
GRP
1005
0
1002
}
1001
GENIUS_GENOBJ-N-CRS_13
1002
{
1000
OWNER
1000
GEN
1002
}
  0
LINE
  5
13D7
330
1F
100
AcDbEntity
  8
AM_7
  6
AM_ISO08W050x2
100
AcDbLine
 10
269.8470624423103
 20
149.7759577826085
 30
0.0
 11
273.6470624423102
 21
149.7759577826085
 31
0.0
1001
GENIUS_GENOREF_13
1005
13DB
  0
LINE
  5
13D8
330
1F
100
AcDbEntity
  8
AM_7
  6
AM_ISO08W050x2
100
AcDbLine
 10
269.8470624423103
 20
149.7759577826085
 30
0.0
 11
269.8470624423103
 21
153.5759577826085
 31
0.0
1001
GENIUS_GENOREF_13
1005
13DB
  0
LINE
  5
13D9
330
1F
100
AcDbEntity
  8
AM_7
  6
AM_ISO08W050x2
100
AcDbLine
 10
269.8470624423103
 20
149.7759577826085
 30
0.0
 11
266.0470624423104
 21
149.7759577826085
 31
0.0
1001
GENIUS_GENOREF_13
1005
13DB
  0
LINE
  5
13DA
330
1F
100
AcDbEntity
  8
AM_7
  6
AM_ISO08W050x2
100
AcDbLine
 10
269.8470624423103
 20
149.7759577826085
 30
0.0
 11
269.8470624423103
 21
145.9759577826084
 31
0.0
1001
GENIUS_GENOREF_13
1005
13DB
  0
POINT
  5
13DB
330
1F
100
AcDbEntity
  8
0
 60
     1
100
AcDbPoint
 10
0.0
 20
0.0
 30
0.0
1001
GENIUS_GENOBJ-N-CRS_13
1002
{
1000
OWNER
1000
GEN
1002
}
1001
GENIUS_GENODEF_13
1002
{
1000
HIER
1070
    10
1002
}
1002
{
1000
MANEDIT
1070
     0
1002
}
1002
{
1000
NOSEL
1070
     0
1002
}
1002
{
1000
BEHIND
1070
     0
1002
}
1002
{
1000
OTHER
1070
     0
1002
}
1002
{
1000
REACTOR
1002
}
1001
GENIUS_GENOLIS_13
1002
{
1000
ENT
1005
13DA
1005
13D9
1005
13D8
1005
13D7
1002
}
1001
GENIUS_GENOENT_13
1002
{
1000
MYREF
1005
13DB
1002
}
1002
{
1000
GRP
1005
0
1002
}
  0
LINE
  5
13E9
330
1F
100
AcDbEntity
  8
AM_7
  6
AM_ISO08W050x2
100
AcDbLine
 10
269.8470624423103
 20
154.7759577826085
 30
0.0
 11
273.6470624423102
 21
154.7759577826085
 31
0.0
1001
GENIUS_GENOREF_13
1005
13ED
  0
LINE
  5
13EA
330
1F
100
AcDbEntity
  8
AM_7
  6
AM_ISO08W050x2
100
AcDbLine
 10
269.8470624423103
 20
154.7759577826085
 30
0.0
 11
269.8470624423103
 21
158.5759577826085
 31
0.0
1001
GENIUS_GENOREF_13
1005
13ED
  0
LINE
  5
13EB
330
1F
100
AcDbEntity
  8
AM_7
  6
AM_ISO08W050x2
100
AcDbLine
 10
269.8470624423103
 20
154.7759577826085
 30
0.0
 11
266.0470624423104
 21
154.7759577826085
 31
0.0
1001
GENIUS_GENOREF_13
1005
13ED
  0
LINE
  5
13EC
330
1F
100
AcDbEntity
  8
AM_7
  6
AM_ISO08W050x2
100
AcDbLine
 10
269.8470624423103
 20
154.7759577826085
 30
0.0
 11
269.8470624423103
 21
150.9759577826085
 31
0.0
1001
GENIUS_GENOREF_13
1005
13ED
  0
POINT
  5
13ED
330
1F
100
AcDbEntity
  8
0
 60
     1
100
AcDbPoint
 10
0.0
 20
0.0
 30
0.0
1001
GENIUS_GENODEF_13
1002
{
1000
HIER
1070
    10
1002
}
1002
{
1000
MANEDIT
1070
     0
1002
}
1002
{
1000
NOSEL
1070
     0
1002
}
1002
{
1000
BEHIND
1070
     0
1002
}
1002
{
1000
OTHER
1070
     0
1002
}
1002
{
1000
REACTOR
1002
}
1001
GENIUS_GENOLIS_13
1002
{
1000
ENT
1005
13EC
1005
13EB
1005
13EA
1005
13E9
1002
}
1001
GENIUS_GENOBJ-N-CRS_13
1002
{
1000
OWNER
1000
GEN
1002
}
1001
GENIUS_GENOENT_13
1002
{
1000
MYREF
1005
13ED
1002
}
1002
{
1000
GRP
1005
0
1002
}
  0
LINE
  5
13FB
330
1F
100
AcDbEntity
  8
AM_7
  6
AM_ISO08W050x2
100
AcDbLine
 10
92.87524956446986
 20
171.2590386071381
 30
0.0
 11
95.97524956446989
 21
171.2590386071381
 31
0.0
1001
GENIUS_GENOREF_13
1005
13FF
  0
LINE
  5
13FC
102
{ACAD_REACTORS
330
145F
102
}
330
1F
100
AcDbEntity
  8
AM_7
  6
AM_ISO08W050x2
100
AcDbLine
 10
92.87524956446986
 20
171.2590386071381
 30
0.0
 11
92.87524956446986
 21
174.3590386071381
 31
0.0
1001
GENIUS_GENOREF_13
1005
13FF
  0
LINE
  5
13FD
330
1F
100
AcDbEntity
  8
AM_7
  6
AM_ISO08W050x2
100
AcDbLine
 10
92.87524956446986
 20
171.2590386071381
 30
0.0
 11
89.77524956446984
 21
171.2590386071381
 31
0.0
1001
GENIUS_GENOREF_13
1005
13FF
  0
LINE
  5
13FE
330
1F
100
AcDbEntity
  8
AM_7
  6
AM_ISO08W050x2
100
AcDbLine
 10
92.87524956446986
 20
171.2590386071381
 30
0.0
 11
92.87524956446986
 21
168.1590386071381
 31
0.0
1001
GENIUS_GENOREF_13
1005
13FF
  0
POINT
  5
13FF
330
1F
100
AcDbEntity
  8
0
 60
     1
100
AcDbPoint
 10
0.0
 20
0.0
 30
0.0
1001
GENIUS_GENOLIS_13
1002
{
1000
ENT
1005
13FE
1005
13FD
1005
13FC
1005
13FB
1002
}
1001
GENIUS_GENODEF_13
1002
{
1000
HIER
1070
    10
1002
}
1002
{
1000
MANEDIT
1070
     0
1002
}
1002
{
1000
NOSEL
1070
     0
1002
}
1002
{
1000
BEHIND
1070
     0
1002
}
1002
{
1000
OTHER
1070
     0
1002
}
1002
{
1000
REACTOR
1002
}
1001
GENIUS_GENOENT_13
1002
{
1000
MYREF
1005
13FF
1002
}
1002
{
1000
GRP
1005
0
1002
}
1001
GENIUS_GENOBJ-N-CRS_13
1002
{
1000
OWNER
1000
GEN
1002
}
  0
LINE
  5
140D
330
1F
100
AcDbEntity
  8
AM_7
  6
AM_ISO08W050x2
100
AcDbLine
 10
129.8752495644698
 20
171.2590386071381
 30
0.0
 11
132.9752495644699
 21
171.2590386071381
 31
0.0
1001
GENIUS_GENOREF_13
1005
1411
  0
LINE
  5
140E
102
{ACAD_REACTORS
330
145F
102
}
330
1F
100
AcDbEntity
  8
AM_7
  6
AM_ISO08W050x2
100
AcDbLine
 10
129.8752495644698
 20
171.2590386071381
 30
0.0
 11
129.8752495644698
 21
174.3590386071381
 31
0.0
1001
GENIUS_GENOREF_13
1005
1411
  0
LINE
  5
140F
330
1F
100
AcDbEntity
  8
AM_7
  6
AM_ISO08W050x2
100
AcDbLine
 10
129.8752495644698
 20
171.2590386071381
 30
0.0
 11
126.7752495644698
 21
171.2590386071381
 31
0.0
1001
GENIUS_GENOREF_13
1005
1411
  0
LINE
  5
1410
330
1F
100
AcDbEntity
  8
AM_7
  6
AM_ISO08W050x2
100
AcDbLine
 10
129.8752495644698
 20
171.2590386071381
 30
0.0
 11
129.8752495644698
 21
168.159038607138
 31
0.0
1001
GENIUS_GENOREF_13
1005
1411
  0
POINT
  5
1411
330
1F
100
AcDbEntity
  8
0
 60
     1
100
AcDbPoint
 10
0.0
 20
0.0
 30
0.0
1001
GENIUS_GENODEF_13
1002
{
1000
HIER
1070
    10
1002
}
1002
{
1000
MANEDIT
1070
     0
1002
}
1002
{
1000
NOSEL
1070
     0
1002
}
1002
{
1000
BEHIND
1070
     0
1002
}
1002
{
1000
OTHER
1070
     0
1002
}
1002
{
1000
REACTOR
1002
}
1001
GENIUS_GENOLIS_13
1002
{
1000
ENT
1005
1410
1005
140F
1005
140E
1005
140D
1002
}
1001
GENIUS_GENOENT_13
1002
{
1000
MYREF
1005
1411
1002
}
1002
{
1000
GRP
1005
0
1002
}
1001
GENIUS_GENOBJ-N-CRS_13
1002
{
1000
OWNER
1000
GEN
1002
}
  0
LINE
  5
1412
330
1F
100
AcDbEntity
  8
AM_7
  6
AM_ISO08W050x2
100
AcDbLine
 10
312.7467566440116
 20
163.2759577826085
 30
0.0
 11
316.5467566440116
 21
163.2759577826085
 31
0.0
  0
LINE
  5
1413
330
1F
100
AcDbEntity
  8
AM_7
  6
AM_ISO08W050x2
100
AcDbLine
 10
312.927041143022
 20
149.7759577826085
 30
0.0
 11
316.727041143022
 21
149.7759577826085
 31
0.0
  0
LINE
  5
1414
330
1F
100
AcDbEntity
  8
AM_7
  6
AM_ISO08W050x2
100
AcDbLine
 10
312.927041143022
 20
154.7759577826085
 30
0.0
 11
316.727041143022
 21
154.7759577826085
 31
0.0
  0
LINE
  5
1422
330
1F
100
AcDbEntity
  8
AM_7
  6
AM_ISO08W050x2
100
AcDbLine
 10
104.6252495644699
 20
139.5590386071381
 30
0.0
 11
107.7252495644699
 21
139.5590386071381
 31
0.0
1001
GENIUS_GENOREF_13
1005
1426
  0
LINE
  5
1423
330
1F
100
AcDbEntity
  8
AM_7
  6
AM_ISO08W050x2
100
AcDbLine
 10
104.6252495644699
 20
139.5590386071381
 30
0.0
 11
104.6252495644699
 21
142.6590386071381
 31
0.0
1001
GENIUS_GENOREF_13
1005
1426
  0
LINE
  5
1424
330
1F
100
AcDbEntity
  8
AM_7
  6
AM_ISO08W050x2
100
AcDbLine
 10
104.6252495644699
 20
139.5590386071381
 30
0.0
 11
101.5252495644698
 21
139.5590386071381
 31
0.0
1001
GENIUS_GENOREF_13
1005
1426
  0
LINE
  5
1425
330
1F
100
AcDbEntity
  8
AM_7
  6
AM_ISO08W050x2
100
AcDbLine
 10
104.6252495644699
 20
139.5590386071381
 30
0.0
 11
104.6252495644699
 21
136.4590386071381
 31
0.0
1001
GENIUS_GENOREF_13
1005
1426
  0
POINT
  5
1426
330
1F
100
AcDbEntity
  8
0
 60
     1
100
AcDbPoint
 10
0.0
 20
0.0
 30
0.0
1001
GENIUS_GENODEF_13
1002
{
1000
HIER
1070
    10
1002
}
1002
{
1000
MANEDIT
1070
     0
1002
}
1002
{
1000
NOSEL
1070
     0
1002
}
1002
{
1000
BEHIND
1070
     0
1002
}
1002
{
1000
OTHER
1070
     0
1002
}
1002
{
1000
REACTOR
1002
}
1001
GENIUS_GENOLIS_13
1002
{
1000
ENT
1005
1425
1005
1424
1005
1423
1005
1422
1002
}
1001
GENIUS_GENOENT_13
1002
{
1000
MYREF
1005
1426
1002
}
1002
{
1000
GRP
1005
0
1002
}
1001
GENIUS_GENOBJ-N-CRS_13
1002
{
1000
OWNER
1000
GEN
1002
}
  0
LINE
  5
1434
330
1F
100
AcDbEntity
  8
AM_7
  6
AM_ISO08W050x2
100
AcDbLine
 10
118.1252495644699
 20
139.5590386071381
 30
0.0
 11
121.2252495644699
 21
139.5590386071381
 31
0.0
1001
GENIUS_GENOREF_13
1005
1438
  0
LINE
  5
1435
330
1F
100
AcDbEntity
  8
AM_7
  6
AM_ISO08W050x2
100
AcDbLine
 10
118.1252495644699
 20
139.5590386071381
 30
0.0
 11
118.1252495644699
 21
142.6590386071381
 31
0.0
1001
GENIUS_GENOREF_13
1005
1438
  0
LINE
  5
1436
330
1F
100
AcDbEntity
  8
AM_7
  6
AM_ISO08W050x2
100
AcDbLine
 10
118.1252495644699
 20
139.5590386071381
 30
0.0
 11
115.0252495644698
 21
139.5590386071381
 31
0.0
1001
GENIUS_GENOREF_13
1005
1438
  0
LINE
  5
1437
330
1F
100
AcDbEntity
  8
AM_7
  6
AM_ISO08W050x2
100
AcDbLine
 10
118.1252495644699
 20
139.5590386071381
 30
0.0
 11
118.1252495644699
 21
136.4590386071381
 31
0.0
1001
GENIUS_GENOREF_13
1005
1438
  0
POINT
  5
1438
330
1F
100
AcDbEntity
  8
0
 60
     1
100
AcDbPoint
 10
0.0
 20
0.0
 30
0.0
1001
GENIUS_GENOLIS_13
1002
{
1000
ENT
1005
1437
1005
1436
1005
1435
1005
1434
1002
}
1001
GENIUS_GENOENT_13
1002
{
1000
MYREF
1005
1438
1002
}
1002
{
1000
GRP
1005
0
1002
}
1001
GENIUS_GENOBJ-N-CRS_13
1002
{
1000
OWNER
1000
GEN
1002
}
1001
GENIUS_GENODEF_13
1002
{
1000
HIER
1070
    10
1002
}
1002
{
1000
MANEDIT
1070
     0
1002
}
1002
{
1000
NOSEL
1070
     0
1002
}
1002
{
1000
BEHIND
1070
     0
1002
}
1002
{
1000
OTHER
1070
     0
1002
}
1002
{
1000
REACTOR
1002
}
  0
LINE
  5
1439
330
1F
100
AcDbEntity
  8
AM_7
  6
AM_ISO08W050x2
100
AcDbLine
 10
158.3479928884326
 20
171.2590386071381
 30
0.0
 11
161.4479928884326
 21
171.2590386071381
 31
0.0
  0
LINE
  5
143A
330
1F
100
AcDbEntity
  8
AM_7
  6
AM_ISO08W050x2
100
AcDbLine
 10
155.2237354598756
 20
139.5590386071381
 30
0.0
 11
158.3237354598756
 21
139.5590386071381
 31
0.0
  0
LINE
  5
143B
330
1F
100
AcDbEntity
  8
AM_7
  6
AM_ISO08W050x2
100
AcDbLine
 10
92.87524956446986
 20
206.2833370627666
 30
0.0
 11
92.87524956446986
 21
209.3833370627666
 31
0.0
  0
LINE
  5
143C
330
1F
100
AcDbEntity
  8
AM_7
  6
AM_ISO08W050x2
100
AcDbLine
 10
129.8752495644698
 20
206.2833370627665
 30
0.0
 11
129.8752495644698
 21
209.3833370627666
 31
0.0
  0
DIMENSION
  5
1451
102
{ACAD_XDICTIONARY
360
145E
102
}
102
{ACAD_REACTORS
330
145F
102
}
330
1F
100
AcDbEntity
  8
AM_5
100
AcDbDimension
  2
*D3
 10
129.8752495644698
 20
186.7590396171381
 30
0.0
 11
111.3752495644698
 21
189.2090396171381
 31
0.0
 70
    32
 71
     5
 42
37.0
  3
AM_ISO$0
100
AcDbAlignedDimension
 13
92.87524956446986
 23
174.3590386071381
 33
0.0
 14
129.8752495644698
 24
174.3590386071381
 34
0.0
100
AcDbRotatedDimension
1001
ACAD
1000
DSTYLE
1002
{
1070
    40
1040
1.0
1070
   144
1040
1.0
1070
   272
1070
     8
1002
}
  0
DIMENSION
  5
1477
102
{ACAD_XDICTIONARY
360
1484
102
}
102
{ACAD_REACTORS
330
1485
102
}
330
1F
100
AcDbEntity
  8
AM_5
100
AcDbDimension
  2
*D4
 10
77.62524956446987
 20
135.0590386071381
 30
0.0
 11
75.17524956446985
 21
154.9090386071381
 31
0.0
 70
    32
 71
     5
 42
39.69999999999999
  3
AM_ISO$0
100
AcDbAlignedDimension
 13
89.62524956446987
 23
174.7590386071381
 33
0.0
 14
96.62524956446986
 24
135.0590386071381
 34
0.0
 50
90.0
100
AcDbRotatedDimension
1001
ACAD
1000
DSTYLE
1002
{
1070
    40
1040
1.0
1070
   144
1040
1.0
1070
   272
1070
     8
1002
}
  0
DIMENSION
  5
14C7
102
{ACAD_XDICTIONARY
360
14D4
102
}
102
{ACAD_REACTORS
330
14D5
102
}
330
1F
100
AcDbEntity
  8
AM_5
100
AcDbDimension
  2
*D6
 10
134.1252495644698
 20
216.1809197983447
 30
0.0
 11
111.3752495644698
 21
218.6309197983447
 31
0.0
 70
    32
 71
     5
 42
45.49999999999999
  3
AM_ISO$0
100
AcDbAlignedDimension
 13
88.62524956446987
 23
208.5281958158899
 33
0.0
 14
134.1252495644698
 24
208.5281958158899
 34
0.0
100
AcDbRotatedDimension
1001
ACAD
1000
DSTYLE
1002
{
1070
    40
1040
1.0
1070
   144
1040
1.0
1070
   272
1070
     8
1002
}
  0
DIMENSION
  5
156F
102
{ACAD_XDICTIONARY
360
157C
102
}
102
{ACAD_REACTORS
330
157D
102
}
330
1F
100
AcDbEntity
  8
AM_5
100
AcDbDimension
  2
*D7
 10
277.8470624423103
 20
231.8006842637569
 30
0.0
 11
258.8470624423103
 21
234.2506842637569
 31
0.0
 70
    32
 71
     5
 42
38.0
  3
AM_ISO$0
100
AcDbAlignedDimension
 13
239.8470624423103
 23
219.8006842637569
 33
0.0
 14
277.8470624423103
 24
197.8006842637569
 34
0.0
100
AcDbRotatedDimension
1001
ACAD
1000
DSTYLE
1002
{
1070
    40
1040
1.0
1070
   144
1040
1.0
1070
   272
1070
     8
1002
}
  0
DIMENSION
  5
1595
102
{ACAD_XDICTIONARY
360
15A2
102
}
102
{ACAD_REACTORS
330
15A3
102
}
330
1F
100
AcDbEntity
  8
AM_5
100
AcDbDimension
  2
*D8
 10
224.7470624423104
 20
194.7006842637569
 30
0.0
 11
222.2967179541214
 21
205.7006842637569
 31
0.0
 70
    32
 71
     5
 42
22.0
  3
AM_ISO$0
100
AcDbAlignedDimension
 13
236.7470624423102
 23
216.7006842637569
 33
0.0
 14
274.7470624423103
 24
194.7006842637569
 34
0.0
 50
90.0
100
AcDbRotatedDimension
1001
ACAD
1000
DSTYLE
1002
{
1070
    40
1040
1.0
1070
   144
1040
1.0
1070
   272
1070
     8
1002
}
  0
DIMENSION
  5
15B4
102
{ACAD_XDICTIONARY
360
15C0
102
}
102
{ACAD_REACTORS
330
15C1
102
}
330
1F
100
AcDbEntity
  8
AM_5
100
AcDbDimension
  2
*D9
 10
240.926304185693
 20
215.5194826470375
 30
0.0
 11
223.8995412050437
 21
226.1383072033023
 31
0.0
 70
   163
  1
2-<>
 71
     5
 42
3.200000000000073
  3
AM_ISO$3
100
AcDbDiametricDimension
 15
238.7678206989276
 25
217.8818858804762
 35
0.0
 40
0.0
1001
ACAD
1000
DSTYLE
1002
{
1070
    40
1040
1.0
1070
   144
1040
1.0
1070
   272
1070
     8
1002
}
  0
DIMENSION
  5
15E4
102
{ACAD_XDICTIONARY
360
15ED
102
}
102
{ACAD_REACTORS
330
15EE
102
}
330
1F
100
AcDbEntity
  8
AM_5
100
AcDbDimension
  2
*D10
 10
129.0708081021702
 20
169.8759717491253
 30
0.0
 11
143.4571549421145
 21
182.0172501927524
 31
0.0
 70
   163
  1
2-<>
 71
     5
 42
3.200000000000073
  3
AM_ISO$3
100
AcDbDiametricDimension
 15
130.6796910267695
 25
172.6421054651509
 35
0.0
 40
0.0
1001
ACAD
1000
DSTYLE
1002
{
1070
    40
1040
1.0
1070
   144
1040
1.0
1070
   272
1070
     8
1002
}
  0
DIMENSION
  5
1658
102
{ACAD_XDICTIONARY
360
1667
102
}
102
{ACAD_REACTORS
330
1668
102
}
330
1F
100
AcDbEntity
  8
AM_5
100
AcDbDimension
  2
*D11
 10
246.3908225379472
 20
110.9759577826084
 30
0.0
 11
243.9404780497582
 21
119.8810611290652
 31
0.0
 70
    32
 71
     5
 42
1.199999999999988
  3
AM_ISO$0
100
AcDbAlignedDimension
 13
247.6174115836602
 23
109.7759577826085
 33
0.0
 14
247.1135405581362
 24
110.9759577826084
 34
0.0
 50
90.0
100
AcDbRotatedDimension
1001
ACAD
1000
DSTYLE
1002
{
1070
    40
1040
1.0
1070
   144
1040
1.0
1070
   272
1070
     8
1002
}
  0
DIMENSION
  5
1682
102
{ACAD_XDICTIONARY
360
168F
102
}
102
{ACAD_REACTORS
330
1690
102
}
330
1F
100
AcDbEntity
  8
AM_5
100
AcDbDimension
  2
*D12
 10
230.4044889403574
 20
178.2759577826085
 30
0.0
 11
227.9544889403574
 21
144.0259577826085
 31
0.0
 70
    32
 71
     5
 42
68.5
  3
AM_ISO$0
100
AcDbAlignedDimension
 13
235.3470624423103
 23
109.7759577826085
 33
0.0
 14
253.3470624423103
 24
178.2759577826085
 34
0.0
 50
90.0
100
AcDbRotatedDimension
1001
ACAD
1000
DSTYLE
1002
{
1070
    40
1040
1.0
1070
   144
1040
1.0
1070
   272
1070
     8
1002
}
  0
LINE
  5
17C1
330
1F
100
AcDbEntity
  8
AM_7
  6
AM_ISO08W050x2
100
AcDbLine
 10
269.8470624423103
 20
212.374068639064
 30
0.0
 11
269.8470624423103
 21
216.1740686390639
 31
0.0
  0
DIMENSION
  5
1888
102
{ACAD_XDICTIONARY
360
1897
102
}
102
{ACAD_REACTORS
330
1898
102
}
330
1F
100
AcDbEntity
  8
AM_5
100
AcDbDimension
  2
*D14
 10
146.1252505644698
 20
208.5281958158898
 30
0.0
 11
143.6749060762808
 21
217.4332991623465
 31
0.0
 70
    32
 71
     5
 42
1.199999999999988
  3
AM_ISO$0
100
AcDbAlignedDimension
 13
134.1252495644698
 23
207.3281958158899
 33
0.0
 14
134.1252495644698
 24
208.5281958158898
 34
0.0
 50
90.00000000000003
100
AcDbRotatedDimension
1001
ACAD
1000
DSTYLE
1002
{
1070
    40
1040
1.0
1070
   144
1040
1.0
1070
   272
1070
     8
1002
}
  0
LINE
  5
18EF
330
1F
100
AcDbEntity
  8
AM_7
  6
AM_ISO08W050x2
100
AcDbLine
 10
239.8470624423103
 20
111.7964895172558
 30
0.0
 11
239.8470624423103
 21
108.6964895172558
 31
0.0
  0
LINE
  5
18FB
330
1F
100
AcDbEntity
  8
AM_7
  6
AM_ISO08W050x2
100
AcDbLine
 10
277.8470624423103
 20
111.9725876034352
 30
0.0
 11
277.8470624423103
 21
108.8725876034352
 31
0.0
  0
ENDSEC
  0
SECTION
  2
OBJECTS
  0
DICTIONARY
  5
C
330
0
100
AcDbDictionary
281
     1
  3
ACAD_COLOR
350
BE
  3
ACAD_GROUP
350
D
  3
ACAD_LAYOUT
350
1A
  3
ACAD_MATERIAL
350
BD
  3
ACAD_MLINESTYLE
350
17
  3
ACAD_PLOTSETTINGS
350
19
  3
ACAD_PLOTSTYLENAME
350
E
  3
ACAD_TABLESTYLE
350
11A
  3
ACDBHEADERROUNDTRIPXREC
350
192F
  3
AcDbVariableDictionary
350
94
  3
AcmDictionary
350
5B
  3
AMG
350
41
  3
AMGSNAPSETTINGS
350
1B8
  3
DWGPROPS
350
192E
  0
DICTIONARY
  5
3F9
330
2
100
AcDbDictionary
280
     1
281
     1
  3
ACAD_LAYERFILTERS
360
5B7
  3
ACAD_LAYERSTATES
360
A7F
  3
ACLYDICTIONARY
360
5B6
  0
DICTIONARY
  5
8F
330
1F
100
AcDbDictionary
280
     1
281
     1
  0
DICTIONARY
  5
1855
330
17D6
100
AcDbDictionary
280
     1
281
     1
  0
DICTIONARY
  5
145E
330
1451
100
AcDbDictionary
280
     1
281
     1
  3
ACAD_DIMASSOC
360
145F
  0
DICTIONARY
  5
1484
330
1477
100
AcDbDictionary
280
     1
281
     1
  3
ACAD_DIMASSOC
360
1485
  0
DICTIONARY
  5
14D4
330
14C7
100
AcDbDictionary
280
     1
281
     1
  3
ACAD_DIMASSOC
360
14D5
  0
DICTIONARY
  5
157C
330
156F
100
AcDbDictionary
280
     1
281
     1
  3
ACAD_DIMASSOC
360
157D
  0
DICTIONARY
  5
15A2
330
1595
100
AcDbDictionary
280
     1
281
     1
  3
ACAD_DIMASSOC
360
15A3
  0
DICTIONARY
  5
15C0
330
15B4
100
AcDbDictionary
280
     1
281
     1
  3
ACAD_DIMASSOC
360
15C1
  0
DICTIONARY
  5
15ED
330
15E4
100
AcDbDictionary
280
     1
281
     1
  3
ACAD_DIMASSOC
360
15EE
  0
DICTIONARY
  5
1667
330
1658
100
AcDbDictionary
280
     1
281
     1
  3
ACAD_DIMASSOC
360
1668
  0
DICTIONARY
  5
168F
330
1682
100
AcDbDictionary
280
     1
281
     1
  3
ACAD_DIMASSOC
360
1690
  0
DICTIONARY
  5
1897
330
1888
100
AcDbDictionary
280
     1
281
     1
  3
ACAD_DIMASSOC
360
1898
  0
DICTIONARY
  5
BE
102
{ACAD_REACTORS
330
C
102
}
330
C
100
AcDbDictionary
281
     1
  0
DICTIONARY
  5
D
102
{ACAD_REACTORS
330
C
102
}
330
C
100
AcDbDictionary
281
     1
  0
DICTIONARY
  5
1A
102
{ACAD_REACTORS
330
C
102
}
330
C
100
AcDbDictionary
281
     1
  3
Model
350
22
  3
配置1
350
1E
  3
配置2
350
26
  0
DICTIONARY
  5
BD
102
{ACAD_REACTORS
330
C
102
}
330
C
100
AcDbDictionary
281
     1
  0
DICTIONARY
  5
17
102
{ACAD_REACTORS
330
C
102
}
330
C
100
AcDbDictionary
281
     1
  3
Standard
350
18
  0
DICTIONARY
  5
19
102
{ACAD_REACTORS
330
C
102
}
330
C
100
AcDbDictionary
281
     1
  0
ACDBDICTIONARYWDFLT
  5
E
102
{ACAD_REACTORS
330
C
102
}
330
C
100
AcDbDictionary
281
     1
  3
Normal
350
F
100
AcDbDictionaryWithDefault
340
F
  0
DICTIONARY
  5
11A
102
{ACAD_REACTORS
330
C
102
}
330
C
100
AcDbDictionary
281
     1
  3
Standard
350
11B
  0
DICTIONARY
  5
192F
102
{ACAD_REACTORS
330
C
102
}
330
C
100
AcDbDictionary
281
     1
  0
DICTIONARY
  5
94
102
{ACAD_REACTORS
330
C
102
}
330
C
100
AcDbDictionary
281
     1
  3
CTABLESTYLE
350
138
  3
DIMASSOC
350
96
  3
INDEXCTL
350
95
  3
PROJECTNAME
350
192C
  0
DICTIONARY
  5
5B
102
{ACAD_REACTORS
330
C
102
}
330
C
100
AcDbDictionary
281
     1
  3
AcmBOM
350
1B5
  3
AcmStdDictionary
350
61
  3
AMDTSECTSYM_ARROWCOLOR
350
123
  0
DICTIONARY
  5
41
102
{ACAD_REACTORS
330
C
102
}
330
C
100
AcDbDictionary
281
     1
  0
DICTIONARY
  5
1B8
102
{ACAD_REACTORS
330
C
102
}
330
C
100
AcDbDictionary
281
     1
  0
XRECORD
  5
192E
102
{ACAD_REACTORS
330
C
102
}
330
C
100
AcDbXrecord
280
     1
  1
DWGPROPS COOKIE
  2

  3

  4

  6

  7

  8

  9

300
AmdtFileType=84
301
=
302
=
303
=
304
=
305
=
306
=
307
=
308
=
309
=
 40
0.0694350462962963
 41
2454188.339225614
 42
2454188.418145428
  1

 90
        1
  0
DICTIONARY
  5
5B7
102
{ACAD_REACTORS
330
3F9
102
}
330
3F9
100
AcDbDictionary
281
     1
  0
DICTIONARY
  5
A7F
102
{ACAD_REACTORS
330
3F9
102
}
330
3F9
100
AcDbDictionary
281
     1
  0
DICTIONARY
  5
5B6
102
{ACAD_REACTORS
330
3F9
102
}
330
3F9
100
AcDbDictionary
281
     1
1001
ACAD
1000
<All
  0
DIMASSOC
  5
145F
102
{ACAD_REACTORS
330
145E
102
}
330
145E
100
AcDbDimAssoc
330
1451
 90
        3
 70
     0
 71
     0
  1
AcDbOsnapPointRef
 72
     1
331
13FC
 73
     0
 91
        0
 40
0.0
 10
0.0
 20
0.0
 30
2.000000000000000E+50
 75
     0
  1
AcDbOsnapPointRef
 72
     1
331
140E
 73
     0
 91
        0
 40
0.0
 10
0.0
 20
0.0
 30
2.000000000000000E+50
 75
     0
  0
DIMASSOC
  5
1485
102
{ACAD_REACTORS
330
1484
102
}
330
1484
100
AcDbDimAssoc
330
1477
 90
        3
 70
     0
 71
     0
  1
AcDbOsnapPointRef
 72
    13
331
1231
 73
     0
 91
        0
 40
0.0
 10
0.0
 20
0.0
 30
2.000000000000000E+50
 75
     0
  1
AcDbOsnapPointRef
 72
    13
331
123D
 73
     0
 91
        0
 40
0.0
 10
0.0
 20
0.0
 30
2.000000000000000E+50
 75
     0
  0
DIMASSOC
  5
14D5
102
{ACAD_REACTORS
330
14D4
102
}
330
14D4
100
AcDbDimAssoc
330
14C7
 90
        3
 70
     0
 71
     0
  1
AcDbOsnapPointRef
 72
    13
331
125B
 73
     0
 91
        0
 40
0.0
 10
0.0
 20
0.0
 30
2.000000000000000E+50
 75
     0
  1
AcDbOsnapPointRef
 72
     1
331
1256
 73
     0
 91
        0
 40
0.0
 10
0.0
 20
0.0
 30
2.000000000000000E+50
 75
     0
  0
DIMASSOC
  5
157D
102
{ACAD_REACTORS
330
157C
102
}
330
157C
100
AcDbDimAssoc
330
156F
 90
        3
 70
     0
 71
     0
  1
AcDbOsnapPointRef
 72
     1
331
1390
 73
     0
 91
        0
 40
0.0
 10
0.0
 20
0.0
 30
2.000000000000000E+50
 75
     0
  1
AcDbOsnapPointRef
 72
     1
331
13A2
 73
     0
 91
        0
 40
0.0
 10
0.0
 20
0.0
 30
2.000000000000000E+50
 75
     0
  0
DIMASSOC
  5
15A3
102
{ACAD_REACTORS
330
15A2
102
}
330
15A2
100
AcDbDimAssoc
330
1595
 90
        3
 70
     0
 71
     0
  1
AcDbOsnapPointRef
 72
     1
331
1391
 73
     0
 91
        0
 40
0.0
 10
0.0
 20
0.0
 30
2.000000000000000E+50
 75
     0
  1
AcDbOsnapPointRef
 72
     1
331
13A3
 73
     0
 91
        0
 40
0.0
 10
0.0
 20
0.0
 30
2.000000000000000E+50
 75
     0
  0
DIMASSOC
  5
15C1
102
{ACAD_REACTORS
330
15C0
102
}
330
15C0
100
AcDbDimAssoc
330
15B4
 90
        2
 70
     0
 71
     0
  1
AcDbOsnapPointRef
 72
     3
331
131B
 73
     2
 91
        0
 40
0.0
 10
0.0
 20
0.0
 30
0.0
 75
     0
  0
DIMASSOC
  5
15EE
102
{ACAD_REACTORS
330
15ED
102
}
330
15ED
100
AcDbDimAssoc
330
15E4
 90
        2
 70
     0
 71
     0
  1
AcDbOsnapPointRef
 72
     3
331
1239
 73
     2
 91
        0
 40
0.0
 10
0.0
 20
0.0
 30
0.0
 75
     0
  0
DIMASSOC
  5
1668
102
{ACAD_REACTORS
330
1667
102
}
330
1667
100
AcDbDimAssoc
330
1658
 90
        3
 70
     0
 71
     0
  1
AcDbOsnapPointRef
 72
    13
331
1363
 73
     0
 91
        0
 40
0.0
 10
0.0
 20
0.0
 30
2.000000000000000E+50
 75
     0
  1
AcDbOsnapPointRef
 72
    13
331
1372
 73
     0
 91
        0
 40
0.0
 10
0.0
 20
0.0
 30
2.000000000000000E+50
 75
     0
  0
DIMASSOC
  5
1690
102
{ACAD_REACTORS
330
168F
102
}
330
168F
100
AcDbDimAssoc
330
1682
 90
        3
 70
     0
 71
     0
  1
AcDbOsnapPointRef
 72
     1
331
1362
 73
     0
 91
        0
 40
0.0
 10
0.0
 20
0.0
 30
2.000000000000000E+50
 75
     0
  1
AcDbOsnapPointRef
 72
    13
331
1369
 73
     0
 91
        0
 40
0.0
 10
0.0
 20
0.0
 30
2.000000000000000E+50
 75
     0
  0
DIMASSOC
  5
1898
102
{ACAD_REACTORS
330
1897
102
}
330
1897
100
AcDbDimAssoc
330
1888
 90
        3
 70
     0
 71
     0
  1
AcDbOsnapPointRef
 72
    13
331
1254
 73
     0
 91
        0
 40
0.0
 10
0.0
 20
0.0
 30
2.000000000000000E+50
 75
     0
  1
AcDbOsnapPointRef
 72
     1
331
1241
 73
     0
 91
        0
 40
0.0
 10
0.0
 20
0.0
 30
2.000000000000000E+50
 75
     0
  0
LAYOUT
  5
22
102
{ACAD_XDICTIONARY
360
1932
102
}
102
{ACAD_REACTORS
330
1A
102
}
330
1A
100
AcDbPlotSettings
  1

  2
\\RD\EPSON Stylus C63 Series單色
  4
A4
  6

 40
3.757083177566528
 41
3.757076978683471
 42
3.757080078125
 43
3.757080078125
 44
209.9733276367187
 45
296.9683227539062
 46
0.0
 47
0.0
 48
0.0
 49
0.0
140
0.0
141
0.0
142
1.0
143
0.3405120737814363
 70
 11952
 72
     1
 73
     0
 74
     0
  7
單色出圖.ctb
 75
     0
147
2.936753428137963
148
-2047.07469463503
149
-1261.649717473083
100
AcDbLayout
  1
Model
 70
     1
 71
     0
 10
0.0
 20
0.0
 11
12.0
 21
9.0
 12
0.0
 22
0.0
 32
0.0
 14
0.0
 24
0.0
 34
0.0
 15
0.0
 25
0.0
 35
0.0
146
0.0
 13
0.0
 23
0.0
 33
0.0
 16
1.0
 26
0.0
 36
0.0
 17
0.0
 27
1.0
 37
0.0
 76
     0
330
1F
1001
ACAD_PSEXT
1000
\\RD\EPSON Stylus C63 Series單色
1000
EPSON Stylus C63 Series
1000
\\RD
1000

1070
     0
  0
LAYOUT
  5
1E
102
{ACAD_XDICTIONARY
360
1930
102
}
102
{ACAD_REACTORS
330
1A
102
}
330
1A
100
AcDbPlotSettings
  1

  2

  4

  6

 40
0.0
 41
0.0
 42
0.0
 43
0.0
 44
0.0
 45
0.0
 46
0.0
 47
0.0
 48
0.0
 49
0.0
140
0.0
141
0.0
142
1.0
143
1.0
 70
   688
 72
     0
 73
     0
 74
     5
  7
單色出圖.ctb
 75
    16
147
1.0
148
0.0
149
0.0
100
AcDbLayout
  1
配置1
 70
     1
 71
     1
 10
0.0
 20
0.0
 11
420.0
 21
297.0
 12
0.0
 22
0.0
 32
0.0
 14
1.000000000000000E+20
 24
1.000000000000000E+20
 34
1.000000000000000E+20
 15
-1.000000000000000E+20
 25
-1.000000000000000E+20
 35
-1.000000000000000E+20
146
0.0
 13
0.0
 23
0.0
 33
0.0
 16
1.0
 26
0.0
 36
0.0
 17
0.0
 27
1.0
 37
0.0
 76
     0
330
1B
  0
LAYOUT
  5
26
102
{ACAD_XDICTIONARY
360
1934
102
}
102
{ACAD_REACTORS
330
1A
102
}
330
1A
100
AcDbPlotSettings
  1

  2

  4

  6

 40
0.0
 41
0.0
 42
0.0
 43
0.0
 44
0.0
 45
0.0
 46
0.0
 47
0.0
 48
0.0
 49
0.0
140
0.0
141
0.0
142
1.0
143
1.0
 70
   688
 72
     0
 73
     0
 74
     5
  7
單色出圖.ctb
 75
    16
147
1.0
148
0.0
149
0.0
100
AcDbLayout
  1
配置2
 70
     1
 71
     2
 10
0.0
 20
0.0
 11
12.0
 21
9.0
 12
0.0
 22
0.0
 32
0.0
 14
0.0
 24
0.0
 34
0.0
 15
0.0
 25
0.0
 35
0.0
146
0.0
 13
0.0
 23
0.0
 33
0.0
 16
1.0
 26
0.0
 36
0.0
 17
0.0
 27
1.0
 37
0.0
 76
     0
330
23
  0
MLINESTYLE
  5
18
102
{ACAD_REACTORS
330
17
102
}
330
17
100
AcDbMlineStyle
  2
STANDARD
 70
     0
  3

 62
   256
 51
90.0
 52
90.0
 71
     2
 49
0.5
 62
   256
  6
BYLAYER
 49
-0.5
 62
   256
  6
BYLAYER
  0
ACDBPLACEHOLDER
  5
F
102
{ACAD_REACTORS
330
E
102
}
330
E
  0
TABLESTYLE
  5
11B
102
{ACAD_REACTORS
330
11A
102
}
330
11A
100
AcDbTableStyle
  3
Standard
 70
     0
 71
     0
 40
1.5
 41
1.5
280
     0
281
     0
  7
STANDARD
140
4.5
170
     2
 62
     0
 63
     7
283
     0
274
    -2
284
     1
 64
     0
275
    -2
285
     1
 65
     0
276
    -2
286
     1
 66
     0
277
    -2
287
     1
 67
     0
278
    -2
288
     1
 68
     0
279
    -2
289
     1
 69
     0
  7
STANDARD
140
6.0
170
     5
 62
     0
 63
     7
283
     0
274
    -2
284
     1
 64
     0
275
    -2
285
     1
 65
     0
276
    -2
286
     1
 66
     0
277
    -2
287
     1
 67
     0
278
    -2
288
     1
 68
     0
279
    -2
289
     1
 69
     0
  7
STANDARD
140
4.5
170
     5
 62
     0
 63
     7
283
     0
274
    -2
284
     1
 64
     0
275
    -2
285
     1
 65
     0
276
    -2
286
     1
 66
     0
277
    -2
287
     1
 67
     0
278
    -2
288
     1
 68
     0
279
    -2
289
     1
 69
     0
  0
DICTIONARYVAR
  5
138
102
{ACAD_REACTORS
330
94
102
}
330
94
100
DictionaryVariables
280
     0
  1
STANDARD
  0
DICTIONARYVAR
  5
96
102
{ACAD_REACTORS
330
94
102
}
330
94
100
DictionaryVariables
280
     0
  1
2
  0
DICTIONARYVAR
  5
95
102
{ACAD_REACTORS
330
94
102
}
330
94
100
DictionaryVariables
280
     0
  1
0
  0
DICTIONARYVAR
  5
192C
102
{ACAD_REACTORS
330
94
102
}
330
94
100
DictionaryVariables
280
     0
  1

  0
DICTIONARY
  5
1B5
102
{ACAD_REACTORS
330
5B
102
}
330
5B
100
AcDbDictionary
281
     1
  0
DICTIONARY
  5
61
102
{ACAD_REACTORS
330
5B
102
}
330
5B
100
AcDbDictionary
281
     1
  0
XRECORD
  5
123
102
{ACAD_REACTORS
330
5B
102
}
330
5B
100
AcDbXrecord
280
     1
 90
-1023410169
  0
DICTIONARY
  5
1932
330
22
100
AcDbDictionary
280
     1
281
     1
  3
ACAD_XREC_ROUNDTRIP
360
1933
  0
DICTIONARY
  5
1930
330
1E
100
AcDbDictionary
280
     1
281
     1
  3
ACAD_XREC_ROUNDTRIP
360
1931
  0
DICTIONARY
  5
1934
330
26
100
AcDbDictionary
280
     1
281
     1
  3
ACAD_XREC_ROUNDTRIP
360
1935
  0
XRECORD
  5
1933
102
{ACAD_REACTORS
330
1932
102
}
330
1932
100
AcDbXrecord
280
     1
102
SHADEPLOT
 70
     0
102
SHADEPLOTRESLEVEL
 70
     2
102
SHADEPLOTCUSTOMDPI
 70
   300
  0
XRECORD
  5
1931
102
{ACAD_REACTORS
330
1930
102
}
330
1930
100
AcDbXrecord
280
     1
102
SHADEPLOT
 70
     0
102
SHADEPLOTRESLEVEL
 70
     2
102
SHADEPLOTCUSTOMDPI
 70
   300
  0
XRECORD
  5
1935
102
{ACAD_REACTORS
330
1934
102
}
330
1934
100
AcDbXrecord
280
     1
102
SHADEPLOT
 70
     0
102
SHADEPLOTRESLEVEL
 70
     2
102
SHADEPLOTCUSTOMDPI
 70
   300
  0
ENDSEC
  0
EOF
