  0
SECTION
  2
HEADER
  9
$ACADVER
  1
AC1015
  9
$ACADMAINTVER
 70
    20
  9
$DWGCODEPAGE
  3
ANSI_950
  9
$INSBASE
 10
0.0
 20
0.0
 30
0.0
  9
$EXTMIN
 10
548.6331132111049
 20
102.9684121429282
 30
-0.0062314691776351
  9
$EXTMAX
 10
899.6715389896094
 20
402.4537059559597
 30
188.7269682137604
  9
$LIMMIN
 10
0.0
 20
0.0
  9
$LIMMAX
 10
420.0
 20
297.0
  9
$ORTHOMODE
 70
     1
  9
$REGENMODE
 70
     1
  9
$FILLMODE
 70
     1
  9
$QTEXTMODE
 70
     0
  9
$MIRRTEXT
 70
     1
  9
$LTSCALE
 40
1.0
  9
$ATTMODE
 70
     1
  9
$TEXTSIZE
 40
3.0
  9
$TRACEWID
 40
1.0
  9
$TEXTSTYLE
  7
STANDARD
  9
$CLAYER
  8
0
  9
$CELTYPE
  6
ByLayer
  9
$CECOLOR
 62
   256
  9
$CELTSCALE
 40
1.0
  9
$DISPSILH
 70
     0
  9
$DIMSCALE
 40
1.0
  9
$DIMASZ
 40
3.0
  9
$DIMEXO
 40
1.0
  9
$DIMDLI
 40
8.0
  9
$DIMRND
 40
0.0
  9
$DIMDLE
 40
0.0
  9
$DIMEXE
 40
1.5
  9
$DIMTP
 40
0.1
  9
$DIMTM
 40
0.1
  9
$DIMTXT
 40
3.5
  9
$DIMCEN
 40
0.0
  9
$DIMTSZ
 40
0.0
  9
$DIMTOL
 70
     0
  9
$DIMLIM
 70
     0
  9
$DIMTIH
 70
     0
  9
$DIMTOH
 70
     0
  9
$DIMSE1
 70
     0
  9
$DIMSE2
 70
     0
  9
$DIMTAD
 70
     1
  9
$DIMZIN
 70
     8
  9
$DIMBLK
  1

  9
$DIMASO
 70
     1
  9
$DIMSHO
 70
     1
  9
$DIMPOST
  1

  9
$DIMAPOST
  1
"
  9
$DIMALT
 70
     0
  9
$DIMALTD
 70
     2
  9
$DIMALTF
 40
0.0393701
  9
$DIMLFAC
 40
1.0
  9
$DIMTOFL
 70
     1
  9
$DIMTVP
 40
0.0
  9
$DIMTIX
 70
     0
  9
$DIMSOXD
 70
     0
  9
$DIMSAH
 70
     0
  9
$DIMBLK1
  1

  9
$DIMBLK2
  1

  9
$DIMSTYLE
  2
AM_ISO
  9
$DIMCLRD
 70
   256
  9
$DIMCLRE
 70
   256
  9
$DIMCLRT
 70
   256
  9
$DIMTFAC
 40
0.6
  9
$DIMGAP
 40
0.7
  9
$DIMJUST
 70
     0
  9
$DIMSD1
 70
     0
  9
$DIMSD2
 70
     0
  9
$DIMTOLJ
 70
     0
  9
$DIMTZIN
 70
     8
  9
$DIMALTZ
 70
     0
  9
$DIMALTTZ
 70
     0
  9
$DIMUPT
 70
     0
  9
$DIMDEC
 70
     2
  9
$DIMTDEC
 70
     8
  9
$DIMALTU
 70
     2
  9
$DIMALTTD
 70
     2
  9
$DIMTXSTY
  7
STANDARD
  9
$DIMAUNIT
 70
     0
  9
$DIMADEC
 70
     0
  9
$DIMALTRND
 40
0.0
  9
$DIMAZIN
 70
     2
  9
$DIMDSEP
 70
    46
  9
$DIMATFIT
 70
     3
  9
$DIMFRAC
 70
     0
  9
$DIMLDRBLK
  1

  9
$DIMLUNIT
 70
     2
  9
$DIMLWD
 70
    -1
  9
$DIMLWE
 70
    -1
  9
$DIMTMOVE
 70
     0
  9
$LUNITS
 70
     2
  9
$LUPREC
 70
     2
  9
$SKETCHINC
 40
1.0
  9
$FILLETRAD
 40
2.5
  9
$AUNITS
 70
     0
  9
$AUPREC
 70
     0
  9
$MENU
  1
.
  9
$ELEVATION
 40
0.0
  9
$PELEVATION
 40
0.0
  9
$THICKNESS
 40
0.0
  9
$LIMCHECK
 70
     0
  9
$CHAMFERA
 40
2.5
  9
$CHAMFERB
 40
2.5
  9
$CHAMFERC
 40
20.0
  9
$CHAMFERD
 40
0.0
  9
$SKPOLY
 70
     0
  9
$TDCREATE
 40
2454013.612854456
  9
$TDUCREATE
 40
2454013.279521123
  9
$TDUPDATE
 40
2455009.342060313
  9
$TDUUPDATE
 40
2455009.008726979
  9
$TDINDWG
 40
0.1604236343
  9
$TDUSRTIMER
 40
0.1604236343
  9
$USRTIMER
 70
     1
  9
$ANGBASE
 50
0.0
  9
$ANGDIR
 70
     0
  9
$PDMODE
 70
     0
  9
$PDSIZE
 40
0.0
  9
$PLINEWID
 40
0.0
  9
$SPLFRAME
 70
     0
  9
$SPLINETYPE
 70
     6
  9
$SPLINESEGS
 70
     8
  9
$HANDSEED
  5
3ED7
  9
$SURFTAB1
 70
     6
  9
$SURFTAB2
 70
     6
  9
$SURFTYPE
 70
     6
  9
$SURFU
 70
     6
  9
$SURFV
 70
     6
  9
$UCSBASE
  2

  9
$UCSNAME
  2

  9
$UCSORG
 10
0.0
 20
0.0
 30
0.0
  9
$UCSXDIR
 10
1.0
 20
0.0
 30
0.0
  9
$UCSYDIR
 10
0.0
 20
1.0
 30
0.0
  9
$UCSORTHOREF
  2

  9
$UCSORTHOVIEW
 70
     0
  9
$UCSORGTOP
 10
0.0
 20
0.0
 30
0.0
  9
$UCSORGBOTTOM
 10
0.0
 20
0.0
 30
0.0
  9
$UCSORGLEFT
 10
0.0
 20
0.0
 30
0.0
  9
$UCSORGRIGHT
 10
0.0
 20
0.0
 30
0.0
  9
$UCSORGFRONT
 10
0.0
 20
0.0
 30
0.0
  9
$UCSORGBACK
 10
0.0
 20
0.0
 30
0.0
  9
$PUCSBASE
  2

  9
$PUCSNAME
  2

  9
$PUCSORG
 10
0.0
 20
0.0
 30
0.0
  9
$PUCSXDIR
 10
1.0
 20
0.0
 30
0.0
  9
$PUCSYDIR
 10
0.0
 20
1.0
 30
0.0
  9
$PUCSORTHOREF
  2

  9
$PUCSORTHOVIEW
 70
     0
  9
$PUCSORGTOP
 10
0.0
 20
0.0
 30
0.0
  9
$PUCSORGBOTTOM
 10
0.0
 20
0.0
 30
0.0
  9
$PUCSORGLEFT
 10
0.0
 20
0.0
 30
0.0
  9
$PUCSORGRIGHT
 10
0.0
 20
0.0
 30
0.0
  9
$PUCSORGFRONT
 10
0.0
 20
0.0
 30
0.0
  9
$PUCSORGBACK
 10
0.0
 20
0.0
 30
0.0
  9
$USERI1
 70
     0
  9
$USERI2
 70
     0
  9
$USERI3
 70
     0
  9
$USERI4
 70
     0
  9
$USERI5
 70
     0
  9
$USERR1
 40
0.0
  9
$USERR2
 40
0.0
  9
$USERR3
 40
0.0
  9
$USERR4
 40
0.0
  9
$USERR5
 40
0.0
  9
$WORLDVIEW
 70
     1
  9
$SHADEDGE
 70
     3
  9
$SHADEDIF
 70
    70
  9
$TILEMODE
 70
     1
  9
$MAXACTVP
 70
    64
  9
$PINSBASE
 10
0.0
 20
0.0
 30
0.0
  9
$PLIMCHECK
 70
     0
  9
$PEXTMIN
 10
1.000000000000000E+20
 20
1.000000000000000E+20
 30
1.000000000000000E+20
  9
$PEXTMAX
 10
-1.000000000000000E+20
 20
-1.000000000000000E+20
 30
-1.000000000000000E+20
  9
$PLIMMIN
 10
0.0
 20
0.0
  9
$PLIMMAX
 10
420.0
 20
297.0
  9
$UNITMODE
 70
     0
  9
$VISRETAIN
 70
     1
  9
$PLINEGEN
 70
     0
  9
$PSLTSCALE
 70
     1
  9
$TREEDEPTH
 70
  3020
  9
$CMLSTYLE
  2
Standard
  9
$CMLJUST
 70
     0
  9
$CMLSCALE
 40
20.0
  9
$PROXYGRAPHICS
 70
     1
  9
$MEASUREMENT
 70
     1
  9
$CELWEIGHT
370
    -1
  9
$ENDCAPS
280
     0
  9
$JOINSTYLE
280
     0
  9
$LWDISPLAY
290
     0
  9
$INSUNITS
 70
     4
  9
$HYPERLINKBASE
  1

  9
$STYLESHEET
  1
彩色出圖.ctb
  9
$XEDIT
290
     1
  9
$CEPSNTYPE
380
     0
  9
$PSTYLEMODE
290
     1
  9
$FINGERPRINTGUID
  2
{25AFC6F0-9DA1-4431-A483-4DF0D038E6B1}
  9
$VERSIONGUID
  2
{8298101F-602F-45D4-9B13-01B73AA90CCC}
  9
$EXTNAMES
290
     1
  9
$PSVPSCALE
 40
0.0
  9
$OLESTARTUP
290
     0
  0
ENDSEC
  0
SECTION
  2
CLASSES
  0
CLASS
  1
ACDBDICTIONARYWDFLT
  2
AcDbDictionaryWithDefault
  3
ObjectDBX Classes
 90
        0
280
     0
281
     0
  0
CLASS
  1
ACDBPLACEHOLDER
  2
AcDbPlaceHolder
  3
ObjectDBX Classes
 90
        0
280
     0
281
     0
  0
CLASS
  1
LAYOUT
  2
AcDbLayout
  3
ObjectDBX Classes
 90
        0
280
     0
281
     0
  0
CLASS
  1
ACME_DOCUMENT
  2
AcMeDbDoc
  3
AcMeServices
 90
        0
280
     0
281
     0
  0
CLASS
  1
AMGSETTINGSOBJ
  2
AmgSettingsObj
  3
"AcadM|Product Description: AutoCAD Mechanical 2000|Company: Autodesk"
 90
        0
280
     0
281
     0
  0
CLASS
  1
ACMESCOPE
  2
AcMeScope
  3
AcMeServices
 90
        0
280
     0
281
     0
  0
CLASS
  1
ACMECOMMANDHISTORY
  2
AcMeCommandHistory
  3
AcMeServices
 90
        0
280
     0
281
     0
  0
CLASS
  1
ACIMSYSVARMAN
  2
AcImSysVarManager
  3
AcMeServices
 90
        0
280
     0
281
     0
  0
CLASS
  1
ACIMREALSYSVAR
  2
AcImRealSysVar
  3
AcMeServices
 90
        0
280
     0
281
     0
  0
CLASS
  1
ACIMINTSYSVAR
  2
AcImIntSysVar
  3
AcMeServices
 90
        0
280
     0
281
     0
  0
CLASS
  1
ACMEDRAWINGMAN
  2
AcMeDrawingMan
  3
AcMeServices
 90
        0
280
     0
281
     0
  0
CLASS
  1
ACMEVIEW
  2
AcMeView
  3
AcMeServices
 90
        0
280
     0
281
     0
  0
CLASS
  1
ACDBENTITYCACHE
  2
AcMeEntityCache
  3
AcMeServices
 90
        0
280
     0
281
     0
  0
CLASS
  1
GSMANAGER
  2
AcMeGSManager
  3
AcMeServices
 90
        0
280
     0
281
     0
  0
CLASS
  1
AMDTINTERNALREACTOR
  2
AmdtInternalReactor
  3
AcMeServices
 90
        0
280
     0
281
     0
  0
CLASS
  1
ACMESTATEMGR
  2
AcMeStateMgr
  3
AcMeServices
 90
        0
280
     0
281
     0
  0
CLASS
  1
ACGREFMASTER
  2
AcGrefMaster
  3
AcAttribServices
 90
        0
280
     0
281
     0
  0
CLASS
  1
ACME_DATABASE
  2
AcMeDbDatabase
  3
AcMeServices
 90
        0
280
     0
281
     0
  0
CLASS
  1
ACRFINSADJUSTERMGR
  2
AcRfInsAdjusterMgr
  3
AcMeServices
 90
        0
280
     0
281
     0
  0
CLASS
  1
ACGREFACADMASTER
  2
AcGrefacadMaster
  3
AcGrefServices
 90
        0
280
     0
281
     0
  0
CLASS
  1
AMIMASTER
  2
AmiMaster
  3
AmiServices
 90
        0
280
     0
281
     0
  0
CLASS
  1
ACMDATADICTIONARY
  2
AcmDataDictionary
  3
"AcmSymBB|Product Description: AutoCAD Mechanical 2004 DX|Company: Autodesk"
 90
        0
280
     0
281
     0
  0
CLASS
  1
ACMDATAENTRYBLOCK
  2
AcmDataEntryBlock
  3
"AcmSymBB|Product Description: AutoCAD Mechanical 2004 DX|Company: Autodesk"
 90
    32768
280
     0
281
     0
  0
CLASS
  1
ACIMSTRSYSVAR
  2
AcImStrSysVar
  3
AcMeServices
 90
        0
280
     0
281
     0
  0
CLASS
  1
ACMSTANDARDISO
  2
AcmStandardISO
  3
"Amdt_StdImp|Product Description: AutoCAD Mechanical 2004 DX|Company: Autodesk"
 90
        0
280
     0
281
     0
  0
CLASS
  1
AMGOBJPROPCFG
  2
AmgObjPropCfg
  3
"AmgLay|Product Description: AutoCAD Mechanical 2000|Company: Autodesk"
 90
        1
280
     0
281
     0
  0
CLASS
  1
AMDTEDGESTANDARDISO
  2
AmdtEdgeStdISO
  3
"Amdt_StdImp|Product Description: AutoCAD Mechanical 2004 DX|Company: Autodesk"
 90
    32768
280
     0
281
     0
  0
CLASS
  1
ACMSURFSTANDARDISO
  2
AcmSurfTextStdISO
  3
"Amdt_StdImp|Product Description: AutoCAD Mechanical 2004 DX|Company: Autodesk"
 90
        0
280
     0
281
     0
  0
CLASS
  1
ACMFCFSTANDARDISO
  2
AcmFCFStdISO
  3
"Amdt_StdImp|Product Description: AutoCAD Mechanical 2004 DX|Company: Autodesk"
 90
        0
280
     0
281
     0
  0
CLASS
  1
ACMWELDSTANDARDISO
  2
AcmWeldingStdISO
  3
"Amdt_StdImp|Product Description: AutoCAD Mechanical 2004 DX|Company: Autodesk"
 90
        0
280
     0
281
     0
  0
CLASS
  1
ACMIDSTANDARDISO
  2
AcmIdStdISO
  3
"Amdt_StdImp|Product Description: AutoCAD Mechanical 2004 DX|Company: Autodesk"
 90
        0
280
     0
281
     0
  0
CLASS
  1
ACMDATUMSTANDARDISO
  2
AcmDatumStdISO
  3
"Amdt_StdImp|Product Description: AutoCAD Mechanical 2004 DX|Company: Autodesk"
 90
        0
280
     0
281
     0
  0
CLASS
  1
ACMBOMSTANDARDISO
  2
AcmBOMStdISO
  3
"Amdt_StdImp|Product Description: AutoCAD Mechanical 2004 DX|Company: Autodesk"
 90
        0
280
     0
281
     0
  0
CLASS
  1
ACMDETAILSTANDARDISO
  2
AmdtDetailSymStdISO
  3
"Amdt_StdImp|Product Description: AutoCAD Mechanical 2004 DX|Company: Autodesk"
 90
        0
280
     0
281
     0
  0
CLASS
  1
ACMSECTIONSTANDARDISO
  2
AmdtSectionSymStdISO
  3
"Amdt_StdImp|Product Description: AutoCAD Mechanical 2004 DX|Company: Autodesk"
 90
        0
280
     0
281
     0
  0
CLASS
  1
ACMCENTERLINESTANDARDISO
  2
AmdtCenterLineStdISO
  3
"Amdt_StdImp|Product Description: AutoCAD Mechanical 2004 DX|Company: Autodesk"
 90
        0
280
     0
281
     0
  0
CLASS
  1
ACMNOTESTANDARDISO
  2
AmdtNoteStdISO
  3
"Amdt_StdImp|Product Description: AutoCAD Mechanical 2004 DX|Company: Autodesk"
 90
        0
280
     0
281
     0
  0
CLASS
  1
ACAMGLAYSTD
  2
AcAmgLayStd
  3
"AcAmgLayStd|Product Description: AutoCAD Mechanical 2000|Company: Autodesk"
 90
        0
280
     0
281
     0
  0
CLASS
  1
ACAMGDIMSTD
  2
AcAmgDimStd
  3
"AcAmgDimStd|Product Description: AutoCAD Mechanical 2000|Company: Autodesk"
 90
        0
280
     0
281
     0
  0
CLASS
  1
ACAMGHOLECHARTSTDISO
  2
AcAmgHoleChartStdISO
  3
ACMSYMBB_MODULE_NAME
 90
        0
280
     0
281
     0
  0
CLASS
  1
ACAMGTITLESTD
  2
AcAmgTitleStd
  3
"TITLEAPP"
 90
        0
280
     0
281
     0
  0
CLASS
  1
LAYER_INDEX
  2
AcDbLayerIndex
  3
ObjectDBX Classes
 90
    32768
280
     0
281
     0
  0
CLASS
  1
IDBUFFER
  2
AcDbIdBuffer
  3
ObjectDBX Classes
 90
    32768
280
     0
281
     0
  0
CLASS
  1
DICTIONARYVAR
  2
AcDbDictionaryVar
  3
ObjectDBX Classes
 90
        0
280
     0
281
     0
  0
CLASS
  1
AM_DRAWING_MGR
  2
AcDmDwgMgr
  3
AcMechDwgViewMgmt
 90
        0
280
     0
281
     0
  0
CLASS
  1
AM_DWG_DOCUMENT
  2
AcDmDwgDocument
  3
AcMechDwgViewMgmt
 90
        0
280
     0
281
     0
  0
CLASS
  1
AM_DWG_SHEET
  2
AcDmSheet
  3
AcMechDwgViewMgmt
 90
        0
280
     0
281
     0
  0
CLASS
  1
AM_VIEWDIMPARMAP
  2
AcDmViewDimParMap
  3
AcMechDwgViewMgmt
 90
        0
280
     0
281
     0
  0
CLASS
  1
AM_DWGMGR_NAME
  2
AcDmDwgMgrName
  3
AcMechDwgViewMgmt
 90
        0
280
     0
281
     0
  0
CLASS
  1
AMDTMENUSTATEMGR
  2
AmdtMenuStateMgr
  3
McadcomServices
 90
        0
280
     0
281
     0
  0
CLASS
  1
AMDTMCOMMENUSTATE
  2
AmdtMcomMenuState
  3
McadcomServices
 90
        0
280
     0
281
     0
  0
CLASS
  1
MAPIAMMOUDLE
  2
MApiAmModule
  3
MApiAmServices
 90
        0
280
     0
281
     0
  0
CLASS
  1
AMDTADMENUSTATE
  2
AmdtAdMenuState
  3
DesignerServices
 90
        0
280
     0
281
     0
  0
CLASS
  1
ADAPPL
  2
AcAdAppl
  3
DesignerServices
 90
        0
280
     0
281
     0
  0
CLASS
  1
DEPMGR
  2
AcAdDepMgr
  3
DesignerServices
 90
        0
280
     0
281
     0
  0
CLASS
  1
PARAMMGR
  2
AcAdParamMgr
  3
DesignerServices
 90
        0
280
     0
281
     0
  0
CLASS
  1
PARAMSCOPE
  2
AcAdParamScope
  3
DesignerServices
 90
        0
280
     0
281
     0
  0
CLASS
  1
NAMEDAPPL
  2
AcAdNamedAppl
  3
DesignerServices
 90
        0
280
     0
281
     0
  0
CLASS
  1
AMDTDMMENUSTATE
  2
AmdtDmMenuState
  3
AcMechDwgViewMgmt
 90
        0
280
     0
281
     0
  0
CLASS
  1
AMDTAMMENUSTATE
  2
AmdtAmMenuState
  3
DesignerAssemblies
 90
        0
280
     0
281
     0
  0
CLASS
  1
ACAMPROJECT
  2
AcAmProject
  3
DesignerAssemblies
 90
        0
280
     0
281
     0
  0
CLASS
  1
ACAMGRCOMPDEF
  2
AcAmGrCompDef
  3
DesignerAssemblies
 90
        0
280
     0
281
     0
  0
CLASS
  1
ACCMCONTEXT
  2
AcCmContext
  3
DesignerAssemblies
 90
        0
280
     0
281
     0
  0
CLASS
  1
ACAMCOMPDEF
  2
AcAmCompDef
  3
DesignerAssemblies
 90
        0
280
     0
281
     0
  0
CLASS
  1
ACAMCOMPDEFMGR
  2
AcAmCompDefMgr
  3
DesignerAssemblies
 90
        0
280
     0
281
     0
  0
CLASS
  1
AMCONTEXTMGR
  2
AcAmContextMgr
  3
DesignerAssemblies
 90
        0
280
     0
281
     0
  0
CLASS
  1
ACAMCONTEXTMODELER
  2
AcAmContextModeler
  3
DesignerAssemblies
 90
        0
280
     0
281
     0
  0
CLASS
  1
ACMTHREADLINESTANDARDISO
  2
AmdtThreadLineStdISO
  3
"Amdt_StdImp|Product Description: AutoCAD Mechanical 2004 DX|Company: Autodesk"
 90
        0
280
     0
281
     0
  0
CLASS
  1
CATALOGSTATE
  2
AcAmCatalogState
  3
DesignerAssemblies
 90
        0
280
     0
281
     0
  0
CLASS
  1
ACAMGRCOMPDEFSET
  2
AcAmGrCompDefSet
  3
DesignerAssemblies
 90
        0
280
     0
281
     0
  0
CLASS
  1
AMDTBROWSERDBTAB
  2
AmdtBrowserDbTab
  3
McadcomServices
 90
        0
280
     0
281
     0
  0
CLASS
  1
CBROWSERAPPOBJECT
  2
CBrowserAppObject
  3
McadcomServices
 90
        0
280
     0
281
     0
  0
CLASS
  1
DM_PLACEHOLDER
  2
AcDmSelsetPlaceholder
  3
AcMechDwgViewMgmt
 90
        0
280
     0
281
     0
  0
CLASS
  1
TABLESTYLE
  2
AcDbTableStyle
  3
ObjectDBX Classes
 90
     2047
280
     0
281
     0
  0
CLASS
  1
VAACXREFPANELOBJECT
  2
VaAcXREFPanelObject
  3
VAAC_ADDIN
 90
    32768
280
     0
281
     0
  0
CLASS
  1
VAACIMAGEINVENTORY
  2
VaAcImageInventory
  3
VAAC_ADDIN
 90
    32768
280
     0
281
     0
  0
CLASS
  1
AMDTNOTETEMPLATEDB
  2
AmdtNoteTemplateDB
  3
AMDT_STDIMP_MODULE_NAME
 90
        0
280
     0
281
     0
  0
CLASS
  1
ACMBOM
  2
AcmBom
  3
"AcmSymBB|Product Description: AutoCAD Mechanical 2004 DX|Company: Autodesk"
 90
    32768
280
     0
281
     0
  0
CLASS
  1
AMDTFORMULAUPDATEDISPATCHER
  2
AmdtFormulaUpdateDispatcher
  3
AcMeServices
 90
    32768
280
     0
281
     0
  0
CLASS
  1
ACMPARTLIST
  2
AcmPartList
  3
"AcmSymBB|Product Description: AutoCAD Mechanical 2004 DX|Company: Autodesk"
 90
    33791
280
     0
281
     1
  0
CLASS
  1
ACAMGFILTERDAT
  2
AcAmgFilterDat
  3
"AcadM|Product Description: AutoCAD Mechanical 2000|Company: Autodesk"
 90
    32768
280
     0
281
     0
  0
CLASS
  1
DIMASSOC
  2
AcDbDimAssoc
  3
"AcDbDimAssoc|Product Desc:     AcDim ARX App For Dimension|Company:          Autodesk, Inc.|WEB Address:      www.autodesk.com"
 90
        0
280
     0
281
     0
  0
CLASS
  1
SORTENTSTABLE
  2
AcDbSortentsTable
  3
ObjectDBX Classes
 90
        0
280
     0
281
     0
  0
CLASS
  1
AMDTNOTE
  2
AmdtNote
  3
"AcmSymBB|Product Description: AutoCAD Mechanical 2004 DX|Company: Autodesk"
 90
    33791
280
     0
281
     1
  0
CLASS
  1
AMDTEDGESTANDARDISO13715
  2
AmdtEdgeStdISO13715
  3
"Amdt_StdImp|Product Description: AutoCAD Mechanical 2004 DX|Company: Autodesk"
 90
        0
280
     0
281
     0
  0
CLASS
  1
ACRFATTGENMGR
  2
AcRfAttGeneralMgr
  3
AcAttribServices
 90
        0
280
     0
281
     0
  0
ENDSEC
  0
SECTION
  2
TABLES
  0
TABLE
  2
VPORT
  5
8
330
0
100
AcDbSymbolTable
 70
     3
  0
VPORT
  5
3ECE
330
8
100
AcDbSymbolTableRecord
100
AcDbViewportTableRecord
  2
*Active
 70
     0
 10
0.0
 20
0.0
 11
1.0
 21
1.0
 12
724.1523261003571
 22
252.7110590494439
 13
0.0
 23
0.0
 14
2.5
 24
2.5
 15
10.0
 25
10.0
 16
0.0
 26
0.0
 36
1.0
 17
0.0
 27
0.0
 37
0.0
 40
389.3835942181953
 41
0.9093298291721419
 42
50.0
 43
0.0
 44
0.0
 50
0.0
 51
0.0
 71
     0
 72
   100
 73
     1
 74
     3
 75
     0
 76
     0
 77
     0
 78
     0
281
     0
 65
     1
110
0.0
120
0.0
130
0.0
111
1.0
121
0.0
131
0.0
112
0.0
122
1.0
132
0.0
 79
     0
146
0.0
  0
ENDTAB
  0
TABLE
  2
LTYPE
  5
5
330
0
100
AcDbSymbolTable
 70
    14
  0
LTYPE
  5
14
330
5
100
AcDbSymbolTableRecord
100
AcDbLinetypeTableRecord
  2
ByBlock
 70
     0
  3

 72
    65
 73
     0
 40
0.0
  0
LTYPE
  5
15
330
5
100
AcDbSymbolTableRecord
100
AcDbLinetypeTableRecord
  2
ByLayer
 70
     0
  3

 72
    65
 73
     0
 40
0.0
  0
LTYPE
  5
16
330
5
100
AcDbSymbolTableRecord
100
AcDbLinetypeTableRecord
  2
Continuous
 70
     0
  3
Solid line
 72
    65
 73
     0
 40
0.0
  0
LTYPE
  5
64
330
5
100
AcDbSymbolTableRecord
100
AcDbLinetypeTableRecord
  2
AM_ISO02W050
 70
     0
  3
__ __ __ __ __ __ __ __ __ __ __ __ __ __ __
 72
    65
 73
     2
 40
7.5
 49
6.0
 74
     0
 49
-1.5
 74
     0
  0
LTYPE
  5
65
330
5
100
AcDbSymbolTableRecord
100
AcDbLinetypeTableRecord
  2
AM_ISO08W050
 70
     0
  3
____ . ____ . ____ . ____ . ____ . ____ . ____
 72
    65
 73
     4
 40
18.0
 49
12.0
 74
     0
 49
-1.5
 74
     0
 49
3.0
 74
     0
 49
-1.5
 74
     0
  0
LTYPE
  5
66
330
5
100
AcDbSymbolTableRecord
100
AcDbLinetypeTableRecord
  2
AM_ISO09W050
 70
     0
  3
_____ . . _____ . . _____ . . ____ .. ____
 72
    65
 73
     6
 40
22.5
 49
12.0
 74
     0
 49
-1.5
 74
     0
 49
3.0
 74
     0
 49
-1.5
 74
     0
 49
3.0
 74
     0
 49
-1.5
 74
     0
  0
LTYPE
  5
67
330
5
100
AcDbSymbolTableRecord
100
AcDbLinetypeTableRecord
  2
Amconstr
 70
     0
  3
_______________________
 72
    65
 73
     2
 40
9999.0
 49
9999.0
 74
     0
 49
0.0
 74
     0
  0
LTYPE
  5
68
330
5
100
AcDbSymbolTableRecord
100
AcDbLinetypeTableRecord
  2
AM_ISO08W050x2
 70
     0
  3
__ . __ . __ . __ . __ . __
 72
    65
 73
     4
 40
9.0
 49
6.0
 74
     0
 49
-0.75
 74
     0
 49
1.5
 74
     0
 49
-0.75
 74
     0
  0
LTYPE
  5
69
330
5
100
AcDbSymbolTableRecord
100
AcDbLinetypeTableRecord
  2
AM_ISO02W050x2
 70
     0
  3
 _ _ _ _ _ _ _ _ _ _ _ _
 72
    65
 73
     2
 40
3.75
 49
3.0
 74
     0
 49
-0.75
 74
     0
  0
LTYPE
  5
6C
330
5
100
AcDbSymbolTableRecord
100
AcDbLinetypeTableRecord
  2
Amzigzag
 70
     0
  3
/\/-/\/-/\/-/\/-/\/-/\/
 72
    65
 73
     2
 40
11.0001
 49
0.0001
 74
     4
 75
   135
340
6B
 46
0.04
 50
0.0
 44
0.0
 45
0.0
 49
-11.0
 74
     0
  0
LTYPE
  5
7A
330
5
100
AcDbSymbolTableRecord
100
AcDbLinetypeTableRecord
  2
ACISOWELD
 70
     0
  3
_ _ _ _ _
 72
    65
 73
     2
 40
2.0
 49
2.0
 74
     0
 49
-1.0
 74
     0
  0
LTYPE
  5
7B
330
5
100
AcDbSymbolTableRecord
100
AcDbLinetypeTableRecord
  2
ACISOTGB
 70
     0
  3
__ . . __ . .
 72
    65
 73
     6
 40
9.0
 49
4.0
 74
     0
 49
-1.0
 74
     0
 49
1.0
 74
     0
 49
-1.0
 74
     0
 49
1.0
 74
     0
 49
-1.0
 74
     0
  0
LTYPE
  5
7C
330
5
100
AcDbSymbolTableRecord
100
AcDbLinetypeTableRecord
  2
ACISOTGL
 70
     0
  3
_ _ _ _ _
 72
    65
 73
     2
 40
3.0
 49
2.0
 74
     0
 49
-1.0
 74
     0
  0
LTYPE
  5
7E
330
5
100
AcDbSymbolTableRecord
100
AcDbLinetypeTableRecord
  2
CENTER
 70
     0
  3
__ . __
 72
    65
 73
     4
 40
7.0
 49
4.0
 74
     0
 49
-1.0
 74
     0
 49
1.0
 74
     0
 49
-1.0
 74
     0
  0
LTYPE
  5
D8
330
5
100
AcDbSymbolTableRecord
100
AcDbLinetypeTableRecord
  2
HIDDEN
 70
     0
  3
Hidden __ __ __ __ __ __ __ __ __ __ __ __ __ _
 72
    65
 73
     2
 40
9.524999999999998
 49
6.349999999999999
 74
     0
 49
-3.174999999999999
 74
     0
  0
LTYPE
  5
D9
330
5
100
AcDbSymbolTableRecord
100
AcDbLinetypeTableRecord
  2
PHANTOM2
 70
     0
  3
Phantom (.5x) ___ _ _ ___ _ _ ___ _ _ ___ _ _
 72
    65
 73
     6
 40
31.75
 49
15.875
 74
     0
 49
-3.174999999999999
 74
     0
 49
3.174999999999999
 74
     0
 49
-3.174999999999999
 74
     0
 49
3.174999999999999
 74
     0
 49
-3.174999999999999
 74
     0
  0
ENDTAB
  0
TABLE
  2
LAYER
  5
2
102
{ACAD_XDICTIONARY
360
3F9
102
}
330
0
100
AcDbSymbolTable
 70
     8
  0
LAYER
  5
10
330
2
100
AcDbSymbolTableRecord
100
AcDbLayerTableRecord
  2
0
 70
     0
 62
     7
  6
Continuous
370
    -3
390
F
  0
LAYER
  5
AB7
330
2
100
AcDbSymbolTableRecord
100
AcDbLayerTableRecord
  2
AM_5
 70
     0
 62
     5
  6
Continuous
370
    25
390
F
  0
LAYER
  5
AB8
330
2
100
AcDbSymbolTableRecord
100
AcDbLayerTableRecord
  2
Defpoints
 70
     0
 62
     7
  6
Continuous
290
     0
370
    -3
390
F
  0
LAYER
  5
AB9
330
2
100
AcDbSymbolTableRecord
100
AcDbLayerTableRecord
  2
LOGO
 70
     0
 62
     7
  6
Continuous
370
    -3
390
F
  0
LAYER
  5
ABA
330
2
100
AcDbSymbolTableRecord
100
AcDbLayerTableRecord
  2
AM_VIS
 70
     0
 62
     7
  6
Continuous
370
    50
390
F
  0
LAYER
  5
ABB
330
2
100
AcDbSymbolTableRecord
100
AcDbLayerTableRecord
  2
AM_7
 70
     0
 62
     1
  6
AM_ISO08W050
370
    25
390
F
  0
LAYER
  5
ABC
330
2
100
AcDbSymbolTableRecord
100
AcDbLayerTableRecord
  2
AM_4
 70
     0
 62
     3
  6
Continuous
370
    25
390
F
  0
LAYER
  5
EF2
330
2
100
AcDbSymbolTableRecord
100
AcDbLayerTableRecord
  2
SL
 70
     0
 62
     4
  6
Continuous
370
    -3
390
F
1001
AcAecLayerStandard
1000

1000

  0
ENDTAB
  0
TABLE
  2
STYLE
  5
3
330
0
100
AcDbSymbolTable
 70
     6
  0
STYLE
  5
11
330
3
100
AcDbSymbolTableRecord
100
AcDbTextStyleTableRecord
  2
STANDARD
 70
     0
 40
0.0
 41
1.0
 50
0.0
 71
     0
 42
3.0
  3
ISOCP.SHX
  4
CHINESET.SHX
  0
STYLE
  5
6B
330
3
100
AcDbSymbolTableRecord
100
AcDbTextStyleTableRecord
  2

 70
     1
 40
0.0
 41
1.0
 50
0.0
 71
     0
 42
2.5
  3
ltypeshp.shx
  4

  0
STYLE
  5
6D
330
3
100
AcDbSymbolTableRecord
100
AcDbTextStyleTableRecord
  2
ACISOTS
 70
     0
 40
1.0
 41
1.0
 50
0.0
 71
     0
 42
1.0
  3
isocp.shx
  4
chineset.shx
  0
STYLE
  5
79
330
3
100
AcDbSymbolTableRecord
100
AcDbTextStyleTableRecord
  2
ACISOGDT
 70
     0
 40
0.0
 41
1.0
 50
0.0
 71
     0
 42
2.5
  3
amgdt.shx
  4
chineset.shx
  0
STYLE
  5
ABE
330
3
100
AcDbSymbolTableRecord
100
AcDbTextStyleTableRecord
  2
CHINESET
 70
     0
 40
0.0
 41
0.75
 50
0.0
 71
     0
 42
3.0
  3
simplex.shx
  4
CHINESET.SHX
  0
STYLE
  5
1999
330
3
100
AcDbSymbolTableRecord
100
AcDbTextStyleTableRecord
  2
DAYUS
 70
     0
 40
0.0
 41
1.0
 50
0.0
 71
     0
 42
2.5
  3
simplex.shx
  4
dayus.shx
  0
ENDTAB
  0
TABLE
  2
VIEW
  5
6
330
0
100
AcDbSymbolTable
 70
     0
  0
ENDTAB
  0
TABLE
  2
UCS
  5
7
330
0
100
AcDbSymbolTable
 70
     0
  0
ENDTAB
  0
TABLE
  2
APPID
  5
9
330
0
100
AcDbSymbolTable
 70
    22
  0
APPID
  5
12
330
9
100
AcDbSymbolTableRecord
100
AcDbRegAppTableRecord
  2
ACAD
 70
     0
  0
APPID
  5
46
330
9
100
AcDbSymbolTableRecord
100
AcDbRegAppTableRecord
  2
MCAD_NO_VIS
 70
     0
  0
APPID
  5
47
330
9
100
AcDbSymbolTableRecord
100
AcDbRegAppTableRecord
  2
ACAD_TEMP_GRAPHIC
 70
     0
  0
APPID
  5
58
330
9
100
AcDbSymbolTableRecord
100
AcDbRegAppTableRecord
  2
ACATTRIBSERVICES
 70
     0
  0
APPID
  5
EE
330
9
100
AcDbSymbolTableRecord
100
AcDbRegAppTableRecord
  2
AD_DRAW
 70
     0
  0
APPID
  5
10C
330
9
100
AcDbSymbolTableRecord
100
AcDbRegAppTableRecord
  2
DESIGNERASSEMBLIES
 70
     0
  0
APPID
  5
111
330
9
100
AcDbSymbolTableRecord
100
AcDbRegAppTableRecord
  2
ACADM_DIM_EDIT
 70
     0
  0
APPID
  5
112
330
9
100
AcDbSymbolTableRecord
100
AcDbRegAppTableRecord
  2
AMDT_DM_ADJ
 70
     0
  0
APPID
  5
22C
330
9
100
AcDbSymbolTableRecord
100
AcDbRegAppTableRecord
  2
ACAD_DSTYLE_DIMTEXT_FILL
 70
     0
  0
APPID
  5
452
330
9
100
AcDbSymbolTableRecord
100
AcDbRegAppTableRecord
  2
GENIUS_GENOENT_13
 70
     0
  0
APPID
  5
453
330
9
100
AcDbSymbolTableRecord
100
AcDbRegAppTableRecord
  2
GENIUS_GENOBJ-N-CRS_13
 70
     0
  0
APPID
  5
454
330
9
100
AcDbSymbolTableRecord
100
AcDbRegAppTableRecord
  2
GENIUS_GENOLIS_13
 70
     0
  0
APPID
  5
455
330
9
100
AcDbSymbolTableRecord
100
AcDbRegAppTableRecord
  2
GENIUS_GENODEF_13
 70
     0
  0
APPID
  5
456
330
9
100
AcDbSymbolTableRecord
100
AcDbRegAppTableRecord
  2
GENIUS_GENOREF_13
 70
     0
  0
APPID
  5
6F3
330
9
100
AcDbSymbolTableRecord
100
AcDbRegAppTableRecord
  2
ACAD_PSEXT
 70
     0
  0
APPID
  5
808
330
9
100
AcDbSymbolTableRecord
100
AcDbRegAppTableRecord
  2
GENIUS_GENDTOL_13
 70
     0
  0
APPID
  5
AC0
330
9
100
AcDbSymbolTableRecord
100
AcDbRegAppTableRecord
  2
GENIUS_GENREC_14
 70
     0
  0
APPID
  5
AC1
330
9
100
AcDbSymbolTableRecord
100
AcDbRegAppTableRecord
  2
GENIUS_GENOBJ-N-REC_13
 70
     0
  0
APPID
  5
AC2
330
9
100
AcDbSymbolTableRecord
100
AcDbRegAppTableRecord
  2
GENIUS_GENOBJ-N-CEN_13
 70
     0
  0
APPID
  5
AC3
330
9
100
AcDbSymbolTableRecord
100
AcDbRegAppTableRecord
  2
GENIUS_GENCEN_19
 70
     0
  0
APPID
  5
EF3
330
9
100
AcDbSymbolTableRecord
100
AcDbRegAppTableRecord
  2
AcAecLayerStandard
 70
     0
  0
APPID
  5
31B8
330
9
100
AcDbSymbolTableRecord
100
AcDbRegAppTableRecord
  2
GENIUS_GENDIMSH_14
 70
     0
  0
ENDTAB
  0
TABLE
  2
DIMSTYLE
  5
A
330
0
100
AcDbSymbolTable
 70
    10
100
AcDbDimStyleTable
 71
     4
340
81
340
199A
340
8B
340
86
  0
DIMSTYLE
105
81
330
A
100
AcDbSymbolTableRecord
100
AcDbDimStyleTableRecord
  2
AM_ISO
 70
     0
  4
"
 41
3.0
 42
1.0
 43
8.0
 44
1.5
 47
0.1
 48
0.1
 73
     0
 74
     0
 77
     1
 78
     8
 79
     2
140
3.5
141
0.0
143
0.0393701
146
0.6
147
0.7
172
     1
176
   256
177
   256
178
   256
271
     2
272
     2
283
     0
284
     8
340
11
371
    -1
372
    -1
  0
DIMSTYLE
105
82
102
{ACAD_REACTORS
330
3010
102
}
330
A
100
AcDbSymbolTableRecord
100
AcDbDimStyleTableRecord
  2
AM_ISO$3
 70
     0
  4
"
 41
3.0
 42
1.0
 43
8.0
 44
1.5
 47
0.1
 48
0.1
 73
     0
 77
     1
 78
     8
 79
     2
140
3.5
141
0.0
143
0.0393701
146
0.6
147
0.7
176
   256
177
   256
178
   256
271
     2
272
     2
283
     0
284
     8
288
     1
289
     0
340
11
371
    -1
372
    -1
  0
DIMSTYLE
105
83
102
{ACAD_REACTORS
330
3343
102
}
330
A
100
AcDbSymbolTableRecord
100
AcDbDimStyleTableRecord
  2
AM_ISO$4
 70
     0
  4
"
 41
3.0
 42
1.0
 43
8.0
 44
1.5
 47
0.1
 48
0.1
 73
     0
 77
     1
 78
     8
 79
     2
140
3.5
141
0.0
143
0.0393701
146
0.6
147
0.7
176
   256
177
   256
178
   256
271
     2
272
     2
283
     0
284
     8
288
     1
289
     0
340
11
371
    -1
372
    -1
  0
DIMSTYLE
105
84
330
A
100
AcDbSymbolTableRecord
100
AcDbDimStyleTableRecord
  2
AM_ISO$6
 70
     0
  4
"
 41
3.0
 42
1.0
 43
8.0
 44
1.5
 47
0.1
 48
0.1
 73
     0
 74
     0
 78
     8
 79
     2
140
3.5
141
0.0
143
0.0393701
146
0.6
147
0.7
172
     1
176
   256
177
   256
178
   256
271
     2
272
     2
283
     0
284
     8
340
11
371
    -1
372
    -1
  0
DIMSTYLE
105
85
330
A
100
AcDbSymbolTableRecord
100
AcDbDimStyleTableRecord
  2
AM_ISO$7
 70
     0
  4
"
 41
3.0
 42
1.0
 43
8.0
 44
1.5
 47
0.1
 48
0.1
 73
     0
 74
     0
 77
     1
 78
     8
 79
     2
140
3.5
141
0.0
143
0.0393701
146
0.6
147
0.7
172
     1
176
   256
177
   256
178
   256
271
     2
272
     2
283
     0
284
     8
340
11
371
    -1
372
    -1
  0
DIMSTYLE
105
86
330
A
100
AcDbSymbolTableRecord
100
AcDbDimStyleTableRecord
  2
AM_ISO$SF
 70
     0
  4
"
 41
2.5
 42
1.0
 43
10.0
 44
1.0
 47
0.1
 48
0.1
 73
     0
 74
     0
 75
     1
 76
     1
 77
     1
 78
     8
 79
     2
140
3.5
141
0.0
143
0.0393701
146
0.71
147
1.5
172
     1
176
   256
177
   256
178
   256
271
     2
272
     3
274
     4
283
     0
284
     8
340
11
371
    -1
372
    -1
  0
DIMSTYLE
105
8B
330
A
100
AcDbSymbolTableRecord
100
AcDbDimStyleTableRecord
  2
AM_ISO$SH
 70
     0
  4
"
 41
2.5
 42
1.0
 43
10.0
 44
1.0
 47
0.1
 48
0.1
 73
     0
 74
     0
 75
     1
 76
     1
 77
     1
 78
     8
 79
     2
140
3.5
141
0.0
143
0.0393701
144
2.0
146
0.71
147
1.5
172
     1
173
     1
176
   256
177
   256
178
   256
271
     2
272
     3
274
     4
283
     0
284
     8
340
11
343
87
371
    -1
372
    -1
  0
DIMSTYLE
105
40B
102
{ACAD_REACTORS
330
209B
330
2112
330
2121
330
2122
330
2127
330
2128
330
2129
330
212D
330
212E
330
217C
330
217E
330
217F
330
2180
330
2181
330
2182
330
2183
330
2184
330
2C65
330
2F54
330
2F76
102
}
330
A
100
AcDbSymbolTableRecord
100
AcDbDimStyleTableRecord
  2
AM_ISO$0
 70
     0
  4
"
 41
3.0
 42
1.0
 43
8.0
 44
1.5
 47
0.1
 48
0.1
 73
     0
 74
     0
 77
     1
 78
     8
 79
     2
140
3.5
141
0.0
143
0.0393701
146
0.6
147
0.7
172
     1
176
   256
177
   256
178
   256
271
     2
272
     2
283
     0
284
     8
340
11
371
    -1
372
    -1
  0
DIMSTYLE
105
199A
330
A
100
AcDbSymbolTableRecord
100
AcDbDimStyleTableRecord
  2
AM_ANSI
 70
     0
  4
"
 40
0.8333333333333333
 41
3.0
 42
1.5
 43
6.666666666
 44
2.0
 47
0.1
 48
0.1
 73
     0
 74
     0
 77
     3
 78
     8
 79
     2
140
3.0
141
0.0
143
0.0393701
146
0.6
147
0.8
172
     1
176
   256
177
   256
178
   256
271
     2
272
     2
284
     8
340
1999
371
    -1
372
    -1
  0
DIMSTYLE
105
199B
102
{ACAD_REACTORS
330
2131
102
}
330
A
100
AcDbSymbolTableRecord
100
AcDbDimStyleTableRecord
  2
AM_ANSI$3
 70
     0
  4
"
 40
0.8333333333333333
 41
3.0
 42
1.5
 43
6.666666666
 44
2.0
 47
0.1
 48
0.1
 73
     0
 74
     0
 77
     3
 78
     8
 79
     2
140
3.0
141
0.0
143
0.0393701
146
0.6
147
0.8
172
     1
176
   256
177
   256
178
   256
271
     2
272
     2
284
     8
288
     1
289
     0
340
1999
371
    -1
372
    -1
  0
ENDTAB
  0
TABLE
  2
BLOCK_RECORD
  5
1
330
0
100
AcDbSymbolTable
 70
    29
  0
BLOCK_RECORD
  5
1F
102
{ACAD_XDICTIONARY
360
8F
102
}
330
1
100
AcDbSymbolTableRecord
100
AcDbBlockTableRecord
  2
*Model_Space
340
22
  0
BLOCK_RECORD
  5
1B
330
1
100
AcDbSymbolTableRecord
100
AcDbBlockTableRecord
  2
*Paper_Space
340
1E
  0
BLOCK_RECORD
  5
23
330
1
100
AcDbSymbolTableRecord
100
AcDbBlockTableRecord
  2
*Paper_Space0
340
26
  0
BLOCK_RECORD
  5
87
330
1
100
AcDbSymbolTableRecord
100
AcDbBlockTableRecord
  2
GENAXEH
340
0
  0
BLOCK_RECORD
  5
26FA
330
1
100
AcDbSymbolTableRecord
100
AcDbBlockTableRecord
  2
*D2
340
0
  0
BLOCK_RECORD
  5
272A
330
1
100
AcDbSymbolTableRecord
100
AcDbBlockTableRecord
  2
*D3
340
0
  0
BLOCK_RECORD
  5
2742
330
1
100
AcDbSymbolTableRecord
100
AcDbBlockTableRecord
  2
*D4
340
0
  0
BLOCK_RECORD
  5
2750
330
1
100
AcDbSymbolTableRecord
100
AcDbBlockTableRecord
  2
*D5
340
0
  0
BLOCK_RECORD
  5
278D
330
1
100
AcDbSymbolTableRecord
100
AcDbBlockTableRecord
  2
*D6
340
0
  0
BLOCK_RECORD
  5
2799
330
1
100
AcDbSymbolTableRecord
100
AcDbBlockTableRecord
  2
*D7
340
0
  0
BLOCK_RECORD
  5
27A5
330
1
100
AcDbSymbolTableRecord
100
AcDbBlockTableRecord
  2
*D8
340
0
  0
BLOCK_RECORD
  5
27D1
330
1
100
AcDbSymbolTableRecord
100
AcDbBlockTableRecord
  2
*D9
340
0
  0
BLOCK_RECORD
  5
27DD
330
1
100
AcDbSymbolTableRecord
100
AcDbBlockTableRecord
  2
*D10
340
0
  0
BLOCK_RECORD
  5
2801
330
1
100
AcDbSymbolTableRecord
100
AcDbBlockTableRecord
  2
*D11
340
0
  0
BLOCK_RECORD
  5
2879
330
1
100
AcDbSymbolTableRecord
100
AcDbBlockTableRecord
  2
*D12
340
0
  0
BLOCK_RECORD
  5
2891
330
1
100
AcDbSymbolTableRecord
100
AcDbBlockTableRecord
  2
*D13
340
0
  0
BLOCK_RECORD
  5
289D
330
1
100
AcDbSymbolTableRecord
100
AcDbBlockTableRecord
  2
*D14
340
0
  0
BLOCK_RECORD
  5
28AA
330
1
100
AcDbSymbolTableRecord
100
AcDbBlockTableRecord
  2
*D15
340
0
  0
BLOCK_RECORD
  5
28B6
330
1
100
AcDbSymbolTableRecord
100
AcDbBlockTableRecord
  2
*D16
340
0
  0
BLOCK_RECORD
  5
28C2
330
1
100
AcDbSymbolTableRecord
100
AcDbBlockTableRecord
  2
*D17
340
0
  0
BLOCK_RECORD
  5
28CE
330
1
100
AcDbSymbolTableRecord
100
AcDbBlockTableRecord
  2
*D18
340
0
  0
BLOCK_RECORD
  5
28DA
330
1
100
AcDbSymbolTableRecord
100
AcDbBlockTableRecord
  2
*D19
340
0
  0
BLOCK_RECORD
  5
2931
330
1
100
AcDbSymbolTableRecord
100
AcDbBlockTableRecord
  2
*D20
340
0
  0
BLOCK_RECORD
  5
2C66
330
1
100
AcDbSymbolTableRecord
100
AcDbBlockTableRecord
  2
*D21
340
0
  0
BLOCK_RECORD
  5
2F17
102
{ACAD_XDICTIONARY
360
2F1B
102
}
330
1
100
AcDbSymbolTableRecord
100
AcDbBlockTableRecord
  2
A$C0B032DDE
340
0
102
{BLKREFS
331
2F1F
331
2F42
102
}
  0
BLOCK_RECORD
  5
2F55
330
1
100
AcDbSymbolTableRecord
100
AcDbBlockTableRecord
  2
*D23
340
0
  0
BLOCK_RECORD
  5
2F77
330
1
100
AcDbSymbolTableRecord
100
AcDbBlockTableRecord
  2
*D24
340
0
  0
BLOCK_RECORD
  5
3011
330
1
100
AcDbSymbolTableRecord
100
AcDbBlockTableRecord
  2
*D25
340
0
  0
BLOCK_RECORD
  5
3297
102
{ACAD_XDICTIONARY
360
32AA
102
}
330
1
100
AcDbSymbolTableRecord
100
AcDbBlockTableRecord
  2
A$C3C0B3F06
340
0
102
{BLKREFS
331
32AE
102
}
  0
BLOCK_RECORD
  5
3344
330
1
100
AcDbSymbolTableRecord
100
AcDbBlockTableRecord
  2
*D27
340
0
  0
ENDTAB
  0
ENDSEC
  0
SECTION
  2
BLOCKS
  0
BLOCK
  5
20
330
1F
100
AcDbEntity
  8
0
100
AcDbBlockBegin
  2
*Model_Space
 70
     0
 10
0.0
 20
0.0
 30
0.0
  3
*Model_Space
  1

  0
ENDBLK
  5
21
330
1F
100
AcDbEntity
  8
0
100
AcDbBlockEnd
  0
BLOCK
  5
1C
330
1B
100
AcDbEntity
 67
     1
  8
0
100
AcDbBlockBegin
  2
*Paper_Space
 70
     0
 10
0.0
 20
0.0
 30
0.0
  3
*Paper_Space
  1

  0
ENDBLK
  5
1D
330
1B
100
AcDbEntity
 67
     1
  8
0
100
AcDbBlockEnd
  0
BLOCK
  5
24
330
23
100
AcDbEntity
  8
0
100
AcDbBlockBegin
  2
*Paper_Space0
 70
     0
 10
0.0
 20
0.0
 30
0.0
  3
*Paper_Space0
  1

  0
ENDBLK
  5
25
330
23
100
AcDbEntity
  8
0
100
AcDbBlockEnd
  0
BLOCK
  5
89
330
87
100
AcDbEntity
  8
0
100
AcDbBlockBegin
  2
GENAXEH
 70
     0
 10
0.0
 20
0.0
 30
0.0
  3
GENAXEH
  1

  0
LINE
  5
88
330
87
100
AcDbEntity
  8
0
100
AcDbLine
 10
-1.0
 20
0.0
 30
0.0
 11
1.0
 21
0.0
 31
0.0
  0
ENDBLK
  5
8A
330
87
100
AcDbEntity
  8
0
100
AcDbBlockEnd
  0
BLOCK
  5
2704
330
26FA
100
AcDbEntity
  8
0
100
AcDbBlockBegin
  2
*D2
 70
     1
 10
0.0
 20
0.0
 30
0.0
  3
*D2
  1

  0
LINE
  5
360C
330
26FA
100
AcDbEntity
  8
AM_5
100
AcDbLine
 10
609.2053427931135
 20
206.0674913726402
 30
0.0
 11
567.7945094611135
 21
206.0674913726402
 31
0.0
  0
LINE
  5
360D
330
26FA
100
AcDbEntity
  8
AM_5
100
AcDbLine
 10
589.4278427931135
 20
178.5674913726402
 30
0.0
 11
567.7945094611135
 21
178.5674913726402
 31
0.0
  0
LINE
  5
360E
330
26FA
100
AcDbEntity
  8
AM_5
100
AcDbLine
 10
569.2945094611135
 20
203.0674913726402
 30
0.0
 11
569.2945094611135
 21
181.5674913726402
 31
0.0
  0
SOLID
  5
360F
330
26FA
100
AcDbEntity
  8
AM_5
100
AcDbTrace
 10
568.7945094611135
 20
203.0674913726402
 30
0.0
 11
569.7945094611135
 21
203.0674913726402
 31
0.0
 12
569.2945094611135
 22
206.0674913726402
 32
0.0
 13
569.2945094611135
 23
206.0674913726402
 33
0.0
  0
SOLID
  5
3610
330
26FA
100
AcDbEntity
  8
AM_5
100
AcDbTrace
 10
568.7945094611135
 20
181.5674913726402
 30
0.0
 11
569.7945094611135
 21
181.5674913726402
 31
0.0
 12
569.2945094611135
 22
178.5674913726402
 32
0.0
 13
569.2945094611135
 23
178.5674913726402
 33
0.0
  0
MTEXT
  5
3611
330
26FA
100
AcDbEntity
  8
AM_5
100
AcDbMText
 10
566.8441649729245
 20
192.3174913726403
 30
0.0
 40
3.5
 41
0.0
 71
     5
 72
     1
  1
27.5
 11
0.0000000000000001
 21
1.0
 31
0.0
 73
     1
 44
1.0
1001
ACAD
1000
MTEXTBEGIN
1070
    73
1070
     1
1070
    44
1040
1.0
1070
    74
1070
     0
1000
MTEXTEND
  0
POINT
  5
3612
330
26FA
100
AcDbEntity
  8
Defpoints
 62
     0
100
AcDbPoint
 10
610.2053427931135
 20
206.0674913726402
 30
0.0
  0
POINT
  5
3613
330
26FA
100
AcDbEntity
  8
Defpoints
 62
     0
100
AcDbPoint
 10
590.4278427931135
 20
178.5674913726402
 30
0.0
  0
POINT
  5
3614
330
26FA
100
AcDbEntity
  8
Defpoints
 62
     0
100
AcDbPoint
 10
569.2945094611135
 20
178.5674913726402
 30
0.0
  0
ENDBLK
  5
2705
330
26FA
100
AcDbEntity
  8
0
100
AcDbBlockEnd
  0
BLOCK
  5
2734
330
272A
100
AcDbEntity
  8
0
100
AcDbBlockBegin
  2
*D3
 70
     1
 10
0.0
 20
0.0
 30
0.0
  3
*D3
  1

  0
LINE
  5
3615
330
272A
100
AcDbEntity
  8
AM_5
100
AcDbLine
 10
697.53828763709
 20
177.5674913726402
 30
0.0
 11
697.53828763709
 21
152.0674913726402
 31
0.0
  0
LINE
  5
3616
330
272A
100
AcDbEntity
  8
AM_5
100
AcDbLine
 10
765.53828763709
 20
177.5674913726402
 30
0.0
 11
765.53828763709
 21
152.0674913726402
 31
0.0
  0
LINE
  5
3617
330
272A
100
AcDbEntity
  8
AM_5
100
AcDbLine
 10
700.5382876370901
 20
153.5674913726402
 30
0.0
 11
762.5382876370901
 21
153.5674913726402
 31
0.0
  0
SOLID
  5
3618
330
272A
100
AcDbEntity
  8
AM_5
100
AcDbTrace
 10
700.5382876370901
 20
154.0674913726402
 30
0.0
 11
700.5382876370901
 21
153.0674913726402
 31
0.0
 12
697.53828763709
 22
153.5674913726402
 32
0.0
 13
697.53828763709
 23
153.5674913726402
 33
0.0
  0
SOLID
  5
3619
330
272A
100
AcDbEntity
  8
AM_5
100
AcDbTrace
 10
762.5382876370901
 20
154.0674913726402
 30
0.0
 11
762.5382876370901
 21
153.0674913726402
 31
0.0
 12
765.53828763709
 22
153.5674913726402
 32
0.0
 13
765.53828763709
 23
153.5674913726402
 33
0.0
  0
MTEXT
  5
361A
330
272A
100
AcDbEntity
  8
AM_5
100
AcDbMText
 10
731.53828763709
 20
156.0174913726402
 30
0.0
 40
3.5
 41
0.0
 71
     5
 72
     1
  1
68
 73
     1
 44
1.0
1001
ACAD
1000
MTEXTBEGIN
1070
    73
1070
     1
1070
    44
1040
1.0
1070
    74
1070
     0
1000
MTEXTEND
  0
POINT
  5
361B
330
272A
100
AcDbEntity
  8
Defpoints
 62
     0
100
AcDbPoint
 10
697.53828763709
 20
178.5674913726402
 30
0.0
  0
POINT
  5
361C
330
272A
100
AcDbEntity
  8
Defpoints
 62
     0
100
AcDbPoint
 10
765.53828763709
 20
178.5674913726402
 30
0.0
  0
POINT
  5
361D
330
272A
100
AcDbEntity
  8
Defpoints
 62
     0
100
AcDbPoint
 10
765.53828763709
 20
153.5674913726402
 30
0.0
  0
ENDBLK
  5
2735
330
272A
100
AcDbEntity
  8
0
100
AcDbBlockEnd
  0
BLOCK
  5
274E
330
2742
100
AcDbEntity
  8
0
100
AcDbBlockBegin
  2
*D4
 70
     1
 10
0.0
 20
0.0
 30
0.0
  3
*D4
  1

  0
LINE
  5
361E
330
2742
100
AcDbEntity
  8
AM_5
100
AcDbLine
 10
595.4278427931135
 20
282.1674913726403
 30
0.0
 11
595.4278427931135
 21
244.9174913726402
 31
0.0
  0
LINE
  5
361F
330
2742
100
AcDbEntity
  8
AM_5
100
AcDbLine
 10
590.4278427931135
 20
257.4174913726403
 30
0.0
 11
590.4278427931135
 21
244.9174913726402
 31
0.0
  0
LINE
  5
3620
330
2742
100
AcDbEntity
  8
AM_5
100
AcDbLine
 10
598.4278427931135
 20
246.4174913726402
 30
0.0
 11
601.4278427931135
 21
246.4174913726402
 31
0.0
  0
LINE
  5
3621
330
2742
100
AcDbEntity
  8
AM_5
100
AcDbLine
 10
587.4278427931135
 20
246.4174913726402
 30
0.0
 11
584.4278427931135
 21
246.4174913726402
 31
0.0
  0
LINE
  5
3622
330
2742
100
AcDbEntity
  8
AM_5
100
AcDbLine
 10
595.4278427931135
 20
246.4174913726402
 30
0.0
 11
590.4278427931135
 21
246.4174913726402
 31
0.0
  0
SOLID
  5
3623
330
2742
100
AcDbEntity
  8
AM_5
100
AcDbTrace
 10
598.4278427931135
 20
246.9174913726402
 30
0.0
 11
598.4278427931135
 21
245.9174913726402
 31
0.0
 12
595.4278427931135
 22
246.4174913726402
 32
0.0
 13
595.4278427931135
 23
246.4174913726402
 33
0.0
  0
SOLID
  5
3624
330
2742
100
AcDbEntity
  8
AM_5
100
AcDbTrace
 10
587.4278427931135
 20
246.9174913726402
 30
0.0
 11
587.4278427931135
 21
245.9174913726402
 31
0.0
 12
590.4278427931135
 22
246.4174913726402
 32
0.0
 13
590.4278427931135
 23
246.4174913726402
 33
0.0
  0
MTEXT
  5
3625
330
2742
100
AcDbEntity
  8
AM_5
100
AcDbMText
 10
592.9278427931135
 20
248.8674913726402
 30
0.0
 40
3.5
 41
0.0
 71
     5
 72
     1
  1
5
 73
     1
 44
1.0
1001
ACAD
1000
MTEXTBEGIN
1070
    73
1070
     1
1070
    44
1040
1.0
1070
    74
1070
     0
1000
MTEXTEND
  0
POINT
  5
3626
330
2742
100
AcDbEntity
  8
Defpoints
 62
     0
100
AcDbPoint
 10
595.4278427931135
 20
283.1674913726402
 30
0.0
  0
POINT
  5
3627
330
2742
100
AcDbEntity
  8
Defpoints
 62
     0
100
AcDbPoint
 10
590.4278427931135
 20
258.4174913726402
 30
0.0
  0
POINT
  5
3628
330
2742
100
AcDbEntity
  8
Defpoints
 62
     0
100
AcDbPoint
 10
590.4278427931135
 20
246.4174913726402
 30
0.0
  0
ENDBLK
  5
274F
330
2742
100
AcDbEntity
  8
0
100
AcDbBlockEnd
  0
BLOCK
  5
275A
330
2750
100
AcDbEntity
  8
0
100
AcDbBlockBegin
  2
*D5
 70
     1
 10
0.0
 20
0.0
 30
0.0
  3
*D5
  1

  0
LINE
  5
3629
330
2750
100
AcDbEntity
  8
AM_5
100
AcDbLine
 10
590.4278427931135
 20
257.4174913726403
 30
0.0
 11
590.4278427931135
 21
236.9174913726402
 31
0.0
  0
LINE
  5
362A
330
2750
100
AcDbEntity
  8
AM_5
100
AcDbLine
 10
649.9278427931137
 20
257.4174913726403
 30
0.0
 11
649.9278427931137
 21
236.9174913726402
 31
0.0
  0
LINE
  5
362B
330
2750
100
AcDbEntity
  8
AM_5
100
AcDbLine
 10
593.4278427931135
 20
238.4174913726402
 30
0.0
 11
646.9278427931136
 21
238.4174913726402
 31
0.0
  0
SOLID
  5
362C
330
2750
100
AcDbEntity
  8
AM_5
100
AcDbTrace
 10
593.4278427931135
 20
238.9174913726402
 30
0.0
 11
593.4278427931135
 21
237.9174913726402
 31
0.0
 12
590.4278427931135
 22
238.4174913726402
 32
0.0
 13
590.4278427931135
 23
238.4174913726402
 33
0.0
  0
SOLID
  5
362D
330
2750
100
AcDbEntity
  8
AM_5
100
AcDbTrace
 10
646.9278427931136
 20
238.9174913726402
 30
0.0
 11
646.9278427931136
 21
237.9174913726402
 31
0.0
 12
649.9278427931137
 22
238.4174913726402
 32
0.0
 13
649.9278427931137
 23
238.4174913726402
 33
0.0
  0
MTEXT
  5
362E
330
2750
100
AcDbEntity
  8
AM_5
100
AcDbMText
 10
620.1778427931135
 20
240.8674913726402
 30
0.0
 40
3.5
 41
0.0
 71
     5
 72
     1
  1
L
 73
     1
 44
1.0
1001
ACAD
1000
MTEXTBEGIN
1070
    73
1070
     1
1070
    44
1040
1.0
1070
    74
1070
     0
1000
MTEXTEND
  0
POINT
  5
362F
330
2750
100
AcDbEntity
  8
Defpoints
 62
     0
100
AcDbPoint
 10
590.4278427931135
 20
258.4174913726402
 30
0.0
  0
POINT
  5
3630
330
2750
100
AcDbEntity
  8
Defpoints
 62
     0
100
AcDbPoint
 10
649.9278427931137
 20
258.4174913726402
 30
0.0
  0
POINT
  5
3631
330
2750
100
AcDbEntity
  8
Defpoints
 62
     0
100
AcDbPoint
 10
649.9278427931137
 20
238.4174913726402
 30
0.0
  0
ENDBLK
  5
275B
330
2750
100
AcDbEntity
  8
0
100
AcDbBlockEnd
  0
BLOCK
  5
2797
330
278D
100
AcDbEntity
  8
0
100
AcDbBlockBegin
  2
*D6
 70
     1
 10
0.0
 20
0.0
 30
0.0
  3
*D6
  1

  0
LINE
  5
3632
330
278D
100
AcDbEntity
  8
AM_5
100
AcDbLine
 10
650.9278427931136
 20
258.4174913726402
 30
0.0
 11
660.6778427931137
 21
258.4174913726402
 31
0.0
  0
LINE
  5
3633
330
278D
100
AcDbEntity
  8
AM_5
100
AcDbLine
 10
650.1778427931136
 20
287.4174913726402
 30
0.0
 11
660.6778427931137
 21
287.4174913726402
 31
0.0
  0
LINE
  5
3634
330
278D
100
AcDbEntity
  8
AM_5
100
AcDbLine
 10
659.1778427931136
 20
261.4174913726403
 30
0.0
 11
659.1778427931136
 21
284.4174913726403
 31
0.0
  0
SOLID
  5
3635
330
278D
100
AcDbEntity
  8
AM_5
100
AcDbTrace
 10
658.6778427931136
 20
261.4174913726403
 30
0.0
 11
659.6778427931136
 21
261.4174913726403
 31
0.0
 12
659.1778427931136
 22
258.4174913726402
 32
0.0
 13
659.1778427931136
 23
258.4174913726402
 33
0.0
  0
SOLID
  5
3636
330
278D
100
AcDbEntity
  8
AM_5
100
AcDbTrace
 10
658.6778427931136
 20
284.4174913726403
 30
0.0
 11
659.6778427931136
 21
284.4174913726403
 31
0.0
 12
659.1778427931136
 22
287.4174913726402
 32
0.0
 13
659.1778427931136
 23
287.4174913726402
 33
0.0
  0
MTEXT
  5
3637
330
278D
100
AcDbEntity
  8
AM_5
100
AcDbMText
 10
656.7274983049245
 20
272.9174913726404
 30
0.0
 40
3.5
 41
0.0
 71
     5
 72
     1
  1
29
 11
0.0000000000000001
 21
1.0
 31
0.0
 73
     1
 44
1.0
1001
ACAD
1000
MTEXTBEGIN
1070
    73
1070
     1
1070
    44
1040
1.0
1070
    74
1070
     0
1000
MTEXTEND
  0
POINT
  5
3638
330
278D
100
AcDbEntity
  8
Defpoints
 62
     0
100
AcDbPoint
 10
649.9278427931137
 20
258.4174913726402
 30
0.0
  0
POINT
  5
3639
330
278D
100
AcDbEntity
  8
Defpoints
 62
     0
100
AcDbPoint
 10
649.1778427931136
 20
287.4174913726402
 30
0.0
  0
POINT
  5
363A
330
278D
100
AcDbEntity
  8
Defpoints
 62
     0
100
AcDbPoint
 10
659.1778427931136
 20
287.4174913726402
 30
0.0
  0
ENDBLK
  5
2798
330
278D
100
AcDbEntity
  8
0
100
AcDbBlockEnd
  0
BLOCK
  5
27A3
330
2799
100
AcDbEntity
  8
0
100
AcDbBlockBegin
  2
*D7
 70
     1
 10
0.0
 20
0.0
 30
0.0
  3
*D7
  1

  0
LINE
  5
363B
330
2799
100
AcDbEntity
  8
AM_5
100
AcDbLine
 10
650.1778427931136
 20
287.4174913726402
 30
0.0
 11
660.6778427931137
 21
287.4174913726402
 31
0.0
  0
LINE
  5
363C
330
2799
100
AcDbEntity
  8
AM_5
100
AcDbLine
 10
650.1778427931136
 20
307.4174913726403
 30
0.0
 11
660.6778427931137
 21
307.4174913726403
 31
0.0
  0
LINE
  5
363D
330
2799
100
AcDbEntity
  8
AM_5
100
AcDbLine
 10
659.1778427931136
 20
290.4174913726403
 30
0.0
 11
659.1778427931136
 21
304.4174913726402
 31
0.0
  0
SOLID
  5
363E
330
2799
100
AcDbEntity
  8
AM_5
100
AcDbTrace
 10
658.6778427931136
 20
290.4174913726403
 30
0.0
 11
659.6778427931136
 21
290.4174913726403
 31
0.0
 12
659.1778427931136
 22
287.4174913726402
 32
0.0
 13
659.1778427931136
 23
287.4174913726402
 33
0.0
  0
SOLID
  5
363F
330
2799
100
AcDbEntity
  8
AM_5
100
AcDbTrace
 10
658.6778427931136
 20
304.4174913726402
 30
0.0
 11
659.6778427931136
 21
304.4174913726402
 31
0.0
 12
659.1778427931136
 22
307.4174913726403
 32
0.0
 13
659.1778427931136
 23
307.4174913726403
 33
0.0
  0
MTEXT
  5
3640
330
2799
100
AcDbEntity
  8
AM_5
100
AcDbMText
 10
656.7274983049245
 20
297.4174913726404
 30
0.0
 40
3.5
 41
0.0
 71
     5
 72
     1
  1
20
 11
0.0000000000000001
 21
1.0
 31
0.0
 73
     1
 44
1.0
1001
ACAD
1000
MTEXTBEGIN
1070
    73
1070
     1
1070
    44
1040
1.0
1070
    74
1070
     0
1000
MTEXTEND
  0
POINT
  5
3641
330
2799
100
AcDbEntity
  8
Defpoints
 62
     0
100
AcDbPoint
 10
649.1778427931136
 20
287.4174913726402
 30
0.0
  0
POINT
  5
3642
330
2799
100
AcDbEntity
  8
Defpoints
 62
     0
100
AcDbPoint
 10
649.1778427931136
 20
307.4174913726403
 30
0.0
  0
POINT
  5
3643
330
2799
100
AcDbEntity
  8
Defpoints
 62
     0
100
AcDbPoint
 10
659.1778427931136
 20
307.4174913726403
 30
0.0
  0
ENDBLK
  5
27A4
330
2799
100
AcDbEntity
  8
0
100
AcDbBlockEnd
  0
BLOCK
  5
27AF
330
27A5
100
AcDbEntity
  8
0
100
AcDbBlockBegin
  2
*D8
 70
     1
 10
0.0
 20
0.0
 30
0.0
  3
*D8
  1

  0
LINE
  5
3644
330
27A5
100
AcDbEntity
  8
AM_5
100
AcDbLine
 10
589.4278427931135
 20
258.4174913726402
 30
0.0
 11
573.9278427931135
 21
258.4174913726402
 31
0.0
  0
LINE
  5
3645
330
27A5
100
AcDbEntity
  8
AM_5
100
AcDbLine
 10
588.1778427931135
 20
296.4174913726402
 30
0.0
 11
573.9278427931135
 21
296.4174913726402
 31
0.0
  0
LINE
  5
3646
330
27A5
100
AcDbEntity
  8
AM_5
100
AcDbLine
 10
575.4278427931135
 20
261.4174913726403
 30
0.0
 11
575.4278427931135
 21
293.4174913726403
 31
0.0
  0
SOLID
  5
3647
330
27A5
100
AcDbEntity
  8
AM_5
100
AcDbTrace
 10
574.9278427931135
 20
261.4174913726403
 30
0.0
 11
575.9278427931135
 21
261.4174913726403
 31
0.0
 12
575.4278427931135
 22
258.4174913726402
 32
0.0
 13
575.4278427931135
 23
258.4174913726402
 33
0.0
  0
SOLID
  5
3648
330
27A5
100
AcDbEntity
  8
AM_5
100
AcDbTrace
 10
574.9278427931135
 20
293.4174913726403
 30
0.0
 11
575.9278427931135
 21
293.4174913726403
 31
0.0
 12
575.4278427931135
 22
296.4174913726402
 32
0.0
 13
575.4278427931135
 23
296.4174913726402
 33
0.0
  0
MTEXT
  5
3649
330
27A5
100
AcDbEntity
  8
AM_5
100
AcDbMText
 10
572.9778427931133
 20
277.4174913726403
 30
0.0
 40
3.5
 41
0.0
 71
     5
 72
     1
  1
38
 11
0.0000000000000001
 21
1.0
 31
0.0
 73
     1
 44
1.0
1001
ACAD
1000
MTEXTBEGIN
1070
    73
1070
     1
1070
    44
1040
1.0
1070
    74
1070
     0
1000
MTEXTEND
  0
POINT
  5
364A
330
27A5
100
AcDbEntity
  8
Defpoints
 62
     0
100
AcDbPoint
 10
590.4278427931135
 20
258.4174913726402
 30
0.0
  0
POINT
  5
364B
330
27A5
100
AcDbEntity
  8
Defpoints
 62
     0
100
AcDbPoint
 10
589.1778427931135
 20
296.4174913726402
 30
0.0
  0
POINT
  5
364C
330
27A5
100
AcDbEntity
  8
Defpoints
 62
     0
100
AcDbPoint
 10
575.4278427931135
 20
296.4174913726402
 30
0.0
  0
ENDBLK
  5
27B0
330
27A5
100
AcDbEntity
  8
0
100
AcDbBlockEnd
  0
BLOCK
  5
27DB
330
27D1
100
AcDbEntity
  8
0
100
AcDbBlockBegin
  2
*D9
 70
     1
 10
0.0
 20
0.0
 30
0.0
  3
*D9
  1

  0
LINE
  5
364D
330
27D1
100
AcDbEntity
  8
AM_5
100
AcDbLine
 10
586.9278427931135
 20
296.4174913726402
 30
0.0
 11
581.9278427931135
 21
296.4174913726402
 31
0.0
  0
LINE
  5
364E
330
27D1
100
AcDbEntity
  8
AM_5
100
AcDbLine
 10
601.3283427931136
 20
278.4174913726403
 30
0.0
 11
581.9278427931135
 21
278.4174913726403
 31
0.0
  0
LINE
  5
364F
330
27D1
100
AcDbEntity
  8
AM_5
100
AcDbLine
 10
583.4278427931135
 20
293.4174913726403
 30
0.0
 11
583.4278427931135
 21
281.4174913726402
 31
0.0
  0
SOLID
  5
3650
330
27D1
100
AcDbEntity
  8
AM_5
100
AcDbTrace
 10
582.9278427931135
 20
293.4174913726403
 30
0.0
 11
583.9278427931135
 21
293.4174913726403
 31
0.0
 12
583.4278427931135
 22
296.4174913726402
 32
0.0
 13
583.4278427931135
 23
296.4174913726402
 33
0.0
  0
SOLID
  5
3651
330
27D1
100
AcDbEntity
  8
AM_5
100
AcDbTrace
 10
582.9278427931135
 20
281.4174913726402
 30
0.0
 11
583.9278427931135
 21
281.4174913726402
 31
0.0
 12
583.4278427931135
 22
278.4174913726403
 32
0.0
 13
583.4278427931135
 23
278.4174913726403
 33
0.0
  0
MTEXT
  5
3652
330
27D1
100
AcDbEntity
  8
AM_5
100
AcDbMText
 10
580.9778427931133
 20
287.4174913726403
 30
0.0
 40
3.5
 41
0.0
 71
     5
 72
     1
  1
18
 11
0.0000000000000001
 21
1.0
 31
0.0
 73
     1
 44
1.0
1001
ACAD
1000
MTEXTBEGIN
1070
    73
1070
     1
1070
    44
1040
1.0
1070
    74
1070
     0
1000
MTEXTEND
  0
POINT
  5
3653
330
27D1
100
AcDbEntity
  8
Defpoints
 62
     0
100
AcDbPoint
 10
587.9278427931135
 20
296.4174913726402
 30
0.0
  0
POINT
  5
3654
330
27D1
100
AcDbEntity
  8
Defpoints
 62
     0
100
AcDbPoint
 10
602.3283427931136
 20
278.4174913726403
 30
0.0
  0
POINT
  5
3655
330
27D1
100
AcDbEntity
  8
Defpoints
 62
     0
100
AcDbPoint
 10
583.4278427931135
 20
278.4174913726403
 30
0.0
  0
ENDBLK
  5
27DC
330
27D1
100
AcDbEntity
  8
0
100
AcDbBlockEnd
  0
BLOCK
  5
27E7
330
27DD
100
AcDbEntity
  8
0
100
AcDbBlockBegin
  2
*D10
 70
     1
 10
0.0
 20
0.0
 30
0.0
  3
*D10
  1

  0
LINE
  5
3656
330
27DD
100
AcDbEntity
  8
AM_5
100
AcDbLine
 10
588.1778427931135
 20
296.4174913726402
 30
0.0
 11
581.9278427931135
 21
296.4174913726402
 31
0.0
  0
LINE
  5
3657
330
27DD
100
AcDbEntity
  8
AM_5
100
AcDbLine
 10
612.9283427931135
 20
314.4174913726403
 30
0.0
 11
581.9278427931135
 21
314.4174913726403
 31
0.0
  0
LINE
  5
3658
330
27DD
100
AcDbEntity
  8
AM_5
100
AcDbLine
 10
583.4278427931135
 20
299.4174913726403
 30
0.0
 11
583.4278427931135
 21
311.4174913726403
 31
0.0
  0
SOLID
  5
3659
330
27DD
100
AcDbEntity
  8
AM_5
100
AcDbTrace
 10
582.9278427931135
 20
299.4174913726403
 30
0.0
 11
583.9278427931135
 21
299.4174913726403
 31
0.0
 12
583.4278427931135
 22
296.4174913726402
 32
0.0
 13
583.4278427931135
 23
296.4174913726402
 33
0.0
  0
SOLID
  5
365A
330
27DD
100
AcDbEntity
  8
AM_5
100
AcDbTrace
 10
582.9278427931135
 20
311.4174913726403
 30
0.0
 11
583.9278427931135
 21
311.4174913726403
 31
0.0
 12
583.4278427931135
 22
314.4174913726403
 32
0.0
 13
583.4278427931135
 23
314.4174913726403
 33
0.0
  0
MTEXT
  5
365B
330
27DD
100
AcDbEntity
  8
AM_5
100
AcDbMText
 10
580.9778427931133
 20
305.4174913726403
 30
0.0
 40
3.5
 41
0.0
 71
     5
 72
     1
  1
18
 11
0.0000000000000001
 21
1.0
 31
0.0
 73
     1
 44
1.0
1001
ACAD
1000
MTEXTBEGIN
1070
    73
1070
     1
1070
    44
1040
1.0
1070
    74
1070
     0
1000
MTEXTEND
  0
POINT
  5
365C
330
27DD
100
AcDbEntity
  8
Defpoints
 62
     0
100
AcDbPoint
 10
589.1778427931135
 20
296.4174913726402
 30
0.0
  0
POINT
  5
365D
330
27DD
100
AcDbEntity
  8
Defpoints
 62
     0
100
AcDbPoint
 10
613.9283427931135
 20
314.4174913726403
 30
0.0
  0
POINT
  5
365E
330
27DD
100
AcDbEntity
  8
Defpoints
 62
     0
100
AcDbPoint
 10
583.4278427931135
 20
314.4174913726403
 30
0.0
  0
ENDBLK
  5
27E8
330
27DD
100
AcDbEntity
  8
0
100
AcDbBlockEnd
  0
BLOCK
  5
280B
330
2801
100
AcDbEntity
  8
0
100
AcDbBlockBegin
  2
*D11
 70
     1
 10
0.0
 20
0.0
 30
0.0
  3
*D11
  1

  0
LINE
  5
30CF
330
2801
100
AcDbEntity
  8
AM_5
100
AcDbLine
 10
683.2721880312097
 20
326.4174913726403
 30
0.0
 11
657.6278427931145
 21
326.4174913726403
 31
0.0
  0
LINE
  5
30D0
330
2801
100
AcDbEntity
  8
AM_5
100
AcDbLine
 10
657.6278427931145
 20
326.4174913726403
 30
0.0
 11
647.5674631877893
 21
311.3665297583754
 31
0.0
  0
MTEXT
  5
30D1
330
2801
100
AcDbEntity
  8
AM_5
100
AcDbMText
 10
670.7833487454954
 20
328.334158039307
 30
0.0
 40
2.5
 41
0.0
 71
     5
 72
     1
  1
\A1;2×2-\U+22054.5貫通
  7
DAYUS
 73
     1
 44
1.0
1001
ACAD
1000
MTEXTBEGIN
1070
    73
1070
     1
1070
    44
1040
1.0
1070
    74
1070
     0
1000
MTEXTEND
  0
SOLID
  5
30D2
330
2801
100
AcDbEntity
  8
AM_5
100
AcDbTrace
 10
647.2210563118476
 20
311.5980754070311
 30
0.0
 11
647.9138700637311
 21
311.1349841097196
 31
0.0
 12
646.1781892958547
 22
309.2880885027252
 32
0.0
 13
646.1781892958547
 23
309.2880885027252
 33
0.0
  0
POINT
  5
30D3
330
2801
100
AcDbEntity
  8
Defpoints
 62
     0
100
AcDbPoint
 10
646.1781892958547
 20
309.2880885027252
 30
0.0
  0
POINT
  5
30D4
330
2801
100
AcDbEntity
  8
Defpoints
 62
     0
100
AcDbPoint
 10
643.6774962903723
 20
305.5468942425549
 30
0.0
  0
ENDBLK
  5
280C
330
2801
100
AcDbEntity
  8
0
100
AcDbBlockEnd
  0
BLOCK
  5
2883
330
2879
100
AcDbEntity
  8
0
100
AcDbBlockBegin
  2
*D12
 70
     1
 10
0.0
 20
0.0
 30
0.0
  3
*D12
  1

  0
LINE
  5
365F
330
2879
100
AcDbEntity
  8
AM_5
100
AcDbLine
 10
600.7053427931135
 20
188.5674913726402
 30
0.0
 11
574.4611761271136
 21
188.5674913726402
 31
0.0
  0
LINE
  5
3660
330
2879
100
AcDbEntity
  8
AM_5
100
AcDbLine
 10
589.4278427931135
 20
178.5674913726402
 30
0.0
 11
574.4611761271136
 21
178.5674913726402
 31
0.0
  0
LINE
  5
3661
330
2879
100
AcDbEntity
  8
AM_5
100
AcDbLine
 10
575.9611761271136
 20
185.5674913726402
 30
0.0
 11
575.9611761271136
 21
181.5674913726402
 31
0.0
  0
SOLID
  5
3662
330
2879
100
AcDbEntity
  8
AM_5
100
AcDbTrace
 10
575.4611761271136
 20
185.5674913726402
 30
0.0
 11
576.4611761271136
 21
185.5674913726402
 31
0.0
 12
575.9611761271136
 22
188.5674913726402
 32
0.0
 13
575.9611761271136
 23
188.5674913726402
 33
0.0
  0
SOLID
  5
3663
330
2879
100
AcDbEntity
  8
AM_5
100
AcDbTrace
 10
575.4611761271136
 20
181.5674913726402
 30
0.0
 11
576.4611761271136
 21
181.5674913726402
 31
0.0
 12
575.9611761271136
 22
178.5674913726402
 32
0.0
 13
575.9611761271136
 23
178.5674913726402
 33
0.0
  0
MTEXT
  5
3664
330
2879
100
AcDbEntity
  8
AM_5
100
AcDbMText
 10
573.5111761271135
 20
183.5674913726403
 30
0.0
 40
3.5
 41
0.0
 71
     5
 72
     1
  1
10
 11
0.0000000000000001
 21
1.0
 31
0.0
 73
     1
 44
1.0
1001
ACAD
1000
MTEXTBEGIN
1070
    73
1070
     1
1070
    44
1040
1.0
1070
    74
1070
     0
1000
MTEXTEND
  0
POINT
  5
3665
330
2879
100
AcDbEntity
  8
Defpoints
 62
     0
100
AcDbPoint
 10
601.7053427931135
 20
188.5674913726402
 30
0.0
  0
POINT
  5
3666
330
2879
100
AcDbEntity
  8
Defpoints
 62
     0
100
AcDbPoint
 10
590.4278427931135
 20
178.5674913726402
 30
0.0
  0
POINT
  5
3667
330
2879
100
AcDbEntity
  8
Defpoints
 62
     0
100
AcDbPoint
 10
575.9611761271136
 20
178.5674913726402
 30
0.0
  0
ENDBLK
  5
2884
330
2879
100
AcDbEntity
  8
0
100
AcDbBlockEnd
  0
BLOCK
  5
289B
330
2891
100
AcDbEntity
  8
0
100
AcDbBlockBegin
  2
*D13
 70
     1
 10
0.0
 20
0.0
 30
0.0
  3
*D13
  1

  0
LINE
  5
3668
330
2891
100
AcDbEntity
  8
AM_5
100
AcDbLine
 10
609.4278427931135
 20
179.8449913726402
 30
0.0
 11
609.4278427931135
 21
160.55082470664
 31
0.0
  0
LINE
  5
3669
330
2891
100
AcDbEntity
  8
AM_5
100
AcDbLine
 10
590.4278427931135
 20
177.5674913726402
 30
0.0
 11
590.4278427931135
 21
160.55082470664
 31
0.0
  0
LINE
  5
366A
330
2891
100
AcDbEntity
  8
AM_5
100
AcDbLine
 10
606.4278427931135
 20
162.05082470664
 30
0.0
 11
593.4278427931135
 21
162.05082470664
 31
0.0
  0
SOLID
  5
366B
330
2891
100
AcDbEntity
  8
AM_5
100
AcDbTrace
 10
606.4278427931135
 20
162.55082470664
 30
0.0
 11
606.4278427931135
 21
161.55082470664
 31
0.0
 12
609.4278427931135
 22
162.05082470664
 32
0.0
 13
609.4278427931135
 23
162.05082470664
 33
0.0
  0
SOLID
  5
366C
330
2891
100
AcDbEntity
  8
AM_5
100
AcDbTrace
 10
593.4278427931135
 20
162.55082470664
 30
0.0
 11
593.4278427931135
 21
161.55082470664
 31
0.0
 12
590.4278427931135
 22
162.05082470664
 32
0.0
 13
590.4278427931135
 23
162.05082470664
 33
0.0
  0
MTEXT
  5
366D
330
2891
100
AcDbEntity
  8
AM_5
100
AcDbMText
 10
599.9278427931135
 20
164.50082470664
 30
0.0
 40
3.5
 41
0.0
 71
     5
 72
     1
  1
19
 73
     1
 44
1.0
1001
ACAD
1000
MTEXTBEGIN
1070
    73
1070
     1
1070
    44
1040
1.0
1070
    74
1070
     0
1000
MTEXTEND
  0
POINT
  5
366E
330
2891
100
AcDbEntity
  8
Defpoints
 62
     0
100
AcDbPoint
 10
609.4278427931135
 20
180.8449913726402
 30
0.0
  0
POINT
  5
366F
330
2891
100
AcDbEntity
  8
Defpoints
 62
     0
100
AcDbPoint
 10
590.4278427931135
 20
178.5674913726402
 30
0.0
  0
POINT
  5
3670
330
2891
100
AcDbEntity
  8
Defpoints
 62
     0
100
AcDbPoint
 10
590.4278427931135
 20
162.05082470664
 30
0.0
  0
ENDBLK
  5
289C
330
2891
100
AcDbEntity
  8
0
100
AcDbBlockEnd
  0
BLOCK
  5
28A8
330
289D
100
AcDbEntity
  8
0
100
AcDbBlockBegin
  2
*D14
 70
     1
 10
0.0
 20
0.0
 30
0.0
  3
*D14
  1

  0
LINE
  5
3671
330
289D
100
AcDbEntity
  8
AM_5
100
AcDbLine
 10
609.4278427931135
 20
179.8449913726402
 30
0.0
 11
609.4278427931135
 21
160.5508247066401
 31
0.0
  0
LINE
  5
3672
330
289D
100
AcDbEntity
  8
AM_5
100
AcDbLine
 10
626.9278427931136
 20
179.8449913726402
 30
0.0
 11
626.9278427931136
 21
160.5508247066401
 31
0.0
  0
LINE
  5
3673
330
289D
100
AcDbEntity
  8
AM_5
100
AcDbLine
 10
612.4278427931135
 20
162.0508247066401
 30
0.0
 11
623.9278427931136
 21
162.0508247066401
 31
0.0
  0
SOLID
  5
3674
330
289D
100
AcDbEntity
  8
AM_5
100
AcDbTrace
 10
612.4278427931135
 20
162.5508247066401
 30
0.0
 11
612.4278427931135
 21
161.5508247066401
 31
0.0
 12
609.4278427931135
 22
162.0508247066401
 32
0.0
 13
609.4278427931135
 23
162.0508247066401
 33
0.0
  0
SOLID
  5
3675
330
289D
100
AcDbEntity
  8
AM_5
100
AcDbTrace
 10
623.9278427931136
 20
162.5508247066401
 30
0.0
 11
623.9278427931136
 21
161.5508247066401
 31
0.0
 12
626.9278427931136
 22
162.0508247066401
 32
0.0
 13
626.9278427931136
 23
162.0508247066401
 33
0.0
  0
MTEXT
  5
3676
330
289D
100
AcDbEntity
  8
AM_5
100
AcDbMText
 10
618.1778427931135
 20
164.5008247066401
 30
0.0
 40
3.5
 41
0.0
 71
     5
 72
     1
  1
P=17.5
 73
     1
 44
1.0
1001
ACAD
1000
MTEXTBEGIN
1070
    73
1070
     1
1070
    44
1040
1.0
1070
    74
1070
     0
1000
MTEXTEND
  0
POINT
  5
3677
330
289D
100
AcDbEntity
  8
Defpoints
 62
     0
100
AcDbPoint
 10
609.4278427931135
 20
180.8449913726402
 30
0.0
  0
POINT
  5
3678
330
289D
100
AcDbEntity
  8
Defpoints
 62
     0
100
AcDbPoint
 10
626.9278427931136
 20
180.8449913726402
 30
0.0
  0
POINT
  5
3679
330
289D
100
AcDbEntity
  8
Defpoints
 62
     0
100
AcDbPoint
 10
626.9278427931136
 20
162.0508247066401
 30
0.0
  0
ENDBLK
  5
28A9
330
289D
100
AcDbEntity
  8
0
100
AcDbBlockEnd
  0
BLOCK
  5
28B4
330
28AA
100
AcDbEntity
  8
0
100
AcDbBlockBegin
  2
*D15
 70
     1
 10
0.0
 20
0.0
 30
0.0
  3
*D15
  1

  0
LINE
  5
367A
330
28AA
100
AcDbEntity
  8
AM_5
100
AcDbLine
 10
609.4278427931135
 20
179.8449913726402
 30
0.0
 11
609.4278427931135
 21
167.2174913726401
 31
0.0
  0
LINE
  5
367B
330
28AA
100
AcDbEntity
  8
AM_5
100
AcDbLine
 10
617.9278427931136
 20
197.3449913726402
 30
0.0
 11
617.9278427931136
 21
167.2174913726401
 31
0.0
  0
LINE
  5
367C
330
28AA
100
AcDbEntity
  8
AM_5
100
AcDbLine
 10
612.4278427931135
 20
168.7174913726401
 30
0.0
 11
614.9278427931136
 21
168.7174913726401
 31
0.0
  0
SOLID
  5
367D
330
28AA
100
AcDbEntity
  8
AM_5
100
AcDbTrace
 10
612.4278427931135
 20
169.2174913726401
 30
0.0
 11
612.4278427931135
 21
168.2174913726401
 31
0.0
 12
609.4278427931135
 22
168.7174913726401
 32
0.0
 13
609.4278427931135
 23
168.7174913726401
 33
0.0
  0
SOLID
  5
367E
330
28AA
100
AcDbEntity
  8
AM_5
100
AcDbTrace
 10
614.9278427931136
 20
169.2174913726401
 30
0.0
 11
614.9278427931136
 21
168.2174913726401
 31
0.0
 12
617.9278427931136
 22
168.7174913726401
 32
0.0
 13
617.9278427931136
 23
168.7174913726401
 33
0.0
  0
MTEXT
  5
367F
330
28AA
100
AcDbEntity
  8
AM_5
100
AcDbMText
 10
613.6778427931135
 20
171.1674913726401
 30
0.0
 40
3.5
 41
0.0
 71
     5
 72
     1
  1
8.5
 73
     1
 44
1.0
1001
ACAD
1000
MTEXTBEGIN
1070
    73
1070
     1
1070
    44
1040
1.0
1070
    74
1070
     0
1000
MTEXTEND
  0
POINT
  5
3680
330
28AA
100
AcDbEntity
  8
Defpoints
 62
     0
100
AcDbPoint
 10
609.4278427931135
 20
180.8449913726402
 30
0.0
  0
POINT
  5
3681
330
28AA
100
AcDbEntity
  8
Defpoints
 62
     0
100
AcDbPoint
 10
617.9278427931136
 20
198.3449913726402
 30
0.0
  0
POINT
  5
3682
330
28AA
100
AcDbEntity
  8
Defpoints
 62
     0
100
AcDbPoint
 10
617.9278427931136
 20
168.7174913726401
 30
0.0
  0
ENDBLK
  5
28B5
330
28AA
100
AcDbEntity
  8
0
100
AcDbBlockEnd
  0
BLOCK
  5
28C0
330
28B6
100
AcDbEntity
  8
0
100
AcDbBlockBegin
  2
*D16
 70
     1
 10
0.0
 20
0.0
 30
0.0
  3
*D16
  1

  0
LINE
  5
3683
330
28B6
100
AcDbEntity
  8
AM_5
100
AcDbLine
 10
736.5382876370901
 20
187.4449913726402
 30
0.0
 11
736.5382876370901
 21
160.0674913726402
 31
0.0
  0
LINE
  5
3684
330
28B6
100
AcDbEntity
  8
AM_5
100
AcDbLine
 10
697.53828763709
 20
177.5674913726402
 30
0.0
 11
697.53828763709
 21
160.0674913726402
 31
0.0
  0
LINE
  5
3685
330
28B6
100
AcDbEntity
  8
AM_5
100
AcDbLine
 10
733.5382876370901
 20
161.5674913726402
 30
0.0
 11
700.5382876370901
 21
161.5674913726402
 31
0.0
  0
SOLID
  5
3686
330
28B6
100
AcDbEntity
  8
AM_5
100
AcDbTrace
 10
733.5382876370901
 20
162.0674913726402
 30
0.0
 11
733.5382876370901
 21
161.0674913726402
 31
0.0
 12
736.5382876370901
 22
161.5674913726402
 32
0.0
 13
736.5382876370901
 23
161.5674913726402
 33
0.0
  0
SOLID
  5
3687
330
28B6
100
AcDbEntity
  8
AM_5
100
AcDbTrace
 10
700.5382876370901
 20
162.0674913726402
 30
0.0
 11
700.5382876370901
 21
161.0674913726402
 31
0.0
 12
697.53828763709
 22
161.5674913726402
 32
0.0
 13
697.53828763709
 23
161.5674913726402
 33
0.0
  0
MTEXT
  5
3688
330
28B6
100
AcDbEntity
  8
AM_5
100
AcDbMText
 10
717.0382876370901
 20
164.0174913726402
 30
0.0
 40
3.5
 41
0.0
 71
     5
 72
     1
  1
39
 73
     1
 44
1.0
1001
ACAD
1000
MTEXTBEGIN
1070
    73
1070
     1
1070
    44
1040
1.0
1070
    74
1070
     0
1000
MTEXTEND
  0
POINT
  5
3689
330
28B6
100
AcDbEntity
  8
Defpoints
 62
     0
100
AcDbPoint
 10
736.5382876370901
 20
188.4449913726402
 30
0.0
  0
POINT
  5
368A
330
28B6
100
AcDbEntity
  8
Defpoints
 62
     0
100
AcDbPoint
 10
697.53828763709
 20
178.5674913726402
 30
0.0
  0
POINT
  5
368B
330
28B6
100
AcDbEntity
  8
Defpoints
 62
     0
100
AcDbPoint
 10
697.53828763709
 20
161.5674913726402
 30
0.0
  0
ENDBLK
  5
28C1
330
28B6
100
AcDbEntity
  8
0
100
AcDbBlockEnd
  0
BLOCK
  5
28CC
330
28C2
100
AcDbEntity
  8
0
100
AcDbBlockBegin
  2
*D17
 70
     1
 10
0.0
 20
0.0
 30
0.0
  3
*D17
  1

  0
LINE
  5
368C
330
28C2
100
AcDbEntity
  8
AM_5
100
AcDbLine
 10
736.5382876370901
 20
187.4449913726402
 30
0.0
 11
736.5382876370901
 21
168.0674913726402
 31
0.0
  0
LINE
  5
368D
330
28C2
100
AcDbEntity
  8
AM_5
100
AcDbLine
 10
756.53828763709
 20
187.4449913726402
 30
0.0
 11
756.53828763709
 21
168.0674913726402
 31
0.0
  0
LINE
  5
368E
330
28C2
100
AcDbEntity
  8
AM_5
100
AcDbLine
 10
739.53828763709
 20
169.5674913726402
 30
0.0
 11
753.5382876370901
 21
169.5674913726402
 31
0.0
  0
SOLID
  5
368F
330
28C2
100
AcDbEntity
  8
AM_5
100
AcDbTrace
 10
739.53828763709
 20
170.0674913726402
 30
0.0
 11
739.53828763709
 21
169.0674913726402
 31
0.0
 12
736.5382876370901
 22
169.5674913726402
 32
0.0
 13
736.5382876370901
 23
169.5674913726402
 33
0.0
  0
SOLID
  5
3690
330
28C2
100
AcDbEntity
  8
AM_5
100
AcDbTrace
 10
753.5382876370901
 20
170.0674913726402
 30
0.0
 11
753.5382876370901
 21
169.0674913726402
 31
0.0
 12
756.53828763709
 22
169.5674913726402
 32
0.0
 13
756.53828763709
 23
169.5674913726402
 33
0.0
  0
MTEXT
  5
3691
330
28C2
100
AcDbEntity
  8
AM_5
100
AcDbMText
 10
746.5382876370901
 20
172.0178358608292
 30
0.0
 40
3.5
 41
0.0
 71
     5
 72
     1
  1
20
 73
     1
 44
1.0
1001
ACAD
1000
MTEXTBEGIN
1070
    73
1070
     1
1070
    44
1040
1.0
1070
    74
1070
     0
1000
MTEXTEND
  0
POINT
  5
3692
330
28C2
100
AcDbEntity
  8
Defpoints
 62
     0
100
AcDbPoint
 10
736.5382876370901
 20
188.4449913726402
 30
0.0
  0
POINT
  5
3693
330
28C2
100
AcDbEntity
  8
Defpoints
 62
     0
100
AcDbPoint
 10
756.53828763709
 20
188.4449913726402
 30
0.0
  0
POINT
  5
3694
330
28C2
100
AcDbEntity
  8
Defpoints
 62
     0
100
AcDbPoint
 10
756.53828763709
 20
169.5674913726402
 30
0.0
  0
ENDBLK
  5
28CD
330
28C2
100
AcDbEntity
  8
0
100
AcDbBlockEnd
  0
BLOCK
  5
28D8
330
28CE
100
AcDbEntity
  8
0
100
AcDbBlockBegin
  2
*D18
 70
     1
 10
0.0
 20
0.0
 30
0.0
  3
*D18
  1

  0
LINE
  5
3695
330
28CE
100
AcDbEntity
  8
AM_5
100
AcDbLine
 10
736.5382876370901
 20
187.4449913726402
 30
0.0
 11
736.5382876370901
 21
168.0674913726402
 31
0.0
  0
LINE
  5
3696
330
28CE
100
AcDbEntity
  8
AM_5
100
AcDbLine
 10
716.5382876370901
 20
187.4449913726402
 30
0.0
 11
716.5382876370901
 21
168.0674913726402
 31
0.0
  0
LINE
  5
3697
330
28CE
100
AcDbEntity
  8
AM_5
100
AcDbLine
 10
733.5382876370901
 20
169.5674913726402
 30
0.0
 11
719.53828763709
 21
169.5674913726402
 31
0.0
  0
SOLID
  5
3698
330
28CE
100
AcDbEntity
  8
AM_5
100
AcDbTrace
 10
733.5382876370901
 20
170.0674913726402
 30
0.0
 11
733.5382876370901
 21
169.0674913726402
 31
0.0
 12
736.5382876370901
 22
169.5674913726402
 32
0.0
 13
736.5382876370901
 23
169.5674913726402
 33
0.0
  0
SOLID
  5
3699
330
28CE
100
AcDbEntity
  8
AM_5
100
AcDbTrace
 10
719.53828763709
 20
170.0674913726402
 30
0.0
 11
719.53828763709
 21
169.0674913726402
 31
0.0
 12
716.5382876370901
 22
169.5674913726402
 32
0.0
 13
716.5382876370901
 23
169.5674913726402
 33
0.0
  0
MTEXT
  5
369A
330
28CE
100
AcDbEntity
  8
AM_5
100
AcDbMText
 10
726.53828763709
 20
172.0178358608292
 30
0.0
 40
3.5
 41
0.0
 71
     5
 72
     1
  1
20
 73
     1
 44
1.0
1001
ACAD
1000
MTEXTBEGIN
1070
    73
1070
     1
1070
    44
1040
1.0
1070
    74
1070
     0
1000
MTEXTEND
  0
POINT
  5
369B
330
28CE
100
AcDbEntity
  8
Defpoints
 62
     0
100
AcDbPoint
 10
736.5382876370901
 20
188.4449913726402
 30
0.0
  0
POINT
  5
369C
330
28CE
100
AcDbEntity
  8
Defpoints
 62
     0
100
AcDbPoint
 10
716.5382876370901
 20
188.4449913726402
 30
0.0
  0
POINT
  5
369D
330
28CE
100
AcDbEntity
  8
Defpoints
 62
     0
100
AcDbPoint
 10
716.5382876370901
 20
169.5674913726402
 30
0.0
  0
ENDBLK
  5
28D9
330
28CE
100
AcDbEntity
  8
0
100
AcDbBlockEnd
  0
BLOCK
  5
28E4
330
28DA
100
AcDbEntity
  8
0
100
AcDbBlockBegin
  2
*D19
 70
     1
 10
0.0
 20
0.0
 30
0.0
  3
*D19
  1

  0
LINE
  5
369E
330
28DA
100
AcDbEntity
  8
AM_5
100
AcDbLine
 10
765.2607876370901
 20
196.1674913726402
 30
0.0
 11
779.0382876370901
 21
196.1674913726402
 31
0.0
  0
LINE
  5
369F
330
28DA
100
AcDbEntity
  8
AM_5
100
AcDbLine
 10
766.5382876370901
 20
178.5674913726402
 30
0.0
 11
779.0382876370901
 21
178.5674913726402
 31
0.0
  0
LINE
  5
36A0
330
28DA
100
AcDbEntity
  8
AM_5
100
AcDbLine
 10
777.53828763709
 20
193.1674913726402
 30
0.0
 11
777.53828763709
 21
181.5674913726402
 31
0.0
  0
SOLID
  5
36A1
330
28DA
100
AcDbEntity
  8
AM_5
100
AcDbTrace
 10
777.03828763709
 20
193.1674913726402
 30
0.0
 11
778.0382876370901
 21
193.1674913726402
 31
0.0
 12
777.53828763709
 22
196.1674913726402
 32
0.0
 13
777.53828763709
 23
196.1674913726402
 33
0.0
  0
SOLID
  5
36A2
330
28DA
100
AcDbEntity
  8
AM_5
100
AcDbTrace
 10
777.03828763709
 20
181.5674913726402
 30
0.0
 11
778.0382876370901
 21
181.5674913726402
 31
0.0
 12
777.53828763709
 22
178.5674913726402
 32
0.0
 13
777.53828763709
 23
178.5674913726402
 33
0.0
  0
MTEXT
  5
36A3
330
28DA
100
AcDbEntity
  8
AM_5
100
AcDbMText
 10
775.0882876370901
 20
187.3674913726403
 30
0.0
 40
3.5
 41
0.0
 71
     5
 72
     1
  1
17.6
 11
0.0000000000000001
 21
1.0
 31
0.0
 73
     1
 44
1.0
1001
ACAD
1000
MTEXTBEGIN
1070
    73
1070
     1
1070
    44
1040
1.0
1070
    74
1070
     0
1000
MTEXTEND
  0
POINT
  5
36A4
330
28DA
100
AcDbEntity
  8
Defpoints
 62
     0
100
AcDbPoint
 10
764.2607876370901
 20
196.1674913726402
 30
0.0
  0
POINT
  5
36A5
330
28DA
100
AcDbEntity
  8
Defpoints
 62
     0
100
AcDbPoint
 10
765.53828763709
 20
178.5674913726402
 30
0.0
  0
POINT
  5
36A6
330
28DA
100
AcDbEntity
  8
Defpoints
 62
     0
100
AcDbPoint
 10
777.53828763709
 20
178.5674913726402
 30
0.0
  0
ENDBLK
  5
28E5
330
28DA
100
AcDbEntity
  8
0
100
AcDbBlockEnd
  0
BLOCK
  5
293B
330
2931
100
AcDbEntity
  8
0
100
AcDbBlockBegin
  2
*D20
 70
     1
 10
0.0
 20
0.0
 30
0.0
  3
*D20
  1

  0
LINE
  5
36A7
330
2931
100
AcDbEntity
  8
AM_5
100
AcDbLine
 10
766.5382876370901
 20
178.5674913726402
 30
0.0
 11
787.0382876370901
 21
178.5674913726402
 31
0.0
  0
LINE
  5
36A8
330
2931
100
AcDbEntity
  8
AM_5
100
AcDbLine
 10
765.3588019228453
 20
212.5674913726402
 30
0.0
 11
787.0382876370901
 21
212.5674913726402
 31
0.0
  0
LINE
  5
36A9
330
2931
100
AcDbEntity
  8
AM_5
100
AcDbLine
 10
785.53828763709
 20
181.5674913726402
 30
0.0
 11
785.53828763709
 21
209.5674913726402
 31
0.0
  0
SOLID
  5
36AA
330
2931
100
AcDbEntity
  8
AM_5
100
AcDbTrace
 10
785.03828763709
 20
181.5674913726402
 30
0.0
 11
786.03828763709
 21
181.5674913726402
 31
0.0
 12
785.53828763709
 22
178.5674913726402
 32
0.0
 13
785.53828763709
 23
178.5674913726402
 33
0.0
  0
SOLID
  5
36AB
330
2931
100
AcDbEntity
  8
AM_5
100
AcDbTrace
 10
785.03828763709
 20
209.5674913726402
 30
0.0
 11
786.03828763709
 21
209.5674913726402
 31
0.0
 12
785.53828763709
 22
212.5674913726402
 32
0.0
 13
785.53828763709
 23
212.5674913726402
 33
0.0
  0
MTEXT
  5
36AC
330
2931
100
AcDbEntity
  8
AM_5
100
AcDbMText
 10
782.91328763709
 20
195.5674913726403
 30
0.0
 40
3.5
 41
0.0
 71
     5
 72
     1
  1
(34)
 11
0.0000000000000001
 21
1.0
 31
0.0
 73
     1
 44
1.0
1001
ACAD
1000
MTEXTBEGIN
1070
    73
1070
     1
1070
    44
1040
1.0
1070
    74
1070
     0
1000
MTEXTEND
  0
POINT
  5
36AD
330
2931
100
AcDbEntity
  8
Defpoints
 62
     0
100
AcDbPoint
 10
765.53828763709
 20
178.5674913726402
 30
0.0
  0
POINT
  5
36AE
330
2931
100
AcDbEntity
  8
Defpoints
 62
     0
100
AcDbPoint
 10
764.3588019228453
 20
212.5674913726402
 30
0.0
  0
POINT
  5
36AF
330
2931
100
AcDbEntity
  8
Defpoints
 62
     0
100
AcDbPoint
 10
785.53828763709
 20
212.5674913726402
 30
0.0
  0
ENDBLK
  5
293C
330
2931
100
AcDbEntity
  8
0
100
AcDbBlockEnd
  0
BLOCK
  5
2C70
330
2C66
100
AcDbEntity
  8
0
100
AcDbBlockBegin
  2
*D21
 70
     1
 10
0.0
 20
0.0
 30
0.0
  3
*D21
  1

  0
LINE
  5
36B0
330
2C66
100
AcDbEntity
  8
AM_5
100
AcDbLine
 10
595.4278427931135
 20
282.1674913726403
 30
0.0
 11
595.4278427931135
 21
244.9174913726404
 31
0.0
  0
LINE
  5
36B1
330
2C66
100
AcDbEntity
  8
AM_5
100
AcDbLine
 10
644.9278427931136
 20
282.1674913726403
 30
0.0
 11
644.9278427931136
 21
244.9174913726404
 31
0.0
  0
LINE
  5
36B2
330
2C66
100
AcDbEntity
  8
AM_5
100
AcDbLine
 10
598.4278427931135
 20
246.4174913726404
 30
0.0
 11
641.9278427931137
 21
246.4174913726404
 31
0.0
  0
SOLID
  5
36B3
330
2C66
100
AcDbEntity
  8
AM_5
100
AcDbTrace
 10
598.4278427931135
 20
246.9174913726404
 30
0.0
 11
598.4278427931135
 21
245.9174913726404
 31
0.0
 12
595.4278427931135
 22
246.4174913726404
 32
0.0
 13
595.4278427931135
 23
246.4174913726404
 33
0.0
  0
SOLID
  5
36B4
330
2C66
100
AcDbEntity
  8
AM_5
100
AcDbTrace
 10
641.9278427931137
 20
246.9174913726404
 30
0.0
 11
641.9278427931137
 21
245.9174913726404
 31
0.0
 12
644.9278427931136
 22
246.4174913726404
 32
0.0
 13
644.9278427931136
 23
246.4174913726404
 33
0.0
  0
MTEXT
  5
36B5
330
2C66
100
AcDbEntity
  8
AM_5
100
AcDbMText
 10
620.1778427931135
 20
248.8674913726404
 30
0.0
 40
3.5
 41
0.0
 71
     5
 72
     1
  1
Y
 73
     1
 44
1.0
1001
ACAD
1000
MTEXTBEGIN
1070
    73
1070
     1
1070
    44
1040
1.0
1070
    74
1070
     0
1000
MTEXTEND
  0
POINT
  5
36B6
330
2C66
100
AcDbEntity
  8
Defpoints
 62
     0
100
AcDbPoint
 10
595.4278427931135
 20
283.1674913726402
 30
0.0
  0
POINT
  5
36B7
330
2C66
100
AcDbEntity
  8
Defpoints
 62
     0
100
AcDbPoint
 10
644.9278427931136
 20
283.1674913726402
 30
0.0
  0
POINT
  5
36B8
330
2C66
100
AcDbEntity
  8
Defpoints
 62
     0
100
AcDbPoint
 10
644.9278427931136
 20
246.4174913726404
 30
0.0
  0
ENDBLK
  5
2C71
330
2C66
100
AcDbEntity
  8
0
100
AcDbBlockEnd
  0
BLOCK
  5
2F1D
330
2F17
100
AcDbEntity
  8
0
100
AcDbBlockBegin
  2
A$C0B032DDE
 70
     0
 10
0.0
 20
0.0
 30
0.0
  3
A$C0B032DDE
  1

  0
LINE
  5
2F18
330
2F17
100
AcDbEntity
  8
SL
100
AcDbLine
 10
13.55998816895715
 20
0.6911750091422278
 30
0.0
 11
0.0
 21
0.6911750091422278
 31
0.0
  0
MTEXT
  5
2F19
330
2F17
100
AcDbEntity
  8
SL
100
AcDbMText
 10
1.217878159382053
 20
2.131626880873
 30
0.0
 40
3.674999999999999
 41
0.0
 71
     7
 72
     5
  1
SL
  7
ACISOTS
 73
     1
 44
1.0
1001
ACAD
1000
MTEXTBEGIN
1070
    73
1070
     1
1070
    44
1040
1.0
1070
    74
1070
     0
1000
MTEXTEND
  0
TRACE
  5
2F1A
330
2F17
100
AcDbEntity
  8
SL
370
    35
100
AcDbTrace
 10
8.309988168957147
 20
1.382350618392194
 30
0.0
 11
8.309988168957147
 21
-0.0000006001077395
 31
0.0
 12
13.55998816895715
 22
0.6911750091422278
 32
0.0
 13
13.55998816895715
 23
0.6911750091422278
 33
0.0
  0
ENDBLK
  5
2F1E
330
2F17
100
AcDbEntity
  8
0
100
AcDbBlockEnd
  0
BLOCK
  5
2F5F
330
2F55
100
AcDbEntity
  8
0
100
AcDbBlockBegin
  2
*D23
 70
     1
 10
0.0
 20
0.0
 30
0.0
  3
*D23
  1

  0
LINE
  5
3EBB
330
2F55
100
AcDbEntity
  8
AM_5
100
AcDbLine
 10
766.5382876370901
 20
216.5674913726402
 30
0.0
 11
786.6020677893683
 21
216.5674913726402
 31
0.0
  0
LINE
  5
3EBC
330
2F55
100
AcDbEntity
  8
AM_5
100
AcDbLine
 10
766.5382876370901
 20
178.5674913726402
 30
0.0
 11
786.6020677893683
 21
178.5674913726402
 31
0.0
  0
LINE
  5
3EBD
330
2F55
100
AcDbEntity
  8
AM_5
100
AcDbLine
 10
785.1020677893683
 20
213.5674913726402
 30
0.0
 11
785.1020677893683
 21
181.5674913726402
 31
0.0
  0
SOLID
  5
3EBE
330
2F55
100
AcDbEntity
  8
AM_5
100
AcDbTrace
 10
784.6020677893683
 20
213.5674913726402
 30
0.0
 11
785.6020677893683
 21
213.5674913726402
 31
0.0
 12
785.1020677893683
 22
216.5674913726402
 32
0.0
 13
785.1020677893683
 23
216.5674913726402
 33
0.0
  0
SOLID
  5
3EBF
330
2F55
100
AcDbEntity
  8
AM_5
100
AcDbTrace
 10
784.6020677893683
 20
181.5674913726402
 30
0.0
 11
785.6020677893683
 21
181.5674913726402
 31
0.0
 12
785.1020677893683
 22
178.5674913726402
 32
0.0
 13
785.1020677893683
 23
178.5674913726402
 33
0.0
  0
MTEXT
  5
3EC0
330
2F55
100
AcDbEntity
  8
AM_5
100
AcDbMText
 10
782.6520677893682
 20
197.5674913726403
 30
0.0
 40
3.5
 41
0.0
 71
     5
 72
     1
  1
38
 11
0.0000000000000001
 21
1.0
 31
0.0
 73
     1
 44
1.0
1001
ACAD
1000
MTEXTBEGIN
1070
    73
1070
     1
1070
    44
1040
1.0
1070
    74
1070
     0
1000
MTEXTEND
  0
POINT
  5
3EC1
330
2F55
100
AcDbEntity
  8
Defpoints
 62
     0
100
AcDbPoint
 10
765.53828763709
 20
216.5674913726402
 30
0.0
  0
POINT
  5
3EC2
330
2F55
100
AcDbEntity
  8
Defpoints
 62
     0
100
AcDbPoint
 10
765.53828763709
 20
178.5674913726402
 30
0.0
  0
POINT
  5
3EC3
330
2F55
100
AcDbEntity
  8
Defpoints
 62
     0
100
AcDbPoint
 10
785.1020677893683
 20
178.5674913726402
 30
0.0
  0
ENDBLK
  5
2F60
330
2F55
100
AcDbEntity
  8
0
100
AcDbBlockEnd
  0
BLOCK
  5
2F81
330
2F77
100
AcDbEntity
  8
0
100
AcDbBlockBegin
  2
*D24
 70
     1
 10
0.0
 20
0.0
 30
0.0
  3
*D24
  1

  0
LINE
  5
36C2
330
2F77
100
AcDbEntity
  8
AM_5
100
AcDbLine
 10
696.5382876370901
 20
178.5674913726402
 30
0.0
 11
684.0382876370901
 21
178.5674913726402
 31
0.0
  0
LINE
  5
36C3
330
2F77
100
AcDbEntity
  8
AM_5
100
AcDbLine
 10
696.5382876370901
 20
214.5674913726402
 30
0.0
 11
684.0382876370901
 21
214.5674913726402
 31
0.0
  0
LINE
  5
36C4
330
2F77
100
AcDbEntity
  8
AM_5
100
AcDbLine
 10
685.53828763709
 20
181.5674913726402
 30
0.0
 11
685.53828763709
 21
211.5674913726402
 31
0.0
  0
SOLID
  5
36C5
330
2F77
100
AcDbEntity
  8
AM_5
100
AcDbTrace
 10
685.03828763709
 20
181.5674913726402
 30
0.0
 11
686.03828763709
 21
181.5674913726402
 31
0.0
 12
685.53828763709
 22
178.5674913726402
 32
0.0
 13
685.53828763709
 23
178.5674913726402
 33
0.0
  0
SOLID
  5
36C6
330
2F77
100
AcDbEntity
  8
AM_5
100
AcDbTrace
 10
685.03828763709
 20
211.5674913726402
 30
0.0
 11
686.03828763709
 21
211.5674913726402
 31
0.0
 12
685.53828763709
 22
214.5674913726402
 32
0.0
 13
685.53828763709
 23
214.5674913726402
 33
0.0
  0
MTEXT
  5
36C7
330
2F77
100
AcDbEntity
  8
AM_5
100
AcDbMText
 10
683.08828763709
 20
196.5674913726403
 30
0.0
 40
3.5
 41
0.0
 71
     5
 72
     1
  1
36
 11
0.0000000000000001
 21
1.0
 31
0.0
 73
     1
 44
1.0
1001
ACAD
1000
MTEXTBEGIN
1070
    73
1070
     1
1070
    44
1040
1.0
1070
    74
1070
     0
1000
MTEXTEND
  0
POINT
  5
36C8
330
2F77
100
AcDbEntity
  8
Defpoints
 62
     0
100
AcDbPoint
 10
697.53828763709
 20
178.5674913726402
 30
0.0
  0
POINT
  5
36C9
330
2F77
100
AcDbEntity
  8
Defpoints
 62
     0
100
AcDbPoint
 10
697.53828763709
 20
214.5674913726402
 30
0.0
  0
POINT
  5
36CA
330
2F77
100
AcDbEntity
  8
Defpoints
 62
     0
100
AcDbPoint
 10
685.53828763709
 20
214.5674913726402
 30
0.0
  0
ENDBLK
  5
2F82
330
2F77
100
AcDbEntity
  8
0
100
AcDbBlockEnd
  0
BLOCK
  5
301A
330
3011
100
AcDbEntity
  8
0
100
AcDbBlockBegin
  2
*D25
 70
     1
 10
0.0
 20
0.0
 30
0.0
  3
*D25
  1

  0
LINE
  5
36CB
330
3011
100
AcDbEntity
  8
AM_5
100
AcDbLine
 10
760.8809561144921
 20
203.7061404887204
 30
0.0
 11
771.353275183053
 21
221.8855477587745
 31
0.0
  0
LINE
  5
36CC
330
3011
100
AcDbEntity
  8
AM_5
100
AcDbLine
 10
771.353275183053
 20
221.8855477587745
 30
0.0
 11
794.453275183053
 21
221.8855477587746
 31
0.0
  0
SOLID
  5
36CD
330
3011
100
AcDbEntity
  8
AM_5
100
AcDbTrace
 10
760.4477004181656
 20
203.9557191368469
 30
0.0
 11
761.3142118108185
 21
203.4565618405939
 31
0.0
 12
759.3834842257328
 22
201.1066063107616
 32
0.0
 13
759.3834842257328
 23
201.1066063107616
 33
0.0
  0
MTEXT
  5
36CE
330
3011
100
AcDbEntity
  8
AM_5
100
AcDbMText
 10
783.2532751830527
 20
224.3358922469635
 30
0.0
 40
3.5
 41
0.0
 71
     5
 72
     1
  1
3×2-PT1/4
 73
     1
 44
1.0
1001
ACAD
1000
MTEXTBEGIN
1070
    73
1070
     1
1070
    44
1040
1.0
1070
    74
1070
     0
1000
MTEXTEND
  0
POINT
  5
36CF
330
3011
100
AcDbEntity
  8
Defpoints
 62
     0
100
AcDbPoint
 10
759.3834842257328
 20
201.1066063107616
 30
0.0
  0
POINT
  5
36D0
330
3011
100
AcDbEntity
  8
Defpoints
 62
     0
100
AcDbPoint
 10
753.6930910484474
 20
191.2283764345186
 30
0.0
  0
ENDBLK
  5
301B
330
3011
100
AcDbEntity
  8
0
100
AcDbBlockEnd
  0
BLOCK
  5
32AC
330
3297
100
AcDbEntity
  8
0
100
AcDbBlockBegin
  2
A$C3C0B3F06
 70
     0
 10
0.0
 20
0.0
 30
0.0
  3
A$C3C0B3F06
  1

  0
LINE
  5
3298
330
3297
100
AcDbEntity
  8
0
 62
     4
100
AcDbLine
 10
0.6303262883238859
 20
0.0
 30
0.0
 11
0.6303262883238859
 21
12.50659009401306
 31
0.0
  0
TEXT
  5
3299
330
3297
100
AcDbEntity
  8
0
 62
     4
100
AcDbText
 10
-0.0000006095376648
 20
15.67507302211197
 30
0.0
 40
3.5
  1
2
 41
0.75
  7
CHINESET
100
AcDbText
  0
LINE
  5
329A
330
3297
100
AcDbEntity
  8
0
 62
     4
100
AcDbLine
 10
18.13032628832388
 20
0.0
 30
0.0
 11
18.13032628832388
 21
12.50659009401306
 31
0.0
  0
TEXT
  5
329B
330
3297
100
AcDbEntity
  8
0
 62
     4
100
AcDbText
 10
17.49999939046233
 20
15.67507302211197
 30
0.0
 40
3.5
  1
3
 41
0.75
  7
CHINESET
100
AcDbText
  0
LINE
  5
329C
330
3297
100
AcDbEntity
  8
0
 62
     4
100
AcDbLine
 10
35.63032628832389
 20
0.0
 30
0.0
 11
35.63032628832389
 21
12.50659009401306
 31
0.0
  0
TEXT
  5
329D
330
3297
100
AcDbEntity
  8
0
 62
     4
100
AcDbText
 10
34.99999939046233
 20
15.67507302211197
 30
0.0
 40
3.5
  1
4
 41
0.75
  7
CHINESET
100
AcDbText
  0
LINE
  5
329E
330
3297
100
AcDbEntity
  8
0
 62
     4
100
AcDbLine
 10
53.13032628832388
 20
0.0
 30
0.0
 11
53.13032628832388
 21
12.50659009401306
 31
0.0
  0
TEXT
  5
329F
330
3297
100
AcDbEntity
  8
0
 62
     4
100
AcDbText
 10
52.49999939046233
 20
15.67507302211197
 30
0.0
 40
3.5
  1
5
 41
0.75
  7
CHINESET
100
AcDbText
  0
LINE
  5
32A0
330
3297
100
AcDbEntity
  8
0
 62
     4
100
AcDbLine
 10
70.63032628832388
 20
0.0
 30
0.0
 11
70.63032628832388
 21
12.50659009401306
 31
0.0
  0
TEXT
  5
32A1
330
3297
100
AcDbEntity
  8
0
 62
     4
100
AcDbText
 10
69.99999939046233
 20
15.67507302211197
 30
0.0
 40
3.5
  1
6
 41
0.75
  7
CHINESET
100
AcDbText
  0
LINE
  5
32A2
330
3297
100
AcDbEntity
  8
0
 62
     4
100
AcDbLine
 10
88.13032628832388
 20
0.0
 30
0.0
 11
88.13032628832388
 21
12.50659009401306
 31
0.0
  0
TEXT
  5
32A3
330
3297
100
AcDbEntity
  8
0
 62
     4
100
AcDbText
 10
87.49999939046233
 20
15.67507302211197
 30
0.0
 40
3.5
  1
7
 41
0.75
  7
CHINESET
100
AcDbText
  0
LINE
  5
32A4
330
3297
100
AcDbEntity
  8
0
 62
     4
100
AcDbLine
 10
105.6303262883239
 20
0.0
 30
0.0
 11
105.6303262883239
 21
12.50659009401306
 31
0.0
  0
TEXT
  5
32A5
330
3297
100
AcDbEntity
  8
0
 62
     4
100
AcDbText
 10
104.9999993904623
 20
15.67507302211197
 30
0.0
 40
3.5
  1
8
 41
0.75
  7
CHINESET
100
AcDbText
  0
LINE
  5
32A6
330
3297
100
AcDbEntity
  8
0
 62
     4
100
AcDbLine
 10
123.1303262883239
 20
0.0
 30
0.0
 11
123.1303262883239
 21
12.50659009401306
 31
0.0
  0
TEXT
  5
32A7
330
3297
100
AcDbEntity
  8
0
 62
     4
100
AcDbText
 10
122.4999993904623
 20
15.67507302211197
 30
0.0
 40
3.5
  1
9
 41
0.75
  7
CHINESET
100
AcDbText
  0
LINE
  5
32A8
330
3297
100
AcDbEntity
  8
0
 62
     4
100
AcDbLine
 10
140.6303262883239
 20
0.0
 30
0.0
 11
140.6303262883239
 21
12.50659009401306
 31
0.0
  0
TEXT
  5
32A9
330
3297
100
AcDbEntity
  8
0
 62
     4
100
AcDbText
 10
139.9999993904623
 20
15.67507302211197
 30
0.0
 40
3.5
  1
10
 41
0.75
  7
CHINESET
100
AcDbText
  0
ENDBLK
  5
32AD
330
3297
100
AcDbEntity
  8
0
100
AcDbBlockEnd
  0
BLOCK
  5
334B
330
3344
100
AcDbEntity
  8
0
100
AcDbBlockBegin
  2
*D27
 70
     1
 10
0.0
 20
0.0
 30
0.0
  3
*D27
  1

  0
LINE
  5
36D1
330
3344
100
AcDbEntity
  8
AM_5
100
AcDbLine
 10
612.4596038775213
 20
213.9317157725414
 30
0.0
 11
606.4421180990843
 21
222.5858472425296
 31
0.0
  0
LINE
  5
36D2
330
3344
100
AcDbEntity
  8
AM_5
100
AcDbLine
 10
606.4421180990843
 20
222.5858472425296
 30
0.0
 11
582.9032401463286
 21
222.5858472425295
 31
0.0
  0
SOLID
  5
36D3
330
3344
100
AcDbEntity
  8
AM_5
100
AcDbTrace
 10
612.8701182795624
 20
214.2171591569749
 30
0.0
 11
612.0490894754802
 21
213.6462723881079
 31
0.0
 12
614.1722641841222
 22
211.4686293602949
 32
0.0
 13
614.1722641841222
 23
211.4686293602949
 33
0.0
  0
MTEXT
  5
36D4
330
3344
100
AcDbEntity
  8
AM_5
100
AcDbMText
 10
594.3226791227065
 20
225.0361917307186
 30
0.0
 40
3.5
 41
0.0
 71
     5
 72
     1
  1
2×N-PT1/4
 73
     1
 44
1.0
1001
ACAD
1000
MTEXTBEGIN
1070
    73
1070
     1
1070
    44
1040
1.0
1070
    74
1070
     0
1000
MTEXTEND
  0
POINT
  5
36D5
330
3344
100
AcDbEntity
  8
Defpoints
 62
     0
100
AcDbPoint
 10
614.1722641841222
 20
211.4686293602949
 30
0.0
  0
POINT
  5
36D6
330
3344
100
AcDbEntity
  8
Defpoints
 62
     0
100
AcDbPoint
 10
617.9278427931135
 20
206.0674913726403
 30
0.0
  0
ENDBLK
  5
334C
330
3344
100
AcDbEntity
  8
0
100
AcDbBlockEnd
  0
ENDSEC
  0
SECTION
  2
ENTITIES
  0
LINE
  5
C92
330
1F
100
AcDbEntity
  8
0
100
AcDbLine
 10
814.0309076478347
 20
210.9385296031036
 30
0.0
 11
814.0309076478347
 21
162.5545296031038
 31
0.0
  0
LINE
  5
C93
330
1F
100
AcDbEntity
  8
0
100
AcDbLine
 10
859.5983357737887
 20
210.9385296031039
 30
0.0
 11
859.5983357737887
 21
201.2617296031038
 31
0.0
  0
LINE
  5
C94
330
1F
100
AcDbEntity
  8
0
100
AcDbLine
 10
877.7423357737886
 20
210.9385296031039
 30
0.0
 11
877.7423357737886
 21
201.2617296031041
 31
0.0
  0
LINE
  5
C95
330
1F
100
AcDbEntity
  8
0
100
AcDbLine
 10
841.454335773788
 20
210.9385296031036
 30
0.0
 11
841.4543357737912
 21
162.5545296031038
 31
0.0
  0
LINE
  5
C96
330
1F
100
AcDbEntity
  8
0
100
AcDbLine
 10
814.0309076478347
 20
201.2617296031038
 30
0.0
 11
877.7423357737886
 21
201.2617296031038
 31
0.0
  0
LINE
  5
C97
330
1F
100
AcDbEntity
  8
0
100
AcDbLine
 10
814.0309076478347
 20
206.1001296031038
 30
0.0
 11
877.7423357737886
 21
206.1001296031038
 31
0.0
  0
TEXT
  5
C98
330
1F
100
AcDbEntity
  8
0
100
AcDbText
 10
827.014044547238
 20
202.0841875015777
 30
0.0
 40
3.037726430252237
  1
2
 41
0.8
  7
CHINESET
 72
     4
 11
827.8241049286387
 21
203.6030507167038
 31
0.0
100
AcDbText
  0
TEXT
  5
C99
330
1F
100
AcDbEntity
  8
0
100
AcDbText
 10
815.7991276731554
 20
207.5821533134812
 30
0.0
 40
2.4192
  1
No. of stations
 41
0.8
  7
CHINESET
100
AcDbText
  0
TEXT
  5
C9A
330
1F
100
AcDbEntity
  8
0
100
AcDbText
 10
845.9753247895971
 20
202.1092528174554
 30
0.0
 40
3.023999999999999
  1
49.5
 41
0.8
  7
CHINESET
100
AcDbText
  0
TEXT
  5
C9B
330
1F
100
AcDbEntity
  8
0
100
AcDbText
 10
848.9152022114
 20
206.9695907614904
 30
0.0
 40
3.023999999999999
  1
Y
 41
0.8
  7
CHINESET
100
AcDbText
  0
LINE
  5
C9C
330
1F
100
AcDbEntity
  8
0
100
AcDbLine
 10
814.0309076478347
 20
210.9385296031039
 30
0.0
 11
877.7423357737886
 21
210.9385296031039
 31
0.0
  0
LINE
  5
C9D
330
1F
100
AcDbEntity
  8
0
100
AcDbLine
 10
859.5983357737882
 20
210.9385296031036
 30
0.0
 11
859.5983357737909
 21
162.5545296031038
 31
0.0
  0
LINE
  5
C9E
330
1F
100
AcDbEntity
  8
0
100
AcDbLine
 10
877.7423357737884
 20
210.9385296031036
 30
0.0
 11
877.7423357737909
 21
162.5545296031038
 31
0.0
  0
LINE
  5
C9F
330
1F
100
AcDbEntity
  8
0
100
AcDbLine
 10
814.0309076478347
 20
196.4233296031039
 30
0.0
 11
877.7423357737886
 21
196.4233296031039
 31
0.0
  0
LINE
  5
CA0
330
1F
100
AcDbEntity
  8
0
100
AcDbLine
 10
814.0309076478347
 20
191.5849296031039
 30
0.0
 11
877.7423357737886
 21
191.5849296031039
 31
0.0
  0
LINE
  5
CA1
330
1F
100
AcDbEntity
  8
0
100
AcDbLine
 10
814.0309076478347
 20
186.7465296031038
 30
0.0
 11
877.7423357737886
 21
186.7465296031038
 31
0.0
  0
LINE
  5
CA2
330
1F
100
AcDbEntity
  8
0
100
AcDbLine
 10
814.0309076478347
 20
181.9081296031038
 30
0.0
 11
877.7423357737886
 21
181.9081296031038
 31
0.0
  0
LINE
  5
CA3
330
1F
100
AcDbEntity
  8
0
100
AcDbLine
 10
814.0309076478347
 20
177.0697296031038
 30
0.0
 11
877.7423357737886
 21
177.0697296031038
 31
0.0
  0
LINE
  5
CA4
330
1F
100
AcDbEntity
  8
0
100
AcDbLine
 10
814.0309076478347
 20
172.2313296031039
 30
0.0
 11
877.7423357737886
 21
172.2313296031039
 31
0.0
  0
LINE
  5
CA5
330
1F
100
AcDbEntity
  8
0
100
AcDbLine
 10
814.0309076478347
 20
167.3929296031039
 30
0.0
 11
877.7423357737886
 21
167.3929296031039
 31
0.0
  0
LINE
  5
CA6
330
1F
100
AcDbEntity
  8
0
100
AcDbLine
 10
814.0309076478347
 20
162.5545296031038
 30
0.0
 11
877.7423357737886
 21
162.5545296031038
 31
0.0
  0
TEXT
  5
CA7
330
1F
100
AcDbEntity
  8
0
100
AcDbText
 10
827.014044547238
 20
197.2457875015777
 30
0.0
 40
3.037726430252237
  1
3
 41
0.8
  7
CHINESET
 72
     4
 11
827.8241049286387
 21
198.7646507167038
 31
0.0
100
AcDbText
  0
TEXT
  5
CA8
330
1F
100
AcDbEntity
  8
0
100
AcDbText
 10
826.9561830914241
 20
192.4073875015777
 30
0.0
 40
3.037726430252237
  1
4
 41
0.8
  7
CHINESET
 72
     4
 11
827.8241049286391
 21
193.9262507167038
 31
0.0
100
AcDbText
  0
TEXT
  5
CA9
330
1F
100
AcDbEntity
  8
0
100
AcDbText
 10
827.0140445472392
 20
187.5689875015777
 30
0.0
 40
3.037726430252237
  1
5
 41
0.8
  7
CHINESET
 72
     4
 11
827.8241049286398
 21
189.0878507167038
 31
0.0
100
AcDbText
  0
TEXT
  5
CAA
330
1F
100
AcDbEntity
  8
0
100
AcDbText
 10
827.0719060030534
 20
182.7305875015777
 30
0.0
 40
3.037726430252237
  1
6
 41
0.8
  7
CHINESET
 72
     4
 11
827.8241049286398
 21
184.2494507167038
 31
0.0
100
AcDbText
  0
TEXT
  5
CAB
330
1F
100
AcDbEntity
  8
0
100
AcDbText
 10
827.0140445472392
 20
177.8921875015777
 30
0.0
 40
3.037726430252237
  1
7
 41
0.8
  7
CHINESET
 72
     4
 11
827.8241049286398
 21
179.4110507167038
 31
0.0
100
AcDbText
  0
TEXT
  5
CAC
330
1F
100
AcDbEntity
  8
0
100
AcDbText
 10
827.0140445472396
 20
173.0537875015777
 30
0.0
 40
3.037726430252237
  1
8
 41
0.8
  7
CHINESET
 72
     4
 11
827.8241049286403
 21
174.5726507167038
 31
0.0
100
AcDbText
  0
TEXT
  5
CAD
330
1F
100
AcDbEntity
  8
0
100
AcDbText
 10
827.0719060030545
 20
168.2153875015777
 30
0.0
 40
3.037726430252237
  1
9
 41
0.8
  7
CHINESET
 72
     4
 11
827.8241049286409
 21
169.7342507167038
 31
0.0
100
AcDbText
  0
TEXT
  5
CAE
330
1F
100
AcDbEntity
  8
0
100
AcDbText
 10
826.0882612542109
 20
163.3769875015778
 30
0.0
 40
3.037726430252237
  1
10
 41
0.8
  7
CHINESET
 72
     4
 11
827.8241049286409
 21
164.8958507167039
 31
0.0
100
AcDbText
  0
TEXT
  5
CAF
330
1F
100
AcDbEntity
  8
0
100
AcDbText
 10
864.1193247895973
 20
202.1092528174554
 30
0.0
 40
3.023999999999999
  1
59.5
 41
0.8
  7
CHINESET
100
AcDbText
  0
TEXT
  5
CB0
330
1F
100
AcDbEntity
  8
0
100
AcDbText
 10
845.9753247895971
 20
197.2708528174554
 30
0.0
 40
3.023999999999999
  1
67
 41
0.8
  7
CHINESET
100
AcDbText
  0
TEXT
  5
CB1
330
1F
100
AcDbEntity
  8
0
100
AcDbText
 10
864.1193247895973
 20
197.2708528174554
 30
0.0
 40
3.023999999999999
  1
77
 41
0.8
  7
CHINESET
100
AcDbText
  0
TEXT
  5
CB2
330
1F
100
AcDbEntity
  8
0
100
AcDbText
 10
845.975324789598
 20
192.4324528174554
 30
0.0
 40
3.023999999999999
  1
84.5
 41
0.8
  7
CHINESET
100
AcDbText
  0
TEXT
  5
CB3
330
1F
100
AcDbEntity
  8
0
100
AcDbText
 10
864.119324789598
 20
192.4324528174554
 30
0.0
 40
3.023999999999999
  1
94.5
 41
0.8
  7
CHINESET
100
AcDbText
  0
TEXT
  5
CB4
330
1F
100
AcDbEntity
  8
0
100
AcDbText
 10
845.9753247895985
 20
187.5940528174553
 30
0.0
 40
3.023999999999999
  1
102
 41
0.8
  7
CHINESET
100
AcDbText
  0
TEXT
  5
CB5
330
1F
100
AcDbEntity
  8
0
100
AcDbText
 10
864.1193247895985
 20
187.5940528174553
 30
0.0
 40
3.023999999999999
  1
112
 41
0.8
  7
CHINESET
100
AcDbText
  0
TEXT
  5
CB6
330
1F
100
AcDbEntity
  8
0
100
AcDbText
 10
845.9753247895985
 20
182.7556528174554
 30
0.0
 40
3.023999999999999
  1
119.5
 41
0.8
  7
CHINESET
100
AcDbText
  0
TEXT
  5
CB7
330
1F
100
AcDbEntity
  8
0
100
AcDbText
 10
864.1193247895985
 20
182.7556528174554
 30
0.0
 40
3.023999999999999
  1
129.5
 41
0.8
  7
CHINESET
100
AcDbText
  0
TEXT
  5
CB8
330
1F
100
AcDbEntity
  8
0
100
AcDbText
 10
845.9753247895985
 20
177.9172528174554
 30
0.0
 40
3.023999999999999
  1
137
 41
0.8
  7
CHINESET
100
AcDbText
  0
TEXT
  5
CB9
330
1F
100
AcDbEntity
  8
0
100
AcDbText
 10
864.1193247895985
 20
177.9172528174554
 30
0.0
 40
3.023999999999999
  1
147
 41
0.8
  7
CHINESET
100
AcDbText
  0
TEXT
  5
CBA
330
1F
100
AcDbEntity
  8
0
100
AcDbText
 10
845.9753247895992
 20
173.0788528174553
 30
0.0
 40
3.023999999999999
  1
154.5
 41
0.8
  7
CHINESET
100
AcDbText
  0
TEXT
  5
CBB
330
1F
100
AcDbEntity
  8
0
100
AcDbText
 10
864.1193247895989
 20
173.0788528174553
 30
0.0
 40
3.023999999999999
  1
164.5
 41
0.8
  7
CHINESET
100
AcDbText
  0
TEXT
  5
CBC
330
1F
100
AcDbEntity
  8
0
100
AcDbText
 10
845.9753247895996
 20
168.2404528174553
 30
0.0
 40
3.023999999999999
  1
172
 41
0.8
  7
CHINESET
100
AcDbText
  0
TEXT
  5
CBD
330
1F
100
AcDbEntity
  8
0
100
AcDbText
 10
864.1193247895996
 20
168.2404528174553
 30
0.0
 40
3.023999999999999
  1
182
 41
0.8
  7
CHINESET
100
AcDbText
  0
TEXT
  5
CBE
330
1F
100
AcDbEntity
  8
0
100
AcDbText
 10
845.9753247895996
 20
163.4020528174554
 30
0.0
 40
3.023999999999999
  1
189.5
 41
0.8
  7
CHINESET
100
AcDbText
  0
TEXT
  5
CBF
330
1F
100
AcDbEntity
  8
0
100
AcDbText
 10
864.1193247895996
 20
163.4020528174554
 30
0.0
 40
3.023999999999999
  1
199.5
 41
0.8
  7
CHINESET
100
AcDbText
  0
TEXT
  5
CC0
330
1F
100
AcDbEntity
  8
0
100
AcDbText
 10
867.0592022113998
 20
206.9695907614904
 30
0.0
 40
3.023999999999999
  1
L
 41
0.8
  7
CHINESET
100
AcDbText
  0
TEXT
  5
CC1
330
1F
100
AcDbEntity
  8
0
100
AcDbText
 10
557.1993047686284
 20
388.233111412787
 30
0.0
 40
5.760000000000001
  1
MVSY-156M-5M2
 41
0.75
  7
CHINESET
100
AcDbText
  0
CIRCLE
  5
CC2
330
1F
100
AcDbEntity
  8
0
100
AcDbCircle
 10
811.7321765350073
 20
203.423016145018
 30
0.0
 40
1.232373610538005
  0
CIRCLE
  5
CC3
330
1F
100
AcDbEntity
  8
0
100
AcDbCircle
 10
811.7321765350073
 20
203.423016145018
 30
0.0
 40
0.8019096229170319
  0
LINE
  5
DCA
330
1F
100
AcDbEntity
  8
LOGO
 62
     4
100
AcDbLine
 10
612.0491613277978
 20
102.9866482994692
 30
0.0
 11
612.0491613277978
 21
131.7824781637227
 31
0.0
  0
TEXT
  5
DCB
330
1F
100
AcDbEntity
  8
LOGO
  6
Continuous
100
AcDbText
 10
559.0419271534398
 20
108.6435456196055
 30
0.0
 40
4.319374479638009
  1
金器工業股份有限公司
  7
CHINESET
100
AcDbText
  0
TEXT
  5
DCC
330
1F
100
AcDbEntity
  8
LOGO
  6
Continuous
100
AcDbText
 10
551.1080907804438
 20
104.3233248812216
 30
0.0
 40
2.879582986425339
  1
MINDMAN INDUSTRIAL CO., LTD.
 41
0.85
  7
CHINESET
100
AcDbText
  0
LINE
  5
DCD
330
1F
100
AcDbEntity
  8
LOGO
 62
     4
100
AcDbLine
 10
612.0491613277978
 20
126.0233121908721
 30
0.0
 11
569.8152775268925
 21
126.0233121908721
 31
0.0
  0
LINE
  5
DCE
330
1F
100
AcDbEntity
  8
LOGO
 62
     4
100
AcDbLine
 10
612.0491613277978
 20
120.2641462180213
 30
0.0
 11
569.8152775268925
 21
120.2641462180213
 31
0.0
  0
LINE
  5
DCF
330
1F
100
AcDbEntity
  8
LOGO
 62
     4
100
AcDbLine
 10
612.0491613277978
 20
114.5049802451709
 30
0.0
 11
548.6983356264403
 21
114.5049802451709
 31
0.0
  0
LINE
  5
DD0
330
1F
100
AcDbEntity
  8
LOGO
 62
     4
100
AcDbLine
 10
569.8152775268925
 20
114.5049802451709
 30
0.0
 11
569.8152775268925
 21
131.7824781637227
 31
0.0
  0
TEXT
  5
DD1
330
1F
100
AcDbEntity
  8
LOGO
100
AcDbText
 10
598.6801436958594
 20
115.9447717383831
 30
0.0
 40
2.879582986425339
  1
mm
  7
CHINESET
 72
     1
 11
602.2453416790527
 21
117.3845632315958
 31
0.0
100
AcDbText
 73
     2
  0
TEXT
  5
DD2
330
1F
100
AcDbEntity
  8
LOGO
100
AcDbText
 10
597.1717907029699
 20
127.4631036840845
 30
0.0
 40
2.879582986425339
  1
1 : 1
  7
CHINESET
 72
     1
 11
602.2453416790527
 21
128.9028951772972
 31
0.0
100
AcDbText
 73
     2
  0
LINE
  5
DD3
330
1F
100
AcDbEntity
  8
LOGO
 62
     4
100
AcDbLine
 10
592.8519414182954
 20
114.5049802451709
 30
0.0
 11
592.8519414182954
 21
131.7824781637227
 31
0.0
  0
TEXT
  5
DD4
330
1F
100
AcDbEntity
  8
LOGO
100
AcDbText
 10
572.1896479625747
 20
127.464520801696
 30
188.7231250944717
 40
2.879582986425339
  1
比例 Scale:
 41
0.9
  7
CHINESET
 72
     4
 11
581.333609472594
 21
128.9028951772972
 31
188.7231250944717
100
AcDbText
  0
TEXT
  5
DD5
330
1F
100
AcDbEntity
  8
LOGO
100
AcDbText
 10
572.0238148352314
 20
121.7444436562939
 30
188.7231250944717
 40
2.879582986425339
  1
投影  View:
 41
0.9
  7
CHINESET
 72
     4
 11
581.333609472594
 21
123.1437292044465
 31
188.7231250944717
100
AcDbText
  0
TEXT
  5
DD6
330
1F
100
AcDbEntity
  8
LOGO
100
AcDbText
 10
572.3053454932792
 20
115.9447717383831
 30
188.7231250944717
 40
2.879582986425339
  1
單位  Unit:
 41
0.9
  7
CHINESET
 72
     4
 11
581.333609472594
 21
117.3845632315958
 31
188.7231250944717
100
AcDbText
  0
LWPOLYLINE
  5
DD7
330
1F
100
AcDbEntity
  8
LOGO
 62
     4
100
AcDbPolyline
 90
        4
 70
     1
 43
0.0
 10
548.6983356264403
 20
131.7824781637227
 10
899.6507079594719
 20
131.7824781637227
 10
899.6507079594719
 20
402.4412544450493
 10
548.6983356264403
 20
402.4412544450493
1001
GENIUS_GENREC_14
1002
{
1000
PYDIR
1011
548.6983356264403
1021
402.4412544450493
1031
0.0
1002
}
1002
{
1000
PXDIR
1011
899.6507079594719
1021
131.7824781637227
1031
0.0
1002
}
1002
{
1000
PORI
1011
548.6983356264403
1021
131.7824781637227
1031
0.0
1002
}
1002
{
1000
PINS
1011
548.6983356264403
1021
131.7824781637227
1031
0.0
1002
}
1002
{
1000
PINS2
1011
899.6507079594719
1021
402.4412544450493
1031
0.0
1002
}
1002
{
1000
C
1070
     1
1002
}
1001
GENIUS_GENODEF_13
1002
{
1000
HIER
1070
     0
1002
}
1002
{
1000
MANEDIT
1070
     0
1002
}
1002
{
1000
NOSEL
1070
     0
1002
}
1002
{
1000
BEHIND
1070
     0
1002
}
1002
{
1000
OTHER
1070
     0
1002
}
1002
{
1000
REACTOR
1002
}
1001
GENIUS_GENOBJ-N-REC_13
1002
{
1000
OWNER
1000
GEN
1002
}
  0
SOLID
  5
DD8
330
1F
100
AcDbEntity
  8
LOGO
 62
     5
100
AcDbTrace
 10
551.6859491886482
 20
119.2918770837406
 30
0.0
 11
552.931005311721
 21
119.2918770837403
 31
0.0
 12
558.1258946528175
 22
131.0984437680515
 32
0.0
 13
559.3709507758908
 23
131.0984437680508
 33
0.0
  0
SOLID
  5
DD9
330
1F
100
AcDbEntity
  8
LOGO
 62
     5
100
AcDbTrace
 10
553.4462009488558
 20
119.2918770837406
 30
0.0
 11
554.6912570719285
 21
119.2918770837406
 31
0.0
 12
559.3709507758908
 22
130.1539184333061
 32
0.0
 13
558.1258946528175
 23
125.588712648706
 33
0.0
  0
SOLID
  5
DDA
330
1F
100
AcDbEntity
  8
LOGO
 62
     2
100
AcDbTrace
 10
552.931005311721
 20
119.2918770837403
 30
0.0
 11
553.4462009488558
 21
119.2918770837406
 31
0.0
 12
559.3709507758908
 22
131.0984437680508
 32
0.0
 13
559.886146413025
 23
131.0984437680508
 33
0.0
  0
SOLID
  5
DDB
330
1F
100
AcDbEntity
  8
LOGO
 62
     5
100
AcDbTrace
 10
549.689818898201
 20
114.998580107628
 30
0.0
 11
550.1191485958128
 21
114.998580107628
 31
0.0
 12
551.3281744406392
 22
117.1452285956841
 32
0.0
 13
551.7575041382497
 23
117.1452285956841
 33
0.0
  0
SOLID
  5
DDC
330
1F
100
AcDbEntity
  8
LOGO
 62
     5
100
AcDbTrace
 10
551.3281744406392
 20
117.1452285956841
 30
0.0
 11
551.7575041382497
 21
117.1452285956841
 31
0.0
 12
551.3281744406392
 22
114.998580107628
 32
0.0
 13
551.7575041382497
 23
114.998580107628
 33
0.0
  0
SOLID
  5
DDD
330
1F
100
AcDbEntity
  8
LOGO
 62
     5
100
AcDbTrace
 10
551.3281744406392
 20
114.998580107628
 30
0.0
 11
551.7575041382497
 21
114.998580107628
 31
0.0
 12
552.9665299830782
 22
117.1452285956841
 32
0.0
 13
553.3958596806892
 23
117.1452285956841
 33
0.0
  0
SOLID
  5
DDE
330
1F
100
AcDbEntity
  8
LOGO
 62
     5
100
AcDbTrace
 10
552.9665299830782
 20
117.1452285956841
 30
0.0
 11
553.3958596806892
 21
117.1452285956841
 31
0.0
 12
552.9665299830782
 22
114.998580107628
 32
0.0
 13
553.3958596806892
 23
114.998580107628
 33
0.0
  0
POLYLINE
  5
DDF
330
1F
100
AcDbEntity
  8
LOGO
 62
     5
100
AcDb2dPolyline
 66
     1
 10
0.0
 20
0.0
 30
0.0
 40
0.4300177259728506
 41
0.4300177259728506
  0
VERTEX
  5
DE0
330
DDF
100
AcDbEntity
  8
LOGO
 62
     5
100
AcDbVertex
100
AcDb2dVertex
 10
567.3575151940037
 20
116.2865692004616
 30
0.0
 42
1.0
  0
VERTEX
  5
DE1
330
DDF
100
AcDbEntity
  8
LOGO
 62
     5
100
AcDbVertex
100
AcDb2dVertex
 10
566.0674620160849
 20
116.2865692004616
 30
0.0
 42
1.0
  0
SEQEND
  5
DE2
330
DDF
100
AcDbEntity
  8
LOGO
 62
     5
  0
POLYLINE
  5
DE3
330
1F
100
AcDbEntity
  8
LOGO
 62
     5
100
AcDb2dPolyline
 66
     1
 10
0.0
 20
0.0
 30
0.0
 70
     1
  0
VERTEX
  5
DE4
330
DE3
100
AcDbEntity
  8
LOGO
 62
     5
100
AcDbVertex
100
AcDb2dVertex
 10
563.6356543941424
 20
116.0719043516557
 30
0.0
 42
1.000000057330635
  0
VERTEX
  5
DE5
330
DE3
100
AcDbEntity
  8
LOGO
 62
     5
100
AcDbVertex
100
AcDb2dVertex
 10
564.9236434869764
 20
116.0719043516557
 30
0.0
 42
1.000000057330635
  0
SEQEND
  5
DE6
330
DE3
100
AcDbEntity
  8
LOGO
 62
     5
  0
CIRCLE
  5
DE7
330
1F
100
AcDbEntity
  8
LOGO
 62
     5
100
AcDbCircle
 10
564.2796489405603
 20
116.0719043516557
 30
0.0
 40
0.6439945464169412
  0
POLYLINE
  5
DE8
330
1F
100
AcDbEntity
  8
LOGO
 62
     5
100
AcDb2dPolyline
 66
     1
 10
0.0
 20
0.0
 30
0.0
 70
     1
 40
0.4300177259728506
 41
0.4300177259728506
  0
VERTEX
  5
DE9
330
DE8
100
AcDbEntity
  8
LOGO
 62
     5
100
AcDbVertex
100
AcDb2dVertex
 10
563.4196134886139
 20
116.0719043516557
 30
0.0
 42
1.0
  0
VERTEX
  5
DEA
330
DE8
100
AcDbEntity
  8
LOGO
 62
     5
100
AcDbVertex
100
AcDb2dVertex
 10
565.1396843925054
 20
116.0719043516557
 30
0.0
 42
1.0
  0
SEQEND
  5
DEB
330
DE8
100
AcDbEntity
  8
LOGO
 62
     5
  0
LINE
  5
DEC
330
1F
100
AcDbEntity
  8
LOGO
100
AcDbLine
 10
567.5711480002662
 20
114.998580107628
 30
0.0
 11
567.5711480002662
 21
116.2865692004616
 31
0.0
  0
SOLID
  5
DED
330
1F
100
AcDbEntity
  8
LOGO
 62
     5
100
AcDbTrace
 10
564.9236005540084
 20
117.1452285956841
 30
0.0
 11
565.3529302516189
 21
117.1452285956841
 31
0.0
 12
564.9236005540084
 22
114.998580107628
 32
0.0
 13
565.3529302516189
 23
114.998580107628
 33
0.0
  0
SOLID
  5
DEE
330
1F
100
AcDbEntity
  8
LOGO
 62
     5
100
AcDbTrace
 10
565.8538292098211
 20
114.998580107628
 30
0.0
 11
566.2831589074329
 21
114.998580107628
 31
0.0
 12
565.8538292098211
 22
117.1452285956841
 32
0.0
 13
566.2831589074329
 23
117.1452285956841
 33
0.0
  0
SOLID
  5
DEF
330
1F
100
AcDbEntity
  8
LOGO
 62
     5
100
AcDbTrace
 10
567.1418183026558
 20
116.2865692004616
 30
0.0
 11
567.5711480002662
 21
116.2865692004616
 31
0.0
 12
567.1418183026558
 22
114.998580107628
 32
0.0
 13
567.5711480002662
 23
114.998580107628
 33
0.0
  0
SOLID
  5
DF0
330
1F
100
AcDbEntity
  8
LOGO
 62
     5
100
AcDbTrace
 10
565.8108962400599
 20
130.1539184333061
 30
0.0
 11
564.5658401169878
 21
125.588712648706
 31
0.0
 12
565.8108962400599
 22
119.2918770837403
 32
0.0
 13
564.5658401169878
 23
119.2918770837403
 33
0.0
  0
SOLID
  5
DF1
330
1F
100
AcDbEntity
  8
LOGO
 62
     5
100
AcDbTrace
 10
566.3260918771941
 20
119.2918770837403
 30
0.0
 11
567.5711480002662
 21
119.2918770837403
 31
0.0
 12
566.3260918771941
 22
131.0984437680508
 32
0.0
 13
567.5711480002662
 23
131.0984437680515
 33
0.0
  0
SOLID
  5
DF2
330
1F
100
AcDbEntity
  8
LOGO
 62
     2
100
AcDbTrace
 10
565.8108962400599
 20
131.0984437680515
 30
0.0
 11
566.3260918771941
 21
131.0984437680508
 31
0.0
 12
565.8108962400599
 22
119.2918770837403
 32
0.0
 13
566.3260918771941
 23
119.2918770837403
 33
0.0
  0
POLYLINE
  5
DF3
330
1F
100
AcDbEntity
  8
LOGO
 62
     5
100
AcDb2dPolyline
 66
     1
 10
0.0
 20
0.0
 30
0.0
 40
0.4300177259728506
 41
0.4300177259728506
  0
VERTEX
  5
DF4
330
DF3
100
AcDbEntity
  8
LOGO
 62
     5
100
AcDbVertex
100
AcDb2dVertex
 10
561.2037609062621
 20
116.2865692004616
 30
0.0
 42
1.0
  0
VERTEX
  5
DF5
330
DF3
100
AcDbEntity
  8
LOGO
 62
     5
100
AcDbVertex
100
AcDb2dVertex
 10
559.9137077283432
 20
116.2865692004616
 30
0.0
 42
1.0
  0
SEQEND
  5
DF6
330
DF3
100
AcDbEntity
  8
LOGO
 62
     5
  0
POLYLINE
  5
DF7
330
1F
100
AcDbEntity
  8
LOGO
 62
     5
100
AcDb2dPolyline
 66
     1
 10
0.0
 20
0.0
 30
0.0
 40
0.4300177259728506
 41
0.4300177259728506
  0
VERTEX
  5
DF8
330
DF7
100
AcDbEntity
  8
LOGO
 62
     5
100
AcDbVertex
100
AcDb2dVertex
 10
562.4917499990949
 20
116.2865692004616
 30
0.0
 42
1.0
  0
VERTEX
  5
DF9
330
DF7
100
AcDbEntity
  8
LOGO
 62
     5
100
AcDbVertex
100
AcDb2dVertex
 10
561.2016968211766
 20
116.2865692004616
 30
0.0
 42
1.0
  0
SEQEND
  5
DFA
330
DF7
100
AcDbEntity
  8
LOGO
 62
     5
  0
POLYLINE
  5
DFB
330
1F
100
AcDbEntity
  8
LOGO
 62
     5
100
AcDb2dPolyline
 66
     1
 10
0.0
 20
0.0
 30
0.0
 40
0.4300177259728506
 41
0.4300177259728506
  0
VERTEX
  5
DFC
330
DFB
100
AcDbEntity
  8
LOGO
 62
     5
100
AcDbVertex
100
AcDb2dVertex
 10
556.3379957113531
 20
116.2865692004616
 30
0.0
 42
1.0
  0
VERTEX
  5
DFD
330
DFB
100
AcDbEntity
  8
LOGO
 62
     5
100
AcDbVertex
100
AcDb2dVertex
 10
555.0479425334351
 20
116.2865692004616
 30
0.0
 42
1.0
  0
SEQEND
  5
DFE
330
DFB
100
AcDbEntity
  8
LOGO
 62
     5
  0
SOLID
  5
DFF
330
1F
100
AcDbEntity
  8
LOGO
 62
     5
100
AcDbTrace
 10
554.8343097271718
 20
117.1452285956841
 30
0.0
 11
555.2636394247823
 21
117.1452285956841
 31
0.0
 12
554.8343097271718
 22
114.998580107628
 32
0.0
 13
555.2636394247823
 23
114.998580107628
 33
0.0
  0
SOLID
  5
E00
330
1F
100
AcDbEntity
  8
LOGO
 62
     5
100
AcDbTrace
 10
556.1222988200058
 20
116.2865692004616
 30
0.0
 11
556.5516285176175
 21
116.2865692004616
 31
0.0
 12
556.1222988200058
 22
114.998580107628
 32
0.0
 13
556.5516285176175
 23
114.998580107628
 33
0.0
  0
POLYLINE
  5
E01
330
1F
100
AcDbEntity
  8
LOGO
 62
     5
100
AcDb2dPolyline
 66
     1
 10
0.0
 20
0.0
 30
0.0
 70
     1
 40
0.4300177259728506
 41
0.4300177259728506
  0
VERTEX
  5
E02
330
E01
100
AcDbEntity
  8
LOGO
 62
     5
100
AcDbVertex
100
AcDb2dVertex
 10
557.2658592008718
 20
116.0719043516557
 30
0.0
 42
1.0
  0
VERTEX
  5
E03
330
E01
100
AcDbEntity
  8
LOGO
 62
     5
100
AcDbVertex
100
AcDb2dVertex
 10
558.9859301047637
 20
116.0719043516557
 30
0.0
 42
1.0
  0
SEQEND
  5
E04
330
E01
100
AcDbEntity
  8
LOGO
 62
     5
  0
SOLID
  5
E05
330
1F
100
AcDbEntity
  8
LOGO
 62
     5
100
AcDbTrace
 10
558.7698462662656
 20
117.7892231421015
 30
0.0
 11
559.1991759638766
 21
117.7892231421015
 31
0.0
 12
558.7698462662656
 22
114.998580107628
 32
0.0
 13
559.1991759638766
 23
114.998580107628
 33
0.0
  0
SOLID
  5
E06
330
1F
100
AcDbEntity
  8
LOGO
 62
     5
100
AcDbTrace
 10
559.7000749220808
 20
117.1452285956841
 30
0.0
 11
560.1294046196914
 21
117.1452285956841
 31
0.0
 12
559.7000749220808
 22
114.998580107628
 32
0.0
 13
560.1294046196914
 23
114.998580107628
 33
0.0
  0
SOLID
  5
E07
330
1F
100
AcDbEntity
  8
LOGO
 62
     5
100
AcDbTrace
 10
560.9880640149135
 20
116.2865692004616
 30
0.0
 11
561.4173937125253
 21
116.2865692004616
 31
0.0
 12
560.9880640149135
 22
114.998580107628
 32
0.0
 13
561.4173937125253
 23
114.998580107628
 33
0.0
  0
SOLID
  5
E08
330
1F
100
AcDbEntity
  8
LOGO
 62
     5
100
AcDbTrace
 10
562.2760531077475
 20
116.2865692004616
 30
0.0
 11
562.7053828053585
 21
116.2865692004616
 31
0.0
 12
562.2760531077475
 22
114.9985801076273
 32
0.0
 13
562.7053828053585
 23
114.9985801076273
 33
0.0
  0
SOLID
  5
E09
330
1F
100
AcDbEntity
  8
LOGO
 62
     5
100
AcDbTrace
 10
553.9040810713572
 20
117.4457593840122
 30
0.0
 11
554.3334107689696
 21
117.4457593840122
 31
0.0
 12
553.9040810713572
 22
117.7892231421015
 32
0.0
 13
554.3334107689696
 23
117.7892231421015
 33
0.0
  0
SOLID
  5
E0A
330
1F
100
AcDbEntity
  8
LOGO
 62
     5
100
AcDbTrace
 10
553.9040810713572
 20
117.1452285956841
 30
0.0
 11
554.3334107689696
 21
117.1452285956841
 31
0.0
 12
553.9040810713572
 22
114.9985801076273
 32
0.0
 13
554.3334107689696
 23
114.998580107628
 33
0.0
  0
SOLID
  5
E0B
330
1F
100
AcDbEntity
  8
LOGO
 62
     5
100
AcDbTrace
 10
558.1258946528175
 20
119.2918770837406
 30
0.0
 11
559.3709507758908
 21
119.2918770837406
 31
0.0
 12
558.1258946528175
 22
125.588712648706
 32
0.0
 13
559.3709507758908
 23
130.1539184333061
 33
0.0
  0
SOLID
  5
E0C
330
1F
100
AcDbEntity
  8
LOGO
 62
     5
100
AcDbTrace
 10
559.886146413025
 20
131.0984437680508
 30
0.0
 11
561.1312025360971
 21
131.0984437680515
 31
0.0
 12
559.886146413025
 22
120.2364024184853
 32
0.0
 13
561.1312025360971
 23
124.8016082030855
 33
0.0
  0
SOLID
  5
E0D
330
1F
100
AcDbEntity
  8
LOGO
 62
     2
100
AcDbTrace
 10
559.3709507758908
 20
131.0984437680508
 30
0.0
 11
559.886146413025
 21
131.0984437680508
 31
0.0
 12
559.3709507758908
 22
119.2918770837406
 32
0.0
 13
559.886146413025
 23
119.2918770837406
 33
0.0
  0
SOLID
  5
E0E
330
1F
100
AcDbEntity
  8
LOGO
 62
     5
100
AcDbTrace
 10
559.886146413025
 20
120.2364024184853
 30
0.0
 11
561.1312025360971
 21
124.8016082030855
 31
0.0
 12
565.8108962400599
 22
131.0984437680515
 32
0.0
 13
564.5658401169878
 23
131.0984437680515
 33
0.0
  0
SOLID
  5
E0F
330
1F
100
AcDbEntity
  8
LOGO
 62
     5
100
AcDbTrace
 10
559.886146413025
 20
119.2918770837406
 30
0.0
 11
561.1312025360971
 21
119.2918770837406
 31
0.0
 12
565.8108962400599
 22
130.1539184333061
 32
0.0
 13
564.5658401169878
 23
125.588712648706
 33
0.0
  0
SOLID
  5
E10
330
1F
100
AcDbEntity
  8
LOGO
 62
     2
100
AcDbTrace
 10
559.3709507758908
 20
119.2918770837406
 30
0.0
 11
559.886146413025
 21
119.2918770837406
 31
0.0
 12
565.8108962400599
 22
131.0984437680515
 32
0.0
 13
566.3260918771941
 23
131.0984437680508
 33
0.0
  0
LWPOLYLINE
  5
E11
330
1F
100
AcDbEntity
  8
LOGO
 62
     4
100
AcDbPolyline
 90
        4
 70
     1
 43
0.0
 10
548.6983356264403
 20
131.7824781637227
 10
899.6507079594719
 20
131.7824781637227
 10
899.6507079594719
 20
102.9866482994688
 10
548.6983356264403
 20
102.9866482994688
1001
GENIUS_GENREC_14
1002
{
1000
PYDIR
1011
548.6983356264403
1021
102.9866482994688
1031
0.0
1002
}
1002
{
1000
PXDIR
1011
899.6507079594719
1021
131.7824781637227
1031
0.0
1002
}
1002
{
1000
PORI
1011
548.6983356264403
1021
131.7824781637227
1031
0.0
1002
}
1002
{
1000
PINS
1011
548.6983356264403
1021
131.7824781637227
1031
0.0
1002
}
1002
{
1000
PINS2
1011
899.6507079594719
1021
102.9866482994688
1031
0.0
1002
}
1002
{
1000
C
1070
     1
1002
}
1001
GENIUS_GENOBJ-N-REC_13
1002
{
1000
OWNER
1000
GEN
1002
}
1001
GENIUS_GENODEF_13
1002
{
1000
HIER
1070
     0
1002
}
1002
{
1000
MANEDIT
1070
     0
1002
}
1002
{
1000
NOSEL
1070
     0
1002
}
1002
{
1000
BEHIND
1070
     0
1002
}
1002
{
1000
OTHER
1070
     0
1002
}
1002
{
1000
REACTOR
1002
}
  0
CIRCLE
  5
E12
330
1F
100
AcDbEntity
  8
LOGO
  6
Continuous
100
AcDbCircle
 10
598.1838494902082
 20
123.149888653527
 30
0.0
 40
1.671953659661709
  0
CIRCLE
  5
E13
330
1F
100
AcDbEntity
  8
LOGO
  6
Continuous
100
AcDbCircle
 10
598.1838494902082
 20
123.149888653527
 30
0.0
 40
0.9796168348784599
  0
LINE
  5
E14
330
1F
100
AcDbEntity
  8
LOGO
100
AcDbLine
 10
608.6906002928209
 20
121.477934993865
 30
0.0
 11
608.6906002928209
 21
124.821842313189
 31
0.0
  0
LINE
  5
E15
330
1F
100
AcDbEntity
  8
LOGO
100
AcDbLine
 10
603.449121544501
 20
122.1702718186487
 30
0.0
 11
603.449121544501
 21
124.1295054884056
 31
0.0
  0
LINE
  5
E16
330
1F
100
AcDbEntity
  8
LOGO
  6
Continuous
100
AcDbLine
 10
603.449121544501
 20
124.1295054884056
 30
0.0
 11
608.6906002928209
 21
124.821842313189
 31
0.0
  0
LINE
  5
E17
330
1F
100
AcDbEntity
  8
LOGO
  6
Continuous
100
AcDbLine
 10
603.449121544501
 20
122.1702718186487
 30
0.0
 11
608.6906002928209
 21
121.477934993865
 31
0.0
  0
LINE
  5
E18
330
1F
100
AcDbEntity
  8
LOGO
  6
AM_ISO08W050x2
 48
0.3
100
AcDbLine
 10
595.8790363348299
 20
123.149888653527
 30
0.0
 11
600.4886626455864
 21
123.149888653527
 31
0.0
1001
GENIUS_GENOREF_13
1005
E4F
  0
LINE
  5
E19
330
1F
100
AcDbEntity
  8
LOGO
  6
AM_ISO08W050x2
 48
0.3
100
AcDbLine
 10
598.1838494902082
 20
120.8450754981487
 30
0.0
 11
598.1838494902082
 21
125.4547018089053
 31
0.0
1001
GENIUS_GENOREF_13
1005
E4E
  0
LINE
  5
E1A
330
1F
100
AcDbEntity
  8
LOGO
  6
CENTER
 48
0.5
100
AcDbLine
 10
603.0299489308556
 20
123.149888653527
 30
0.0
 11
609.2184002352352
 21
123.149888653527
 31
0.0
1001
GENIUS_GENOREF_13
1005
E4D
  0
TEXT
  5
E1B
330
1F
100
AcDbEntity
  8
LOGO
 62
     7
100
AcDbText
 10
613.7174127605788
 20
119.1675151031091
 30
0.0
 40
3.839443981900452
  1
Order example:
 41
0.8
  7
CHINESET
100
AcDbText
  0
TEXT
  5
E1C
330
1F
100
AcDbEntity
  8
LOGO
 62
     7
100
AcDbText
 10
614.4062407618418
 20
124.5726572626048
 30
0.0
 40
5.759165972850678
  1
訂購代號：
  7
CHINESET
100
AcDbText
  0
TEXT
  5
E1D
330
1F
100
AcDbEntity
  8
LOGO
100
AcDbText
 10
612.9513725791801
 20
104.5185750827159
 30
0.0
 40
2.88
  1
30906264
 41
0.7
  7
CHINESET
 72
     1
 11
620.3913725791801
 21
104.5185750827159
 31
0.0
100
AcDbText
  0
LINE
  5
E1E
330
1F
100
AcDbEntity
  8
LOGO
 62
     4
100
AcDbLine
 10
629.3291613277965
 20
108.7458142723206
 30
0.0
 11
629.3291613277978
 21
102.9866482994695
 31
0.0
  0
LINE
  5
E1F
330
1F
100
AcDbEntity
  8
LOGO
 62
     4
100
AcDbLine
 10
629.3291613277965
 20
108.7458142723206
 30
0.0
 11
612.0491613277978
 21
108.7458142723206
 31
0.0
  0
LINE
  5
E20
330
1F
100
AcDbEntity
  8
LOGO
 62
     4
100
AcDbLine
 10
670.8537671917723
 20
115.9447717383837
 30
0.0
 11
670.8537671917723
 21
105.3863007881572
 31
0.0
  0
LINE
  5
E21
330
1F
100
AcDbEntity
  8
LOGO
 62
     4
100
AcDbLine
 10
651.65654728227
 20
115.9447717383837
 30
0.0
 11
651.65654728227
 21
105.3863007881572
 31
0.0
  0
LINE
  5
E22
330
1F
100
AcDbEntity
  8
LOGO
 62
     4
100
AcDbLine
 10
670.8537671917723
 20
105.3863007881572
 30
0.0
 11
651.65654728227
 21
105.3863007881572
 31
0.0
  0
LINE
  5
E23
330
1F
100
AcDbEntity
  8
LOGO
 62
     4
100
AcDbLine
 10
674.4123460599795
 20
128.9028951772972
 30
0.0
 11
651.65654728227
 21
128.9028951772972
 31
0.0
  0
LINE
  5
E24
330
1F
100
AcDbEntity
  8
LOGO
 62
     4
100
AcDbLine
 10
674.4123460599795
 20
120.2641462180213
 30
0.0
 11
651.65654728227
 21
120.2641462180213
 31
0.0
  0
LINE
  5
E25
330
1F
100
AcDbEntity
  8
LOGO
 62
     4
100
AcDbLine
 10
651.65654728227
 20
128.9028951772972
 30
0.0
 11
651.65654728227
 21
120.2641462180213
 31
0.0
  0
LINE
  5
E26
330
1F
100
AcDbEntity
  8
LOGO
 62
     4
100
AcDbLine
 10
674.4123460599795
 20
128.9028951772972
 30
0.0
 11
674.4123460599795
 21
120.2641462180213
 31
0.0
  0
LINE
  5
E27
330
1F
100
AcDbEntity
  8
LOGO
 62
     4
100
AcDbLine
 10
662.2567699416816
 20
120.2641462180213
 30
0.0
 11
662.2567699416816
 21
115.9447717383837
 31
0.0
  0
TEXT
  5
E28
330
1F
100
AcDbEntity
  8
LOGO
  6
Continuous
 62
     7
100
AcDbText
 10
653.1915176773932
 20
122.0674724334208
 30
0.0
 40
5.04
  1
MVSY
  7
CHINESET
100
AcDbText
  0
LINE
  5
E29
330
1F
100
AcDbEntity
  8
LOGO
 62
     4
100
AcDbLine
 10
670.8537671917723
 20
115.9447717383837
 30
0.0
 11
651.65654728227
 21
115.9447717383837
 31
0.0
  0
TEXT
  5
E2A
330
1F
100
AcDbEntity
  8
LOGO
  6
Continuous
100
AcDbText
 10
657.8168743737559
 20
106.8766065730239
 30
188.7231250944717
 40
2.16
  1
Model
 41
0.8
  7
CHINESET
100
AcDbText
  0
TEXT
  5
E2B
330
1F
100
AcDbEntity
  8
LOGO
100
AcDbText
 10
657.2419525910371
 20
110.880781059799
 30
188.7231250944717
 40
3.6
  1
型號
  7
CHINESET
100
AcDbText
  0
LINE
  5
E2C
330
1F
100
AcDbEntity
  8
LOGO
  6
Continuous
 62
     7
100
AcDbLine
 10
675.3307164726277
 20
124.5529208836006
 30
0.0
 11
679.1452727991007
 21
124.5529208836006
 31
0.0
  0
TEXT
  5
E2D
330
1F
100
AcDbEntity
  8
LOGO
  6
Continuous
 62
     7
100
AcDbText
 10
680.2515592174272
 20
122.0674724334208
 30
0.0
 40
5.04
  1
156M
  7
CHINESET
100
AcDbText
  0
LINE
  5
E2E
330
1F
100
AcDbEntity
  8
LOGO
  6
Continuous
 62
     7
100
AcDbLine
 10
699.4816123923475
 20
124.5529208836006
 30
0.0
 11
703.2961687188205
 21
124.5529208836006
 31
0.0
  0
LINE
  5
E2F
330
1F
100
AcDbEntity
  8
LOGO
 62
     4
100
AcDbLine
 10
702.1410404167376
 20
115.9447717383837
 30
0.0
 11
702.1410404167376
 21
105.3863007881572
 31
0.0
  0
LINE
  5
E30
330
1F
100
AcDbEntity
  8
LOGO
 62
     4
100
AcDbLine
 10
684.6065702585389
 20
115.9447717383837
 30
0.0
 11
684.6065702585389
 21
105.3863007881572
 31
0.0
  0
LINE
  5
E31
330
1F
100
AcDbEntity
  8
LOGO
 62
     4
100
AcDbLine
 10
702.1410404167376
 20
105.3863007881572
 30
0.0
 11
684.6065702585389
 21
105.3863007881572
 31
0.0
  0
LINE
  5
E32
330
1F
100
AcDbEntity
  8
LOGO
 62
     4
100
AcDbLine
 10
715.4243307977008
 20
128.9028951772972
 30
0.0
 11
704.4994601625587
 21
128.9028951772972
 31
0.0
  0
LINE
  5
E33
330
1F
100
AcDbEntity
  8
LOGO
 62
     4
100
AcDbLine
 10
715.4243307977008
 20
120.2641462180213
 30
0.0
 11
704.4994601625587
 21
120.2641462180213
 31
0.0
  0
LINE
  5
E34
330
1F
100
AcDbEntity
  8
LOGO
 62
     4
100
AcDbLine
 10
704.4994601625587
 20
128.9028951772972
 30
0.0
 11
704.4994601625587
 21
120.2641462180213
 31
0.0
  0
LINE
  5
E35
330
1F
100
AcDbEntity
  8
LOGO
 62
     4
100
AcDbLine
 10
715.4243307977008
 20
128.9028951772972
 30
0.0
 11
715.4243307977008
 21
120.2641462180213
 31
0.0
  0
LINE
  5
E36
330
1F
100
AcDbEntity
  8
LOGO
 62
     4
100
AcDbLine
 10
711.1367708910194
 20
120.2641462180213
 30
0.0
 11
711.1367708910194
 21
118.1044589782025
 31
0.0
  0
TEXT
  5
E37
330
1F
100
AcDbEntity
  8
LOGO
  6
Continuous
 62
     7
100
AcDbText
 10
705.6492545490392
 20
122.0674724334208
 30
0.0
 40
5.04
  1
5M
  7
CHINESET
100
AcDbText
  0
LINE
  5
E38
330
1F
100
AcDbEntity
  8
LOGO
 62
     4
100
AcDbLine
 10
702.1410404167376
 20
115.9447717383837
 30
0.0
 11
684.6065702585389
 21
115.9447717383837
 31
0.0
  0
LINE
  5
E39
330
1F
100
AcDbEntity
  8
LOGO
 62
     4
100
AcDbLine
 10
723.9246843486981
 20
115.9447717383837
 30
0.0
 11
723.9246843486981
 21
105.3863007881572
 31
0.0
  0
LINE
  5
E3A
330
1F
100
AcDbEntity
  8
LOGO
 62
     4
100
AcDbLine
 10
708.2854882901715
 20
115.9447717383837
 30
0.0
 11
708.2854882901715
 21
105.3863007881572
 31
0.0
  0
LINE
  5
E3B
330
1F
100
AcDbEntity
  8
LOGO
 62
     4
100
AcDbLine
 10
723.9246843486981
 20
105.3863007881572
 30
0.0
 11
708.2854882901715
 21
105.3863007881572
 31
0.0
  0
LINE
  5
E3C
330
1F
100
AcDbEntity
  8
LOGO
 62
     4
100
AcDbLine
 10
723.9158971737764
 20
128.9028951772972
 30
0.0
 11
716.5916039960981
 21
128.9028951772972
 31
0.0
  0
LINE
  5
E3D
330
1F
100
AcDbEntity
  8
LOGO
 62
     4
100
AcDbLine
 10
723.9158971737764
 20
120.2641462180213
 30
0.0
 11
716.5916039960981
 21
120.2641462180213
 31
0.0
  0
LINE
  5
E3E
330
1F
100
AcDbEntity
  8
LOGO
 62
     4
100
AcDbLine
 10
716.5916039960981
 20
128.9028951772972
 30
0.0
 11
716.5916039960981
 21
120.2641462180213
 31
0.0
  0
LINE
  5
E3F
330
1F
100
AcDbEntity
  8
LOGO
 62
     4
100
AcDbLine
 10
723.9158971737764
 20
128.9028951772972
 30
0.0
 11
723.9158971737764
 21
120.2641462180213
 31
0.0
  0
LINE
  5
E40
330
1F
100
AcDbEntity
  8
LOGO
 62
     4
100
AcDbLine
 10
721.1872984942592
 20
120.2641462180213
 30
0.0
 11
721.1872984942585
 21
118.1044589782025
 31
0.0
  0
TEXT
  5
E41
330
1F
100
AcDbEntity
  8
LOGO
  6
Continuous
 62
     7
100
AcDbText
 10
718.5226031037457
 20
122.0674724334208
 30
0.0
 40
5.04
  1
*
  7
CHINESET
100
AcDbText
  0
LINE
  5
E42
330
1F
100
AcDbEntity
  8
LOGO
 62
     4
100
AcDbLine
 10
723.9246843486981
 20
115.9447717383837
 30
0.0
 11
708.2854882901715
 21
115.9447717383837
 31
0.0
  0
TEXT
  5
E43
330
1F
100
AcDbEntity
  8
LOGO
  6
Continuous
100
AcDbText
 10
688.6276032183356
 20
106.8766065730239
 30
188.7231250944717
 40
2.16
  1
Manifold
 41
0.8
  7
CHINESET
100
AcDbText
  0
TEXT
  5
E44
330
1F
100
AcDbEntity
  8
LOGO
100
AcDbText
 10
689.4985384901405
 20
110.880781059799
 30
188.7231250944717
 40
3.6
  1
連座
  7
CHINESET
100
AcDbText
  0
TEXT
  5
E45
330
1F
100
AcDbEntity
  8
LOGO
  6
Continuous
100
AcDbText
 10
710.9194846569789
 20
106.8766065730239
 30
188.7231250944717
 40
2.16
  1
Number
 41
0.8
  7
CHINESET
100
AcDbText
  0
TEXT
  5
E46
330
1F
100
AcDbEntity
  8
LOGO
100
AcDbText
 10
710.7697173574949
 20
110.880781059799
 30
188.7231250944717
 40
3.6
  1
連座數
  7
CHINESET
100
AcDbText
  0
LINE
  5
E47
330
1F
100
AcDbEntity
  8
LOGO
 62
     4
100
AcDbLine
 10
711.1367708910194
 20
118.1044589782025
 30
0.0
 11
694.2051802132903
 21
118.1044589782025
 31
0.0
  0
LINE
  5
E48
330
1F
100
AcDbEntity
  8
LOGO
 62
     4
100
AcDbLine
 10
694.2051802132903
 20
115.9447717383837
 30
0.0
 11
694.2051802132903
 21
118.1044589782025
 31
0.0
  0
LINE
  5
E49
330
1F
100
AcDbEntity
  8
LOGO
 62
     4
100
AcDbLine
 10
716.1050863194344
 20
115.9447717383837
 30
0.0
 11
716.1050863194344
 21
118.1044589782025
 31
0.0
  0
LINE
  5
E4A
330
1F
100
AcDbEntity
  8
LOGO
 62
     4
100
AcDbLine
 10
721.1872984942592
 20
118.1044589782025
 30
0.0
 11
716.1050863194344
 21
118.1044589782025
 31
0.0
  0
POINT
  5
E4D
330
1F
100
AcDbEntity
  8
0
 60
     1
100
AcDbPoint
 10
-1897.544112831003
 20
-477.3049321738528
 30
0.0
1001
GENIUS_GENOBJ-N-CRS_13
1002
{
1000
OWNER
1000
GEN
1002
}
1001
GENIUS_GENOLIS_13
1002
{
1000
ENT
1005
0
1005
0
1005
0
1005
E1A
1002
}
1001
GENIUS_GENOENT_13
1002
{
1000
MYREF
1005
E4D
1002
}
1002
{
1000
GRP
1005
0
1002
}
1001
GENIUS_GENODEF_13
1002
{
1000
HIER
1070
    10
1002
}
1002
{
1000
MANEDIT
1070
     1
1002
}
1002
{
1000
NOSEL
1070
     0
1002
}
1002
{
1000
BEHIND
1070
     0
1002
}
1002
{
1000
OTHER
1070
     0
1002
}
1002
{
1000
REACTOR
1002
}
  0
POINT
  5
E4E
330
1F
100
AcDbEntity
  8
0
 60
     1
100
AcDbPoint
 10
-1908.868698053857
 20
-468.4293456952166
 30
0.0
1001
GENIUS_GENOBJ-N-CRS_13
1002
{
1000
OWNER
1000
GEN
1002
}
1001
GENIUS_GENOLIS_13
1002
{
1000
ENT
1005
0
1005
0
1005
0
1005
E19
1002
}
1001
GENIUS_GENOENT_13
1002
{
1000
MYREF
1005
E4E
1002
}
1002
{
1000
GRP
1005
0
1002
}
1001
GENIUS_GENODEF_13
1002
{
1000
HIER
1070
    10
1002
}
1002
{
1000
MANEDIT
1070
     1
1002
}
1002
{
1000
NOSEL
1070
     0
1002
}
1002
{
1000
BEHIND
1070
     0
1002
}
1002
{
1000
OTHER
1070
     0
1002
}
1002
{
1000
REACTOR
1002
}
  0
POINT
  5
E4F
330
1F
100
AcDbEntity
  8
0
 60
     1
100
AcDbPoint
 10
-1902.51002435602
 20
-477.3049321738528
 30
0.0
1001
GENIUS_GENOBJ-N-CRS_13
1002
{
1000
OWNER
1000
GEN
1002
}
1001
GENIUS_GENOLIS_13
1002
{
1000
ENT
1005
0
1005
0
1005
0
1005
E18
1002
}
1001
GENIUS_GENOENT_13
1002
{
1000
MYREF
1005
E4F
1002
}
1002
{
1000
GRP
1005
0
1002
}
1001
GENIUS_GENODEF_13
1002
{
1000
HIER
1070
    10
1002
}
1002
{
1000
MANEDIT
1070
     1
1002
}
1002
{
1000
NOSEL
1070
     0
1002
}
1002
{
1000
BEHIND
1070
     0
1002
}
1002
{
1000
OTHER
1070
     0
1002
}
1002
{
1000
REACTOR
1002
}
  0
LINE
  5
1382
330
1F
100
AcDbEntity
  8
SL
  6
ACISOTGB
 62
     4
100
AcDbLine
 10
626.497421895881
 20
197.1893067594437
 30
0.0
 11
626.4974218958808
 21
223.4229165702497
 31
0.0
  0
LINE
  5
1391
330
1F
100
AcDbEntity
  8
SL
  6
ACISOTGB
 62
     4
100
AcDbLine
 10
618.8756899282346
 20
197.1893067594434
 30
0.0
 11
626.497421895881
 21
197.1893067594437
 31
0.0
  0
LINE
  5
1392
330
1F
100
AcDbEntity
  8
SL
  6
ACISOTGB
 62
     4
100
AcDbLine
 10
618.8756899282346
 20
197.1893067594435
 30
0.0
 11
618.8756899282346
 21
173.2747415901225
 31
0.0
  0
ARC
  5
2062
330
1F
100
AcDbEntity
  8
AM_4
  6
AM_ISO02W050x2
100
AcDbCircle
 10
716.5382876370901
 20
196.1674913726402
 30
0.0
 40
6.5785
100
AcDbArc
 50
258.4816047092878
 51
199.9523797863535
  0
LINE
  5
2064
330
1F
100
AcDbEntity
  8
AM_7
100
AcDbLine
 10
594.6778427931135
 20
287.4174913726402
 30
0.0
 11
596.1778427931135
 21
287.4174913726402
 31
0.0
  0
LINE
  5
2065
330
1F
100
AcDbEntity
  8
AM_7
100
AcDbLine
 10
595.4278427931135
 20
286.6674913726403
 30
0.0
 11
595.4278427931135
 21
288.1674913726403
 31
0.0
  0
LINE
  5
2066
330
1F
100
AcDbEntity
  8
AM_7
100
AcDbLine
 10
591.1778427931135
 20
287.4174913726402
 30
0.0
 11
593.8778427931135
 21
287.4174913726402
 31
0.0
  0
LINE
  5
2067
330
1F
100
AcDbEntity
  8
AM_7
100
AcDbLine
 10
596.9778427931136
 20
287.4174913726402
 30
0.0
 11
599.6778427931135
 21
287.4174913726402
 31
0.0
  0
LINE
  5
2068
102
{ACAD_REACTORS
330
2C73
102
}
330
1F
100
AcDbEntity
  8
AM_7
100
AcDbLine
 10
595.4278427931135
 20
283.1674913726402
 30
0.0
 11
595.4278427931135
 21
285.8674913726402
 31
0.0
  0
LINE
  5
2069
330
1F
100
AcDbEntity
  8
AM_7
100
AcDbLine
 10
595.4278427931135
 20
288.9674913726402
 30
0.0
 11
595.4278427931135
 21
291.6674913726403
 31
0.0
  0
LINE
  5
206A
330
1F
100
AcDbEntity
  8
AM_7
100
AcDbLine
 10
644.1778427931136
 20
287.4174913726402
 30
0.0
 11
645.6778427931136
 21
287.4174913726402
 31
0.0
  0
LINE
  5
206B
330
1F
100
AcDbEntity
  8
AM_7
100
AcDbLine
 10
644.9278427931136
 20
286.6674913726403
 30
0.0
 11
644.9278427931136
 21
288.1674913726403
 31
0.0
  0
LINE
  5
206C
330
1F
100
AcDbEntity
  8
AM_7
100
AcDbLine
 10
640.6778427931136
 20
287.4174913726402
 30
0.0
 11
643.3778427931135
 21
287.4174913726402
 31
0.0
  0
LINE
  5
206D
330
1F
100
AcDbEntity
  8
AM_7
100
AcDbLine
 10
646.4778427931136
 20
287.4174913726402
 30
0.0
 11
649.1778427931136
 21
287.4174913726402
 31
0.0
  0
LINE
  5
206E
102
{ACAD_REACTORS
330
2C73
102
}
330
1F
100
AcDbEntity
  8
AM_7
100
AcDbLine
 10
644.9278427931136
 20
283.1674913726402
 30
0.0
 11
644.9278427931136
 21
285.8674913726402
 31
0.0
  0
LINE
  5
206F
330
1F
100
AcDbEntity
  8
AM_7
100
AcDbLine
 10
644.9278427931136
 20
288.9674913726402
 30
0.0
 11
644.9278427931136
 21
291.6674913726403
 31
0.0
  0
LINE
  5
2070
330
1F
100
AcDbEntity
  8
AM_7
100
AcDbLine
 10
594.6778427931135
 20
307.4174913726403
 30
0.0
 11
596.1778427931135
 21
307.4174913726403
 31
0.0
  0
LINE
  5
2071
330
1F
100
AcDbEntity
  8
AM_7
100
AcDbLine
 10
595.4278427931135
 20
306.6674913726402
 30
0.0
 11
595.4278427931135
 21
308.1674913726403
 31
0.0
  0
LINE
  5
2072
330
1F
100
AcDbEntity
  8
AM_7
100
AcDbLine
 10
591.1778427931135
 20
307.4174913726403
 30
0.0
 11
593.8778427931135
 21
307.4174913726403
 31
0.0
  0
LINE
  5
2073
330
1F
100
AcDbEntity
  8
AM_7
100
AcDbLine
 10
596.9778427931136
 20
307.4174913726403
 30
0.0
 11
599.6778427931135
 21
307.4174913726403
 31
0.0
  0
LINE
  5
2074
330
1F
100
AcDbEntity
  8
AM_7
100
AcDbLine
 10
595.4278427931135
 20
303.1674913726403
 30
0.0
 11
595.4278427931135
 21
305.8674913726402
 31
0.0
  0
LINE
  5
2075
330
1F
100
AcDbEntity
  8
AM_7
100
AcDbLine
 10
595.4278427931135
 20
308.9674913726402
 30
0.0
 11
595.4278427931135
 21
311.6674913726403
 31
0.0
  0
LINE
  5
2076
330
1F
100
AcDbEntity
  8
AM_7
100
AcDbLine
 10
644.1778427931136
 20
307.4174913726403
 30
0.0
 11
645.6778427931136
 21
307.4174913726403
 31
0.0
  0
LINE
  5
2077
330
1F
100
AcDbEntity
  8
AM_7
100
AcDbLine
 10
644.9278427931136
 20
306.6674913726402
 30
0.0
 11
644.9278427931136
 21
308.1674913726403
 31
0.0
  0
LINE
  5
2078
330
1F
100
AcDbEntity
  8
AM_7
100
AcDbLine
 10
640.6778427931136
 20
307.4174913726403
 30
0.0
 11
643.3778427931135
 21
307.4174913726403
 31
0.0
  0
LINE
  5
2079
330
1F
100
AcDbEntity
  8
AM_7
100
AcDbLine
 10
646.4778427931136
 20
307.4174913726403
 30
0.0
 11
649.1778427931136
 21
307.4174913726403
 31
0.0
  0
LINE
  5
207A
330
1F
100
AcDbEntity
  8
AM_7
100
AcDbLine
 10
644.9278427931136
 20
303.1674913726403
 30
0.0
 11
644.9278427931136
 21
305.8674913726402
 31
0.0
  0
LINE
  5
207B
330
1F
100
AcDbEntity
  8
AM_7
100
AcDbLine
 10
644.9278427931136
 20
308.9674913726402
 30
0.0
 11
644.9278427931136
 21
311.6674913726403
 31
0.0
  0
LINE
  5
208C
330
1F
100
AcDbEntity
  8
AM_7
100
AcDbLine
 10
586.9278427931135
 20
296.4174913726402
 30
0.0
 11
652.4807566897824
 21
296.4174913726402
 31
0.0
  0
LINE
  5
2094
330
1F
100
AcDbEntity
  8
AM_7
100
AcDbLine
 10
611.4278427931135
 20
273.1965846689368
 30
0.0
 11
611.4278427931135
 21
317.7523998115266
 31
0.0
  0
DIMENSION
  5
209B
330
1F
100
AcDbEntity
  8
AM_5
100
AcDbDimension
  2
*D2
 10
569.2945094611135
 20
178.5674913726402
 30
0.0
 11
566.8441649729245
 21
192.3174913726403
 31
0.0
 70
    32
 71
     5
 42
27.5
  3
AM_ISO$0
100
AcDbAlignedDimension
 13
610.2053427931135
 23
206.0674913726402
 33
0.0
 14
590.4278427931135
 24
178.5674913726402
 34
0.0
 50
90.0
100
AcDbRotatedDimension
1001
ACAD
1000
DSTYLE
1002
{
1070
   272
1070
     8
1002
}
  0
LINE
  5
209C
330
1F
100
AcDbEntity
  8
AM_7
100
AcDbLine
 10
604.8778427931136
 20
278.4174913726403
 30
0.0
 11
606.3778427931135
 21
278.4174913726403
 31
0.0
  0
LINE
  5
209D
330
1F
100
AcDbEntity
  8
AM_7
100
AcDbLine
 10
605.6278427931135
 20
277.6674913726402
 30
0.0
 11
605.6278427931135
 21
279.1674913726402
 31
0.0
  0
LINE
  5
209E
330
1F
100
AcDbEntity
  8
AM_7
100
AcDbLine
 10
602.3283427931136
 20
278.4174913726403
 30
0.0
 11
604.0778427931136
 21
278.4174913726403
 31
0.0
  0
LINE
  5
209F
330
1F
100
AcDbEntity
  8
AM_7
100
AcDbLine
 10
607.1778427931135
 20
278.4174913726403
 30
0.0
 11
608.9273427931135
 21
278.4174913726403
 31
0.0
  0
LINE
  5
20A0
330
1F
100
AcDbEntity
  8
AM_7
100
AcDbLine
 10
605.6278427931135
 20
275.1179913726403
 30
0.0
 11
605.6278427931135
 21
276.8674913726402
 31
0.0
  0
LINE
  5
20A1
330
1F
100
AcDbEntity
  8
AM_7
100
AcDbLine
 10
605.6278427931135
 20
279.9674913726402
 30
0.0
 11
605.6278427931135
 21
281.7169913726402
 31
0.0
  0
LINE
  5
20A2
330
1F
100
AcDbEntity
  8
AM_7
100
AcDbLine
 10
616.4778427931135
 20
314.4174913726403
 30
0.0
 11
617.9778427931136
 21
314.4174913726403
 31
0.0
  0
LINE
  5
20A3
330
1F
100
AcDbEntity
  8
AM_7
100
AcDbLine
 10
617.2278427931136
 20
313.6674913726403
 30
0.0
 11
617.2278427931136
 21
315.1674913726403
 31
0.0
  0
LINE
  5
20A4
330
1F
100
AcDbEntity
  8
AM_7
100
AcDbLine
 10
613.9283427931135
 20
314.4174913726403
 30
0.0
 11
615.6778427931135
 21
314.4174913726403
 31
0.0
  0
LINE
  5
20A5
330
1F
100
AcDbEntity
  8
AM_7
100
AcDbLine
 10
618.7778427931135
 20
314.4174913726403
 30
0.0
 11
620.5273427931135
 21
314.4174913726403
 31
0.0
  0
LINE
  5
20A6
330
1F
100
AcDbEntity
  8
AM_7
100
AcDbLine
 10
617.2278427931136
 20
311.1179913726402
 30
0.0
 11
617.2278427931136
 21
312.8674913726403
 31
0.0
  0
LINE
  5
20A7
330
1F
100
AcDbEntity
  8
AM_7
100
AcDbLine
 10
617.2278427931136
 20
315.9674913726402
 30
0.0
 11
617.2278427931136
 21
317.7169913726402
 31
0.0
  0
ARC
  5
20A8
330
1F
100
AcDbEntity
  8
AM_4
  6
AM_ISO02W050x2
100
AcDbCircle
 10
605.6278427931135
 20
278.4174913726403
 30
0.0
 40
1.586
100
AcDbArc
 50
244.5413522392895
 51
199.3417207102602
  0
LINE
  5
20C7
330
1F
100
AcDbEntity
  8
AM_7
100
AcDbLine
 10
628.9278427931137
 20
272.5918406491473
 30
0.0
 11
628.9278427931137
 21
319.4322475096153
 31
0.0
  0
LINE
  5
20DA
330
1F
100
AcDbEntity
  8
AM_7
100
AcDbLine
 10
622.3778427931137
 20
278.4174913726403
 30
0.0
 11
623.8778427931137
 21
278.4174913726403
 31
0.0
  0
LINE
  5
20DB
330
1F
100
AcDbEntity
  8
AM_7
100
AcDbLine
 10
623.1278427931137
 20
277.6674913726402
 30
0.0
 11
623.1278427931137
 21
279.1674913726402
 31
0.0
  0
LINE
  5
20DC
330
1F
100
AcDbEntity
  8
AM_7
100
AcDbLine
 10
619.8283427931136
 20
278.4174913726403
 30
0.0
 11
621.5778427931135
 21
278.4174913726403
 31
0.0
  0
LINE
  5
20DD
330
1F
100
AcDbEntity
  8
AM_7
100
AcDbLine
 10
624.6778427931136
 20
278.4174913726403
 30
0.0
 11
626.4273427931136
 21
278.4174913726403
 31
0.0
  0
LINE
  5
20DE
330
1F
100
AcDbEntity
  8
AM_7
100
AcDbLine
 10
623.1278427931137
 20
275.1179913726403
 30
0.0
 11
623.1278427931137
 21
276.8674913726402
 31
0.0
  0
LINE
  5
20DF
330
1F
100
AcDbEntity
  8
AM_7
100
AcDbLine
 10
623.1278427931137
 20
279.9674913726402
 30
0.0
 11
623.1278427931137
 21
281.7169913726402
 31
0.0
  0
LINE
  5
20E0
330
1F
100
AcDbEntity
  8
AM_7
100
AcDbLine
 10
633.9778427931136
 20
314.4174913726403
 30
0.0
 11
635.4778427931136
 21
314.4174913726403
 31
0.0
  0
LINE
  5
20E1
330
1F
100
AcDbEntity
  8
AM_7
100
AcDbLine
 10
634.7278427931136
 20
313.6674913726403
 30
0.0
 11
634.7278427931136
 21
315.1674913726403
 31
0.0
  0
LINE
  5
20E2
330
1F
100
AcDbEntity
  8
AM_7
100
AcDbLine
 10
631.4283427931135
 20
314.4174913726403
 30
0.0
 11
633.1778427931136
 21
314.4174913726403
 31
0.0
  0
LINE
  5
20E3
330
1F
100
AcDbEntity
  8
AM_7
100
AcDbLine
 10
636.2778427931135
 20
314.4174913726403
 30
0.0
 11
638.0273427931134
 21
314.4174913726403
 31
0.0
  0
LINE
  5
20E4
330
1F
100
AcDbEntity
  8
AM_7
100
AcDbLine
 10
634.7278427931136
 20
311.1179913726402
 30
0.0
 11
634.7278427931136
 21
312.8674913726403
 31
0.0
  0
LINE
  5
20E5
330
1F
100
AcDbEntity
  8
AM_7
100
AcDbLine
 10
634.7278427931136
 20
315.9674913726402
 30
0.0
 11
634.7278427931136
 21
317.7169913726402
 31
0.0
  0
DIMENSION
  5
2112
330
1F
100
AcDbEntity
  8
AM_5
100
AcDbDimension
  2
*D3
 10
765.53828763709
 20
153.5674913726402
 30
0.0
 11
731.53828763709
 21
156.0174913726402
 31
0.0
 70
    32
 71
     5
 42
68.0
  3
AM_ISO$0
100
AcDbAlignedDimension
 13
697.53828763709
 23
178.5674913726402
 33
0.0
 14
765.53828763709
 24
178.5674913726402
 34
0.0
100
AcDbRotatedDimension
1001
ACAD
1000
DSTYLE
1002
{
1070
   272
1070
     8
1002
}
  0
DIMENSION
  5
2121
330
1F
100
AcDbEntity
  8
AM_5
100
AcDbDimension
  2
*D4
 10
590.4278427931135
 20
246.4174913726402
 30
0.0
 11
592.9278427931135
 21
246.4174913726402
 31
0.0
 70
   160
 71
     5
 42
5.0
  3
AM_ISO$0
100
AcDbAlignedDimension
 13
595.4278427931135
 23
283.1674913726402
 33
0.0
 14
590.4278427931135
 24
258.4174913726402
 34
0.0
100
AcDbRotatedDimension
1001
ACAD
1000
DSTYLE
1002
{
1070
   272
1070
     8
1002
}
  0
DIMENSION
  5
2122
330
1F
100
AcDbEntity
  8
AM_5
100
AcDbDimension
  2
*D5
 10
649.9278427931137
 20
238.4174913726402
 30
0.0
 11
620.1778427931135
 21
240.8674913726402
 31
0.0
 70
    32
  1
L
 71
     5
 42
59.50000000000011
  3
AM_ISO$0
100
AcDbAlignedDimension
 13
590.4278427931135
 23
258.4174913726402
 33
0.0
 14
649.9278427931137
 24
258.4174913726402
 34
0.0
100
AcDbRotatedDimension
1001
ACAD
1000
DSTYLE
1002
{
1070
   272
1070
     8
1002
}
  0
DIMENSION
  5
2127
330
1F
100
AcDbEntity
  8
AM_5
100
AcDbDimension
  2
*D6
 10
659.1778427931136
 20
287.4174913726402
 30
0.0
 11
656.7274983049245
 21
272.9174913726404
 31
0.0
 70
    32
 71
     5
 42
29.0
  3
AM_ISO$0
100
AcDbAlignedDimension
 13
649.9278427931137
 23
258.4174913726402
 33
0.0
 14
649.1778427931136
 24
287.4174913726402
 34
0.0
 50
90.0
100
AcDbRotatedDimension
1001
ACAD
1000
DSTYLE
1002
{
1070
   272
1070
     8
1002
}
  0
DIMENSION
  5
2128
330
1F
100
AcDbEntity
  8
AM_5
100
AcDbDimension
  2
*D7
 10
659.1778427931136
 20
307.4174913726403
 30
0.0
 11
656.7274983049245
 21
297.4174913726404
 31
0.0
 70
    32
 71
     5
 42
20.0
  3
AM_ISO$0
100
AcDbAlignedDimension
 13
649.1778427931136
 23
287.4174913726402
 33
0.0
 14
649.1778427931136
 24
307.4174913726403
 34
0.0
 50
90.0
100
AcDbRotatedDimension
1001
ACAD
1000
DSTYLE
1002
{
1070
   272
1070
     8
1002
}
  0
DIMENSION
  5
2129
330
1F
100
AcDbEntity
  8
AM_5
100
AcDbDimension
  2
*D8
 10
575.4278427931135
 20
296.4174913726402
 30
0.0
 11
572.9778427931133
 21
277.4174913726403
 31
0.0
 70
    32
 71
     5
 42
38.0
  3
AM_ISO$0
100
AcDbAlignedDimension
 13
590.4278427931135
 23
258.4174913726402
 33
0.0
 14
589.1778427931135
 24
296.4174913726402
 34
0.0
 50
90.0
100
AcDbRotatedDimension
1001
ACAD
1000
DSTYLE
1002
{
1070
   272
1070
     8
1002
}
  0
DIMENSION
  5
212D
330
1F
100
AcDbEntity
  8
AM_5
100
AcDbDimension
  2
*D9
 10
583.4278427931135
 20
278.4174913726403
 30
0.0
 11
580.9778427931133
 21
287.4174913726403
 31
0.0
 70
    32
 71
     5
 42
18.0
  3
AM_ISO$0
100
AcDbAlignedDimension
 13
587.9278427931135
 23
296.4174913726402
 33
0.0
 14
602.3283427931136
 24
278.4174913726403
 34
0.0
 50
90.0
100
AcDbRotatedDimension
1001
ACAD
1000
DSTYLE
1002
{
1070
   272
1070
     8
1002
}
  0
DIMENSION
  5
212E
330
1F
100
AcDbEntity
  8
AM_5
100
AcDbDimension
  2
*D10
 10
583.4278427931135
 20
314.4174913726403
 30
0.0
 11
580.9778427931133
 21
305.4174913726403
 31
0.0
 70
    32
 71
     5
 42
18.0
  3
AM_ISO$0
100
AcDbAlignedDimension
 13
589.1778427931135
 23
296.4174913726402
 33
0.0
 14
613.9283427931135
 24
314.4174913726403
 34
0.0
 50
90.0
100
AcDbRotatedDimension
1001
ACAD
1000
DSTYLE
1002
{
1070
   272
1070
     8
1002
}
  0
DIMENSION
  5
2131
330
1F
100
AcDbEntity
  8
AM_5
100
AcDbDimension
  2
*D11
 10
643.6774962903723
 20
305.5468942425549
 30
0.0
 11
670.7833487454954
 21
326.4174913726403
 31
0.0
 70
   163
  1
2×2-<>貫通
 71
     5
 42
4.5
  3
AM_ANSI$3
100
AcDbDiametricDimension
 15
646.1781892958547
 25
309.2880885027252
 35
0.0
 40
0.0
1001
ACAD
1000
DSTYLE
1002
{
1070
    74
1070
     1
1070
   172
1070
     0
1070
   271
1070
     1
1070
   289
1070
     3
1002
}
  0
LINE
  5
2155
330
1F
100
AcDbEntity
  8
AM_7
100
AcDbLine
 10
601.7053427931135
 20
188.5674913726402
 30
0.0
 11
617.068871364624
 21
188.5674913726402
 31
0.0
  0
LINE
  5
2157
330
1F
100
AcDbEntity
  8
AM_7
100
AcDbLine
 10
609.4278427931135
 20
180.8449913726402
 30
0.0
 11
609.4278427931135
 21
196.5416270887626
 31
0.0
  0
ARC
  5
2159
330
1F
100
AcDbEntity
  8
AM_4
  6
AM_ISO02W050x2
100
AcDbCircle
 10
609.4278427931135
 20
188.5674913726402
 30
0.0
 40
6.5785
100
AcDbArc
 50
254.9124830211938
 51
210.2768029625554
  0
DIMENSION
  5
217C
330
1F
100
AcDbEntity
  8
AM_5
100
AcDbDimension
  2
*D12
 10
575.9611761271136
 20
178.5674913726402
 30
0.0
 11
573.5111761271135
 21
183.5674913726403
 31
0.0
 70
    32
 71
     5
 42
10.00000000000003
  3
AM_ISO$0
100
AcDbAlignedDimension
 13
601.7053427931135
 23
188.5674913726402
 33
0.0
 14
590.4278427931135
 24
178.5674913726402
 34
0.0
 50
90.0
100
AcDbRotatedDimension
1001
ACAD
1000
DSTYLE
1002
{
1070
   272
1070
     8
1002
}
  0
DIMENSION
  5
217E
330
1F
100
AcDbEntity
  8
AM_5
100
AcDbDimension
  2
*D13
 10
590.4278427931135
 20
162.05082470664
 30
0.0
 11
599.9278427931135
 21
164.50082470664
 31
0.0
 70
    32
 71
     5
 42
19.0
  3
AM_ISO$0
100
AcDbAlignedDimension
 13
609.4278427931135
 23
180.8449913726402
 33
0.0
 14
590.4278427931135
 24
178.5674913726402
 34
0.0
100
AcDbRotatedDimension
1001
ACAD
1000
DSTYLE
1002
{
1070
   272
1070
     8
1002
}
  0
DIMENSION
  5
217F
330
1F
100
AcDbEntity
  8
AM_5
100
AcDbDimension
  2
*D14
 10
626.9278427931136
 20
162.0508247066401
 30
0.0
 11
618.1778427931135
 21
164.5008247066401
 31
0.0
 70
    32
  1
P=<>
 71
     5
 42
17.50000000000011
  3
AM_ISO$0
100
AcDbAlignedDimension
 13
609.4278427931135
 23
180.8449913726402
 33
0.0
 14
626.9278427931136
 24
180.8449913726402
 34
0.0
100
AcDbRotatedDimension
1001
GENIUS_GENDTOL_13
1000
TolAcTol
1000

1000

1040
17.5
1001
ACAD
1000
DSTYLE
1002
{
1070
   272
1070
     8
1002
}
  0
DIMENSION
  5
2180
330
1F
100
AcDbEntity
  8
AM_5
100
AcDbDimension
  2
*D15
 10
617.9278427931136
 20
168.7174913726401
 30
0.0
 11
613.6778427931135
 21
171.1674913726401
 31
0.0
 70
    32
 71
     5
 42
8.500000000000113
  3
AM_ISO$0
100
AcDbAlignedDimension
 13
609.4278427931135
 23
180.8449913726402
 33
0.0
 14
617.9278427931136
 24
198.3449913726402
 34
0.0
100
AcDbRotatedDimension
1001
ACAD
1000
DSTYLE
1002
{
1070
   272
1070
     8
1002
}
  0
DIMENSION
  5
2181
330
1F
100
AcDbEntity
  8
AM_5
100
AcDbDimension
  2
*D16
 10
697.53828763709
 20
161.5674913726402
 30
0.0
 11
717.0382876370901
 21
164.0174913726402
 31
0.0
 70
    32
 71
     5
 42
39.0
  3
AM_ISO$0
100
AcDbAlignedDimension
 13
736.5382876370901
 23
188.4449913726402
 33
0.0
 14
697.53828763709
 24
178.5674913726402
 34
0.0
100
AcDbRotatedDimension
1001
ACAD
1000
DSTYLE
1002
{
1070
   272
1070
     8
1002
}
  0
DIMENSION
  5
2182
330
1F
100
AcDbEntity
  8
AM_5
100
AcDbDimension
  2
*D17
 10
756.53828763709
 20
169.5674913726402
 30
0.0
 11
746.5382876370901
 21
172.0178358608292
 31
0.0
 70
    32
 71
     5
 42
20.0
  3
AM_ISO$0
100
AcDbAlignedDimension
 13
736.5382876370901
 23
188.4449913726402
 33
0.0
 14
756.53828763709
 24
188.4449913726402
 34
0.0
100
AcDbRotatedDimension
1001
ACAD
1000
DSTYLE
1002
{
1070
   272
1070
     8
1002
}
  0
DIMENSION
  5
2183
330
1F
100
AcDbEntity
  8
AM_5
100
AcDbDimension
  2
*D18
 10
716.5382876370901
 20
169.5674913726402
 30
0.0
 11
726.53828763709
 21
172.0178358608292
 31
0.0
 70
    32
 71
     5
 42
20.0
  3
AM_ISO$0
100
AcDbAlignedDimension
 13
736.5382876370901
 23
188.4449913726402
 33
0.0
 14
716.5382876370901
 24
188.4449913726402
 34
0.0
100
AcDbRotatedDimension
1001
ACAD
1000
DSTYLE
1002
{
1070
   272
1070
     8
1002
}
  0
DIMENSION
  5
2184
330
1F
100
AcDbEntity
  8
AM_5
100
AcDbDimension
  2
*D19
 10
777.53828763709
 20
178.5674913726402
 30
0.0
 11
775.0882876370901
 21
187.3674913726403
 31
0.0
 70
    32
 71
     5
 42
17.59999999999999
  3
AM_ISO$0
100
AcDbAlignedDimension
 13
764.2607876370901
 23
196.1674913726402
 33
0.0
 14
765.53828763709
 24
178.5674913726402
 34
0.0
 50
90.0
100
AcDbRotatedDimension
1001
ACAD
1000
DSTYLE
1002
{
1070
   272
1070
     8
1002
}
  0
LINE
  5
21AD
330
1F
100
AcDbEntity
  8
AM_7
 48
0.3
100
AcDbLine
 10
608.8778427931136
 20
275.4174913726402
 30
0.0
 11
610.9778427931135
 21
275.4174913726402
 31
0.0
  0
LINE
  5
21AE
330
1F
100
AcDbEntity
  8
AM_7
 48
0.3
100
AcDbLine
 10
609.9278427931135
 20
274.3674913726402
 30
0.0
 11
609.9278427931135
 21
276.4674913726403
 31
0.0
  0
LINE
  5
21D7
330
1F
100
AcDbEntity
  8
AM_VIS
100
AcDbLine
 10
590.4278427931135
 20
269.9174913726403
 30
0.0
 11
649.9278427931137
 21
269.9174913726403
 31
0.0
  0
LINE
  5
21D8
330
1F
100
AcDbEntity
  8
AM_VIS
100
AcDbLine
 10
590.4278427931135
 20
326.4174913726403
 30
0.0
 11
649.9278427931137
 21
326.4174913726403
 31
0.0
  0
ELLIPSE
  5
21D9
330
1F
100
AcDbEntity
  8
AM_VIS
100
AcDbEllipse
 10
607.4278427931135
 20
317.4108271732821
 30
0.0
 11
0.0
 21
-0.6928203230275509
 31
0.0
210
0.0
220
0.0
230
1.0
 40
0.8660254037844385
 41
3.141592653589793
 42
9.424777960769379
  0
ELLIPSE
  5
21DA
330
1F
100
AcDbEntity
  8
AM_VIS
100
AcDbEllipse
 10
624.9278427931137
 20
317.4108271732821
 30
0.0
 11
0.0
 21
-0.6928203230275509
 31
0.0
210
0.0
220
0.0
230
1.0
 40
0.8660254037844385
 41
3.141592653589793
 42
9.424777960769379
  0
LINE
  5
21E0
330
1F
100
AcDbEntity
  8
AM_VIS
100
AcDbLine
 10
590.4278427931135
 20
258.4174913726402
 30
0.0
 11
649.9278427931137
 21
258.4174913726402
 31
0.0
  0
LINE
  5
21E1
330
1F
100
AcDbEntity
  8
AM_VIS
100
AcDbLine
 10
599.6003971409393
 20
258.4174913726402
 30
0.0
 11
600.1139840974611
 21
258.4174913726402
 31
0.0
  0
LINE
  5
21E2
330
1F
100
AcDbEntity
  8
AM_VIS
100
AcDbLine
 10
598.8585493148523
 20
258.4174913726402
 30
0.0
 11
599.6003971409393
 21
258.4174913726402
 31
0.0
  0
LINE
  5
21E3
330
1F
100
AcDbEntity
  8
AM_VIS
100
AcDbLine
 10
599.1520275757219
 20
258.4174913726402
 30
0.0
 11
600.0324623583305
 21
258.4174913726402
 31
0.0
  0
LINE
  5
21E4
330
1F
100
AcDbEntity
  8
AM_VIS
100
AcDbLine
 10
598.9645275757219
 20
258.4174913726402
 30
0.0
 11
599.1520275757219
 21
258.4174913726402
 31
0.0
  0
LINE
  5
21E5
330
1F
100
AcDbEntity
  8
AM_VIS
100
AcDbLine
 10
598.8748536626784
 20
258.4174913726402
 30
0.0
 11
598.9645275757219
 21
258.4174913726402
 31
0.0
  0
LINE
  5
21E6
330
1F
100
AcDbEntity
  8
AM_VIS
100
AcDbLine
 10
598.8585492526562
 20
258.4174913726402
 30
0.0
 11
598.8748536626784
 21
258.4174913726402
 31
0.0
  0
LINE
  5
21E7
330
1F
100
AcDbEntity
  8
AM_VIS
100
AcDbLine
 10
637.3603971409392
 20
258.4174913726402
 30
0.0
 11
637.8739840974612
 21
258.4174913726402
 31
0.0
  0
LINE
  5
21E8
330
1F
100
AcDbEntity
  8
AM_VIS
100
AcDbLine
 10
636.6185493148524
 20
258.4174913726402
 30
0.0
 11
637.3603971409392
 21
258.4174913726402
 31
0.0
  0
LINE
  5
21E9
330
1F
100
AcDbEntity
  8
AM_VIS
100
AcDbLine
 10
636.9120275757219
 20
258.4174913726402
 30
0.0
 11
637.7924623583306
 21
258.4174913726402
 31
0.0
  0
LINE
  5
21EA
330
1F
100
AcDbEntity
  8
AM_VIS
100
AcDbLine
 10
636.7245275757219
 20
258.4174913726402
 30
0.0
 11
636.9120275757219
 21
258.4174913726402
 31
0.0
  0
LINE
  5
21EB
330
1F
100
AcDbEntity
  8
AM_VIS
100
AcDbLine
 10
636.6348536626784
 20
258.4174913726402
 30
0.0
 11
636.7245275757219
 21
258.4174913726402
 31
0.0
  0
LINE
  5
21EC
330
1F
100
AcDbEntity
  8
AM_VIS
100
AcDbLine
 10
636.6185492526561
 20
258.4174913726402
 30
0.0
 11
636.6348536626784
 21
258.4174913726402
 31
0.0
  0
LINE
  5
21F0
330
1F
100
AcDbEntity
  8
AM_VIS
100
AcDbLine
 10
649.9278427931137
 20
258.4174913726402
 30
0.0
 11
649.9278427931137
 21
269.9174913726403
 31
0.0
  0
LINE
  5
21F1
330
1F
100
AcDbEntity
  8
AM_VIS
100
AcDbLine
 10
649.9278427931137
 20
269.9174913726403
 30
0.0
 11
649.9278427931137
 21
326.4174913726403
 31
0.0
  0
LINE
  5
21F2
330
1F
100
AcDbEntity
  8
AM_VIS
100
AcDbLine
 10
590.4278427931135
 20
326.4174913726403
 30
0.0
 11
590.4278427931135
 21
269.9174913726403
 31
0.0
  0
LINE
  5
21F3
330
1F
100
AcDbEntity
  8
AM_VIS
100
AcDbLine
 10
590.4278427931135
 20
269.9174913726403
 30
0.0
 11
590.4278427931135
 21
258.4174913726402
 31
0.0
  0
LINE
  5
21F4
330
1F
100
AcDbEntity
  8
AM_VIS
100
AcDbLine
 10
649.9278427931137
 20
314.2354261552835
 30
0.0
 11
649.9278427931137
 21
313.293850068327
 31
0.0
  0
LINE
  5
21F5
330
1F
100
AcDbEntity
  8
AM_VIS
100
AcDbLine
 10
649.9278427931137
 20
313.293850068327
 30
0.0
 11
649.9278427931137
 21
313.1430348509356
 31
0.0
  0
LINE
  5
21F6
330
1F
100
AcDbEntity
  8
AM_VIS
100
AcDbLine
 10
649.9278427931137
 20
313.1430348509356
 30
0.0
 11
649.9278427931137
 21
313.1022739813705
 31
0.0
  0
LINE
  5
21F7
330
1F
100
AcDbEntity
  8
AM_VIS
100
AcDbLine
 10
649.9278427931137
 20
279.4736326769482
 30
0.0
 11
649.9278427931137
 21
278.9600457204264
 31
0.0
  0
LINE
  5
21F8
330
1F
100
AcDbEntity
  8
AM_VIS
100
AcDbLine
 10
649.9278427931137
 20
278.9600457204264
 30
0.0
 11
649.9278427931137
 21
278.2181978943395
 31
0.0
  0
LINE
  5
21F9
330
1F
100
AcDbEntity
  8
AM_VIS
100
AcDbLine
 10
649.9278427931137
 20
279.3921109378177
 30
0.0
 11
649.9278427931137
 21
278.5116761552091
 31
0.0
  0
LINE
  5
21FA
330
1F
100
AcDbEntity
  8
AM_VIS
100
AcDbLine
 10
649.9278427931137
 20
278.5116761552091
 30
0.0
 11
649.9278427931137
 21
278.3241761552091
 31
0.0
  0
LINE
  5
21FB
330
1F
100
AcDbEntity
  8
AM_VIS
100
AcDbLine
 10
649.9278427931137
 20
278.3241761552091
 30
0.0
 11
649.9278427931137
 21
278.2345022421655
 31
0.0
  0
LINE
  5
21FC
330
1F
100
AcDbEntity
  8
AM_VIS
100
AcDbLine
 10
649.9278427931137
 20
278.2345022421655
 30
0.0
 11
649.9278427931137
 21
278.2181978321434
 31
0.0
  0
LINE
  5
21FD
330
1F
100
AcDbEntity
  8
AM_VIS
100
AcDbLine
 10
649.9278427931137
 20
298.1621652856967
 30
0.0
 11
649.9278427931137
 21
297.2205891987402
 31
0.0
  0
LINE
  5
21FE
330
1F
100
AcDbEntity
  8
AM_VIS
100
AcDbLine
 10
649.9278427931137
 20
297.2205891987402
 30
0.0
 11
649.9278427931137
 21
297.0697739813488
 31
0.0
  0
LINE
  5
21FF
330
1F
100
AcDbEntity
  8
AM_VIS
100
AcDbLine
 10
649.9278427931137
 20
297.0697739813488
 30
0.0
 11
649.9278427931137
 21
297.0290131117836
 31
0.0
  0
CIRCLE
  5
2200
330
1F
100
AcDbEntity
  8
AM_VIS
100
AcDbCircle
 10
605.6278427931135
 20
278.4174913726403
 30
0.0
 40
1.2995
  0
CIRCLE
  5
2201
330
1F
100
AcDbEntity
  8
AM_VIS
100
AcDbCircle
 10
617.2278427931136
 20
314.4174913726403
 30
0.0
 40
1.2995
  0
CIRCLE
  5
2202
330
1F
100
AcDbEntity
  8
AM_VIS
100
AcDbCircle
 10
623.1278427931137
 20
278.4174913726403
 30
0.0
 40
1.2995
  0
CIRCLE
  5
2203
330
1F
100
AcDbEntity
  8
AM_VIS
100
AcDbCircle
 10
634.7278427931136
 20
314.4174913726403
 30
0.0
 40
1.2995
  0
CIRCLE
  5
2207
330
1F
100
AcDbEntity
  8
AM_VIS
100
AcDbCircle
 10
595.4278427931135
 20
287.4174913726402
 30
0.0
 40
2.25
  0
CIRCLE
  5
2208
330
1F
100
AcDbEntity
  8
AM_VIS
100
AcDbCircle
 10
644.9278427931136
 20
287.4174913726402
 30
0.0
 40
2.25
  0
CIRCLE
  5
2209
330
1F
100
AcDbEntity
  8
AM_VIS
100
AcDbCircle
 10
595.4278427931135
 20
307.4174913726403
 30
0.0
 40
2.25
  0
CIRCLE
  5
220A
330
1F
100
AcDbEntity
  8
AM_VIS
100
AcDbCircle
 10
644.9278427931136
 20
307.4174913726403
 30
0.0
 40
2.25
  0
CIRCLE
  5
2210
330
1F
100
AcDbEntity
  8
AM_VIS
100
AcDbCircle
 10
609.9278427931135
 20
275.4174913726402
 30
0.0
 40
0.6
  0
CIRCLE
  5
2212
330
1F
100
AcDbEntity
  8
AM_VIS
100
AcDbCircle
 10
627.4278427931136
 20
275.4174913726402
 30
0.0
 40
0.6
  0
LINE
  5
2223
330
1F
100
AcDbEntity
  8
AM_VIS
100
AcDbLine
 10
590.4278427931135
 20
216.5674913726402
 30
0.0
 11
649.9278427931137
 21
216.5674913726402
 31
0.0
  0
LINE
  5
2226
330
1F
100
AcDbEntity
  8
AM_VIS
100
AcDbLine
 10
590.4278427931135
 20
178.5674913726402
 30
0.0
 11
649.9278427931137
 21
178.5674913726402
 31
0.0
  0
LINE
  5
2227
330
1F
100
AcDbEntity
  8
AM_VIS
100
AcDbLine
 10
590.4278427931135
 20
214.5674913726402
 30
0.0
 11
649.9278427931137
 21
214.5674913726402
 31
0.0
  0
SPLINE
  5
2228
330
1F
100
AcDbEntity
  8
AM_VIS
100
AcDbSpline
210
0.0
220
0.0
230
1.0
 70
     8
 71
     3
 72
     8
 73
     4
 74
     0
 42
0.0000000001
 43
0.0000000001
 40
0.0
 40
0.0
 40
0.0
 40
0.0
 40
80.0
 40
80.0
 40
80.0
 40
80.0
 10
600.1139840974611
 20
187.8745565900315
 30
0.0
 10
600.1139840352649
 20
188.192491310444
 30
0.0
 10
599.9427883830909
 20
188.409882656256
 30
0.0
 10
599.6003971409393
 20
188.5267305030749
 30
0.0
  0
SPLINE
  5
2229
330
1F
100
AcDbEntity
  8
AM_VIS
100
AcDbSpline
210
0.0
220
0.0
230
1.0
 70
     8
 71
     3
 72
     8
 73
     4
 74
     0
 42
0.0000000001
 43
0.0000000001
 40
0.0
 40
0.0
 40
0.0
 40
0.0
 40
80.0
 40
80.0
 40
80.0
 40
80.0
 10
599.6003971409393
 20
188.5267305030749
 30
0.0
 10
599.4726797081709
 20
188.5702087224805
 30
0.0
 10
599.2253971409393
 20
188.5919478943793
 30
0.0
 10
598.8585493148523
 20
188.5919478943793
 30
0.0
  0
LINE
  5
222A
330
1F
100
AcDbEntity
  8
AM_VIS
100
AcDbLine
 10
598.8585493148523
 20
188.5919478943793
 30
0.0
 11
598.8585493148523
 21
187.4180348509011
 31
0.0
  0
SPLINE
  5
222B
330
1F
100
AcDbEntity
  8
AM_VIS
100
AcDbSpline
210
0.0
220
0.0
230
1.0
 70
     8
 71
     3
 72
     8
 73
     4
 74
     0
 42
0.0000000001
 43
0.0000000001
 40
0.0
 40
0.0
 40
0.0
 40
0.0
 40
80.0
 40
80.0
 40
80.0
 40
80.0
 10
598.8585493148523
 20
187.4180348509011
 30
0.0
 10
598.8585492526562
 20
187.3229261137848
 30
0.0
 10
598.9020275342578
 20
187.2590674595967
 30
0.0
 10
598.988984097461
 20
187.2264587639445
 30
0.0
  0
SPLINE
  5
222C
330
1F
100
AcDbEntity
  8
AM_VIS
100
AcDbSpline
210
0.0
220
0.0
230
1.0
 70
     8
 71
     3
 72
     8
 73
     4
 74
     0
 42
0.0000000001
 43
0.0000000001
 40
0.0
 40
0.0
 40
0.0
 40
0.0
 40
80.0
 40
80.0
 40
80.0
 40
80.0
 10
598.988984097461
 20
187.2264587639445
 30
0.0
 10
599.0406144907796
 20
187.2101544783146
 30
0.0
 10
599.1262123168665
 20
187.2020023044015
 30
0.0
 10
599.2457775757219
 20
187.2020022422054
 30
0.0
  0
SPLINE
  5
222D
330
1F
100
AcDbEntity
  8
AM_VIS
100
AcDbSpline
210
0.0
220
0.0
230
1.0
 70
     8
 71
     3
 72
     8
 73
     4
 74
     0
 42
0.0000000001
 43
0.0000000001
 40
0.0
 40
0.0
 40
0.0
 40
0.0
 40
80.0
 40
80.0
 40
80.0
 40
80.0
 10
599.2457775757219
 20
187.2020022422054
 30
0.0
 10
599.8245818613518
 20
187.2020023044015
 30
0.0
 10
600.1139840352649
 20
187.4261870248141
 30
0.0
 10
600.1139840974611
 20
187.8745565900315
 30
0.0
  0
SPLINE
  5
222E
330
1F
100
AcDbEntity
  8
AM_VIS
100
AcDbSpline
210
0.0
220
0.0
230
1.0
 70
     8
 71
     3
 72
     8
 73
     4
 74
     0
 42
0.0000000001
 43
0.0000000001
 40
0.0
 40
0.0
 40
0.0
 40
0.0
 40
80.0
 40
80.0
 40
80.0
 40
80.0
 10
600.0324623583305
 20
189.284882676988
 30
0.0
 10
600.0324623583305
 20
189.7169478943793
 30
0.0
 10
599.738984097461
 20
189.932980503075
 30
0.0
 10
599.1520275757219
 20
189.932980503075
 30
0.0
  0
SPLINE
  5
222F
330
1F
100
AcDbEntity
  8
AM_VIS
100
AcDbSpline
210
0.0
220
0.0
230
1.0
 70
     8
 71
     3
 72
     8
 73
     4
 74
     0
 42
0.0000000001
 43
0.0000000001
 40
0.0
 40
0.0
 40
0.0
 40
0.0
 40
80.0
 40
80.0
 40
80.0
 40
80.0
 10
599.1520275757219
 20
189.932980503075
 30
0.0
 10
599.0378970787432
 20
189.932980503075
 30
0.0
 10
598.9753970994752
 20
189.9316217659587
 30
0.0
 10
598.9645275757219
 20
189.9289044161185
 30
0.0
  0
SPLINE
  5
2230
330
1F
100
AcDbEntity
  8
AM_VIS
100
AcDbSpline
210
0.0
220
0.0
230
1.0
 70
     8
 71
     3
 72
     8
 73
     4
 74
     0
 42
0.0000000001
 43
0.0000000001
 40
0.0
 40
0.0
 40
0.0
 40
0.0
 40
80.0
 40
80.0
 40
80.0
 40
80.0
 10
598.9645275757219
 20
189.9289044161185
 30
0.0
 10
598.9156145322437
 20
189.9234695920457
 30
0.0
 10
598.8857231864317
 20
189.9139587432125
 30
0.0
 10
598.8748536626784
 20
189.9003718074228
 30
0.0
  0
SPLINE
  5
2231
330
1F
100
AcDbEntity
  8
AM_VIS
100
AcDbSpline
210
0.0
220
0.0
230
1.0
 70
     8
 71
     3
 72
     8
 73
     4
 74
     0
 42
0.0000000001
 43
0.0000000001
 40
0.0
 40
0.0
 40
0.0
 40
0.0
 40
80.0
 40
80.0
 40
80.0
 40
80.0
 10
598.8748536626784
 20
189.9003718074228
 30
0.0
 10
598.863984076729
 20
189.886784809437
 30
0.0
 10
598.8585492526562
 20
189.8582522007413
 30
0.0
 10
598.8585493148523
 20
189.8147739813358
 30
0.0
  0
LINE
  5
2232
330
1F
100
AcDbEntity
  8
AM_VIS
100
AcDbLine
 10
598.8585493148523
 20
189.8147739813358
 30
0.0
 11
598.8585493148523
 21
188.7590674595967
 31
0.0
  0
LINE
  5
2233
330
1F
100
AcDbEntity
  8
AM_VIS
100
AcDbLine
 10
598.8585493148523
 20
188.7590674595967
 30
0.0
 11
599.3191471409393
 21
188.7631435465532
 31
0.0
  0
SPLINE
  5
2234
330
1F
100
AcDbEntity
  8
AM_VIS
100
AcDbSpline
210
0.0
220
0.0
230
1.0
 70
     8
 71
     3
 72
     8
 73
     4
 74
     0
 42
0.0000000001
 43
0.0000000001
 40
0.0
 40
0.0
 40
0.0
 40
0.0
 40
80.0
 40
80.0
 40
80.0
 40
80.0
 10
599.3191471409393
 20
188.7631435465532
 30
0.0
 10
599.5039297289029
 20
188.7658608963935
 30
0.0
 10
599.6384405984681
 20
188.7808065692994
 30
0.0
 10
599.7226797496349
 20
188.807980503075
 30
0.0
  0
SPLINE
  5
2235
330
1F
100
AcDbEntity
  8
AM_VIS
100
AcDbSpline
210
0.0
220
0.0
230
1.0
 70
     8
 71
     3
 72
     8
 73
     4
 74
     0
 42
0.0000000001
 43
0.0000000001
 40
0.0
 40
0.0
 40
0.0
 40
0.0
 40
80.0
 40
80.0
 40
80.0
 40
80.0
 10
599.7226797496349
 20
188.807980503075
 30
0.0
 10
599.9292014473013
 20
188.8840674181326
 30
0.0
 10
600.0324623583305
 20
189.0430348094369
 30
0.0
 10
600.0324623583305
 20
189.284882676988
 30
0.0
  0
SPLINE
  5
2236
330
1F
100
AcDbEntity
  8
AM_VIS
100
AcDbSpline
210
0.0
220
0.0
230
1.0
 70
     8
 71
     3
 72
     8
 73
     4
 74
     0
 42
0.0000000001
 43
0.0000000001
 40
0.0
 40
0.0
 40
0.0
 40
0.0
 40
80.0
 40
80.0
 40
80.0
 40
80.0
 10
600.4278427931132
 20
187.8582522422054
 30
0.0
 10
600.4278427931132
 20
187.6843391779951
 30
0.0
 10
600.3789297496349
 20
187.5308065485674
 30
0.0
 10
600.2811036626784
 20
187.3976544161185
 30
0.0
  0
SPLINE
  5
2237
330
1F
100
AcDbEntity
  8
AM_VIS
100
AcDbSpline
210
0.0
220
0.0
230
1.0
 70
     8
 71
     3
 72
     8
 73
     4
 74
     0
 42
0.0000000001
 43
0.0000000001
 40
0.0
 40
0.0
 40
0.0
 40
0.0
 40
80.0
 40
80.0
 40
80.0
 40
80.0
 10
600.2811036626784
 20
187.3976544161185
 30
0.0
 10
600.1207775342578
 20
187.1775457204663
 30
0.0
 10
599.8558318820839
 20
187.0674913726402
 30
0.0
 10
599.4862667061567
 20
187.0674913726402
 30
0.0
  0
LINE
  5
2238
330
1F
100
AcDbEntity
  8
AM_VIS
100
AcDbLine
 10
599.4862667061567
 20
187.0674913726402
 30
0.0
 11
598.1696906192001
 21
187.0674913726402
 31
0.0
  0
LINE
  5
2239
330
1F
100
AcDbEntity
  8
AM_VIS
100
AcDbLine
 10
598.1696906192001
 20
187.0674913726402
 30
0.0
 11
598.1696906192001
 21
187.1490131117706
 31
0.0
  0
SPLINE
  5
223A
330
1F
100
AcDbEntity
  8
AM_VIS
100
AcDbSpline
210
0.0
220
0.0
230
1.0
 70
     8
 71
     3
 72
     8
 73
     4
 74
     0
 42
0.0000000001
 43
0.0000000001
 40
0.0
 40
0.0
 40
0.0
 40
0.0
 40
80.0
 40
80.0
 40
80.0
 40
80.0
 10
598.1696906192001
 20
187.1490131117706
 30
0.0
 10
598.3381688593376
 20
187.1598826977201
 30
0.0
 10
598.4536579690405
 20
187.1965674803288
 30
0.0
 10
598.5161580105045
 20
187.2590674595967
 30
0.0
  0
SPLINE
  5
223B
330
1F
100
AcDbEntity
  8
AM_VIS
100
AcDbSpline
210
0.0
220
0.0
230
1.0
 70
     8
 71
     3
 72
     8
 73
     4
 74
     0
 42
0.0000000001
 43
0.0000000001
 40
0.0
 40
0.0
 40
0.0
 40
0.0
 40
80.0
 40
80.0
 40
80.0
 40
80.0
 10
598.5161580105045
 20
187.2590674595967
 30
0.0
 10
598.575940577736
 20
187.3215674388647
 30
0.0
 10
598.6058319235479
 20
187.4370565485674
 30
0.0
 10
598.6058319235479
 20
187.6055348509011
 30
0.0
  0
LINE
  5
223C
330
1F
100
AcDbEntity
  8
AM_VIS
100
AcDbLine
 10
598.6058319235479
 20
187.6055348509011
 30
0.0
 11
598.6058319235479
 21
189.5946652856837
 31
0.0
  0
SPLINE
  5
223D
330
1F
100
AcDbEntity
  8
AM_VIS
100
AcDbSpline
210
0.0
220
0.0
230
1.0
 70
     8
 71
     3
 72
     8
 73
     4
 74
     0
 42
0.0000000001
 43
0.0000000001
 40
0.0
 40
0.0
 40
0.0
 40
0.0
 40
80.0
 40
80.0
 40
80.0
 40
80.0
 10
598.6058319235479
 20
189.5946652856837
 30
0.0
 10
598.6058319235479
 20
189.7577087639445
 30
0.0
 10
598.574581902816
 20
189.8636870248141
 30
0.0
 10
598.5120819235479
 20
189.9126000682924
 30
0.0
  0
SPLINE
  5
223E
330
1F
100
AcDbEntity
  8
AM_VIS
100
AcDbSpline
210
0.0
220
0.0
230
1.0
 70
     8
 71
     3
 72
     8
 73
     4
 74
     0
 42
0.0000000001
 43
0.0000000001
 40
0.0
 40
0.0
 40
0.0
 40
0.0
 40
80.0
 40
80.0
 40
80.0
 40
80.0
 10
598.5120819235479
 20
189.9126000682924
 30
0.0
 10
598.4604514680333
 20
189.9506435258212
 30
0.0
 10
598.3463210332508
 20
189.9751000475603
 30
0.0
 10
598.1696906192001
 20
189.9859696335098
 30
0.0
  0
LINE
  5
223F
330
1F
100
AcDbEntity
  8
AM_VIS
100
AcDbLine
 10
598.1696906192001
 20
189.9859696335098
 30
0.0
 11
598.1696906192001
 21
190.0674913726402
 31
0.0
  0
LINE
  5
2240
330
1F
100
AcDbEntity
  8
AM_VIS
100
AcDbLine
 10
598.1696906192001
 20
190.0674913726402
 30
0.0
 11
599.2661580105045
 21
190.0674913726402
 31
0.0
  0
SPLINE
  5
2241
330
1F
100
AcDbEntity
  8
AM_VIS
100
AcDbSpline
210
0.0
220
0.0
230
1.0
 70
     8
 71
     3
 72
     8
 73
     4
 74
     0
 42
0.0000000001
 43
0.0000000001
 40
0.0
 40
0.0
 40
0.0
 40
0.0
 40
80.0
 40
80.0
 40
80.0
 40
80.0
 10
599.2661580105045
 20
190.0674913726402
 30
0.0
 10
599.9536579690404
 20
190.0674913726402
 30
0.0
 10
600.2974080105046
 20
189.8174913311761
 30
0.0
 10
600.2974080105046
 20
189.3174913726402
 30
0.0
  0
SPLINE
  5
2242
330
1F
100
AcDbEntity
  8
AM_VIS
100
AcDbSpline
210
0.0
220
0.0
230
1.0
 70
     8
 71
     3
 72
     8
 73
     4
 74
     0
 42
0.0000000001
 43
0.0000000001
 40
0.0
 40
0.0
 40
0.0
 40
0.0
 40
80.0
 40
80.0
 40
80.0
 40
80.0
 10
600.2974080105046
 20
189.3174913726402
 30
0.0
 10
600.2974080105046
 20
188.980534830169
 30
0.0
 10
600.1003970994752
 20
188.7577087224804
 30
0.0
 10
599.7063754018089
 20
188.6490131117706
 30
0.0
  0
LINE
  5
2243
330
1F
100
AcDbEntity
  8
AM_VIS
100
AcDbLine
 10
599.7063754018089
 20
188.6490131117706
 30
0.0
 11
599.7756688800697
 21
188.6327087639445
 31
0.0
  0
SPLINE
  5
2244
330
1F
100
AcDbEntity
  8
AM_VIS
100
AcDbSpline
210
0.0
220
0.0
230
1.0
 70
     8
 71
     3
 72
     8
 73
     4
 74
     0
 42
0.0000000001
 43
0.0000000001
 40
0.0
 40
0.0
 40
0.0
 40
0.0
 40
80.0
 40
80.0
 40
80.0
 40
80.0
 10
599.7756688800697
 20
188.6327087639445
 30
0.0
 10
600.2104514473013
 20
188.5294478529152
 30
0.0
 10
600.4278427931132
 20
188.2712956997342
 30
0.0
 10
600.4278427931132
 20
187.8582522422054
 30
0.0
  0
SPLINE
  5
2245
330
1F
100
AcDbEntity
  8
AM_VIS
100
AcDbSpline
210
0.0
220
0.0
230
1.0
 70
     8
 71
     3
 72
     8
 73
     4
 74
     0
 42
0.0000000001
 43
0.0000000001
 40
0.0
 40
0.0
 40
0.0
 40
0.0
 40
80.0
 40
80.0
 40
80.0
 40
80.0
 10
637.8739840974612
 20
187.8745565900315
 30
0.0
 10
637.8739840352649
 20
188.192491310444
 30
0.0
 10
637.7027883830909
 20
188.409882656256
 30
0.0
 10
637.3603971409392
 20
188.5267305030749
 30
0.0
  0
SPLINE
  5
2246
330
1F
100
AcDbEntity
  8
AM_VIS
100
AcDbSpline
210
0.0
220
0.0
230
1.0
 70
     8
 71
     3
 72
     8
 73
     4
 74
     0
 42
0.0000000001
 43
0.0000000001
 40
0.0
 40
0.0
 40
0.0
 40
0.0
 40
80.0
 40
80.0
 40
80.0
 40
80.0
 10
637.3603971409392
 20
188.5267305030749
 30
0.0
 10
637.2326797081708
 20
188.5702087224805
 30
0.0
 10
636.9853971409392
 20
188.5919478943793
 30
0.0
 10
636.6185493148524
 20
188.5919478943793
 30
0.0
  0
LINE
  5
2247
330
1F
100
AcDbEntity
  8
AM_VIS
100
AcDbLine
 10
636.6185493148524
 20
188.5919478943793
 30
0.0
 11
636.6185493148524
 21
187.418034850901
 31
0.0
  0
SPLINE
  5
2248
330
1F
100
AcDbEntity
  8
AM_VIS
100
AcDbSpline
210
0.0
220
0.0
230
1.0
 70
     8
 71
     3
 72
     8
 73
     4
 74
     0
 42
0.0000000001
 43
0.0000000001
 40
0.0
 40
0.0
 40
0.0
 40
0.0
 40
80.0
 40
80.0
 40
80.0
 40
80.0
 10
636.6185493148524
 20
187.418034850901
 30
0.0
 10
636.6185492526561
 20
187.3229261137848
 30
0.0
 10
636.6620275342578
 20
187.2590674595967
 30
0.0
 10
636.7489840974611
 20
187.2264587639445
 30
0.0
  0
SPLINE
  5
2249
330
1F
100
AcDbEntity
  8
AM_VIS
100
AcDbSpline
210
0.0
220
0.0
230
1.0
 70
     8
 71
     3
 72
     8
 73
     4
 74
     0
 42
0.0000000001
 43
0.0000000001
 40
0.0
 40
0.0
 40
0.0
 40
0.0
 40
80.0
 40
80.0
 40
80.0
 40
80.0
 10
636.7489840974611
 20
187.2264587639445
 30
0.0
 10
636.8006144907796
 20
187.2101544783146
 30
0.0
 10
636.8862123168666
 20
187.2020023044015
 30
0.0
 10
637.0057775757219
 20
187.2020022422054
 30
0.0
  0
SPLINE
  5
224A
330
1F
100
AcDbEntity
  8
AM_VIS
100
AcDbSpline
210
0.0
220
0.0
230
1.0
 70
     8
 71
     3
 72
     8
 73
     4
 74
     0
 42
0.0000000001
 43
0.0000000001
 40
0.0
 40
0.0
 40
0.0
 40
0.0
 40
80.0
 40
80.0
 40
80.0
 40
80.0
 10
637.0057775757219
 20
187.2020022422054
 30
0.0
 10
637.5845818613519
 20
187.2020023044015
 30
0.0
 10
637.8739840352649
 20
187.4261870248141
 30
0.0
 10
637.8739840974612
 20
187.8745565900315
 30
0.0
  0
SPLINE
  5
224B
330
1F
100
AcDbEntity
  8
AM_VIS
100
AcDbSpline
210
0.0
220
0.0
230
1.0
 70
     8
 71
     3
 72
     8
 73
     4
 74
     0
 42
0.0000000001
 43
0.0000000001
 40
0.0
 40
0.0
 40
0.0
 40
0.0
 40
80.0
 40
80.0
 40
80.0
 40
80.0
 10
637.7924623583306
 20
189.284882676988
 30
0.0
 10
637.7924623583306
 20
189.7169478943793
 30
0.0
 10
637.4989840974611
 20
189.932980503075
 30
0.0
 10
636.9120275757219
 20
189.932980503075
 30
0.0
  0
SPLINE
  5
224C
330
1F
100
AcDbEntity
  8
AM_VIS
100
AcDbSpline
210
0.0
220
0.0
230
1.0
 70
     8
 71
     3
 72
     8
 73
     4
 74
     0
 42
0.0000000001
 43
0.0000000001
 40
0.0
 40
0.0
 40
0.0
 40
0.0
 40
80.0
 40
80.0
 40
80.0
 40
80.0
 10
636.9120275757219
 20
189.932980503075
 30
0.0
 10
636.7978970787431
 20
189.932980503075
 30
0.0
 10
636.7353970994753
 20
189.9316217659587
 30
0.0
 10
636.7245275757219
 20
189.9289044161185
 30
0.0
  0
SPLINE
  5
224D
330
1F
100
AcDbEntity
  8
AM_VIS
100
AcDbSpline
210
0.0
220
0.0
230
1.0
 70
     8
 71
     3
 72
     8
 73
     4
 74
     0
 42
0.0000000001
 43
0.0000000001
 40
0.0
 40
0.0
 40
0.0
 40
0.0
 40
80.0
 40
80.0
 40
80.0
 40
80.0
 10
636.7245275757219
 20
189.9289044161185
 30
0.0
 10
636.6756145322437
 20
189.9234695920457
 30
0.0
 10
636.6457231864318
 20
189.9139587432125
 30
0.0
 10
636.6348536626784
 20
189.9003718074228
 30
0.0
  0
SPLINE
  5
224E
330
1F
100
AcDbEntity
  8
AM_VIS
100
AcDbSpline
210
0.0
220
0.0
230
1.0
 70
     8
 71
     3
 72
     8
 73
     4
 74
     0
 42
0.0000000001
 43
0.0000000001
 40
0.0
 40
0.0
 40
0.0
 40
0.0
 40
80.0
 40
80.0
 40
80.0
 40
80.0
 10
636.6348536626784
 20
189.9003718074228
 30
0.0
 10
636.623984076729
 20
189.8867848094369
 30
0.0
 10
636.6185492526561
 20
189.8582522007413
 30
0.0
 10
636.6185493148524
 20
189.8147739813358
 30
0.0
  0
LINE
  5
224F
330
1F
100
AcDbEntity
  8
AM_VIS
100
AcDbLine
 10
636.6185493148524
 20
189.8147739813358
 30
0.0
 11
636.6185493148524
 21
188.7590674595967
 31
0.0
  0
LINE
  5
2250
330
1F
100
AcDbEntity
  8
AM_VIS
100
AcDbLine
 10
636.6185493148524
 20
188.7590674595967
 30
0.0
 11
637.0791471409392
 21
188.7631435465532
 31
0.0
  0
SPLINE
  5
2251
330
1F
100
AcDbEntity
  8
AM_VIS
100
AcDbSpline
210
0.0
220
0.0
230
1.0
 70
     8
 71
     3
 72
     8
 73
     4
 74
     0
 42
0.0000000001
 43
0.0000000001
 40
0.0
 40
0.0
 40
0.0
 40
0.0
 40
80.0
 40
80.0
 40
80.0
 40
80.0
 10
637.0791471409392
 20
188.7631435465532
 30
0.0
 10
637.263929728903
 20
188.7658608963935
 30
0.0
 10
637.3984405984682
 20
188.7808065692994
 30
0.0
 10
637.4826797496349
 20
188.807980503075
 30
0.0
  0
SPLINE
  5
2252
330
1F
100
AcDbEntity
  8
AM_VIS
100
AcDbSpline
210
0.0
220
0.0
230
1.0
 70
     8
 71
     3
 72
     8
 73
     4
 74
     0
 42
0.0000000001
 43
0.0000000001
 40
0.0
 40
0.0
 40
0.0
 40
0.0
 40
80.0
 40
80.0
 40
80.0
 40
80.0
 10
637.4826797496349
 20
188.807980503075
 30
0.0
 10
637.6892014473013
 20
188.8840674181326
 30
0.0
 10
637.7924623583306
 20
189.0430348094369
 30
0.0
 10
637.7924623583306
 20
189.284882676988
 30
0.0
  0
SPLINE
  5
2253
330
1F
100
AcDbEntity
  8
AM_VIS
100
AcDbSpline
210
0.0
220
0.0
230
1.0
 70
     8
 71
     3
 72
     8
 73
     4
 74
     0
 42
0.0000000001
 43
0.0000000001
 40
0.0
 40
0.0
 40
0.0
 40
0.0
 40
80.0
 40
80.0
 40
80.0
 40
80.0
 10
638.1878427931131
 20
187.8582522422054
 30
0.0
 10
638.1878427931131
 20
187.6843391779951
 30
0.0
 10
638.1389297496349
 20
187.5308065485674
 30
0.0
 10
638.0411036626784
 20
187.3976544161184
 30
0.0
  0
SPLINE
  5
2254
330
1F
100
AcDbEntity
  8
AM_VIS
100
AcDbSpline
210
0.0
220
0.0
230
1.0
 70
     8
 71
     3
 72
     8
 73
     4
 74
     0
 42
0.0000000001
 43
0.0000000001
 40
0.0
 40
0.0
 40
0.0
 40
0.0
 40
80.0
 40
80.0
 40
80.0
 40
80.0
 10
638.0411036626784
 20
187.3976544161184
 30
0.0
 10
637.8807775342578
 20
187.1775457204663
 30
0.0
 10
637.6158318820838
 20
187.0674913726402
 30
0.0
 10
637.2462667061567
 20
187.0674913726402
 30
0.0
  0
LINE
  5
2255
330
1F
100
AcDbEntity
  8
AM_VIS
100
AcDbLine
 10
637.2462667061567
 20
187.0674913726402
 30
0.0
 11
635.9296906192001
 21
187.0674913726402
 31
0.0
  0
LINE
  5
2256
330
1F
100
AcDbEntity
  8
AM_VIS
100
AcDbLine
 10
635.9296906192001
 20
187.0674913726402
 30
0.0
 11
635.9296906192001
 21
187.1490131117706
 31
0.0
  0
SPLINE
  5
2257
330
1F
100
AcDbEntity
  8
AM_VIS
100
AcDbSpline
210
0.0
220
0.0
230
1.0
 70
     8
 71
     3
 72
     8
 73
     4
 74
     0
 42
0.0000000001
 43
0.0000000001
 40
0.0
 40
0.0
 40
0.0
 40
0.0
 40
80.0
 40
80.0
 40
80.0
 40
80.0
 10
635.9296906192001
 20
187.1490131117706
 30
0.0
 10
636.0981688593377
 20
187.1598826977201
 30
0.0
 10
636.2136579690403
 20
187.1965674803288
 30
0.0
 10
636.2761580105044
 20
187.2590674595967
 30
0.0
  0
SPLINE
  5
2258
330
1F
100
AcDbEntity
  8
AM_VIS
100
AcDbSpline
210
0.0
220
0.0
230
1.0
 70
     8
 71
     3
 72
     8
 73
     4
 74
     0
 42
0.0000000001
 43
0.0000000001
 40
0.0
 40
0.0
 40
0.0
 40
0.0
 40
80.0
 40
80.0
 40
80.0
 40
80.0
 10
636.2761580105044
 20
187.2590674595967
 30
0.0
 10
636.3359405777361
 20
187.3215674388647
 30
0.0
 10
636.3658319235479
 20
187.4370565485674
 30
0.0
 10
636.3658319235479
 20
187.605534850901
 30
0.0
  0
LINE
  5
2259
330
1F
100
AcDbEntity
  8
AM_VIS
100
AcDbLine
 10
636.3658319235479
 20
187.605534850901
 30
0.0
 11
636.3658319235479
 21
189.5946652856837
 31
0.0
  0
SPLINE
  5
225A
330
1F
100
AcDbEntity
  8
AM_VIS
100
AcDbSpline
210
0.0
220
0.0
230
1.0
 70
     8
 71
     3
 72
     8
 73
     4
 74
     0
 42
0.0000000001
 43
0.0000000001
 40
0.0
 40
0.0
 40
0.0
 40
0.0
 40
80.0
 40
80.0
 40
80.0
 40
80.0
 10
636.3658319235479
 20
189.5946652856837
 30
0.0
 10
636.3658319235479
 20
189.7577087639445
 30
0.0
 10
636.334581902816
 20
189.8636870248141
 30
0.0
 10
636.2720819235479
 20
189.9126000682923
 30
0.0
  0
SPLINE
  5
225B
330
1F
100
AcDbEntity
  8
AM_VIS
100
AcDbSpline
210
0.0
220
0.0
230
1.0
 70
     8
 71
     3
 72
     8
 73
     4
 74
     0
 42
0.0000000001
 43
0.0000000001
 40
0.0
 40
0.0
 40
0.0
 40
0.0
 40
80.0
 40
80.0
 40
80.0
 40
80.0
 10
636.2720819235479
 20
189.9126000682923
 30
0.0
 10
636.2204514680333
 20
189.9506435258212
 30
0.0
 10
636.1063210332507
 20
189.9751000475603
 30
0.0
 10
635.9296906192001
 20
189.9859696335098
 30
0.0
  0
LINE
  5
225C
330
1F
100
AcDbEntity
  8
AM_VIS
100
AcDbLine
 10
635.9296906192001
 20
189.9859696335097
 30
0.0
 11
635.9296906192001
 21
190.0674913726402
 31
0.0
  0
LINE
  5
225D
330
1F
100
AcDbEntity
  8
AM_VIS
100
AcDbLine
 10
635.9296906192001
 20
190.0674913726402
 30
0.0
 11
637.0261580105044
 21
190.0674913726402
 31
0.0
  0
SPLINE
  5
225E
330
1F
100
AcDbEntity
  8
AM_VIS
100
AcDbSpline
210
0.0
220
0.0
230
1.0
 70
     8
 71
     3
 72
     8
 73
     4
 74
     0
 42
0.0000000001
 43
0.0000000001
 40
0.0
 40
0.0
 40
0.0
 40
0.0
 40
80.0
 40
80.0
 40
80.0
 40
80.0
 10
637.0261580105044
 20
190.0674913726402
 30
0.0
 10
637.7136579690403
 20
190.0674913726402
 30
0.0
 10
638.0574080105044
 20
189.8174913311761
 30
0.0
 10
638.0574080105044
 20
189.3174913726402
 30
0.0
  0
SPLINE
  5
225F
330
1F
100
AcDbEntity
  8
AM_VIS
100
AcDbSpline
210
0.0
220
0.0
230
1.0
 70
     8
 71
     3
 72
     8
 73
     4
 74
     0
 42
0.0000000001
 43
0.0000000001
 40
0.0
 40
0.0
 40
0.0
 40
0.0
 40
80.0
 40
80.0
 40
80.0
 40
80.0
 10
638.0574080105044
 20
189.3174913726402
 30
0.0
 10
638.0574080105044
 20
188.980534830169
 30
0.0
 10
637.8603970994753
 20
188.7577087224804
 30
0.0
 10
637.4663754018089
 20
188.6490131117706
 30
0.0
  0
LINE
  5
2260
330
1F
100
AcDbEntity
  8
AM_VIS
100
AcDbLine
 10
637.4663754018089
 20
188.6490131117706
 30
0.0
 11
637.5356688800697
 21
188.6327087639445
 31
0.0
  0
SPLINE
  5
2261
330
1F
100
AcDbEntity
  8
AM_VIS
100
AcDbSpline
210
0.0
220
0.0
230
1.0
 70
     8
 71
     3
 72
     8
 73
     4
 74
     0
 42
0.0000000001
 43
0.0000000001
 40
0.0
 40
0.0
 40
0.0
 40
0.0
 40
80.0
 40
80.0
 40
80.0
 40
80.0
 10
637.5356688800697
 20
188.6327087639445
 30
0.0
 10
637.9704514473013
 20
188.5294478529152
 30
0.0
 10
638.1878427931131
 20
188.2712956997342
 30
0.0
 10
638.1878427931131
 20
187.8582522422054
 30
0.0
  0
LINE
  5
2262
330
1F
100
AcDbEntity
  8
AM_VIS
100
AcDbLine
 10
608.0346518718737
 20
205.6809760188352
 30
0.0
 11
607.5299789746773
 21
207.1509359654306
 31
0.0
  0
LINE
  5
2263
330
1F
100
AcDbEntity
  8
AM_VIS
100
AcDbLine
 10
607.5299789746773
 20
207.1509359654306
 30
0.0
 11
607.0012740347575
 21
205.6809760188352
 31
0.0
  0
LINE
  5
2264
330
1F
100
AcDbEntity
  8
AM_VIS
100
AcDbLine
 10
607.0012740347575
 20
205.6809760188352
 30
0.0
 11
608.0346518718737
 21
205.6809760188352
 31
0.0
  0
LINE
  5
2265
330
1F
100
AcDbEntity
  8
AM_VIS
100
AcDbLine
 10
608.927842793102
 20
204.5674913726402
 30
0.0
 11
607.9785771055186
 21
204.5674913726402
 31
0.0
  0
LINE
  5
2266
330
1F
100
AcDbEntity
  8
AM_VIS
100
AcDbLine
 10
607.9785771055186
 20
204.5674913726402
 30
0.0
 11
607.9785771055186
 21
204.647598181719
 31
0.0
  0
SPLINE
  5
2267
330
1F
100
AcDbEntity
  8
AM_VIS
100
AcDbSpline
210
0.0
220
0.0
230
1.0
 70
     8
 71
     3
 72
     8
 73
     4
 74
     0
 42
0.0000000001
 43
0.0000000001
 40
0.0
 40
0.0
 40
0.0
 40
0.0
 40
80.0
 40
80.0
 40
80.0
 40
80.0
 10
607.9785771055186
 20
204.647598181719
 30
0.0
 10
608.0827159573209
 20
204.652938676402
 30
0.0
 10
608.1561471786043
 20
204.6636195435347
 30
0.0
 10
608.1988708304852
 20
204.6796409053505
 30
0.0
  0
SPLINE
  5
2268
330
1F
100
AcDbEntity
  8
AM_VIS
100
AcDbSpline
210
0.0
220
0.0
230
1.0
 70
     8
 71
     3
 72
     8
 73
     4
 74
     0
 42
0.0000000001
 43
0.0000000001
 40
0.0
 40
0.0
 40
0.0
 40
0.0
 40
80.0
 40
80.0
 40
80.0
 40
80.0
 10
608.1988708304852
 20
204.6796409053505
 30
0.0
 10
608.265626463973
 20
204.7090134427572
 30
0.0
 10
608.2990043418337
 20
204.7650882091123
 30
0.0
 10
608.2990043418337
 20
204.8478652044159
 30
0.0
  0
SPLINE
  5
2269
330
1F
100
AcDbEntity
  8
AM_VIS
100
AcDbSpline
210
0.0
220
0.0
230
1.0
 70
     8
 71
     3
 72
     8
 73
     4
 74
     0
 42
0.0000000001
 43
0.0000000001
 40
0.0
 40
0.0
 40
0.0
 40
0.0
 40
80.0
 40
80.0
 40
80.0
 40
80.0
 10
608.2990043418337
 20
204.8478652044159
 30
0.0
 10
608.2990043418337
 20
204.9146208379038
 30
0.0
 10
608.2763073922225
 20
205.0107490087983
 30
0.0
 10
608.2309135541167
 20
205.1362497170995
 30
0.0
  0
LINE
  5
226A
330
1F
100
AcDbEntity
  8
AM_VIS
100
AcDbLine
 10
608.2309135541167
 20
205.1362497170995
 30
0.0
 11
608.0867212977749
 21
205.5327784220394
 31
0.0
  0
LINE
  5
226B
330
1F
100
AcDbEntity
  8
AM_VIS
100
AcDbLine
 10
608.0867212977749
 20
205.5327784220394
 30
0.0
 11
606.9652259706721
 21
205.5327784220394
 31
0.0
  0
LINE
  5
226C
330
1F
100
AcDbEntity
  8
AM_VIS
100
AcDbLine
 10
606.9652259706721
 20
205.5327784220394
 30
0.0
 11
606.7649589479751
 21
205.0241001843892
 31
0.0
  0
SPLINE
  5
226D
330
1F
100
AcDbEntity
  8
AM_VIS
100
AcDbSpline
210
0.0
220
0.0
230
1.0
 70
     8
 71
     3
 72
     8
 73
     4
 74
     0
 42
0.0000000001
 43
0.0000000001
 40
0.0
 40
0.0
 40
0.0
 40
0.0
 40
80.0
 40
80.0
 40
80.0
 40
80.0
 10
606.7649589479751
 20
205.0241001843892
 30
0.0
 10
606.7435970914764
 20
204.970695604259
 30
0.0
 10
606.7329162243437
 20
204.9119506516789
 30
0.0
 10
606.7329162243437
 20
204.8478652044159
 30
0.0
  0
SPLINE
  5
226E
330
1F
100
AcDbEntity
  8
AM_VIS
100
AcDbSpline
210
0.0
220
0.0
230
1.0
 70
     8
 71
     3
 72
     8
 73
     4
 74
     0
 42
0.0000000001
 43
0.0000000001
 40
0.0
 40
0.0
 40
0.0
 40
0.0
 40
80.0
 40
80.0
 40
80.0
 40
80.0
 10
606.7329162243437
 20
204.8478652044159
 30
0.0
 10
606.7329162243437
 20
204.7624179617708
 30
0.0
 10
606.7649589479751
 20
204.7063431954156
 30
0.0
 10
606.8290443952381
 20
204.6796409053505
 30
0.0
  0
SPLINE
  5
226F
330
1F
100
AcDbEntity
  8
AM_VIS
100
AcDbSpline
210
0.0
220
0.0
230
1.0
 70
     8
 71
     3
 72
     8
 73
     4
 74
     0
 42
0.0000000001
 43
0.0000000001
 40
0.0
 40
0.0
 40
0.0
 40
0.0
 40
80.0
 40
80.0
 40
80.0
 40
80.0
 10
606.8290443952381
 20
204.6796409053505
 30
0.0
 10
606.8584168715282
 20
204.6636195435347
 30
0.0
 10
606.9144916378832
 20
204.652938676402
 30
0.0
 10
606.9972686943036
 20
204.647598181719
 30
0.0
  0
LINE
  5
2270
330
1F
100
AcDbEntity
  8
AM_VIS
100
AcDbLine
 10
606.9972686943036
 20
204.647598181719
 30
0.0
 11
606.9972686943036
 21
204.5674913726402
 31
0.0
  0
LINE
  5
2271
330
1F
100
AcDbEntity
  8
AM_VIS
100
AcDbLine
 10
606.9972686943036
 20
204.5674913726402
 30
0.0
 11
606.2642913912328
 21
204.5674913726402
 31
0.0
  0
LINE
  5
2272
330
1F
100
AcDbEntity
  8
AM_VIS
100
AcDbLine
 10
606.2642913912328
 20
204.5674913726402
 30
0.0
 11
606.2642913912328
 21
204.647598181719
 31
0.0
  0
LINE
  5
2273
330
1F
100
AcDbEntity
  8
AM_VIS
100
AcDbLine
 10
606.2644163119314
 20
204.6469489643393
 30
0.0
 11
606.3685530445298
 21
204.6669866801879
 31
0.0
  0
SPLINE
  5
2274
330
1F
100
AcDbEntity
  8
AM_VIS
100
AcDbSpline
210
0.0
220
0.0
230
1.0
 70
     8
 71
     3
 72
     8
 73
     4
 74
     0
 42
0.0000000001
 43
0.0000000001
 40
0.0
 40
0.0
 40
0.0
 40
0.0
 40
80.0
 40
80.0
 40
80.0
 40
80.0
 10
606.3684302430353
 20
204.6676248839887
 30
0.0
 10
606.4004729055501
 20
204.6756355648966
 30
0.0
 10
606.4311805360691
 20
204.6983325145077
 30
0.0
 10
606.4605530734758
 20
204.7357156717056
 30
0.0
  0
SPLINE
  5
2275
330
1F
100
AcDbEntity
  8
AM_VIS
100
AcDbSpline
210
0.0
220
0.0
230
1.0
 70
     8
 71
     3
 72
     8
 73
     4
 74
     0
 42
0.0000000001
 43
0.0000000001
 40
0.0
 40
0.0
 40
0.0
 40
0.0
 40
80.0
 40
80.0
 40
80.0
 40
80.0
 10
606.4605530734758
 20
204.7357156717056
 30
0.0
 10
606.5353193878715
 20
204.8318437814835
 30
0.0
 10
606.6327827129952
 20
205.0427917324298
 30
0.0
 10
606.7529429266134
 20
205.3685594634279
 30
0.0
  0
LINE
  5
2276
330
1F
100
AcDbEntity
  8
AM_VIS
100
AcDbLine
 10
606.7529429266134
 20
205.3685594634279
 30
0.0
 11
607.5620216983089
 21
207.5674913726402
 31
0.0
  0
LINE
  5
2277
330
1F
100
AcDbEntity
  8
AM_VIS
100
AcDbLine
 10
607.5620216983089
 20
207.5674913726402
 30
0.0
 11
607.5780430601247
 21
207.5674913726402
 31
0.0
  0
LINE
  5
2278
330
1F
100
AcDbEntity
  8
AM_VIS
100
AcDbLine
 10
607.5780430601247
 20
207.5674913726402
 30
0.0
 11
608.5273087477081
 21
205.040121546205
 31
0.0
  0
SPLINE
  5
2279
330
1F
100
AcDbEntity
  8
AM_VIS
100
AcDbSpline
210
0.0
220
0.0
230
1.0
 70
     8
 71
     3
 72
     8
 73
     4
 74
     0
 42
0.0000000001
 43
0.0000000001
 40
0.0
 40
0.0
 40
0.0
 40
0.0
 40
80.0
 40
80.0
 40
80.0
 40
80.0
 10
608.5273087477081
 20
205.040121546205
 30
0.0
 10
608.5860537002881
 20
204.8799079280474
 30
0.0
 10
608.6501391475511
 20
204.7717637357911
 30
0.0
 10
608.7195650894972
 20
204.7156889694359
 30
0.0
  0
SPLINE
  5
227A
330
1F
100
AcDbEntity
  8
AM_VIS
100
AcDbSpline
210
0.0
220
0.0
230
1.0
 70
     8
 71
     3
 72
     8
 73
     4
 74
     0
 42
0.0000000001
 43
0.0000000001
 40
0.0
 40
0.0
 40
0.0
 40
0.0
 40
80.0
 40
80.0
 40
80.0
 40
80.0
 10
608.7195650894972
 20
204.7156889694359
 30
0.0
 10
608.7596184940366
 20
204.6836462458044
 30
0.0
 10
608.829044374866
 20
204.6609493573099
 30
0.0
 10
608.927842793102
 20
204.647598181719
 30
0.0
  0
LINE
  5
227B
330
1F
100
AcDbEntity
  8
AM_VIS
100
AcDbLine
 10
608.927842793102
 20
204.647598181719
 30
0.0
 11
608.927842793102
 21
204.5674913726402
 31
0.0
  0
LINE
  5
227C
330
1F
100
AcDbEntity
  8
AM_VIS
100
AcDbLine
 10
646.1946518718738
 20
205.6809760188352
 30
0.0
 11
645.6899789746775
 21
207.1509359654306
 31
0.0
  0
LINE
  5
227D
330
1F
100
AcDbEntity
  8
AM_VIS
100
AcDbLine
 10
645.6899789746775
 20
207.1509359654306
 30
0.0
 11
645.1612740347576
 21
205.6809760188352
 31
0.0
  0
LINE
  5
227E
330
1F
100
AcDbEntity
  8
AM_VIS
100
AcDbLine
 10
645.1612740347576
 20
205.6809760188352
 30
0.0
 11
646.1946518718738
 21
205.6809760188352
 31
0.0
  0
LINE
  5
227F
330
1F
100
AcDbEntity
  8
AM_VIS
100
AcDbLine
 10
647.0878427931019
 20
204.5674913726402
 30
0.0
 11
646.1385771055184
 21
204.5674913726402
 31
0.0
  0
LINE
  5
2280
330
1F
100
AcDbEntity
  8
AM_VIS
100
AcDbLine
 10
646.1385771055184
 20
204.5674913726402
 30
0.0
 11
646.1385771055184
 21
204.647598181719
 31
0.0
  0
SPLINE
  5
2281
330
1F
100
AcDbEntity
  8
AM_VIS
100
AcDbSpline
210
0.0
220
0.0
230
1.0
 70
     8
 71
     3
 72
     8
 73
     4
 74
     0
 42
0.0000000001
 43
0.0000000001
 40
0.0
 40
0.0
 40
0.0
 40
0.0
 40
80.0
 40
80.0
 40
80.0
 40
80.0
 10
646.1385771055184
 20
204.647598181719
 30
0.0
 10
646.2427159573209
 20
204.652938676402
 30
0.0
 10
646.3161471786044
 20
204.6636195435347
 30
0.0
 10
646.3588708304852
 20
204.6796409053505
 30
0.0
  0
SPLINE
  5
2282
330
1F
100
AcDbEntity
  8
AM_VIS
100
AcDbSpline
210
0.0
220
0.0
230
1.0
 70
     8
 71
     3
 72
     8
 73
     4
 74
     0
 42
0.0000000001
 43
0.0000000001
 40
0.0
 40
0.0
 40
0.0
 40
0.0
 40
80.0
 40
80.0
 40
80.0
 40
80.0
 10
646.3588708304852
 20
204.6796409053505
 30
0.0
 10
646.4256264639731
 20
204.7090134427572
 30
0.0
 10
646.4590043418337
 20
204.7650882091123
 30
0.0
 10
646.4590043418337
 20
204.8478652044159
 30
0.0
  0
SPLINE
  5
2283
330
1F
100
AcDbEntity
  8
AM_VIS
100
AcDbSpline
210
0.0
220
0.0
230
1.0
 70
     8
 71
     3
 72
     8
 73
     4
 74
     0
 42
0.0000000001
 43
0.0000000001
 40
0.0
 40
0.0
 40
0.0
 40
0.0
 40
80.0
 40
80.0
 40
80.0
 40
80.0
 10
646.4590043418337
 20
204.8478652044159
 30
0.0
 10
646.4590043418337
 20
204.9146208379038
 30
0.0
 10
646.4363073922223
 20
205.0107490087983
 30
0.0
 10
646.3909135541167
 20
205.1362497170995
 30
0.0
  0
LINE
  5
2284
330
1F
100
AcDbEntity
  8
AM_VIS
100
AcDbLine
 10
646.3909135541167
 20
205.1362497170995
 30
0.0
 11
646.246721297775
 21
205.5327784220394
 31
0.0
  0
LINE
  5
2285
330
1F
100
AcDbEntity
  8
AM_VIS
100
AcDbLine
 10
646.2467212977748
 20
205.5327784220394
 30
0.0
 11
645.1252259706722
 21
205.5327784220394
 31
0.0
  0
LINE
  5
2286
330
1F
100
AcDbEntity
  8
AM_VIS
100
AcDbLine
 10
645.1252259706722
 20
205.5327784220394
 30
0.0
 11
644.9249589479751
 21
205.0241001843892
 31
0.0
  0
SPLINE
  5
2287
330
1F
100
AcDbEntity
  8
AM_VIS
100
AcDbSpline
210
0.0
220
0.0
230
1.0
 70
     8
 71
     3
 72
     8
 73
     4
 74
     0
 42
0.0000000001
 43
0.0000000001
 40
0.0
 40
0.0
 40
0.0
 40
0.0
 40
80.0
 40
80.0
 40
80.0
 40
80.0
 10
644.9249589479751
 20
205.0241001843892
 30
0.0
 10
644.9035970914763
 20
204.970695604259
 30
0.0
 10
644.8929162243436
 20
204.9119506516789
 30
0.0
 10
644.8929162243436
 20
204.8478652044159
 30
0.0
  0
SPLINE
  5
2288
330
1F
100
AcDbEntity
  8
AM_VIS
100
AcDbSpline
210
0.0
220
0.0
230
1.0
 70
     8
 71
     3
 72
     8
 73
     4
 74
     0
 42
0.0000000001
 43
0.0000000001
 40
0.0
 40
0.0
 40
0.0
 40
0.0
 40
80.0
 40
80.0
 40
80.0
 40
80.0
 10
644.8929162243436
 20
204.8478652044159
 30
0.0
 10
644.8929162243436
 20
204.7624179617708
 30
0.0
 10
644.9249589479751
 20
204.7063431954156
 30
0.0
 10
644.9890443952382
 20
204.6796409053505
 30
0.0
  0
SPLINE
  5
2289
330
1F
100
AcDbEntity
  8
AM_VIS
100
AcDbSpline
210
0.0
220
0.0
230
1.0
 70
     8
 71
     3
 72
     8
 73
     4
 74
     0
 42
0.0000000001
 43
0.0000000001
 40
0.0
 40
0.0
 40
0.0
 40
0.0
 40
80.0
 40
80.0
 40
80.0
 40
80.0
 10
644.9890443952382
 20
204.6796409053505
 30
0.0
 10
645.0184168715282
 20
204.6636195435347
 30
0.0
 10
645.0744916378834
 20
204.652938676402
 30
0.0
 10
645.1572686943035
 20
204.647598181719
 30
0.0
  0
LINE
  5
228A
330
1F
100
AcDbEntity
  8
AM_VIS
100
AcDbLine
 10
645.1572686943035
 20
204.647598181719
 30
0.0
 11
645.1572686943035
 21
204.5674913726402
 31
0.0
  0
LINE
  5
228B
330
1F
100
AcDbEntity
  8
AM_VIS
100
AcDbLine
 10
645.1572686943035
 20
204.5674913726402
 30
0.0
 11
644.4242913912329
 21
204.5674913726402
 31
0.0
  0
LINE
  5
228C
330
1F
100
AcDbEntity
  8
AM_VIS
100
AcDbLine
 10
644.4242913912329
 20
204.5674913726402
 30
0.0
 11
644.4242913912329
 21
204.647598181719
 31
0.0
  0
LINE
  5
228D
330
1F
100
AcDbEntity
  8
AM_VIS
100
AcDbLine
 10
644.4244163119313
 20
204.6469489643393
 30
0.0
 11
644.52855304453
 21
204.6669866801879
 31
0.0
  0
SPLINE
  5
228E
330
1F
100
AcDbEntity
  8
AM_VIS
100
AcDbSpline
210
0.0
220
0.0
230
1.0
 70
     8
 71
     3
 72
     8
 73
     4
 74
     0
 42
0.0000000001
 43
0.0000000001
 40
0.0
 40
0.0
 40
0.0
 40
0.0
 40
80.0
 40
80.0
 40
80.0
 40
80.0
 10
644.5284302430353
 20
204.6676248839887
 30
0.0
 10
644.5604729055502
 20
204.6756355648966
 30
0.0
 10
644.5911805360691
 20
204.6983325145077
 30
0.0
 10
644.6205530734759
 20
204.7357156717056
 30
0.0
  0
SPLINE
  5
228F
330
1F
100
AcDbEntity
  8
AM_VIS
100
AcDbSpline
210
0.0
220
0.0
230
1.0
 70
     8
 71
     3
 72
     8
 73
     4
 74
     0
 42
0.0000000001
 43
0.0000000001
 40
0.0
 40
0.0
 40
0.0
 40
0.0
 40
80.0
 40
80.0
 40
80.0
 40
80.0
 10
644.6205530734759
 20
204.7357156717056
 30
0.0
 10
644.6953193878715
 20
204.8318437814835
 30
0.0
 10
644.7927827129952
 20
205.0427917324298
 30
0.0
 10
644.9129429266134
 20
205.3685594634279
 30
0.0
  0
LINE
  5
2290
330
1F
100
AcDbEntity
  8
AM_VIS
100
AcDbLine
 10
644.9129429266134
 20
205.3685594634279
 30
0.0
 11
645.722021698309
 21
207.5674913726402
 31
0.0
  0
LINE
  5
2291
330
1F
100
AcDbEntity
  8
AM_VIS
100
AcDbLine
 10
645.722021698309
 20
207.5674913726402
 30
0.0
 11
645.7380430601248
 21
207.5674913726402
 31
0.0
  0
LINE
  5
2292
330
1F
100
AcDbEntity
  8
AM_VIS
100
AcDbLine
 10
645.7380430601248
 20
207.5674913726402
 30
0.0
 11
646.6873087477083
 21
205.0401215462049
 31
0.0
  0
SPLINE
  5
2293
330
1F
100
AcDbEntity
  8
AM_VIS
100
AcDbSpline
210
0.0
220
0.0
230
1.0
 70
     8
 71
     3
 72
     8
 73
     4
 74
     0
 42
0.0000000001
 43
0.0000000001
 40
0.0
 40
0.0
 40
0.0
 40
0.0
 40
80.0
 40
80.0
 40
80.0
 40
80.0
 10
646.6873087477083
 20
205.0401215462049
 30
0.0
 10
646.7460537002881
 20
204.8799079280474
 30
0.0
 10
646.8101391475512
 20
204.7717637357911
 30
0.0
 10
646.8795650894973
 20
204.7156889694359
 30
0.0
  0
SPLINE
  5
2294
330
1F
100
AcDbEntity
  8
AM_VIS
100
AcDbSpline
210
0.0
220
0.0
230
1.0
 70
     8
 71
     3
 72
     8
 73
     4
 74
     0
 42
0.0000000001
 43
0.0000000001
 40
0.0
 40
0.0
 40
0.0
 40
0.0
 40
80.0
 40
80.0
 40
80.0
 40
80.0
 10
646.8795650894973
 20
204.7156889694359
 30
0.0
 10
646.9196184940366
 20
204.6836462458044
 30
0.0
 10
646.989044374866
 20
204.6609493573099
 30
0.0
 10
647.0878427931019
 20
204.647598181719
 30
0.0
  0
LINE
  5
2295
330
1F
100
AcDbEntity
  8
AM_VIS
100
AcDbLine
 10
647.0878427931019
 20
204.647598181719
 30
0.0
 11
647.0878427931019
 21
204.5674913726402
 31
0.0
  0
LINE
  5
2296
330
1F
100
AcDbEntity
  8
AM_VIS
100
AcDbLine
 10
649.9278427931137
 20
178.5674913726402
 30
0.0
 11
649.9278427931137
 21
214.5674913726402
 31
0.0
  0
LINE
  5
2297
330
1F
100
AcDbEntity
  8
AM_VIS
100
AcDbLine
 10
649.9278427931137
 20
214.5674913726402
 30
0.0
 11
649.9278427931137
 21
216.5674913726402
 31
0.0
  0
LINE
  5
2298
330
1F
100
AcDbEntity
  8
AM_VIS
100
AcDbLine
 10
590.4278427931135
 20
216.5674913726402
 30
0.0
 11
590.4278427931135
 21
214.5674913726402
 31
0.0
  0
LINE
  5
2299
330
1F
100
AcDbEntity
  8
AM_VIS
100
AcDbLine
 10
590.4278427931135
 20
214.5674913726402
 30
0.0
 11
590.4278427931135
 21
178.5674913726402
 31
0.0
  0
LINE
  5
229A
330
1F
100
AcDbEntity
  8
AM_VIS
100
AcDbLine
 10
649.9278427931137
 20
213.9289044161185
 30
0.0
 11
649.9278427931137
 21
213.9044478943794
 31
0.0
  0
LINE
  5
229B
330
1F
100
AcDbEntity
  8
AM_VIS
100
AcDbLine
 10
649.9278427931137
 20
213.9044478943794
 30
0.0
 11
649.9278427931137
 21
213.7414044161185
 31
0.0
  0
LINE
  5
229C
330
1F
100
AcDbEntity
  8
AM_VIS
100
AcDbLine
 10
649.9278427931137
 20
212.5552631117707
 30
0.0
 11
649.9278427931137
 21
212.5389587639446
 31
0.0
  0
LINE
  5
229D
330
1F
100
AcDbEntity
  8
AM_VIS
100
AcDbLine
 10
649.9278427931137
 20
204.5180348509011
 30
0.0
 11
649.9278427931137
 21
204.3264587639446
 31
0.0
  0
LINE
  5
229E
330
1F
100
AcDbEntity
  8
AM_VIS
100
AcDbLine
 10
649.9278427931137
 20
204.3264587639446
 30
0.0
 11
649.9278427931137
 21
204.3020022422055
 31
0.0
  0
LINE
  5
229F
330
1F
100
AcDbEntity
  8
AM_VIS
100
AcDbLine
 10
649.9278427931137
 20
207.032980503075
 30
0.0
 11
649.9278427931137
 21
207.0289044161185
 31
0.0
  0
LINE
  5
22A0
330
1F
100
AcDbEntity
  8
AM_VIS
100
AcDbLine
 10
649.9278427931137
 20
207.0289044161185
 30
0.0
 11
649.9278427931137
 21
207.0003718074229
 31
0.0
  0
LINE
  5
22A1
330
1F
100
AcDbEntity
  8
AM_VIS
100
AcDbLine
 10
649.9278427931137
 20
207.0003718074228
 30
0.0
 11
649.9278427931137
 21
206.9147739813359
 31
0.0
  0
LINE
  5
22A2
330
1F
100
AcDbEntity
  8
AM_VIS
100
AcDbLine
 10
649.9278427931137
 20
207.0289044161185
 30
0.0
 11
649.9278427931137
 21
207.0044478943794
 31
0.0
  0
LINE
  5
22A3
330
1F
100
AcDbEntity
  8
AM_VIS
100
AcDbLine
 10
649.9278427931137
 20
207.0044478943794
 30
0.0
 11
649.9278427931137
 21
206.8414044161185
 31
0.0
  0
LINE
  5
22A4
330
1F
100
AcDbEntity
  8
AM_VIS
100
AcDbLine
 10
649.9278427931137
 20
205.6552631117706
 30
0.0
 11
649.9278427931137
 21
205.6389587639446
 31
0.0
  0
CIRCLE
  5
22A5
330
1F
100
AcDbEntity
  8
AM_VIS
100
AcDbCircle
 10
609.4278427931135
 20
188.5674913726402
 30
0.0
 40
5.7225
  0
CIRCLE
  5
22A7
330
1F
100
AcDbEntity
  8
AM_VIS
100
AcDbCircle
 10
617.9278427931136
 20
206.0674913726402
 30
0.0
 40
5.7225
  0
CIRCLE
  5
22A8
330
1F
100
AcDbEntity
  8
AM_VIS
100
AcDbCircle
 10
626.9278427931136
 20
188.5674913726402
 30
0.0
 40
5.7225
  0
CIRCLE
  5
22AC
330
1F
100
AcDbEntity
  8
AM_VIS
100
AcDbCircle
 10
635.4278427931136
 20
206.0674913726402
 30
0.0
 40
5.7225
  0
LINE
  5
22E4
330
1F
100
AcDbEntity
  8
AM_VIS
100
AcDbLine
 10
714.53828763709
 20
181.5674913726402
 30
0.0
 11
749.0382876370901
 21
181.5674913726402
 31
0.0
  0
LINE
  5
22E5
330
1F
100
AcDbEntity
  8
AM_VIS
100
AcDbLine
 10
712.8062368295212
 20
178.5674913726402
 30
0.0
 11
714.53828763709
 21
181.5674913726402
 31
0.0
  0
LINE
  5
22E6
330
1F
100
AcDbEntity
  8
AM_VIS
100
AcDbLine
 10
712.8062368295212
 20
178.5674913726402
 30
0.0
 11
697.53828763709
 21
178.5674913726402
 31
0.0
  0
LINE
  5
22E7
102
{ACAD_REACTORS
330
2F84
102
}
330
1F
100
AcDbEntity
  8
AM_VIS
100
AcDbLine
 10
697.53828763709
 20
178.5674913726402
 30
0.0
 11
697.53828763709
 21
214.5674913726402
 31
0.0
  0
LINE
  5
22E8
330
1F
100
AcDbEntity
  8
AM_VIS
100
AcDbLine
 10
697.53828763709
 20
214.5674913726402
 30
0.0
 11
709.0382876370901
 21
214.5674913726402
 31
0.0
  0
LINE
  5
22E9
330
1F
100
AcDbEntity
  8
AM_VIS
100
AcDbLine
 10
709.0382876370901
 20
214.5674913726402
 30
0.0
 11
709.0382876370901
 21
216.5674913726402
 31
0.0
  0
LINE
  5
22EA
330
1F
100
AcDbEntity
  8
AM_VIS
100
AcDbLine
 10
709.0382876370901
 20
216.5674913726402
 30
0.0
 11
765.53828763709
 21
216.5674913726402
 31
0.0
  0
LINE
  5
22EB
102
{ACAD_REACTORS
330
2F62
102
}
330
1F
100
AcDbEntity
  8
AM_VIS
100
AcDbLine
 10
765.53828763709
 20
216.5674913726402
 30
0.0
 11
765.53828763709
 21
178.5674913726402
 31
0.0
  0
LINE
  5
22EC
330
1F
100
AcDbEntity
  8
AM_VIS
100
AcDbLine
 10
765.53828763709
 20
178.5674913726402
 30
0.0
 11
750.7703384446589
 21
178.5674913726402
 31
0.0
  0
LINE
  5
22ED
330
1F
100
AcDbEntity
  8
AM_VIS
100
AcDbLine
 10
749.0382876370901
 20
181.5674913726402
 30
0.0
 11
750.7703384446589
 21
178.5674913726402
 31
0.0
  0
CIRCLE
  5
240B
330
1F
100
AcDbEntity
  8
AM_VIS
100
AcDbCircle
 10
716.5382876370901
 20
196.1674913726402
 30
0.0
 40
5.7
  0
LINE
  5
2B84
330
1F
100
AcDbEntity
  8
AM_7
100
AcDbLine
 10
708.81578763709
 20
196.1674913726402
 30
0.0
 11
724.1793162086004
 21
196.1674913726402
 31
0.0
  0
LINE
  5
2B85
330
1F
100
AcDbEntity
  8
AM_7
100
AcDbLine
 10
716.5382876370901
 20
188.4449913726401
 30
0.0
 11
716.5382876370901
 21
204.1416270887627
 31
0.0
  0
ARC
  5
2B93
330
1F
100
AcDbEntity
  8
AM_4
  6
AM_ISO02W050x2
100
AcDbCircle
 10
736.5382876370901
 20
196.1674913726402
 30
0.0
 40
6.5785
100
AcDbArc
 50
258.4816047092878
 51
199.9523797863535
  0
CIRCLE
  5
2B94
330
1F
100
AcDbEntity
  8
AM_VIS
100
AcDbCircle
 10
736.5382876370901
 20
196.1674913726402
 30
0.0
 40
5.7
  0
LINE
  5
2B95
330
1F
100
AcDbEntity
  8
AM_7
100
AcDbLine
 10
728.81578763709
 20
196.1674913726402
 30
0.0
 11
744.1793162086004
 21
196.1674913726402
 31
0.0
  0
LINE
  5
2B96
330
1F
100
AcDbEntity
  8
AM_7
100
AcDbLine
 10
736.5382876370901
 20
188.4449913726401
 30
0.0
 11
736.5382876370901
 21
204.1416270887627
 31
0.0
  0
ARC
  5
2B97
330
1F
100
AcDbEntity
  8
AM_4
  6
AM_ISO02W050x2
100
AcDbCircle
 10
756.53828763709
 20
196.1674913726402
 30
0.0
 40
6.5785
100
AcDbArc
 50
258.4816047092878
 51
199.9523797863535
  0
CIRCLE
  5
2B98
102
{ACAD_REACTORS
330
301D
102
}
330
1F
100
AcDbEntity
  8
AM_VIS
100
AcDbCircle
 10
756.53828763709
 20
196.1674913726402
 30
0.0
 40
5.7
  0
LINE
  5
2B99
330
1F
100
AcDbEntity
  8
AM_7
100
AcDbLine
 10
748.81578763709
 20
196.1674913726402
 30
0.0
 11
764.1793162086004
 21
196.1674913726402
 31
0.0
  0
LINE
  5
2B9A
330
1F
100
AcDbEntity
  8
AM_7
100
AcDbLine
 10
756.53828763709
 20
188.4449913726401
 30
0.0
 11
756.53828763709
 21
204.1416270887627
 31
0.0
  0
DIMENSION
  5
2C65
102
{ACAD_XDICTIONARY
360
2C72
102
}
102
{ACAD_REACTORS
330
2C73
102
}
330
1F
100
AcDbEntity
  8
AM_5
100
AcDbDimension
  2
*D21
 10
644.9278427931136
 20
246.4174913726404
 30
0.0
 11
620.1778427931135
 21
248.8674913726404
 31
0.0
 70
    32
  1
Y
 71
     5
 42
49.50000000000011
  3
AM_ISO$0
100
AcDbAlignedDimension
 13
595.4278427931135
 23
283.1674913726402
 33
0.0
 14
644.9278427931136
 24
283.1674913726402
 34
0.0
 50
0.0000000000001018
100
AcDbRotatedDimension
1001
ACAD
1000
DSTYLE
1002
{
1070
   272
1070
     8
1002
}
  0
LINE
  5
2CD9
330
1F
100
AcDbEntity
  8
AM_7
100
AcDbLine
 10
610.2053427931137
 20
206.0674913726402
 30
0.0
 11
625.568871364624
 21
206.0674913726402
 31
0.0
  0
LINE
  5
2CDA
330
1F
100
AcDbEntity
  8
AM_7
100
AcDbLine
 10
617.9278427931136
 20
198.3449913726402
 30
0.0
 11
617.9278427931136
 21
214.0416270887627
 31
0.0
  0
ARC
  5
2CDB
330
1F
100
AcDbEntity
  8
AM_4
  6
AM_ISO02W050x2
100
AcDbCircle
 10
617.9278427931136
 20
206.0674913726402
 30
0.0
 40
6.5785
100
AcDbArc
 50
254.9124830211938
 51
210.2768029625554
  0
LINE
  5
2CDC
330
1F
100
AcDbEntity
  8
AM_7
100
AcDbLine
 10
627.7053427931136
 20
206.0674913726402
 30
0.0
 11
643.0688713646239
 21
206.0674913726402
 31
0.0
  0
LINE
  5
2CDD
330
1F
100
AcDbEntity
  8
AM_7
100
AcDbLine
 10
635.4278427931136
 20
198.3449913726401
 30
0.0
 11
635.4278427931136
 21
214.0416270887627
 31
0.0
  0
ARC
  5
2CDE
330
1F
100
AcDbEntity
  8
AM_4
  6
AM_ISO02W050x2
100
AcDbCircle
 10
635.4278427931136
 20
206.0674913726402
 30
0.0
 40
6.5785
100
AcDbArc
 50
254.9124830211938
 51
210.2768029625554
  0
LINE
  5
2CE5
330
1F
100
AcDbEntity
  8
AM_7
100
AcDbLine
 10
619.2053427931135
 20
188.5674913726402
 30
0.0
 11
634.5688713646239
 21
188.5674913726402
 31
0.0
  0
LINE
  5
2CE6
330
1F
100
AcDbEntity
  8
AM_7
100
AcDbLine
 10
626.9278427931136
 20
180.8449913726401
 30
0.0
 11
626.9278427931136
 21
196.5416270887626
 31
0.0
  0
ARC
  5
2CE7
330
1F
100
AcDbEntity
  8
AM_4
  6
AM_ISO02W050x2
100
AcDbCircle
 10
626.9278427931136
 20
188.5674913726402
 30
0.0
 40
6.5785
100
AcDbArc
 50
254.9124830211938
 51
210.2768029625554
  0
ARC
  5
2D5C
330
1F
100
AcDbEntity
  8
AM_4
  6
AM_ISO02W050x2
100
AcDbCircle
 10
623.1278427931137
 20
278.4174913726403
 30
0.0
 40
1.586
100
AcDbArc
 50
244.5413522392895
 51
199.3417207102602
  0
ARC
  5
2D5E
330
1F
100
AcDbEntity
  8
AM_4
  6
AM_ISO02W050x2
100
AcDbCircle
 10
634.7278427931136
 20
314.4174913726403
 30
0.0
 40
1.586
100
AcDbArc
 50
244.5413522392895
 51
199.3417207102602
  0
ARC
  5
2D5F
330
1F
100
AcDbEntity
  8
AM_4
  6
AM_ISO02W050x2
100
AcDbCircle
 10
617.2278427931136
 20
314.4174913726403
 30
0.0
 40
1.586
100
AcDbArc
 50
244.5413522392895
 51
199.3417207102602
  0
LINE
  5
2D72
330
1F
100
AcDbEntity
  8
AM_7
 48
0.3
100
AcDbLine
 10
626.3778427931137
 20
275.4174913726402
 30
0.0
 11
628.4778427931136
 21
275.4174913726402
 31
0.0
  0
LINE
  5
2D73
330
1F
100
AcDbEntity
  8
AM_7
 48
0.3
100
AcDbLine
 10
627.4278427931136
 20
274.3674913726402
 30
0.0
 11
627.4278427931136
 21
276.4674913726403
 31
0.0
  0
LINE
  5
2D74
330
1F
100
AcDbEntity
  8
AM_7
 48
0.3
100
AcDbLine
 10
623.8778427931137
 20
317.4108271732821
 30
0.0
 11
625.9778427931136
 21
317.4108271732821
 31
0.0
  0
LINE
  5
2D75
330
1F
100
AcDbEntity
  8
AM_7
 48
0.3
100
AcDbLine
 10
624.9278427931137
 20
316.3608271732821
 30
0.0
 11
624.9278427931137
 21
318.4608271732821
 31
0.0
  0
LINE
  5
2D76
330
1F
100
AcDbEntity
  8
AM_7
 48
0.3
100
AcDbLine
 10
606.3778427931135
 20
317.4108271732821
 30
0.0
 11
608.4778427931134
 21
317.4108271732821
 31
0.0
  0
LINE
  5
2D77
330
1F
100
AcDbEntity
  8
AM_7
 48
0.3
100
AcDbLine
 10
607.4278427931135
 20
316.3608271732821
 30
0.0
 11
607.4278427931135
 21
318.4608271732821
 31
0.0
  0
INSERT
  5
2F1F
330
1F
100
AcDbEntity
  8
0
100
AcDbBlockReference
  2
A$C0B032DDE
 10
612.9374337269236
 20
220.1924957375438
 30
0.0
  0
LINE
  5
2F3F
330
1F
100
AcDbEntity
  8
SL
  6
ACISOTGB
 62
     4
100
AcDbLine
 10
621.7717030223135
 20
305.1329992543497
 30
0.0
 11
621.7717030223133
 21
338.2086928792706
 31
0.0
  0
LINE
  5
2F40
330
1F
100
AcDbEntity
  8
SL
  6
ACISOTGB
 62
     4
100
AcDbLine
 10
614.1499710546671
 20
305.1329992543494
 30
0.0
 11
621.7717030223135
 21
305.1329992543497
 31
0.0
  0
LINE
  5
2F41
330
1F
100
AcDbEntity
  8
SL
  6
ACISOTGB
 62
     4
100
AcDbLine
 10
614.1499710546671
 20
305.1329992543494
 30
0.0
 11
614.1499710546671
 21
254.8012508890322
 31
0.0
  0
INSERT
  5
2F42
330
1F
100
AcDbEntity
  8
0
100
AcDbBlockReference
  2
A$C0B032DDE
 10
608.2117148533561
 20
334.9782720465646
 30
0.0
  0
DIMENSION
  5
2F54
102
{ACAD_XDICTIONARY
360
2F61
102
}
102
{ACAD_REACTORS
330
2F62
102
}
330
1F
100
AcDbEntity
  8
AM_5
100
AcDbDimension
  2
*D23
 10
785.1020677893683
 20
178.5674913726402
 30
0.0
 11
785.1020677893683
 21
197.5674913726403
 31
0.0
 70
   160
 71
     5
 42
38.0
  3
AM_ISO$0
100
AcDbAlignedDimension
 13
765.53828763709
 23
216.5674913726402
 33
0.0
 14
765.53828763709
 24
178.5674913726402
 34
0.0
 50
90.0
100
AcDbRotatedDimension
1001
ACAD
1000
DSTYLE
1002
{
1070
    40
1040
1.0
1070
   144
1040
1.0
1070
   272
1070
     8
1002
}
  0
DIMENSION
  5
2F76
102
{ACAD_XDICTIONARY
360
2F83
102
}
102
{ACAD_REACTORS
330
2F84
102
}
330
1F
100
AcDbEntity
  8
AM_5
100
AcDbDimension
  2
*D24
 10
685.53828763709
 20
214.5674913726402
 30
0.0
 11
683.08828763709
 21
196.5674913726403
 31
0.0
 70
    32
 71
     5
 42
36.0
  3
AM_ISO$0
100
AcDbAlignedDimension
 13
697.53828763709
 23
178.5674913726402
 33
0.0
 14
697.53828763709
 24
214.5674913726402
 34
0.0
 50
90.0
100
AcDbRotatedDimension
1001
ACAD
1000
DSTYLE
1002
{
1070
    40
1040
1.0
1070
   144
1040
1.0
1070
   272
1070
     8
1002
}
  0
DIMENSION
  5
3010
102
{ACAD_XDICTIONARY
360
301C
102
}
102
{ACAD_REACTORS
330
301D
102
}
330
1F
100
AcDbEntity
  8
AM_5
100
AcDbDimension
  2
*D25
 10
753.6930910484474
 20
191.2283764345186
 30
0.0
 11
783.2532751830527
 21
221.8855477587746
 31
0.0
 70
   163
  1
3×2-PT1/4
 71
     5
 42
11.39999999999986
  3
AM_ISO$3
100
AcDbDiametricDimension
 15
759.3834842257328
 25
201.1066063107616
 35
0.0
 40
0.0
1001
ACAD
1000
DSTYLE
1002
{
1070
    40
1040
1.0
1070
   144
1040
1.0
1070
   272
1070
     8
1002
}
  0
INSERT
  5
32AE
330
1F
100
AcDbEntity
  8
0
100
AcDbBlockReference
  2
A$C3C0B3F06
 10
621.1413767339894
 20
348.5725336311891
 30
0.0
  0
DIMENSION
  5
3343
330
1F
100
AcDbEntity
  8
AM_5
100
AcDbDimension
  2
*D27
 10
617.9278427931135
 20
206.0674913726403
 30
0.0
 11
594.3226791227065
 21
222.5858472425296
 31
0.0
 70
   164
  1
2×N-PT1/4
 71
     5
 42
6.578499999999849
  3
AM_ISO$4
100
AcDbRadialDimension
 15
614.1722641841222
 25
211.4686293602949
 35
0.0
 40
0.0
1001
ACAD
1000
DSTYLE
1002
{
1070
    40
1040
1.0
1070
   144
1040
1.0
1070
   272
1070
     8
1002
}
  0
SPLINE
  5
39BA
330
1F
100
AcDbEntity
  8
AM_VIS
100
AcDbSpline
210
0.0
220
0.0
230
1.0
 70
     8
 71
     3
 72
     8
 73
     4
 74
     0
 42
0.0000000001
 43
0.0000000001
 40
0.0
 40
0.0
 40
0.0
 40
0.0
 40
80.0
 40
80.0
 40
80.0
 40
80.0
 10
596.1126254018092
 20
296.7028174595837
 30
0.0
 10
596.5637123168668
 20
296.7028175217799
 30
0.0
 10
596.7892558365917
 20
297.0166762174321
 30
0.0
 10
596.7892558365917
 20
297.6443935465403
 30
0.0
  0
SPLINE
  5
39BB
330
1F
100
AcDbEntity
  8
AM_VIS
100
AcDbSpline
210
0.0
220
0.0
230
1.0
 70
     8
 71
     3
 72
     8
 73
     4
 74
     0
 42
0.0000000001
 43
0.0000000001
 40
0.0
 40
0.0
 40
0.0
 40
0.0
 40
80.0
 40
80.0
 40
80.0
 40
80.0
 10
596.7892558365917
 20
297.6443935465403
 30
0.0
 10
596.7892558365917
 20
297.7231979358304
 30
0.0
 10
596.7811036626788
 20
297.7734696542288
 30
0.0
 10
596.7647993148526
 20
297.7952087639316
 30
0.0
  0
SPLINE
  5
39BC
330
1F
100
AcDbEntity
  8
AM_VIS
100
AcDbSpline
210
0.0
220
0.0
230
1.0
 70
     8
 71
     3
 72
     8
 73
     4
 74
     0
 42
0.0000000001
 43
0.0000000001
 40
0.0
 40
0.0
 40
0.0
 40
0.0
 40
80.0
 40
80.0
 40
80.0
 40
80.0
 10
596.7647993148526
 20
297.7952087639316
 30
0.0
 10
596.7376253810771
 20
297.8223826977071
 30
0.0
 10
596.6832775757223
 20
297.8359696334968
 30
0.0
 10
596.6017558365917
 20
297.8359696334968
 30
0.0
  0
LINE
  5
39BD
330
1F
100
AcDbEntity
  8
AM_VIS
100
AcDbLine
 10
596.6017558365917
 20
297.8359696334968
 30
0.0
 11
595.415614532244
 21
297.8359696334968
 31
0.0
  0
SPLINE
  5
39BE
330
1F
100
AcDbEntity
  8
AM_VIS
100
AcDbSpline
210
0.0
220
0.0
230
1.0
 70
     8
 71
     3
 72
     8
 73
     4
 74
     0
 42
0.0000000001
 43
0.0000000001
 40
0.0
 40
0.0
 40
0.0
 40
0.0
 40
80.0
 40
80.0
 40
80.0
 40
80.0
 10
595.415614532244
 20
297.8359696334968
 30
0.0
 10
595.4047449462945
 20
297.7462957826495
 30
0.0
 10
595.3993101844178
 20
297.6389587846636
 30
0.0
 10
595.3993101844178
 20
297.5139587639316
 30
0.0
  0
SPLINE
  5
39BF
330
1F
100
AcDbEntity
  8
AM_VIS
100
AcDbSpline
210
0.0
220
0.0
230
1.0
 70
     8
 71
     3
 72
     8
 73
     4
 74
     0
 42
0.0000000001
 43
0.0000000001
 40
0.0
 40
0.0
 40
0.0
 40
0.0
 40
80.0
 40
80.0
 40
80.0
 40
80.0
 10
595.3993101844178
 20
297.5139587639316
 30
0.0
 10
595.3993101844178
 20
296.9731979358305
 30
0.0
 10
595.6370819028162
 20
296.7028175217799
 30
0.0
 10
596.1126254018092
 20
296.7028174595837
 30
0.0
  0
SPLINE
  5
39C0
330
1F
100
AcDbEntity
  8
AM_VIS
100
AcDbSpline
210
0.0
220
0.0
230
1.0
 70
     8
 71
     3
 72
     8
 73
     4
 74
     0
 42
0.0000000001
 43
0.0000000001
 40
0.0
 40
0.0
 40
0.0
 40
0.0
 40
80.0
 40
80.0
 40
80.0
 40
80.0
 10
596.1207775757222
 20
296.4174913726272
 30
0.0
 10
595.8789297081712
 20
296.4174913726272
 30
0.0
 10
595.6792014473015
 20
296.493578349881
 30
0.0
 10
595.5215927931135
 20
296.6457522421924
 30
0.0
  0
SPLINE
  5
39C1
330
1F
100
AcDbEntity
  8
AM_VIS
100
AcDbSpline
210
0.0
220
0.0
230
1.0
 70
     8
 71
     3
 72
     8
 73
     4
 74
     0
 42
0.0000000001
 43
0.0000000001
 40
0.0
 40
0.0
 40
0.0
 40
0.0
 40
80.0
 40
80.0
 40
80.0
 40
80.0
 10
595.5215927931135
 20
296.6457522421924
 30
0.0
 10
595.3476797289031
 20
296.8142305445261
 30
0.0
 10
595.260723227896
 20
297.094121869606
 30
0.0
 10
595.260723227896
 20
297.4854261552359
 30
0.0
  0
LINE
  5
39C2
330
1F
100
AcDbEntity
  8
AM_VIS
100
AcDbLine
 10
595.2596695537663
 20
297.4854466082198
 30
0.0
 11
595.266474499233
 21
297.8360162376796
 31
0.0
  0
LINE
  5
39C3
330
1F
100
AcDbEntity
  8
AM_VIS
100
AcDbLine
 10
595.2688754018091
 20
297.8359696334968
 30
0.0
 11
594.4618101844177
 21
297.8359696334968
 31
0.0
  0
SPLINE
  5
39C4
330
1F
100
AcDbEntity
  8
AM_VIS
100
AcDbSpline
210
0.0
220
0.0
230
1.0
 70
     8
 71
     3
 72
     8
 73
     4
 74
     0
 42
0.0000000001
 43
0.0000000001
 40
0.0
 40
0.0
 40
0.0
 40
0.0
 40
80.0
 40
80.0
 40
80.0
 40
80.0
 10
594.4618101844177
 20
297.8359696334968
 30
0.0
 10
594.2960492941206
 20
297.8359696334968
 30
0.0
 10
594.1792014473016
 20
297.8020022629245
 30
0.0
 10
594.111266706157
 20
297.7340674595837
 30
0.0
  0
SPLINE
  5
39C5
330
1F
100
AcDbEntity
  8
AM_VIS
100
AcDbSpline
210
0.0
220
0.0
230
1.0
 70
     8
 71
     3
 72
     8
 73
     4
 74
     0
 42
0.0000000001
 43
0.0000000001
 40
0.0
 40
0.0
 40
0.0
 40
0.0
 40
80.0
 40
80.0
 40
80.0
 40
80.0
 10
594.111266706157
 20
297.7340674595837
 30
0.0
 10
594.0542015509618
 20
297.6770022421924
 30
0.0
 10
594.0202341181934
 20
297.5683066314827
 30
0.0
 10
594.009364532244
 20
297.4079805030621
 30
0.0
  0
LINE
  5
39C6
330
1F
100
AcDbEntity
  8
AM_VIS
100
AcDbLine
 10
594.009364532244
 20
297.4079805030621
 30
0.0
 11
593.9278427931135
 21
297.4079805030621
 31
0.0
  0
LINE
  5
39C7
330
1F
100
AcDbEntity
  8
AM_VIS
100
AcDbLine
 10
593.9278427931135
 20
297.4079805030621
 30
0.0
 11
593.9278427931135
 21
298.4799913726273
 31
0.0
  0
LINE
  5
39C8
330
1F
100
AcDbEntity
  8
AM_VIS
100
AcDbLine
 10
593.9278427931135
 20
298.4799913726273
 30
0.0
 11
594.009364532244
 21
298.4799913726273
 31
0.0
  0
SPLINE
  5
39C9
330
1F
100
AcDbEntity
  8
AM_VIS
100
AcDbSpline
210
0.0
220
0.0
230
1.0
 70
     8
 71
     3
 72
     8
 73
     4
 74
     0
 42
0.0000000001
 43
0.0000000001
 40
0.0
 40
0.0
 40
0.0
 40
0.0
 40
80.0
 40
80.0
 40
80.0
 40
80.0
 10
594.009364532244
 20
298.4799913726273
 30
0.0
 10
594.02566888007
 20
298.3196653064028
 30
0.0
 10
594.0718645737081
 20
298.2136870455332
 30
0.0
 10
594.1479514887658
 20
298.1620565900186
 30
0.0
  0
SPLINE
  5
39CA
330
1F
100
AcDbEntity
  8
AM_VIS
100
AcDbSpline
210
0.0
220
0.0
230
1.0
 70
     8
 71
     3
 72
     8
 73
     4
 74
     0
 42
0.0000000001
 43
0.0000000001
 40
0.0
 40
0.0
 40
0.0
 40
0.0
 40
80.0
 40
80.0
 40
80.0
 40
80.0
 10
594.1479514887658
 20
298.1620565900186
 30
0.0
 10
594.21316888007
 20
298.1158609585767
 30
0.0
 10
594.3368101636858
 20
298.0927631117577
 30
0.0
 10
594.5188754018091
 20
298.0927631117577
 30
0.0
  0
LINE
  5
39CB
330
1F
100
AcDbEntity
  8
AM_VIS
100
AcDbLine
 10
594.5188754018091
 20
298.0927631117577
 30
0.0
 11
596.4224080105047
 21
298.0927631117577
 31
0.0
  0
SPLINE
  5
39CC
330
1F
100
AcDbEntity
  8
AM_VIS
100
AcDbSpline
210
0.0
220
0.0
230
1.0
 70
     8
 71
     3
 72
     8
 73
     4
 74
     0
 42
0.0000000001
 43
0.0000000001
 40
0.0
 40
0.0
 40
0.0
 40
0.0
 40
80.0
 40
80.0
 40
80.0
 40
80.0
 10
596.4224080105047
 20
298.0927631117577
 30
0.0
 10
596.5854514887657
 20
298.0927631117577
 30
0.0
 10
596.6927884245554
 20
298.1185783706131
 30
0.0
 10
596.74441888007
 20
298.1702087639316
 30
0.0
  0
SPLINE
  5
39CD
330
1F
100
AcDbEntity
  8
AM_VIS
100
AcDbSpline
210
0.0
220
0.0
230
1.0
 70
     8
 71
     3
 72
     8
 73
     4
 74
     0
 42
0.0000000001
 43
0.0000000001
 40
0.0
 40
0.0
 40
0.0
 40
0.0
 40
80.0
 40
80.0
 40
80.0
 40
80.0
 10
596.74441888007
 20
298.1702087639316
 30
0.0
 10
596.7933319235482
 20
298.2191218074099
 30
0.0
 10
596.8272992941206
 20
298.3223827184391
 30
0.0
 10
596.846321053983
 20
298.4799913726273
 30
0.0
  0
LINE
  5
39CE
330
1F
100
AcDbEntity
  8
AM_VIS
100
AcDbLine
 10
596.846321053983
 20
298.4799913726273
 30
0.0
 11
596.9278427931135
 21
298.4799913726273
 31
0.0
  0
LINE
  5
39CF
330
1F
100
AcDbEntity
  8
AM_VIS
100
AcDbLine
 10
596.9278427931135
 20
298.4799913726273
 30
0.0
 11
596.9278427931135
 21
297.4446652856707
 31
0.0
  0
SPLINE
  5
39D0
330
1F
100
AcDbEntity
  8
AM_VIS
100
AcDbSpline
210
0.0
220
0.0
230
1.0
 70
     8
 71
     3
 72
     8
 73
     4
 74
     0
 42
0.0000000001
 43
0.0000000001
 40
0.0
 40
0.0
 40
0.0
 40
0.0
 40
80.0
 40
80.0
 40
80.0
 40
80.0
 10
596.9278427931135
 20
297.4446652856707
 30
0.0
 10
596.9278427931135
 20
297.1484696749609
 30
0.0
 10
596.8653427516494
 20
296.9093392194462
 30
0.0
 10
596.7403427931135
 20
296.7272739813229
 30
0.0
  0
SPLINE
  5
39D1
330
1F
100
AcDbEntity
  8
AM_VIS
100
AcDbSpline
210
0.0
220
0.0
230
1.0
 70
     8
 71
     3
 72
     8
 73
     4
 74
     0
 42
0.0000000001
 43
0.0000000001
 40
0.0
 40
0.0
 40
0.0
 40
0.0
 40
80.0
 40
80.0
 40
80.0
 40
80.0
 10
596.7403427931135
 20
296.7272739813229
 30
0.0
 10
596.5963210125189
 20
296.5207522836566
 30
0.0
 10
596.3897993148527
 20
296.4174913726272
 30
0.0
 10
596.1207775757222
 20
296.4174913726272
 30
0.0
  0
LINE
  5
39D2
330
1F
100
AcDbEntity
  8
AM_VIS
100
AcDbLine
 10
593.9278427931135
 20
315.3887480571322
 30
0.0
 11
593.9278427931135
 21
316.4435608913568
 31
0.0
  0
LINE
  5
39D3
330
1F
100
AcDbEntity
  8
AM_VIS
100
AcDbLine
 10
593.9278427931135
 20
316.4435608913568
 30
0.0
 11
594.0080566968568
 21
316.4435608913568
 31
0.0
  0
SPLINE
  5
39D4
330
1F
100
AcDbEntity
  8
AM_VIS
100
AcDbSpline
210
0.0
220
0.0
230
1.0
 70
     8
 71
     3
 72
     8
 73
     4
 74
     0
 42
0.0000000001
 43
0.0000000001
 40
0.0
 40
0.0
 40
0.0
 40
0.0
 40
80.0
 40
80.0
 40
80.0
 40
80.0
 10
594.0080566968568
 20
316.4435608913568
 30
0.0
 10
594.0134043312387
 20
316.3018496818097
 30
0.0
 10
594.0347946851707
 20
316.2042561193215
 30
0.0
 10
594.0722278198514
 20
316.1507801426937
 30
0.0
  0
SPLINE
  5
39D5
330
1F
100
AcDbEntity
  8
AM_VIS
100
AcDbSpline
210
0.0
220
0.0
230
1.0
 70
     8
 71
     3
 72
     8
 73
     4
 74
     0
 42
0.0000000001
 43
0.0000000001
 40
0.0
 40
0.0
 40
0.0
 40
0.0
 40
80.0
 40
80.0
 40
80.0
 40
80.0
 10
594.0722278198514
 20
316.1507801426937
 30
0.0
 10
594.1283776136701
 20
316.0705662389504
 30
0.0
 10
594.2353293833307
 20
316.0304592870787
 30
0.0
 10
594.3930834348248
 20
316.0304592870787
 30
0.0
  0
LINE
  5
39D6
330
1F
100
AcDbEntity
  8
AM_VIS
100
AcDbLine
 10
594.3930834348248
 20
316.0304592870787
 30
0.0
 11
596.382388247659
 21
316.0304592870787
 31
0.0
  0
SPLINE
  5
39D7
330
1F
100
AcDbEntity
  8
AM_VIS
100
AcDbSpline
210
0.0
220
0.0
230
1.0
 70
     8
 71
     3
 72
     8
 73
     4
 74
     0
 42
0.0000000001
 43
0.0000000001
 40
0.0
 40
0.0
 40
0.0
 40
0.0
 40
80.0
 40
80.0
 40
80.0
 40
80.0
 10
596.382388247659
 20
316.0304592870787
 30
0.0
 10
596.5347946647711
 20
316.0304592870787
 30
0.0
 10
596.6109978733275
 20
316.0852721417028
 30
0.0
 10
596.6109978733275
 20
316.1948977897525
 30
0.0
  0
SPLINE
  5
39D8
330
1F
100
AcDbEntity
  8
AM_VIS
100
AcDbSpline
210
0.0
220
0.0
230
1.0
 70
     8
 71
     3
 72
     8
 73
     4
 74
     0
 42
0.0000000001
 43
0.0000000001
 40
0.0
 40
0.0
 40
0.0
 40
0.0
 40
80.0
 40
80.0
 40
80.0
 40
80.0
 10
596.6109978733275
 20
316.1948977897525
 30
0.0
 10
596.6109978733275
 20
316.264416547129
 30
0.0
 10
596.5869337022044
 20
316.3606732316209
 30
0.0
 10
596.5388053599583
 20
316.4836678432284
 30
0.0
  0
LINE
  5
39D9
330
1F
100
AcDbEntity
  8
AM_VIS
100
AcDbLine
 10
596.5388053599583
 20
316.4836678432284
 30
0.0
 11
596.6029764829531
 21
316.4836678432284
 31
0.0
  0
LINE
  5
39DA
330
1F
100
AcDbEntity
  8
AM_VIS
100
AcDbLine
 10
596.6029764829531
 20
316.4836678432284
 30
0.0
 11
596.9278427931135
 21
315.8058603565975
 31
0.0
  0
LINE
  5
39DB
330
1F
100
AcDbEntity
  8
AM_VIS
100
AcDbLine
 10
596.9278427931135
 20
315.8058603565975
 30
0.0
 11
594.3168802262686
 21
315.8058603565975
 31
0.0
  0
SPLINE
  5
39DC
330
1F
100
AcDbEntity
  8
AM_VIS
100
AcDbSpline
210
0.0
220
0.0
230
1.0
 70
     8
 71
     3
 72
     8
 73
     4
 74
     0
 42
0.0000000001
 43
0.0000000001
 40
0.0
 40
0.0
 40
0.0
 40
0.0
 40
80.0
 40
80.0
 40
80.0
 40
80.0
 10
594.3168802262686
 20
315.8058603565975
 30
0.0
 10
594.2019069438369
 20
315.8058603565975
 30
0.0
 10
594.1203562232958
 20
315.7737747951001
 30
0.0
 10
594.0722278198514
 20
315.7096036721055
 30
0.0
  0
SPLINE
  5
39DD
330
1F
100
AcDbEntity
  8
AM_VIS
100
AcDbSpline
210
0.0
220
0.0
230
1.0
 70
     8
 71
     3
 72
     8
 73
     4
 74
     0
 42
0.0000000001
 43
0.0000000001
 40
0.0
 40
0.0
 40
0.0
 40
0.0
 40
80.0
 40
80.0
 40
80.0
 40
80.0
 10
594.0722278198514
 20
315.7096036721055
 30
0.0
 10
594.0294471119873
 20
315.6454325491108
 30
0.0
 10
594.0080566968568
 20
315.538480718252
 30
0.0
 10
594.0080566968568
 20
315.3887480571322
 30
0.0
  0
LINE
  5
39DE
330
1F
100
AcDbEntity
  8
AM_VIS
100
AcDbLine
 10
594.0080566968568
 20
315.3887480571322
 30
0.0
 11
593.9278427931135
 21
315.3887480571322
 31
0.0
  0
SPLINE
  5
39DF
330
1F
100
AcDbEntity
  8
AM_VIS
100
AcDbSpline
210
0.0
220
0.0
230
1.0
 70
     8
 71
     3
 72
     8
 73
     4
 74
     0
 42
0.0000000001
 43
0.0000000001
 40
0.0
 40
0.0
 40
0.0
 40
0.0
 40
80.0
 40
80.0
 40
80.0
 40
80.0
 10
596.1136716701189
 20
317.6608068806616
 30
0.0
 10
596.3917465160295
 20
317.66080694186
 30
0.0
 10
596.5775753726354
 20
317.7838015534675
 30
0.0
 10
596.6711583011349
 20
318.0297908378808
 30
0.0
  0
SPLINE
  5
39E0
330
1F
100
AcDbEntity
  8
AM_VIS
100
AcDbSpline
210
0.0
220
0.0
230
1.0
 70
     8
 71
     3
 72
     8
 73
     4
 74
     0
 42
0.0000000001
 43
0.0000000001
 40
0.0
 40
0.0
 40
0.0
 40
0.0
 40
80.0
 40
80.0
 40
80.0
 40
80.0
 10
596.6711583011349
 20
318.0297908378808
 30
0.0
 10
596.7299817897478
 20
318.1688282914354
 30
0.0
 10
596.7540459608708
 20
318.3305929769183
 30
0.0
 10
596.7433508145038
 20
318.5150849555279
 30
0.0
  0
SPLINE
  5
39E1
330
1F
100
AcDbEntity
  8
AM_VIS
100
AcDbSpline
210
0.0
220
0.0
230
1.0
 70
     8
 71
     3
 72
     8
 73
     4
 74
     0
 42
0.0000000001
 43
0.0000000001
 40
0.0
 40
0.0
 40
0.0
 40
0.0
 40
80.0
 40
80.0
 40
80.0
 40
80.0
 10
596.7433508145038
 20
318.5150849555279
 30
0.0
 10
596.7380031801221
 20
318.6220368475852
 30
0.0
 10
596.7286449117515
 20
318.6888817877707
 30
0.0
 10
596.7152759481937
 20
318.7156197148862
 30
0.0
  0
SPLINE
  5
39E2
330
1F
100
AcDbEntity
  8
AM_VIS
100
AcDbSpline
210
0.0
220
0.0
230
1.0
 70
     8
 71
     3
 72
     8
 73
     4
 74
     0
 42
0.0000000001
 43
0.0000000001
 40
0.0
 40
0.0
 40
0.0
 40
0.0
 40
80.0
 40
80.0
 40
80.0
 40
80.0
 10
596.7152759481937
 20
318.7156197148862
 30
0.0
 10
596.6885379598798
 20
318.7584004839488
 30
0.0
 10
596.6337251052557
 20
318.7797908378808
 30
0.0
 10
596.5508374455199
 20
318.7797908378808
 30
0.0
  0
LINE
  5
39E3
330
1F
100
AcDbEntity
  8
AM_VIS
100
AcDbLine
 10
596.5508374455199
 20
318.7797908378808
 30
0.0
 11
595.4519069642365
 21
318.7797908378808
 31
0.0
  0
SPLINE
  5
39E4
330
1F
100
AcDbEntity
  8
AM_VIS
100
AcDbSpline
210
0.0
220
0.0
230
1.0
 70
     8
 71
     3
 72
     8
 73
     4
 74
     0
 42
0.0000000001
 43
0.0000000001
 40
0.0
 40
0.0
 40
0.0
 40
0.0
 40
80.0
 40
80.0
 40
80.0
 40
80.0
 10
595.4519069642365
 20
318.7797908378808
 30
0.0
 10
595.454580720229
 20
318.4616090400985
 30
0.0
 10
595.4826555865393
 20
318.2289887192429
 30
0.0
 10
595.5361315631669
 20
318.081929875314
 30
0.0
  0
SPLINE
  5
39E5
330
1F
100
AcDbEntity
  8
AM_VIS
100
AcDbSpline
210
0.0
220
0.0
230
1.0
 70
     8
 71
     3
 72
     8
 73
     4
 74
     0
 42
0.0000000001
 43
0.0000000001
 40
0.0
 40
0.0
 40
0.0
 40
0.0
 40
80.0
 40
80.0
 40
80.0
 40
80.0
 10
595.5361315631669
 20
318.081929875314
 30
0.0
 10
595.6350620036515
 20
317.8011812734108
 30
0.0
 10
595.8275753726354
 20
317.66080694186
 30
0.0
 10
596.1136716701189
 20
317.6608068806616
 30
0.0
  0
LINE
  5
39E6
330
1F
100
AcDbEntity
  8
AM_VIS
100
AcDbLine
 10
593.9278427931135
 20
316.9388817469718
 30
0.0
 11
593.9278427931135
 21
317.4923576828007
 31
0.0
  0
LINE
  5
39E7
330
1F
100
AcDbEntity
  8
AM_VIS
100
AcDbLine
 10
593.9278427931135
 20
317.4923576828007
 30
0.0
 11
595.3275754134343
 21
318.4428924421589
 31
0.0
  0
LINE
  5
39E8
330
1F
100
AcDbEntity
  8
AM_VIS
100
AcDbLine
 10
595.3275754134343
 20
318.4428924421589
 30
0.0
 11
595.3115326326857
 21
318.7797908378808
 31
0.0
  0
LINE
  5
39E9
330
1F
100
AcDbEntity
  8
AM_VIS
100
AcDbLine
 10
595.3115326326857
 20
318.7797908378808
 30
0.0
 11
594.4532438626322
 21
318.7797908378808
 31
0.0
  0
SPLINE
  5
39EA
330
1F
100
AcDbEntity
  8
AM_VIS
100
AcDbSpline
210
0.0
220
0.0
230
1.0
 70
     8
 71
     3
 72
     8
 73
     4
 74
     0
 42
0.0000000001
 43
0.0000000001
 40
0.0
 40
0.0
 40
0.0
 40
0.0
 40
80.0
 40
80.0
 40
80.0
 40
80.0
 10
594.4532438626322
 20
318.7797908378808
 30
0.0
 10
594.2954898111382
 20
318.7797908378808
 30
0.0
 10
594.1845272850921
 20
318.7503790935744
 30
0.0
 10
594.1203561620975
 20
318.6915555437632
 30
0.0
  0
SPLINE
  5
39EB
330
1F
100
AcDbEntity
  8
AM_VIS
100
AcDbSpline
210
0.0
220
0.0
230
1.0
 70
     8
 71
     3
 72
     8
 73
     4
 74
     0
 42
0.0000000001
 43
0.0000000001
 40
0.0
 40
0.0
 40
0.0
 40
0.0
 40
80.0
 40
80.0
 40
80.0
 40
80.0
 10
594.1203561620975
 20
318.6915555437632
 30
0.0
 10
594.0588588562937
 20
318.6354058723413
 30
0.0
 10
594.021425721613
 20
318.5297908582803
 30
0.0
 10
594.0080566968568
 20
318.3747106239771
 30
0.0
  0
LINE
  5
39EC
330
1F
100
AcDbEntity
  8
AM_VIS
100
AcDbLine
 10
594.0080566968568
 20
318.3747106239771
 30
0.0
 11
593.9278427931135
 21
318.3747106239771
 31
0.0
  0
LINE
  5
39ED
330
1F
100
AcDbEntity
  8
AM_VIS
100
AcDbLine
 10
593.9278427931135
 20
318.3747106239771
 30
0.0
 11
593.9278427931135
 21
319.4174913726403
 31
0.0
  0
LINE
  5
39EE
330
1F
100
AcDbEntity
  8
AM_VIS
100
AcDbLine
 10
593.9278427931135
 20
319.4174913726403
 30
0.0
 11
594.0080566968568
 21
319.4174913726403
 31
0.0
  0
SPLINE
  5
39EF
330
1F
100
AcDbEntity
  8
AM_VIS
100
AcDbSpline
210
0.0
220
0.0
230
1.0
 70
     8
 71
     3
 72
     8
 73
     4
 74
     0
 42
0.0000000001
 43
0.0000000001
 40
0.0
 40
0.0
 40
0.0
 40
0.0
 40
80.0
 40
80.0
 40
80.0
 40
80.0
 10
594.0080566968568
 20
319.4174913726403
 30
0.0
 10
594.0240994776054
 20
319.2624111995354
 30
0.0
 10
594.066880246668
 20
319.1594700026653
 30
0.0
 10
594.1363989428461
 20
319.1086678432284
 30
0.0
  0
SPLINE
  5
39F0
330
1F
100
AcDbEntity
  8
AM_VIS
100
AcDbSpline
210
0.0
220
0.0
230
1.0
 70
     8
 71
     3
 72
     8
 73
     4
 74
     0
 42
0.0000000001
 43
0.0000000001
 40
0.0
 40
0.0
 40
0.0
 40
0.0
 40
80.0
 40
80.0
 40
80.0
 40
80.0
 10
594.1363989428461
 20
319.1086678432284
 30
0.0
 10
594.2032438218332
 20
319.05786574499
 30
0.0
 10
594.3275753726354
 20
319.0324646958706
 30
0.0
 10
594.5093935952525
 20
319.0324646346723
 30
0.0
  0
LINE
  5
39F1
330
1F
100
AcDbEntity
  8
AM_VIS
100
AcDbLine
 10
594.5093935952525
 20
319.0324646346723
 30
0.0
 11
596.3462919909745
 21
319.0324646346723
 31
0.0
  0
SPLINE
  5
39F2
330
1F
100
AcDbEntity
  8
AM_VIS
100
AcDbSpline
210
0.0
220
0.0
230
1.0
 70
     8
 71
     3
 72
     8
 73
     4
 74
     0
 42
0.0000000001
 43
0.0000000001
 40
0.0
 40
0.0
 40
0.0
 40
0.0
 40
80.0
 40
80.0
 40
80.0
 40
80.0
 10
596.3462919909745
 20
319.0324646346723
 30
0.0
 10
596.5147411888353
 20
319.0324646958706
 30
0.0
 10
596.6310513492633
 20
319.0618764401771
 30
0.0
 10
596.6952224722579
 20
319.12069992879
 30
0.0
  0
SPLINE
  5
39F3
330
1F
100
AcDbEntity
  8
AM_VIS
100
AcDbSpline
210
0.0
220
0.0
230
1.0
 70
     8
 71
     3
 72
     8
 73
     4
 74
     0
 42
0.0000000001
 43
0.0000000001
 40
0.0
 40
0.0
 40
0.0
 40
0.0
 40
80.0
 40
80.0
 40
80.0
 40
80.0
 10
596.6952224722579
 20
319.12069992879
 30
0.0
 10
596.7486983876873
 20
319.168828271036
 30
0.0
 10
596.7834577663754
 20
319.2677587727188
 30
0.0
 10
596.7995005471242
 20
319.4174913726403
 30
0.0
  0
LINE
  5
39F4
330
1F
100
AcDbEntity
  8
AM_VIS
100
AcDbLine
 10
596.7995005471242
 20
319.4174913726403
 30
0.0
 11
596.8797144508676
 21
319.4174913726403
 31
0.0
  0
LINE
  5
39F5
330
1F
100
AcDbEntity
  8
AM_VIS
100
AcDbLine
 10
596.8797144508676
 20
319.4174913726403
 30
0.0
 11
596.8797144508676
 21
318.3506464528541
 31
0.0
  0
SPLINE
  5
39F6
330
1F
100
AcDbEntity
  8
AM_VIS
100
AcDbSpline
210
0.0
220
0.0
230
1.0
 70
     8
 71
     3
 72
     8
 73
     4
 74
     0
 42
0.0000000001
 43
0.0000000001
 40
0.0
 40
0.0
 40
0.0
 40
0.0
 40
80.0
 40
80.0
 40
80.0
 40
80.0
 10
596.8797144508676
 20
318.3506464528541
 30
0.0
 10
596.8797144508676
 20
318.1019833512498
 30
0.0
 10
596.8369336818049
 20
317.8974378967044
 30
0.0
 10
596.7513722048781
 20
317.7370100892178
 30
0.0
  0
SPLINE
  5
39F7
330
1F
100
AcDbEntity
  8
AM_VIS
100
AcDbSpline
210
0.0
220
0.0
230
1.0
 70
     8
 71
     3
 72
     8
 73
     4
 74
     0
 42
0.0000000001
 43
0.0000000001
 40
0.0
 40
0.0
 40
0.0
 40
0.0
 40
80.0
 40
80.0
 40
80.0
 40
80.0
 10
596.7513722048781
 20
317.7370100892178
 30
0.0
 10
596.623029958889
 20
317.4990421951787
 30
0.0
 10
596.4077892967782
 20
317.38005821756
 30
0.0
 10
596.1056502797446
 20
317.38005821756
 30
0.0
  0
SPLINE
  5
39F8
330
1F
100
AcDbEntity
  8
AM_VIS
100
AcDbSpline
210
0.0
220
0.0
230
1.0
 70
     8
 71
     3
 72
     8
 73
     4
 74
     0
 42
0.0000000001
 43
0.0000000001
 40
0.0
 40
0.0
 40
0.0
 40
0.0
 40
80.0
 40
80.0
 40
80.0
 40
80.0
 10
596.1056502797446
 20
317.38005821756
 30
0.0
 10
595.8516395437584
 20
317.38005821756
 30
0.0
 10
595.6617999919654
 20
317.4749780240557
 30
0.0
 10
595.5361315631669
 20
317.6648175758488
 30
0.0
  0
SPLINE
  5
39F9
330
1F
100
AcDbEntity
  8
AM_VIS
100
AcDbSpline
210
0.0
220
0.0
230
1.0
 70
     8
 71
     3
 72
     8
 73
     4
 74
     0
 42
0.0000000001
 43
0.0000000001
 40
0.0
 40
0.0
 40
0.0
 40
0.0
 40
80.0
 40
80.0
 40
80.0
 40
80.0
 10
595.5361315631669
 20
317.6648175758488
 30
0.0
 10
595.4639390497979
 20
317.771769467906
 30
0.0
 10
595.4091261951739
 20
317.9255127630146
 30
0.0
 10
595.3716930604932
 20
318.1260475223729
 30
0.0
  0
LINE
  5
39FA
330
1F
100
AcDbEntity
  8
AM_VIS
100
AcDbLine
 10
595.3716930604932
 20
318.1260475223729
 30
0.0
 11
594.1684845043434
 21
317.3158870945654
 31
0.0
  0
SPLINE
  5
39FB
330
1F
100
AcDbEntity
  8
AM_VIS
100
AcDbSpline
210
0.0
220
0.0
230
1.0
 70
     8
 71
     3
 72
     8
 73
     4
 74
     0
 42
0.0000000001
 43
0.0000000001
 40
0.0
 40
0.0
 40
0.0
 40
0.0
 40
80.0
 40
80.0
 40
80.0
 40
80.0
 10
594.1684845043434
 20
317.3158870945654
 30
0.0
 10
594.0855968446076
 20
317.262411179136
 30
0.0
 10
594.0321208679797
 20
317.1367427503375
 30
0.0
 10
594.0080566968568
 20
316.9388817469718
 30
0.0
  0
LINE
  5
39FC
330
1F
100
AcDbEntity
  8
AM_VIS
100
AcDbLine
 10
594.0080566968568
 20
316.9388817469718
 30
0.0
 11
593.9278427931135
 21
316.9388817469718
 31
0.0
  0
LINE
  5
39FD
330
1F
100
AcDbEntity
  8
AM_VIS
100
AcDbLine
 10
594.5110651632866
 20
275.2674913726697
 30
0.0
 11
593.9278427931135
 21
275.4752144086217
 31
0.0
  0
LINE
  5
39FE
330
1F
100
AcDbEntity
  8
AM_VIS
100
AcDbLine
 10
593.9278427931135
 20
275.4752144086217
 30
0.0
 11
593.9278427931135
 21
276.977211745506
 31
0.0
  0
LINE
  5
39FF
330
1F
100
AcDbEntity
  8
AM_VIS
100
AcDbLine
 10
593.9278427931135
 20
276.977211745506
 30
0.0
 11
593.947816161955
 21
276.977211745506
 31
0.0
  0
LINE
  5
3A00
330
1F
100
AcDbEntity
  8
AM_VIS
100
AcDbLine
 10
593.947816161955
 20
276.977211745506
 30
0.0
 11
594.7946870008365
 21
276.2821385098202
 31
0.0
  0
SPLINE
  5
3A01
330
1F
100
AcDbEntity
  8
AM_VIS
100
AcDbSpline
210
0.0
220
0.0
230
1.0
 70
     8
 71
     3
 72
     8
 73
     4
 74
     0
 42
0.0000000001
 43
0.0000000001
 40
0.0
 40
0.0
 40
0.0
 40
0.0
 40
80.0
 40
80.0
 40
80.0
 40
80.0
 10
594.7946870008365
 20
276.2821385098202
 30
0.0
 10
595.2447535380968
 20
275.9146285231358
 30
0.0
 10
595.6402262411593
 20
275.7202211070473
 30
0.0
 10
595.9811051100244
 20
275.6989161396471
 30
0.0
  0
SPLINE
  5
3A02
330
1F
100
AcDbEntity
  8
AM_VIS
100
AcDbSpline
210
0.0
220
0.0
230
1.0
 70
     8
 71
     3
 72
     8
 73
     4
 74
     0
 42
0.0000000001
 43
0.0000000001
 40
0.0
 40
0.0
 40
0.0
 40
0.0
 40
80.0
 40
80.0
 40
80.0
 40
80.0
 10
595.9811051100244
 20
275.6989161396471
 30
0.0
 10
596.1488814082932
 20
275.6882637169009
 30
0.0
 10
596.3046736852573
 20
275.7322051283523
 30
0.0
 10
596.4484819409165
 20
275.8307403740013
 30
0.0
  0
SPLINE
  5
3A03
330
1F
100
AcDbEntity
  8
AM_VIS
100
AcDbSpline
210
0.0
220
0.0
230
1.0
 70
     8
 71
     3
 72
     8
 73
     4
 74
     0
 42
0.0000000001
 43
0.0000000001
 40
0.0
 40
0.0
 40
0.0
 40
0.0
 40
80.0
 40
80.0
 40
80.0
 40
80.0
 10
596.4484819409165
 20
275.8307403740013
 30
0.0
 10
596.6269106619316
 20
275.9479175118409
 30
0.0
 10
596.7161250833931
 20
276.1156938101099
 30
0.0
 10
596.7161250833931
 20
276.3340692688082
 30
0.0
  0
SPLINE
  5
3A04
330
1F
100
AcDbEntity
  8
AM_VIS
100
AcDbSpline
210
0.0
220
0.0
230
1.0
 70
     8
 71
     3
 72
     8
 73
     4
 74
     0
 42
0.0000000001
 43
0.0000000001
 40
0.0
 40
0.0
 40
0.0
 40
0.0
 40
80.0
 40
80.0
 40
80.0
 40
80.0
 10
596.7161250833931
 20
276.3340692688082
 30
0.0
 10
596.7161250833931
 20
276.4885300081675
 30
0.0
 10
596.6375631456316
 20
276.6136964325898
 30
0.0
 10
596.4804393310629
 20
276.7095686030292
 30
0.0
  0
SPLINE
  5
3A05
330
1F
100
AcDbEntity
  8
AM_VIS
100
AcDbSpline
210
0.0
220
0.0
230
1.0
 70
     8
 71
     3
 72
     8
 73
     4
 74
     0
 42
0.0000000001
 43
0.0000000001
 40
0.0
 40
0.0
 40
0.0
 40
0.0
 40
80.0
 40
80.0
 40
80.0
 40
80.0
 10
596.4804393310629
 20
276.7095686030292
 30
0.0
 10
596.4271769735161
 20
276.7415259931757
 30
0.0
 10
596.2860318540206
 20
276.8001145620955
 30
0.0
 10
596.0570039116221
 20
276.8853342488348
 30
0.0
  0
LINE
  5
3A06
330
1F
100
AcDbEntity
  8
AM_VIS
100
AcDbLine
 10
596.0570039116221
 20
276.8853342488348
 30
0.0
 11
596.068987932927
 21
276.965227724201
 31
0.0
  0
SPLINE
  5
3A07
330
1F
100
AcDbEntity
  8
AM_VIS
100
AcDbSpline
210
0.0
220
0.0
230
1.0
 70
     8
 71
     3
 72
     8
 73
     4
 74
     0
 42
0.0000000001
 43
0.0000000001
 40
0.0
 40
0.0
 40
0.0
 40
0.0
 40
80.0
 40
80.0
 40
80.0
 40
80.0
 10
596.068987932927
 20
276.965227724201
 30
0.0
 10
596.3725831393185
 20
276.9119654276082
 30
0.0
 10
596.5976164079486
 20
276.8041092358639
 30
0.0
 10
596.7440877997712
 20
276.6416591489679
 30
0.0
  0
SPLINE
  5
3A08
330
1F
100
AcDbEntity
  8
AM_VIS
100
AcDbSpline
210
0.0
220
0.0
230
1.0
 70
     8
 71
     3
 72
     8
 73
     4
 74
     0
 42
0.0000000001
 43
0.0000000001
 40
0.0
 40
0.0
 40
0.0
 40
0.0
 40
80.0
 40
80.0
 40
80.0
 40
80.0
 10
596.7440877997712
 20
276.6416591489679
 30
0.0
 10
596.8665910880302
 20
276.5058402408455
 30
0.0
 10
596.9278427931135
 20
276.3460532901131
 30
0.0
 10
596.9278427931135
 20
276.1622982967709
 30
0.0
  0
SPLINE
  5
3A09
330
1F
100
AcDbEntity
  8
AM_VIS
100
AcDbSpline
210
0.0
220
0.0
230
1.0
 70
     8
 71
     3
 72
     8
 73
     4
 74
     0
 42
0.0000000001
 43
0.0000000001
 40
0.0
 40
0.0
 40
0.0
 40
0.0
 40
80.0
 40
80.0
 40
80.0
 40
80.0
 10
596.9278427931135
 20
276.1622982967709
 30
0.0
 10
596.9278427931135
 20
275.9732170920556
 30
0.0
 10
596.8586017404935
 20
275.8120986037184
 30
0.0
 10
596.7201197571614
 20
275.6789427708055
 30
0.0
  0
SPLINE
  5
3A0A
330
1F
100
AcDbEntity
  8
AM_VIS
100
AcDbSpline
210
0.0
220
0.0
230
1.0
 70
     8
 71
     3
 72
     8
 73
     4
 74
     0
 42
0.0000000001
 43
0.0000000001
 40
0.0
 40
0.0
 40
0.0
 40
0.0
 40
80.0
 40
80.0
 40
80.0
 40
80.0
 10
596.7201197571614
 20
275.6789427708055
 30
0.0
 10
596.5656590178022
 20
275.5351345151464
 30
0.0
 10
596.3712515407599
 20
275.4632303873169
 30
0.0
 10
596.1368973869882
 20
275.4632303873169
 30
0.0
  0
SPLINE
  5
3A0B
330
1F
100
AcDbEntity
  8
AM_VIS
100
AcDbSpline
210
0.0
220
0.0
230
1.0
 70
     8
 71
     3
 72
     8
 73
     4
 74
     0
 42
0.0000000001
 43
0.0000000001
 40
0.0
 40
0.0
 40
0.0
 40
0.0
 40
80.0
 40
80.0
 40
80.0
 40
80.0
 10
596.1368973869882
 20
275.4632303873169
 30
0.0
 10
595.7560717804404
 20
275.4632303873169
 30
0.0
 10
595.3965511412925
 20
275.6030439692076
 30
0.0
 10
595.0583354695449
 20
275.8826711329893
 30
0.0
  0
LINE
  5
3A0C
330
1F
100
AcDbEntity
  8
AM_VIS
100
AcDbLine
 10
595.0583354695449
 20
275.8826711329893
 30
0.0
 11
594.1475498503705
 21
276.6296751276631
 31
0.0
  0
LINE
  5
3A0D
330
1F
100
AcDbEntity
  8
AM_VIS
100
AcDbLine
 10
594.1475498503705
 20
276.6296751276631
 30
0.0
 11
594.1475498503705
 21
275.7348682035619
 31
0.0
  0
SPLINE
  5
3A0E
330
1F
100
AcDbEntity
  8
AM_VIS
100
AcDbSpline
210
0.0
220
0.0
230
1.0
 70
     8
 71
     3
 72
     8
 73
     4
 74
     0
 42
0.0000000001
 43
0.0000000001
 40
0.0
 40
0.0
 40
0.0
 40
0.0
 40
80.0
 40
80.0
 40
80.0
 40
80.0
 10
594.1475498503705
 20
275.7348682035619
 30
0.0
 10
594.1475498503705
 20
275.646985380659
 30
0.0
 10
594.1728494305851
 20
275.5790759265978
 30
0.0
 10
594.2234486519684
 20
275.5311398413781
 30
0.0
  0
SPLINE
  5
3A0F
330
1F
100
AcDbEntity
  8
AM_VIS
100
AcDbSpline
210
0.0
220
0.0
230
1.0
 70
     8
 71
     3
 72
     8
 73
     4
 74
     0
 42
0.0000000001
 43
0.0000000001
 40
0.0
 40
0.0
 40
0.0
 40
0.0
 40
80.0
 40
80.0
 40
80.0
 40
80.0
 10
594.2234486519684
 20
275.5311398413781
 30
0.0
 10
594.2633953286976
 20
275.4858668923219
 30
0.0
 10
594.3592675600909
 20
275.4246152481924
 30
0.0
 10
594.5110651632866
 20
275.3473848480358
 30
0.0
  0
LINE
  5
3A10
330
1F
100
AcDbEntity
  8
AM_VIS
100
AcDbLine
 10
594.5110651632866
 20
275.3473848480358
 30
0.0
 11
594.5110651632866
 21
275.2674913726697
 31
0.0
  0
SPLINE
  5
3A11
330
1F
100
AcDbEntity
  8
AM_VIS
100
AcDbSpline
210
0.0
220
0.0
230
1.0
 70
     8
 71
     3
 72
     8
 73
     4
 74
     0
 42
0.0000000001
 43
0.0000000001
 40
0.0
 40
0.0
 40
0.0
 40
0.0
 40
80.0
 40
80.0
 40
80.0
 40
80.0
 10
596.1049399968419
 20
277.8460532901131
 30
0.0
 10
596.38190402446
 20
277.846053351067
 30
0.0
 10
596.566990555407
 20
277.9685566393259
 30
0.0
 10
596.6601996506367
 20
278.2135632767975
 30
0.0
  0
SPLINE
  5
3A12
330
1F
100
AcDbEntity
  8
AM_VIS
100
AcDbSpline
210
0.0
220
0.0
230
1.0
 70
     8
 71
     3
 72
     8
 73
     4
 74
     0
 42
0.0000000001
 43
0.0000000001
 40
0.0
 40
0.0
 40
0.0
 40
0.0
 40
80.0
 40
80.0
 40
80.0
 40
80.0
 10
596.6601996506367
 20
278.2135632767975
 30
0.0
 10
596.7187881586028
 20
278.3520453210836
 30
0.0
 10
596.7427562012126
 20
278.5131638094207
 30
0.0
 10
596.7321037784663
 20
278.6969188027629
 30
0.0
  0
SPLINE
  5
3A13
330
1F
100
AcDbEntity
  8
AM_VIS
100
AcDbSpline
210
0.0
220
0.0
230
1.0
 70
     8
 71
     3
 72
     8
 73
     4
 74
     0
 42
0.0000000001
 43
0.0000000001
 40
0.0
 40
0.0
 40
0.0
 40
0.0
 40
80.0
 40
80.0
 40
80.0
 40
80.0
 10
596.7321037784663
 20
278.6969188027629
 30
0.0
 10
596.7267775061393
 20
278.8034434569025
 30
0.0
 10
596.7174566209979
 20
278.8700213733589
 30
0.0
 10
596.7041410620882
 20
278.8966524911784
 30
0.0
  0
SPLINE
  5
3A14
330
1F
100
AcDbEntity
  8
AM_VIS
100
AcDbSpline
210
0.0
220
0.0
230
1.0
 70
     8
 71
     3
 72
     8
 73
     4
 74
     0
 42
0.0000000001
 43
0.0000000001
 40
0.0
 40
0.0
 40
0.0
 40
0.0
 40
80.0
 40
80.0
 40
80.0
 40
80.0
 10
596.7041410620882
 20
278.8966524911784
 30
0.0
 10
596.6775098833148
 20
278.9392623650249
 30
0.0
 10
596.6229159881634
 20
278.9605672714713
 30
0.0
 10
596.5403594375875
 20
278.9605672714713
 30
0.0
  0
LINE
  5
3A15
330
1F
100
AcDbEntity
  8
AM_VIS
100
AcDbLine
 10
596.5403594375875
 20
278.9605672714713
 30
0.0
 11
595.4458188250709
 21
278.9605672714713
 31
0.0
  0
SPLINE
  5
3A16
330
1F
100
AcDbEntity
  8
AM_VIS
100
AcDbSpline
210
0.0
220
0.0
230
1.0
 70
     8
 71
     3
 72
     8
 73
     4
 74
     0
 42
0.0000000001
 43
0.0000000001
 40
0.0
 40
0.0
 40
0.0
 40
0.0
 40
80.0
 40
80.0
 40
80.0
 40
80.0
 10
595.4458188250709
 20
278.9605672714713
 30
0.0
 10
595.4484819002805
 20
278.6436565061701
 30
0.0
 10
595.4764446166587
 20
278.4119654276082
 30
0.0
 10
595.5297069742053
 20
278.2654940357855
 30
0.0
  0
SPLINE
  5
3A17
330
1F
100
AcDbEntity
  8
AM_VIS
100
AcDbSpline
210
0.0
220
0.0
230
1.0
 70
     8
 71
     3
 72
     8
 73
     4
 74
     0
 42
0.0000000001
 43
0.0000000001
 40
0.0
 40
0.0
 40
0.0
 40
0.0
 40
80.0
 40
80.0
 40
80.0
 40
80.0
 10
595.5297069742053
 20
278.2654940357855
 30
0.0
 10
595.6282422198544
 20
277.9858669329578
 30
0.0
 10
595.8199865607332
 20
277.846053351067
 30
0.0
 10
596.1049399968419
 20
277.8460532901131
 30
0.0
  0
LINE
  5
3A18
330
1F
100
AcDbEntity
  8
AM_VIS
100
AcDbLine
 10
593.9278427931135
 20
277.1270120118175
 30
0.0
 11
593.9278427931135
 21
277.6782769918441
 31
0.0
  0
LINE
  5
3A19
330
1F
100
AcDbEntity
  8
AM_VIS
100
AcDbLine
 10
593.9278427931135
 20
277.6782769918441
 30
0.0
 11
595.3219839382533
 21
278.6250146749334
 31
0.0
  0
LINE
  5
3A1A
330
1F
100
AcDbEntity
  8
AM_VIS
100
AcDbLine
 10
595.3219839382533
 20
278.6250146749334
 30
0.0
 11
595.3060052431801
 21
278.9605672714713
 31
0.0
  0
LINE
  5
3A1B
330
1F
100
AcDbEntity
  8
AM_VIS
100
AcDbLine
 10
595.3060052431801
 20
278.9605672714713
 30
0.0
 11
594.4511450567619
 21
278.9605672714713
 31
0.0
  0
SPLINE
  5
3A1C
330
1F
100
AcDbEntity
  8
AM_VIS
100
AcDbSpline
210
0.0
220
0.0
230
1.0
 70
     8
 71
     3
 72
     8
 73
     4
 74
     0
 42
0.0000000001
 43
0.0000000001
 40
0.0
 40
0.0
 40
0.0
 40
0.0
 40
80.0
 40
80.0
 40
80.0
 40
80.0
 10
594.4511450567619
 20
278.9605672714713
 30
0.0
 10
594.2940211812392
 20
278.9605672714713
 30
0.0
 10
594.1835019142851
 20
278.9312730174883
 30
0.0
 10
594.1195871339923
 20
278.8726844485685
 30
0.0
  0
SPLINE
  5
3A1D
330
1F
100
AcDbEntity
  8
AM_VIS
100
AcDbSpline
210
0.0
220
0.0
230
1.0
 70
     8
 71
     3
 72
     8
 73
     4
 74
     0
 42
0.0000000001
 43
0.0000000001
 40
0.0
 40
0.0
 40
0.0
 40
0.0
 40
80.0
 40
80.0
 40
80.0
 40
80.0
 10
594.1195871339923
 20
278.8726844485685
 30
0.0
 10
594.0583354898628
 20
278.8167590767661
 30
0.0
 10
594.0210518883433
 20
278.7115659602313
 30
0.0
 10
594.0077362684796
 20
278.5571052208721
 30
0.0
  0
LINE
  5
3A1E
330
1F
100
AcDbEntity
  8
AM_VIS
100
AcDbLine
 10
594.0077362684796
 20
278.5571052208721
 30
0.0
 11
593.9278427931135
 21
278.5571052208721
 31
0.0
  0
LINE
  5
3A1F
330
1F
100
AcDbEntity
  8
AM_VIS
100
AcDbLine
 10
593.9278427931135
 20
278.5571052208721
 30
0.0
 11
593.9278427931135
 21
279.5957204006324
 31
0.0
  0
LINE
  5
3A20
330
1F
100
AcDbEntity
  8
AM_VIS
100
AcDbLine
 10
593.9278427931135
 20
279.5957204006324
 30
0.0
 11
594.0077362684796
 21
279.5957204006324
 31
0.0
  0
SPLINE
  5
3A21
330
1F
100
AcDbEntity
  8
AM_VIS
100
AcDbSpline
210
0.0
220
0.0
230
1.0
 70
     8
 71
     3
 72
     8
 73
     4
 74
     0
 42
0.0000000001
 43
0.0000000001
 40
0.0
 40
0.0
 40
0.0
 40
0.0
 40
80.0
 40
80.0
 40
80.0
 40
80.0
 10
594.0077362684796
 20
279.5957204006324
 30
0.0
 10
594.0237149635529
 20
279.4412597222271
 30
0.0
 10
594.0663248373994
 20
279.3387297418558
 30
0.0
 10
594.1355658290656
 20
279.2881305204726
 30
0.0
  0
SPLINE
  5
3A22
330
1F
100
AcDbEntity
  8
AM_VIS
100
AcDbSpline
210
0.0
220
0.0
230
1.0
 70
     8
 71
     3
 72
     8
 73
     4
 74
     0
 42
0.0000000001
 43
0.0000000001
 40
0.0
 40
0.0
 40
0.0
 40
0.0
 40
80.0
 40
80.0
 40
80.0
 40
80.0
 10
594.1355658290656
 20
279.2881305204726
 30
0.0
 10
594.2021436845682
 20
279.2375313600433
 30
0.0
 10
594.3259785713857
 20
279.2122317798286
 30
0.0
 10
594.5070704895183
 20
279.2122317188748
 30
0.0
  0
LINE
  5
3A23
330
1F
100
AcDbEntity
  8
AM_VIS
100
AcDbLine
 10
594.5070704895183
 20
279.2122317188748
 30
0.0
 11
596.3366310754038
 21
279.2122317188748
 31
0.0
  0
SPLINE
  5
3A24
330
1F
100
AcDbEntity
  8
AM_VIS
100
AcDbSpline
210
0.0
220
0.0
230
1.0
 70
     8
 71
     3
 72
     8
 73
     4
 74
     0
 42
0.0000000001
 43
0.0000000001
 40
0.0
 40
0.0
 40
0.0
 40
0.0
 40
80.0
 40
80.0
 40
80.0
 40
80.0
 10
596.3366310754038
 20
279.2122317188748
 30
0.0
 10
596.5044073736728
 20
279.2122317798286
 30
0.0
 10
596.6202529129536
 20
279.2415260338116
 30
0.0
 10
596.6841676932467
 20
279.3001145417776
 30
0.0
  0
SPLINE
  5
3A25
330
1F
100
AcDbEntity
  8
AM_VIS
100
AcDbSpline
210
0.0
220
0.0
230
1.0
 70
     8
 71
     3
 72
     8
 73
     4
 74
     0
 42
0.0000000001
 43
0.0000000001
 40
0.0
 40
0.0
 40
0.0
 40
0.0
 40
80.0
 40
80.0
 40
80.0
 40
80.0
 10
596.6841676932467
 20
279.3001145417776
 30
0.0
 10
596.7374299898394
 20
279.3480506269973
 30
0.0
 10
596.7720505161493
 20
279.4465859336002
 30
0.0
 10
596.7880292112226
 20
279.5957204006324
 30
0.0
  0
LINE
  5
3A26
330
1F
100
AcDbEntity
  8
AM_VIS
100
AcDbLine
 10
596.7880292112226
 20
279.5957204006324
 30
0.0
 11
596.8679226865888
 21
279.5957204006324
 31
0.0
  0
LINE
  5
3A27
330
1F
100
AcDbEntity
  8
AM_VIS
100
AcDbLine
 10
596.8679226865888
 20
279.5957204006324
 30
0.0
 11
596.8679226865888
 21
278.5331371782622
 31
0.0
  0
SPLINE
  5
3A28
330
1F
100
AcDbEntity
  8
AM_VIS
100
AcDbSpline
210
0.0
220
0.0
230
1.0
 70
     8
 71
     3
 72
     8
 73
     4
 74
     0
 42
0.0000000001
 43
0.0000000001
 40
0.0
 40
0.0
 40
0.0
 40
0.0
 40
80.0
 40
80.0
 40
80.0
 40
80.0
 10
596.8679226865888
 20
278.5331371782622
 30
0.0
 10
596.8679226865888
 20
278.2854674046271
 30
0.0
 10
596.8253128127424
 20
278.0817390424433
 30
0.0
 10
596.7400931260029
 20
277.921952091711
 30
0.0
  0
SPLINE
  5
3A29
330
1F
100
AcDbEntity
  8
AM_VIS
100
AcDbSpline
210
0.0
220
0.0
230
1.0
 70
     8
 71
     3
 72
     8
 73
     4
 74
     0
 42
0.0000000001
 43
0.0000000001
 40
0.0
 40
0.0
 40
0.0
 40
0.0
 40
80.0
 40
80.0
 40
80.0
 40
80.0
 10
596.7400931260029
 20
277.921952091711
 30
0.0
 10
596.6122635654171
 20
277.684934801776
 30
0.0
 10
596.3978827195332
 20
277.5664261263315
 30
0.0
 10
596.0969506493052
 20
277.5664261263315
 30
0.0
  0
SPLINE
  5
3A2A
330
1F
100
AcDbEntity
  8
AM_VIS
100
AcDbSpline
210
0.0
220
0.0
230
1.0
 70
     8
 71
     3
 72
     8
 73
     4
 74
     0
 42
0.0000000001
 43
0.0000000001
 40
0.0
 40
0.0
 40
0.0
 40
0.0
 40
80.0
 40
80.0
 40
80.0
 40
80.0
 10
596.0969506493052
 20
277.5664261263315
 30
0.0
 10
595.843954603343
 20
277.5664261263315
 30
0.0
 10
595.6548733986278
 20
277.6609667591661
 30
0.0
 10
595.5297069742053
 20
277.8500479638814
 30
0.0
  0
SPLINE
  5
3A2B
330
1F
100
AcDbEntity
  8
AM_VIS
100
AcDbSpline
210
0.0
220
0.0
230
1.0
 70
     8
 71
     3
 72
     8
 73
     4
 74
     0
 42
0.0000000001
 43
0.0000000001
 40
0.0
 40
0.0
 40
0.0
 40
0.0
 40
80.0
 40
80.0
 40
80.0
 40
80.0
 10
595.5297069742053
 20
277.8500479638814
 30
0.0
 10
595.4578028463759
 20
277.956572618021
 30
0.0
 10
595.4032089512243
 20
278.1097017588215
 30
0.0
 10
595.3659253497047
 20
278.309435447237
 30
0.0
  0
LINE
  5
3A2C
330
1F
100
AcDbEntity
  8
AM_VIS
100
AcDbLine
 10
595.3659253497047
 20
278.3094354472369
 30
0.0
 11
594.167523219212
 21
277.5025113460385
 31
0.0
  0
SPLINE
  5
3A2D
330
1F
100
AcDbEntity
  8
AM_VIS
100
AcDbSpline
210
0.0
220
0.0
230
1.0
 70
     8
 71
     3
 72
     8
 73
     4
 74
     0
 42
0.0000000001
 43
0.0000000001
 40
0.0
 40
0.0
 40
0.0
 40
0.0
 40
80.0
 40
80.0
 40
80.0
 40
80.0
 10
594.167523219212
 20
277.5025113460385
 30
0.0
 10
594.0849666686363
 20
277.4492490494457
 30
0.0
 10
594.0317043110894
 20
277.3240826250233
 30
0.0
 10
594.0077362684796
 20
277.1270120118175
 30
0.0
  0
LINE
  5
3A2E
330
1F
100
AcDbEntity
  8
AM_VIS
100
AcDbLine
 10
594.0077362684796
 20
277.1270120118175
 30
0.0
 11
593.9278427931135
 21
277.1270120118175
 31
0.0
  0
SPLINE
  5
3A4E
330
1F
100
AcDbEntity
  8
AM_VIS
100
AcDbSpline
210
0.0
220
0.0
230
1.0
 70
     8
 71
     3
 72
     8
 73
     4
 74
     0
 42
0.0000000001
 43
0.0000000001
 40
0.0
 40
0.0
 40
0.0
 40
0.0
 40
80.0
 40
80.0
 40
80.0
 40
80.0
 10
644.243060184418
 20
298.1946652856838
 30
0.0
 10
643.7919732693603
 20
298.1946652234876
 30
0.0
 10
643.5664297496353
 20
297.8808065278354
 30
0.0
 10
643.5664297496353
 20
297.2530891987272
 30
0.0
  0
SPLINE
  5
3A4F
330
1F
100
AcDbEntity
  8
AM_VIS
100
AcDbSpline
210
0.0
220
0.0
230
1.0
 70
     8
 71
     3
 72
     8
 73
     4
 74
     0
 42
0.0000000001
 43
0.0000000001
 40
0.0
 40
0.0
 40
0.0
 40
0.0
 40
80.0
 40
80.0
 40
80.0
 40
80.0
 10
643.5664297496353
 20
297.2530891987272
 30
0.0
 10
643.5664297496353
 20
297.174284809437
 30
0.0
 10
643.5745819235484
 20
297.1240130910386
 30
0.0
 10
643.5908862713745
 20
297.1022739813359
 30
0.0
  0
SPLINE
  5
3A50
330
1F
100
AcDbEntity
  8
AM_VIS
100
AcDbSpline
210
0.0
220
0.0
230
1.0
 70
     8
 71
     3
 72
     8
 73
     4
 74
     0
 42
0.0000000001
 43
0.0000000001
 40
0.0
 40
0.0
 40
0.0
 40
0.0
 40
80.0
 40
80.0
 40
80.0
 40
80.0
 10
643.5908862713745
 20
297.1022739813359
 30
0.0
 10
643.61806020515
 20
297.0751000475603
 30
0.0
 10
643.6724080105049
 20
297.0615131117707
 30
0.0
 10
643.7539297496353
 20
297.0615131117707
 30
0.0
  0
LINE
  5
3A51
330
1F
100
AcDbEntity
  8
AM_VIS
100
AcDbLine
 10
643.7539297496353
 20
297.0615131117707
 30
0.0
 11
644.9400710539832
 21
297.0615131117707
 31
0.0
  0
SPLINE
  5
3A52
330
1F
100
AcDbEntity
  8
AM_VIS
100
AcDbSpline
210
0.0
220
0.0
230
1.0
 70
     8
 71
     3
 72
     8
 73
     4
 74
     0
 42
0.0000000001
 43
0.0000000001
 40
0.0
 40
0.0
 40
0.0
 40
0.0
 40
80.0
 40
80.0
 40
80.0
 40
80.0
 10
644.9400710539832
 20
297.0615131117707
 30
0.0
 10
644.9509406399327
 20
297.151186962618
 30
0.0
 10
644.9563754018092
 20
297.2585239606038
 30
0.0
 10
644.9563754018092
 20
297.3835239813359
 30
0.0
  0
SPLINE
  5
3A53
330
1F
100
AcDbEntity
  8
AM_VIS
100
AcDbSpline
210
0.0
220
0.0
230
1.0
 70
     8
 71
     3
 72
     8
 73
     4
 74
     0
 42
0.0000000001
 43
0.0000000001
 40
0.0
 40
0.0
 40
0.0
 40
0.0
 40
80.0
 40
80.0
 40
80.0
 40
80.0
 10
644.9563754018092
 20
297.3835239813359
 30
0.0
 10
644.9563754018092
 20
297.924284809437
 30
0.0
 10
644.7186036834109
 20
298.1946652234876
 30
0.0
 10
644.243060184418
 20
298.1946652856838
 30
0.0
  0
SPLINE
  5
3A54
330
1F
100
AcDbEntity
  8
AM_VIS
100
AcDbSpline
210
0.0
220
0.0
230
1.0
 70
     8
 71
     3
 72
     8
 73
     4
 74
     0
 42
0.0000000001
 43
0.0000000001
 40
0.0
 40
0.0
 40
0.0
 40
0.0
 40
80.0
 40
80.0
 40
80.0
 40
80.0
 10
644.2349080105048
 20
298.4799913726403
 30
0.0
 10
644.476755878056
 20
298.4799913726403
 30
0.0
 10
644.6764841389255
 20
298.4039043953865
 30
0.0
 10
644.8340927931136
 20
298.251730503075
 30
0.0
  0
SPLINE
  5
3A55
330
1F
100
AcDbEntity
  8
AM_VIS
100
AcDbSpline
210
0.0
220
0.0
230
1.0
 70
     8
 71
     3
 72
     8
 73
     4
 74
     0
 42
0.0000000001
 43
0.0000000001
 40
0.0
 40
0.0
 40
0.0
 40
0.0
 40
80.0
 40
80.0
 40
80.0
 40
80.0
 10
644.8340927931136
 20
298.251730503075
 30
0.0
 10
645.0080058573239
 20
298.0832522007414
 30
0.0
 10
645.094962358331
 20
297.8033608756615
 30
0.0
 10
645.094962358331
 20
297.4120565900315
 30
0.0
  0
LINE
  5
3A56
330
1F
100
AcDbEntity
  8
AM_VIS
100
AcDbLine
 10
645.0892110869943
 20
297.0614665075879
 30
0.0
 11
645.0960160324609
 21
297.4120361370476
 31
0.0
  0
LINE
  5
3A57
330
1F
100
AcDbEntity
  8
AM_VIS
100
AcDbLine
 10
645.086810184418
 20
297.0615131117707
 30
0.0
 11
645.8938754018093
 21
297.0615131117707
 31
0.0
  0
SPLINE
  5
3A58
330
1F
100
AcDbEntity
  8
AM_VIS
100
AcDbSpline
210
0.0
220
0.0
230
1.0
 70
     8
 71
     3
 72
     8
 73
     4
 74
     0
 42
0.0000000001
 43
0.0000000001
 40
0.0
 40
0.0
 40
0.0
 40
0.0
 40
80.0
 40
80.0
 40
80.0
 40
80.0
 10
645.8938754018093
 20
297.0615131117707
 30
0.0
 10
646.0596362921066
 20
297.0615131117707
 30
0.0
 10
646.1764841389256
 20
297.0954804823429
 30
0.0
 10
646.2444188800701
 20
297.1634152856837
 30
0.0
  0
SPLINE
  5
3A59
330
1F
100
AcDbEntity
  8
AM_VIS
100
AcDbSpline
210
0.0
220
0.0
230
1.0
 70
     8
 71
     3
 72
     8
 73
     4
 74
     0
 42
0.0000000001
 43
0.0000000001
 40
0.0
 40
0.0
 40
0.0
 40
0.0
 40
80.0
 40
80.0
 40
80.0
 40
80.0
 10
646.2444188800701
 20
297.1634152856837
 30
0.0
 10
646.3014840352652
 20
297.220480503075
 30
0.0
 10
646.3354514680339
 20
297.3291761137848
 30
0.0
 10
646.3463210539832
 20
297.4895022422055
 30
0.0
  0
LINE
  5
3A5A
330
1F
100
AcDbEntity
  8
AM_VIS
100
AcDbLine
 10
646.3463210539832
 20
297.4895022422055
 30
0.0
 11
646.4278427931136
 21
297.4895022422055
 31
0.0
  0
LINE
  5
3A5B
330
1F
100
AcDbEntity
  8
AM_VIS
100
AcDbLine
 10
646.4278427931136
 20
297.4895022422055
 30
0.0
 11
646.4278427931136
 21
296.4174913726402
 31
0.0
  0
LINE
  5
3A5C
330
1F
100
AcDbEntity
  8
AM_VIS
100
AcDbLine
 10
646.4278427931136
 20
296.4174913726402
 30
0.0
 11
646.3463210539832
 21
296.4174913726402
 31
0.0
  0
SPLINE
  5
3A5D
330
1F
100
AcDbEntity
  8
AM_VIS
100
AcDbSpline
210
0.0
220
0.0
230
1.0
 70
     8
 71
     3
 72
     8
 73
     4
 74
     0
 42
0.0000000001
 43
0.0000000001
 40
0.0
 40
0.0
 40
0.0
 40
0.0
 40
80.0
 40
80.0
 40
80.0
 40
80.0
 10
646.3463210539832
 20
296.4174913726402
 30
0.0
 10
646.3300167061571
 20
296.5778174388647
 30
0.0
 10
646.2838210125191
 20
296.6837956997343
 30
0.0
 10
646.2077340974615
 20
296.735426155249
 30
0.0
  0
SPLINE
  5
3A5E
330
1F
100
AcDbEntity
  8
AM_VIS
100
AcDbSpline
210
0.0
220
0.0
230
1.0
 70
     8
 71
     3
 72
     8
 73
     4
 74
     0
 42
0.0000000001
 43
0.0000000001
 40
0.0
 40
0.0
 40
0.0
 40
0.0
 40
80.0
 40
80.0
 40
80.0
 40
80.0
 10
646.2077340974615
 20
296.735426155249
 30
0.0
 10
646.1425167061571
 20
296.7816217866907
 30
0.0
 10
646.0188754225413
 20
296.8047196335098
 30
0.0
 10
645.836810184418
 20
296.8047196335098
 30
0.0
  0
LINE
  5
3A5F
330
1F
100
AcDbEntity
  8
AM_VIS
100
AcDbLine
 10
645.836810184418
 20
296.8047196335098
 30
0.0
 11
643.9332775757223
 21
296.8047196335098
 31
0.0
  0
SPLINE
  5
3A60
330
1F
100
AcDbEntity
  8
AM_VIS
100
AcDbSpline
210
0.0
220
0.0
230
1.0
 70
     8
 71
     3
 72
     8
 73
     4
 74
     0
 42
0.0000000001
 43
0.0000000001
 40
0.0
 40
0.0
 40
0.0
 40
0.0
 40
80.0
 40
80.0
 40
80.0
 40
80.0
 10
643.9332775757223
 20
296.8047196335098
 30
0.0
 10
643.7702340974615
 20
296.8047196335098
 30
0.0
 10
643.6628971616717
 20
296.7789043746544
 30
0.0
 10
643.6112667061571
 20
296.7272739813359
 30
0.0
  0
SPLINE
  5
3A61
330
1F
100
AcDbEntity
  8
AM_VIS
100
AcDbSpline
210
0.0
220
0.0
230
1.0
 70
     8
 71
     3
 72
     8
 73
     4
 74
     0
 42
0.0000000001
 43
0.0000000001
 40
0.0
 40
0.0
 40
0.0
 40
0.0
 40
80.0
 40
80.0
 40
80.0
 40
80.0
 10
643.6112667061571
 20
296.7272739813359
 30
0.0
 10
643.5623536626787
 20
296.6783609378576
 30
0.0
 10
643.5283862921066
 20
296.5751000268283
 30
0.0
 10
643.509364532244
 20
296.4174913726402
 30
0.0
  0
LINE
  5
3A62
330
1F
100
AcDbEntity
  8
AM_VIS
100
AcDbLine
 10
643.509364532244
 20
296.4174913726402
 30
0.0
 11
643.4278427931136
 21
296.4174913726402
 31
0.0
  0
LINE
  5
3A63
330
1F
100
AcDbEntity
  8
AM_VIS
100
AcDbLine
 10
643.4278427931136
 20
296.4174913726402
 30
0.0
 11
643.4278427931136
 21
297.4528174595968
 31
0.0
  0
SPLINE
  5
3A64
330
1F
100
AcDbEntity
  8
AM_VIS
100
AcDbSpline
210
0.0
220
0.0
230
1.0
 70
     8
 71
     3
 72
     8
 73
     4
 74
     0
 42
0.0000000001
 43
0.0000000001
 40
0.0
 40
0.0
 40
0.0
 40
0.0
 40
80.0
 40
80.0
 40
80.0
 40
80.0
 10
643.4278427931136
 20
297.4528174595968
 30
0.0
 10
643.4278427931136
 20
297.7490130703066
 30
0.0
 10
643.4903428345777
 20
297.9881435258212
 30
0.0
 10
643.6153427931136
 20
298.1702087639446
 30
0.0
  0
SPLINE
  5
3A65
330
1F
100
AcDbEntity
  8
AM_VIS
100
AcDbSpline
210
0.0
220
0.0
230
1.0
 70
     8
 71
     3
 72
     8
 73
     4
 74
     0
 42
0.0000000001
 43
0.0000000001
 40
0.0
 40
0.0
 40
0.0
 40
0.0
 40
80.0
 40
80.0
 40
80.0
 40
80.0
 10
643.6153427931136
 20
298.1702087639446
 30
0.0
 10
643.7593645737081
 20
298.3767304616109
 30
0.0
 10
643.9658862713745
 20
298.4799913726403
 30
0.0
 10
644.2349080105048
 20
298.4799913726403
 30
0.0
  0
LINE
  5
3A66
330
1F
100
AcDbEntity
  8
AM_VIS
100
AcDbLine
 10
645.8446204229406
 20
279.580720400603
 30
0.0
 11
646.4278427931136
 21
279.3729973646509
 31
0.0
  0
LINE
  5
3A67
330
1F
100
AcDbEntity
  8
AM_VIS
100
AcDbLine
 10
646.4278427931136
 20
279.3729973646509
 30
0.0
 11
646.4278427931136
 21
277.8710000277667
 31
0.0
  0
LINE
  5
3A68
330
1F
100
AcDbEntity
  8
AM_VIS
100
AcDbLine
 10
646.4278427931136
 20
277.8710000277667
 30
0.0
 11
646.4078694242721
 21
277.8710000277667
 31
0.0
  0
LINE
  5
3A69
330
1F
100
AcDbEntity
  8
AM_VIS
100
AcDbLine
 10
646.4078694242721
 20
277.8710000277667
 30
0.0
 11
645.5609985853905
 21
278.5660732634525
 31
0.0
  0
SPLINE
  5
3A6A
330
1F
100
AcDbEntity
  8
AM_VIS
100
AcDbSpline
210
0.0
220
0.0
230
1.0
 70
     8
 71
     3
 72
     8
 73
     4
 74
     0
 42
0.0000000001
 43
0.0000000001
 40
0.0
 40
0.0
 40
0.0
 40
0.0
 40
80.0
 40
80.0
 40
80.0
 40
80.0
 10
645.5609985853905
 20
278.5660732634525
 30
0.0
 10
645.1109320481305
 20
278.9335832501369
 30
0.0
 10
644.7154593450679
 20
279.1279906662254
 30
0.0
 10
644.3745804762029
 20
279.1492956336256
 30
0.0
  0
SPLINE
  5
3A6B
330
1F
100
AcDbEntity
  8
AM_VIS
100
AcDbSpline
210
0.0
220
0.0
230
1.0
 70
     8
 71
     3
 72
     8
 73
     4
 74
     0
 42
0.0000000001
 43
0.0000000001
 40
0.0
 40
0.0
 40
0.0
 40
0.0
 40
80.0
 40
80.0
 40
80.0
 40
80.0
 10
644.3745804762029
 20
279.1492956336256
 30
0.0
 10
644.2068041779339
 20
279.1599480563718
 30
0.0
 10
644.0510119009699
 20
279.1160066449204
 30
0.0
 10
643.9072036453108
 20
279.0174713992714
 30
0.0
  0
SPLINE
  5
3A6C
330
1F
100
AcDbEntity
  8
AM_VIS
100
AcDbSpline
210
0.0
220
0.0
230
1.0
 70
     8
 71
     3
 72
     8
 73
     4
 74
     0
 42
0.0000000001
 43
0.0000000001
 40
0.0
 40
0.0
 40
0.0
 40
0.0
 40
80.0
 40
80.0
 40
80.0
 40
80.0
 10
643.9072036453108
 20
279.0174713992714
 30
0.0
 10
643.7287749242955
 20
278.9002942614317
 30
0.0
 10
643.639560502834
 20
278.7325179631628
 30
0.0
 10
643.639560502834
 20
278.5141425044645
 30
0.0
  0
SPLINE
  5
3A6D
330
1F
100
AcDbEntity
  8
AM_VIS
100
AcDbSpline
210
0.0
220
0.0
230
1.0
 70
     8
 71
     3
 72
     8
 73
     4
 74
     0
 42
0.0000000001
 43
0.0000000001
 40
0.0
 40
0.0
 40
0.0
 40
0.0
 40
80.0
 40
80.0
 40
80.0
 40
80.0
 10
643.639560502834
 20
278.5141425044645
 30
0.0
 10
643.639560502834
 20
278.3596817651052
 30
0.0
 10
643.7181224405954
 20
278.2345153406828
 30
0.0
 10
643.8752462551642
 20
278.1386431702434
 30
0.0
  0
SPLINE
  5
3A6E
330
1F
100
AcDbEntity
  8
AM_VIS
100
AcDbSpline
210
0.0
220
0.0
230
1.0
 70
     8
 71
     3
 72
     8
 73
     4
 74
     0
 42
0.0000000001
 43
0.0000000001
 40
0.0
 40
0.0
 40
0.0
 40
0.0
 40
80.0
 40
80.0
 40
80.0
 40
80.0
 10
643.8752462551642
 20
278.1386431702434
 30
0.0
 10
643.9285086127109
 20
278.1066857800969
 30
0.0
 10
644.0696537322065
 20
278.0480972111771
 30
0.0
 10
644.298681674605
 20
277.9628775244378
 30
0.0
  0
LINE
  5
3A6F
330
1F
100
AcDbEntity
  8
AM_VIS
100
AcDbLine
 10
644.298681674605
 20
277.9628775244378
 30
0.0
 11
644.2866976533
 21
277.8829840490717
 31
0.0
  0
SPLINE
  5
3A70
330
1F
100
AcDbEntity
  8
AM_VIS
100
AcDbSpline
210
0.0
220
0.0
230
1.0
 70
     8
 71
     3
 72
     8
 73
     4
 74
     0
 42
0.0000000001
 43
0.0000000001
 40
0.0
 40
0.0
 40
0.0
 40
0.0
 40
80.0
 40
80.0
 40
80.0
 40
80.0
 10
644.2866976533
 20
277.8829840490717
 30
0.0
 10
643.9831024469086
 20
277.9362463456645
 30
0.0
 10
643.7580691782784
 20
278.0441025374088
 30
0.0
 10
643.6115977864558
 20
278.2065526243047
 30
0.0
  0
SPLINE
  5
3A71
330
1F
100
AcDbEntity
  8
AM_VIS
100
AcDbSpline
210
0.0
220
0.0
230
1.0
 70
     8
 71
     3
 72
     8
 73
     4
 74
     0
 42
0.0000000001
 43
0.0000000001
 40
0.0
 40
0.0
 40
0.0
 40
0.0
 40
80.0
 40
80.0
 40
80.0
 40
80.0
 10
643.6115977864558
 20
278.2065526243047
 30
0.0
 10
643.489094498197
 20
278.3423715324272
 30
0.0
 10
643.4278427931136
 20
278.5021584831595
 30
0.0
 10
643.4278427931136
 20
278.6859134765018
 30
0.0
  0
SPLINE
  5
3A72
330
1F
100
AcDbEntity
  8
AM_VIS
100
AcDbSpline
210
0.0
220
0.0
230
1.0
 70
     8
 71
     3
 72
     8
 73
     4
 74
     0
 42
0.0000000001
 43
0.0000000001
 40
0.0
 40
0.0
 40
0.0
 40
0.0
 40
80.0
 40
80.0
 40
80.0
 40
80.0
 10
643.4278427931136
 20
278.6859134765018
 30
0.0
 10
643.4278427931136
 20
278.8749946812171
 30
0.0
 10
643.4970838457336
 20
279.0361131695543
 30
0.0
 10
643.6355658290657
 20
279.1692690024671
 30
0.0
  0
SPLINE
  5
3A73
330
1F
100
AcDbEntity
  8
AM_VIS
100
AcDbSpline
210
0.0
220
0.0
230
1.0
 70
     8
 71
     3
 72
     8
 73
     4
 74
     0
 42
0.0000000001
 43
0.0000000001
 40
0.0
 40
0.0
 40
0.0
 40
0.0
 40
80.0
 40
80.0
 40
80.0
 40
80.0
 10
643.6355658290657
 20
279.1692690024671
 30
0.0
 10
643.7900265684249
 20
279.3130772581263
 30
0.0
 10
643.9844340454673
 20
279.3849813859558
 30
0.0
 10
644.2187881992388
 20
279.3849813859558
 30
0.0
  0
SPLINE
  5
3A74
330
1F
100
AcDbEntity
  8
AM_VIS
100
AcDbSpline
210
0.0
220
0.0
230
1.0
 70
     8
 71
     3
 72
     8
 73
     4
 74
     0
 42
0.0000000001
 43
0.0000000001
 40
0.0
 40
0.0
 40
0.0
 40
0.0
 40
80.0
 40
80.0
 40
80.0
 40
80.0
 10
644.2187881992388
 20
279.3849813859558
 30
0.0
 10
644.5996138057869
 20
279.3849813859558
 30
0.0
 10
644.9591344449348
 20
279.245167804065
 30
0.0
 10
645.2973501166823
 20
278.9655406402834
 30
0.0
  0
LINE
  5
3A75
330
1F
100
AcDbEntity
  8
AM_VIS
100
AcDbLine
 10
645.2973501166823
 20
278.9655406402834
 30
0.0
 11
646.2081357358567
 21
278.2185366456096
 31
0.0
  0
LINE
  5
3A76
330
1F
100
AcDbEntity
  8
AM_VIS
100
AcDbLine
 10
646.2081357358567
 20
278.2185366456096
 30
0.0
 11
646.2081357358567
 21
279.1133435697108
 31
0.0
  0
SPLINE
  5
3A77
330
1F
100
AcDbEntity
  8
AM_VIS
100
AcDbSpline
210
0.0
220
0.0
230
1.0
 70
     8
 71
     3
 72
     8
 73
     4
 74
     0
 42
0.0000000001
 43
0.0000000001
 40
0.0
 40
0.0
 40
0.0
 40
0.0
 40
80.0
 40
80.0
 40
80.0
 40
80.0
 10
646.2081357358567
 20
279.1133435697108
 30
0.0
 10
646.2081357358567
 20
279.2012263926136
 30
0.0
 10
646.182836155642
 20
279.2691358466748
 30
0.0
 10
646.1322369342588
 20
279.3170719318945
 30
0.0
  0
SPLINE
  5
3A78
330
1F
100
AcDbEntity
  8
AM_VIS
100
AcDbSpline
210
0.0
220
0.0
230
1.0
 70
     8
 71
     3
 72
     8
 73
     4
 74
     0
 42
0.0000000001
 43
0.0000000001
 40
0.0
 40
0.0
 40
0.0
 40
0.0
 40
80.0
 40
80.0
 40
80.0
 40
80.0
 10
646.1322369342588
 20
279.3170719318945
 30
0.0
 10
646.0922902575296
 20
279.3623448809508
 30
0.0
 10
645.9964180261363
 20
279.4235965250802
 30
0.0
 10
645.8446204229406
 20
279.5008269252368
 30
0.0
  0
LINE
  5
3A79
330
1F
100
AcDbEntity
  8
AM_VIS
100
AcDbLine
 10
645.8446204229406
 20
279.5008269252368
 30
0.0
 11
645.8446204229406
 21
279.580720400603
 31
0.0
  0
SPLINE
  5
3A7A
330
1F
100
AcDbEntity
  8
AM_VIS
100
AcDbSpline
210
0.0
220
0.0
230
1.0
 70
     8
 71
     3
 72
     8
 73
     4
 74
     0
 42
0.0000000001
 43
0.0000000001
 40
0.0
 40
0.0
 40
0.0
 40
0.0
 40
80.0
 40
80.0
 40
80.0
 40
80.0
 10
644.2507455893853
 20
277.0021584831595
 30
0.0
 10
643.9737815617672
 20
277.0021584222056
 30
0.0
 10
643.7886950308202
 20
276.8796551339467
 30
0.0
 10
643.6954859355903
 20
276.6346484964751
 30
0.0
  0
SPLINE
  5
3A7B
330
1F
100
AcDbEntity
  8
AM_VIS
100
AcDbSpline
210
0.0
220
0.0
230
1.0
 70
     8
 71
     3
 72
     8
 73
     4
 74
     0
 42
0.0000000001
 43
0.0000000001
 40
0.0
 40
0.0
 40
0.0
 40
0.0
 40
80.0
 40
80.0
 40
80.0
 40
80.0
 10
643.6954859355903
 20
276.6346484964751
 30
0.0
 10
643.6368974276245
 20
276.4961664521891
 30
0.0
 10
643.6129293850146
 20
276.3350479638519
 30
0.0
 10
643.6235818077608
 20
276.1512929705097
 30
0.0
  0
SPLINE
  5
3A7C
330
1F
100
AcDbEntity
  8
AM_VIS
100
AcDbSpline
210
0.0
220
0.0
230
1.0
 70
     8
 71
     3
 72
     8
 73
     4
 74
     0
 42
0.0000000001
 43
0.0000000001
 40
0.0
 40
0.0
 40
0.0
 40
0.0
 40
80.0
 40
80.0
 40
80.0
 40
80.0
 10
643.6235818077608
 20
276.1512929705097
 30
0.0
 10
643.6289080800878
 20
276.0447683163702
 30
0.0
 10
643.6382289652292
 20
275.9781903999137
 30
0.0
 10
643.651544524139
 20
275.9515592820943
 30
0.0
  0
SPLINE
  5
3A7D
330
1F
100
AcDbEntity
  8
AM_VIS
100
AcDbSpline
210
0.0
220
0.0
230
1.0
 70
     8
 71
     3
 72
     8
 73
     4
 74
     0
 42
0.0000000001
 43
0.0000000001
 40
0.0
 40
0.0
 40
0.0
 40
0.0
 40
80.0
 40
80.0
 40
80.0
 40
80.0
 10
643.651544524139
 20
275.9515592820943
 30
0.0
 10
643.6781757029123
 20
275.9089494082477
 30
0.0
 10
643.7327695980639
 20
275.8876445018013
 30
0.0
 10
643.8153261486396
 20
275.8876445018013
 30
0.0
  0
LINE
  5
3A7E
330
1F
100
AcDbEntity
  8
AM_VIS
100
AcDbLine
 10
643.8153261486396
 20
275.8876445018013
 30
0.0
 11
644.9098667611563
 21
275.8876445018013
 31
0.0
  0
SPLINE
  5
3A7F
330
1F
100
AcDbEntity
  8
AM_VIS
100
AcDbSpline
210
0.0
220
0.0
230
1.0
 70
     8
 71
     3
 72
     8
 73
     4
 74
     0
 42
0.0000000001
 43
0.0000000001
 40
0.0
 40
0.0
 40
0.0
 40
0.0
 40
80.0
 40
80.0
 40
80.0
 40
80.0
 10
644.9098667611563
 20
275.8876445018013
 30
0.0
 10
644.9072036859466
 20
276.2045552671025
 30
0.0
 10
644.8792409695685
 20
276.4362463456645
 30
0.0
 10
644.8259786120217
 20
276.5827177374871
 30
0.0
  0
SPLINE
  5
3A80
330
1F
100
AcDbEntity
  8
AM_VIS
100
AcDbSpline
210
0.0
220
0.0
230
1.0
 70
     8
 71
     3
 72
     8
 73
     4
 74
     0
 42
0.0000000001
 43
0.0000000001
 40
0.0
 40
0.0
 40
0.0
 40
0.0
 40
80.0
 40
80.0
 40
80.0
 40
80.0
 10
644.8259786120217
 20
276.5827177374871
 30
0.0
 10
644.7274433663728
 20
276.8623448403149
 30
0.0
 10
644.5356990254939
 20
277.0021584222056
 30
0.0
 10
644.2507455893853
 20
277.0021584831595
 30
0.0
  0
LINE
  5
3A81
330
1F
100
AcDbEntity
  8
AM_VIS
100
AcDbLine
 10
646.4278427931136
 20
277.7211997614551
 30
0.0
 11
646.4278427931136
 21
277.1699347814285
 31
0.0
  0
LINE
  5
3A82
330
1F
100
AcDbEntity
  8
AM_VIS
100
AcDbLine
 10
646.4278427931136
 20
277.1699347814285
 30
0.0
 11
645.0337016479738
 21
276.2231970983393
 31
0.0
  0
LINE
  5
3A83
330
1F
100
AcDbEntity
  8
AM_VIS
100
AcDbLine
 10
645.0337016479738
 20
276.2231970983393
 30
0.0
 11
645.0496803430471
 21
275.8876445018013
 31
0.0
  0
LINE
  5
3A84
330
1F
100
AcDbEntity
  8
AM_VIS
100
AcDbLine
 10
645.0496803430471
 20
275.8876445018013
 30
0.0
 11
645.9045405294651
 21
275.8876445018013
 31
0.0
  0
SPLINE
  5
3A85
330
1F
100
AcDbEntity
  8
AM_VIS
100
AcDbSpline
210
0.0
220
0.0
230
1.0
 70
     8
 71
     3
 72
     8
 73
     4
 74
     0
 42
0.0000000001
 43
0.0000000001
 40
0.0
 40
0.0
 40
0.0
 40
0.0
 40
80.0
 40
80.0
 40
80.0
 40
80.0
 10
645.9045405294651
 20
275.8876445018013
 30
0.0
 10
646.0616644049879
 20
275.8876445018013
 30
0.0
 10
646.1721836719418
 20
275.9169387557843
 30
0.0
 10
646.2360984522348
 20
275.9755273247042
 30
0.0
  0
SPLINE
  5
3A86
330
1F
100
AcDbEntity
  8
AM_VIS
100
AcDbSpline
210
0.0
220
0.0
230
1.0
 70
     8
 71
     3
 72
     8
 73
     4
 74
     0
 42
0.0000000001
 43
0.0000000001
 40
0.0
 40
0.0
 40
0.0
 40
0.0
 40
80.0
 40
80.0
 40
80.0
 40
80.0
 10
646.2360984522348
 20
275.9755273247042
 30
0.0
 10
646.2973500963642
 20
276.0314526965065
 30
0.0
 10
646.3346336978839
 20
276.1366458130413
 30
0.0
 10
646.3479493177475
 20
276.2911065524006
 30
0.0
  0
LINE
  5
3A87
330
1F
100
AcDbEntity
  8
AM_VIS
100
AcDbLine
 10
646.3479493177475
 20
276.2911065524006
 30
0.0
 11
646.4278427931136
 21
276.2911065524006
 31
0.0
  0
LINE
  5
3A88
330
1F
100
AcDbEntity
  8
AM_VIS
100
AcDbLine
 10
646.4278427931136
 20
276.2911065524006
 30
0.0
 11
646.4278427931136
 21
275.2524913726402
 31
0.0
  0
LINE
  5
3A89
330
1F
100
AcDbEntity
  8
AM_VIS
100
AcDbLine
 10
646.4278427931136
 20
275.2524913726402
 30
0.0
 11
646.3479493177475
 21
275.2524913726402
 31
0.0
  0
SPLINE
  5
3A8A
330
1F
100
AcDbEntity
  8
AM_VIS
100
AcDbSpline
210
0.0
220
0.0
230
1.0
 70
     8
 71
     3
 72
     8
 73
     4
 74
     0
 42
0.0000000001
 43
0.0000000001
 40
0.0
 40
0.0
 40
0.0
 40
0.0
 40
80.0
 40
80.0
 40
80.0
 40
80.0
 10
646.3479493177475
 20
275.2524913726402
 30
0.0
 10
646.3319706226742
 20
275.4069520510456
 30
0.0
 10
646.2893607488276
 20
275.5094820314168
 30
0.0
 10
646.2201197571617
 20
275.5600812528
 30
0.0
  0
SPLINE
  5
3A8B
330
1F
100
AcDbEntity
  8
AM_VIS
100
AcDbSpline
210
0.0
220
0.0
230
1.0
 70
     8
 71
     3
 72
     8
 73
     4
 74
     0
 42
0.0000000001
 43
0.0000000001
 40
0.0
 40
0.0
 40
0.0
 40
0.0
 40
80.0
 40
80.0
 40
80.0
 40
80.0
 10
646.2201197571617
 20
275.5600812528
 30
0.0
 10
646.153541901659
 20
275.6106804132293
 30
0.0
 10
646.0297070148414
 20
275.635979993444
 30
0.0
 10
645.848615096709
 20
275.6359800543979
 30
0.0
  0
LINE
  5
3A8C
330
1F
100
AcDbEntity
  8
AM_VIS
100
AcDbLine
 10
645.848615096709
 20
275.6359800543979
 30
0.0
 11
644.0190545108233
 21
275.6359800543979
 31
0.0
  0
SPLINE
  5
3A8D
330
1F
100
AcDbEntity
  8
AM_VIS
100
AcDbSpline
210
0.0
220
0.0
230
1.0
 70
     8
 71
     3
 72
     8
 73
     4
 74
     0
 42
0.0000000001
 43
0.0000000001
 40
0.0
 40
0.0
 40
0.0
 40
0.0
 40
80.0
 40
80.0
 40
80.0
 40
80.0
 10
644.0190545108235
 20
275.6359800543979
 30
0.0
 10
643.8512782125545
 20
275.635979993444
 30
0.0
 10
643.7354326732734
 20
275.606685739461
 30
0.0
 10
643.6715178929805
 20
275.5480972314951
 30
0.0
  0
SPLINE
  5
3A8E
330
1F
100
AcDbEntity
  8
AM_VIS
100
AcDbSpline
210
0.0
220
0.0
230
1.0
 70
     8
 71
     3
 72
     8
 73
     4
 74
     0
 42
0.0000000001
 43
0.0000000001
 40
0.0
 40
0.0
 40
0.0
 40
0.0
 40
80.0
 40
80.0
 40
80.0
 40
80.0
 10
643.6715178929805
 20
275.5480972314951
 30
0.0
 10
643.6182555963877
 20
275.5001611462754
 30
0.0
 10
643.5836350700776
 20
275.4016258396725
 30
0.0
 10
643.5676563750044
 20
275.2524913726402
 30
0.0
  0
LINE
  5
3A8F
330
1F
100
AcDbEntity
  8
AM_VIS
100
AcDbLine
 10
643.5676563750044
 20
275.2524913726402
 30
0.0
 11
643.4877628996382
 21
275.2524913726402
 31
0.0
  0
LINE
  5
3A90
330
1F
100
AcDbEntity
  8
AM_VIS
100
AcDbLine
 10
643.4877628996382
 20
275.2524913726402
 30
0.0
 11
643.4877628996382
 21
276.3150745950104
 31
0.0
  0
SPLINE
  5
3A91
330
1F
100
AcDbEntity
  8
AM_VIS
100
AcDbSpline
210
0.0
220
0.0
230
1.0
 70
     8
 71
     3
 72
     8
 73
     4
 74
     0
 42
0.0000000001
 43
0.0000000001
 40
0.0
 40
0.0
 40
0.0
 40
0.0
 40
80.0
 40
80.0
 40
80.0
 40
80.0
 10
643.4877628996382
 20
276.3150745950104
 30
0.0
 10
643.4877628996382
 20
276.5627443686455
 30
0.0
 10
643.5303727734849
 20
276.7664727308293
 30
0.0
 10
643.6155924602242
 20
276.9262596815616
 30
0.0
  0
SPLINE
  5
3A92
330
1F
100
AcDbEntity
  8
AM_VIS
100
AcDbSpline
210
0.0
220
0.0
230
1.0
 70
     8
 71
     3
 72
     8
 73
     4
 74
     0
 42
0.0000000001
 43
0.0000000001
 40
0.0
 40
0.0
 40
0.0
 40
0.0
 40
80.0
 40
80.0
 40
80.0
 40
80.0
 10
643.6155924602242
 20
276.9262596815616
 30
0.0
 10
643.7434220208102
 20
277.1632769714967
 30
0.0
 10
643.9578028666939
 20
277.2817856469412
 30
0.0
 10
644.2587349369219
 20
277.2817856469412
 30
0.0
  0
SPLINE
  5
3A93
330
1F
100
AcDbEntity
  8
AM_VIS
100
AcDbSpline
210
0.0
220
0.0
230
1.0
 70
     8
 71
     3
 72
     8
 73
     4
 74
     0
 42
0.0000000001
 43
0.0000000001
 40
0.0
 40
0.0
 40
0.0
 40
0.0
 40
80.0
 40
80.0
 40
80.0
 40
80.0
 10
644.2587349369219
 20
277.2817856469412
 30
0.0
 10
644.511730982884
 20
277.2817856469412
 30
0.0
 10
644.7008121875994
 20
277.1872450141066
 30
0.0
 10
644.8259786120217
 20
276.9981638093912
 30
0.0
  0
SPLINE
  5
3A94
330
1F
100
AcDbEntity
  8
AM_VIS
100
AcDbSpline
210
0.0
220
0.0
230
1.0
 70
     8
 71
     3
 72
     8
 73
     4
 74
     0
 42
0.0000000001
 43
0.0000000001
 40
0.0
 40
0.0
 40
0.0
 40
0.0
 40
80.0
 40
80.0
 40
80.0
 40
80.0
 10
644.8259786120217
 20
276.9981638093912
 30
0.0
 10
644.8978827398514
 20
276.8916391552517
 30
0.0
 10
644.9524766350029
 20
276.7385100144512
 30
0.0
 10
644.9897602365224
 20
276.5387763260357
 30
0.0
  0
LINE
  5
3A95
330
1F
100
AcDbEntity
  8
AM_VIS
100
AcDbLine
 10
644.9897602365224
 20
276.5387763260357
 30
0.0
 11
646.1881623670151
 21
277.3457004272341
 31
0.0
  0
SPLINE
  5
3A96
330
1F
100
AcDbEntity
  8
AM_VIS
100
AcDbSpline
210
0.0
220
0.0
230
1.0
 70
     8
 71
     3
 72
     8
 73
     4
 74
     0
 42
0.0000000001
 43
0.0000000001
 40
0.0
 40
0.0
 40
0.0
 40
0.0
 40
80.0
 40
80.0
 40
80.0
 40
80.0
 10
646.1881623670151
 20
277.3457004272341
 30
0.0
 10
646.270718917591
 20
277.3989627238269
 30
0.0
 10
646.3239812751376
 20
277.5241291482493
 30
0.0
 10
646.3479493177475
 20
277.7211997614551
 30
0.0
  0
LINE
  5
3A97
330
1F
100
AcDbEntity
  8
AM_VIS
100
AcDbLine
 10
646.3479493177475
 20
277.7211997614551
 30
0.0
 11
646.4278427931136
 21
277.7211997614551
 31
0.0
  0
LINE
  5
3A98
330
1F
100
AcDbEntity
  8
AM_VIS
100
AcDbLine
 10
646.4278427931136
 20
319.4174913726715
 30
0.0
 11
646.4278427931136
 21
318.3626785384469
 31
0.0
  0
LINE
  5
3A99
330
1F
100
AcDbEntity
  8
AM_VIS
100
AcDbLine
 10
646.4278427931136
 20
318.3626785384469
 30
0.0
 11
646.3476288893702
 21
318.3626785384469
 31
0.0
  0
SPLINE
  5
3A9A
330
1F
100
AcDbEntity
  8
AM_VIS
100
AcDbSpline
210
0.0
220
0.0
230
1.0
 70
     8
 71
     3
 72
     8
 73
     4
 74
     0
 42
0.0000000001
 43
0.0000000001
 40
0.0
 40
0.0
 40
0.0
 40
0.0
 40
80.0
 40
80.0
 40
80.0
 40
80.0
 10
646.3476288893702
 20
318.3626785384469
 30
0.0
 10
646.3422812549886
 20
318.5043897479939
 30
0.0
 10
646.3208909010565
 20
318.6019833104822
 30
0.0
 10
646.2834577663756
 20
318.65545928711
 30
0.0
  0
SPLINE
  5
3A9B
330
1F
100
AcDbEntity
  8
AM_VIS
100
AcDbSpline
210
0.0
220
0.0
230
1.0
 70
     8
 71
     3
 72
     8
 73
     4
 74
     0
 42
0.0000000001
 43
0.0000000001
 40
0.0
 40
0.0
 40
0.0
 40
0.0
 40
80.0
 40
80.0
 40
80.0
 40
80.0
 10
646.2834577663756
 20
318.65545928711
 30
0.0
 10
646.2273079725569
 20
318.7356731908533
 30
0.0
 10
646.1203562028965
 20
318.775780142725
 30
0.0
 10
645.9626021514025
 20
318.775780142725
 30
0.0
  0
LINE
  5
3A9C
330
1F
100
AcDbEntity
  8
AM_VIS
100
AcDbLine
 10
645.9626021514025
 20
318.775780142725
 30
0.0
 11
643.9732973385682
 21
318.775780142725
 31
0.0
  0
SPLINE
  5
3A9D
330
1F
100
AcDbEntity
  8
AM_VIS
100
AcDbSpline
210
0.0
220
0.0
230
1.0
 70
     8
 71
     3
 72
     8
 73
     4
 74
     0
 42
0.0000000001
 43
0.0000000001
 40
0.0
 40
0.0
 40
0.0
 40
0.0
 40
80.0
 40
80.0
 40
80.0
 40
80.0
 10
643.9732973385682
 20
318.775780142725
 30
0.0
 10
643.8208909214559
 20
318.775780142725
 30
0.0
 10
643.7446877128998
 20
318.720967288101
 30
0.0
 10
643.7446877128998
 20
318.6113416400512
 30
0.0
  0
SPLINE
  5
3A9E
330
1F
100
AcDbEntity
  8
AM_VIS
100
AcDbSpline
210
0.0
220
0.0
230
1.0
 70
     8
 71
     3
 72
     8
 73
     4
 74
     0
 42
0.0000000001
 43
0.0000000001
 40
0.0
 40
0.0
 40
0.0
 40
0.0
 40
80.0
 40
80.0
 40
80.0
 40
80.0
 10
643.7446877128998
 20
318.6113416400512
 30
0.0
 10
643.7446877128998
 20
318.5418228826748
 30
0.0
 10
643.7687518840228
 20
318.4455661981827
 30
0.0
 10
643.8168802262687
 20
318.3225715865753
 30
0.0
  0
LINE
  5
3A9F
330
1F
100
AcDbEntity
  8
AM_VIS
100
AcDbLine
 10
643.8168802262687
 20
318.3225715865753
 30
0.0
 11
643.7527091032741
 21
318.3225715865753
 31
0.0
  0
LINE
  5
3AA0
330
1F
100
AcDbEntity
  8
AM_VIS
100
AcDbLine
 10
643.7527091032741
 20
318.3225715865753
 30
0.0
 11
643.4278427931136
 21
319.0003790732063
 31
0.0
  0
LINE
  5
3AA1
330
1F
100
AcDbEntity
  8
AM_VIS
100
AcDbLine
 10
643.4278427931136
 20
319.0003790732063
 30
0.0
 11
646.0388053599586
 21
319.0003790732063
 31
0.0
  0
SPLINE
  5
3AA2
330
1F
100
AcDbEntity
  8
AM_VIS
100
AcDbSpline
210
0.0
220
0.0
230
1.0
 70
     8
 71
     3
 72
     8
 73
     4
 74
     0
 42
0.0000000001
 43
0.0000000001
 40
0.0
 40
0.0
 40
0.0
 40
0.0
 40
80.0
 40
80.0
 40
80.0
 40
80.0
 10
646.0388053599586
 20
319.0003790732063
 30
0.0
 10
646.15377864239
 20
319.0003790732063
 30
0.0
 10
646.2353293629313
 20
319.0324646347036
 30
0.0
 10
646.2834577663756
 20
319.0966357576983
 30
0.0
  0
SPLINE
  5
3AA3
330
1F
100
AcDbEntity
  8
AM_VIS
100
AcDbSpline
210
0.0
220
0.0
230
1.0
 70
     8
 71
     3
 72
     8
 73
     4
 74
     0
 42
0.0000000001
 43
0.0000000001
 40
0.0
 40
0.0
 40
0.0
 40
0.0
 40
80.0
 40
80.0
 40
80.0
 40
80.0
 10
646.2834577663756
 20
319.0966357576983
 30
0.0
 10
646.32623847424
 20
319.1608068806929
 30
0.0
 10
646.3476288893702
 20
319.2677587115518
 30
0.0
 10
646.3476288893702
 20
319.4174913726715
 30
0.0
  0
LINE
  5
3AA4
330
1F
100
AcDbEntity
  8
AM_VIS
100
AcDbLine
 10
646.3476288893704
 20
319.4174913726715
 30
0.0
 11
646.4278427931136
 21
319.4174913726715
 31
0.0
  0
SPLINE
  5
3AA5
330
1F
100
AcDbEntity
  8
AM_VIS
100
AcDbSpline
210
0.0
220
0.0
230
1.0
 70
     8
 71
     3
 72
     8
 73
     4
 74
     0
 42
0.0000000001
 43
0.0000000001
 40
0.0
 40
0.0
 40
0.0
 40
0.0
 40
80.0
 40
80.0
 40
80.0
 40
80.0
 10
644.2420139161083
 20
317.1454325491421
 30
0.0
 10
643.9639390701976
 20
317.1454324879438
 30
0.0
 10
643.7781102135917
 20
317.0224378763363
 30
0.0
 10
643.6845272850923
 20
316.7764485919229
 30
0.0
  0
SPLINE
  5
3AA6
330
1F
100
AcDbEntity
  8
AM_VIS
100
AcDbSpline
210
0.0
220
0.0
230
1.0
 70
     8
 71
     3
 72
     8
 73
     4
 74
     0
 42
0.0000000001
 43
0.0000000001
 40
0.0
 40
0.0
 40
0.0
 40
0.0
 40
80.0
 40
80.0
 40
80.0
 40
80.0
 10
643.6845272850923
 20
316.7764485919229
 30
0.0
 10
643.6257037964794
 20
316.6374111383683
 30
0.0
 10
643.6016396253564
 20
316.4756464528854
 30
0.0
 10
643.6123347717233
 20
316.2911544742758
 30
0.0
  0
SPLINE
  5
3AA7
330
1F
100
AcDbEntity
  8
AM_VIS
100
AcDbSpline
210
0.0
220
0.0
230
1.0
 70
     8
 71
     3
 72
     8
 73
     4
 74
     0
 42
0.0000000001
 43
0.0000000001
 40
0.0
 40
0.0
 40
0.0
 40
0.0
 40
80.0
 40
80.0
 40
80.0
 40
80.0
 10
643.6123347717233
 20
316.2911544742758
 30
0.0
 10
643.6176824061051
 20
316.1842025822186
 30
0.0
 10
643.6270406744756
 20
316.117357642033
 30
0.0
 10
643.6404096380335
 20
316.0906197149175
 30
0.0
  0
SPLINE
  5
3AA8
330
1F
100
AcDbEntity
  8
AM_VIS
100
AcDbSpline
210
0.0
220
0.0
230
1.0
 70
     8
 71
     3
 72
     8
 73
     4
 74
     0
 42
0.0000000001
 43
0.0000000001
 40
0.0
 40
0.0
 40
0.0
 40
0.0
 40
80.0
 40
80.0
 40
80.0
 40
80.0
 10
643.6404096380335
 20
316.0906197149175
 30
0.0
 10
643.6671476263472
 20
316.047838945855
 30
0.0
 10
643.7219604809713
 20
316.0264485919229
 30
0.0
 10
643.8048481407072
 20
316.0264485919229
 30
0.0
  0
LINE
  5
3AA9
330
1F
100
AcDbEntity
  8
AM_VIS
100
AcDbLine
 10
643.8048481407072
 20
316.0264485919229
 30
0.0
 11
644.9037786219906
 21
316.0264485919229
 31
0.0
  0
SPLINE
  5
3AAA
330
1F
100
AcDbEntity
  8
AM_VIS
100
AcDbSpline
210
0.0
220
0.0
230
1.0
 70
     8
 71
     3
 72
     8
 73
     4
 74
     0
 42
0.0000000001
 43
0.0000000001
 40
0.0
 40
0.0
 40
0.0
 40
0.0
 40
80.0
 40
80.0
 40
80.0
 40
80.0
 10
644.9037786219906
 20
316.0264485919229
 30
0.0
 10
644.9011048659981
 20
316.3446303897052
 30
0.0
 10
644.873029999688
 20
316.5772507105609
 30
0.0
 10
644.8195540230601
 20
316.7243095544897
 30
0.0
  0
SPLINE
  5
3AAB
330
1F
100
AcDbEntity
  8
AM_VIS
100
AcDbSpline
210
0.0
220
0.0
230
1.0
 70
     8
 71
     3
 72
     8
 73
     4
 74
     0
 42
0.0000000001
 43
0.0000000001
 40
0.0
 40
0.0
 40
0.0
 40
0.0
 40
80.0
 40
80.0
 40
80.0
 40
80.0
 10
644.8195540230601
 20
316.7243095544897
 30
0.0
 10
644.7206235825756
 20
317.0050581563929
 30
0.0
 10
644.5281102135917
 20
317.1454324879438
 30
0.0
 10
644.2420139161083
 20
317.1454325491421
 30
0.0
  0
LINE
  5
3AAC
330
1F
100
AcDbEntity
  8
AM_VIS
100
AcDbLine
 10
646.4278427931136
 20
317.867357682832
 30
0.0
 11
646.4278427931136
 21
317.3138817470031
 31
0.0
  0
LINE
  5
3AAD
330
1F
100
AcDbEntity
  8
AM_VIS
100
AcDbLine
 10
646.4278427931137
 20
317.3138817470031
 30
0.0
 11
645.0281101727928
 21
316.3633469876448
 31
0.0
  0
LINE
  5
3AAE
330
1F
100
AcDbEntity
  8
AM_VIS
100
AcDbLine
 10
645.0281101727928
 20
316.3633469876448
 30
0.0
 11
645.0441529535415
 21
316.0264485919229
 31
0.0
  0
LINE
  5
3AAF
330
1F
100
AcDbEntity
  8
AM_VIS
100
AcDbLine
 10
645.0441529535415
 20
316.0264485919229
 30
0.0
 11
645.902441723595
 21
316.0264485919229
 31
0.0
  0
SPLINE
  5
3AB0
330
1F
100
AcDbEntity
  8
AM_VIS
100
AcDbSpline
210
0.0
220
0.0
230
1.0
 70
     8
 71
     3
 72
     8
 73
     4
 74
     0
 42
0.0000000001
 43
0.0000000001
 40
0.0
 40
0.0
 40
0.0
 40
0.0
 40
80.0
 40
80.0
 40
80.0
 40
80.0
 10
645.902441723595
 20
316.0264485919229
 30
0.0
 10
646.060195775089
 20
316.0264485919229
 30
0.0
 10
646.171158301135
 20
316.0558603362293
 30
0.0
 10
646.2353294241297
 20
316.1146838860405
 30
0.0
  0
SPLINE
  5
3AB1
330
1F
100
AcDbEntity
  8
AM_VIS
100
AcDbSpline
210
0.0
220
0.0
230
1.0
 70
     8
 71
     3
 72
     8
 73
     4
 74
     0
 42
0.0000000001
 43
0.0000000001
 40
0.0
 40
0.0
 40
0.0
 40
0.0
 40
80.0
 40
80.0
 40
80.0
 40
80.0
 10
646.2353294241297
 20
316.1146838860405
 30
0.0
 10
646.2968267299335
 20
316.1708335574624
 30
0.0
 10
646.3342598646143
 20
316.2764485715234
 30
0.0
 10
646.3476288893702
 20
316.4315288058266
 30
0.0
  0
LINE
  5
3AB2
330
1F
100
AcDbEntity
  8
AM_VIS
100
AcDbLine
 10
646.3476288893704
 20
316.4315288058266
 30
0.0
 11
646.4278427931136
 21
316.4315288058266
 31
0.0
  0
LINE
  5
3AB3
330
1F
100
AcDbEntity
  8
AM_VIS
100
AcDbLine
 10
646.4278427931136
 20
316.4315288058266
 30
0.0
 11
646.4278427931136
 21
315.3887480571635
 31
0.0
  0
LINE
  5
3AB4
330
1F
100
AcDbEntity
  8
AM_VIS
100
AcDbLine
 10
646.4278427931136
 20
315.3887480571635
 30
0.0
 11
646.3476288893702
 21
315.3887480571635
 31
0.0
  0
SPLINE
  5
3AB5
330
1F
100
AcDbEntity
  8
AM_VIS
100
AcDbSpline
210
0.0
220
0.0
230
1.0
 70
     8
 71
     3
 72
     8
 73
     4
 74
     0
 42
0.0000000001
 43
0.0000000001
 40
0.0
 40
0.0
 40
0.0
 40
0.0
 40
80.0
 40
80.0
 40
80.0
 40
80.0
 10
646.3476288893702
 20
315.3887480571635
 30
0.0
 10
646.3315861086216
 20
315.5438282302683
 30
0.0
 10
646.2888053395592
 20
315.6467694271384
 30
0.0
 10
646.219286643381
 20
315.6975715865752
 30
0.0
  0
SPLINE
  5
3AB6
330
1F
100
AcDbEntity
  8
AM_VIS
100
AcDbSpline
210
0.0
220
0.0
230
1.0
 70
     8
 71
     3
 72
     8
 73
     4
 74
     0
 42
0.0000000001
 43
0.0000000001
 40
0.0
 40
0.0
 40
0.0
 40
0.0
 40
80.0
 40
80.0
 40
80.0
 40
80.0
 10
646.219286643381
 20
315.6975715865752
 30
0.0
 10
646.1524417643938
 20
315.7483736848138
 30
0.0
 10
646.0281102135917
 20
315.7737747339331
 30
0.0
 10
645.8462919909745
 20
315.7737747951314
 30
0.0
  0
LINE
  5
3AB7
330
1F
100
AcDbEntity
  8
AM_VIS
100
AcDbLine
 10
645.8462919909745
 20
315.7737747951314
 30
0.0
 11
644.0093935952527
 21
315.7737747951314
 31
0.0
  0
SPLINE
  5
3AB8
330
1F
100
AcDbEntity
  8
AM_VIS
100
AcDbSpline
210
0.0
220
0.0
230
1.0
 70
     8
 71
     3
 72
     8
 73
     4
 74
     0
 42
0.0000000001
 43
0.0000000001
 40
0.0
 40
0.0
 40
0.0
 40
0.0
 40
80.0
 40
80.0
 40
80.0
 40
80.0
 10
644.0093935952527
 20
315.7737747951314
 30
0.0
 10
643.8409443973917
 20
315.7737747339331
 30
0.0
 10
643.724634236964
 20
315.7443629896266
 30
0.0
 10
643.6604631139693
 20
315.6855395010138
 30
0.0
  0
SPLINE
  5
3AB9
330
1F
100
AcDbEntity
  8
AM_VIS
100
AcDbSpline
210
0.0
220
0.0
230
1.0
 70
     8
 71
     3
 72
     8
 73
     4
 74
     0
 42
0.0000000001
 43
0.0000000001
 40
0.0
 40
0.0
 40
0.0
 40
0.0
 40
80.0
 40
80.0
 40
80.0
 40
80.0
 10
643.6604631139693
 20
315.6855395010138
 30
0.0
 10
643.6069871985398
 20
315.6374111587678
 30
0.0
 10
643.5722278198515
 20
315.5384806570849
 30
0.0
 10
643.5561850391029
 20
315.3887480571635
 30
0.0
  0
LINE
  5
3ABA
330
1F
100
AcDbEntity
  8
AM_VIS
100
AcDbLine
 10
643.5561850391029
 20
315.3887480571635
 30
0.0
 11
643.4759711353597
 21
315.3887480571635
 31
0.0
  0
LINE
  5
3ABB
330
1F
100
AcDbEntity
  8
AM_VIS
100
AcDbLine
 10
643.4759711353597
 20
315.3887480571635
 30
0.0
 11
643.4759711353597
 21
316.4555929769496
 31
0.0
  0
SPLINE
  5
3ABC
330
1F
100
AcDbEntity
  8
AM_VIS
100
AcDbSpline
210
0.0
220
0.0
230
1.0
 70
     8
 71
     3
 72
     8
 73
     4
 74
     0
 42
0.0000000001
 43
0.0000000001
 40
0.0
 40
0.0
 40
0.0
 40
0.0
 40
80.0
 40
80.0
 40
80.0
 40
80.0
 10
643.4759711353597
 20
316.4555929769496
 30
0.0
 10
643.4759711353597
 20
316.7042560785538
 30
0.0
 10
643.5187519044222
 20
316.9088015330993
 30
0.0
 10
643.604313381349
 20
317.0692293405859
 30
0.0
  0
SPLINE
  5
3ABD
330
1F
100
AcDbEntity
  8
AM_VIS
100
AcDbSpline
210
0.0
220
0.0
230
1.0
 70
     8
 71
     3
 72
     8
 73
     4
 74
     0
 42
0.0000000001
 43
0.0000000001
 40
0.0
 40
0.0
 40
0.0
 40
0.0
 40
80.0
 40
80.0
 40
80.0
 40
80.0
 10
643.604313381349
 20
317.0692293405859
 30
0.0
 10
643.7326556273383
 20
317.307197234625
 30
0.0
 10
643.9478962894489
 20
317.4261812122437
 30
0.0
 10
644.2500353064827
 20
317.4261812122437
 30
0.0
  0
SPLINE
  5
3ABE
330
1F
100
AcDbEntity
  8
AM_VIS
100
AcDbSpline
210
0.0
220
0.0
230
1.0
 70
     8
 71
     3
 72
     8
 73
     4
 74
     0
 42
0.0000000001
 43
0.0000000001
 40
0.0
 40
0.0
 40
0.0
 40
0.0
 40
80.0
 40
80.0
 40
80.0
 40
80.0
 10
644.2500353064827
 20
317.4261812122437
 30
0.0
 10
644.5040460424687
 20
317.4261812122437
 30
0.0
 10
644.6938855942618
 20
317.331261405748
 30
0.0
 10
644.8195540230601
 20
317.1414218539549
 30
0.0
  0
SPLINE
  5
3ABF
330
1F
100
AcDbEntity
  8
AM_VIS
100
AcDbSpline
210
0.0
220
0.0
230
1.0
 70
     8
 71
     3
 72
     8
 73
     4
 74
     0
 42
0.0000000001
 43
0.0000000001
 40
0.0
 40
0.0
 40
0.0
 40
0.0
 40
80.0
 40
80.0
 40
80.0
 40
80.0
 10
644.8195540230601
 20
317.1414218539549
 30
0.0
 10
644.8917465364291
 20
317.0344699618977
 30
0.0
 10
644.9465593910532
 20
316.8807266667891
 30
0.0
 10
644.983992525734
 20
316.6801919074309
 30
0.0
  0
LINE
  5
3AC0
330
1F
100
AcDbEntity
  8
AM_VIS
100
AcDbLine
 10
644.983992525734
 20
316.6801919074309
 30
0.0
 11
646.1872010818836
 21
317.4903523352384
 31
0.0
  0
SPLINE
  5
3AC1
330
1F
100
AcDbEntity
  8
AM_VIS
100
AcDbSpline
210
0.0
220
0.0
230
1.0
 70
     8
 71
     3
 72
     8
 73
     4
 74
     0
 42
0.0000000001
 43
0.0000000001
 40
0.0
 40
0.0
 40
0.0
 40
0.0
 40
80.0
 40
80.0
 40
80.0
 40
80.0
 10
646.1872010818837
 20
317.4903523352384
 30
0.0
 10
646.2700887416196
 20
317.5438282506678
 30
0.0
 10
646.3235647182473
 20
317.6694966794662
 30
0.0
 10
646.3476288893702
 20
317.867357682832
 30
0.0
  0
LINE
  5
3AC2
330
1F
100
AcDbEntity
  8
AM_VIS
100
AcDbLine
 10
646.3476288893704
 20
317.867357682832
 30
0.0
 11
646.4278427931136
 21
317.867357682832
 31
0.0
  0
ENDSEC
  0
SECTION
  2
OBJECTS
  0
DICTIONARY
  5
C
330
0
100
AcDbDictionary
281
     1
  3
ACAD_COLOR
350
BE
  3
ACAD_GROUP
350
D
  3
ACAD_LAYOUT
350
1A
  3
ACAD_MATERIAL
350
BD
  3
ACAD_MLINESTYLE
350
17
  3
ACAD_PLOTSETTINGS
350
19
  3
ACAD_PLOTSTYLENAME
350
E
  3
ACAD_TABLESTYLE
350
11A
  3
ACDBHEADERROUNDTRIPXREC
350
3ED0
  3
AcDbVariableDictionary
350
94
  3
AcmDictionary
350
5B
  3
AMG
350
41
  3
AMGSNAPSETTINGS
350
1B8
  3
DWGPROPS
350
3ECF
  0
DICTIONARY
  5
3F9
330
2
100
AcDbDictionary
280
     1
281
     1
  3
ACAD_LAYERFILTERS
360
36DA
  3
ACAD_LAYERSTATES
360
AC4
  3
ACLYDICTIONARY
360
36D9
  3
AMLAYER_GROUPCOLORS
360
EBF
  0
DICTIONARY
  5
8F
330
1F
100
AcDbDictionary
280
     1
281
     1
  3
ACAD_SORTENTS
360
EC5
  0
DICTIONARY
  5
2F1B
330
2F17
100
AcDbDictionary
280
     1
281
     1
  3
ACAD_SORTENTS
360
2F1C
  0
DICTIONARY
  5
32AA
330
3297
100
AcDbDictionary
280
     1
281
     1
  3
ACAD_SORTENTS
360
32AB
  0
DICTIONARY
  5
2C72
330
2C65
100
AcDbDictionary
280
     1
281
     1
  3
ACAD_DIMASSOC
360
2C73
  0
DICTIONARY
  5
2F61
330
2F54
100
AcDbDictionary
280
     1
281
     1
  3
ACAD_DIMASSOC
360
2F62
  0
DICTIONARY
  5
2F83
330
2F76
100
AcDbDictionary
280
     1
281
     1
  3
ACAD_DIMASSOC
360
2F84
  0
DICTIONARY
  5
301C
330
3010
100
AcDbDictionary
280
     1
281
     1
  3
ACAD_DIMASSOC
360
301D
  0
DICTIONARY
  5
BE
102
{ACAD_REACTORS
330
C
102
}
330
C
100
AcDbDictionary
281
     1
  0
DICTIONARY
  5
D
102
{ACAD_REACTORS
330
C
102
}
330
C
100
AcDbDictionary
281
     1
  0
DICTIONARY
  5
1A
102
{ACAD_REACTORS
330
C
102
}
330
C
100
AcDbDictionary
281
     1
  3
Model
350
22
  3
配置1
350
1E
  3
配置2
350
26
  0
DICTIONARY
  5
BD
102
{ACAD_REACTORS
330
C
102
}
330
C
100
AcDbDictionary
281
     1
  0
DICTIONARY
  5
17
102
{ACAD_REACTORS
330
C
102
}
330
C
100
AcDbDictionary
281
     1
  3
Standard
350
18
  0
DICTIONARY
  5
19
102
{ACAD_REACTORS
330
C
102
}
330
C
100
AcDbDictionary
281
     1
  0
ACDBDICTIONARYWDFLT
  5
E
102
{ACAD_REACTORS
330
C
102
}
330
C
100
AcDbDictionary
281
     1
  3
Normal
350
F
100
AcDbDictionaryWithDefault
340
F
  0
DICTIONARY
  5
11A
102
{ACAD_REACTORS
330
C
102
}
330
C
100
AcDbDictionary
281
     1
  3
Standard
350
11B
  0
DICTIONARY
  5
3ED0
102
{ACAD_REACTORS
330
C
102
}
330
C
100
AcDbDictionary
281
     1
  0
DICTIONARY
  5
94
102
{ACAD_REACTORS
330
C
102
}
330
C
100
AcDbDictionary
281
     1
  3
CTABLESTYLE
350
138
  3
DIMASSOC
350
96
  3
INDEXCTL
350
95
  3
PROJECTNAME
350
1689
  0
DICTIONARY
  5
5B
102
{ACAD_REACTORS
330
C
102
}
330
C
100
AcDbDictionary
281
     1
  3
AcmBOM
350
1B5
  3
AcmStdDictionary
350
61
  3
AMDTSECTSYM_ARROWCOLOR
350
123
  0
DICTIONARY
  5
41
102
{ACAD_REACTORS
330
C
102
}
330
C
100
AcDbDictionary
281
     1
  0
DICTIONARY
  5
1B8
102
{ACAD_REACTORS
330
C
102
}
330
C
100
AcDbDictionary
281
     1
  0
XRECORD
  5
3ECF
102
{ACAD_REACTORS
330
C
102
}
330
C
100
AcDbXrecord
280
     1
  1
DWGPROPS COOKIE
  2

  3

  4

  6

  7

  8

  9

300
AmdtFileType=84
301
=
302
=
303
=
304
=
305
=
306
=
307
=
308
=
309
=
 40
0.1604232638888889
 41
2454013.612854456
 42
2455009.342060313
  1

 90
        1
  0
DICTIONARY
  5
36DA
102
{ACAD_REACTORS
330
3F9
102
}
330
3F9
100
AcDbDictionary
281
     1
  0
DICTIONARY
  5
AC4
102
{ACAD_REACTORS
330
3F9
102
}
330
3F9
100
AcDbDictionary
281
     1
  0
DICTIONARY
  5
36D9
102
{ACAD_REACTORS
330
3F9
102
}
330
3F9
100
AcDbDictionary
281
     1
1001
ACAD
1000
<All
  0
DICTIONARY
  5
EBF
102
{ACAD_REACTORS
330
3F9
102
}
330
3F9
100
AcDbDictionary
280
     1
281
     1
  0
SORTENTSTABLE
  5
EC5
102
{ACAD_REACTORS
330
8F
102
}
330
8F
100
AcDbSortentsTable
330
1F
331
2271
  5
2287
331
21F3
  5
2212
331
223A
  5
2250
331
20E5
  5
219F
331
2184
  5
21E1
331
2279
  5
228F
331
21FB
  5
222C
331
2242
  5
2258
331
22E8
  5
22FE
331
2281
  5
2297
331
2203
  5
2234
331
224A
  5
2260
331
2B99
  5
2D75
331
2289
  5
229F
331
2252
  5
2268
331
212D
  5
21A6
331
2F40
  5
3160
331
2CD9
  5
2F1F
331
CC0
  5
CC0
331
208C
  5
20DF
331
E3E
  5
1099
331
DFF
  5
E14
331
2094
  5
20E0
331
E46
  5
10A1
331
DD0
  5
DE8
331
E07
  5
E19
331
209C
  5
20E2
331
C99
  5
C99
331
DD8
  5
DF3
331
E0F
  5
E21
331
20A4
  5
2128
331
E17
  5
E29
331
2291
  5
22A8
331
225A
  5
2270
331
2262
  5
2278
331
2299
  5
22EA
331
21E4
  5
21FD
331
2223
  5
223B
331
2155
  5
21A9
331
226A
  5
2280
331
22A1
  5
22F2
331
21EC
  5
2208
331
222B
  5
2241
331
2233
  5
2249
331
CA1
  5
CA1
331
2065
  5
207B
331
CA9
  5
CA9
331
DE8
  5
E09
331
E1F
  5
E31
331
206D
  5
20A0
331
CB1
  5
CB1
331
DF0
  5
E0E
331
E27
  5
E39
331
2075
  5
20A8
331
CB9
  5
CB9
331
E2F
  5
E41
331
20DC
  5
2159
331
E37
  5
E49
331
2272
  5
2288
331
21F4
  5
2223
331
223B
  5
2251
331
227A
  5
2290
331
21FC
  5
222D
331
21AD
  5
21F2
331
2243
  5
2259
331
22E9
  5
22FF
331
2282
  5
2298
331
224B
  5
2261
331
228A
  5
22A0
331
2253
  5
2269
331
212E
  5
21A7
331
2B9A
  5
2D76
331
3010
  5
3165
331
2F41
  5
3161
331
CC1
  5
CC1
331
2CDA
  5
2F3F
331
E3F
  5
109A
331
E00
  5
E15
331
DD1
  5
DEC
331
C92
  5
C92
331
E08
  5
E1A
331
E47
  5
10A2
331
209D
  5
20E3
331
DD9
  5
DF7
331
C9A
  5
C9A
331
E10
  5
E22
331
20A5
  5
2129
331
2292
  5
22AC
331
225B
  5
2271
331
2263
  5
2279
331
21E5
  5
21FE
331
229A
  5
22EB
331
226B
  5
2281
331
22A2
  5
22F3
331
222C
  5
2242
331
2234
  5
224A
331
217E
  5
21C7
331
2B93
  5
2D5C
331
2D72
  5
3158
331
E18
  5
E2A
331
CA2
  5
CA2
331
2066
  5
208C
331
CAA
  5
CAA
331
E20
  5
E32
331
206E
  5
20A1
331
DF1
  5
E0F
331
CB2
  5
CB2
331
E28
  5
E3A
331
2076
  5
20C7
331
CBA
  5
CBA
331
E30
  5
E42
331
20DD
  5
217E
331
2273
  5
2289
331
21F5
  5
2226
331
223C
  5
2252
331
227B
  5
2291
331
21FD
  5
222E
331
21AE
  5
21F3
331
2244
  5
225A
331
22EA
  5
2300
331
2283
  5
2299
331
224C
  5
2262
331
2127
  5
21A3
331
228B
  5
22A1
331
2254
  5
226A
331
2F42
  5
3162
331
E38
  5
E4A
331
CC2
  5
CC2
331
2CDB
  5
2F40
331
E40
  5
109B
331
DCA
  5
DDC
331
E01
  5
E16
331
E48
  5
10A3
331
DD2
  5
DED
331
C93
  5
C93
331
E09
  5
E1B
331
209E
  5
20E4
331
DDA
  5
DFB
331
C9B
  5
C9B
331
E11
  5
E23
331
20A6
  5
212D
331
2293
  5
22E4
331
225C
  5
2272
331
2264
  5
227A
331
21E6
  5
21FF
331
229B
  5
22EC
331
2157
  5
21AA
331
226C
  5
2282
331
22A3
  5
22F4
331
222D
  5
2243
331
2235
  5
224B
331
217F
  5
21D7
331
2B84
  5
2CDE
331
2B94
  5
2D5E
331
2D73
  5
3159
331
E19
  5
E2B
331
CA3
  5
CA3
331
2067
  5
2094
331
E21
  5
E33
331
CAB
  5
CAB
331
206F
  5
20A2
331
DF2
  5
E10
331
CB3
  5
CB3
331
E29
  5
E3B
331
2077
  5
20DA
331
E31
  5
E43
331
CBB
  5
CBB
331
20DE
  5
217F
331
20E0
  5
2181
331
2274
  5
228A
331
21F6
  5
2227
331
223D
  5
2253
331
22EB
  5
2301
331
227C
  5
2292
331
21FE
  5
222F
331
2245
  5
225B
331
240B
  5
2CDA
331
2284
  5
229A
331
2128
  5
21A4
331
224D
  5
2263
331
228C
  5
22A2
331
21D7
  5
21F5
331
2255
  5
226B
331
E39
  5
E94
331
CC3
  5
CC3
331
2CDC
  5
2F41
331
DCB
  5
DDD
331
E41
  5
109C
331
E49
  5
10A4
331
C94
  5
C94
331
DD3
  5
DEE
331
E0A
  5
E1C
331
209F
  5
20E5
331
C9C
  5
C9C
331
DDB
  5
DFF
331
E12
  5
E24
331
20A7
  5
212E
331
2294
  5
22E5
331
225D
  5
2273
331
2265
  5
227B
331
229C
  5
22ED
331
21E7
  5
2200
331
2226
  5
223C
331
226D
  5
2283
331
22A4
  5
22F5
331
222E
  5
2244
331
22AC
  5
22F9
331
2236
  5
224C
331
2D5C
  5
3155
331
2B85
  5
2CE5
331
2B95
  5
2D5F
331
2D74
  5
315A
331
CA4
  5
CA4
331
DE3
  5
E07
331
E1A
  5
E2C
331
2068
  5
209B
331
CAC
  5
CAC
331
E22
  5
E34
331
2070
  5
20A3
331
CB4
  5
CB4
331
DF3
  5
E11
331
E2A
  5
E3C
331
20C7
  5
213D
331
2078
  5
20DB
331
CBC
  5
CBC
331
E32
  5
E44
331
20DF
  5
2180
331
2180
  5
21D8
331
20E1
  5
2182
331
2275
  5
228B
331
21F7
  5
2228
331
223E
  5
2254
331
22E4
  5
22FA
331
227D
  5
2293
331
21FF
  5
2230
331
2246
  5
225C
331
22EC
  5
2302
331
2121
  5
21A1
331
2285
  5
229B
331
2207
  5
2235
331
224E
  5
2264
331
2129
  5
21A5
331
228D
  5
22A3
331
2256
  5
226C
331
2C65
  5
2F13
331
E3A
  5
E96
331
DFB
  5
E13
331
1391
  5
1435
331
2F54
  5
3163
331
2CDD
  5
2F42
331
DCC
  5
DDE
331
E42
  5
109D
331
E4A
  5
10A5
331
C95
  5
C95
331
DD4
  5
DEF
331
E0B
  5
E1D
331
C9D
  5
C9D
331
DDC
  5
E00
331
E13
  5
E25
331
20A0
  5
2112
331
21D8
  5
21F6
331
2131
  5
21A8
331
2295
  5
22E6
331
21E0
  5
21F9
331
225E
  5
2274
331
2266
  5
227C
331
229D
  5
22EE
331
21E8
  5
2201
331
2227
  5
223D
331
2159
  5
21AD
331
226E
  5
2284
331
22A5
  5
22F6
331
222F
  5
2245
331
2CE5
  5
2F76
331
2237
  5
224D
331
2B96
  5
2D72
331
2D75
  5
315B
331
CA5
  5
CA5
331
E1B
  5
E2D
331
20A8
  5
2131
331
CAD
  5
CAD
331
DEC
  5
E0A
331
E23
  5
E35
331
2069
  5
209C
331
CB5
  5
CB5
331
E2B
  5
E3D
331
1382
  5
13D6
331
2071
  5
20A4
331
CBD
  5
CBD
331
E33
  5
E45
331
2079
  5
20DC
331
21F0
  5
2209
331
20E2
  5
2183
331
2181
  5
21D9
331
2276
  5
228C
331
21F8
  5
2229
331
223F
  5
2255
331
22E5
  5
22FB
331
2112
  5
21A0
331
227E
  5
2294
331
2200
  5
2231
331
2247
  5
225D
331
22ED
  5
2303
331
2122
  5
21A2
331
2286
  5
229C
331
2208
  5
2236
331
224F
  5
2265
331
228E
  5
22A4
331
2257
  5
226D
331
E3B
  5
E97
331
1392
  5
1436
331
2CDE
  5
2F54
331
E43
  5
109E
331
DCD
  5
DDF
331
C96
  5
C96
331
DD5
  5
DF0
331
E0C
  5
E1E
331
C9E
  5
C9E
331
DDD
  5
E01
331
E14
  5
E26
331
20A1
  5
2121
331
2210
  5
2239
331
21D9
  5
21F7
331
2296
  5
22E7
331
21E1
  5
21FA
331
225F
  5
2275
331
2267
  5
227D
331
21E9
  5
2202
331
2228
  5
223E
331
229E
  5
22EF
331
226F
  5
2285
331
2230
  5
2246
331
2CE6
  5
3010
331
2D5E
  5
3156
331
2B97
  5
2D73
331
2D76
  5
315C
331
CA6
  5
CA6
331
E1C
  5
E2E
331
2062
  5
2079
331
CAE
  5
CAE
331
DED
  5
E0B
331
E24
  5
E36
331
206A
  5
209D
331
CB6
  5
CB6
331
E2C
  5
E3E
331
2072
  5
20A5
331
CBE
  5
CBE
331
E34
  5
E46
331
207A
  5
20DD
331
21F1
  5
220A
331
2238
  5
224E
331
20E3
  5
2184
331
2182
  5
21DA
331
2277
  5
228D
331
21F9
  5
222A
331
2240
  5
2256
331
22E6
  5
22FC
331
2201
  5
2232
331
2248
  5
225E
331
227F
  5
2295
331
2287
  5
229D
331
2209
  5
2237
331
2250
  5
2266
331
228F
  5
22A5
331
E3C
  5
F08
331
E44
  5
109F
331
DCE
  5
DE3
331
E05
  5
E17
331
C97
  5
C97
331
DD6
  5
DF1
331
E0D
  5
E1F
331
C9F
  5
C9F
331
DDE
  5
E05
331
E15
  5
E27
331
20A2
  5
2122
331
2258
  5
226E
331
21DA
  5
21F8
331
2260
  5
2276
331
21E2
  5
21FB
331
2297
  5
22E8
331
2268
  5
227E
331
21EA
  5
2203
331
2229
  5
223F
331
229F
  5
22F0
331
22A7
  5
22F7
331
2231
  5
2247
331
2CE7
  5
304C
331
2D5F
  5
3157
331
2F76
  5
3164
331
2D77
  5
315D
331
CA7
  5
CA7
331
E1D
  5
E2F
331
CAF
  5
CAF
331
DEE
  5
E0C
331
E25
  5
E37
331
206B
  5
209E
331
20DA
  5
2155
331
CB7
  5
CB7
331
E2D
  5
E3F
331
2073
  5
20A6
331
CBF
  5
CBF
331
E35
  5
E47
331
207B
  5
20DE
331
2270
  5
2286
331
21F2
  5
2210
331
2239
  5
224F
331
20E4
  5
219E
331
2183
  5
21E0
331
2278
  5
228E
331
21FA
  5
222B
331
2241
  5
2257
331
22E7
  5
22FD
331
2280
  5
2296
331
2202
  5
2233
331
2249
  5
225F
331
2B98
  5
2D74
331
2288
  5
229E
331
220A
  5
2238
331
2251
  5
2267
331
2F1F
  5
315E
331
2F3F
  5
315F
331
E3D
  5
1098
331
E45
  5
10A0
331
DCF
  5
DE7
331
E06
  5
E18
331
209B
  5
20E1
331
C98
  5
C98
331
DD7
  5
DF2
331
E0E
  5
E20
331
20A3
  5
2127
331
DDF
  5
E06
331
E16
  5
E28
331
2290
  5
22A7
331
2212
  5
223A
331
2259
  5
226F
331
2261
  5
2277
331
21E3
  5
21FC
331
2298
  5
22E9
331
2269
  5
227F
331
22A0
  5
22F1
331
21EB
  5
2207
331
222A
  5
2240
331
22A8
  5
22F8
331
2232
  5
2248
331
217C
  5
21AE
331
CA0
  5
CA0
331
2064
  5
207A
331
CA8
  5
CA8
331
DE7
  5
E08
331
E1E
  5
E30
331
206C
  5
209F
331
CB0
  5
CB0
331
DEF
  5
E0D
331
E26
  5
E38
331
2074
  5
20A7
331
CB8
  5
CB8
331
DF7
  5
E12
331
E2E
  5
E40
331
20DB
  5
2157
331
E36
  5
E48
  0
SORTENTSTABLE
  5
2F1C
102
{ACAD_REACTORS
330
2F1B
102
}
330
2F1B
100
AcDbSortentsTable
330
2F17
  0
SORTENTSTABLE
  5
32AB
102
{ACAD_REACTORS
330
32AA
102
}
330
32AA
100
AcDbSortentsTable
330
3297
  0
DIMASSOC
  5
2C73
102
{ACAD_REACTORS
330
2C72
102
}
330
2C72
100
AcDbDimAssoc
330
2C65
 90
        3
 70
     0
 71
     0
  1
AcDbOsnapPointRef
 72
    13
331
2068
 73
     0
 91
        0
 40
0.0
 10
0.0
 20
0.0
 30
2.000000000000000E+50
 75
     0
  1
AcDbOsnapPointRef
 72
    13
331
206E
 73
     0
 91
        0
 40
0.0
 10
0.0
 20
0.0
 30
2.000000000000000E+50
 75
     0
  0
DIMASSOC
  5
2F62
102
{ACAD_REACTORS
330
2F61
102
}
330
2F61
100
AcDbDimAssoc
330
2F54
 90
        3
 70
     0
 71
     0
  1
AcDbOsnapPointRef
 72
    13
331
22EB
 73
     2
 91
        0
 40
0.0
 10
0.0
 20
0.0
 30
2.000000000000000E+50
 75
     0
  1
AcDbOsnapPointRef
 72
     1
331
22EB
 73
     2
 91
        0
 40
0.0
 10
0.0
 20
0.0
 30
2.000000000000000E+50
 75
     0
  0
DIMASSOC
  5
2F84
102
{ACAD_REACTORS
330
2F83
102
}
330
2F83
100
AcDbDimAssoc
330
2F76
 90
        3
 70
     0
 71
     0
  1
AcDbOsnapPointRef
 72
    13
331
22E7
 73
     2
 91
        0
 40
0.0
 10
0.0
 20
0.0
 30
2.000000000000000E+50
 75
     0
  1
AcDbOsnapPointRef
 72
     1
331
22E7
 73
     2
 91
        0
 40
0.0
 10
0.0
 20
0.0
 30
2.000000000000000E+50
 75
     0
  0
DIMASSOC
  5
301D
102
{ACAD_REACTORS
330
301C
102
}
330
301C
100
AcDbDimAssoc
330
3010
 90
        2
 70
     0
 71
     0
  1
AcDbOsnapPointRef
 72
     3
331
2B98
 73
     2
 91
        0
 40
0.0
 10
0.0
 20
0.0
 30
0.0
 75
     0
  0
LAYOUT
  5
22
102
{ACAD_XDICTIONARY
360
3ED3
102
}
102
{ACAD_REACTORS
330
1A
102
}
330
1A
100
AcDbPlotSettings
  1

  2
\\RD\EPSON Stylus C63 Series單色
  4
A4
  6

 40
3.757083177566528
 41
3.757076978683471
 42
3.757080078125
 43
3.757080078125
 44
209.9733276367187
 45
296.9683227539062
 46
0.0
 47
0.0
 48
0.0
 49
0.0
140
0.0
141
0.0
142
1.0
143
0.3405120737814363
 70
 11952
 72
     1
 73
     0
 74
     0
  7
單色出圖.ctb
 75
     0
147
2.936753428137963
148
-2047.07469463503
149
-1261.649717473083
100
AcDbLayout
  1
Model
 70
     1
 71
     0
 10
0.0
 20
0.0
 11
12.0
 21
9.0
 12
0.0
 22
0.0
 32
0.0
 14
0.0
 24
0.0
 34
0.0
 15
0.0
 25
0.0
 35
0.0
146
0.0
 13
0.0
 23
0.0
 33
0.0
 16
1.0
 26
0.0
 36
0.0
 17
0.0
 27
1.0
 37
0.0
 76
     0
330
1F
1001
ACAD_PSEXT
1000
\\RD\EPSON Stylus C63 Series單色
1000
EPSON Stylus C63 Series
1000
\\RD
1000

1070
     0
  0
LAYOUT
  5
1E
102
{ACAD_XDICTIONARY
360
3ED1
102
}
102
{ACAD_REACTORS
330
1A
102
}
330
1A
100
AcDbPlotSettings
  1

  2

  4

  6

 40
0.0
 41
0.0
 42
0.0
 43
0.0
 44
0.0
 45
0.0
 46
0.0
 47
0.0
 48
0.0
 49
0.0
140
0.0
141
0.0
142
1.0
143
1.0
 70
   688
 72
     0
 73
     0
 74
     5
  7
單色出圖.ctb
 75
    16
147
1.0
148
0.0
149
0.0
100
AcDbLayout
  1
配置1
 70
     1
 71
     1
 10
0.0
 20
0.0
 11
420.0
 21
297.0
 12
0.0
 22
0.0
 32
0.0
 14
1.000000000000000E+20
 24
1.000000000000000E+20
 34
1.000000000000000E+20
 15
-1.000000000000000E+20
 25
-1.000000000000000E+20
 35
-1.000000000000000E+20
146
0.0
 13
0.0
 23
0.0
 33
0.0
 16
1.0
 26
0.0
 36
0.0
 17
0.0
 27
1.0
 37
0.0
 76
     0
330
1B
  0
LAYOUT
  5
26
102
{ACAD_XDICTIONARY
360
3ED5
102
}
102
{ACAD_REACTORS
330
1A
102
}
330
1A
100
AcDbPlotSettings
  1

  2

  4

  6

 40
0.0
 41
0.0
 42
0.0
 43
0.0
 44
0.0
 45
0.0
 46
0.0
 47
0.0
 48
0.0
 49
0.0
140
0.0
141
0.0
142
1.0
143
1.0
 70
   688
 72
     0
 73
     0
 74
     5
  7
單色出圖.ctb
 75
    16
147
1.0
148
0.0
149
0.0
100
AcDbLayout
  1
配置2
 70
     1
 71
     2
 10
0.0
 20
0.0
 11
12.0
 21
9.0
 12
0.0
 22
0.0
 32
0.0
 14
0.0
 24
0.0
 34
0.0
 15
0.0
 25
0.0
 35
0.0
146
0.0
 13
0.0
 23
0.0
 33
0.0
 16
1.0
 26
0.0
 36
0.0
 17
0.0
 27
1.0
 37
0.0
 76
     0
330
23
  0
MLINESTYLE
  5
18
102
{ACAD_REACTORS
330
17
102
}
330
17
100
AcDbMlineStyle
  2
STANDARD
 70
     0
  3

 62
   256
 51
90.0
 52
90.0
 71
     2
 49
0.5
 62
   256
  6
BYLAYER
 49
-0.5
 62
   256
  6
BYLAYER
  0
ACDBPLACEHOLDER
  5
F
102
{ACAD_REACTORS
330
E
102
}
330
E
  0
TABLESTYLE
  5
11B
102
{ACAD_REACTORS
330
11A
102
}
330
11A
100
AcDbTableStyle
  3
Standard
 70
     0
 71
     0
 40
1.5
 41
1.5
280
     0
281
     0
  7
STANDARD
140
4.5
170
     2
 62
     0
 63
     7
283
     0
274
    -2
284
     1
 64
     0
275
    -2
285
     1
 65
     0
276
    -2
286
     1
 66
     0
277
    -2
287
     1
 67
     0
278
    -2
288
     1
 68
     0
279
    -2
289
     1
 69
     0
  7
STANDARD
140
6.0
170
     5
 62
     0
 63
     7
283
     0
274
    -2
284
     1
 64
     0
275
    -2
285
     1
 65
     0
276
    -2
286
     1
 66
     0
277
    -2
287
     1
 67
     0
278
    -2
288
     1
 68
     0
279
    -2
289
     1
 69
     0
  7
STANDARD
140
4.5
170
     5
 62
     0
 63
     7
283
     0
274
    -2
284
     1
 64
     0
275
    -2
285
     1
 65
     0
276
    -2
286
     1
 66
     0
277
    -2
287
     1
 67
     0
278
    -2
288
     1
 68
     0
279
    -2
289
     1
 69
     0
  0
DICTIONARYVAR
  5
138
102
{ACAD_REACTORS
330
94
102
}
330
94
100
DictionaryVariables
280
     0
  1
STANDARD
  0
DICTIONARYVAR
  5
96
102
{ACAD_REACTORS
330
94
102
}
330
94
100
DictionaryVariables
280
     0
  1
2
  0
DICTIONARYVAR
  5
95
102
{ACAD_REACTORS
330
94
102
}
330
94
100
DictionaryVariables
280
     0
  1
0
  0
DICTIONARYVAR
  5
1689
102
{ACAD_REACTORS
330
94
102
}
330
94
100
DictionaryVariables
280
     0
  1

  0
DICTIONARY
  5
1B5
102
{ACAD_REACTORS
330
5B
102
}
330
5B
100
AcDbDictionary
281
     1
  0
DICTIONARY
  5
61
102
{ACAD_REACTORS
330
5B
102
}
330
5B
100
AcDbDictionary
281
     1
  0
XRECORD
  5
123
102
{ACAD_REACTORS
330
5B
102
}
330
5B
100
AcDbXrecord
280
     1
 90
-1023410169
  0
DICTIONARY
  5
3ED3
330
22
100
AcDbDictionary
280
     1
281
     1
  3
ACAD_XREC_ROUNDTRIP
360
3ED4
  0
DICTIONARY
  5
3ED1
330
1E
100
AcDbDictionary
280
     1
281
     1
  3
ACAD_XREC_ROUNDTRIP
360
3ED2
  0
DICTIONARY
  5
3ED5
330
26
100
AcDbDictionary
280
     1
281
     1
  3
ACAD_XREC_ROUNDTRIP
360
3ED6
  0
XRECORD
  5
3ED4
102
{ACAD_REACTORS
330
3ED3
102
}
330
3ED3
100
AcDbXrecord
280
     1
102
SHADEPLOT
 70
     0
102
SHADEPLOTRESLEVEL
 70
     2
102
SHADEPLOTCUSTOMDPI
 70
   300
  0
XRECORD
  5
3ED2
102
{ACAD_REACTORS
330
3ED1
102
}
330
3ED1
100
AcDbXrecord
280
     1
102
SHADEPLOT
 70
     0
102
SHADEPLOTRESLEVEL
 70
     2
102
SHADEPLOTCUSTOMDPI
 70
   300
  0
XRECORD
  5
3ED6
102
{ACAD_REACTORS
330
3ED5
102
}
330
3ED5
100
AcDbXrecord
280
     1
102
SHADEPLOT
 70
     0
102
SHADEPLOTRESLEVEL
 70
     2
102
SHADEPLOTCUSTOMDPI
 70
   300
  0
ENDSEC
  0
EOF
