  0
SECTION
  2
HEADER
  9
$ACADVER
  1
AC1009
  9
$INSBASE
 10
0.0
 20
0.0
 30
0.0
  9
$EXTMIN
 10
179.9981999095705
 20
130.19404886893179
 30
-0.0129534764134292
  9
$EXTMAX
 10
509.4359752350378
 20
382.31467302282789
 30
188.73176710498481
  9
$LIMMIN
 10
0.0
 20
0.0
  9
$LIMMAX
 10
420.0
 20
297.0
  9
$ORTHOMODE
 70
     0
  9
$REGENMODE
 70
     1
  9
$FILLMODE
 70
     1
  9
$QTEXTMODE
 70
     0
  9
$MIRRTEXT
 70
     1
  9
$DRAGMODE
 70
     2
  9
$LTSCALE
 40
1.0
  9
$OSMODE
 70
    37
  9
$ATTMODE
 70
     1
  9
$TEXTSIZE
 40
3.0
  9
$TRACEWID
 40
1.0
  9
$TEXTSTYLE
  7
STANDARD
  9
$CLAYER
  8
0
  9
$CELTYPE
  6
BYLAYER
  9
$CECOLOR
 62
   256
  9
$DIMSCALE
 40
1.0
  9
$DIMASZ
 40
3.5
  9
$DIMEXO
 40
1.0
  9
$DIMDLI
 40
8.0
  9
$DIMRND
 40
0.0
  9
$DIMDLE
 40
0.0
  9
$DIMEXE
 40
1.0
  9
$DIMTP
 40
0.1
  9
$DIMTM
 40
0.1
  9
$DIMTXT
 40
3.5
  9
$DIMCEN
 40
0.0
  9
$DIMTSZ
 40
0.0
  9
$DIMTOL
 70
     0
  9
$DIMLIM
 70
     0
  9
$DIMTIH
 70
     0
  9
$DIMTOH
 70
     0
  9
$DIMSE1
 70
     0
  9
$DIMSE2
 70
     0
  9
$DIMTAD
 70
     1
  9
$DIMZIN
 70
     8
  9
$DIMBLK
  1

  9
$DIMASO
 70
     1
  9
$DIMSHO
 70
     1
  9
$DIMPOST
  1

  9
$DIMAPOST
  1
"
  9
$DIMALT
 70
     0
  9
$DIMALTD
 70
     2
  9
$DIMALTF
 40
0.0393701
  9
$DIMLFAC
 40
1.0
  9
$DIMTOFL
 70
     1
  9
$DIMTVP
 40
0.0
  9
$DIMTIX
 70
     0
  9
$DIMSOXD
 70
     0
  9
$DIMSAH
 70
     0
  9
$DIMBLK1
  1

  9
$DIMBLK2
  1

  9
$DIMSTYLE
  2
AM_ISO
  9
$DIMCLRD
 70
   256
  9
$DIMCLRE
 70
   256
  9
$DIMCLRT
 70
   256
  9
$DIMTFAC
 40
0.6
  9
$DIMGAP
 40
1.0
  9
$LUNITS
 70
     2
  9
$LUPREC
 70
     2
  9
$SKETCHINC
 40
1.0
  9
$FILLETRAD
 40
2.5
  9
$AUNITS
 70
     0
  9
$AUPREC
 70
     0
  9
$MENU
  1
.
  9
$ELEVATION
 40
0.0
  9
$PELEVATION
 40
0.0
  9
$THICKNESS
 40
0.0
  9
$LIMCHECK
 70
     0
  9
$BLIPMODE
 70
     0
  9
$CHAMFERA
 40
2.5
  9
$CHAMFERB
 40
2.5
  9
$SKPOLY
 70
     0
  9
$TDCREATE
 40
2454013.6303242482
  9
$TDUPDATE
 40
2454915.6334941089
  9
$TDINDWG
 40
0.0890711921
  9
$TDUSRTIMER
 40
0.0890711921
  9
$USRTIMER
 70
     1
  9
$ANGBASE
 50
0.0
  9
$ANGDIR
 70
     0
  9
$PDMODE
 70
     0
  9
$PDSIZE
 40
0.0
  9
$PLINEWID
 40
0.0
  9
$COORDS
 70
     1
  9
$SPLFRAME
 70
     0
  9
$SPLINETYPE
 70
     6
  9
$SPLINESEGS
 70
     8
  9
$ATTDIA
 70
     1
  9
$ATTREQ
 70
     1
  9
$HANDLING
 70
     1
  9
$HANDSEED
  5
33E2
  9
$SURFTAB1
 70
     6
  9
$SURFTAB2
 70
     6
  9
$SURFTYPE
 70
     6
  9
$SURFU
 70
     6
  9
$SURFV
 70
     6
  9
$UCSNAME
  2

  9
$UCSORG
 10
0.0
 20
0.0
 30
0.0
  9
$UCSXDIR
 10
1.0
 20
0.0
 30
0.0
  9
$UCSYDIR
 10
0.0
 20
1.0
 30
0.0
  9
$PUCSNAME
  2

  9
$PUCSORG
 10
0.0
 20
0.0
 30
0.0
  9
$PUCSXDIR
 10
1.0
 20
0.0
 30
0.0
  9
$PUCSYDIR
 10
0.0
 20
1.0
 30
0.0
  9
$USERI1
 70
     0
  9
$USERI2
 70
     0
  9
$USERI3
 70
     0
  9
$USERI4
 70
     0
  9
$USERI5
 70
     0
  9
$USERR1
 40
0.0
  9
$USERR2
 40
0.0
  9
$USERR3
 40
0.0
  9
$USERR4
 40
0.0
  9
$USERR5
 40
0.0
  9
$WORLDVIEW
 70
     1
  9
$SHADEDGE
 70
     3
  9
$SHADEDIF
 70
    70
  9
$TILEMODE
 70
     1
  9
$MAXACTVP
 70
    64
  9
$PLIMCHECK
 70
     0
  9
$PEXTMIN
 10
1.0000000000000000E+020
 20
1.0000000000000000E+020
 30
1.0000000000000000E+020
  9
$PEXTMAX
 10
-1.0000000000000000E+020
 20
-1.0000000000000000E+020
 30
-1.0000000000000000E+020
  9
$PLIMMIN
 10
0.0
 20
0.0
  9
$PLIMMAX
 10
420.0
 20
297.0
  9
$UNITMODE
 70
     0
  9
$VISRETAIN
 70
     1
  9
$PLINEGEN
 70
     0
  9
$PSLTSCALE
 70
     1
  0
ENDSEC
  0
SECTION
  2
TABLES
  0
TABLE
  2
VPORT
 70
   170
  0
VPORT
  2
*ACTIVE
 70
     0
 10
0.0
 20
0.0
 11
1.0
 21
1.0
 12
344.71708757230419
 22
256.25436094587991
 13
0.0
 23
0.0
 14
2.5
 24
2.5
 15
10.0
 25
10.0
 16
0.0
 26
0.0
 36
1.0
 17
0.0
 27
0.0
 37
0.0
 40
345.29287689630291
 41
0.961892247043364
 42
50.0
 43
0.0
 44
0.0
 50
0.0
 51
0.0
 71
     0
 72
   100
 73
     1
 74
     3
 75
     0
 76
     0
 77
     0
 78
     0
  0
ENDTAB
  0
TABLE
  2
LTYPE
 70
    15
  0
LTYPE
  2
CONTINUOUS
 70
     0
  3
Solid line
 72
    65
 73
     0
 40
0.0
  0
LTYPE
  2
AM_ISO02W050
 70
     0
  3
__ __ __ __ __ __ __ __ __ __ __ __ __ __ __
 72
    65
 73
     2
 40
7.5
 49
6.0
 49
-1.5
  0
LTYPE
  2
AM_ISO08W050
 70
     0
  3
____ . ____ . ____ . ____ . ____ . ____ . ____
 72
    65
 73
     4
 40
18.0
 49
12.0
 49
-1.5
 49
3.0
 49
-1.5
  0
LTYPE
  2
AM_ISO09W050
 70
     0
  3
_____ . . _____ . . _____ . . ____ .. ____
 72
    65
 73
     6
 40
22.5
 49
12.0
 49
-1.5
 49
3.0
 49
-1.5
 49
3.0
 49
-1.5
  0
LTYPE
  2
AMCONSTR
 70
     0
  3
_______________________
 72
    65
 73
     2
 40
9999.0
 49
9999.0
 49
0.0
  0
LTYPE
  2
AM_ISO08W050X2
 70
     0
  3
__ . __ . __ . __ . __ . __
 72
    65
 73
     4
 40
9.0
 49
6.0
 49
-0.75
 49
1.5
 49
-0.75
  0
LTYPE
  2
AM_ISO02W050X2
 70
     0
  3
 _ _ _ _ _ _ _ _ _ _ _ _
 72
    65
 73
     2
 40
3.75
 49
3.0
 49
-0.75
  0
LTYPE
  2
AMZIGZAG
 70
     0
  3
/\/-/\/-/\/-/\/-/\/-/\/
 72
    65
 73
     2
 40
11.0001
 49
0.0001
 49
-11.0
  0
LTYPE
  2
ACISOWELD
 70
     0
  3
_ _ _ _ _
 72
    65
 73
     2
 40
2.0
 49
2.0
 49
-1.0
  0
LTYPE
  2
ACISOTGB
 70
     0
  3
__ . . __ . .
 72
    65
 73
     6
 40
9.0
 49
4.0
 49
-1.0
 49
1.0
 49
-1.0
 49
1.0
 49
-1.0
  0
LTYPE
  2
ACISOTGL
 70
     0
  3
_ _ _ _ _
 72
    65
 73
     2
 40
3.0
 49
2.0
 49
-1.0
  0
LTYPE
  2
CENTER
 70
     0
  3
__ . __
 72
    65
 73
     4
 40
7.0
 49
4.0
 49
-1.0
 49
1.0
 49
-1.0
  0
LTYPE
  2
HIDDEN
 70
     0
  3
Hidden __ __ __ __ __ __ __ __ __ __ __ __ __ _
 72
    65
 73
     2
 40
9.5249999999999986
 49
6.3499999999999988
 49
-3.1749999999999989
  0
LTYPE
  2
PHANTOM2
 70
     0
  3
Phantom (.5x) ___ _ _ ___ _ _ ___ _ _ ___ _ _
 72
    65
 73
     6
 40
31.75
 49
15.875
 49
-3.1749999999999989
 49
3.1749999999999989
 49
-3.1749999999999989
 49
3.1749999999999989
 49
-3.1749999999999989
  0
LTYPE
  2
HIDDEN2
 70
     0
  3
Hidden (.5x) _ _ _ _ _ _ _ _ _ _ _ _ _ _ _ _ _
 72
    65
 73
     2
 40
0.1875
 49
0.125
 49
-0.0625
  0
ENDTAB
  0
TABLE
  2
LAYER
 70
    10
  0
LAYER
  2
0
 70
     0
 62
     7
  6
CONTINUOUS
  0
LAYER
  2
DEFPOINTS
 70
     0
 62
     7
  6
CONTINUOUS
  0
LAYER
  2
AM_7
 70
     0
 62
     1
  6
CENTER
  0
LAYER
  2
AM_VIS
 70
     0
 62
     7
  6
CONTINUOUS
  0
LAYER
  2
AM_5
 70
     0
 62
     5
  6
CONTINUOUS
  0
LAYER
  2
LOGO
 70
     0
 62
     7
  6
CONTINUOUS
  0
LAYER
  2
SL
 70
     0
 62
     4
  6
CONTINUOUS
  0
LAYER
  2
AM_4
 70
     0
 62
     3
  6
CONTINUOUS
  0
ENDTAB
  0
TABLE
  2
STYLE
 70
     7
  0
STYLE
  2
STANDARD
 70
     0
 40
0.0
 41
1.0
 50
0.0
 71
     0
 42
3.0
  3
ISOCP.SHX
  4
CHINESET.SHX
  0
STYLE
  2

 70
     1
 40
0.0
 41
1.0
 50
0.0
 71
     0
 42
2.5
  3
ltypeshp.shx
  4

  0
STYLE
  2
ACISOTS
 70
     0
 40
1.0
 41
1.0
 50
0.0
 71
     0
 42
1.0
  3
isocp.shx
  4
chineset.shx
  0
STYLE
  2
ACISOGDT
 70
     0
 40
0.0
 41
1.0
 50
0.0
 71
     0
 42
2.5
  3
amgdt.shx
  4
chineset.shx
  0
STYLE
  2
CHINESET
 70
     0
 40
0.0
 41
1.0
 50
0.0
 71
     0
 42
3.0
  3
simplex.shx
  4
CHINESET.SHX
  0
STYLE
  2
DAYUS
 70
     0
 40
0.0
 41
1.0
 50
0.0
 71
     0
 42
2.3100000000000001
  3
simplex.shx
  4
dayus.shx
  0
ENDTAB
  0
TABLE
  2
VIEW
 70
     0
  0
ENDTAB
  0
TABLE
  2
UCS
 70
     0
  0
ENDTAB
  0
TABLE
  2
APPID
 70
    27
  0
APPID
  2
ACAD
 70
     0
  0
APPID
  2
MCAD_NO_VIS
 70
     0
  0
APPID
  2
ACAD_TEMP_GRAPHIC
 70
     0
  0
APPID
  2
ACATTRIBSERVICES
 70
     0
  0
APPID
  2
AD_DRAW
 70
     0
  0
APPID
  2
DESIGNERASSEMBLIES
 70
     0
  0
APPID
  2
ACADM_DIM_EDIT
 70
     0
  0
APPID
  2
AMDT_DM_ADJ
 70
     0
  0
APPID
  2
ACAD_DSTYLE_DIMTEXT_FILL
 70
     0
  0
APPID
  2
GENIUS_GENOENT_13
 70
     0
  0
APPID
  2
GENIUS_GENOBJ-N-CRS_13
 70
     0
  0
APPID
  2
GENIUS_GENOLIS_13
 70
     0
  0
APPID
  2
GENIUS_GENODEF_13
 70
     0
  0
APPID
  2
GENIUS_GENOREF_13
 70
     0
  0
APPID
  2
ACAD_PSEXT
 70
     0
  0
APPID
  2
GENIUS_GENDTOL_13
 70
     0
  0
APPID
  2
GENIUS_GENREC_14
 70
     0
  0
APPID
  2
GENIUS_GENOBJ-N-REC_13
 70
     0
  0
APPID
  2
ACAECLAYERSTANDARD
 70
     0
  0
APPID
  2
GENIUS_GENOBJ-N-CEN_13
 70
     0
  0
APPID
  2
GENIUS_GENCEN_19
 70
     0
  0
APPID
  2
GEVID1159932960
 70
     0
  0
APPID
  2
GEVDC
 70
     0
  0
APPID
  2
AMG_2DHIDE
 70
     0
  0
APPID
  2
AMG_2DSTRUCT_BTR
 70
     0
  0
APPID
  2
ACADM_2DVIEW_IGN_NOTIFY
 70
     0
  0
APPID
  2
GENIUS_GENDIMSH_14
 70
     0
  0
ENDTAB
  0
TABLE
  2
DIMSTYLE
 70
    13
  0
DIMSTYLE
  2
AM_ISO
 70
     0
  3

  4
"
  5

  6

  7

 40
1.0
 41
3.5
 42
1.0
 43
8.0
 44
1.0
 45
0.0
 46
0.0
 47
0.1
 48
0.1
140
3.5
141
0.0
142
0.0
143
0.0393701
144
1.0
145
0.0
146
0.6
147
1.0
 71
     0
 72
     0
 73
     0
 74
     0
 75
     0
 76
     0
 77
     1
 78
     8
170
     0
171
     2
172
     1
173
     0
174
     0
175
     0
176
   256
177
   256
178
   256
  0
DIMSTYLE
  2
AM_ISO$3
 70
     0
  3

  4
"
  5

  6

  7

 40
1.0
 41
3.5
 42
1.0
 43
8.0
 44
1.0
 45
0.0
 46
0.0
 47
0.1
 48
0.1
140
3.5
141
0.0
142
0.0
143
0.0393701
144
1.0
145
0.0
146
0.6
147
1.0
 71
     0
 72
     0
 73
     0
 74
     1
 75
     0
 76
     0
 77
     1
 78
     8
170
     0
171
     2
172
     0
173
     0
174
     0
175
     0
176
   256
177
   256
178
   256
  0
DIMSTYLE
  2
AM_ISO$4
 70
     0
  3

  4
"
  5

  6

  7

 40
1.0
 41
3.5
 42
1.0
 43
8.0
 44
1.0
 45
0.0
 46
0.0
 47
0.1
 48
0.1
140
3.5
141
0.0
142
0.0
143
0.0393701
144
1.0
145
0.0
146
0.6
147
1.0
 71
     0
 72
     0
 73
     0
 74
     1
 75
     0
 76
     0
 77
     1
 78
     8
170
     0
171
     2
172
     0
173
     0
174
     0
175
     0
176
   256
177
   256
178
   256
  0
DIMSTYLE
  2
AM_ISO$6
 70
     0
  3

  4
"
  5

  6

  7

 40
1.0
 41
3.5
 42
1.0
 43
8.0
 44
1.0
 45
0.0
 46
0.0
 47
0.1
 48
0.1
140
3.5
141
0.0
142
0.0
143
0.0393701
144
1.0
145
0.0
146
0.6
147
1.0
 71
     0
 72
     0
 73
     0
 74
     0
 75
     0
 76
     0
 77
     0
 78
     8
170
     0
171
     2
172
     1
173
     0
174
     0
175
     0
176
   256
177
   256
178
   256
  0
DIMSTYLE
  2
AM_ISO$7
 70
     0
  3

  4
"
  5

  6

  7

 40
1.0
 41
3.5
 42
1.0
 43
8.0
 44
1.0
 45
0.0
 46
0.0
 47
0.1
 48
0.1
140
5.0
141
0.0
142
0.0
143
0.0393701
144
1.0
145
0.0
146
0.6
147
1.0
 71
     0
 72
     0
 73
     0
 74
     0
 75
     0
 76
     0
 77
     1
 78
     8
170
     0
171
     2
172
     1
173
     0
174
     0
175
     0
176
   256
177
   256
178
   256
  0
DIMSTYLE
  2
AM_ISO$SF
 70
     0
  3

  4
"
  5

  6

  7

 40
1.0
 41
2.5
 42
1.0
 43
10.0
 44
1.0
 45
0.0
 46
0.0
 47
0.1
 48
0.1
140
3.5
141
0.0
142
0.0
143
0.0393701
144
1.0
145
0.0
146
0.71
147
1.5
 71
     0
 72
     0
 73
     0
 74
     0
 75
     1
 76
     1
 77
     1
 78
     8
170
     0
171
     2
172
     1
173
     0
174
     0
175
     0
176
   256
177
   256
178
     2
  0
DIMSTYLE
  2
AM_ISO$SH
 70
     0
  3

  4
"
  5

  6
GENAXEH
  7

 40
1.0
 41
2.5
 42
1.0
 43
10.0
 44
1.0
 45
0.0
 46
0.0
 47
0.1
 48
0.1
140
3.5
141
0.0
142
0.0
143
0.0393701
144
2.0
145
0.0
146
0.71
147
1.5
 71
     0
 72
     0
 73
     0
 74
     0
 75
     1
 76
     1
 77
     1
 78
     8
170
     0
171
     2
172
     1
173
     1
174
     0
175
     0
176
   256
177
   256
178
     2
  0
DIMSTYLE
  2
AM_ISO$0
 70
     0
  3

  4
"
  5

  6

  7

 40
1.0
 41
3.5
 42
1.0
 43
8.0
 44
1.0
 45
0.0
 46
0.0
 47
0.1
 48
0.1
140
3.5
141
0.0
142
0.0
143
0.0393701
144
1.0
145
0.0
146
0.6
147
1.0
 71
     0
 72
     0
 73
     0
 74
     0
 75
     0
 76
     0
 77
     1
 78
     8
170
     0
171
     2
172
     1
173
     0
174
     0
175
     0
176
   256
177
   256
178
   256
  0
DIMSTYLE
  2
AM_ANSI
 70
     0
  3

  4
"
  5

  6

  7

 40
0.7692307692307692
 41
3.0
 42
1.5
 43
5.7142799999999996
 44
2.0
 45
0.0
 46
0.0
 47
0.1
 48
0.1
140
3.0
141
0.0
142
0.0
143
0.0393701
144
1.0
145
0.0
146
0.6
147
0.8
 71
     0
 72
     0
 73
     0
 74
     0
 75
     0
 76
     0
 77
     3
 78
     8
170
     0
171
     2
172
     1
173
     0
174
     0
175
     0
176
   256
177
   256
178
   256
  0
DIMSTYLE
  2
AM_ANSI$3
 70
     0
  3

  4
"
  5

  6

  7

 40
0.7692307692307692
 41
3.0
 42
1.5
 43
5.7142799999999996
 44
2.0
 45
0.0
 46
0.0
 47
0.1
 48
0.1
140
3.0
141
0.0
142
0.0
143
0.0393701
144
1.0
145
0.0
146
0.6
147
0.8
 71
     0
 72
     0
 73
     0
 74
     0
 75
     0
 76
     0
 77
     3
 78
     8
170
     0
171
     2
172
     1
173
     0
174
     0
175
     0
176
   256
177
   256
178
   256
  0
ENDTAB
  0
ENDSEC
  0
SECTION
  2
BLOCKS
  0
BLOCK
  8
0
  2
$MODEL_SPACE
 70
     0
 10
0.0
 20
0.0
 30
0.0
  3
$MODEL_SPACE
  1

  0
ENDBLK
  5
21
  8
0
  0
BLOCK
 67
     1
  8
0
  2
$PAPER_SPACE
 70
     0
 10
0.0
 20
0.0
 30
0.0
  3
$PAPER_SPACE
  1

  0
ENDBLK
  5
1D
 67
     1
  8
0
  0
BLOCK
  8
0
  2
GENAXEH
 70
     0
 10
0.0
 20
0.0
 30
0.0
  3
GENAXEH
  1

  0
LINE
  5
88
  8
0
 10
-1.0
 20
0.0
 30
0.0
 11
1.0
 21
0.0
 31
0.0
  0
ENDBLK
  5
8A
  8
0
  0
BLOCK
  8
0
  2
A$C6EA13D03
 70
     0
 10
0.0
 20
0.0
 30
0.0
  3
A$C6EA13D03
  1

  0
CIRCLE
  5
ABC
  8
0
 10
-1.6787168025275601
 20
1.5537358360913911
 30
0.0
 40
0.5114189482687835
  0
CIRCLE
  5
ABD
  8
0
 10
-1.6787168025275601
 20
1.5537358360913911
 30
0.0
 40
0.8573095028873468
  0
ENDBLK
  5
ABE
  8
0
  0
BLOCK
  8
0
  2
A$C117B347F
 70
     0
 10
0.0
 20
0.0
 30
0.0
  3
A$C117B347F
  1

  0
LINE
  5
221A
  8
SL
 10
9.5323901535774667
 20
0.4838234405690401
 30
0.0
 11
3.7709946545206772
 21
0.4838234405690401
 31
0.0
  0
LINE
  5
221B
  8
SL
 10
3.7709946545206772
 20
0.4838234405690401
 30
0.0
 11
-0.000000055813473
 21
0.4838234405690401
 31
0.0
  0
TRACE
  5
221C
  8
SL
 10
7.6377222414751591
 20
0.9676463670439829
 30
0.0
 11
7.6377222414751591
 21
0.0000005140940971
 31
0.0
 12
11.31272224147477
 22
0.4838234405690401
 32
0.0
 13
11.31272224147477
 23
0.4838234405690401
 33
0.0
  0
INSERT
  5
221D
  8
0
  2
*U113
 10
0.0
 20
0.0
 30
0.0
  0
ENDBLK
  5
2221
  8
0
  0
BLOCK
  8
0
  2
*D50
 70
     1
 10
0.0
 20
0.0
 30
0.0
  3
*D50
  1

  0
LINE
  5
3001
  8
AM_5
 10
299.1688784506614
 20
245.6232114092721
 30
0.0
 11
299.1688784506614
 21
218.37321140927219
 31
0.0
  0
LINE
  5
3002
  8
AM_5
 10
289.1688784506614
 20
230.3732114092721
 30
0.0
 11
289.1688784506614
 21
218.37321140927219
 31
0.0
  0
LINE
  5
3003
  8
AM_5
 10
295.6688784506614
 20
219.37321140927219
 30
0.0
 11
292.6688784506614
 21
219.37321140927219
 31
0.0
  0
SOLID
  5
3004
  8
AM_5
 10
295.6688784506614
 20
219.9565447426055
 30
0.0
 11
295.6688784506614
 21
218.78987807593879
 31
0.0
 12
299.1688784506614
 22
219.37321140927219
 32
0.0
 13
299.1688784506614
 23
219.37321140927219
 33
0.0
  0
SOLID
  5
3005
  8
AM_5
 10
292.6688784506614
 20
219.9565447426055
 30
0.0
 11
292.6688784506614
 21
218.78987807593879
 31
0.0
 12
289.1688784506614
 22
219.37321140927219
 32
0.0
 13
289.1688784506614
 23
219.37321140927219
 33
0.0
  0
INSERT
  5
3006
  8
0
  2
*U167
 10
0.0
 20
0.0
 30
0.0
  0
POINT
  5
3007
  8
DEFPOINTS
 62
     0
 10
299.1688784506614
 20
246.6232114092721
 30
0.0
  0
POINT
  5
3008
  8
DEFPOINTS
 62
     0
 10
289.1688784506614
 20
231.3732114092721
 30
0.0
  0
POINT
  5
3009
  8
DEFPOINTS
 62
     0
 10
289.1688784506614
 20
219.37321140927219
 30
0.0
  0
ENDBLK
  5
2795
  8
0
  0
BLOCK
  8
0
  2
*D51
 70
     1
 10
0.0
 20
0.0
 30
0.0
  3
*D51
  1

  0
LINE
  5
300A
  8
AM_5
 10
299.1688784506614
 20
245.6232114092721
 30
0.0
 11
299.1688784506614
 21
218.37321140927219
 31
0.0
  0
LINE
  5
300B
  8
AM_5
 10
345.1688784506614
 20
245.62321140927199
 30
0.0
 11
345.1688784506614
 21
218.37321140927219
 31
0.0
  0
LINE
  5
300C
  8
AM_5
 10
302.6688784506614
 20
219.37321140927219
 30
0.0
 11
341.6688784506614
 21
219.37321140927219
 31
0.0
  0
SOLID
  5
300D
  8
AM_5
 10
302.6688784506614
 20
219.9565447426055
 30
0.0
 11
302.6688784506614
 21
218.78987807593879
 31
0.0
 12
299.1688784506614
 22
219.37321140927219
 32
0.0
 13
299.1688784506614
 23
219.37321140927219
 33
0.0
  0
SOLID
  5
300E
  8
AM_5
 10
341.6688784506614
 20
219.9565447426055
 30
0.0
 11
341.6688784506614
 21
218.78987807593879
 31
0.0
 12
345.1688784506614
 22
219.37321140927219
 32
0.0
 13
345.1688784506614
 23
219.37321140927219
 33
0.0
  0
INSERT
  5
300F
  8
0
  2
*U168
 10
0.0
 20
0.0
 30
0.0
  0
POINT
  5
3010
  8
DEFPOINTS
 62
     0
 10
299.1688784506614
 20
246.6232114092721
 30
0.0
  0
POINT
  5
3011
  8
DEFPOINTS
 62
     0
 10
345.1688784506614
 20
246.62321140927199
 30
0.0
  0
POINT
  5
3012
  8
DEFPOINTS
 62
     0
 10
345.1688784506614
 20
219.37321140927219
 30
0.0
  0
ENDBLK
  5
27A1
  8
0
  0
BLOCK
  8
0
  2
*D54
 70
     1
 10
0.0
 20
0.0
 30
0.0
  3
*D54
  1

  0
LINE
  5
3013
  8
AM_5
 10
289.1688784506614
 20
230.3732114092721
 30
0.0
 11
289.1688784506614
 21
210.37321140927219
 31
0.0
  0
LINE
  5
3014
  8
AM_5
 10
355.1688784506614
 20
230.3732114092721
 30
0.0
 11
355.1688784506614
 21
210.37321140927219
 31
0.0
  0
LINE
  5
3015
  8
AM_5
 10
292.6688784506614
 20
211.37321140927219
 30
0.0
 11
351.6688784506614
 21
211.37321140927219
 31
0.0
  0
SOLID
  5
3016
  8
AM_5
 10
292.6688784506614
 20
211.9565447426055
 30
0.0
 11
292.6688784506614
 21
210.78987807593879
 31
0.0
 12
289.1688784506614
 22
211.37321140927219
 32
0.0
 13
289.1688784506614
 23
211.37321140927219
 33
0.0
  0
SOLID
  5
3017
  8
AM_5
 10
351.6688784506614
 20
211.9565447426055
 30
0.0
 11
351.6688784506614
 21
210.78987807593879
 31
0.0
 12
355.1688784506614
 22
211.37321140927219
 32
0.0
 13
355.1688784506614
 23
211.37321140927219
 33
0.0
  0
INSERT
  5
3018
  8
0
  2
*U169
 10
0.0
 20
0.0
 30
0.0
  0
POINT
  5
3019
  8
DEFPOINTS
 62
     0
 10
289.1688784506614
 20
231.3732114092721
 30
0.0
  0
POINT
  5
301A
  8
DEFPOINTS
 62
     0
 10
355.1688784506614
 20
231.3732114092721
 30
0.0
  0
POINT
  5
301B
  8
DEFPOINTS
 62
     0
 10
355.1688784506614
 20
211.37321140927219
 30
0.0
  0
ENDBLK
  5
27C5
  8
0
  0
BLOCK
  8
0
  2
*D56
 70
     1
 10
0.0
 20
0.0
 30
0.0
  3
*D56
  1

  0
LINE
  5
301C
  8
AM_5
 10
350.4188784506614
 20
271.87321140927202
 30
0.0
 11
368.25438395749529
 21
271.87321140927202
 31
0.0
  0
LINE
  5
301D
  8
AM_5
 10
350.4188784506614
 20
250.87321140927199
 30
0.0
 11
368.25438395749529
 21
250.87321140927199
 31
0.0
  0
LINE
  5
301E
  8
AM_5
 10
367.25438395749529
 20
268.37321140927202
 30
0.0
 11
367.25438395749529
 21
254.37321140927199
 31
0.0
  0
SOLID
  5
301F
  8
AM_5
 10
366.67105062416198
 20
268.37321140927202
 30
0.0
 11
367.83771729082861
 21
268.37321140927202
 31
0.0
 12
367.25438395749529
 22
271.87321140927202
 32
0.0
 13
367.25438395749529
 23
271.87321140927202
 33
0.0
  0
SOLID
  5
3020
  8
AM_5
 10
366.67105062416198
 20
254.37321140927199
 30
0.0
 11
367.83771729082861
 21
254.37321140927199
 31
0.0
 12
367.25438395749529
 22
250.87321140927199
 32
0.0
 13
367.25438395749529
 23
250.87321140927199
 33
0.0
  0
INSERT
  5
3021
  8
0
  2
*U170
 10
0.0
 20
0.0
 30
0.0
  0
POINT
  5
3022
  8
DEFPOINTS
 62
     0
 10
349.4188784506614
 20
271.87321140927202
 30
0.0
  0
POINT
  5
3023
  8
DEFPOINTS
 62
     0
 10
349.4188784506614
 20
250.87321140927199
 30
0.0
  0
POINT
  5
3024
  8
DEFPOINTS
 62
     0
 10
367.25438395749529
 20
250.87321140927199
 30
0.0
  0
ENDBLK
  5
27DD
  8
0
  0
BLOCK
  8
0
  2
*D57
 70
     1
 10
0.0
 20
0.0
 30
0.0
  3
*D57
  1

  0
LINE
  5
3317
  8
AM_5
 10
385.0796658792309
 20
233.69820731058269
 30
0.0
 11
361.40796258252641
 21
233.69820731058269
 31
0.0
  0
LINE
  5
3318
  8
AM_5
 10
361.40796258252641
 20
233.69820731058269
 30
0.0
 11
348.30015641579189
 21
247.5614660270478
 31
0.0
  0
TEXT
  8
AM_5
  40
2.30769
  5
33E1
  72
0
  71
0
 10
368.936
 20
231.383
 30
0.000000
  1
2×2-?4.5貫通
  7
DAYUS
  0
SOLID
  5
331A
  8
AM_5
 10
348.57962859994581
 20
247.82570889330341
 30
0.0
 11
348.02068423163797
 21
247.29722316079199
 31
0.0
 12
346.71469921825729
 22
249.23829913197139
 32
0.0
 13
346.71469921825729
 23
249.23829913197139
 33
0.0
  0
POINT
  5
331B
  8
DEFPOINTS
 62
     0
 10
346.71469921825729
 20
249.23829913197139
 30
0.0
  0
POINT
  5
331C
  8
DEFPOINTS
 62
     0
 10
343.62305768306499
 20
252.5081236865725
 30
0.0
  0
ENDBLK
  5
27E9
  8
0
  0
BLOCK
  8
0
  2
*D64
 70
     1
 10
0.0
 20
0.0
 30
0.0
  3
*D64
  1

  0
LINE
  5
302B
  8
AM_5
 10
286.28620486708883
 20
261.37321140927207
 30
0.0
 11
280.92426129476598
 21
261.37321140927207
 31
0.0
  0
LINE
  5
302C
  8
AM_5
 10
314.75787845066139
 20
282.37321140927207
 30
0.0
 11
280.92426129476598
 21
282.37321140927207
 31
0.0
  0
LINE
  5
302D
  8
AM_5
 10
281.92426129476598
 20
264.87321140927207
 30
0.0
 11
281.92426129476598
 21
278.87321140927207
 31
0.0
  0
SOLID
  5
302E
  8
AM_5
 10
281.34092796143273
 20
264.87321140927207
 30
0.0
 11
282.5075946280993
 21
264.87321140927207
 31
0.0
 12
281.92426129476598
 22
261.37321140927207
 32
0.0
 13
281.92426129476598
 23
261.37321140927207
 33
0.0
  0
SOLID
  5
302F
  8
AM_5
 10
281.34092796143273
 20
278.87321140927207
 30
0.0
 11
282.5075946280993
 21
278.87321140927207
 31
0.0
 12
281.92426129476598
 22
282.37321140927207
 32
0.0
 13
281.92426129476598
 23
282.37321140927207
 33
0.0
  0
INSERT
  5
3030
  8
0
  2
*U171
 10
0.0
 20
0.0
 30
0.0
  0
POINT
  5
3031
  8
DEFPOINTS
 62
     0
 10
287.28620486708883
 20
261.37321140927207
 30
0.0
  0
POINT
  5
3032
  8
DEFPOINTS
 62
     0
 10
315.75787845066128
 20
282.37321140927207
 30
0.0
  0
POINT
  5
3033
  8
DEFPOINTS
 62
     0
 10
281.92426129476598
 20
282.37321140927207
 30
0.0
  0
ENDBLK
  5
283F
  8
0
  0
BLOCK
  8
0
  2
*D65
 70
     1
 10
0.0
 20
0.0
 30
0.0
  3
*D65
  1

  0
LINE
  5
3034
  8
AM_5
 10
286.28620486708883
 20
261.37321140927207
 30
0.0
 11
280.92426129476598
 21
261.37321140927207
 31
0.0
  0
LINE
  5
3035
  8
AM_5
 10
301.15787845066143
 20
240.3732114092721
 30
0.0
 11
280.92426129476598
 21
240.3732114092721
 31
0.0
  0
LINE
  5
3036
  8
AM_5
 10
281.92426129476598
 20
257.87321140927207
 30
0.0
 11
281.92426129476598
 21
243.8732114092721
 31
0.0
  0
SOLID
  5
3037
  8
AM_5
 10
281.34092796143273
 20
257.87321140927207
 30
0.0
 11
282.5075946280993
 21
257.87321140927207
 31
0.0
 12
281.92426129476598
 22
261.37321140927207
 32
0.0
 13
281.92426129476598
 23
261.37321140927207
 33
0.0
  0
SOLID
  5
3038
  8
AM_5
 10
281.34092796143273
 20
243.8732114092721
 30
0.0
 11
282.5075946280993
 21
243.8732114092721
 31
0.0
 12
281.92426129476598
 22
240.3732114092721
 32
0.0
 13
281.92426129476598
 23
240.3732114092721
 33
0.0
  0
INSERT
  5
3039
  8
0
  2
*U172
 10
0.0
 20
0.0
 30
0.0
  0
POINT
  5
303A
  8
DEFPOINTS
 62
     0
 10
287.28620486708883
 20
261.37321140927207
 30
0.0
  0
POINT
  5
303B
  8
DEFPOINTS
 62
     0
 10
302.15787845066143
 20
240.3732114092721
 30
0.0
  0
POINT
  5
303C
  8
DEFPOINTS
 62
     0
 10
281.92426129476598
 20
240.3732114092721
 30
0.0
  0
ENDBLK
  5
284B
  8
0
  0
BLOCK
  8
0
  2
*D70
 70
     1
 10
0.0
 20
0.0
 30
0.0
  3
*D70
  1

  0
LINE
  5
303D
  8
AM_5
 10
240.66586252130179
 20
230.6732114092722
 30
0.0
 11
240.66586252130179
 21
210.37321140927219
 31
0.0
  0
LINE
  5
303E
  8
AM_5
 10
257.16586252130179
 20
248.87321140927219
 30
0.0
 11
257.16586252130179
 21
210.37321140927219
 31
0.0
  0
LINE
  5
303F
  8
AM_5
 10
244.1658625213019
 20
211.37321140927219
 30
0.0
 11
253.66586252130179
 21
211.37321140927219
 31
0.0
  0
SOLID
  5
3040
  8
AM_5
 10
244.1658625213019
 20
211.9565447426055
 30
0.0
 11
244.1658625213019
 21
210.78987807593879
 31
0.0
 12
240.66586252130179
 22
211.37321140927219
 32
0.0
 13
240.66586252130179
 23
211.37321140927219
 33
0.0
  0
SOLID
  5
3041
  8
AM_5
 10
253.66586252130179
 20
211.9565447426055
 30
0.0
 11
253.66586252130179
 21
210.78987807593879
 31
0.0
 12
257.16586252130179
 22
211.37321140927219
 32
0.0
 13
257.16586252130179
 23
211.37321140927219
 33
0.0
  0
INSERT
  5
3042
  8
0
  2
*U173
 10
0.0
 20
0.0
 30
0.0
  0
POINT
  5
3043
  8
DEFPOINTS
 62
     0
 10
240.66586252130179
 20
231.6732114092722
 30
0.0
  0
POINT
  5
3044
  8
DEFPOINTS
 62
     0
 10
257.16586252130179
 20
249.87321140927219
 30
0.0
  0
POINT
  5
3045
  8
DEFPOINTS
 62
     0
 10
257.16586252130179
 20
211.37321140927219
 30
0.0
  0
ENDBLK
  5
2887
  8
0
  0
BLOCK
  8
0
  2
*D71
 70
     1
 10
0.0
 20
0.0
 30
0.0
  3
*D71
  1

  0
LINE
  5
3046
  8
AM_5
 10
240.66586252130179
 20
230.6732114092722
 30
0.0
 11
240.66586252130179
 21
202.37321140927219
 31
0.0
  0
LINE
  5
3047
  8
AM_5
 10
266.6658625213019
 20
231.37321140927219
 30
0.0
 11
266.6658625213019
 21
202.37321140927219
 31
0.0
  0
LINE
  5
3048
  8
AM_5
 10
244.1658625213019
 20
203.37321140927219
 30
0.0
 11
263.16586252130179
 21
203.37321140927219
 31
0.0
  0
SOLID
  5
3049
  8
AM_5
 10
244.1658625213019
 20
203.9565447426055
 30
0.0
 11
244.1658625213019
 21
202.7898780759389
 31
0.0
 12
240.66586252130179
 22
203.37321140927219
 32
0.0
 13
240.66586252130179
 23
203.37321140927219
 33
0.0
  0
SOLID
  5
304A
  8
AM_5
 10
263.16586252130179
 20
203.9565447426055
 30
0.0
 11
263.16586252130179
 21
202.7898780759389
 31
0.0
 12
266.6658625213019
 22
203.37321140927219
 32
0.0
 13
266.6658625213019
 23
203.37321140927219
 33
0.0
  0
INSERT
  5
304B
  8
0
  2
*U174
 10
0.0
 20
0.0
 30
0.0
  0
POINT
  5
304C
  8
DEFPOINTS
 62
     0
 10
240.66586252130179
 20
231.6732114092722
 30
0.0
  0
POINT
  5
304D
  8
DEFPOINTS
 62
     0
 10
266.6658625213019
 20
232.37321140927219
 30
0.0
  0
POINT
  5
304E
  8
DEFPOINTS
 62
     0
 10
266.6658625213019
 20
203.37321140927219
 30
0.0
  0
ENDBLK
  5
2893
  8
0
  0
BLOCK
  8
0
  2
*D73
 70
     1
 10
0.0
 20
0.0
 30
0.0
  3
*D73
  1

  0
LINE
  5
304F
  8
AM_5
 10
244.66586252130179
 20
261.37321140927219
 30
0.0
 11
232.95594714225149
 21
261.37321140927219
 31
0.0
  0
LINE
  5
3050
  8
AM_5
 10
239.6658625213019
 20
282.37321140927219
 30
0.0
 11
232.95594714225149
 21
282.37321140927219
 31
0.0
  0
LINE
  5
3051
  8
AM_5
 10
233.95594714225149
 20
264.8732114092723
 30
0.0
 11
233.95594714225149
 21
278.87321140927219
 31
0.0
  0
SOLID
  5
3052
  8
AM_5
 10
233.37261380891809
 20
264.8732114092723
 30
0.0
 11
234.5392804755848
 21
264.8732114092723
 31
0.0
 12
233.95594714225149
 22
261.37321140927219
 32
0.0
 13
233.95594714225149
 23
261.37321140927219
 33
0.0
  0
SOLID
  5
3053
  8
AM_5
 10
233.37261380891809
 20
278.87321140927219
 30
0.0
 11
234.5392804755848
 21
278.87321140927219
 31
0.0
 12
233.95594714225149
 22
282.37321140927219
 32
0.0
 13
233.95594714225149
 23
282.37321140927219
 33
0.0
  0
INSERT
  5
3054
  8
0
  2
*U175
 10
0.0
 20
0.0
 30
0.0
  0
POINT
  5
3055
  8
DEFPOINTS
 62
     0
 10
245.6658625213019
 20
261.37321140927219
 30
0.0
  0
POINT
  5
3056
  8
DEFPOINTS
 62
     0
 10
240.66586252130179
 20
282.37321140927219
 30
0.0
  0
POINT
  5
3057
  8
DEFPOINTS
 62
     0
 10
233.95594714225149
 20
282.37321140927219
 30
0.0
  0
ENDBLK
  5
28AB
  8
0
  0
BLOCK
  8
0
  2
*D74
 70
     1
 10
0.0
 20
0.0
 30
0.0
  3
*D74
  1

  0
LINE
  5
3058
  8
AM_5
 10
244.66586252130179
 20
261.37321140927219
 30
0.0
 11
232.9559471522515
 21
261.37321140927219
 31
0.0
  0
LINE
  5
3059
  8
AM_5
 10
239.6658625213019
 20
240.3732114092723
 30
0.0
 11
232.9559471522515
 21
240.3732114092723
 31
0.0
  0
LINE
  5
305A
  8
AM_5
 10
233.9559471522515
 20
257.87321140927219
 30
0.0
 11
233.9559471522515
 21
243.87321140927219
 31
0.0
  0
SOLID
  5
305B
  8
AM_5
 10
233.3726138189181
 20
257.87321140927219
 30
0.0
 11
234.5392804855849
 21
257.87321140927219
 31
0.0
 12
233.9559471522515
 22
261.37321140927219
 32
0.0
 13
233.9559471522515
 23
261.37321140927219
 33
0.0
  0
SOLID
  5
305C
  8
AM_5
 10
233.3726138189181
 20
243.87321140927219
 30
0.0
 11
234.5392804855849
 21
243.87321140927219
 31
0.0
 12
233.9559471522515
 22
240.3732114092723
 32
0.0
 13
233.9559471522515
 23
240.3732114092723
 33
0.0
  0
INSERT
  5
305D
  8
0
  2
*U176
 10
0.0
 20
0.0
 30
0.0
  0
POINT
  5
305E
  8
DEFPOINTS
 62
     0
 10
245.6658625213019
 20
261.37321140927219
 30
0.0
  0
POINT
  5
305F
  8
DEFPOINTS
 62
     0
 10
240.66586252130179
 20
240.3732114092723
 30
0.0
  0
POINT
  5
3060
  8
DEFPOINTS
 62
     0
 10
233.9559471522515
 20
240.3732114092723
 30
0.0
  0
ENDBLK
  5
28B7
  8
0
  0
BLOCK
  8
0
  2
*D75
 70
     1
 10
0.0
 20
0.0
 30
0.0
  3
*D75
  1

  0
LINE
  5
3061
  8
AM_5
 10
239.96586252130189
 20
291.37321140927219
 30
0.0
 11
225.38335110239879
 21
291.37321140927219
 31
0.0
  0
LINE
  5
3062
  8
AM_5
 10
239.96586252130189
 20
231.37321140927219
 30
0.0
 11
225.38335110239879
 21
231.37321140927219
 31
0.0
  0
LINE
  5
3063
  8
AM_5
 10
226.38335110239879
 20
287.8732114092723
 30
0.0
 11
226.38335110239879
 21
234.87321140927219
 31
0.0
  0
SOLID
  5
3064
  8
AM_5
 10
225.80001776906551
 20
287.8732114092723
 30
0.0
 11
226.96668443573219
 21
287.8732114092723
 31
0.0
 12
226.38335110239879
 22
291.37321140927219
 32
0.0
 13
226.38335110239879
 23
291.37321140927219
 33
0.0
  0
SOLID
  5
3065
  8
AM_5
 10
225.80001776906551
 20
234.87321140927219
 30
0.0
 11
226.96668443573219
 21
234.87321140927219
 31
0.0
 12
226.38335110239879
 22
231.37321140927219
 32
0.0
 13
226.38335110239879
 23
231.37321140927219
 33
0.0
  0
INSERT
  5
3066
  8
0
  2
*U177
 10
0.0
 20
0.0
 30
0.0
  0
POINT
  5
3067
  8
DEFPOINTS
 62
     0
 10
240.96586252130189
 20
291.37321140927219
 30
0.0
  0
POINT
  5
3068
  8
DEFPOINTS
 62
     0
 10
240.96586252130189
 20
231.37321140927219
 30
0.0
  0
POINT
  5
3069
  8
DEFPOINTS
 62
     0
 10
226.38335110239879
 20
231.37321140927219
 30
0.0
  0
ENDBLK
  5
28C3
  8
0
  0
BLOCK
  8
0
  2
*D76
 70
     1
 10
0.0
 20
0.0
 30
0.0
  3
*D76
  1

  0
LINE
  5
306A
  8
AM_5
 10
247.9202650616117
 20
291.51383854641529
 30
0.0
 11
244.17690863033619
 21
299.57315780703368
 31
0.0
  0
LINE
  5
306B
  8
AM_5
 10
244.17690863033619
 20
299.57315780703368
 30
0.0
 11
220.77690863033621
 21
299.57315780703368
 31
0.0
  0
SOLID
  5
306C
  8
AM_5
 10
248.44931526716479
 20
291.75956941094398
 30
0.0
 11
247.3912148560587
 21
291.26810768188659
 31
0.0
 12
249.3946502487841
 22
288.3395373130968
 32
0.0
 13
249.3946502487841
 23
288.3395373130968
 33
0.0
  0
INSERT
  5
306D
  8
0
  2
*U178
 10
0.0
 20
0.0
 30
0.0
  0
POINT
  5
306E
  8
DEFPOINTS
 62
     0
 10
249.3946502487841
 20
288.3395373130968
 30
0.0
  0
POINT
  5
306F
  8
DEFPOINTS
 62
     0
 10
252.1658625213021
 20
282.3732114092723
 30
0.0
  0
ENDBLK
  5
2BE5
  8
0
  0
BLOCK
  8
0
  2
*D77
 70
     1
 10
0.0
 20
0.0
 30
0.0
  3
*D77
  1

  0
LINE
  5
3070
  8
AM_5
 10
240.66586252130179
 20
230.6732114092722
 30
0.0
 11
240.66586252130179
 21
218.37321140927219
 31
0.0
  0
LINE
  5
3071
  8
AM_5
 10
252.1658625213019
 20
227.8732114092723
 30
0.0
 11
252.1658625213019
 21
218.37321140927219
 31
0.0
  0
LINE
  5
3072
  8
AM_5
 10
244.1658625213019
 20
219.37321140927219
 30
0.0
 11
248.66586252130179
 21
219.37321140927219
 31
0.0
  0
SOLID
  5
3073
  8
AM_5
 10
244.1658625213019
 20
219.9565447426055
 30
0.0
 11
244.1658625213019
 21
218.78987807593879
 31
0.0
 12
240.66586252130179
 22
219.37321140927219
 32
0.0
 13
240.66586252130179
 23
219.37321140927219
 33
0.0
  0
SOLID
  5
3074
  8
AM_5
 10
248.66586252130179
 20
219.9565447426055
 30
0.0
 11
248.66586252130179
 21
218.78987807593879
 31
0.0
 12
252.1658625213019
 22
219.37321140927219
 32
0.0
 13
252.1658625213019
 23
219.37321140927219
 33
0.0
  0
INSERT
  5
3075
  8
0
  2
*U179
 10
0.0
 20
0.0
 30
0.0
  0
POINT
  5
3076
  8
DEFPOINTS
 62
     0
 10
240.66586252130179
 20
231.6732114092722
 30
0.0
  0
POINT
  5
3077
  8
DEFPOINTS
 62
     0
 10
252.1658625213019
 20
228.87321140927219
 30
0.0
  0
POINT
  5
3078
  8
DEFPOINTS
 62
     0
 10
252.1658625213019
 20
219.37321140927219
 30
0.0
  0
ENDBLK
  5
2C28
  8
0
  0
BLOCK
  8
0
  2
A$C4A810FDD
 70
     0
 10
0.0
 20
0.0
 30
0.0
  3
A$C4A810FDD
  1

  0
LINE
  5
2FEA
  8
0
 62
     4
 10
0.6303262853494971
 20
-0.000000562845571
 30
0.0
 11
0.6303262853494971
 21
12.50658953116749
 31
0.0
  0
TEXT
  5
2FEB
  8
0
 62
     4
 10
-0.0000006125122809
 20
15.675072459266399
 30
0.0
 40
3.0
  1
2
 41
0.75
  7
CHINESET
  0
LINE
  5
2FEC
  8
0
 62
     4
 10
19.630326285349501
 20
-0.000000562845571
 30
0.0
 11
19.630326285349501
 21
12.50658953116749
 31
0.0
  0
TEXT
  5
2FED
  8
0
 62
     4
 10
18.999999387487719
 20
15.675072459266399
 30
0.0
 40
3.0
  1
3
 41
0.75
  7
CHINESET
  0
LINE
  5
2FEE
  8
0
 62
     4
 10
38.630326285349497
 20
-0.000000562845571
 30
0.0
 11
38.630326285349497
 21
12.50658953116749
 31
0.0
  0
TEXT
  5
2FEF
  8
0
 62
     4
 10
37.999999387487719
 20
15.675072459266399
 30
0.0
 40
3.0
  1
4
 41
0.75
  7
CHINESET
  0
LINE
  5
2FF0
  8
0
 62
     4
 10
57.630326285349497
 20
-0.000000562845571
 30
0.0
 11
57.630326285349497
 21
12.50658953116749
 31
0.0
  0
TEXT
  5
2FF1
  8
0
 62
     4
 10
56.999999387487719
 20
15.675072459266399
 30
0.0
 40
3.0
  1
5
 41
0.75
  7
CHINESET
  0
LINE
  5
2FF2
  8
0
 62
     4
 10
76.630326285349497
 20
-0.000000562845571
 30
0.0
 11
76.630326285349497
 21
12.50658953116749
 31
0.0
  0
TEXT
  5
2FF3
  8
0
 62
     4
 10
75.999999387487719
 20
15.675072459266399
 30
0.0
 40
3.0
  1
6
 41
0.75
  7
CHINESET
  0
LINE
  5
2FF4
  8
0
 62
     4
 10
95.630326285349497
 20
-0.000000562845571
 30
0.0
 11
95.630326285349497
 21
12.50658953116749
 31
0.0
  0
TEXT
  5
2FF5
  8
0
 62
     4
 10
94.999999387487705
 20
15.675072459266399
 30
0.0
 40
3.0
  1
7
 41
0.75
  7
CHINESET
  0
LINE
  5
2FF6
  8
0
 62
     4
 10
114.6303262853495
 20
-0.000000562845571
 30
0.0
 11
114.6303262853495
 21
12.50658953116749
 31
0.0
  0
TEXT
  5
2FF7
  8
0
 62
     4
 10
113.9999993874877
 20
15.675072459266399
 30
0.0
 40
3.0
  1
8
 41
0.75
  7
CHINESET
  0
LINE
  5
2FF8
  8
0
 62
     4
 10
133.6303262853495
 20
-0.000000562845571
 30
0.0
 11
133.6303262853495
 21
12.50658953116749
 31
0.0
  0
TEXT
  5
2FF9
  8
0
 62
     4
 10
132.99999938748769
 20
15.675072459266399
 30
0.0
 40
3.0
  1
9
 41
0.75
  7
CHINESET
  0
LINE
  5
2FFA
  8
0
 62
     4
 10
152.6303262853495
 20
-0.000000562845571
 30
0.0
 11
152.6303262853495
 21
12.50658953116749
 31
0.0
  0
TEXT
  5
2FFB
  8
0
 62
     4
 10
151.99999938748769
 20
15.675072459266399
 30
0.0
 40
3.0
  1
10
 41
0.75
  7
CHINESET
  0
ENDBLK
  5
2FFF
  8
0
  0
BLOCK
  8
0
  2
*U103
 70
     1
 10
0.0
 20
0.0
 30
0.0
  3
*U103
  1

  0
TEXT
  5
3268
  8
AM_5
 10
299.97893489139352
 20
226.59873412383931
 30
0.0
 40
3.5
  1
10
  0
ENDBLK
  5
326A
  8
0
  0
BLOCK
  8
0
  2
*U104
 70
     1
 10
0.0
 20
0.0
 30
0.0
  3
*U104
  1

  0
TEXT
  5
326C
  8
AM_5
 10
247.0772969147898
 20
218.77373412383949
 30
0.0
 40
3.5
  1
(16.5)
  0
ENDBLK
  5
326E
  8
0
  0
BLOCK
  8
0
  2
*U105
 70
     1
 10
0.0
 20
0.0
 30
0.0
  3
*U105
  1

  0
TEXT
  5
3270
  8
AM_5
 10
254.58492486754579
 20
210.59873412383951
 30
0.0
 40
3.5
  1
26
  0
ENDBLK
  5
3272
  8
0
  0
BLOCK
  8
0
  2
*U106
 70
     1
 10
0.0
 20
0.0
 30
0.0
  3
*U106
  1

  0
TEXT
  5
3274
  8
AM_5
 10
235.58286060779261
 20
274.59873412383951
 30
0.0
 40
3.5
  1
(21)
 50
90.0
  0
ENDBLK
  5
3276
  8
0
  0
BLOCK
  8
0
  2
*U107
 70
     1
 10
0.0
 20
0.0
 30
0.0
  3
*U107
  1

  0
TEXT
  5
3278
  8
AM_5
 10
235.58286061779259
 20
253.59873412383951
 30
0.0
 40
3.5
  1
(21)
 50
90.0
  0
ENDBLK
  5
327A
  8
0
  0
BLOCK
  8
0
  2
*U108
 70
     1
 10
0.0
 20
0.0
 30
0.0
  3
*U108
  1

  0
TEXT
  5
327C
  8
AM_5
 10
229.47766484849879
 20
265.25208058053238
 30
0.0
 40
3.5
  1
60
 50
90.0
  0
ENDBLK
  5
327E
  8
0
  0
BLOCK
  8
0
  2
*U109
 70
     1
 10
0.0
 20
0.0
 30
0.0
  3
*U109
  1

  0
TEXT
  5
3280
  8
AM_5
 10
244.92729691478979
 20
226.77373412383949
 30
0.0
 40
3.5
  1
(11.5)
  0
ENDBLK
  5
3282
  8
0
  0
BLOCK
  8
0
  2
*U110
 70
     1
 10
0.0
 20
0.0
 30
0.0
  3
*U110
  1

  0
TEXT
  5
3284
  8
AM_5
 10
222.46729456769711
 20
308.43733063131401
 30
0.0
 40
3.5
  1
3×2-PT1/4
  0
ENDBLK
  5
3286
  8
0
  0
BLOCK
  8
0
  2
*U111
 70
     1
 10
0.0
 20
0.0
 30
0.0
  3
*U111
  1

  0
TEXT
  5
3288
  8
AM_5
 10
367.52990634822811
 20
235.7361064456839
 30
0.0
 40
2.307692307692307
  1
2×2-\U+22054.5貫通
  7
DAYUS
  0
ENDBLK
  5
328A
  8
0
  0
BLOCK
  8
0
  2
*U112
 70
     1
 10
0.0
 20
0.0
 30
0.0
  3
*U112
  1

  0
TEXT
  5
328C
  8
AM_5
 10
363.33085892891421
 20
265.19179514746151
 30
0.0
 40
3.5
  1
20
 50
90.0
  0
ENDBLK
  5
328E
  8
0
  0
BLOCK
  8
0
  2
*U113
 70
     1
 10
0.0
 20
0.0
 30
0.0
  3
*U113
  1

  0
TEXT
  5
3290
  8
SL
 10
2.9749829374392651
 20
1.492139750780495
 30
0.0
 40
2.5724999999997489
  1
SL
  7
ACISOTS
  0
ENDBLK
  5
3292
  8
0
  0
BLOCK
  8
0
  2
*U114
 70
     1
 10
0.0
 20
0.0
 30
0.0
  3
*U114
  1

  0
TEXT
  5
3294
  8
AM_5
 10
289.83031284414932
 20
256.49873412383948
 30
0.0
 40
3.5
  1
18
 50
90.0
  0
ENDBLK
  5
3296
  8
0
  0
BLOCK
  8
0
  2
*U115
 70
     1
 10
0.0
 20
0.0
 30
0.0
  3
*U115
  1

  0
TEXT
  5
3298
  8
AM_5
 10
289.83031284414932
 20
274.49873412383948
 30
0.0
 40
3.5
  1
18
 50
90.0
  0
ENDBLK
  5
329A
  8
0
  0
BLOCK
  8
0
  2
*U116
 70
     1
 10
0.0
 20
0.0
 30
0.0
  3
*U116
  1

  0
TEXT
  5
329C
  8
AM_5
 10
325.50531284414939
 20
226.59873412383931
 30
0.0
 40
3.5
  1
Y
  0
ENDBLK
  5
329E
  8
0
  0
BLOCK
  8
0
  2
*U117
 70
     1
 10
0.0
 20
0.0
 30
0.0
  3
*U117
  1

  0
TEXT
  5
32A0
  8
AM_5
 10
325.85531284414941
 20
218.59873412383931
 30
0.0
 40
3.5
  1
L
  0
ENDBLK
  5
32A2
  8
0
  0
BLOCK
  8
0
  2
*U118
 70
     1
 10
0.0
 20
0.0
 30
0.0
  3
*U118
  1

  0
TEXT
  5
32A7
  8
AM_5
 10
13.72900498297383
 20
-22.737944411632569
 30
0.0
 40
2.307692307692307
  1
1
 50
90.0
  7
DAYUS
  0
ENDBLK
  5
32A9
  8
0
  0
BLOCK
  8
0
  2
*U119
 70
     1
 10
0.0
 20
0.0
 30
0.0
  3
*U119
  1

  0
TEXT
  5
32AB
  8
AM_5
 10
13.72900498297383
 20
-39.634647708335883
 30
0.0
 40
2.307692307692307
  1
1
 50
90.0
  7
DAYUS
  0
ENDBLK
  5
32AD
  8
0
  0
BLOCK
  8
0
  2
*U120
 70
     1
 10
0.0
 20
0.0
 30
0.0
  3
*U120
  1

  0
TEXT
  5
32AF
  8
AM_5
 10
8.0147249829738296
 20
-19.880801554489722
 30
0.0
 40
2.307692307692307
  1
6.8
 50
90.0
  7
DAYUS
  0
ENDBLK
  5
32B1
  8
0
  0
BLOCK
  8
0
  2
*U121
 70
     1
 10
0.0
 20
0.0
 30
0.0
  3
*U121
  1

  0
TEXT
  5
32B3
  8
AM_5
 10
8.0147249829738296
 20
-46.777504851193001
 30
0.0
 40
2.307692307692307
  1
6.8
 50
90.0
  7
DAYUS
  0
ENDBLK
  5
32B5
  8
0
  0
BLOCK
  8
0
  2
*U122
 70
     1
 10
0.0
 20
0.0
 30
0.0
  3
*U122
  1

  0
TEXT
  5
32B7
  8
AM_5
 10
39.002837168239353
 20
-60.99524031234138
 30
0.0
 40
2.307692307692307
  1
18.5
  7
DAYUS
  0
ENDBLK
  5
32B9
  8
0
  0
BLOCK
  8
0
  2
*U123
 70
     1
 10
0.0
 20
0.0
 30
0.0
  3
*U123
  1

  0
TEXT
  5
32BB
  8
AM_5
 10
57.502837168239338
 20
-60.99524031234138
 30
0.0
 40
2.307692307692307
  1
18.5
  7
DAYUS
  0
ENDBLK
  5
32BD
  8
0
  0
BLOCK
  8
0
  2
*U124
 70
     1
 10
0.0
 20
0.0
 30
0.0
  3
*U124
  1

  0
TEXT
  5
32BF
  8
AM_5
 10
39.67591409131628
 20
-66.50952031234138
 30
0.0
 40
2.307692307692307
  1
21
  7
DAYUS
  0
ENDBLK
  5
32C1
  8
0
  0
BLOCK
  8
0
  2
*U125
 70
     1
 10
0.0
 20
0.0
 30
0.0
  3
*U125
  1

  0
TEXT
  5
32C3
  8
AM_5
 10
60.67591409131628
 20
-66.50952031234138
 30
0.0
 40
2.307692307692307
  1
21
  7
DAYUS
  0
ENDBLK
  5
32C5
  8
0
  0
BLOCK
  8
0
  2
*U126
 70
     1
 10
0.0
 20
0.0
 30
0.0
  3
*U126
  1

  0
TEXT
  5
32C7
  8
AM_5
 10
-12.81785573416853
 20
-52.092677581686033
 30
0.0
 40
2.307692307692307
  1
2×N-\U+22057×14.5L
  7
DAYUS
  0
ENDBLK
  5
32C9
  8
0
  0
BLOCK
  8
0
  2
*U127
 70
     1
 10
0.0
 20
0.0
 30
0.0
  3
*U127
  1

  0
TEXT
  5
32CB
  8
AM_5
 10
7.6830834405160529
 20
-61.195349978771219
 30
0.0
 40
2.307692307692307
  1
N-\U+22057×6L
  7
DAYUS
  0
ENDBLK
  5
32CD
  8
0
  0
BLOCK
  8
0
  2
*U128
 70
     1
 10
0.0
 20
0.0
 30
0.0
  3
*U128
  1

  0
TEXT
  5
32CF
  8
AM_5
 10
-19.251436347702011
 20
-2.98937273074521
 30
0.0
 40
2.307692307692307
  1
2×N-M4×0.7×5L
  7
DAYUS
  0
ENDBLK
  5
32D1
  8
0
  0
BLOCK
  8
0
  2
*U129
 70
     1
 10
0.0
 20
0.0
 30
0.0
  3
*U129
  1

  0
TEXT
  5
32D3
  8
AM_5
 10
13.23999399396285
 20
-101.725026275058
 30
0.0
 40
2.307692307692307
  1
(11.5)
 50
90.0
  7
DAYUS
  0
ENDBLK
  5
32D5
  8
0
  0
BLOCK
  8
0
  2
*U130
 70
     1
 10
0.0
 20
0.0
 30
0.0
  3
*U130
  1

  0
TEXT
  5
32D7
  8
AM_5
 10
87.882971033511637
 20
-99.444806494838275
 30
0.0
 40
2.307692307692307
  1
(16.5)
 50
90.0
  7
DAYUS
  0
ENDBLK
  5
32D9
  8
0
  0
BLOCK
  8
0
  2
*U131
 70
     1
 10
0.0
 20
0.0
 30
0.0
  3
*U131
  1

  0
TEXT
  5
32DB
  8
AM_5
 10
94.586262022522604
 20
-91.727773527805311
 30
0.0
 40
2.307692307692307
  1
26
 50
90.0
  7
DAYUS
  0
ENDBLK
  5
32DD
  8
0
  0
BLOCK
  8
0
  2
*U132
 70
     1
 10
0.0
 20
0.0
 30
0.0
  3
*U132
  1

  0
TEXT
  5
32DF
  8
AM_5
 10
-5.8116907651169258
 20
-75.371948512219703
 30
0.0
 40
2.307692307692307
  1
3×2-PT1/4
  7
DAYUS
  0
ENDBLK
  5
32E1
  8
0
  0
BLOCK
  8
0
  2
*U133
 70
     1
 10
0.0
 20
0.0
 30
0.0
  3
*U133
  1

  0
TEXT
  5
32E3
  8
AM_5
 10
88.871982022522573
 20
-51.059922433610602
 30
0.0
 40
2.307692307692307
  1
10
 50
90.0
  7
DAYUS
  0
ENDBLK
  5
32E5
  8
0
  0
BLOCK
  8
0
  2
*U134
 70
     1
 10
0.0
 20
0.0
 30
0.0
  3
*U134
  1

  0
TEXT
  5
32E7
  8
AM_5
 10
88.871982022522545
 20
-19.305114741302901
 30
0.0
 40
2.307692307692307
  1
8+N×P=
 50
90.0
  7
DAYUS
  0
ENDBLK
  5
32E9
  8
0
  0
BLOCK
  8
0
  2
*U135
 70
     1
 10
0.0
 20
0.0
 30
0.0
  3
*U135
  1

  0
TEXT
  5
32EB
  8
AM_5
 10
94.586262022522604
 20
-46.17805430174247
 30
0.0
 40
2.307692307692307
  1
23.5
 50
90.0
  7
DAYUS
  0
ENDBLK
  5
32ED
  8
0
  0
BLOCK
  8
0
  2
*U136
 70
     1
 10
0.0
 20
0.0
 30
0.0
  3
*U136
  1

  0
TEXT
  5
32EF
  8
AM_5
 10
100.5772415024438
 20
-20.404015840204
 30
0.0
 40
2.307692307692307
  1
28+N×P=
 50
90.0
  7
DAYUS
  0
ENDBLK
  5
32F1
  8
0
  0
BLOCK
  8
0
  2
*U137
 70
     1
 10
0.0
 20
0.0
 30
0.0
  3
*U137
  1

  0
TEXT
  5
32F3
  8
AM_5
 10
50.175914091316287
 20
38.454359914890539
 30
0.0
 40
2.307692307692307
  1
21
  7
DAYUS
  0
ENDBLK
  5
32F5
  8
0
  0
BLOCK
  8
0
  2
*U138
 70
     1
 10
0.0
 20
0.0
 30
0.0
  3
*U138
  1

  0
TEXT
  5
32F7
  8
AM_5
 10
74.891391261173297
 20
38.024586388133891
 30
0.0
 40
2.307692307692307
  1
2×2-\U+22054.5貫通
  7
DAYUS
  0
ENDBLK
  5
32F9
  8
0
  0
BLOCK
  8
0
  2
*U139
 70
     1
 10
0.0
 20
0.0
 30
0.0
  3
*U139
  1

  0
TEXT
  5
32FB
  8
AM_5
 10
37.91767233307452
 20
-108.0201064892732
 30
0.0
 40
2.307692307692307
  1
(21)
  7
DAYUS
  0
ENDBLK
  5
32FD
  8
0
  0
BLOCK
  8
0
  2
*U140
 70
     1
 10
0.0
 20
0.0
 30
0.0
  3
*U140
  1

  0
TEXT
  5
32FF
  8
AM_5
 10
58.91767233307452
 20
-108.0201064792732
 30
0.0
 40
2.307692307692307
  1
(21)
  7
DAYUS
  0
ENDBLK
  5
3301
  8
0
  0
BLOCK
  8
0
  2
*U141
 70
     1
 10
0.0
 20
0.0
 30
0.0
  3
*U141
  1

  0
TEXT
  5
3303
  8
AM_5
 10
48.197892113294301
 20
-115.5927025291259
 30
0.0
 40
2.307692307692307
  1
(60)
  7
DAYUS
  0
ENDBLK
  5
3305
  8
0
  0
BLOCK
  8
0
  2
*U142
 70
     1
 10
0.0
 20
0.0
 30
0.0
  3
*U142
  1

  0
TEXT
  5
3307
  8
AM_5
 10
94.586262022522604
 20
-25.587394961083131
 30
0.0
 40
2.307692307692307
  1
P=19
 50
90.0
  7
DAYUS
  0
ENDBLK
  5
3309
  8
0
  0
BLOCK
  8
0
  2
*U143
 70
     1
 10
0.0
 20
0.0
 30
0.0
  3
*U143
  1

  0
TEXT
  5
330B
  8
AM_5
 10
94.586262022522604
 20
-3.1808015544897241
 30
0.0
 40
2.307692307692307
  1
P
 50
90.0
  7
DAYUS
  0
ENDBLK
  5
330D
  8
0
  0
BLOCK
  8
0
  2
*U144
 70
     1
 10
0.0
 20
0.0
 30
0.0
  3
*U144
  1

  0
SOLID
  5
330F
  8
AM_5
 10
39.417564417265183
 20
151.2106642053599
 30
0.0
 11
40.800976859470623
 21
149.32398914170531
 31
0.0
 12
38.880448852955851
 22
150.6600074639066
 32
0.0
 13
38.880448852955851
 23
150.6600074639066
 33
0.0
  0
POLYLINE
  5
3310
  8
AM_5
 66
     1
 10
0.0
 20
0.0
 30
0.0
  0
VERTEX
  5
3311
  8
AM_5
 10
39.149006635110517
 20
150.93533583463321
 30
0.0
  0
VERTEX
  5
3312
  8
AM_5
 10
33.962434537922213
 20
155.9943651519892
 30
0.0
  0
VERTEX
  5
3313
  8
AM_5
 10
14.56636336632465
 20
155.9943651519892
 30
0.0
  0
SEQEND
  5
3314
  8
AM_5
  0
ENDBLK
  5
3316
  8
0
  0
BLOCK
  8
0
  2
*U145
 70
     1
 10
0.0
 20
0.0
 30
0.0
  3
*U145
  1

  0
TEXT
  5
331E
  8
AM_5
 10
641.42707509198283
 20
398.88788051907369
 30
0.0
 40
2.307692307692307
  1
(11.5)
  7
DAYUS
  0
ENDBLK
  5
3320
  8
0
  0
BLOCK
  8
0
  2
*U146
 70
     1
 10
0.0
 20
0.0
 30
0.0
  3
*U146
  1

  0
TEXT
  5
3322
  8
AM_5
 10
620.73214343676761
 20
399.6624270553022
 30
0.0
 40
2.307692307692307
  1
3×2-PT1/4
  7
DAYUS
  0
ENDBLK
  5
3324
  8
0
  0
BLOCK
  8
0
  2
*U147
 70
     1
 10
0.0
 20
0.0
 30
0.0
  3
*U147
  1

  0
TEXT
  5
3326
  8
AM_5
 10
600.69657844980679
 20
184.51010165122611
 30
0.0
 40
2.307692307692307
  1
23.5
  7
DAYUS
  0
ENDBLK
  5
3328
  8
0
  0
BLOCK
  8
0
  2
*U148
 70
     1
 10
0.0
 20
0.0
 30
0.0
  3
*U148
  1

  0
TEXT
  5
332A
  8
AM_5
 10
621.28723779046595
 20
184.51010165122611
 30
0.0
 40
2.307692307692307
  1
P=19
  7
DAYUS
  0
ENDBLK
  5
332C
  8
0
  0
BLOCK
  8
0
  2
*U149
 70
     1
 10
0.0
 20
0.0
 30
0.0
  3
*U149
  1

  0
TEXT
  5
332E
  8
AM_5
 10
643.69383119705947
 20
184.51010165122611
 30
0.0
 40
2.307692307692307
  1
P
  7
DAYUS
  0
ENDBLK
  5
3330
  8
0
  0
BLOCK
  8
0
  2
*U150
 70
     1
 10
0.0
 20
0.0
 30
0.0
  3
*U150
  1

  0
TEXT
  5
3332
  8
AM_5
 10
624.13668833991665
 20
265.36735869077489
 30
0.0
 40
2.307692307692307
  1
1
  7
DAYUS
  0
ENDBLK
  5
3334
  8
0
  0
BLOCK
  8
0
  2
*U151
 70
     1
 10
0.0
 20
0.0
 30
0.0
  3
*U151
  1

  0
TEXT
  5
3336
  8
AM_5
 10
607.23998504321344
 20
265.36735869077489
 30
0.0
 40
2.307692307692307
  1
1
  7
DAYUS
  0
ENDBLK
  5
3338
  8
0
  0
BLOCK
  8
0
  2
*U152
 70
     1
 10
0.0
 20
0.0
 30
0.0
  3
*U152
  1

  0
TEXT
  5
333A
  8
AM_5
 10
626.99383119705965
 20
271.08163869077498
 30
0.0
 40
2.307692307692307
  1
6.8
  7
DAYUS
  0
ENDBLK
  5
333C
  8
0
  0
BLOCK
  8
0
  2
*U153
 70
     1
 10
0.0
 20
0.0
 30
0.0
  3
*U153
  1

  0
TEXT
  5
333E
  8
AM_5
 10
600.09712790035633
 20
271.08163869077498
 30
0.0
 40
2.307692307692307
  1
6.8
  7
DAYUS
  0
ENDBLK
  5
3340
  8
0
  0
BLOCK
  8
0
  2
*U154
 70
     1
 10
0.0
 20
0.0
 30
0.0
  3
*U154
  1

  0
TEXT
  5
3342
  8
AM_5
 10
584.64862320843861
 20
233.50011991210289
 30
0.0
 40
2.307692307692307
  1
18.5
 50
90.0
  7
DAYUS
  0
ENDBLK
  5
3344
  8
0
  0
BLOCK
  8
0
  2
*U155
 70
     1
 10
0.0
 20
0.0
 30
0.0
  3
*U155
  1

  0
TEXT
  5
3346
  8
AM_5
 10
584.64862320843861
 20
215.00011991210289
 30
0.0
 40
2.307692307692307
  1
18.5
 50
90.0
  7
DAYUS
  0
ENDBLK
  5
3348
  8
0
  0
BLOCK
  8
0
  2
*U156
 70
     1
 10
0.0
 20
0.0
 30
0.0
  3
*U156
  1

  0
TEXT
  5
334A
  8
AM_5
 10
580.9728892357972
 20
279.33592270462083
 30
0.0
 40
2.307692307692307
  1
2×N-\U+22057×14.5L
  7
DAYUS
  0
ENDBLK
  5
334C
  8
0
  0
BLOCK
  8
0
  2
*U157
 70
     1
 10
0.0
 20
0.0
 30
0.0
  3
*U157
  1

  0
TEXT
  5
334E
  8
AM_5
 10
577.01101354200875
 20
263.9757802332328
 30
0.0
 40
2.307692307692307
  1
N-\U+22057×6L
  7
DAYUS
  0
ENDBLK
  5
3350
  8
0
  0
BLOCK
  8
0
  2
*U158
 70
     1
 10
0.0
 20
0.0
 30
0.0
  3
*U158
  1

  0
TEXT
  5
3352
  8
AM_5
 10
628.06726551530949
 20
283.76057474672569
 30
0.0
 40
2.307692307692307
  1
2×N-M4×0.7×5L
  7
DAYUS
  0
ENDBLK
  5
3354
  8
0
  0
BLOCK
  8
0
  2
*U159
 70
     1
 10
0.0
 20
0.0
 30
0.0
  3
*U159
  1

  0
TEXT
  5
3356
  8
AM_5
 10
336.33377682377062
 20
312.46906965560402
 30
0.0
 40
3.5
  1
19
  0
ENDBLK
  5
3358
  8
0
  0
BLOCK
  8
0
  2
*U160
 70
     1
 10
0.0
 20
0.0
 30
0.0
  3
*U160
  1

  0
TEXT
  5
335A
  8
AM_5
 10
355.33377682377062
 20
312.46906965560402
 30
0.0
 40
3.5
  1
19
  0
ENDBLK
  5
335C
  8
0
  0
BLOCK
  8
0
  2
*U161
 70
     1
 10
0.0
 20
0.0
 30
0.0
  3
*U161
  1

  0
TEXT
  5
335E
  8
AM_5
 10
374.33377682377062
 20
312.46906965560407
 30
0.0
 40
3.5
  1
19
  0
ENDBLK
  5
3360
  8
0
  0
BLOCK
  8
0
  2
*U162
 70
     1
 10
0.0
 20
0.0
 30
0.0
  3
*U162
  1

  0
TEXT
  5
3362
  8
AM_5
 10
393.33377682377062
 20
312.46906965560407
 30
0.0
 40
3.5
  1
19
  0
ENDBLK
  5
3364
  8
0
  0
BLOCK
  8
0
  2
*U163
 70
     1
 10
0.0
 20
0.0
 30
0.0
  3
*U163
  1

  0
TEXT
  5
3366
  8
AM_5
 10
412.33377682377051
 20
312.46906965560407
 30
0.0
 40
3.5
  1
19
  0
ENDBLK
  5
3368
  8
0
  0
BLOCK
  8
0
  2
*U164
 70
     1
 10
0.0
 20
0.0
 30
0.0
  3
*U164
  1

  0
TEXT
  5
336A
  8
AM_5
 10
431.33377682377062
 20
312.46906965560407
 30
0.0
 40
3.5
  1
19
  0
ENDBLK
  5
336C
  8
0
  0
BLOCK
  8
0
  2
*U165
 70
     1
 10
0.0
 20
0.0
 30
0.0
  3
*U165
  1

  0
TEXT
  5
336E
  8
AM_5
 10
450.33377682377051
 20
312.46906965560419
 30
0.0
 40
3.5
  1
19
  0
ENDBLK
  5
3370
  8
0
  0
BLOCK
  8
0
  2
*U166
 70
     1
 10
0.0
 20
0.0
 30
0.0
  3
*U166
  1

  0
TEXT
  5
3372
  8
AM_5
 10
469.33377682377051
 20
312.4690696556043
 30
0.0
 40
3.5
  1
19
  0
ENDBLK
  5
3374
  8
0
  0
BLOCK
  8
0
  2
*U167
 70
     1
 10
0.0
 20
0.0
 30
0.0
  3
*U167
  1

  0
TEXT
  5
3376
  8
AM_5
 10
292.06750049790548
 20
220.37321140927219
 30
0.0
 40
3.5
  1
10
  0
ENDBLK
  5
3378
  8
0
  0
BLOCK
  8
0
  2
*U168
 70
     1
 10
0.0
 20
0.0
 30
0.0
  3
*U168
  1

  0
TEXT
  5
337A
  8
AM_5
 10
319.45706742703942
 20
220.37321140927219
 30
0.0
 40
3.5
  1
46
  0
ENDBLK
  5
337C
  8
0
  0
BLOCK
  8
0
  2
*U169
 70
     1
 10
0.0
 20
0.0
 30
0.0
  3
*U169
  1

  0
TEXT
  5
337E
  8
AM_5
 10
319.73679183648818
 20
212.37321140927219
 30
0.0
 40
3.5
  1
66
  0
ENDBLK
  5
3380
  8
0
  0
BLOCK
  8
0
  2
*U170
 70
     1
 10
0.0
 20
0.0
 30
0.0
  3
*U170
  1

  0
TEXT
  5
3382
  8
AM_5
 10
366.25438395749518
 20
259.31765038564998
 30
0.0
 40
3.5
  1
21
 50
90.0
  0
ENDBLK
  5
3384
  8
0
  0
BLOCK
  8
0
  2
*U171
 70
     1
 10
0.0
 20
0.0
 30
0.0
  3
*U171
  1

  0
TEXT
  5
3386
  8
AM_5
 10
280.92426129476593
 20
269.8176503856501
 30
0.0
 40
3.5
  1
21
 50
90.0
  0
ENDBLK
  5
3388
  8
0
  0
BLOCK
  8
0
  2
*U172
 70
     1
 10
0.0
 20
0.0
 30
0.0
  3
*U172
  1

  0
TEXT
  5
338A
  8
AM_5
 10
280.92426129476593
 20
248.8176503856501
 30
0.0
 40
3.5
  1
21
 50
90.0
  0
ENDBLK
  5
338C
  8
0
  0
BLOCK
  8
0
  2
*U173
 70
     1
 10
0.0
 20
0.0
 30
0.0
  3
*U173
  1

  0
TEXT
  5
338E
  8
AM_5
 10
243.6658625213019
 20
212.5482114092722
 30
0.0
 40
3.5
  1
(16.5)
  0
ENDBLK
  5
3390
  8
0
  0
BLOCK
  8
0
  2
*U174
 70
     1
 10
0.0
 20
0.0
 30
0.0
  3
*U174
  1

  0
TEXT
  5
3392
  8
AM_5
 10
251.17349047405779
 20
204.37321140927219
 30
0.0
 40
3.5
  1
26
  0
ENDBLK
  5
3394
  8
0
  0
BLOCK
  8
0
  2
*U175
 70
     1
 10
0.0
 20
0.0
 30
0.0
  3
*U175
  1

  0
TEXT
  5
3396
  8
AM_5
 10
232.78094714225151
 20
268.3732114092723
 30
0.0
 40
3.5
  1
(21)
 50
90.0
  0
ENDBLK
  5
3398
  8
0
  0
BLOCK
  8
0
  2
*U176
 70
     1
 10
0.0
 20
0.0
 30
0.0
  3
*U176
  1

  0
TEXT
  5
339A
  8
AM_5
 10
232.78094715225151
 20
247.3732114092723
 30
0.0
 40
3.5
  1
(21)
 50
90.0
  0
ENDBLK
  5
339C
  8
0
  0
BLOCK
  8
0
  2
*U177
 70
     1
 10
0.0
 20
0.0
 30
0.0
  3
*U177
  1

  0
TEXT
  5
339E
  8
AM_5
 10
225.20835110239881
 20
257.52321140927228
 30
0.0
 40
3.5
  1
(60)
 50
90.0
  0
ENDBLK
  5
33A0
  8
0
  0
BLOCK
  8
0
  2
*U178
 70
     1
 10
0.0
 20
0.0
 30
0.0
  3
*U178
  1

  0
TEXT
  5
33A2
  8
AM_5
 10
220.25190863033609
 20
300.57315780703379
 30
0.0
 40
3.5
  1
3×2-PT1/4
  0
ENDBLK
  5
33A4
  8
0
  0
BLOCK
  8
0
  2
*U179
 70
     1
 10
0.0
 20
0.0
 30
0.0
  3
*U179
  1

  0
TEXT
  5
33A6
  8
AM_5
 10
241.5158625213019
 20
220.5482114092722
 30
0.0
 40
3.5
  1
(11.5)
  0
ENDBLK
  5
33A8
  8
0
  0
BLOCK
  8
0
  2
*U180
 70
     1
 10
0.0
 20
0.0
 30
0.0
  3
*U180
  1

  0
TEXT
  5
33AA
  8
AM_5
 10
292.06750049790548
 20
220.37321140927219
 30
0.0
 40
3.5
  1
10
  0
ENDBLK
  5
33AC
  8
0
  0
BLOCK
  8
0
  2
*U181
 70
     1
 10
0.0
 20
0.0
 30
0.0
  3
*U181
  1

  0
TEXT
  5
33AE
  8
AM_5
 10
319.45706742703942
 20
220.37321140927219
 30
0.0
 40
3.5
  1
46
  0
ENDBLK
  5
33B0
  8
0
  0
BLOCK
  8
0
  2
*U182
 70
     1
 10
0.0
 20
0.0
 30
0.0
  3
*U182
  1

  0
TEXT
  5
33B2
  8
AM_5
 10
319.73679183648818
 20
212.37321140927219
 30
0.0
 40
3.5
  1
66
  0
ENDBLK
  5
33B4
  8
0
  0
BLOCK
  8
0
  2
*U183
 70
     1
 10
0.0
 20
0.0
 30
0.0
  3
*U183
  1

  0
TEXT
  5
33B6
  8
AM_5
 10
366.25438395749518
 20
259.31765038564998
 30
0.0
 40
3.5
  1
21
 50
90.0
  0
ENDBLK
  5
33B8
  8
0
  0
BLOCK
  8
0
  2
*U184
 70
     1
 10
0.0
 20
0.0
 30
0.0
  3
*U184
  1

  0
TEXT
  5
33BA
  8
AM_5
 10
362.0233471979123
 20
234.3135919259673
 30
0.0
 40
2.307692307692307
  1
2×2-\U+22054.5貫通
  7
DAYUS
  0
ENDBLK
  5
33BC
  8
0
  0
BLOCK
  8
0
  2
*U185
 70
     1
 10
0.0
 20
0.0
 30
0.0
  3
*U185
  1

  0
TEXT
  5
33BE
  8
AM_5
 10
280.92426129476593
 20
269.8176503856501
 30
0.0
 40
3.5
  1
21
 50
90.0
  0
ENDBLK
  5
33C0
  8
0
  0
BLOCK
  8
0
  2
*U186
 70
     1
 10
0.0
 20
0.0
 30
0.0
  3
*U186
  1

  0
TEXT
  5
33C2
  8
AM_5
 10
280.92426129476593
 20
248.8176503856501
 30
0.0
 40
3.5
  1
21
 50
90.0
  0
ENDBLK
  5
33C4
  8
0
  0
BLOCK
  8
0
  2
*U187
 70
     1
 10
0.0
 20
0.0
 30
0.0
  3
*U187
  1

  0
TEXT
  5
33C6
  8
AM_5
 10
402.14384856198762
 20
462.2607734396139
 30
0.0
 40
3.5
  1
10
  0
ENDBLK
  5
33C8
  8
0
  0
BLOCK
  8
0
  2
*U188
 70
     1
 10
0.0
 20
0.0
 30
0.0
  3
*U188
  1

  0
TEXT
  5
33CA
  8
AM_5
 10
391.00060935884812
 20
511.70521241599181
 30
0.0
 40
3.5
  1
21
 50
90.0
  0
ENDBLK
  5
33CC
  8
0
  0
BLOCK
  8
0
  2
*U189
 70
     1
 10
0.0
 20
0.0
 30
0.0
  3
*U189
  1

  0
TEXT
  5
33CE
  8
AM_5
 10
391.00060935884812
 20
490.70521241599181
 30
0.0
 40
3.5
  1
21
 50
90.0
  0
ENDBLK
  5
33D0
  8
0
  0
BLOCK
  8
0
  2
*U190
 70
     1
 10
0.0
 20
0.0
 30
0.0
  3
*U190
  1

  0
TEXT
  5
33D2
  8
AM_5
 10
624.09969526199416
 20
476.20115395630887
 30
0.0
 40
2.307692307692307
  1
2×2-\U+22054.5貫通
  7
DAYUS
  0
ENDBLK
  5
33D4
  8
0
  0
BLOCK
  8
0
  2
*U191
 70
     1
 10
0.0
 20
0.0
 30
0.0
  3
*U191
  1

  0
TEXT
  5
33D6
  8
AM_5
 10
628.33073202157732
 20
501.2052124159917
 30
0.0
 40
3.5
  1
21
 50
90.0
  0
ENDBLK
  5
33D8
  8
0
  0
BLOCK
  8
0
  2
*U192
 70
     1
 10
0.0
 20
0.0
 30
0.0
  3
*U192
  1

  0
TEXT
  5
33DA
  8
AM_5
 10
504.96466549112148
 20
454.2607734396139
 30
0.0
 40
3.5
  1
218
  0
ENDBLK
  5
33DC
  8
0
  0
BLOCK
  8
0
  2
*U193
 70
     1
 10
0.0
 20
0.0
 30
0.0
  3
*U193
  1

  0
TEXT
  5
33DE
  8
AM_5
 10
504.91411143637851
 20
462.2607734396139
 30
0.0
 40
3.5
  1
198
  0
ENDBLK
  5
33E0
  8
0
  0
ENDSEC
  0
SECTION
  2
ENTITIES
  0
LINE
  5
D66
  8
0
 10
401.43563948631407
 20
242.41083481425181
 30
0.0
 11
401.43563948631407
 21
187.49883481425209
 31
0.0
  0
LINE
  5
D67
  8
0
 10
453.15105394672162
 20
242.41083481425221
 30
0.0
 11
453.15105394672162
 21
231.42843481425189
 31
0.0
  0
LINE
  5
D68
  8
0
 10
473.743053946722
 20
242.41083481425221
 30
0.0
 11
473.743053946722
 21
231.42843481425231
 31
0.0
  0
LINE
  5
D69
  8
0
 10
432.55905394672118
 20
242.41083481425181
 30
0.0
 11
432.55905394672402
 21
187.49883481425209
 31
0.0
  0
LINE
  5
D6A
  8
0
 10
401.43563948631407
 20
231.42843481425189
 30
0.0
 11
473.743053946722
 21
231.42843481425189
 31
0.0
  0
LINE
  5
D6B
  8
0
 10
401.43563948631407
 20
236.91963481425219
 30
0.0
 11
473.743053946722
 21
236.91963481425219
 31
0.0
  0
TEXT
  5
D6C
  8
0
 10
416.17046945944639
 20
232.36185925458349
 30
0.0
 40
3.4475784089370638
  1
2
 41
0.8
  7
CHINESET
 72
     4
 11
417.08982370182957
 21
234.08564845905209
 31
0.0
  0
TEXT
  5
D6D
  8
0
 10
403.44242888013048
 20
238.60161410460111
 30
0.0
 40
2.7456
  1
No. of stations
 41
0.8
  7
CHINESET
  0
TEXT
  5
D6E
  8
0
 10
437.69001767101292
 20
232.39030639879411
 30
0.0
 40
3.4319999999999999
  1
46
 41
0.8
  7
CHINESET
  0
TEXT
  5
D6F
  8
0
 10
441.02654522115398
 20
237.90640422416729
 30
0.0
 40
3.4319999999999999
  1
Y
 41
0.8
  7
CHINESET
  0
LINE
  5
D70
  8
0
 10
401.43563948631407
 20
242.41083481425221
 30
0.0
 11
473.743053946722
 21
242.41083481425221
 31
0.0
  0
LINE
  5
D71
  8
0
 10
453.15105394672088
 20
242.41083481425181
 30
0.0
 11
453.15105394672452
 21
187.49883481425209
 31
0.0
  0
LINE
  5
D72
  8
0
 10
473.74305394672132
 20
242.41083481425181
 30
0.0
 11
473.74305394672422
 21
187.49883481425209
 31
0.0
  0
LINE
  5
D73
  8
0
 10
401.43563948631407
 20
225.93723481425229
 30
0.0
 11
473.743053946722
 21
225.93723481425229
 31
0.0
  0
LINE
  5
D74
  8
0
 10
401.43563948631407
 20
220.4460348142523
 30
0.0
 11
473.743053946722
 21
220.4460348142523
 31
0.0
  0
LINE
  5
D75
  8
0
 10
401.43563948631407
 20
214.95483481425231
 30
0.0
 11
473.743053946722
 21
214.95483481425231
 31
0.0
  0
LINE
  5
D76
  8
0
 10
401.43563948631407
 20
209.463634814252
 30
0.0
 11
473.743053946722
 21
209.463634814252
 31
0.0
  0
LINE
  5
D77
  8
0
 10
401.43563948631407
 20
203.97243481425201
 30
0.0
 11
473.743053946722
 21
203.97243481425201
 31
0.0
  0
LINE
  5
D78
  8
0
 10
401.43563948631407
 20
198.48123481425239
 30
0.0
 11
473.743053946722
 21
198.48123481425239
 31
0.0
  0
LINE
  5
D79
  8
0
 10
401.43563948631407
 20
192.99003481425211
 30
0.0
 11
473.743053946722
 21
192.99003481425211
 31
0.0
  0
LINE
  5
D7A
  8
0
 10
401.43563948631407
 20
187.49883481425209
 30
0.0
 11
473.743053946722
 21
187.49883481425209
 31
0.0
  0
TEXT
  5
D7B
  8
0
 10
416.17046945944639
 20
226.8706592545835
 30
0.0
 40
3.4475784089370638
  1
3
 41
0.8
  7
CHINESET
 72
     4
 11
417.08982370182957
 21
228.59444845905199
 31
0.0
  0
TEXT
  5
D7C
  8
0
 10
416.10480129927691
 20
221.37945925458351
 30
0.0
 40
3.4475784089370638
  1
4
 41
0.8
  7
CHINESET
 72
     4
 11
417.08982370183043
 21
223.10324845905211
 31
0.0
  0
TEXT
  5
D7D
  8
0
 10
416.17046945944787
 20
215.888259254584
 30
0.0
 40
3.4475784089370638
  1
5
 41
0.8
  7
CHINESET
 72
     4
 11
417.08982370183099
 21
217.61204845905249
 31
0.0
  0
TEXT
  5
D7E
  8
0
 10
416.23613761961809
 20
210.39705925458361
 30
0.0
 40
3.4475784089370638
  1
6
 41
0.8
  7
CHINESET
 72
     4
 11
417.08982370183099
 21
212.1208484590521
 31
0.0
  0
TEXT
  5
D7F
  8
0
 10
416.17046945944787
 20
204.90585925458359
 30
0.0
 40
3.4475784089370638
  1
7
 41
0.8
  7
CHINESET
 72
     4
 11
417.08982370183099
 21
206.62964845905219
 31
0.0
  0
TEXT
  5
D80
  8
0
 10
416.17046945944861
 20
199.4146592545836
 30
0.0
 40
3.4475784089370638
  1
8
 41
0.8
  7
CHINESET
 72
     4
 11
417.08982370183179
 21
201.1384484590522
 31
0.0
  0
TEXT
  5
D81
  8
0
 10
416.23613761961877
 20
193.92345925458329
 30
0.0
 40
3.4475784089370638
  1
9
 41
0.8
  7
CHINESET
 72
     4
 11
417.08982370183179
 21
195.64724845905181
 31
0.0
  0
TEXT
  5
D82
  8
0
 10
415.11977889672488
 20
188.4322592545837
 30
0.0
 40
3.4475784089370638
  1
10
 41
0.8
  7
CHINESET
 72
     4
 11
417.08982370183179
 21
190.15604845905219
 31
0.0
  0
TEXT
  5
D83
  8
0
 10
458.28201767101342
 20
232.39030639879411
 30
0.0
 40
3.4319999999999999
  1
66
 41
0.8
  7
CHINESET
  0
TEXT
  5
D84
  8
0
 10
437.69001767101292
 20
226.89910639879409
 30
0.0
 40
3.4319999999999999
  1
65
 41
0.8
  7
CHINESET
  0
TEXT
  5
D85
  8
0
 10
458.28201767101342
 20
226.89910639879409
 30
0.0
 40
3.4319999999999999
  1
85
 41
0.8
  7
CHINESET
  0
TEXT
  5
D86
  8
0
 10
437.69001767101292
 20
221.40790639879381
 30
0.0
 40
3.4319999999999999
  1
84
 41
0.8
  7
CHINESET
  0
TEXT
  5
D87
  8
0
 10
458.28201767101342
 20
221.40790639879381
 30
0.0
 40
3.4319999999999999
  1
104
 41
0.8
  7
CHINESET
  0
TEXT
  5
D88
  8
0
 10
437.69001767101361
 20
215.91670639879391
 30
0.0
 40
3.4319999999999999
  1
103
 41
0.8
  7
CHINESET
  0
TEXT
  5
D89
  8
0
 10
458.28201767101399
 20
215.91670639879391
 30
0.0
 40
3.4319999999999999
  1
123
 41
0.8
  7
CHINESET
  0
TEXT
  5
D8A
  8
0
 10
437.69001767101361
 20
210.4255063987942
 30
0.0
 40
3.4319999999999999
  1
122
 41
0.8
  7
CHINESET
  0
TEXT
  5
D8B
  8
0
 10
458.28201767101399
 20
210.4255063987942
 30
0.0
 40
3.4319999999999999
  1
142
 41
0.8
  7
CHINESET
  0
TEXT
  5
D8C
  8
0
 10
437.69001767101361
 20
204.93430639879389
 30
0.0
 40
3.4319999999999999
  1
141
 41
0.8
  7
CHINESET
  0
TEXT
  5
D8D
  8
0
 10
458.28201767101399
 20
204.93430639879389
 30
0.0
 40
3.4319999999999999
  1
161
 41
0.8
  7
CHINESET
  0
TEXT
  5
D8E
  8
0
 10
437.6900176710144
 20
199.4431063987939
 30
0.0
 40
3.4319999999999999
  1
160
 41
0.8
  7
CHINESET
  0
TEXT
  5
D8F
  8
0
 10
458.28201767101473
 20
199.4431063987939
 30
0.0
 40
3.4319999999999999
  1
180
 41
0.8
  7
CHINESET
  0
TEXT
  5
D90
  8
0
 10
437.69001767101571
 20
193.95190639879391
 30
0.0
 40
3.4319999999999999
  1
179
 41
0.8
  7
CHINESET
  0
TEXT
  5
D91
  8
0
 10
458.28201767101541
 20
193.95190639879391
 30
0.0
 40
3.4319999999999999
  1
199
 41
0.8
  7
CHINESET
  0
TEXT
  5
D92
  8
0
 10
437.69001767101571
 20
188.4607063987936
 30
0.0
 40
3.4319999999999999
  1
198
 41
0.8
  7
CHINESET
  0
TEXT
  5
D93
  8
0
 10
458.28201767101541
 20
188.4607063987936
 30
0.0
 40
3.4319999999999999
  1
218
 41
0.8
  7
CHINESET
  0
TEXT
  5
D94
  8
0
 10
461.61854522115379
 20
237.90640422416729
 30
0.0
 40
3.4319999999999999
  1
L
 41
0.8
  7
CHINESET
  0
INSERT
  5
F4E
  8
0
  2
A$C6EA13D03
 10
401.43563948631407
 20
231.42843481425189
 30
0.0
 41
1.5600000000000001
 42
1.5600000000000001
 43
1.5600000000000001
  0
TEXT
  5
F4F
  8
0
 10
190.9467420085781
 20
368.13076751945209
 30
0.0
 40
4.7999999999999998
  1
MVSY-188-5B2
 41
0.75
  7
CHINESET
  0
LINE
  5
F50
  8
SL
  6
ACISOTGB
 10
325.44175053227178
 20
256.83474939703677
 30
0.0
 11
325.44175053227178
 21
298.4048384478549
 31
0.0
  0
LINE
  5
F51
  8
LOGO
 62
     4
 10
243.36372162318551
 20
130.22436790510281
 30
0.0
 11
243.36372162318551
 21
159.02019776935629
 31
0.0
  0
TEXT
  5
F52
  8
LOGO
  6
CONTINUOUS
 10
190.35648744882749
 20
135.8812652252391
 30
0.0
 40
4.3193744796380082
  1
金器工業股份有限公司
  7
CHINESET
  0
TEXT
  5
F53
  8
LOGO
  6
CONTINUOUS
 10
182.42265107583151
 20
131.5610444868552
 30
0.0
 40
2.8795829864253388
  1
MINDMAN INDUSTRIAL CO., LTD.
 41
0.85
  7
CHINESET
  0
LINE
  5
F54
  8
LOGO
 62
     4
 10
243.36372162318551
 20
153.26103179650551
 30
0.0
 11
201.12983782228059
 21
153.26103179650551
 31
0.0
  0
LINE
  5
F55
  8
LOGO
 62
     4
 10
243.36372162318551
 20
147.50186582365481
 30
0.0
 11
201.12983782228059
 21
147.50186582365481
 31
0.0
  0
LINE
  5
F56
  8
LOGO
 62
     4
 10
243.36372162318551
 20
141.74269985080451
 30
0.0
 11
180.01289592182781
 21
141.74269985080451
 31
0.0
  0
LINE
  5
F57
  8
LOGO
 62
     4
 10
201.12983782228059
 20
141.74269985080451
 30
0.0
 11
201.12983782228059
 21
159.02019776935629
 31
0.0
  0
TEXT
  5
F58
  8
LOGO
 10
229.99470399124721
 20
143.1824913440166
 30
0.0
 40
2.8795829864253388
  1
mm
  7
CHINESET
 72
     1
 11
233.55990197444041
 21
144.62228283722931
 31
0.0
 73
     2
  0
TEXT
  5
F59
  8
LOGO
 10
228.48635099835769
 20
154.7008232897181
 30
0.0
 40
2.8795829864253388
  1
1 : 1
  7
CHINESET
 72
     1
 11
233.55990197444041
 21
156.14061478293081
 31
0.0
 73
     2
  0
LINE
  5
F5A
  8
LOGO
 62
     4
 10
224.16650171368309
 20
141.74269985080451
 30
0.0
 11
224.16650171368309
 21
159.02019776935629
 31
0.0
  0
TEXT
  5
F5B
  8
LOGO
 10
203.5042082579622
 20
154.70224040732961
 30
188.7231250944717
 40
2.8795829864253388
  1
比例 Scale:
 41
0.9
  7
CHINESET
 72
     4
 11
212.64816976798161
 21
156.14061478293081
 31
188.7231250944717
  0
TEXT
  5
F5C
  8
LOGO
 10
203.33837513061891
 20
148.98216326192741
 30
188.7231250944717
 40
2.8795829864253388
  1
投影  View:
 41
0.9
  7
CHINESET
 72
     4
 11
212.64816976798161
 21
150.38144881008
 31
188.7231250944717
  0
TEXT
  5
F5D
  8
LOGO
 10
203.61990578866681
 20
143.1824913440166
 30
188.7231250944717
 40
2.8795829864253388
  1
單位  Unit:
 41
0.9
  7
CHINESET
 72
     4
 11
212.64816976798161
 21
144.62228283722931
 31
188.7231250944717
  0
POLYLINE
  5
F5E
  8
LOGO
 62
     4
 66
     1
 10
0.0
 20
0.0
 30
0.0
 70
     1
1001
GENIUS_GENREC_14
1002
{
1000
PYDIR
1011
180.01289592182781
1021
0.0
1031
0.0
1021
382.30503911936933
1031
0.0
1002
}
1002
{
1000
PXDIR
1011
509.38882207667569
1021
0.0
1031
0.0
1021
159.02019776935629
1031
0.0
1002
}
1002
{
1000
PORI
1011
180.01289592182781
1021
0.0
1031
0.0
1021
159.02019776935629
1031
0.0
1002
}
1002
{
1000
PINS
1011
180.01289592182781
1021
0.0
1031
0.0
1021
159.02019776935629
1031
0.0
1002
}
1002
{
1000
PINS2
1011
509.38882207667569
1021
0.0
1031
0.0
1021
382.30503911936933
1031
0.0
1002
}
1002
{
1000
C
1070
     1
1002
}
1001
GENIUS_GENODEF_13
1002
{
1000
HIER
1070
     0
1002
}
1002
{
1000
MANEDIT
1070
     0
1002
}
1002
{
1000
NOSEL
1070
     0
1002
}
1002
{
1000
BEHIND
1070
     0
1002
}
1002
{
1000
OTHER
1070
     0
1002
}
1002
{
1000
REACTOR
1002
}
1001
GENIUS_GENOBJ-N-REC_13
1002
{
1000
OWNER
1000
GEN
1002
}
  0
VERTEX
  5
325D
  8
LOGO
 62
     4
 10
180.01289592182781
 20
159.02019776935629
 30
0.0
  0
VERTEX
  5
325E
  8
LOGO
 62
     4
 10
509.38882207667569
 20
159.02019776935629
 30
0.0
  0
VERTEX
  5
325F
  8
LOGO
 62
     4
 10
509.38882207667569
 20
382.30503911936933
 30
0.0
  0
VERTEX
  5
3260
  8
LOGO
 62
     4
 10
180.01289592182781
 20
382.30503911936933
 30
0.0
  0
SEQEND
  5
3261
  8
LOGO
 62
     4
  0
SOLID
  5
F5F
  8
LOGO
 62
     5
 10
183.000509484036
 20
146.52959668937419
 30
0.0
 11
184.245565607109
 21
146.5295966893739
 31
0.0
 12
189.44045494820531
 22
158.33616337368491
 32
0.0
 13
190.6855110712788
 23
158.3361633736844
 33
0.0
  0
SOLID
  5
F60
  8
LOGO
 62
     5
 10
184.76076124424341
 20
146.52959668937419
 30
0.0
 11
186.00581736731641
 21
146.52959668937419
 31
0.0
 12
190.6855110712788
 22
157.3916380389397
 32
0.0
 13
189.44045494820531
 23
152.82643225433961
 33
0.0
  0
SOLID
  5
F61
  8
LOGO
 62
     2
 10
184.245565607109
 20
146.5295966893739
 30
0.0
 11
184.76076124424341
 21
146.52959668937419
 31
0.0
 12
190.6855110712788
 22
158.3361633736844
 32
0.0
 13
191.2007067084127
 23
158.3361633736844
 33
0.0
  0
SOLID
  5
F62
  8
LOGO
 62
     5
 10
181.00437919358899
 20
142.23629971326159
 30
0.0
 11
181.4337088912003
 21
142.23629971326159
 31
0.0
 12
182.6427347360268
 22
144.38294820131759
 32
0.0
 13
183.07206443363759
 23
144.38294820131759
 33
0.0
  0
SOLID
  5
F63
  8
LOGO
 62
     5
 10
182.6427347360268
 20
144.38294820131759
 30
0.0
 11
183.07206443363759
 21
144.38294820131759
 31
0.0
 12
182.6427347360268
 22
142.23629971326159
 32
0.0
 13
183.07206443363759
 23
142.23629971326159
 33
0.0
  0
SOLID
  5
F64
  8
LOGO
 62
     5
 10
182.6427347360268
 20
142.23629971326159
 30
0.0
 11
183.07206443363759
 21
142.23629971326159
 31
0.0
 12
184.28109027846571
 22
144.38294820131759
 32
0.0
 13
184.71041997607699
 23
144.38294820131759
 33
0.0
  0
SOLID
  5
F65
  8
LOGO
 62
     5
 10
184.28109027846571
 20
144.38294820131759
 30
0.0
 11
184.71041997607699
 21
144.38294820131759
 31
0.0
 12
184.28109027846571
 22
142.23629971326159
 32
0.0
 13
184.71041997607699
 23
142.23629971326159
 33
0.0
  0
POLYLINE
  5
F66
  8
LOGO
 62
     5
 66
     1
 10
0.0
 20
0.0
 30
0.0
 40
0.4300177259728506
 41
0.4300177259728506
  0
VERTEX
  5
F67
  8
LOGO
 62
     5
 10
198.67207548939129
 20
143.5242888060952
 30
0.0
 42
1.0
  0
VERTEX
  5
F68
  8
LOGO
 62
     5
 10
197.38202231147261
 20
143.5242888060952
 30
0.0
 42
1.0
  0
SEQEND
  5
F69
  8
LOGO
 62
     5
  0
POLYLINE
  5
F6A
  8
LOGO
 62
     5
 66
     1
 10
0.0
 20
0.0
 30
0.0
 70
     1
  0
VERTEX
  5
F6B
  8
LOGO
 62
     5
 10
194.95021468953041
 20
143.30962395728929
 30
0.0
 42
1.0000000573306349
  0
VERTEX
  5
F6C
  8
LOGO
 62
     5
 10
196.23820378236431
 20
143.30962395728929
 30
0.0
 42
1.0000000573306349
  0
SEQEND
  5
F6D
  8
LOGO
 62
     5
  0
CIRCLE
  5
F6E
  8
LOGO
 62
     5
 10
195.59420923594789
 20
143.30962395728929
 30
0.0
 40
0.6439945464169412
  0
POLYLINE
  5
F6F
  8
LOGO
 62
     5
 66
     1
 10
0.0
 20
0.0
 30
0.0
 70
     1
 40
0.4300177259728506
 41
0.4300177259728506
  0
VERTEX
  5
F70
  8
LOGO
 62
     5
 10
194.73417378400191
 20
143.30962395728929
 30
0.0
 42
1.0
  0
VERTEX
  5
F71
  8
LOGO
 62
     5
 10
196.45424468789329
 20
143.30962395728929
 30
0.0
 42
1.0
  0
SEQEND
  5
F72
  8
LOGO
 62
     5
  0
LINE
  5
F73
  8
LOGO
 10
198.88570829565381
 20
142.23629971326159
 30
0.0
 11
198.88570829565381
 21
143.5242888060952
 31
0.0
  0
SOLID
  5
F74
  8
LOGO
 62
     5
 10
196.23816084939631
 20
144.38294820131759
 30
0.0
 11
196.66749054700651
 21
144.38294820131759
 31
0.0
 12
196.23816084939631
 22
142.23629971326159
 32
0.0
 13
196.66749054700651
 23
142.23629971326159
 33
0.0
  0
SOLID
  5
F75
  8
LOGO
 62
     5
 10
197.16838950520901
 20
142.23629971326159
 30
0.0
 11
197.59771920282091
 21
142.23629971326159
 31
0.0
 12
197.16838950520901
 22
144.38294820131759
 32
0.0
 13
197.59771920282091
 23
144.38294820131759
 33
0.0
  0
SOLID
  5
F76
  8
LOGO
 62
     5
 10
198.45637859804361
 20
143.5242888060952
 30
0.0
 11
198.88570829565381
 21
143.5242888060952
 31
0.0
 12
198.45637859804361
 22
142.23629971326159
 32
0.0
 13
198.88570829565381
 23
142.23629971326159
 33
0.0
  0
SOLID
  5
F77
  8
LOGO
 62
     5
 10
197.12545653544751
 20
157.3916380389397
 30
0.0
 11
195.88040041237559
 21
152.82643225433961
 31
0.0
 12
197.12545653544751
 22
146.5295966893739
 32
0.0
 13
195.88040041237559
 23
146.5295966893739
 33
0.0
  0
SOLID
  5
F78
  8
LOGO
 62
     5
 10
197.64065217258189
 20
146.5295966893739
 30
0.0
 11
198.88570829565381
 21
146.5295966893739
 31
0.0
 12
197.64065217258189
 22
158.3361633736844
 32
0.0
 13
198.88570829565381
 23
158.33616337368491
 33
0.0
  0
SOLID
  5
F79
  8
LOGO
 62
     2
 10
197.12545653544751
 20
158.33616337368491
 30
0.0
 11
197.64065217258189
 21
158.3361633736844
 31
0.0
 12
197.12545653544751
 22
146.5295966893739
 32
0.0
 13
197.64065217258189
 23
146.5295966893739
 33
0.0
  0
POLYLINE
  5
F7A
  8
LOGO
 62
     5
 66
     1
 10
0.0
 20
0.0
 30
0.0
 40
0.4300177259728506
 41
0.4300177259728506
  0
VERTEX
  5
F7B
  8
LOGO
 62
     5
 10
192.5183212016498
 20
143.5242888060952
 30
0.0
 42
1.0
  0
VERTEX
  5
F7C
  8
LOGO
 62
     5
 10
191.22826802373109
 20
143.5242888060952
 30
0.0
 42
1.0
  0
SEQEND
  5
F7D
  8
LOGO
 62
     5
  0
POLYLINE
  5
F7E
  8
LOGO
 62
     5
 66
     1
 10
0.0
 20
0.0
 30
0.0
 40
0.4300177259728506
 41
0.4300177259728506
  0
VERTEX
  5
F7F
  8
LOGO
 62
     5
 10
193.8063102944827
 20
143.5242888060952
 30
0.0
 42
1.0
  0
VERTEX
  5
F80
  8
LOGO
 62
     5
 10
192.5162571165645
 20
143.5242888060952
 30
0.0
 42
1.0
  0
SEQEND
  5
F81
  8
LOGO
 62
     5
  0
POLYLINE
  5
F82
  8
LOGO
 62
     5
 66
     1
 10
0.0
 20
0.0
 30
0.0
 40
0.4300177259728506
 41
0.4300177259728506
  0
VERTEX
  5
F83
  8
LOGO
 62
     5
 10
187.65255600674121
 20
143.5242888060952
 30
0.0
 42
1.0
  0
VERTEX
  5
F84
  8
LOGO
 62
     5
 10
186.36250282882301
 20
143.5242888060952
 30
0.0
 42
1.0
  0
SEQEND
  5
F85
  8
LOGO
 62
     5
  0
SOLID
  5
F86
  8
LOGO
 62
     5
 10
186.14887002255949
 20
144.38294820131759
 30
0.0
 11
186.5781997201702
 21
144.38294820131759
 31
0.0
 12
186.14887002255949
 22
142.23629971326159
 32
0.0
 13
186.5781997201702
 23
142.23629971326159
 33
0.0
  0
SOLID
  5
F87
  8
LOGO
 62
     5
 10
187.43685911539339
 20
143.5242888060952
 30
0.0
 11
187.86618881300529
 21
143.5242888060952
 31
0.0
 12
187.43685911539339
 22
142.23629971326159
 32
0.0
 13
187.86618881300529
 23
142.23629971326159
 33
0.0
  0
POLYLINE
  5
F88
  8
LOGO
 62
     5
 66
     1
 10
0.0
 20
0.0
 30
0.0
 70
     1
 40
0.4300177259728506
 41
0.4300177259728506
  0
VERTEX
  5
F89
  8
LOGO
 62
     5
 10
188.58041949625931
 20
143.30962395728929
 30
0.0
 42
1.0
  0
VERTEX
  5
F8A
  8
LOGO
 62
     5
 10
190.30049040015129
 20
143.30962395728929
 30
0.0
 42
1.0
  0
SEQEND
  5
F8B
  8
LOGO
 62
     5
  0
SOLID
  5
F8C
  8
LOGO
 62
     5
 10
190.08440656165311
 20
145.02694274773509
 30
0.0
 11
190.5137362592645
 21
145.02694274773509
 31
0.0
 12
190.08440656165311
 22
142.23629971326159
 32
0.0
 13
190.5137362592645
 23
142.23629971326159
 33
0.0
  0
SOLID
  5
F8D
  8
LOGO
 62
     5
 10
191.01463521746859
 20
144.38294820131759
 30
0.0
 11
191.44396491507891
 21
144.38294820131759
 31
0.0
 12
191.01463521746859
 22
142.23629971326159
 32
0.0
 13
191.44396491507891
 23
142.23629971326159
 33
0.0
  0
SOLID
  5
F8E
  8
LOGO
 62
     5
 10
192.3026243103015
 20
143.5242888060952
 30
0.0
 11
192.7319540079128
 21
143.5242888060952
 31
0.0
 12
192.3026243103015
 22
142.23629971326159
 32
0.0
 13
192.7319540079128
 23
142.23629971326159
 33
0.0
  0
SOLID
  5
F8F
  8
LOGO
 62
     5
 10
193.59061340313551
 20
143.5242888060952
 30
0.0
 11
194.0199431007463
 21
143.5242888060952
 31
0.0
 12
193.59061340313551
 22
142.23629971326099
 32
0.0
 13
194.0199431007463
 23
142.23629971326099
 33
0.0
  0
SOLID
  5
F90
  8
LOGO
 62
     5
 10
185.218641366745
 20
144.68347898964589
 30
0.0
 11
185.64797106435751
 21
144.68347898964589
 31
0.0
 12
185.218641366745
 22
145.02694274773509
 32
0.0
 13
185.64797106435751
 23
145.02694274773509
 33
0.0
  0
SOLID
  5
F91
  8
LOGO
 62
     5
 10
185.218641366745
 20
144.38294820131759
 30
0.0
 11
185.64797106435751
 21
144.38294820131759
 31
0.0
 12
185.218641366745
 22
142.23629971326099
 32
0.0
 13
185.64797106435751
 23
142.23629971326159
 33
0.0
  0
SOLID
  5
F92
  8
LOGO
 62
     5
 10
189.44045494820531
 20
146.52959668937419
 30
0.0
 11
190.6855110712788
 21
146.52959668937419
 31
0.0
 12
189.44045494820531
 22
152.82643225433961
 32
0.0
 13
190.6855110712788
 23
157.3916380389397
 33
0.0
  0
SOLID
  5
F93
  8
LOGO
 62
     5
 10
191.2007067084127
 20
158.3361633736844
 30
0.0
 11
192.4457628314851
 21
158.33616337368491
 31
0.0
 12
191.2007067084127
 22
147.47412202411891
 32
0.0
 13
192.4457628314851
 23
152.03932780871901
 33
0.0
  0
SOLID
  5
F94
  8
LOGO
 62
     2
 10
190.6855110712788
 20
158.3361633736844
 30
0.0
 11
191.2007067084127
 21
158.3361633736844
 31
0.0
 12
190.6855110712788
 22
146.52959668937419
 32
0.0
 13
191.2007067084127
 23
146.52959668937419
 33
0.0
  0
SOLID
  5
F95
  8
LOGO
 62
     5
 10
191.2007067084127
 20
147.47412202411891
 30
0.0
 11
192.4457628314851
 21
152.03932780871901
 31
0.0
 12
197.12545653544751
 22
158.33616337368491
 32
0.0
 13
195.88040041237559
 23
158.33616337368491
 33
0.0
  0
SOLID
  5
F96
  8
LOGO
 62
     5
 10
191.2007067084127
 20
146.52959668937419
 30
0.0
 11
192.4457628314851
 21
146.52959668937419
 31
0.0
 12
197.12545653544751
 22
157.3916380389397
 32
0.0
 13
195.88040041237559
 23
152.82643225433961
 33
0.0
  0
SOLID
  5
F97
  8
LOGO
 62
     2
 10
190.6855110712788
 20
146.52959668937419
 30
0.0
 11
191.2007067084127
 21
146.52959668937419
 31
0.0
 12
197.12545653544751
 22
158.33616337368491
 32
0.0
 13
197.64065217258189
 23
158.3361633736844
 33
0.0
  0
POLYLINE
  5
F98
  8
LOGO
 62
     4
 66
     1
 10
0.0
 20
0.0
 30
0.0
 70
     1
1001
GENIUS_GENREC_14
1002
{
1000
PYDIR
1011
180.01289592182781
1021
0.0
1031
0.0
1021
130.2243679051025
1031
0.0
1002
}
1002
{
1000
PXDIR
1011
509.38882207667569
1021
0.0
1031
0.0
1021
159.02019776935629
1031
0.0
1002
}
1002
{
1000
PORI
1011
180.01289592182781
1021
0.0
1031
0.0
1021
159.02019776935629
1031
0.0
1002
}
1002
{
1000
PINS
1011
180.01289592182781
1021
0.0
1031
0.0
1021
159.02019776935629
1031
0.0
1002
}
1002
{
1000
PINS2
1011
509.38882207667569
1021
0.0
1031
0.0
1021
130.2243679051025
1031
0.0
1002
}
1002
{
1000
C
1070
     1
1002
}
1001
GENIUS_GENOBJ-N-REC_13
1002
{
1000
OWNER
1000
GEN
1002
}
1001
GENIUS_GENODEF_13
1002
{
1000
HIER
1070
     0
1002
}
1002
{
1000
MANEDIT
1070
     0
1002
}
1002
{
1000
NOSEL
1070
     0
1002
}
1002
{
1000
BEHIND
1070
     0
1002
}
1002
{
1000
OTHER
1070
     0
1002
}
1002
{
1000
REACTOR
1002
}
  0
VERTEX
  5
3262
  8
LOGO
 62
     4
 10
180.01289592182781
 20
159.02019776935629
 30
0.0
  0
VERTEX
  5
3263
  8
LOGO
 62
     4
 10
509.38882207667569
 20
159.02019776935629
 30
0.0
  0
VERTEX
  5
3264
  8
LOGO
 62
     4
 10
509.38882207667569
 20
130.2243679051025
 30
0.0
  0
VERTEX
  5
3265
  8
LOGO
 62
     4
 10
180.01289592182781
 20
130.2243679051025
 30
0.0
  0
SEQEND
  5
3266
  8
LOGO
 62
     4
  0
CIRCLE
  5
F99
  8
LOGO
  6
CONTINUOUS
 10
229.4984097855959
 20
150.3876082591606
 30
0.0
 40
1.6719536596617091
  0
CIRCLE
  5
F9A
  8
LOGO
  6
CONTINUOUS
 10
229.4984097855959
 20
150.3876082591606
 30
0.0
 40
0.9796168348784599
  0
LINE
  5
F9B
  8
LOGO
 10
240.0051605882087
 20
148.71565459949849
 30
0.0
 11
240.0051605882087
 21
152.05956191882271
 31
0.0
  0
LINE
  5
F9C
  8
LOGO
 10
234.7636818398891
 20
149.4079914242823
 30
0.0
 11
234.7636818398891
 21
151.36722509403921
 31
0.0
  0
LINE
  5
F9D
  8
LOGO
  6
CONTINUOUS
 10
234.7636818398891
 20
151.36722509403921
 30
0.0
 11
240.0051605882087
 21
152.05956191882271
 31
0.0
  0
LINE
  5
F9E
  8
LOGO
  6
CONTINUOUS
 10
234.7636818398891
 20
149.4079914242823
 30
0.0
 11
240.0051605882087
 21
148.71565459949849
 31
0.0
  0
LINE
  5
F9F
  8
LOGO
  6
AM_ISO08W050X2
 10
227.19359663021771
 20
150.3876082591606
 30
0.0
 11
231.80322294097411
 21
150.3876082591606
 31
0.0
1001
GENIUS_GENOREF_13
1005
FE7
  0
LINE
  5
FA0
  8
LOGO
  6
AM_ISO08W050X2
 10
229.4984097855959
 20
148.08279510378219
 30
0.0
 11
229.4984097855959
 21
152.69242141453881
 31
0.0
1001
GENIUS_GENOREF_13
1005
FE6
  0
LINE
  5
FA1
  8
LOGO
  6
CENTER
 10
234.3445092262437
 20
150.3876082591606
 30
0.0
 11
240.532960530623
 21
150.3876082591606
 31
0.0
1001
GENIUS_GENOREF_13
1005
FE5
  0
TEXT
  5
FA2
  8
LOGO
 62
     7
 10
245.0319730559664
 20
146.40523470874271
 30
0.0
 40
3.8394439819004522
  1
Order example:
 41
0.8
  7
CHINESET
  0
TEXT
  5
FA3
  8
LOGO
 62
     7
 10
245.72080105722941
 20
151.81037686823839
 30
0.0
 40
5.7591659728506777
  1
訂購代號：
  7
CHINESET
  0
TEXT
  5
FA4
  8
LOGO
 10
244.26593287456799
 20
131.75629468834961
 30
0.0
 40
2.8799999999999999
  1
20903244
 41
0.7
  7
CHINESET
 72
     1
 11
251.70593287456799
 21
131.75629468834961
 31
0.0
  0
LINE
  5
FA5
  8
LOGO
 62
     4
 10
260.64372162318449
 20
135.98353387795399
 30
0.0
 11
260.64372162318563
 21
130.22436790510301
 31
0.0
  0
LINE
  5
FA6
  8
LOGO
 62
     4
 10
260.64372162318449
 20
135.98353387795399
 30
0.0
 11
243.36372162318551
 21
135.98353387795399
 31
0.0
  0
LINE
  5
FA7
  8
LOGO
 62
     4
 10
302.1683274871599
 20
143.18249134401731
 30
0.0
 11
302.1683274871599
 21
132.62402039379069
 31
0.0
  0
LINE
  5
FA8
  8
LOGO
 62
     4
 10
282.97110757765751
 20
143.18249134401731
 30
0.0
 11
282.97110757765751
 21
132.62402039379069
 31
0.0
  0
LINE
  5
FA9
  8
LOGO
 62
     4
 10
302.1683274871599
 20
132.62402039379069
 30
0.0
 11
282.97110757765751
 21
132.62402039379069
 31
0.0
  0
LINE
  5
FAA
  8
LOGO
 62
     4
 10
305.7269063553673
 20
156.14061478293081
 30
0.0
 11
282.97110757765751
 21
156.14061478293081
 31
0.0
  0
LINE
  5
FAB
  8
LOGO
 62
     4
 10
305.7269063553673
 20
147.50186582365481
 30
0.0
 11
282.97110757765751
 21
147.50186582365481
 31
0.0
  0
LINE
  5
FAC
  8
LOGO
 62
     4
 10
282.97110757765751
 20
156.14061478293081
 30
0.0
 11
282.97110757765751
 21
147.50186582365481
 31
0.0
  0
LINE
  5
FAD
  8
LOGO
 62
     4
 10
305.7269063553673
 20
156.14061478293081
 30
0.0
 11
305.7269063553673
 21
147.50186582365481
 31
0.0
  0
LINE
  5
FAE
  8
LOGO
 62
     4
 10
293.57133023706939
 20
147.50186582365481
 30
0.0
 11
293.57133023706939
 21
143.18249134401731
 31
0.0
  0
TEXT
  5
FAF
  8
LOGO
  6
CONTINUOUS
 62
     7
 10
284.50607797278099
 20
149.3051920390543
 30
0.0
 40
5.04
  1
MVSY
  7
CHINESET
  0
LINE
  5
FB0
  8
LOGO
 62
     4
 10
302.1683274871599
 20
143.18249134401731
 30
0.0
 11
282.97110757765751
 21
143.18249134401731
 31
0.0
  0
TEXT
  5
FB1
  8
LOGO
  6
CONTINUOUS
 10
289.13143466914391
 20
134.11432617865739
 30
188.7231250944717
 40
2.1600000000000001
  1
Model
 41
0.8
  7
CHINESET
  0
TEXT
  5
FB2
  8
LOGO
 10
288.55651288642503
 20
138.11850066543249
 30
188.7231250944717
 40
3.5999999999999992
  1
型號
  7
CHINESET
  0
LINE
  5
FB3
  8
LOGO
  6
CONTINUOUS
 62
     7
 10
306.64527676801572
 20
151.79064048923411
 30
0.0
 11
310.45983309448849
 21
151.79064048923411
 31
0.0
  0
TEXT
  5
FB4
  8
LOGO
  6
CONTINUOUS
 62
     7
 10
312.09139456997929
 20
149.3051920390543
 30
0.0
 40
5.04
  1
188
  7
CHINESET
  0
LINE
  5
FB5
  8
LOGO
  6
CONTINUOUS
 62
     7
 10
325.67473326669261
 20
151.79064048923411
 30
0.0
 11
329.48928959316601
 21
151.79064048923411
 31
0.0
  0
LINE
  5
FB6
  8
LOGO
 62
     4
 10
328.33416129108321
 20
143.18249134401731
 30
0.0
 11
328.33416129108321
 21
132.62402039379069
 31
0.0
  0
LINE
  5
FB7
  8
LOGO
 62
     4
 10
310.79969113288428
 20
143.18249134401731
 30
0.0
 11
310.79969113288428
 21
132.62402039379069
 31
0.0
  0
LINE
  5
FB8
  8
LOGO
 62
     4
 10
328.33416129108321
 20
132.62402039379069
 30
0.0
 11
310.79969113288428
 21
132.62402039379069
 31
0.0
  0
LINE
  5
FB9
  8
LOGO
 62
     4
 10
341.617451672046
 20
156.14061478293081
 30
0.0
 11
330.69258103690407
 21
156.14061478293081
 31
0.0
  0
LINE
  5
FBA
  8
LOGO
 62
     4
 10
341.617451672046
 20
147.50186582365481
 30
0.0
 11
330.69258103690407
 21
147.50186582365481
 31
0.0
  0
LINE
  5
FBB
  8
LOGO
 62
     4
 10
330.69258103690407
 20
156.14061478293081
 30
0.0
 11
330.69258103690407
 21
147.50186582365481
 31
0.0
  0
LINE
  5
FBC
  8
LOGO
 62
     4
 10
341.617451672046
 20
156.14061478293081
 30
0.0
 11
341.617451672046
 21
147.50186582365481
 31
0.0
  0
LINE
  5
FBD
  8
LOGO
 62
     4
 10
337.32989176536461
 20
147.50186582365481
 30
0.0
 11
337.32989176536461
 21
145.34217858383619
 31
0.0
  0
TEXT
  5
FBE
  8
LOGO
  6
CONTINUOUS
 62
     7
 10
331.84237542338428
 20
149.3051920390543
 30
0.0
 40
5.04
  1
5B
  7
CHINESET
  0
LINE
  5
FBF
  8
LOGO
 62
     4
 10
328.33416129108321
 20
143.18249134401731
 30
0.0
 11
310.79969113288428
 21
143.18249134401731
 31
0.0
  0
LINE
  5
FC0
  8
LOGO
 62
     4
 10
350.11780522304338
 20
143.18249134401731
 30
0.0
 11
350.11780522304338
 21
132.62402039379069
 31
0.0
  0
LINE
  5
FC1
  8
LOGO
 62
     4
 10
334.4786091645168
 20
143.18249134401731
 30
0.0
 11
334.4786091645168
 21
132.62402039379069
 31
0.0
  0
LINE
  5
FC2
  8
LOGO
 62
     4
 10
350.11780522304338
 20
132.62402039379069
 30
0.0
 11
334.4786091645168
 21
132.62402039379069
 31
0.0
  0
LINE
  5
FC3
  8
LOGO
 62
     4
 10
350.10901804812181
 20
156.14061478293081
 30
0.0
 11
342.78472487044348
 21
156.14061478293081
 31
0.0
  0
LINE
  5
FC4
  8
LOGO
 62
     4
 10
350.10901804812181
 20
147.50186582365481
 30
0.0
 11
342.78472487044348
 21
147.50186582365481
 31
0.0
  0
LINE
  5
FC5
  8
LOGO
 62
     4
 10
342.78472487044348
 20
156.14061478293081
 30
0.0
 11
342.78472487044348
 21
147.50186582365481
 31
0.0
  0
LINE
  5
FC6
  8
LOGO
 62
     4
 10
350.10901804812181
 20
156.14061478293081
 30
0.0
 11
350.10901804812181
 21
147.50186582365481
 31
0.0
  0
LINE
  5
FC7
  8
LOGO
 62
     4
 10
347.38041936860458
 20
147.50186582365481
 30
0.0
 11
347.38041936860412
 21
145.34217858383619
 31
0.0
  0
TEXT
  5
FC8
  8
LOGO
  6
CONTINUOUS
 62
     7
 10
344.71572397809109
 20
149.3051920390543
 30
0.0
 40
5.04
  1
*
  7
CHINESET
  0
LINE
  5
FC9
  8
LOGO
 62
     4
 10
350.11780522304338
 20
143.18249134401731
 30
0.0
 11
334.4786091645168
 21
143.18249134401731
 31
0.0
  0
TEXT
  5
FCA
  8
LOGO
  6
CONTINUOUS
 10
314.82072409268102
 20
134.11432617865739
 30
188.7231250944717
 40
2.1600000000000001
  1
Manifold
 41
0.8
  7
CHINESET
  0
TEXT
  5
FCB
  8
LOGO
 10
315.69165936448587
 20
138.11850066543249
 30
188.7231250944717
 40
3.5999999999999992
  1
連座
  7
CHINESET
  0
TEXT
  5
FCC
  8
LOGO
  6
CONTINUOUS
 10
337.11260553132439
 20
134.11432617865739
 30
188.7231250944717
 40
2.1600000000000001
  1
Number
 41
0.8
  7
CHINESET
  0
TEXT
  5
FCD
  8
LOGO
 10
336.96283823184018
 20
138.11850066543249
 30
188.7231250944717
 40
3.5999999999999992
  1
連座數
  7
CHINESET
  0
LINE
  5
FCE
  8
LOGO
 62
     4
 10
337.32989176536461
 20
145.34217858383619
 30
0.0
 11
320.39830108763539
 21
145.34217858383619
 31
0.0
  0
LINE
  5
FCF
  8
LOGO
 62
     4
 10
320.39830108763539
 20
143.18249134401731
 30
0.0
 11
320.39830108763539
 21
145.34217858383619
 31
0.0
  0
LINE
  5
FD0
  8
LOGO
 62
     4
 10
342.29820719377989
 20
143.18249134401731
 30
0.0
 11
342.29820719377989
 21
145.34217858383619
 31
0.0
  0
LINE
  5
FD1
  8
LOGO
 62
     4
 10
347.38041936860458
 20
145.34217858383619
 30
0.0
 11
342.29820719377989
 21
145.34217858383619
 31
0.0
  0
POINT
  5
FE5
  8
0
 10
-1885.9186160609679
 20
-475.755636894764
 30
0.0
1001
GENIUS_GENOBJ-N-CRS_13
1002
{
1000
OWNER
1000
GEN
1002
}
1001
GENIUS_GENOLIS_13
1002
{
1000
ENT
1005
0
1005
0
1005
0
1005
FA1
1002
}
1001
GENIUS_GENOENT_13
1002
{
1000
MYREF
1005
FE5
1002
}
1002
{
1000
GRP
1005
0
1002
}
1001
GENIUS_GENODEF_13
1002
{
1000
HIER
1070
    10
1002
}
1002
{
1000
MANEDIT
1070
     1
1002
}
1002
{
1000
NOSEL
1070
     0
1002
}
1002
{
1000
BEHIND
1070
     0
1002
}
1002
{
1000
OTHER
1070
     0
1002
}
1002
{
1000
REACTOR
1002
}
  0
POINT
  5
FE6
  8
0
 10
-1897.2432012838231
 20
-466.8800504161278
 30
0.0
1001
GENIUS_GENOBJ-N-CRS_13
1002
{
1000
OWNER
1000
GEN
1002
}
1001
GENIUS_GENOLIS_13
1002
{
1000
ENT
1005
0
1005
0
1005
0
1005
FA0
1002
}
1001
GENIUS_GENOENT_13
1002
{
1000
MYREF
1005
FE6
1002
}
1002
{
1000
GRP
1005
0
1002
}
1001
GENIUS_GENODEF_13
1002
{
1000
HIER
1070
    10
1002
}
1002
{
1000
MANEDIT
1070
     1
1002
}
1002
{
1000
NOSEL
1070
     0
1002
}
1002
{
1000
BEHIND
1070
     0
1002
}
1002
{
1000
OTHER
1070
     0
1002
}
1002
{
1000
REACTOR
1002
}
  0
POINT
  5
FE7
  8
0
 10
-1890.884527585986
 20
-475.755636894764
 30
0.0
1001
GENIUS_GENOBJ-N-CRS_13
1002
{
1000
OWNER
1000
GEN
1002
}
1001
GENIUS_GENOLIS_13
1002
{
1000
ENT
1005
0
1005
0
1005
0
1005
F9F
1002
}
1001
GENIUS_GENOENT_13
1002
{
1000
MYREF
1005
FE7
1002
}
1002
{
1000
GRP
1005
0
1002
}
1001
GENIUS_GENODEF_13
1002
{
1000
HIER
1070
    10
1002
}
1002
{
1000
MANEDIT
1070
     1
1002
}
1002
{
1000
NOSEL
1070
     0
1002
}
1002
{
1000
BEHIND
1070
     0
1002
}
1002
{
1000
OTHER
1070
     0
1002
}
1002
{
1000
REACTOR
1002
}
  0
INSERT
  5
2222
  8
0
  2
A$C117B347F
 10
314.12902829079712
 20
296.82104073873012
 30
0.0
  0
LINE
  5
2223
  8
SL
  6
ACISOTGB
 10
325.44175053227178
 20
256.83474939703677
 30
0.0
 11
319.41568848359231
 21
256.83474939703677
 31
0.0
  0
LINE
  5
2224
  8
SL
  6
ACISOTGB
 10
319.41568848359231
 20
256.83474939703677
 30
0.0
 11
319.41568848359231
 21
225.623442385234
 31
0.0
  0
LINE
  5
268F
  8
AM_7
 10
252.1658625213019
 20
241.12321140927219
 30
0.0
 11
252.1658625213019
 21
239.62321140927219
 31
0.0
  0
LINE
  5
2690
  8
AM_7
 10
251.41586252130179
 20
240.3732114092723
 30
0.0
 11
252.91586252130179
 21
240.3732114092723
 31
0.0
  0
LINE
  5
2691
  8
AM_7
 10
252.1658625213019
 20
251.87321140927219
 30
0.0
 11
252.1658625213019
 21
241.9232114092722
 31
0.0
  0
LINE
  5
2692
  8
AM_7
 10
252.1658625213019
 20
238.8232114092722
 30
0.0
 11
252.1658625213019
 21
228.87321140927219
 31
0.0
  0
LINE
  5
2693
  8
AM_7
 10
240.66586252130179
 20
240.3732114092723
 30
0.0
 11
250.61586252130181
 21
240.3732114092723
 31
0.0
  0
LINE
  5
2694
  8
AM_7
 10
253.71586252130189
 20
240.3732114092723
 30
0.0
 11
263.66586252130179
 21
240.3732114092723
 31
0.0
  0
LINE
  5
2695
  8
AM_7
 10
257.16586252130179
 20
262.12321140927219
 30
0.0
 11
257.16586252130179
 21
260.6232114092723
 31
0.0
  0
LINE
  5
2696
  8
AM_7
 10
256.4158625213019
 20
261.37321140927219
 30
0.0
 11
257.91586252130179
 21
261.37321140927219
 31
0.0
  0
LINE
  5
2697
  8
AM_7
 10
257.16586252130179
 20
272.87321140927219
 30
0.0
 11
257.16586252130179
 21
262.9232114092722
 31
0.0
  0
LINE
  5
2698
  8
AM_7
 10
257.16586252130179
 20
259.82321140927218
 30
0.0
 11
257.16586252130179
 21
249.87321140927219
 31
0.0
  0
LINE
  5
2699
  8
AM_7
 10
245.6658625213019
 20
261.37321140927219
 30
0.0
 11
255.61586252130181
 21
261.37321140927219
 31
0.0
  0
LINE
  5
269A
  8
AM_7
 10
258.71586252130191
 20
261.37321140927219
 30
0.0
 11
268.6658625213019
 21
261.37321140927219
 31
0.0
  0
LINE
  5
269B
  8
AM_7
 10
252.1658625213019
 20
283.12321140927219
 30
0.0
 11
252.1658625213019
 21
281.6232114092723
 31
0.0
  0
LINE
  5
269C
  8
AM_7
 10
251.41586252130179
 20
282.37321140927219
 30
0.0
 11
252.91586252130179
 21
282.37321140927219
 31
0.0
  0
LINE
  5
269D
  8
AM_7
 10
252.1658625213019
 20
293.87321140927219
 30
0.0
 11
252.1658625213019
 21
283.9232114092722
 31
0.0
  0
LINE
  5
269E
  8
AM_7
 10
252.1658625213019
 20
280.82321140927218
 30
0.0
 11
252.1658625213019
 21
270.87321140927219
 31
0.0
  0
LINE
  5
269F
  8
AM_7
 10
240.66586252130179
 20
282.37321140927219
 30
0.0
 11
250.61586252130181
 21
282.37321140927219
 31
0.0
  0
LINE
  5
26A0
  8
AM_7
 10
253.71586252130189
 20
282.37321140927219
 30
0.0
 11
263.66586252130179
 21
282.37321140927219
 31
0.0
  0
ARC
  5
26A1
  8
AM_4
  6
AM_ISO02W050X2
 10
252.1658625213019
 20
282.37321140927207
 30
0.0
 40
6.5785
 50
253.04143422979041
 51
196.4286487861219
  0
LINE
  5
26A4
  8
AM_7
 10
297.21244084554093
 20
282.37321140927207
 30
0.0
 11
347.12531605578192
 21
282.37321140927207
 31
0.0
  0
LINE
  5
26A5
  8
AM_7
 10
297.21244084554093
 20
240.3732114092721
 30
0.0
 11
347.12531605578192
 21
240.3732114092721
 31
0.0
  0
LINE
  5
26AF
  8
AM_7
 10
311.6688784506614
 20
286.1447137222616
 30
0.0
 11
311.6688784506614
 21
235.99119770938151
 31
0.0
  0
LINE
  5
26B2
  8
AM_7
 10
319.46887845066141
 20
283.12321140927207
 30
0.0
 11
319.46887845066141
 21
281.62321140927207
 31
0.0
  0
LINE
  5
26B3
  8
AM_7
 10
318.71887845066129
 20
282.37321140927207
 30
0.0
 11
320.21887845066129
 21
282.37321140927207
 31
0.0
  0
LINE
  5
26B4
  8
AM_7
 10
319.46887845066141
 20
286.08421140927197
 30
0.0
 11
319.46887845066141
 21
283.92321140927208
 31
0.0
  0
LINE
  5
26B5
  8
AM_7
 10
319.46887845066141
 20
280.82321140927212
 30
0.0
 11
319.46887845066141
 21
278.66221140927212
 31
0.0
  0
LINE
  5
26B6
  8
AM_7
 10
315.75787845066128
 20
282.37321140927207
 30
0.0
 11
317.9188784506614
 21
282.37321140927207
 31
0.0
  0
LINE
  5
26B7
  8
AM_7
 10
321.01887845066142
 20
282.37321140927207
 30
0.0
 11
323.17987845066142
 21
282.37321140927207
 31
0.0
  0
LINE
  5
26B8
  8
AM_7
 10
305.86887845066138
 20
241.1232114092721
 30
0.0
 11
305.86887845066138
 21
239.6232114092721
 31
0.0
  0
LINE
  5
26B9
  8
AM_7
 10
305.1188784506615
 20
240.3732114092721
 30
0.0
 11
306.6188784506615
 21
240.3732114092721
 31
0.0
  0
LINE
  5
26BA
  8
AM_7
 10
305.86887845066138
 20
244.08421140927209
 30
0.0
 11
305.86887845066138
 21
241.92321140927211
 31
0.0
  0
LINE
  5
26BB
  8
AM_7
 10
305.86887845066138
 20
238.82321140927201
 30
0.0
 11
305.86887845066138
 21
236.66221140927209
 31
0.0
  0
LINE
  5
26BC
  8
AM_7
 10
302.15787845066143
 20
240.3732114092721
 30
0.0
 11
304.31887845066137
 21
240.3732114092721
 31
0.0
  0
LINE
  5
26BD
  8
AM_7
 10
307.4188784506614
 20
240.3732114092721
 30
0.0
 11
309.57987845066151
 21
240.3732114092721
 31
0.0
  0
LINE
  5
26BE
  8
AM_7
 10
299.1688784506614
 20
272.62321140927207
 30
0.0
 11
299.1688784506614
 21
271.12321140927207
 31
0.0
  0
LINE
  5
26BF
  8
AM_7
 10
298.4188784506614
 20
271.87321140927207
 30
0.0
 11
299.9188784506614
 21
271.87321140927207
 31
0.0
  0
LINE
  5
26C0
  8
AM_7
 10
299.1688784506614
 20
276.12321140927207
 30
0.0
 11
299.1688784506614
 21
273.42321140927208
 31
0.0
  0
LINE
  5
26C1
  8
AM_7
 10
299.1688784506614
 20
270.32321140927201
 30
0.0
 11
299.1688784506614
 21
267.62321140927207
 31
0.0
  0
LINE
  5
26C2
  8
AM_7
 10
294.9188784506614
 20
271.87321140927207
 30
0.0
 11
297.61887845066138
 21
271.87321140927207
 31
0.0
  0
LINE
  5
26C3
  8
AM_7
 10
300.71887845066141
 20
271.87321140927207
 30
0.0
 11
303.4188784506614
 21
271.87321140927207
 31
0.0
  0
LINE
  5
26C4
  8
AM_7
 10
299.1688784506614
 20
251.6232114092721
 30
0.0
 11
299.1688784506614
 21
250.1232114092721
 31
0.0
  0
LINE
  5
26C5
  8
AM_7
 10
298.4188784506614
 20
250.8732114092721
 30
0.0
 11
299.9188784506614
 21
250.8732114092721
 31
0.0
  0
LINE
  5
26C6
  8
AM_7
 10
299.1688784506614
 20
255.1232114092721
 30
0.0
 11
299.1688784506614
 21
252.42321140927211
 31
0.0
  0
LINE
  5
26C7
  8
AM_7
 10
299.1688784506614
 20
249.32321140927201
 30
0.0
 11
299.1688784506614
 21
246.6232114092721
 31
0.0
  0
LINE
  5
26C8
  8
AM_7
 10
294.9188784506614
 20
250.8732114092721
 30
0.0
 11
297.61887845066138
 21
250.8732114092721
 31
0.0
  0
LINE
  5
26C9
  8
AM_7
 10
300.71887845066141
 20
250.8732114092721
 30
0.0
 11
303.4188784506614
 21
250.8732114092721
 31
0.0
  0
LINE
  5
26CA
  8
AM_7
 10
345.1688784506614
 20
272.62321140927202
 30
0.0
 11
345.1688784506614
 21
271.12321140927202
 31
0.0
  0
LINE
  5
26CB
  8
AM_7
 10
344.4188784506614
 20
271.87321140927202
 30
0.0
 11
345.9188784506614
 21
271.87321140927202
 31
0.0
  0
LINE
  5
26CC
  8
AM_7
 10
345.1688784506614
 20
276.12321140927202
 30
0.0
 11
345.1688784506614
 21
273.42321140927208
 31
0.0
  0
LINE
  5
26CD
  8
AM_7
 10
345.1688784506614
 20
270.32321140927201
 30
0.0
 11
345.1688784506614
 21
267.62321140927202
 31
0.0
  0
LINE
  5
26CE
  8
AM_7
 10
340.9188784506614
 20
271.87321140927202
 30
0.0
 11
343.61887845066138
 21
271.87321140927202
 31
0.0
  0
LINE
  5
26CF
  8
AM_7
 10
346.71887845066141
 20
271.87321140927202
 30
0.0
 11
349.4188784506614
 21
271.87321140927202
 31
0.0
  0
LINE
  5
26D0
  8
AM_7
 10
345.1688784506614
 20
251.62321140927199
 30
0.0
 11
345.1688784506614
 21
250.12321140927199
 31
0.0
  0
LINE
  5
26D1
  8
AM_7
 10
344.4188784506614
 20
250.87321140927199
 30
0.0
 11
345.9188784506614
 21
250.87321140927199
 31
0.0
  0
LINE
  5
26D2
  8
AM_7
 10
345.1688784506614
 20
255.12321140927199
 30
0.0
 11
345.1688784506614
 21
252.42321140927211
 31
0.0
  0
LINE
  5
26D3
  8
AM_7
 10
345.1688784506614
 20
249.32321140927201
 30
0.0
 11
345.1688784506614
 21
246.62321140927199
 31
0.0
  0
LINE
  5
26D4
  8
AM_7
 10
340.9188784506614
 20
250.87321140927199
 30
0.0
 11
343.61887845066138
 21
250.87321140927199
 31
0.0
  0
LINE
  5
26D5
  8
AM_7
 10
346.71887845066141
 20
250.87321140927199
 30
0.0
 11
349.4188784506614
 21
250.87321140927199
 31
0.0
  0
LINE
  5
26DA
  8
AM_7
 10
287.28620486708883
 20
261.37321140927207
 30
0.0
 11
356.72290322365961
 21
261.37321140927207
 31
0.0
  0
CIRCLE
  5
26DC
  8
AM_4
  6
HIDDEN2
 10
319.46887845066141
 20
282.37321140927207
 30
0.0
 40
2.1095000000000002
  0
CIRCLE
  5
26DD
  8
AM_4
  6
HIDDEN2
 10
305.86887845066133
 20
240.3732114092721
 30
0.0
 40
2.1095000000000002
  0
LINE
  5
26E7
  8
AM_7
 10
330.6688784506614
 20
286.1447137222616
 30
0.0
 11
330.6688784506614
 21
235.99119770938151
 31
0.0
  0
LINE
  5
26EA
  8
AM_7
 10
338.46887845066141
 20
283.12321140927207
 30
0.0
 11
338.46887845066141
 21
281.62321140927207
 31
0.0
  0
LINE
  5
26EB
  8
AM_7
 10
337.71887845066141
 20
282.37321140927207
 30
0.0
 11
339.21887845066129
 21
282.37321140927207
 31
0.0
  0
LINE
  5
26EC
  8
AM_7
 10
338.46887845066141
 20
286.08421140927197
 30
0.0
 11
338.46887845066141
 21
283.92321140927208
 31
0.0
  0
LINE
  5
26ED
  8
AM_7
 10
338.46887845066141
 20
280.82321140927212
 30
0.0
 11
338.46887845066141
 21
278.66221140927212
 31
0.0
  0
LINE
  5
26EE
  8
AM_7
 10
334.75787845066128
 20
282.37321140927207
 30
0.0
 11
336.9188784506614
 21
282.37321140927207
 31
0.0
  0
LINE
  5
26EF
  8
AM_7
 10
340.01887845066142
 20
282.37321140927207
 30
0.0
 11
342.17987845066142
 21
282.37321140927207
 31
0.0
  0
LINE
  5
26F0
  8
AM_7
 10
324.86887845066138
 20
241.1232114092721
 30
0.0
 11
324.86887845066138
 21
239.6232114092721
 31
0.0
  0
LINE
  5
26F1
  8
AM_7
 10
324.11887845066138
 20
240.3732114092721
 30
0.0
 11
325.6188784506615
 21
240.3732114092721
 31
0.0
  0
LINE
  5
26F2
  8
AM_7
 10
324.86887845066138
 20
244.08421140927209
 30
0.0
 11
324.86887845066138
 21
241.92321140927211
 31
0.0
  0
LINE
  5
26F3
  8
AM_7
 10
324.86887845066138
 20
238.82321140927201
 30
0.0
 11
324.86887845066138
 21
236.66221140927209
 31
0.0
  0
LINE
  5
26F4
  8
AM_7
 10
321.15787845066143
 20
240.3732114092721
 30
0.0
 11
323.31887845066137
 21
240.3732114092721
 31
0.0
  0
LINE
  5
26F5
  8
AM_7
 10
326.4188784506614
 20
240.3732114092721
 30
0.0
 11
328.57987845066151
 21
240.3732114092721
 31
0.0
  0
CIRCLE
  5
26FC
  8
AM_4
  6
HIDDEN2
 10
338.46887845066152
 20
282.37321140927207
 30
0.0
 40
2.1095000000000002
  0
CIRCLE
  5
26FD
  8
AM_4
  6
HIDDEN2
 10
324.86887845066133
 20
240.3732114092721
 30
0.0
 40
2.1095000000000002
  0
LINE
  5
2714
  8
AM_7
 10
340.15787845066143
 20
240.3732114092721
 30
0.0
 11
342.31887845066137
 21
240.3732114092721
 31
0.0
  0
LINE
  5
2715
  8
AM_7
 10
345.4188784506614
 20
240.3732114092721
 30
0.0
 11
347.5798784506614
 21
240.3732114092721
 31
0.0
  0
DIMENSION
  5
271E
  8
AM_5
  2
*D50
 10
289.1688784506614
 20
219.37321140927219
 30
0.0
 11
294.1688784506614
 21
222.12321140927219
 31
0.0
 70
     0
 13
299.1688784506614
 23
246.6232114092721
 33
0.0
 14
289.1688784506614
 24
231.3732114092721
 34
0.0
  0
DIMENSION
  5
271F
  8
AM_5
  2
*D51
 10
345.1688784506614
 20
219.37321140927219
 30
0.0
 11
322.1688784506614
 21
222.12321140927219
 31
0.0
 70
     0
  1
<>
 13
299.1688784506614
 23
246.6232114092721
 33
0.0
 14
345.1688784506614
 24
246.62321140927199
 34
0.0
  0
DIMENSION
  5
2722
  8
AM_5
  2
*D54
 10
355.1688784506614
 20
211.37321140927219
 30
0.0
 11
322.1688784506614
 21
214.12321140927219
 31
0.0
 70
     0
  1
<>
 13
289.1688784506614
 23
231.3732114092721
 33
0.0
 14
355.1688784506614
 24
231.3732114092721
 34
0.0
  0
DIMENSION
  5
2724
  8
AM_5
  2
*D56
 10
367.25438395749529
 20
250.87321140927199
 30
0.0
 11
364.50403946930618
 21
261.37321140927207
 31
0.0
 70
     0
 13
349.4188784506614
 23
271.87321140927202
 33
0.0
 14
349.4188784506614
 24
250.87321140927199
 34
0.0
 50
270.0
  0
DIMENSION
  5
2725
  8
AM_5
  2
*D57
 10
343.62305768306499
 20
252.5081236865725
 30
0.0
 11
373.55150653857157
 21
233.69820731058269
 31
0.0
 70
   131
  1
2×2-<>貫通
 15
346.71469921825729
 25
249.23829913197139
 35
0.0
 40
0.0
1001
ACAD
1000
DSTYLE
1002
{
1070
   287
1070
     3
1070
    74
1070
     1
1070
   172
1070
     0
1070
   271
1070
     1
1070
   289
1070
     3
1002
}
  0
DIMENSION
  5
272C
  8
AM_5
  2
*D64
 10
281.92426129476598
 20
282.37321140927207
 30
0.0
 11
279.17391680657693
 21
271.87321140927219
 31
0.0
 70
     0
 13
287.28620486708883
 23
261.37321140927207
 33
0.0
 14
315.75787845066128
 24
282.37321140927207
 34
0.0
 50
270.0
  0
DIMENSION
  5
272D
  8
AM_5
  2
*D65
 10
281.92426129476598
 20
240.3732114092721
 30
0.0
 11
279.17391680657693
 21
250.87321140927219
 31
0.0
 70
     0
 13
287.28620486708883
 23
261.37321140927207
 33
0.0
 14
302.15787845066143
 24
240.3732114092721
 34
0.0
 50
270.0
  0
DIMENSION
  5
2738
  8
AM_5
  2
*D70
 10
257.16586252130179
 20
211.37321140927219
 30
0.0
 11
248.91586252130179
 21
214.2982114092722
 31
0.0
 70
     0
  1
(<>)
 13
240.66586252130179
 23
231.6732114092722
 33
0.0
 14
257.16586252130179
 24
249.87321140927219
 34
0.0
  0
DIMENSION
  5
2739
  8
AM_5
  2
*D71
 10
266.6658625213019
 20
203.37321140927219
 30
0.0
 11
253.66586252130179
 21
206.1235558974611
 31
0.0
 70
     0
  1
<>
 13
240.66586252130179
 23
231.6732114092722
 33
0.0
 14
266.6658625213019
 24
232.37321140927219
 34
0.0
  0
DIMENSION
  5
2742
  8
AM_5
  2
*D73
 10
233.95594714225149
 20
282.37321140927219
 30
0.0
 11
231.03094714225139
 21
271.8732114092723
 31
0.0
 70
     0
  1
(<>)
 13
245.6658625213019
 23
261.37321140927219
 33
0.0
 14
240.66586252130179
 24
282.37321140927219
 34
0.0
 50
270.0
  0
DIMENSION
  5
2743
  8
AM_5
  2
*D74
 10
233.9559471522515
 20
240.3732114092723
 30
0.0
 11
231.0309471522514
 21
250.8732114092723
 31
0.0
 70
     0
  1
(<>)
 13
245.6658625213019
 23
261.37321140927219
 33
0.0
 14
240.66586252130179
 24
240.3732114092723
 34
0.0
 50
270.0
  0
DIMENSION
  5
2744
  8
AM_5
  2
*D75
 10
226.38335110239879
 20
231.37321140927219
 30
0.0
 11
223.45835110239881
 21
261.3732114092723
 31
0.0
 70
     0
  1
(<>)
 13
240.96586252130189
 23
291.37321140927219
 33
0.0
 14
240.96586252130189
 24
231.37321140927219
 34
0.0
 50
270.0
  0
ARC
  5
2746
  8
AM_VIS
 10
252.1658625213019
 20
282.37321140927207
 30
0.0
 40
9.5
 50
151.5631098511447
 51
257.84680253099248
  0
ARC
  5
274A
  8
AM_VIS
 10
265.66586252130179
 20
232.3732114092721
 30
0.0
 40
0.9999999999999998
 50
270.0
 51
0.0
  0
ARC
  5
274B
  8
AM_VIS
 10
265.66586252130179
 20
290.37321140927207
 30
0.0
 40
0.9999999999999998
 50
0.0
 51
89.999999999999986
  0
ARC
  5
274C
  8
AM_VIS
 10
240.9658625213018
 20
291.07321140927201
 30
0.0
 40
0.3
 50
89.999999999999986
 51
180.0
  0
ARC
  5
274D
  8
AM_VIS
 10
240.9658625213018
 20
288.67321140927208
 30
0.0
 40
0.3
 50
180.0
 51
270.0
  0
ARC
  5
274E
  8
AM_VIS
 10
242.93276986499211
 20
287.37321140927207
 30
0.0
 40
1.0
 50
331.56310985114459
 51
89.999999999999986
  0
ARC
  5
274F
  8
AM_VIS
 10
257.16586252130179
 20
261.37321140927207
 30
0.0
 40
9.5
 50
121.75686385929551
 51
238.24313614070309
  0
ARC
  5
2750
  8
AM_VIS
 10
252.1658625213019
 20
240.3732114092721
 30
0.0
 40
9.5
 50
102.15319746900749
 51
208.4368901488553
  0
ARC
  5
2751
  8
AM_VIS
 10
242.93276986499211
 20
235.3732114092721
 30
0.0
 40
1.0
 50
270.0
 51
28.436890148855301
  0
ARC
  5
2752
  8
AM_VIS
 10
240.9658625213018
 20
234.07321140927209
 30
0.0
 40
0.3
 50
89.999999999999986
 51
180.0
  0
ARC
  5
2753
  8
AM_VIS
 10
240.9658625213018
 20
231.67321140927211
 30
0.0
 40
0.3
 50
180.0
 51
270.0
  0
CIRCLE
  5
2755
  8
AM_VIS
 10
257.16586252130179
 20
261.37321140927207
 30
0.0
 40
5.6500000000000004
  0
CIRCLE
  5
2757
  8
AM_VIS
 10
252.1658625213019
 20
240.3732114092721
 30
0.0
 40
5.6500000000000004
  0
CIRCLE
  5
2759
  8
AM_VIS
 10
252.1658625213019
 20
282.37321140927207
 30
0.0
 40
5.6500000000000004
  0
LINE
  5
275A
  8
AM_VIS
 10
266.6658625213019
 20
232.37321140927219
 30
0.0
 11
266.6658625213019
 21
290.37321140927219
 31
0.0
  0
LINE
  5
275B
  8
AM_VIS
 10
250.1658625213019
 20
273.08612359876878
 30
0.0
 11
252.1658625213019
 21
269.4509586199739
 31
0.0
  0
LINE
  5
275C
  8
AM_VIS
 10
252.1658625213019
 20
253.2954641985705
 30
0.0
 11
250.1658625213019
 21
249.66029921977551
 31
0.0
  0
LINE
  5
275D
  8
AM_VIS
 10
265.66586252130179
 20
291.37321140927219
 30
0.0
 11
240.96586252130189
 21
291.37321140927219
 31
0.0
  0
LINE
  5
275E
  8
AM_VIS
 10
240.66586252130179
 20
291.07321140927218
 30
0.0
 11
240.66586252130179
 21
288.6732114092722
 31
0.0
  0
LINE
  5
275F
  8
AM_VIS
 10
240.96586252130189
 20
288.3732114092723
 30
0.0
 11
242.9327698649922
 21
288.3732114092723
 31
0.0
  0
LINE
  5
2760
  8
AM_VIS
 10
242.9327698649922
 20
234.37321140927219
 30
0.0
 11
240.96586252130189
 21
234.37321140927219
 31
0.0
  0
LINE
  5
2761
  8
AM_VIS
 10
240.66586252130179
 20
234.0732114092722
 30
0.0
 11
240.66586252130179
 21
231.6732114092722
 31
0.0
  0
LINE
  5
2762
  8
AM_VIS
 10
240.96586252130189
 20
231.37321140927219
 30
0.0
 11
265.66586252130179
 21
231.37321140927219
 31
0.0
  0
LINE
  5
2763
  8
AM_VIS
 10
355.1688784506614
 20
291.37321140927219
 30
0.0
 11
289.1688784506614
 21
291.37321140927219
 31
0.0
  0
LINE
  5
2764
  8
AM_VIS
 10
289.1688784506614
 20
231.3732114092721
 30
0.0
 11
355.1688784506614
 21
231.3732114092721
 31
0.0
  0
LINE
  5
276B
  8
AM_VIS
 10
289.1688784506614
 20
232.3732114092721
 30
0.0
 11
289.1688784506614
 21
290.37321140927207
 31
0.0
  0
LINE
  5
276C
  8
AM_VIS
 10
355.1688784506614
 20
232.3732114092721
 30
0.0
 11
355.1688784506614
 21
290.37321140927207
 31
0.0
  0
LINE
  5
276D
  8
AM_VIS
 10
355.1688784506614
 20
291.37321140927219
 30
0.0
 11
355.1688784506614
 21
290.37321140927207
 31
0.0
  0
LINE
  5
276E
  8
AM_VIS
 10
355.1688784506614
 20
232.3732114092721
 30
0.0
 11
355.1688784506614
 21
231.3732114092721
 31
0.0
  0
LINE
  5
276F
  8
AM_VIS
 10
289.1688784506614
 20
290.37321140927207
 30
0.0
 11
289.1688784506614
 21
291.37321140927219
 31
0.0
  0
LINE
  5
2770
  8
AM_VIS
 10
289.1688784506614
 20
231.3732114092721
 30
0.0
 11
289.1688784506614
 21
232.3732114092721
 31
0.0
  0
CIRCLE
  5
2771
  8
AM_VIS
 10
319.46887845066141
 20
282.37321140927207
 30
0.0
 40
1.7110000000000001
  0
CIRCLE
  5
2772
  8
AM_VIS
 10
305.86887845066133
 20
240.3732114092721
 30
0.0
 40
1.7110000000000001
  0
CIRCLE
  5
2773
  8
AM_VIS
 10
338.46887845066152
 20
282.37321140927207
 30
0.0
 40
1.7110000000000001
  0
CIRCLE
  5
2774
  8
AM_VIS
 10
324.86887845066133
 20
240.3732114092721
 30
0.0
 40
1.7110000000000001
  0
CIRCLE
  5
2776
  8
AM_VIS
 10
324.86887845066133
 20
240.3732114092721
 30
0.0
 40
2.110999999999998
  0
CIRCLE
  5
2777
  8
AM_VIS
 10
305.86887845066133
 20
240.3732114092721
 30
0.0
 40
2.110999999999998
  0
CIRCLE
  5
2779
  8
AM_VIS
 10
299.1688784506614
 20
271.87321140927207
 30
0.0
 40
2.25
  0
CIRCLE
  5
277A
  8
AM_VIS
 10
299.1688784506614
 20
250.8732114092721
 30
0.0
 40
2.25
  0
CIRCLE
  5
277B
  8
AM_VIS
 10
345.1688784506614
 20
271.87321140927202
 30
0.0
 40
2.25
  0
CIRCLE
  5
277C
  8
AM_VIS
 10
345.1688784506614
 20
250.87321140927199
 30
0.0
 40
2.25
  0
CIRCLE
  5
277F
  8
AM_VIS
 10
319.46887845066141
 20
282.37321140927207
 30
0.0
 40
2.110999999999998
  0
CIRCLE
  5
2786
  8
AM_VIS
 10
338.46887845066152
 20
282.37321140927207
 30
0.0
 40
2.1110000000000051
  0
DIMENSION
  5
2BDD
  8
AM_5
  2
*D76
 10
252.1658625213021
 20
282.3732114092723
 30
0.0
 11
231.97690863033611
 21
299.57315780703379
 31
0.0
 70
   132
  1
3×2-PT1/4
 15
249.3946502487841
 25
288.3395373130968
 35
0.0
 40
0.0
1001
ACAD
1000
DSTYLE
1002
{
1070
    40
1040
1.0
1070
   144
1040
1.0
1002
}
  0
ARC
  5
2C0B
  8
AM_4
  6
AM_ISO02W050X2
 10
257.16586252130179
 20
261.37321140927207
 30
0.0
 40
6.5785
 50
253.04143422979041
 51
196.4286487861219
  0
ARC
  5
2C0C
  8
AM_4
  6
AM_ISO02W050X2
 10
252.1658625213019
 20
240.3732114092721
 30
0.0
 40
6.5785
 50
253.04143422979041
 51
196.4286487861219
  0
DIMENSION
  5
2C1C
  8
AM_5
  2
*D77
 10
252.1658625213019
 20
219.37321140927219
 30
0.0
 11
246.41586252130179
 21
222.2982114092722
 31
0.0
 70
     0
  1
(<>)
 13
240.66586252130179
 23
231.6732114092722
 33
0.0
 14
252.1658625213019
 24
228.87321140927219
 34
0.0
  0
INSERT
  5
3000
  8
0
  2
A$C4A810FDD
 10
324.81142424692229
 20
304.96360215282471
 30
0.0
  0
ENDSEC
  0
EOF
