  0
SECTION
  2
HEADER
  9
$ACADVER
  1
AC1015
  9
$ACADMAINTVER
 70
    20
  9
$DWGCODEPAGE
  3
ANSI_950
  9
$INSBASE
 10
0.0
 20
0.0
 30
0.0
  9
$EXTMIN
 10
156.2221506746066
 20
92.90652150304572
 30
-0.0093952073394803
  9
$EXTMAX
 10
529.4087357170562
 20
371.2069473092195
 30
226.484165973549
  9
$LIMMIN
 10
0.0
 20
0.0
  9
$LIMMAX
 10
420.0
 20
297.0
  9
$ORTHOMODE
 70
     1
  9
$REGENMODE
 70
     1
  9
$FILLMODE
 70
     1
  9
$QTEXTMODE
 70
     0
  9
$MIRRTEXT
 70
     1
  9
$LTSCALE
 40
1.0
  9
$ATTMODE
 70
     1
  9
$TEXTSIZE
 40
3.0
  9
$TRACEWID
 40
1.0
  9
$TEXTSTYLE
  7
STANDARD
  9
$CLAYER
  8
0
  9
$CELTYPE
  6
ByLayer
  9
$CECOLOR
 62
   256
  9
$CELTSCALE
 40
1.0
  9
$DISPSILH
 70
     0
  9
$DIMSCALE
 40
1.0
  9
$DIMASZ
 40
3.0
  9
$DIMEXO
 40
1.0
  9
$DIMDLI
 40
8.0
  9
$DIMRND
 40
0.0
  9
$DIMDLE
 40
0.0
  9
$DIMEXE
 40
1.5
  9
$DIMTP
 40
0.1
  9
$DIMTM
 40
0.1
  9
$DIMTXT
 40
3.5
  9
$DIMCEN
 40
0.0
  9
$DIMTSZ
 40
0.0
  9
$DIMTOL
 70
     0
  9
$DIMLIM
 70
     0
  9
$DIMTIH
 70
     0
  9
$DIMTOH
 70
     0
  9
$DIMSE1
 70
     0
  9
$DIMSE2
 70
     0
  9
$DIMTAD
 70
     1
  9
$DIMZIN
 70
     8
  9
$DIMBLK
  1

  9
$DIMASO
 70
     1
  9
$DIMSHO
 70
     1
  9
$DIMPOST
  1

  9
$DIMAPOST
  1
"
  9
$DIMALT
 70
     0
  9
$DIMALTD
 70
     2
  9
$DIMALTF
 40
0.0393701
  9
$DIMLFAC
 40
1.0
  9
$DIMTOFL
 70
     1
  9
$DIMTVP
 40
0.0
  9
$DIMTIX
 70
     0
  9
$DIMSOXD
 70
     0
  9
$DIMSAH
 70
     0
  9
$DIMBLK1
  1

  9
$DIMBLK2
  1

  9
$DIMSTYLE
  2
AM_ISO
  9
$DIMCLRD
 70
   256
  9
$DIMCLRE
 70
   256
  9
$DIMCLRT
 70
   256
  9
$DIMTFAC
 40
0.6
  9
$DIMGAP
 40
0.7
  9
$DIMJUST
 70
     0
  9
$DIMSD1
 70
     0
  9
$DIMSD2
 70
     0
  9
$DIMTOLJ
 70
     0
  9
$DIMTZIN
 70
     8
  9
$DIMALTZ
 70
     0
  9
$DIMALTTZ
 70
     0
  9
$DIMUPT
 70
     0
  9
$DIMDEC
 70
     2
  9
$DIMTDEC
 70
     8
  9
$DIMALTU
 70
     2
  9
$DIMALTTD
 70
     2
  9
$DIMTXSTY
  7
STANDARD
  9
$DIMAUNIT
 70
     0
  9
$DIMADEC
 70
     0
  9
$DIMALTRND
 40
0.0
  9
$DIMAZIN
 70
     2
  9
$DIMDSEP
 70
    46
  9
$DIMATFIT
 70
     3
  9
$DIMFRAC
 70
     0
  9
$DIMLDRBLK
  1

  9
$DIMLUNIT
 70
     2
  9
$DIMLWD
 70
    -1
  9
$DIMLWE
 70
    -1
  9
$DIMTMOVE
 70
     0
  9
$LUNITS
 70
     2
  9
$LUPREC
 70
     2
  9
$SKETCHINC
 40
1.0
  9
$FILLETRAD
 40
2.5
  9
$AUNITS
 70
     0
  9
$AUPREC
 70
     0
  9
$MENU
  1
.
  9
$ELEVATION
 40
0.0
  9
$PELEVATION
 40
0.0
  9
$THICKNESS
 40
0.0
  9
$LIMCHECK
 70
     0
  9
$CHAMFERA
 40
2.5
  9
$CHAMFERB
 40
2.5
  9
$CHAMFERC
 40
20.0
  9
$CHAMFERD
 40
0.0
  9
$SKPOLY
 70
     0
  9
$TDCREATE
 40
2454188.339225614
  9
$TDUCREATE
 40
2454188.005892280
  9
$TDUPDATE
 40
2454188.418610926
  9
$TDUUPDATE
 40
2454188.085277593
  9
$TDINDWG
 40
0.0790565394
  9
$TDUSRTIMER
 40
0.0790565394
  9
$USRTIMER
 70
     1
  9
$ANGBASE
 50
0.0
  9
$ANGDIR
 70
     0
  9
$PDMODE
 70
     0
  9
$PDSIZE
 40
0.0
  9
$PLINEWID
 40
0.0
  9
$SPLFRAME
 70
     0
  9
$SPLINETYPE
 70
     6
  9
$SPLINESEGS
 70
     8
  9
$HANDSEED
  5
20F5
  9
$SURFTAB1
 70
     6
  9
$SURFTAB2
 70
     6
  9
$SURFTYPE
 70
     6
  9
$SURFU
 70
     6
  9
$SURFV
 70
     6
  9
$UCSBASE
  2

  9
$UCSNAME
  2

  9
$UCSORG
 10
0.0
 20
0.0
 30
0.0
  9
$UCSXDIR
 10
1.0
 20
0.0
 30
0.0
  9
$UCSYDIR
 10
0.0
 20
1.0
 30
0.0
  9
$UCSORTHOREF
  2

  9
$UCSORTHOVIEW
 70
     0
  9
$UCSORGTOP
 10
0.0
 20
0.0
 30
0.0
  9
$UCSORGBOTTOM
 10
0.0
 20
0.0
 30
0.0
  9
$UCSORGLEFT
 10
0.0
 20
0.0
 30
0.0
  9
$UCSORGRIGHT
 10
0.0
 20
0.0
 30
0.0
  9
$UCSORGFRONT
 10
0.0
 20
0.0
 30
0.0
  9
$UCSORGBACK
 10
0.0
 20
0.0
 30
0.0
  9
$PUCSBASE
  2

  9
$PUCSNAME
  2

  9
$PUCSORG
 10
0.0
 20
0.0
 30
0.0
  9
$PUCSXDIR
 10
1.0
 20
0.0
 30
0.0
  9
$PUCSYDIR
 10
0.0
 20
1.0
 30
0.0
  9
$PUCSORTHOREF
  2

  9
$PUCSORTHOVIEW
 70
     0
  9
$PUCSORGTOP
 10
0.0
 20
0.0
 30
0.0
  9
$PUCSORGBOTTOM
 10
0.0
 20
0.0
 30
0.0
  9
$PUCSORGLEFT
 10
0.0
 20
0.0
 30
0.0
  9
$PUCSORGRIGHT
 10
0.0
 20
0.0
 30
0.0
  9
$PUCSORGFRONT
 10
0.0
 20
0.0
 30
0.0
  9
$PUCSORGBACK
 10
0.0
 20
0.0
 30
0.0
  9
$USERI1
 70
     0
  9
$USERI2
 70
     0
  9
$USERI3
 70
     0
  9
$USERI4
 70
     0
  9
$USERI5
 70
     0
  9
$USERR1
 40
0.0
  9
$USERR2
 40
0.0
  9
$USERR3
 40
0.0
  9
$USERR4
 40
0.0
  9
$USERR5
 40
0.0
  9
$WORLDVIEW
 70
     1
  9
$SHADEDGE
 70
     3
  9
$SHADEDIF
 70
    70
  9
$TILEMODE
 70
     1
  9
$MAXACTVP
 70
    64
  9
$PINSBASE
 10
0.0
 20
0.0
 30
0.0
  9
$PLIMCHECK
 70
     0
  9
$PEXTMIN
 10
1.000000000000000E+20
 20
1.000000000000000E+20
 30
1.000000000000000E+20
  9
$PEXTMAX
 10
-1.000000000000000E+20
 20
-1.000000000000000E+20
 30
-1.000000000000000E+20
  9
$PLIMMIN
 10
0.0
 20
0.0
  9
$PLIMMAX
 10
420.0
 20
297.0
  9
$UNITMODE
 70
     0
  9
$VISRETAIN
 70
     1
  9
$PLINEGEN
 70
     0
  9
$PSLTSCALE
 70
     1
  9
$TREEDEPTH
 70
  3020
  9
$CMLSTYLE
  2
Standard
  9
$CMLJUST
 70
     0
  9
$CMLSCALE
 40
20.0
  9
$PROXYGRAPHICS
 70
     1
  9
$MEASUREMENT
 70
     1
  9
$CELWEIGHT
370
    -1
  9
$ENDCAPS
280
     0
  9
$JOINSTYLE
280
     0
  9
$LWDISPLAY
290
     0
  9
$INSUNITS
 70
     4
  9
$HYPERLINKBASE
  1

  9
$STYLESHEET
  1
彩色出圖.ctb
  9
$XEDIT
290
     1
  9
$CEPSNTYPE
380
     0
  9
$PSTYLEMODE
290
     1
  9
$FINGERPRINTGUID
  2
{A05341BE-50C2-4D4D-A352-865525512463}
  9
$VERSIONGUID
  2
{E5862578-5D92-4369-8901-9D4FC7B99BD2}
  9
$EXTNAMES
290
     1
  9
$PSVPSCALE
 40
0.0
  9
$OLESTARTUP
290
     0
  0
ENDSEC
  0
SECTION
  2
CLASSES
  0
CLASS
  1
ACDBDICTIONARYWDFLT
  2
AcDbDictionaryWithDefault
  3
ObjectDBX Classes
 90
        0
280
     0
281
     0
  0
CLASS
  1
ACDBPLACEHOLDER
  2
AcDbPlaceHolder
  3
ObjectDBX Classes
 90
        0
280
     0
281
     0
  0
CLASS
  1
LAYOUT
  2
AcDbLayout
  3
ObjectDBX Classes
 90
        0
280
     0
281
     0
  0
CLASS
  1
ACME_DOCUMENT
  2
AcMeDbDoc
  3
AcMeServices
 90
        0
280
     0
281
     0
  0
CLASS
  1
AMGSETTINGSOBJ
  2
AmgSettingsObj
  3
"AcadM|Product Description: AutoCAD Mechanical 2000|Company: Autodesk"
 90
        0
280
     0
281
     0
  0
CLASS
  1
ACMESCOPE
  2
AcMeScope
  3
AcMeServices
 90
        0
280
     0
281
     0
  0
CLASS
  1
ACMECOMMANDHISTORY
  2
AcMeCommandHistory
  3
AcMeServices
 90
        0
280
     0
281
     0
  0
CLASS
  1
ACIMSYSVARMAN
  2
AcImSysVarManager
  3
AcMeServices
 90
        0
280
     0
281
     0
  0
CLASS
  1
ACIMREALSYSVAR
  2
AcImRealSysVar
  3
AcMeServices
 90
        0
280
     0
281
     0
  0
CLASS
  1
ACIMINTSYSVAR
  2
AcImIntSysVar
  3
AcMeServices
 90
        0
280
     0
281
     0
  0
CLASS
  1
ACMEDRAWINGMAN
  2
AcMeDrawingMan
  3
AcMeServices
 90
        0
280
     0
281
     0
  0
CLASS
  1
ACMEVIEW
  2
AcMeView
  3
AcMeServices
 90
        0
280
     0
281
     0
  0
CLASS
  1
ACDBENTITYCACHE
  2
AcMeEntityCache
  3
AcMeServices
 90
        0
280
     0
281
     0
  0
CLASS
  1
GSMANAGER
  2
AcMeGSManager
  3
AcMeServices
 90
        0
280
     0
281
     0
  0
CLASS
  1
AMDTINTERNALREACTOR
  2
AmdtInternalReactor
  3
AcMeServices
 90
        0
280
     0
281
     0
  0
CLASS
  1
ACMESTATEMGR
  2
AcMeStateMgr
  3
AcMeServices
 90
        0
280
     0
281
     0
  0
CLASS
  1
ACGREFMASTER
  2
AcGrefMaster
  3
AcAttribServices
 90
        0
280
     0
281
     0
  0
CLASS
  1
ACME_DATABASE
  2
AcMeDbDatabase
  3
AcMeServices
 90
        0
280
     0
281
     0
  0
CLASS
  1
ACRFINSADJUSTERMGR
  2
AcRfInsAdjusterMgr
  3
AcMeServices
 90
        0
280
     0
281
     0
  0
CLASS
  1
ACGREFACADMASTER
  2
AcGrefacadMaster
  3
AcGrefServices
 90
        0
280
     0
281
     0
  0
CLASS
  1
AMIMASTER
  2
AmiMaster
  3
AmiServices
 90
        0
280
     0
281
     0
  0
CLASS
  1
ACMDATADICTIONARY
  2
AcmDataDictionary
  3
"AcmSymBB|Product Description: AutoCAD Mechanical 2004 DX|Company: Autodesk"
 90
        0
280
     0
281
     0
  0
CLASS
  1
ACMDATAENTRYBLOCK
  2
AcmDataEntryBlock
  3
"AcmSymBB|Product Description: AutoCAD Mechanical 2004 DX|Company: Autodesk"
 90
        0
280
     0
281
     0
  0
CLASS
  1
ACIMSTRSYSVAR
  2
AcImStrSysVar
  3
AcMeServices
 90
        0
280
     0
281
     0
  0
CLASS
  1
ACMSTANDARDISO
  2
AcmStandardISO
  3
"Amdt_StdImp|Product Description: AutoCAD Mechanical 2004 DX|Company: Autodesk"
 90
        0
280
     0
281
     0
  0
CLASS
  1
AMGOBJPROPCFG
  2
AmgObjPropCfg
  3
"AmgLay|Product Description: AutoCAD Mechanical 2000|Company: Autodesk"
 90
        1
280
     0
281
     0
  0
CLASS
  1
AMDTEDGESTANDARDISO
  2
AmdtEdgeStdISO
  3
"Amdt_StdImp|Product Description: AutoCAD Mechanical 2004 DX|Company: Autodesk"
 90
        0
280
     0
281
     0
  0
CLASS
  1
ACMSURFSTANDARDISO
  2
AcmSurfTextStdISO
  3
"Amdt_StdImp|Product Description: AutoCAD Mechanical 2004 DX|Company: Autodesk"
 90
        0
280
     0
281
     0
  0
CLASS
  1
ACMFCFSTANDARDISO
  2
AcmFCFStdISO
  3
"Amdt_StdImp|Product Description: AutoCAD Mechanical 2004 DX|Company: Autodesk"
 90
        0
280
     0
281
     0
  0
CLASS
  1
ACMWELDSTANDARDISO
  2
AcmWeldingStdISO
  3
"Amdt_StdImp|Product Description: AutoCAD Mechanical 2004 DX|Company: Autodesk"
 90
        0
280
     0
281
     0
  0
CLASS
  1
ACMIDSTANDARDISO
  2
AcmIdStdISO
  3
"Amdt_StdImp|Product Description: AutoCAD Mechanical 2004 DX|Company: Autodesk"
 90
        0
280
     0
281
     0
  0
CLASS
  1
ACMDATUMSTANDARDISO
  2
AcmDatumStdISO
  3
"Amdt_StdImp|Product Description: AutoCAD Mechanical 2004 DX|Company: Autodesk"
 90
        0
280
     0
281
     0
  0
CLASS
  1
ACMBOMSTANDARDISO
  2
AcmBOMStdISO
  3
"Amdt_StdImp|Product Description: AutoCAD Mechanical 2004 DX|Company: Autodesk"
 90
        0
280
     0
281
     0
  0
CLASS
  1
ACMDETAILSTANDARDISO
  2
AmdtDetailSymStdISO
  3
"Amdt_StdImp|Product Description: AutoCAD Mechanical 2004 DX|Company: Autodesk"
 90
        0
280
     0
281
     0
  0
CLASS
  1
ACMSECTIONSTANDARDISO
  2
AmdtSectionSymStdISO
  3
"Amdt_StdImp|Product Description: AutoCAD Mechanical 2004 DX|Company: Autodesk"
 90
        0
280
     0
281
     0
  0
CLASS
  1
ACMCENTERLINESTANDARDISO
  2
AmdtCenterLineStdISO
  3
"Amdt_StdImp|Product Description: AutoCAD Mechanical 2004 DX|Company: Autodesk"
 90
        0
280
     0
281
     0
  0
CLASS
  1
ACMNOTESTANDARDISO
  2
AmdtNoteStdISO
  3
"Amdt_StdImp|Product Description: AutoCAD Mechanical 2004 DX|Company: Autodesk"
 90
        0
280
     0
281
     0
  0
CLASS
  1
ACAMGLAYSTD
  2
AcAmgLayStd
  3
"AcAmgLayStd|Product Description: AutoCAD Mechanical 2000|Company: Autodesk"
 90
        0
280
     0
281
     0
  0
CLASS
  1
ACAMGDIMSTD
  2
AcAmgDimStd
  3
"AcAmgDimStd|Product Description: AutoCAD Mechanical 2000|Company: Autodesk"
 90
        0
280
     0
281
     0
  0
CLASS
  1
ACAMGHOLECHARTSTDISO
  2
AcAmgHoleChartStdISO
  3
ACMSYMBB_MODULE_NAME
 90
        0
280
     0
281
     0
  0
CLASS
  1
ACAMGTITLESTD
  2
AcAmgTitleStd
  3
"TITLEAPP"
 90
        0
280
     0
281
     0
  0
CLASS
  1
LAYER_INDEX
  2
AcDbLayerIndex
  3
ObjectDBX Classes
 90
    32768
280
     0
281
     0
  0
CLASS
  1
IDBUFFER
  2
AcDbIdBuffer
  3
ObjectDBX Classes
 90
    32768
280
     0
281
     0
  0
CLASS
  1
DICTIONARYVAR
  2
AcDbDictionaryVar
  3
ObjectDBX Classes
 90
        0
280
     0
281
     0
  0
CLASS
  1
AM_DRAWING_MGR
  2
AcDmDwgMgr
  3
AcMechDwgViewMgmt
 90
        0
280
     0
281
     0
  0
CLASS
  1
AM_DWG_DOCUMENT
  2
AcDmDwgDocument
  3
AcMechDwgViewMgmt
 90
        0
280
     0
281
     0
  0
CLASS
  1
AM_DWG_SHEET
  2
AcDmSheet
  3
AcMechDwgViewMgmt
 90
        0
280
     0
281
     0
  0
CLASS
  1
AM_VIEWDIMPARMAP
  2
AcDmViewDimParMap
  3
AcMechDwgViewMgmt
 90
        0
280
     0
281
     0
  0
CLASS
  1
AM_DWGMGR_NAME
  2
AcDmDwgMgrName
  3
AcMechDwgViewMgmt
 90
        0
280
     0
281
     0
  0
CLASS
  1
AMDTMENUSTATEMGR
  2
AmdtMenuStateMgr
  3
McadcomServices
 90
        0
280
     0
281
     0
  0
CLASS
  1
AMDTMCOMMENUSTATE
  2
AmdtMcomMenuState
  3
McadcomServices
 90
        0
280
     0
281
     0
  0
CLASS
  1
MAPIAMMOUDLE
  2
MApiAmModule
  3
MApiAmServices
 90
        0
280
     0
281
     0
  0
CLASS
  1
AMDTADMENUSTATE
  2
AmdtAdMenuState
  3
DesignerServices
 90
        0
280
     0
281
     0
  0
CLASS
  1
ADAPPL
  2
AcAdAppl
  3
DesignerServices
 90
        0
280
     0
281
     0
  0
CLASS
  1
DEPMGR
  2
AcAdDepMgr
  3
DesignerServices
 90
        0
280
     0
281
     0
  0
CLASS
  1
PARAMMGR
  2
AcAdParamMgr
  3
DesignerServices
 90
        0
280
     0
281
     0
  0
CLASS
  1
PARAMSCOPE
  2
AcAdParamScope
  3
DesignerServices
 90
        0
280
     0
281
     0
  0
CLASS
  1
NAMEDAPPL
  2
AcAdNamedAppl
  3
DesignerServices
 90
        0
280
     0
281
     0
  0
CLASS
  1
AMDTDMMENUSTATE
  2
AmdtDmMenuState
  3
AcMechDwgViewMgmt
 90
        0
280
     0
281
     0
  0
CLASS
  1
AMDTAMMENUSTATE
  2
AmdtAmMenuState
  3
DesignerAssemblies
 90
        0
280
     0
281
     0
  0
CLASS
  1
ACAMPROJECT
  2
AcAmProject
  3
DesignerAssemblies
 90
        0
280
     0
281
     0
  0
CLASS
  1
ACAMGRCOMPDEF
  2
AcAmGrCompDef
  3
DesignerAssemblies
 90
        0
280
     0
281
     0
  0
CLASS
  1
ACCMCONTEXT
  2
AcCmContext
  3
DesignerAssemblies
 90
        0
280
     0
281
     0
  0
CLASS
  1
ACAMCOMPDEF
  2
AcAmCompDef
  3
DesignerAssemblies
 90
        0
280
     0
281
     0
  0
CLASS
  1
ACAMCOMPDEFMGR
  2
AcAmCompDefMgr
  3
DesignerAssemblies
 90
        0
280
     0
281
     0
  0
CLASS
  1
AMCONTEXTMGR
  2
AcAmContextMgr
  3
DesignerAssemblies
 90
        0
280
     0
281
     0
  0
CLASS
  1
ACAMCONTEXTMODELER
  2
AcAmContextModeler
  3
DesignerAssemblies
 90
        0
280
     0
281
     0
  0
CLASS
  1
ACMTHREADLINESTANDARDISO
  2
AmdtThreadLineStdISO
  3
"Amdt_StdImp|Product Description: AutoCAD Mechanical 2004 DX|Company: Autodesk"
 90
        0
280
     0
281
     0
  0
CLASS
  1
CATALOGSTATE
  2
AcAmCatalogState
  3
DesignerAssemblies
 90
        0
280
     0
281
     0
  0
CLASS
  1
ACAMGRCOMPDEFSET
  2
AcAmGrCompDefSet
  3
DesignerAssemblies
 90
        0
280
     0
281
     0
  0
CLASS
  1
AMDTBROWSERDBTAB
  2
AmdtBrowserDbTab
  3
McadcomServices
 90
        0
280
     0
281
     0
  0
CLASS
  1
CBROWSERAPPOBJECT
  2
CBrowserAppObject
  3
McadcomServices
 90
        0
280
     0
281
     0
  0
CLASS
  1
DM_PLACEHOLDER
  2
AcDmSelsetPlaceholder
  3
AcMechDwgViewMgmt
 90
        0
280
     0
281
     0
  0
CLASS
  1
TABLESTYLE
  2
AcDbTableStyle
  3
ObjectDBX Classes
 90
     2047
280
     0
281
     0
  0
CLASS
  1
VAACXREFPANELOBJECT
  2
VaAcXREFPanelObject
  3
VAAC_ADDIN
 90
    32768
280
     0
281
     0
  0
CLASS
  1
VAACIMAGEINVENTORY
  2
VaAcImageInventory
  3
VAAC_ADDIN
 90
    32768
280
     0
281
     0
  0
CLASS
  1
AMDTNOTETEMPLATEDB
  2
AmdtNoteTemplateDB
  3
AMDT_STDIMP_MODULE_NAME
 90
        0
280
     0
281
     0
  0
CLASS
  1
ACMBOM
  2
AcmBom
  3
"AcmSymBB|Product Description: AutoCAD Mechanical 2004 DX|Company: Autodesk"
 90
    32768
280
     0
281
     0
  0
CLASS
  1
AMDTFORMULAUPDATEDISPATCHER
  2
AmdtFormulaUpdateDispatcher
  3
AcMeServices
 90
    32768
280
     0
281
     0
  0
CLASS
  1
ACMPARTLIST
  2
AcmPartList
  3
"AcmSymBB|Product Description: AutoCAD Mechanical 2004 DX|Company: Autodesk"
 90
    33791
280
     0
281
     1
  0
CLASS
  1
ACAMGFILTERDAT
  2
AcAmgFilterDat
  3
"AcadM|Product Description: AutoCAD Mechanical 2000|Company: Autodesk"
 90
        0
280
     0
281
     0
  0
CLASS
  1
DIMASSOC
  2
AcDbDimAssoc
  3
"AcDbDimAssoc|Product Desc:     AcDim ARX App For Dimension|Company:          Autodesk, Inc.|WEB Address:      www.autodesk.com"
 90
        0
280
     0
281
     0
  0
CLASS
  1
AMDTNOTE
  2
AmdtNote
  3
"AcmSymBB|Product Description: AutoCAD Mechanical 2004 DX|Company: Autodesk"
 90
    33791
280
     0
281
     1
  0
CLASS
  1
SORTENTSTABLE
  2
AcDbSortentsTable
  3
ObjectDBX Classes
 90
    32768
280
     0
281
     0
  0
CLASS
  1
ACRFATTGENMGR
  2
AcRfAttGeneralMgr
  3
AcAttribServices
 90
        0
280
     0
281
     0
  0
ENDSEC
  0
SECTION
  2
TABLES
  0
TABLE
  2
VPORT
  5
8
330
0
100
AcDbSymbolTable
 70
     3
  0
VPORT
  5
20EC
330
8
100
AcDbSymbolTableRecord
100
AcDbViewportTableRecord
  2
*Active
 70
     0
 10
0.0
 20
0.0
 11
1.0
 21
1.0
 12
342.8372039781361
 22
232.0448463698207
 13
0.0
 23
0.0
 14
2.5
 24
2.5
 15
10.0
 25
10.0
 16
0.0
 26
0.0
 36
1.0
 17
0.0
 27
0.0
 37
0.0
 40
280.5860682478739
 41
1.661684782608695
 42
50.0
 43
0.0
 44
0.0
 50
0.0
 51
0.0
 71
     0
 72
   100
 73
     1
 74
     3
 75
     0
 76
     0
 77
     0
 78
     0
281
     0
 65
     1
110
0.0
120
0.0
130
0.0
111
1.0
121
0.0
131
0.0
112
0.0
122
1.0
132
0.0
 79
     0
146
0.0
  0
ENDTAB
  0
TABLE
  2
LTYPE
  5
5
330
0
100
AcDbSymbolTable
 70
    14
  0
LTYPE
  5
14
330
5
100
AcDbSymbolTableRecord
100
AcDbLinetypeTableRecord
  2
ByBlock
 70
     0
  3

 72
    65
 73
     0
 40
0.0
  0
LTYPE
  5
15
330
5
100
AcDbSymbolTableRecord
100
AcDbLinetypeTableRecord
  2
ByLayer
 70
     0
  3

 72
    65
 73
     0
 40
0.0
  0
LTYPE
  5
16
330
5
100
AcDbSymbolTableRecord
100
AcDbLinetypeTableRecord
  2
Continuous
 70
     0
  3
Solid line
 72
    65
 73
     0
 40
0.0
  0
LTYPE
  5
64
330
5
100
AcDbSymbolTableRecord
100
AcDbLinetypeTableRecord
  2
AM_ISO02W050
 70
     0
  3
__ __ __ __ __ __ __ __ __ __ __ __ __ __ __
 72
    65
 73
     2
 40
7.5
 49
6.0
 74
     0
 49
-1.5
 74
     0
  0
LTYPE
  5
65
330
5
100
AcDbSymbolTableRecord
100
AcDbLinetypeTableRecord
  2
AM_ISO08W050
 70
     0
  3
____ . ____ . ____ . ____ . ____ . ____ . ____
 72
    65
 73
     4
 40
18.0
 49
12.0
 74
     0
 49
-1.5
 74
     0
 49
3.0
 74
     0
 49
-1.5
 74
     0
  0
LTYPE
  5
66
330
5
100
AcDbSymbolTableRecord
100
AcDbLinetypeTableRecord
  2
AM_ISO09W050
 70
     0
  3
_____ . . _____ . . _____ . . ____ .. ____
 72
    65
 73
     6
 40
22.5
 49
12.0
 74
     0
 49
-1.5
 74
     0
 49
3.0
 74
     0
 49
-1.5
 74
     0
 49
3.0
 74
     0
 49
-1.5
 74
     0
  0
LTYPE
  5
67
330
5
100
AcDbSymbolTableRecord
100
AcDbLinetypeTableRecord
  2
Amconstr
 70
     0
  3
_______________________
 72
    65
 73
     2
 40
9999.0
 49
9999.0
 74
     0
 49
0.0
 74
     0
  0
LTYPE
  5
68
330
5
100
AcDbSymbolTableRecord
100
AcDbLinetypeTableRecord
  2
AM_ISO08W050x2
 70
     0
  3
__ . __ . __ . __ . __ . __
 72
    65
 73
     4
 40
9.0
 49
6.0
 74
     0
 49
-0.75
 74
     0
 49
1.5
 74
     0
 49
-0.75
 74
     0
  0
LTYPE
  5
69
330
5
100
AcDbSymbolTableRecord
100
AcDbLinetypeTableRecord
  2
AM_ISO02W050x2
 70
     0
  3
 _ _ _ _ _ _ _ _ _ _ _ _
 72
    65
 73
     2
 40
3.75
 49
3.0
 74
     0
 49
-0.75
 74
     0
  0
LTYPE
  5
6C
330
5
100
AcDbSymbolTableRecord
100
AcDbLinetypeTableRecord
  2
Amzigzag
 70
     0
  3
/\/-/\/-/\/-/\/-/\/-/\/
 72
    65
 73
     2
 40
11.0001
 49
0.0001
 74
     4
 75
   135
340
6B
 46
0.04
 50
0.0
 44
0.0
 45
0.0
 49
-11.0
 74
     0
  0
LTYPE
  5
7A
330
5
100
AcDbSymbolTableRecord
100
AcDbLinetypeTableRecord
  2
ACISOWELD
 70
     0
  3
_ _ _ _ _
 72
    65
 73
     2
 40
2.0
 49
2.0
 74
     0
 49
-1.0
 74
     0
  0
LTYPE
  5
7B
330
5
100
AcDbSymbolTableRecord
100
AcDbLinetypeTableRecord
  2
ACISOTGB
 70
     0
  3
__ . . __ . .
 72
    65
 73
     6
 40
9.0
 49
4.0
 74
     0
 49
-1.0
 74
     0
 49
1.0
 74
     0
 49
-1.0
 74
     0
 49
1.0
 74
     0
 49
-1.0
 74
     0
  0
LTYPE
  5
7C
330
5
100
AcDbSymbolTableRecord
100
AcDbLinetypeTableRecord
  2
ACISOTGL
 70
     0
  3
_ _ _ _ _
 72
    65
 73
     2
 40
3.0
 49
2.0
 74
     0
 49
-1.0
 74
     0
  0
LTYPE
  5
7E
330
5
100
AcDbSymbolTableRecord
100
AcDbLinetypeTableRecord
  2
CENTER
 70
     0
  3
__ . __
 72
    65
 73
     4
 40
7.0
 49
4.0
 74
     0
 49
-1.0
 74
     0
 49
1.0
 74
     0
 49
-1.0
 74
     0
  0
LTYPE
  5
D8
330
5
100
AcDbSymbolTableRecord
100
AcDbLinetypeTableRecord
  2
HIDDEN
 70
     0
  3
Hidden __ __ __ __ __ __ __ __ __ __ __ __ __ _
 72
    65
 73
     2
 40
9.524999999999998
 49
6.349999999999999
 74
     0
 49
-3.174999999999999
 74
     0
  0
LTYPE
  5
D9
330
5
100
AcDbSymbolTableRecord
100
AcDbLinetypeTableRecord
  2
PHANTOM2
 70
     0
  3
Phantom (.5x) ___ _ _ ___ _ _ ___ _ _ ___ _ _
 72
    65
 73
     6
 40
31.75
 49
15.875
 74
     0
 49
-3.174999999999999
 74
     0
 49
3.174999999999999
 74
     0
 49
-3.174999999999999
 74
     0
 49
3.174999999999999
 74
     0
 49
-3.174999999999999
 74
     0
  0
ENDTAB
  0
TABLE
  2
LAYER
  5
2
102
{ACAD_XDICTIONARY
360
3F9
102
}
330
0
100
AcDbSymbolTable
 70
     6
  0
LAYER
  5
10
330
2
100
AcDbSymbolTableRecord
100
AcDbLayerTableRecord
  2
0
 70
     0
 62
     7
  6
Continuous
370
    -3
390
F
  0
LAYER
  5
A7E
330
2
100
AcDbSymbolTableRecord
100
AcDbLayerTableRecord
  2
AM_VIS
 70
     0
 62
     7
  6
Continuous
370
    50
390
F
  0
LAYER
  5
C92
330
2
100
AcDbSymbolTableRecord
100
AcDbLayerTableRecord
  2
AM_7
 70
     0
 62
     1
  6
CENTER
370
    25
390
F
  0
LAYER
  5
DD0
330
2
100
AcDbSymbolTableRecord
100
AcDbLayerTableRecord
  2
AM_5
 70
     0
 62
     5
  6
Continuous
370
    50
390
F
  0
LAYER
  5
DE0
330
2
100
AcDbSymbolTableRecord
100
AcDbLayerTableRecord
  2
Defpoints
 70
     0
 62
     7
  6
Continuous
290
     0
370
    -3
390
F
  0
LAYER
  5
FFE
330
2
100
AcDbSymbolTableRecord
100
AcDbLayerTableRecord
  2
LOGO
 70
     0
 62
     7
  6
Continuous
370
    -3
390
F
  0
ENDTAB
  0
TABLE
  2
STYLE
  5
3
330
0
100
AcDbSymbolTable
 70
     6
  0
STYLE
  5
11
330
3
100
AcDbSymbolTableRecord
100
AcDbTextStyleTableRecord
  2
STANDARD
 70
     0
 40
0.0
 41
1.0
 50
0.0
 71
     0
 42
3.0
  3
ISOCP.SHX
  4
CHINESET.SHX
  0
STYLE
  5
6B
330
3
100
AcDbSymbolTableRecord
100
AcDbTextStyleTableRecord
  2

 70
     1
 40
0.0
 41
1.0
 50
0.0
 71
     0
 42
2.5
  3
ltypeshp.shx
  4

  0
STYLE
  5
6D
330
3
100
AcDbSymbolTableRecord
100
AcDbTextStyleTableRecord
  2
ACISOTS
 70
     0
 40
1.0
 41
1.0
 50
0.0
 71
     0
 42
1.0
  3
isocp.shx
  4
chineset.shx
  0
STYLE
  5
79
330
3
100
AcDbSymbolTableRecord
100
AcDbTextStyleTableRecord
  2
ACISOGDT
 70
     0
 40
0.0
 41
1.0
 50
0.0
 71
     0
 42
2.5
  3
amgdt.shx
  4
chineset.shx
  0
STYLE
  5
FFF
330
3
100
AcDbSymbolTableRecord
100
AcDbTextStyleTableRecord
  2
CHINESET
 70
     0
 40
0.0
 41
1.0
 50
0.0
 71
     0
 42
3.0
  3
simplex.shx
  4
CHINESET.SHX
  0
ENDTAB
  0
TABLE
  2
VIEW
  5
6
330
0
100
AcDbSymbolTable
 70
     0
  0
ENDTAB
  0
TABLE
  2
UCS
  5
7
330
0
100
AcDbSymbolTable
 70
     0
  0
ENDTAB
  0
TABLE
  2
APPID
  5
9
330
0
100
AcDbSymbolTable
 70
    18
  0
APPID
  5
12
330
9
100
AcDbSymbolTableRecord
100
AcDbRegAppTableRecord
  2
ACAD
 70
     0
  0
APPID
  5
46
330
9
100
AcDbSymbolTableRecord
100
AcDbRegAppTableRecord
  2
MCAD_NO_VIS
 70
     0
  0
APPID
  5
47
330
9
100
AcDbSymbolTableRecord
100
AcDbRegAppTableRecord
  2
ACAD_TEMP_GRAPHIC
 70
     0
  0
APPID
  5
58
330
9
100
AcDbSymbolTableRecord
100
AcDbRegAppTableRecord
  2
ACATTRIBSERVICES
 70
     0
  0
APPID
  5
EE
330
9
100
AcDbSymbolTableRecord
100
AcDbRegAppTableRecord
  2
AD_DRAW
 70
     0
  0
APPID
  5
10C
330
9
100
AcDbSymbolTableRecord
100
AcDbRegAppTableRecord
  2
DESIGNERASSEMBLIES
 70
     0
  0
APPID
  5
111
330
9
100
AcDbSymbolTableRecord
100
AcDbRegAppTableRecord
  2
ACADM_DIM_EDIT
 70
     0
  0
APPID
  5
112
330
9
100
AcDbSymbolTableRecord
100
AcDbRegAppTableRecord
  2
AMDT_DM_ADJ
 70
     0
  0
APPID
  5
22C
330
9
100
AcDbSymbolTableRecord
100
AcDbRegAppTableRecord
  2
ACAD_DSTYLE_DIMTEXT_FILL
 70
     0
  0
APPID
  5
452
330
9
100
AcDbSymbolTableRecord
100
AcDbRegAppTableRecord
  2
GENIUS_GENOENT_13
 70
     0
  0
APPID
  5
453
330
9
100
AcDbSymbolTableRecord
100
AcDbRegAppTableRecord
  2
GENIUS_GENOBJ-N-CRS_13
 70
     0
  0
APPID
  5
454
330
9
100
AcDbSymbolTableRecord
100
AcDbRegAppTableRecord
  2
GENIUS_GENOLIS_13
 70
     0
  0
APPID
  5
455
330
9
100
AcDbSymbolTableRecord
100
AcDbRegAppTableRecord
  2
GENIUS_GENODEF_13
 70
     0
  0
APPID
  5
456
330
9
100
AcDbSymbolTableRecord
100
AcDbRegAppTableRecord
  2
GENIUS_GENOREF_13
 70
     0
  0
APPID
  5
6F3
330
9
100
AcDbSymbolTableRecord
100
AcDbRegAppTableRecord
  2
ACAD_PSEXT
 70
     0
  0
APPID
  5
808
330
9
100
AcDbSymbolTableRecord
100
AcDbRegAppTableRecord
  2
GENIUS_GENDTOL_13
 70
     0
  0
APPID
  5
1000
330
9
100
AcDbSymbolTableRecord
100
AcDbRegAppTableRecord
  2
GENIUS_GENREC_14
 70
     0
  0
APPID
  5
1001
330
9
100
AcDbSymbolTableRecord
100
AcDbRegAppTableRecord
  2
GENIUS_GENOBJ-N-REC_13
 70
     0
  0
ENDTAB
  0
TABLE
  2
DIMSTYLE
  5
A
330
0
100
AcDbSymbolTable
 70
     9
100
AcDbDimStyleTable
 71
     3
340
81
340
8B
340
86
  0
DIMSTYLE
105
81
330
A
100
AcDbSymbolTableRecord
100
AcDbDimStyleTableRecord
  2
AM_ISO
 70
     0
  4
"
 41
3.0
 42
1.0
 43
8.0
 44
1.5
 47
0.1
 48
0.1
 73
     0
 74
     0
 77
     1
 78
     8
 79
     2
140
3.5
141
0.0
143
0.0393701
146
0.6
147
0.7
172
     1
176
   256
177
   256
178
   256
271
     2
272
     2
283
     0
284
     8
340
11
371
    -1
372
    -1
  0
DIMSTYLE
105
82
102
{ACAD_REACTORS
330
1C00
330
1C20
102
}
330
A
100
AcDbSymbolTableRecord
100
AcDbDimStyleTableRecord
  2
AM_ISO$3
 70
     0
  4
"
 41
3.0
 42
1.0
 43
8.0
 44
1.5
 47
0.1
 48
0.1
 73
     0
 77
     1
 78
     8
 79
     2
140
3.5
141
0.0
143
0.0393701
146
0.6
147
0.7
176
   256
177
   256
178
   256
271
     2
272
     2
283
     0
284
     8
288
     1
289
     0
340
11
371
    -1
372
    -1
  0
DIMSTYLE
105
83
330
A
100
AcDbSymbolTableRecord
100
AcDbDimStyleTableRecord
  2
AM_ISO$4
 70
     0
  4
"
 41
3.0
 42
1.0
 43
8.0
 44
1.5
 47
0.1
 48
0.1
 73
     0
 77
     1
 78
     8
 79
     2
140
3.5
141
0.0
143
0.0393701
146
0.6
147
0.7
176
   256
177
   256
178
   256
271
     2
272
     2
283
     0
284
     8
288
     1
289
     0
340
11
371
    -1
372
    -1
  0
DIMSTYLE
105
84
330
A
100
AcDbSymbolTableRecord
100
AcDbDimStyleTableRecord
  2
AM_ISO$6
 70
     0
  4
"
 41
3.0
 42
1.0
 43
8.0
 44
1.5
 47
0.1
 48
0.1
 73
     0
 74
     0
 78
     8
 79
     2
140
3.5
141
0.0
143
0.0393701
146
0.6
147
0.7
172
     1
176
   256
177
   256
178
   256
271
     2
272
     2
283
     0
284
     8
340
11
371
    -1
372
    -1
  0
DIMSTYLE
105
85
330
A
100
AcDbSymbolTableRecord
100
AcDbDimStyleTableRecord
  2
AM_ISO$7
 70
     0
  4
"
 41
3.0
 42
1.0
 43
8.0
 44
1.5
 47
0.1
 48
0.1
 73
     0
 74
     0
 77
     1
 78
     8
 79
     2
140
5.0
141
0.0
143
0.0393701
146
0.6
147
0.7
172
     1
176
   256
177
   256
178
   256
271
     2
272
     2
283
     0
284
     8
340
11
371
    -1
372
    -1
  0
DIMSTYLE
105
86
330
A
100
AcDbSymbolTableRecord
100
AcDbDimStyleTableRecord
  2
AM_ISO$SF
 70
     0
  4
"
 41
2.5
 42
1.0
 43
10.0
 44
1.0
 47
0.1
 48
0.1
 73
     0
 74
     0
 75
     1
 76
     1
 77
     1
 78
     8
 79
     2
140
3.5
141
0.0
143
0.0393701
146
0.71
147
1.5
172
     1
176
   256
177
   256
178
     2
271
     2
272
     3
274
     4
283
     0
284
     8
340
11
371
    -1
372
    -1
  0
DIMSTYLE
105
8B
330
A
100
AcDbSymbolTableRecord
100
AcDbDimStyleTableRecord
  2
AM_ISO$SH
 70
     0
  4
"
 41
2.5
 42
1.0
 43
10.0
 44
1.0
 47
0.1
 48
0.1
 73
     0
 74
     0
 75
     1
 76
     1
 77
     1
 78
     8
 79
     2
140
3.5
141
0.0
143
0.0393701
144
2.0
146
0.71
147
1.5
172
     1
173
     1
176
   256
177
   256
178
     2
271
     2
272
     3
274
     4
283
     0
284
     8
340
11
343
87
371
    -1
372
    -1
  0
DIMSTYLE
105
40B
102
{ACAD_REACTORS
330
1ACF
330
1AF5
330
1B1B
330
1B6B
330
1B91
330
1BB7
330
1BE1
330
1C72
330
1CB6
330
1CDC
330
1D07
330
1F8B
102
}
330
A
100
AcDbSymbolTableRecord
100
AcDbDimStyleTableRecord
  2
AM_ISO$0
 70
     0
  4
"
 41
3.0
 42
1.0
 43
8.0
 44
1.5
 47
0.1
 48
0.1
 73
     0
 74
     0
 77
     1
 78
     8
 79
     2
140
3.5
141
0.0
143
0.0393701
146
0.6
147
0.7
172
     1
176
   256
177
   256
178
   256
271
     2
272
     2
283
     0
284
     8
340
11
371
    -1
372
    -1
  0
ENDTAB
  0
TABLE
  2
BLOCK_RECORD
  5
1
330
0
100
AcDbSymbolTable
 70
    30
  0
BLOCK_RECORD
  5
1F
102
{ACAD_XDICTIONARY
360
8F
102
}
330
1
100
AcDbSymbolTableRecord
100
AcDbBlockTableRecord
  2
*Model_Space
340
22
  0
BLOCK_RECORD
  5
1B
330
1
100
AcDbSymbolTableRecord
100
AcDbBlockTableRecord
  2
*Paper_Space
340
1E
  0
BLOCK_RECORD
  5
23
330
1
100
AcDbSymbolTableRecord
100
AcDbBlockTableRecord
  2
*Paper_Space0
340
26
  0
BLOCK_RECORD
  5
87
330
1
100
AcDbSymbolTableRecord
100
AcDbBlockTableRecord
  2
GENAXEH
340
0
  0
BLOCK_RECORD
  5
17D6
102
{ACAD_XDICTIONARY
360
1855
102
}
330
1
100
AcDbSymbolTableRecord
100
AcDbBlockTableRecord
  2
A$C531C3E04
340
0
  0
BLOCK_RECORD
  5
1AD0
330
1
100
AcDbSymbolTableRecord
100
AcDbBlockTableRecord
  2
*D14
340
0
  0
BLOCK_RECORD
  5
1AF6
330
1
100
AcDbSymbolTableRecord
100
AcDbBlockTableRecord
  2
*D15
340
0
  0
BLOCK_RECORD
  5
1B1C
330
1
100
AcDbSymbolTableRecord
100
AcDbBlockTableRecord
  2
*D16
340
0
  0
BLOCK_RECORD
  5
1B6C
330
1
100
AcDbSymbolTableRecord
100
AcDbBlockTableRecord
  2
*D18
340
0
  0
BLOCK_RECORD
  5
1B92
330
1
100
AcDbSymbolTableRecord
100
AcDbBlockTableRecord
  2
*D19
340
0
  0
BLOCK_RECORD
  5
1BB8
330
1
100
AcDbSymbolTableRecord
100
AcDbBlockTableRecord
  2
*D20
340
0
  0
BLOCK_RECORD
  5
1BE2
330
1
100
AcDbSymbolTableRecord
100
AcDbBlockTableRecord
  2
*D21
340
0
  0
BLOCK_RECORD
  5
1C01
330
1
100
AcDbSymbolTableRecord
100
AcDbBlockTableRecord
  2
*D22
340
0
  0
BLOCK_RECORD
  5
1C21
330
1
100
AcDbSymbolTableRecord
100
AcDbBlockTableRecord
  2
*D23
340
0
  0
BLOCK_RECORD
  5
1C73
330
1
100
AcDbSymbolTableRecord
100
AcDbBlockTableRecord
  2
*D24
340
0
  0
BLOCK_RECORD
  5
1CB7
330
1
100
AcDbSymbolTableRecord
100
AcDbBlockTableRecord
  2
*D25
340
0
  0
BLOCK_RECORD
  5
1CDD
330
1
100
AcDbSymbolTableRecord
100
AcDbBlockTableRecord
  2
*D26
340
0
  0
BLOCK_RECORD
  5
1D08
330
1
100
AcDbSymbolTableRecord
100
AcDbBlockTableRecord
  2
*D27
340
0
  0
BLOCK_RECORD
  5
1F8C
330
1
100
AcDbSymbolTableRecord
100
AcDbBlockTableRecord
  2
*D28
340
0
  0
ENDTAB
  0
ENDSEC
  0
SECTION
  2
BLOCKS
  0
BLOCK
  5
20
330
1F
100
AcDbEntity
  8
0
100
AcDbBlockBegin
  2
*Model_Space
 70
     0
 10
0.0
 20
0.0
 30
0.0
  3
*Model_Space
  1

  0
ENDBLK
  5
21
330
1F
100
AcDbEntity
  8
0
100
AcDbBlockEnd
  0
BLOCK
  5
1C
330
1B
100
AcDbEntity
 67
     1
  8
0
100
AcDbBlockBegin
  2
*Paper_Space
 70
     0
 10
0.0
 20
0.0
 30
0.0
  3
*Paper_Space
  1

  0
ENDBLK
  5
1D
330
1B
100
AcDbEntity
 67
     1
  8
0
100
AcDbBlockEnd
  0
BLOCK
  5
24
330
23
100
AcDbEntity
  8
0
100
AcDbBlockBegin
  2
*Paper_Space0
 70
     0
 10
0.0
 20
0.0
 30
0.0
  3
*Paper_Space0
  1

  0
ENDBLK
  5
25
330
23
100
AcDbEntity
  8
0
100
AcDbBlockEnd
  0
BLOCK
  5
89
330
87
100
AcDbEntity
  8
0
100
AcDbBlockBegin
  2
GENAXEH
 70
     0
 10
0.0
 20
0.0
 30
0.0
  3
GENAXEH
  1

  0
LINE
  5
88
330
87
100
AcDbEntity
  8
0
100
AcDbLine
 10
-1.0
 20
0.0
 30
0.0
 11
1.0
 21
0.0
 31
0.0
  0
ENDBLK
  5
8A
330
87
100
AcDbEntity
  8
0
100
AcDbBlockEnd
  0
BLOCK
  5
1856
330
17D6
100
AcDbEntity
  8
0
100
AcDbBlockBegin
  2
A$C531C3E04
 70
     0
 10
0.0
 20
0.0
 30
0.0
  3
A$C531C3E04
  1

  0
LINE
  5
17D7
330
17D6
100
AcDbEntity
  8
AM_VIS
100
AcDbLine
 10
49.49999965054246
 20
62.04664842215914
 30
0.0
 11
49.49999965054246
 21
80.54664842215913
 31
0.0
  0
LINE
  5
17D8
330
17D6
100
AcDbEntity
  8
AM_VIS
100
AcDbLine
 10
64.49999965054246
 20
82.04664842215914
 30
0.0
 11
50.99999965054246
 21
82.04664842215914
 31
0.0
  0
LINE
  5
17D9
330
17D6
100
AcDbEntity
  8
AM_VIS
100
AcDbLine
 10
65.99999965054246
 20
52.12201297746481
 30
0.0
 11
65.99999965054246
 21
80.54664842215913
 31
0.0
  0
LINE
  5
17DA
330
17D6
100
AcDbEntity
  8
AM_VIS
100
AcDbLine
 10
19.19999965054246
 20
35.04664842215914
 30
0.0
 11
46.79999965054247
 21
35.04664842215914
 31
0.0
  0
LINE
  5
17DB
330
17D6
100
AcDbEntity
  8
AM_VIS
100
AcDbLine
 10
48.29999965054245
 20
36.54664842215914
 30
0.0
 11
48.29999965054245
 21
45.04664842215913
 31
0.0
  0
ARC
  5
17DC
330
17D6
100
AcDbEntity
  8
AM_VIS
100
AcDbCircle
 10
46.79841668427497
 20
36.54760298673461
 30
0.0
 40
1.501583269678446
100
AcDbArc
 50
297.8545625228685
 51
359.9635767617852
  0
ARC
  5
17DD
330
17D6
100
AcDbEntity
  8
AM_VIS
100
AcDbCircle
 10
19.20158261680987
 20
36.54760298673457
 30
0.0
 40
1.501583269678369
100
AcDbArc
 50
180.0364232382135
 51
242.1454374771335
  0
LINE
  5
17DE
330
17D6
100
AcDbEntity
  8
AM_VIS
100
AcDbLine
 10
17.69999965054246
 20
45.04664842215913
 30
0.0
 11
17.69999965054246
 21
36.54664842215914
 31
0.0
  0
LINE
  5
17DF
330
17D6
100
AcDbEntity
  8
AM_VIS
100
AcDbLine
 10
17.69999965054246
 20
45.04664842215913
 30
0.0
 11
16.49999965054246
 21
45.45342808317609
 31
0.0
  0
LINE
  5
17E0
330
17D6
100
AcDbEntity
  8
AM_VIS
100
AcDbLine
 10
16.49999965054246
 20
62.04664842215914
 30
0.0
 11
16.49999965054246
 21
45.45342808317609
 31
0.0
  0
LINE
  5
17E1
330
17D6
100
AcDbEntity
  8
AM_VIS
100
AcDbLine
 10
49.49999965054246
 20
45.45342808317609
 30
0.0
 11
49.49999965054246
 21
62.04664842215914
 31
0.0
  0
LINE
  5
17E2
330
17D6
100
AcDbEntity
  8
AM_VIS
100
AcDbLine
 10
1.018440728805614
 20
50.70141415834112
 30
0.0
 11
15.49999965054246
 21
45.79241113402355
 31
0.0
  0
LINE
  5
17E3
330
17D6
100
AcDbEntity
  8
AM_VIS
100
AcDbLine
 10
-0.0000003494575367
 20
52.12201297746481
 30
0.0
 11
-0.0000003494575367
 21
80.54664842215913
 31
0.0
  0
LINE
  5
17E4
330
17D6
100
AcDbEntity
  8
AM_VIS
100
AcDbLine
 10
14.99999965054246
 20
82.04664842215914
 30
0.0
 11
1.499999650542463
 21
82.04664842215914
 31
0.0
  0
LINE
  5
17E5
330
17D6
100
AcDbEntity
  8
AM_VIS
100
AcDbLine
 10
15.49999965054246
 20
45.79241113402353
 30
0.0
 11
16.49999965054246
 21
45.45342808317608
 31
0.0
  0
LINE
  5
17E6
330
17D6
100
AcDbEntity
  8
AM_VIS
100
AcDbLine
 10
49.49999965054246
 20
45.45342808317609
 30
0.0
 11
48.29999965054248
 21
45.04664842215913
 31
0.0
  0
LINE
  5
17E7
330
17D6
100
AcDbEntity
  8
AM_VIS
100
AcDbLine
 10
49.49999965054246
 20
45.45342808317609
 30
0.0
 11
50.49999965054246
 21
45.79241113402355
 31
0.0
  0
LINE
  5
17E8
330
17D6
100
AcDbEntity
  8
AM_VIS
100
AcDbLine
 10
50.49999965054246
 20
45.79241113402355
 30
0.0
 11
64.98155857227931
 21
50.70141415834112
 31
0.0
  0
LINE
  5
17E9
330
17D6
100
AcDbEntity
  8
AM_VIS
100
AcDbLine
 10
16.49999965054246
 20
62.04664842215914
 30
0.0
 11
16.49999965054246
 21
80.54664842215913
 31
0.0
  0
LINE
  5
17EA
330
17D6
100
AcDbEntity
  8
AM_VIS
100
AcDbLine
 10
47.49999965054246
 20
62.04664842215914
 30
0.0
 11
18.49999965054246
 21
62.04664842215914
 31
0.0
  0
CIRCLE
  5
17EB
330
17D6
100
AcDbEntity
  8
AM_VIS
100
AcDbCircle
 10
58.99999965054246
 20
75.04664842215913
 30
0.0
 40
2.1
  0
ARC
  5
17EC
330
17D6
100
AcDbEntity
  8
AM_VIS
100
AcDbCircle
 10
64.49999965054246
 20
80.54664842215913
 30
0.0
 40
1.5
100
AcDbArc
 50
0.0
 51
90.0
  0
ARC
  5
17ED
330
17D6
100
AcDbEntity
  8
AM_VIS
100
AcDbCircle
 10
50.99999965054246
 20
80.54664842215913
 30
0.0
 40
1.5
100
AcDbArc
 50
90.0
 51
180.0
  0
ARC
  5
17EE
330
17D6
100
AcDbEntity
  8
AM_VIS
100
AcDbCircle
 10
64.49999965054246
 20
52.12201297746481
 30
0.0
 40
1.5
100
AcDbArc
 50
288.7257878452724
 51
0.0
  0
CIRCLE
  5
17EF
330
17D6
100
AcDbEntity
  8
AM_VIS
100
AcDbCircle
 10
22.99999965054246
 20
40.54664842215913
 30
0.0
 40
2.1
  0
CIRCLE
  5
17F0
330
17D6
100
AcDbEntity
  8
AM_VIS
100
AcDbCircle
 10
42.99999965054246
 20
40.54664842215913
 30
0.0
 40
2.1
  0
ARC
  5
17F1
330
17D6
100
AcDbEntity
  8
AM_VIS
100
AcDbCircle
 10
46.79999965054244
 20
36.54664842215914
 30
0.0
 40
1.5
100
AcDbArc
 50
270.0
 51
297.818139284654
  0
ARC
  5
17F2
330
17D6
100
AcDbEntity
  8
AM_VIS
100
AcDbCircle
 10
19.19999965054246
 20
36.54664842215914
 30
0.0
 40
1.5
100
AcDbArc
 50
242.1818607153461
 51
270.0
  0
CIRCLE
  5
17F3
330
17D6
100
AcDbEntity
  8
AM_VIS
100
AcDbCircle
 10
6.999999650542463
 20
75.04664842215913
 30
0.0
 40
2.1
  0
ARC
  5
17F4
330
17D6
100
AcDbEntity
  8
AM_VIS
100
AcDbCircle
 10
1.499999650542463
 20
52.12201297746481
 30
0.0
 40
1.5
100
AcDbArc
 50
179.9999999999996
 51
251.2742121547277
  0
ARC
  5
17F5
330
17D6
100
AcDbEntity
  8
AM_VIS
100
AcDbCircle
 10
1.499999650542463
 20
80.54664842215913
 30
0.0
 40
1.5
100
AcDbArc
 50
90.0
 51
180.0
  0
ARC
  5
17F6
330
17D6
100
AcDbEntity
  8
AM_VIS
100
AcDbCircle
 10
14.99999965054246
 20
80.54664842215913
 30
0.0
 40
1.5
100
AcDbArc
 50
0.0
 51
90.0
  0
LINE
  5
17F7
330
17D6
100
AcDbEntity
  8
AM_VIS
100
AcDbLine
 10
50.49999965054246
 20
62.04664842215914
 30
0.0
 11
49.49999965054246
 21
62.04664842215914
 31
0.0
  0
LINE
  5
17F8
330
17D6
100
AcDbEntity
  8
AM_VIS
100
AcDbLine
 10
47.49999965054246
 20
62.04664842215914
 30
0.0
 11
49.49999965054246
 21
62.04664842215914
 31
0.0
  0
LINE
  5
17F9
330
17D6
100
AcDbEntity
  8
AM_VIS
100
AcDbLine
 10
16.49999965054246
 20
62.04664842215914
 30
0.0
 11
18.49999965054246
 21
62.04664842215914
 31
0.0
  0
LINE
  5
17FA
330
17D6
100
AcDbEntity
  8
AM_VIS
100
AcDbLine
 10
16.49999965054246
 20
62.04664842215914
 30
0.0
 11
15.49999965054246
 21
62.04664842215914
 31
0.0
  0
LINE
  5
17FB
330
17D6
100
AcDbEntity
  8
AM_VIS
100
AcDbLine
 10
64.49999965054246
 20
125.7476528832114
 30
0.0
 11
50.99999965054246
 21
125.7476528832114
 31
0.0
  0
LINE
  5
17FC
330
17D6
100
AcDbEntity
  8
AM_VIS
100
AcDbLine
 10
49.49999965054246
 20
126.7806831611937
 30
0.0
 11
49.49999965054246
 21
125.7476528832114
 31
0.0
  0
LINE
  5
17FD
330
17D6
100
AcDbEntity
  8
AM_VIS
100
AcDbLine
 10
65.99999965054246
 20
125.7476528832114
 30
0.0
 11
65.99999965054246
 21
126.9476528832114
 31
0.0
  0
LINE
  5
17FE
330
17D6
100
AcDbEntity
  8
AM_VIS
100
AcDbLine
 10
1.499999650542463
 20
126.9476528832114
 30
0.0
 11
14.99999965054246
 21
126.9476528832114
 31
0.0
  0
LINE
  5
17FF
330
17D6
100
AcDbEntity
  8
AM_VIS
100
AcDbLine
 10
-0.0000003494575367
 20
126.9476528832114
 30
0.0
 11
-0.0000003494575367
 21
125.7476528832114
 31
0.0
  0
LINE
  5
1800
330
17D6
100
AcDbEntity
  8
AM_VIS
100
AcDbLine
 10
14.99999965054246
 20
125.7476528832114
 30
0.0
 11
1.499999650542463
 21
125.7476528832114
 31
0.0
  0
LINE
  5
1801
330
17D6
100
AcDbEntity
  8
AM_VIS
100
AcDbLine
 10
50.99999965054246
 20
126.9476528832114
 30
0.0
 11
64.49999965054246
 21
126.9476528832114
 31
0.0
  0
ARC
  5
1802
330
17D6
100
AcDbEntity
  8
AM_VIS
100
AcDbCircle
 10
50.30130670365821
 20
124.9413904155018
 30
0.0
 40
2.006262893473292
100
AcDbArc
 50
90.03732742736398
 51
113.5408510508371
  0
LINE
  5
1803
330
17D6
100
AcDbEntity
  8
AM_VIS
100
AcDbLine
 10
16.49999965054246
 20
125.7476528832114
 30
0.0
 11
16.49999965054246
 21
126.7806831611937
 31
0.0
  0
LINE
  5
1804
330
17D6
100
AcDbEntity
  8
AM_VIS
100
AcDbLine
 10
17.69999965054246
 20
124.9476528832114
 30
0.0
 11
17.69999965054246
 21
124.1476528832114
 31
0.0
  0
LINE
  5
1805
330
17D6
100
AcDbEntity
  8
AM_VIS
100
AcDbLine
 10
18.69999965054246
 20
123.1476528832114
 30
0.0
 11
47.29999965054247
 21
123.1476528832114
 31
0.0
  0
LINE
  5
1806
330
17D6
100
AcDbEntity
  8
AM_VIS
100
AcDbLine
 10
48.29999965054248
 20
124.1476528832114
 30
0.0
 11
48.29999965054248
 21
124.9476528832114
 31
0.0
  0
LINE
  5
1807
330
17D6
100
AcDbEntity
  8
AM_VIS
100
AcDbLine
 10
49.49999965054246
 20
124.7476528832113
 30
0.0
 11
49.49999965054246
 21
123.9476528832113
 31
0.0
  0
LINE
  5
1808
330
17D6
100
AcDbEntity
  8
AM_VIS
100
AcDbLine
 10
47.49999965054246
 20
121.9476528832114
 30
0.0
 11
18.49999965054246
 21
121.9476528832114
 31
0.0
  0
LINE
  5
1809
330
17D6
100
AcDbEntity
  8
AM_VIS
100
AcDbLine
 10
16.49999965054246
 20
123.9476528832114
 30
0.0
 11
16.49999965054246
 21
124.7476528832114
 31
0.0
  0
ARC
  5
180A
330
17D6
100
AcDbEntity
  8
AM_VIS
100
AcDbCircle
 10
15.69869259742623
 20
124.9413904154988
 30
0.0
 40
2.006262893476335
100
AcDbArc
 50
66.45914894918239
 51
89.96267257261891
  0
LINE
  5
180B
330
17D6
100
AcDbEntity
  8
AM_VIS
100
AcDbLine
 10
65.99999965054246
 20
125.7476528832114
 30
0.0
 11
64.49999965054246
 21
125.7476528832114
 31
0.0
  0
LINE
  5
180C
330
17D6
100
AcDbEntity
  8
AM_VIS
100
AcDbLine
 10
50.99999965054246
 20
125.7476528832114
 30
0.0
 11
49.49999965054246
 21
125.7476528832114
 31
0.0
  0
LINE
  5
180D
330
17D6
100
AcDbEntity
  8
AM_VIS
100
AcDbLine
 10
-0.0000003494575367
 20
126.9476528832114
 30
0.0
 11
1.499999650542463
 21
126.9476528832114
 31
0.0
  0
LINE
  5
180E
330
17D6
100
AcDbEntity
  8
AM_VIS
100
AcDbLine
 10
1.499999650542463
 20
125.7476528832114
 30
0.0
 11
-0.0000003494575367
 21
125.7476528832114
 31
0.0
  0
LINE
  5
180F
330
17D6
100
AcDbEntity
  8
AM_VIS
100
AcDbLine
 10
64.49999965054246
 20
126.9476528832114
 30
0.0
 11
65.99999965054246
 21
126.9476528832114
 31
0.0
  0
LINE
  5
1810
330
17D6
100
AcDbEntity
  8
AM_VIS
100
AcDbLine
 10
50.29999965054248
 20
126.9476528832114
 30
0.0
 11
50.99999965054246
 21
126.9476528832114
 31
0.0
  0
LINE
  5
1811
330
17D6
100
AcDbEntity
  8
AM_VIS
100
AcDbLine
 10
16.49999965054246
 20
125.7476528832114
 30
0.0
 11
14.99999965054246
 21
125.7476528832114
 31
0.0
  0
LINE
  5
1812
330
17D6
100
AcDbEntity
  8
AM_VIS
100
AcDbLine
 10
14.99999965054246
 20
126.9476528832114
 30
0.0
 11
15.69999965054248
 21
126.9476528832114
 31
0.0
  0
ARC
  5
1813
330
17D6
100
AcDbEntity
  8
AM_VIS
100
AcDbCircle
 10
18.69999965054246
 20
124.1476528832114
 30
0.0
 40
1.0
100
AcDbArc
 50
180.0
 51
270.0
  0
ARC
  5
1814
330
17D6
100
AcDbEntity
  8
AM_VIS
100
AcDbCircle
 10
47.29999965054247
 20
124.1476528832114
 30
0.0
 40
1.0
100
AcDbArc
 50
270.0
 51
0.0
  0
ARC
  5
1815
330
17D6
100
AcDbEntity
  8
AM_VIS
100
AcDbCircle
 10
50.29999965054248
 20
124.9476528832114
 30
0.0
 40
2.0
100
AcDbArc
 50
113.5781784782022
 51
180.0
  0
ARC
  5
1816
330
17D6
100
AcDbEntity
  8
AM_VIS
100
AcDbCircle
 10
50.49999965054246
 20
124.7476528832114
 30
0.0
 40
0.9999999999999998
100
AcDbArc
 50
90.0
 51
180.0
  0
ARC
  5
1817
330
17D6
100
AcDbEntity
  8
AM_VIS
100
AcDbCircle
 10
47.49999965054246
 20
123.9476528832114
 30
0.0
 40
1.999999999999999
100
AcDbArc
 50
270.0
 51
0.0
  0
ARC
  5
1818
330
17D6
100
AcDbEntity
  8
AM_VIS
100
AcDbCircle
 10
18.49999965054246
 20
123.9476528832114
 30
0.0
 40
1.999999999999999
100
AcDbArc
 50
180.0
 51
270.0
  0
ARC
  5
1819
330
17D6
100
AcDbEntity
  8
AM_VIS
100
AcDbCircle
 10
15.49999965054246
 20
124.7476528832114
 30
0.0
 40
0.9999999999999998
100
AcDbArc
 50
0.0
 51
90.0
  0
ARC
  5
181A
330
17D6
100
AcDbEntity
  8
AM_VIS
100
AcDbCircle
 10
15.69999965054246
 20
124.9476528832114
 30
0.0
 40
2.0
100
AcDbArc
 50
0.0
 51
66.42182152179856
  0
LINE
  5
181B
330
17D6
100
AcDbEntity
  8
AM_VIS
100
AcDbLine
 10
65.99999965054246
 20
0.0000001140676886
 30
0.0
 11
65.99999965054246
 21
1.200000114067677
 31
0.0
  0
LINE
  5
181C
330
17D6
100
AcDbEntity
  8
AM_VIS
100
AcDbLine
 10
-0.0000003494575367
 20
1.200000114067677
 30
0.0
 11
-0.0000003494575367
 21
0.0000001140676318
 31
0.0
  0
LINE
  5
181D
330
17D6
100
AcDbEntity
  8
AM_VIS
100
AcDbLine
 10
46.79999965054244
 20
3.800000114067699
 30
0.0
 11
19.19999965054245
 21
3.800000114067707
 31
0.0
  0
LINE
  5
181E
330
17D6
100
AcDbEntity
  8
AM_VIS
100
AcDbLine
 10
19.19999965054246
 20
5.000000114067688
 30
0.0
 11
46.79999965054247
 21
5.000000114067681
 31
0.0
  0
LINE
  5
181F
330
17D6
100
AcDbEntity
  8
AM_VIS
100
AcDbLine
 10
48.29999965054245
 20
3.800000114067699
 30
0.0
 11
48.29999965054245
 21
4.833030392050034
 31
0.0
  0
ARC
  5
1820
330
17D6
100
AcDbEntity
  8
AM_VIS
100
AcDbCircle
 10
47.49869259742689
 20
2.993737646358397
 30
0.0
 40
2.006262893473049
100
AcDbArc
 50
66.45914894917272
 51
89.96267257264824
  0
LINE
  5
1821
330
17D6
100
AcDbEntity
  8
AM_VIS
100
AcDbLine
 10
15.69999965054246
 20
0.0000001140676886
 30
0.0
 11
1.018440728805614
 21
0.0000001140676886
 31
0.0
  0
LINE
  5
1822
330
17D6
100
AcDbEntity
  8
AM_VIS
100
AcDbLine
 10
16.49999965054246
 20
2.200000114067677
 30
0.0
 11
16.49999965054246
 21
3.000000114067688
 31
0.0
  0
ARC
  5
1823
330
17D6
100
AcDbEntity
  8
AM_VIS
100
AcDbCircle
 10
18.69999965054246
 20
2.800000114067699
 30
0.0
 40
1.0
100
AcDbArc
 50
90.0
 51
180.0
  0
LINE
  5
1824
330
17D6
100
AcDbEntity
  8
AM_VIS
100
AcDbLine
 10
17.69999965054246
 20
2.800000114067699
 30
0.0
 11
17.69999965054246
 21
2.000000114067688
 31
0.0
  0
LINE
  5
1825
330
17D6
100
AcDbEntity
  8
AM_VIS
100
AcDbLine
 10
17.69999965054246
 20
4.833030392050034
 30
0.0
 11
17.69999965054246
 21
3.800000114067699
 31
0.0
  0
ARC
  5
1826
330
17D6
100
AcDbEntity
  8
AM_VIS
100
AcDbCircle
 10
18.50130670365752
 20
2.993737646361353
 30
0.0
 40
2.006262893470065
100
AcDbArc
 50
90.03732742734444
 51
113.5408510508557
  0
ARC
  5
1827
330
17D6
100
AcDbEntity
  8
AM_VIS
100
AcDbCircle
 10
18.49999965054246
 20
3.000000114067688
 30
0.0
 40
1.999999999999999
100
AcDbArc
 50
113.5781784782022
 51
180.0
  0
LINE
  5
1828
330
17D6
100
AcDbEntity
  8
AM_VIS
100
AcDbLine
 10
1.018440728805614
 20
1.200000114067677
 30
0.0
 11
15.49999965054246
 21
1.200000114067677
 31
0.0
  0
ARC
  5
1829
330
17D6
100
AcDbEntity
  8
AM_VIS
100
AcDbCircle
 10
15.49999965054246
 20
2.200000114067677
 30
0.0
 40
0.9999999999999998
100
AcDbArc
 50
270.0
 51
0.0
  0
ARC
  5
182A
330
17D6
100
AcDbEntity
  8
AM_VIS
100
AcDbCircle
 10
47.29999965054247
 20
2.800000114067699
 30
0.0
 40
1.0
100
AcDbArc
 50
0.0
 51
90.0
  0
ARC
  5
182B
330
17D6
100
AcDbEntity
  8
AM_VIS
100
AcDbCircle
 10
47.49999965054246
 20
3.000000114067688
 30
0.0
 40
1.999999999999999
100
AcDbArc
 50
0.0
 51
66.42182152179782
  0
LINE
  5
182C
330
17D6
100
AcDbEntity
  8
AM_VIS
100
AcDbLine
 10
49.49999965054246
 20
3.000000114067745
 30
0.0
 11
49.49999965054246
 21
2.200000114067734
 31
0.0
  0
ARC
  5
182D
330
17D6
100
AcDbEntity
  8
AM_VIS
100
AcDbCircle
 10
50.49999965054246
 20
2.200000114067677
 30
0.0
 40
0.9999999999999998
100
AcDbArc
 50
180.0
 51
270.0
  0
LINE
  5
182E
330
17D6
100
AcDbEntity
  8
AM_VIS
100
AcDbLine
 10
50.49999965054246
 20
1.200000114067677
 30
0.0
 11
64.98155857227931
 21
1.200000114067677
 31
0.0
  0
LINE
  5
182F
330
17D6
100
AcDbEntity
  8
AM_VIS
100
AcDbLine
 10
64.98155857227931
 20
0.0000001140676886
 30
0.0
 11
50.29999965054248
 21
0.0000001140676886
 31
0.0
  0
LINE
  5
1830
330
17D6
100
AcDbEntity
  8
AM_VIS
100
AcDbLine
 10
48.29999965054248
 20
2.000000114067688
 30
0.0
 11
48.29999965054248
 21
2.800000114067699
 31
0.0
  0
ARC
  5
1831
330
17D6
100
AcDbEntity
  8
AM_VIS
100
AcDbCircle
 10
50.29999965054248
 20
2.000000114067688
 30
0.0
 40
2.0
100
AcDbArc
 50
180.0
 51
270.0
  0
ARC
  5
1832
330
17D6
100
AcDbEntity
  8
AM_VIS
100
AcDbCircle
 10
15.69999965054246
 20
2.000000114067688
 30
0.0
 40
2.0
100
AcDbArc
 50
270.0
 51
0.0
  0
LINE
  5
1833
330
17D6
100
AcDbEntity
  8
AM_VIS
100
AcDbLine
 10
64.98155857227931
 20
1.200000114067677
 30
0.0
 11
65.99999965054246
 21
1.200000114067677
 31
0.0
  0
LINE
  5
1834
330
17D6
100
AcDbEntity
  8
AM_VIS
100
AcDbLine
 10
1.018440728805614
 20
0.0000001140676886
 30
0.0
 11
-0.0000003494575367
 21
0.0000001140676886
 31
0.0
  0
LINE
  5
1835
330
17D6
100
AcDbEntity
  8
AM_VIS
100
AcDbLine
 10
48.29999965054245
 20
3.800000114067699
 30
0.0
 11
46.79999965054244
 21
3.800000114067699
 31
0.0
  0
LINE
  5
1836
330
17D6
100
AcDbEntity
  8
AM_VIS
100
AcDbLine
 10
46.79999965054244
 20
5.000000114067688
 30
0.0
 11
47.49999965054246
 21
5.000000114067688
 31
0.0
  0
LINE
  5
1837
330
17D6
100
AcDbEntity
  8
AM_VIS
100
AcDbLine
 10
18.49999965054246
 20
5.000000114067688
 30
0.0
 11
19.19999965054246
 21
5.000000114067688
 31
0.0
  0
LINE
  5
1838
330
17D6
100
AcDbEntity
  8
AM_VIS
100
AcDbLine
 10
19.19999965054246
 20
3.800000114067699
 30
0.0
 11
17.69999965054246
 21
3.800000114067699
 31
0.0
  0
LINE
  5
1839
330
17D6
100
AcDbEntity
  8
AM_VIS
100
AcDbLine
 10
-0.0000003494575367
 20
1.200000114067677
 30
0.0
 11
1.018440728805614
 21
1.200000114067677
 31
0.0
  0
LINE
  5
183A
330
17D6
100
AcDbEntity
  8
AM_VIS
100
AcDbLine
 10
65.99999965054246
 20
0.0000001140676886
 30
0.0
 11
64.98155857227931
 21
0.0000001140676886
 31
0.0
  0
LINE
  5
183B
330
17D6
100
AcDbEntity
  8
AM_VIS
100
AcDbLine
 10
110.6677880115023
 20
82.04664842215914
 30
0.0
 11
109.4677880115023
 21
82.04664842215914
 31
0.0
  0
LINE
  5
183C
330
17D6
100
AcDbEntity
  8
AM_VIS
100
AcDbLine
 10
109.4677880115023
 20
52.12201297746481
 30
0.0
 11
109.4677880115023
 21
80.54664842215913
 31
0.0
  0
LINE
  5
183D
330
17D6
100
AcDbEntity
  8
AM_VIS
100
AcDbLine
 10
106.8677880115023
 20
36.54664842215914
 30
0.0
 11
106.8677880115023
 21
45.04664842215913
 31
0.0
  0
LINE
  5
183E
330
17D6
100
AcDbEntity
  8
AM_VIS
100
AcDbLine
 10
105.6677880115023
 20
35.04664842215914
 30
0.0
 11
106.8677880115023
 21
35.04664842215914
 31
0.0
  0
LINE
  5
183F
330
17D6
100
AcDbEntity
  8
AM_VIS
100
AcDbLine
 10
105.83475773352
 20
36.54664842215914
 30
0.0
 11
105.83475773352
 21
45.04664842215913
 31
0.0
  0
ARC
  5
1840
330
17D6
100
AcDbEntity
  8
AM_VIS
100
AcDbCircle
 10
93.65694993108462
 20
37.40549273794844
 30
0.0
 40
12.20805539108576
100
AcDbArc
 50
349.6872783055554
 51
355.9658738517809
  0
LINE
  5
1841
330
17D6
100
AcDbEntity
  8
AM_VIS
100
AcDbLine
 10
105.6677880115023
 20
62.04664842215914
 30
0.0
 11
105.6677880115023
 21
35.21999850601698
 31
0.0
  0
LINE
  5
1842
330
17D6
100
AcDbEntity
  8
AM_VIS
100
AcDbLine
 10
110.6677880115023
 20
52.12201297746481
 30
0.0
 11
110.6677880115023
 21
80.54664842215913
 31
0.0
  0
ELLIPSE
  5
1843
330
17D6
100
AcDbEntity
  8
AM_VIS
100
AcDbEllipse
 10
107.8677880115023
 20
44.70766537131168
 30
0.0
 11
-1.0
 21
0.0
 31
0.0
210
0.0
220
0.0
230
1.0
 40
0.3389830508474577
 41
4.712388980384689
 42
6.283185307179586
  0
LINE
  5
1844
330
17D6
100
AcDbEntity
  8
AM_VIS
100
AcDbLine
 10
106.8677880115023
 20
45.04664842215913
 30
0.0
 11
105.83475773352
 21
45.04664842215913
 31
0.0
  0
ELLIPSE
  5
1845
330
17D6
100
AcDbEntity
  8
AM_VIS
100
AcDbEllipse
 10
107.6677880115023
 20
44.77546198148117
 30
0.0
 11
1.999999999999999
 21
0.0000000000000001
 31
0.0
210
0.0
220
0.0
230
1.0
 40
0.3389830508474578
 41
1.570796326794896
 42
2.730075807522306
  0
LINE
  5
1846
330
17D6
100
AcDbEntity
  8
AM_VIS
100
AcDbLine
 10
107.6677880115023
 20
45.45342808317609
 30
0.0
 11
108.4677880115023
 21
45.45342808317609
 31
0.0
  0
ELLIPSE
  5
1847
330
17D6
100
AcDbEntity
  8
AM_VIS
100
AcDbEllipse
 10
108.4677880115023
 20
45.79241113402355
 30
0.0
 11
0.9999999999999998
 21
0.0000000000000001
 31
0.0
210
0.0
220
0.0
230
1.0
 40
0.3389830508474578
 41
4.712388980384689
 42
6.283185307179586
  0
LINE
  5
1848
330
17D6
100
AcDbEntity
  8
AM_VIS
100
AcDbLine
 10
109.4677880115023
 20
45.79241113402355
 30
0.0
 11
109.4677880115023
 21
50.70141415834112
 31
0.0
  0
LINE
  5
1849
330
17D6
100
AcDbEntity
  8
AM_VIS
100
AcDbLine
 10
110.6677880115023
 20
50.70141415834112
 30
0.0
 11
110.6677880115023
 21
45.72461452385406
 31
0.0
  0
LINE
  5
184A
330
17D6
100
AcDbEntity
  8
AM_VIS
100
AcDbLine
 10
108.6677880115023
 20
45.04664842215913
 30
0.0
 11
107.8677880115023
 21
45.04664842215913
 31
0.0
  0
ELLIPSE
  5
184B
330
17D6
100
AcDbEntity
  8
AM_VIS
100
AcDbEllipse
 10
108.6677880115023
 20
45.72461452385406
 30
0.0
 11
-2.0
 21
-0.0000000000000001
 31
0.0
210
0.0
220
0.0
230
1.0
 40
0.3389830508474577
 41
1.570796326794896
 42
3.141592653589792
  0
LINE
  5
184C
330
17D6
100
AcDbEntity
  8
AM_VIS
100
AcDbLine
 10
108.4677880115023
 20
62.04664842215914
 30
0.0
 11
107.6677880115023
 21
62.04664842215914
 31
0.0
  0
LINE
  5
184D
330
17D6
100
AcDbEntity
  8
AM_VIS
100
AcDbLine
 10
109.4677880115023
 20
80.54664842215913
 30
0.0
 11
109.4677880115023
 21
82.04664842215914
 31
0.0
  0
LINE
  5
184E
330
17D6
100
AcDbEntity
  8
AM_VIS
100
AcDbLine
 10
109.4677880115023
 20
50.70141415834112
 30
0.0
 11
109.4677880115023
 21
52.12201297746481
 31
0.0
  0
LINE
  5
184F
330
17D6
100
AcDbEntity
  8
AM_VIS
100
AcDbLine
 10
106.8677880115023
 20
36.54664842215914
 30
0.0
 11
106.8677880115023
 21
35.04664842215914
 31
0.0
  0
LINE
  5
1850
330
17D6
100
AcDbEntity
  8
AM_VIS
100
AcDbLine
 10
105.6677880115023
 20
35.04664842215914
 30
0.0
 11
105.6677880115023
 21
35.21999850601698
 31
0.0
  0
LINE
  5
1851
330
17D6
100
AcDbEntity
  8
AM_VIS
100
AcDbLine
 10
110.6677880115023
 20
52.12201297746481
 30
0.0
 11
110.6677880115023
 21
50.70141415834112
 31
0.0
  0
LINE
  5
1852
330
17D6
100
AcDbEntity
  8
AM_VIS
100
AcDbLine
 10
110.6677880115023
 20
82.04664842215914
 30
0.0
 11
110.6677880115023
 21
80.54664842215913
 31
0.0
  0
LINE
  5
1853
330
17D6
100
AcDbEntity
  8
AM_VIS
100
AcDbLine
 10
109.4677880115023
 20
62.04664842215914
 30
0.0
 11
108.4677880115023
 21
62.04664842215914
 31
0.0
  0
LINE
  5
1854
330
17D6
100
AcDbEntity
  8
AM_VIS
100
AcDbLine
 10
105.6677880115023
 20
62.04664842215914
 30
0.0
 11
107.6677880115023
 21
62.04664842215914
 31
0.0
  0
ENDBLK
  5
1857
330
17D6
100
AcDbEntity
  8
0
100
AcDbBlockEnd
  0
BLOCK
  5
1ADA
330
1AD0
100
AcDbEntity
  8
0
100
AcDbBlockBegin
  2
*D14
 70
     1
 10
0.0
 20
0.0
 30
0.0
  3
*D14
  1

  0
LINE
  5
203E
330
1AD0
100
AcDbEntity
  8
AM_5
100
AcDbLine
 10
203.5892329328811
 20
280.0736852173088
 30
0.0
 11
203.5892329328811
 21
288.15074200635
 31
0.0
  0
LINE
  5
203F
330
1AD0
100
AcDbEntity
  8
AM_5
100
AcDbLine
 10
269.5892329328811
 20
280.0736852173088
 30
0.0
 11
269.5892329328811
 21
288.15074200635
 31
0.0
  0
LINE
  5
2040
330
1AD0
100
AcDbEntity
  8
AM_5
100
AcDbLine
 10
206.5892329328812
 20
286.65074200635
 30
0.0
 11
266.5892329328812
 21
286.65074200635
 31
0.0
  0
SOLID
  5
2041
330
1AD0
100
AcDbEntity
  8
AM_5
100
AcDbTrace
 10
206.5892329328812
 20
287.15074200635
 30
0.0
 11
206.5892329328812
 21
286.15074200635
 31
0.0
 12
203.5892329328811
 22
286.65074200635
 32
0.0
 13
203.5892329328811
 23
286.65074200635
 33
0.0
  0
SOLID
  5
2042
330
1AD0
100
AcDbEntity
  8
AM_5
100
AcDbTrace
 10
266.5892329328812
 20
287.15074200635
 30
0.0
 11
266.5892329328812
 21
286.15074200635
 31
0.0
 12
269.5892329328811
 22
286.65074200635
 32
0.0
 13
269.5892329328811
 23
286.65074200635
 33
0.0
  0
MTEXT
  5
2043
330
1AD0
100
AcDbEntity
  8
AM_5
100
AcDbMText
 10
236.5892329328811
 20
289.10074200635
 30
0.0
 40
3.5
 41
0.0
 71
     5
 72
     1
  1
66
 73
     1
 44
1.0
1001
ACAD
1000
MTEXTBEGIN
1070
    73
1070
     1
1070
    44
1040
1.0
1070
    74
1070
     0
1000
MTEXTEND
  0
POINT
  5
2044
330
1AD0
100
AcDbEntity
  8
Defpoints
 62
     0
100
AcDbPoint
 10
203.5892329328811
 20
279.0736852173088
 30
0.0
  0
POINT
  5
2045
330
1AD0
100
AcDbEntity
  8
Defpoints
 62
     0
100
AcDbPoint
 10
269.5892329328811
 20
279.0736852173088
 30
0.0
  0
POINT
  5
2046
330
1AD0
100
AcDbEntity
  8
Defpoints
 62
     0
100
AcDbPoint
 10
269.5892329328811
 20
286.65074200635
 30
0.0
  0
ENDBLK
  5
1ADB
330
1AD0
100
AcDbEntity
  8
0
100
AcDbBlockEnd
  0
BLOCK
  5
1B00
330
1AF6
100
AcDbEntity
  8
0
100
AcDbBlockBegin
  2
*D15
 70
     1
 10
0.0
 20
0.0
 30
0.0
  3
*D15
  1

  0
LINE
  5
2047
330
1AF6
100
AcDbEntity
  8
AM_5
100
AcDbLine
 10
210.5892329328812
 20
238.5067679050586
 30
0.0
 11
210.5892329328812
 21
251.0067679050586
 31
0.0
  0
LINE
  5
2048
330
1AF6
100
AcDbEntity
  8
AM_5
100
AcDbLine
 10
262.5892329328812
 20
238.5067679050586
 30
0.0
 11
262.5892329328812
 21
251.0067679050586
 31
0.0
  0
LINE
  5
2049
330
1AF6
100
AcDbEntity
  8
AM_5
100
AcDbLine
 10
213.5892329328811
 20
249.5067679050586
 30
0.0
 11
259.5892329328811
 21
249.5067679050586
 31
0.0
  0
SOLID
  5
204A
330
1AF6
100
AcDbEntity
  8
AM_5
100
AcDbTrace
 10
213.5892329328811
 20
250.0067679050586
 30
0.0
 11
213.5892329328811
 21
249.0067679050586
 31
0.0
 12
210.5892329328812
 22
249.5067679050586
 32
0.0
 13
210.5892329328812
 23
249.5067679050586
 33
0.0
  0
SOLID
  5
204B
330
1AF6
100
AcDbEntity
  8
AM_5
100
AcDbTrace
 10
259.5892329328811
 20
250.0067679050586
 30
0.0
 11
259.5892329328811
 21
249.0067679050586
 31
0.0
 12
262.5892329328812
 22
249.5067679050586
 32
0.0
 13
262.5892329328812
 23
249.5067679050586
 33
0.0
  0
MTEXT
  5
204C
330
1AF6
100
AcDbEntity
  8
AM_5
100
AcDbMText
 10
236.5892329328811
 20
251.9571123932476
 30
0.0
 40
3.5
 41
0.0
 71
     5
 72
     1
  1
52
 73
     1
 44
1.0
1001
ACAD
1000
MTEXTBEGIN
1070
    73
1070
     1
1070
    44
1040
1.0
1070
    74
1070
     0
1000
MTEXTEND
  0
POINT
  5
204D
330
1AF6
100
AcDbEntity
  8
Defpoints
 62
     0
100
AcDbPoint
 10
210.5892329328812
 20
237.5067679050586
 30
0.0
  0
POINT
  5
204E
330
1AF6
100
AcDbEntity
  8
Defpoints
 62
     0
100
AcDbPoint
 10
262.5892329328812
 20
237.5067679050586
 30
0.0
  0
POINT
  5
204F
330
1AF6
100
AcDbEntity
  8
Defpoints
 62
     0
100
AcDbPoint
 10
262.5892329328812
 20
249.5067679050586
 30
0.0
  0
ENDBLK
  5
1B01
330
1AF6
100
AcDbEntity
  8
0
100
AcDbBlockEnd
  0
BLOCK
  5
1B26
330
1B1C
100
AcDbEntity
  8
0
100
AcDbBlockBegin
  2
*D16
 70
     1
 10
0.0
 20
0.0
 30
0.0
  3
*D16
  1

  0
LINE
  5
2050
330
1B1C
100
AcDbEntity
  8
AM_5
100
AcDbLine
 10
221.7892329328811
 20
193.9067679050586
 30
0.0
 11
191.5892329328811
 21
193.9067679050586
 31
0.0
  0
LINE
  5
2051
330
1B1C
100
AcDbEntity
  8
AM_5
100
AcDbLine
 10
204.0892329328812
 20
240.9067679050586
 30
0.0
 11
191.5892329328811
 21
240.9067679050586
 31
0.0
  0
LINE
  5
2052
330
1B1C
100
AcDbEntity
  8
AM_5
100
AcDbLine
 10
193.0892329328811
 20
196.9067679050586
 30
0.0
 11
193.0892329328811
 21
237.9067679050586
 31
0.0
  0
SOLID
  5
2053
330
1B1C
100
AcDbEntity
  8
AM_5
100
AcDbTrace
 10
192.5892329328811
 20
196.9067679050586
 30
0.0
 11
193.5892329328811
 21
196.9067679050586
 31
0.0
 12
193.0892329328811
 22
193.9067679050586
 32
0.0
 13
193.0892329328811
 23
193.9067679050586
 33
0.0
  0
SOLID
  5
2054
330
1B1C
100
AcDbEntity
  8
AM_5
100
AcDbTrace
 10
192.5892329328811
 20
237.9067679050586
 30
0.0
 11
193.5892329328811
 21
237.9067679050586
 31
0.0
 12
193.0892329328811
 22
240.9067679050586
 32
0.0
 13
193.0892329328811
 23
240.9067679050586
 33
0.0
  0
MTEXT
  5
2055
330
1B1C
100
AcDbEntity
  8
AM_5
100
AcDbMText
 10
190.6392329328811
 20
217.4067679050586
 30
0.0
 40
3.5
 41
0.0
 71
     5
 72
     1
  1
47
 11
0.0000000000000001
 21
1.0
 31
0.0
 73
     1
 44
1.0
1001
ACAD
1000
MTEXTBEGIN
1070
    73
1070
     1
1070
    44
1040
1.0
1070
    74
1070
     0
1000
MTEXTEND
  0
POINT
  5
2056
330
1B1C
100
AcDbEntity
  8
Defpoints
 62
     0
100
AcDbPoint
 10
222.7892329328811
 20
193.9067679050586
 30
0.0
  0
POINT
  5
2057
330
1B1C
100
AcDbEntity
  8
Defpoints
 62
     0
100
AcDbPoint
 10
205.0892329328811
 20
240.9067679050586
 30
0.0
  0
POINT
  5
2058
330
1B1C
100
AcDbEntity
  8
Defpoints
 62
     0
100
AcDbPoint
 10
193.0892329328811
 20
240.9067679050586
 30
0.0
  0
ENDBLK
  5
1B27
330
1B1C
100
AcDbEntity
  8
0
100
AcDbBlockEnd
  0
BLOCK
  5
1B76
330
1B6C
100
AcDbEntity
  8
0
100
AcDbBlockBegin
  2
*D18
 70
     1
 10
0.0
 20
0.0
 30
0.0
  3
*D18
  1

  0
LINE
  5
1EEF
330
1B6C
100
AcDbEntity
  8
AM_5
100
AcDbLine
 10
388.8922488696782
 20
296.0889956207452
 30
0.0
 11
388.8922488696782
 21
308.5889956207452
 31
0.0
  0
LINE
  5
1EF0
330
1B6C
100
AcDbEntity
  8
AM_5
100
AcDbLine
 10
434.8922488696781
 20
268.0889956207452
 30
0.0
 11
434.8922488696781
 21
308.5889956207452
 31
0.0
  0
LINE
  5
1EF1
330
1B6C
100
AcDbEntity
  8
AM_5
100
AcDbLine
 10
391.8922488696781
 20
307.0889956207452
 30
0.0
 11
431.8922488696781
 21
307.0889956207452
 31
0.0
  0
SOLID
  5
1EF2
330
1B6C
100
AcDbEntity
  8
AM_5
100
AcDbTrace
 10
391.8922488696781
 20
307.5889956207452
 30
0.0
 11
391.8922488696781
 21
306.5889956207452
 31
0.0
 12
388.8922488696782
 22
307.0889956207452
 32
0.0
 13
388.8922488696782
 23
307.0889956207452
 33
0.0
  0
SOLID
  5
1EF3
330
1B6C
100
AcDbEntity
  8
AM_5
100
AcDbTrace
 10
431.8922488696781
 20
307.5889956207452
 30
0.0
 11
431.8922488696781
 21
306.5889956207452
 31
0.0
 12
434.8922488696781
 22
307.0889956207452
 32
0.0
 13
434.8922488696781
 23
307.0889956207452
 33
0.0
  0
MTEXT
  5
1EF4
330
1B6C
100
AcDbEntity
  8
AM_5
100
AcDbMText
 10
411.8922488696781
 20
309.5389956207452
 30
0.0
 40
3.5
 41
0.0
 71
     5
 72
     1
  1
46
 73
     1
 44
1.0
1001
ACAD
1000
MTEXTBEGIN
1070
    73
1070
     1
1070
    44
1040
1.0
1070
    74
1070
     0
1000
MTEXTEND
  0
POINT
  5
1EF5
330
1B6C
100
AcDbEntity
  8
Defpoints
 62
     0
100
AcDbPoint
 10
388.8922488696782
 20
295.0889956207452
 30
0.0
  0
POINT
  5
1EF6
330
1B6C
100
AcDbEntity
  8
Defpoints
 62
     0
100
AcDbPoint
 10
434.8922488696781
 20
267.0889956207452
 30
0.0
  0
POINT
  5
1EF7
330
1B6C
100
AcDbEntity
  8
Defpoints
 62
     0
100
AcDbPoint
 10
434.8922488696781
 20
307.0889956207452
 30
0.0
  0
ENDBLK
  5
1B77
330
1B6C
100
AcDbEntity
  8
0
100
AcDbBlockEnd
  0
BLOCK
  5
1B9C
330
1B92
100
AcDbEntity
  8
0
100
AcDbBlockBegin
  2
*D19
 70
     1
 10
0.0
 20
0.0
 30
0.0
  3
*D19
  1

  0
LINE
  5
1EF8
330
1B92
100
AcDbEntity
  8
AM_5
100
AcDbLine
 10
384.2922488696781
 20
291.4889956207452
 30
0.0
 11
371.7922488696781
 21
291.4889956207452
 31
0.0
  0
LINE
  5
1EF9
330
1B92
100
AcDbEntity
  8
AM_5
100
AcDbLine
 10
430.2922488696781
 20
263.4889956207452
 30
0.0
 11
371.7922488696781
 21
263.4889956207453
 31
0.0
  0
LINE
  5
1EFA
330
1B92
100
AcDbEntity
  8
AM_5
100
AcDbLine
 10
373.2922488696782
 20
288.4889956207453
 30
0.0
 11
373.2922488696782
 21
266.4889956207452
 31
0.0
  0
SOLID
  5
1EFB
330
1B92
100
AcDbEntity
  8
AM_5
100
AcDbTrace
 10
372.7922488696781
 20
288.4889956207453
 30
0.0
 11
373.7922488696781
 21
288.4889956207453
 31
0.0
 12
373.2922488696782
 22
291.4889956207452
 32
0.0
 13
373.2922488696782
 23
291.4889956207452
 33
0.0
  0
SOLID
  5
1EFC
330
1B92
100
AcDbEntity
  8
AM_5
100
AcDbTrace
 10
372.7922488696781
 20
266.4889956207452
 30
0.0
 11
373.7922488696781
 21
266.4889956207452
 31
0.0
 12
373.2922488696782
 22
263.4889956207453
 32
0.0
 13
373.2922488696782
 23
263.4889956207453
 33
0.0
  0
MTEXT
  5
1EFD
330
1B92
100
AcDbEntity
  8
AM_5
100
AcDbMText
 10
370.8419043814891
 20
277.4889956207453
 30
0.0
 40
3.5
 41
0.0
 71
     5
 72
     1
  1
28
 11
0.0000000000000001
 21
1.0
 31
0.0
 73
     1
 44
1.0
1001
ACAD
1000
MTEXTBEGIN
1070
    73
1070
     1
1070
    44
1040
1.0
1070
    74
1070
     0
1000
MTEXTEND
  0
POINT
  5
1EFE
330
1B92
100
AcDbEntity
  8
Defpoints
 62
     0
100
AcDbPoint
 10
385.2922488696781
 20
291.4889956207452
 30
0.0
  0
POINT
  5
1EFF
330
1B92
100
AcDbEntity
  8
Defpoints
 62
     0
100
AcDbPoint
 10
431.2922488696781
 20
263.4889956207452
 30
0.0
  0
POINT
  5
1F00
330
1B92
100
AcDbEntity
  8
Defpoints
 62
     0
100
AcDbPoint
 10
373.2922488696782
 20
263.4889956207453
 30
0.0
  0
ENDBLK
  5
1B9D
330
1B92
100
AcDbEntity
  8
0
100
AcDbBlockEnd
  0
BLOCK
  5
1BC4
330
1BB8
100
AcDbEntity
  8
0
100
AcDbBlockBegin
  2
*D20
 70
     1
 10
0.0
 20
0.0
 30
0.0
  3
*D20
  1

  0
LINE
  5
20AB
330
1BB8
100
AcDbEntity
  8
AM_5
100
AcDbLine
 10
441.3922488696782
 20
156.7090258546807
 30
0.0
 11
447.4225129237892
 21
156.7090258546807
 31
0.0
  0
LINE
  5
20AC
330
1BB8
100
AcDbEntity
  8
AM_5
100
AcDbLine
 10
441.3922488696782
 20
157.9090258546807
 30
0.0
 11
447.4225129237892
 21
157.9090258546807
 31
0.0
  0
LINE
  5
20AD
330
1BB8
100
AcDbEntity
  8
AM_5
100
AcDbLine
 10
445.9225129237893
 20
153.7090258546807
 30
0.0
 11
445.9225129237893
 21
150.7090258546807
 31
0.0
  0
LINE
  5
20AE
330
1BB8
100
AcDbEntity
  8
AM_5
100
AcDbLine
 10
445.9225129237893
 20
160.9090258546807
 30
0.0
 11
445.9225129237893
 21
169.7192325475941
 31
0.0
  0
LINE
  5
20AF
330
1BB8
100
AcDbEntity
  8
AM_5
100
AcDbLine
 10
445.9225129237893
 20
156.7090258546807
 30
0.0
 11
445.9225129237893
 21
157.9090258546807
 31
0.0
  0
SOLID
  5
20B0
330
1BB8
100
AcDbEntity
  8
AM_5
100
AcDbTrace
 10
445.4225129237893
 20
153.7090258546807
 30
0.0
 11
446.4225129237893
 21
153.7090258546807
 31
0.0
 12
445.9225129237893
 22
156.7090258546807
 32
0.0
 13
445.9225129237893
 23
156.7090258546807
 33
0.0
  0
SOLID
  5
20B1
330
1BB8
100
AcDbEntity
  8
AM_5
100
AcDbTrace
 10
445.4225129237893
 20
160.9090258546807
 30
0.0
 11
446.4225129237893
 21
160.9090258546807
 31
0.0
 12
445.9225129237893
 22
157.9090258546807
 32
0.0
 13
445.9225129237893
 23
157.9090258546807
 33
0.0
  0
MTEXT
  5
20B2
330
1BB8
100
AcDbEntity
  8
AM_5
100
AcDbMText
 10
443.4721684356002
 20
166.8141292011374
 30
0.0
 40
3.5
 41
0.0
 71
     5
 72
     1
  1
1.2
 11
0.0000000000000001
 21
1.0
 31
0.0
 73
     1
 44
1.0
1001
ACAD
1000
MTEXTBEGIN
1070
    73
1070
     1
1070
    44
1040
1.0
1070
    74
1070
     0
1000
MTEXTEND
  0
POINT
  5
20B3
330
1BB8
100
AcDbEntity
  8
Defpoints
 62
     0
100
AcDbPoint
 10
440.3922488696781
 20
156.7090258546807
 30
0.0
  0
POINT
  5
20B4
330
1BB8
100
AcDbEntity
  8
Defpoints
 62
     0
100
AcDbPoint
 10
440.3922488696781
 20
157.9090258546807
 30
0.0
  0
POINT
  5
20B5
330
1BB8
100
AcDbEntity
  8
Defpoints
 62
     0
100
AcDbPoint
 10
445.9225129237893
 20
157.9090258546807
 30
0.0
  0
ENDBLK
  5
1BC5
330
1BB8
100
AcDbEntity
  8
0
100
AcDbBlockEnd
  0
BLOCK
  5
1BEC
330
1BE2
100
AcDbEntity
  8
0
100
AcDbBlockBegin
  2
*D21
 70
     1
 10
0.0
 20
0.0
 30
0.0
  3
*D21
  1

  0
LINE
  5
1F0C
330
1BE2
100
AcDbEntity
  8
AM_5
100
AcDbLine
 10
441.3922488696782
 20
156.7090258546807
 30
0.0
 11
453.8922488696782
 21
156.7090258546806
 31
0.0
  0
LINE
  5
1F0D
330
1BE2
100
AcDbEntity
  8
AM_5
100
AcDbLine
 10
422.3922488696781
 20
233.2090258546807
 30
0.0
 11
453.8922488696782
 21
233.2090258546807
 31
0.0
  0
LINE
  5
1F0E
330
1BE2
100
AcDbEntity
  8
AM_5
100
AcDbLine
 10
452.3922488696781
 20
159.7090258546806
 30
0.0
 11
452.3922488696781
 21
230.2090258546807
 31
0.0
  0
SOLID
  5
1F0F
330
1BE2
100
AcDbEntity
  8
AM_5
100
AcDbTrace
 10
451.8922488696781
 20
159.7090258546806
 30
0.0
 11
452.8922488696781
 21
159.7090258546806
 31
0.0
 12
452.3922488696781
 22
156.7090258546806
 32
0.0
 13
452.3922488696781
 23
156.7090258546806
 33
0.0
  0
SOLID
  5
1F10
330
1BE2
100
AcDbEntity
  8
AM_5
100
AcDbTrace
 10
451.8922488696781
 20
230.2090258546807
 30
0.0
 11
452.8922488696781
 21
230.2090258546807
 31
0.0
 12
452.3922488696781
 22
233.2090258546807
 32
0.0
 13
452.3922488696781
 23
233.2090258546807
 33
0.0
  0
MTEXT
  5
1F11
330
1BE2
100
AcDbEntity
  8
AM_5
100
AcDbMText
 10
449.942248869678
 20
194.9590258546807
 30
0.0
 40
3.5
 41
0.0
 71
     5
 72
     1
  1
76.5
 11
0.0000000000000001
 21
1.0
 31
0.0
 73
     1
 44
1.0
1001
ACAD
1000
MTEXTBEGIN
1070
    73
1070
     1
1070
    44
1040
1.0
1070
    74
1070
     0
1000
MTEXTEND
  0
POINT
  5
1F12
330
1BE2
100
AcDbEntity
  8
Defpoints
 62
     0
100
AcDbPoint
 10
440.3922488696781
 20
156.7090258546807
 30
0.0
  0
POINT
  5
1F13
330
1BE2
100
AcDbEntity
  8
Defpoints
 62
     0
100
AcDbPoint
 10
421.3922488696781
 20
233.2090258546807
 30
0.0
  0
POINT
  5
1F14
330
1BE2
100
AcDbEntity
  8
Defpoints
 62
     0
100
AcDbPoint
 10
452.3922488696781
 20
233.2090258546807
 30
0.0
  0
ENDBLK
  5
1BED
330
1BE2
100
AcDbEntity
  8
0
100
AcDbBlockEnd
  0
BLOCK
  5
1C0A
330
1C01
100
AcDbEntity
  8
0
100
AcDbBlockBegin
  2
*D22
 70
     1
 10
0.0
 20
0.0
 30
0.0
  3
*D22
  1

  0
LINE
  5
208D
330
1C01
100
AcDbEntity
  8
AM_5
100
AcDbLine
 10
265.6846215620165
 20
237.9599850513042
 30
0.0
 11
271.9834297059435
 21
246.2078790086483
 31
0.0
  0
LINE
  5
208E
330
1C01
100
AcDbEntity
  8
AM_5
100
AcDbLine
 10
271.9834297059435
 20
246.2078790086483
 30
0.0
 11
286.2825143516128
 21
246.2078790086483
 31
0.0
  0
SOLID
  5
208F
330
1C01
100
AcDbEntity
  8
AM_5
100
AcDbTrace
 10
265.2872473319925
 20
238.2634545247488
 30
0.0
 11
266.0819957920407
 21
237.6565155778595
 31
0.0
 12
263.8638047213488
 22
235.5757396711597
 32
0.0
 13
263.8638047213488
 23
235.5757396711597
 33
0.0
  0
MTEXT
  5
2090
330
1C01
100
AcDbEntity
  8
AM_5
100
AcDbMText
 10
279.4829720287782
 20
248.6582234968373
 30
0.0
 40
3.5
 41
0.0
 71
     5
 72
     1
  1
2-\U+22054.2
 73
     1
 44
1.0
1001
ACAD
1000
MTEXTBEGIN
1070
    73
1070
     1
1070
    44
1040
1.0
1070
    74
1070
     0
1000
MTEXTEND
  0
POINT
  5
2091
330
1C01
100
AcDbEntity
  8
Defpoints
 62
     0
100
AcDbPoint
 10
263.8638047213488
 20
235.5757396711597
 30
0.0
  0
POINT
  5
2092
330
1C01
100
AcDbEntity
  8
Defpoints
 62
     0
100
AcDbPoint
 10
261.3146611444136
 20
232.237796138957
 30
0.0
  0
ENDBLK
  5
1C0B
330
1C01
100
AcDbEntity
  8
0
100
AcDbBlockEnd
  0
BLOCK
  5
1C27
330
1C21
100
AcDbEntity
  8
0
100
AcDbBlockBegin
  2
*D23
 70
     1
 10
0.0
 20
0.0
 30
0.0
  3
*D23
  1

  0
LINE
  5
1F36
330
1C21
100
AcDbEntity
  8
AM_5
100
AcDbLine
 10
385.2242733900965
 20
295.0324340470746
 30
0.0
 11
376.3123686816436
 21
303.6417570296044
 31
0.0
  0
LINE
  5
1F37
330
1C21
100
AcDbEntity
  8
AM_5
100
AcDbLine
 10
376.3123686816436
 20
303.6417570296044
 30
0.0
 11
362.0132840359743
 21
303.6417570296044
 31
0.0
  0
SOLID
  5
1F38
330
1C21
100
AcDbEntity
  8
AM_5
100
AcDbTrace
 10
385.5716693142464
 20
295.3920394862493
 30
0.0
 11
384.8768774659465
 21
294.6728286078999
 31
0.0
 12
387.3819060251445
 22
292.948058502175
 32
0.0
 13
387.3819060251445
 23
292.948058502175
 33
0.0
  0
MTEXT
  5
1F39
330
1C21
100
AcDbEntity
  8
AM_5
100
AcDbMText
 10
368.812826358809
 20
306.0921015177934
 30
0.0
 40
3.5
 41
0.0
 71
     5
 72
     1
  1
2-\U+22054.2
 73
     1
 44
1.0
1001
ACAD
1000
MTEXTBEGIN
1070
    73
1070
     1
1070
    44
1040
1.0
1070
    74
1070
     0
1000
MTEXTEND
  0
POINT
  5
1F3A
330
1C21
100
AcDbEntity
  8
Defpoints
 62
     0
100
AcDbPoint
 10
387.3819060251445
 20
292.948058502175
 30
0.0
  0
POINT
  5
1F3B
330
1C21
100
AcDbEntity
  8
Defpoints
 62
     0
100
AcDbPoint
 10
390.4025917142118
 20
290.0299327393154
 30
0.0
  0
ENDBLK
  5
1C28
330
1C21
100
AcDbEntity
  8
0
100
AcDbBlockEnd
  0
BLOCK
  5
1C7D
330
1C73
100
AcDbEntity
  8
0
100
AcDbBlockBegin
  2
*D24
 70
     1
 10
0.0
 20
0.0
 30
0.0
  3
*D24
  1

  0
LINE
  5
1F1B
330
1C73
100
AcDbEntity
  8
AM_5
100
AcDbLine
 10
396.3922488696781
 20
233.2090258546807
 30
0.0
 11
396.3922488696781
 21
245.7090258546807
 31
0.0
  0
LINE
  5
1F1C
330
1C73
100
AcDbEntity
  8
AM_5
100
AcDbLine
 10
422.3922488696781
 20
233.2090258546807
 30
0.0
 11
422.3922488696781
 21
245.7090258546807
 31
0.0
  0
LINE
  5
1F1D
330
1C73
100
AcDbEntity
  8
AM_5
100
AcDbLine
 10
399.3922488696782
 20
244.2090258546807
 30
0.0
 11
419.3922488696781
 21
244.2090258546807
 31
0.0
  0
SOLID
  5
1F1E
330
1C73
100
AcDbEntity
  8
AM_5
100
AcDbTrace
 10
399.3922488696782
 20
244.7090258546807
 30
0.0
 11
399.3922488696782
 21
243.7090258546807
 31
0.0
 12
396.3922488696781
 22
244.2090258546807
 32
0.0
 13
396.3922488696781
 23
244.2090258546807
 33
0.0
  0
SOLID
  5
1F1F
330
1C73
100
AcDbEntity
  8
AM_5
100
AcDbTrace
 10
419.3922488696781
 20
244.7090258546807
 30
0.0
 11
419.3922488696781
 21
243.7090258546807
 31
0.0
 12
422.3922488696781
 22
244.2090258546807
 32
0.0
 13
422.3922488696781
 23
244.2090258546807
 33
0.0
  0
MTEXT
  5
1F20
330
1C73
100
AcDbEntity
  8
AM_5
100
AcDbMText
 10
409.3922488696781
 20
246.6593703428697
 30
0.0
 40
3.5
 41
0.0
 71
     5
 72
     1
  1
26
 73
     1
 44
1.0
1001
ACAD
1000
MTEXTBEGIN
1070
    73
1070
     1
1070
    44
1040
1.0
1070
    74
1070
     0
1000
MTEXTEND
  0
POINT
  5
1F21
330
1C73
100
AcDbEntity
  8
Defpoints
 62
     0
100
AcDbPoint
 10
396.3922488696781
 20
232.2090258546807
 30
0.0
  0
POINT
  5
1F22
330
1C73
100
AcDbEntity
  8
Defpoints
 62
     0
100
AcDbPoint
 10
422.3922488696781
 20
232.2090258546807
 30
0.0
  0
POINT
  5
1F23
330
1C73
100
AcDbEntity
  8
Defpoints
 62
     0
100
AcDbPoint
 10
422.3922488696781
 20
244.2090258546807
 30
0.0
  0
ENDBLK
  5
1C7E
330
1C73
100
AcDbEntity
  8
0
100
AcDbBlockEnd
  0
BLOCK
  5
1CC1
330
1CB7
100
AcDbEntity
  8
0
100
AcDbBlockBegin
  2
*D25
 70
     1
 10
0.0
 20
0.0
 30
0.0
  3
*D25
  1

  0
LINE
  5
1F24
330
1CB7
100
AcDbEntity
  8
AM_5
100
AcDbLine
 10
383.3922488696781
 20
296.4889956207453
 30
0.0
 11
363.7922488696781
 21
296.4889956207453
 31
0.0
  0
LINE
  5
1F25
330
1CB7
100
AcDbEntity
  8
AM_5
100
AcDbLine
 10
429.3922488696781
 20
258.4889956207452
 30
0.0
 11
363.7922488696781
 21
258.4889956207452
 31
0.0
  0
LINE
  5
1F26
330
1CB7
100
AcDbEntity
  8
AM_5
100
AcDbLine
 10
365.2922488696781
 20
293.4889956207452
 30
0.0
 11
365.2922488696781
 21
261.4889956207453
 31
0.0
  0
SOLID
  5
1F27
330
1CB7
100
AcDbEntity
  8
AM_5
100
AcDbTrace
 10
364.7922488696782
 20
293.4889956207452
 30
0.0
 11
365.7922488696781
 21
293.4889956207452
 31
0.0
 12
365.2922488696781
 22
296.4889956207453
 32
0.0
 13
365.2922488696781
 23
296.4889956207453
 33
0.0
  0
SOLID
  5
1F28
330
1CB7
100
AcDbEntity
  8
AM_5
100
AcDbTrace
 10
364.7922488696782
 20
261.4889956207453
 30
0.0
 11
365.7922488696781
 21
261.4889956207453
 31
0.0
 12
365.2922488696781
 22
258.4889956207452
 32
0.0
 13
365.2922488696781
 23
258.4889956207452
 33
0.0
  0
MTEXT
  5
1F29
330
1CB7
100
AcDbEntity
  8
AM_5
100
AcDbMText
 10
362.8422488696781
 20
277.4889956207453
 30
0.0
 40
3.5
 41
0.0
 71
     5
 72
     1
  1
38
 11
0.0000000000000001
 21
1.0
 31
0.0
 73
     1
 44
1.0
1001
ACAD
1000
MTEXTBEGIN
1070
    73
1070
     1
1070
    44
1040
1.0
1070
    74
1070
     0
1000
MTEXTEND
  0
POINT
  5
1F2A
330
1CB7
100
AcDbEntity
  8
Defpoints
 62
     0
100
AcDbPoint
 10
384.3922488696782
 20
296.4889956207452
 30
0.0
  0
POINT
  5
1F2B
330
1CB7
100
AcDbEntity
  8
Defpoints
 62
     0
100
AcDbPoint
 10
430.3922488696781
 20
258.4889956207452
 30
0.0
  0
POINT
  5
1F2C
330
1CB7
100
AcDbEntity
  8
Defpoints
 62
     0
100
AcDbPoint
 10
365.2922488696781
 20
258.4889956207452
 30
0.0
  0
ENDBLK
  5
1CC2
330
1CB7
100
AcDbEntity
  8
0
100
AcDbBlockEnd
  0
BLOCK
  5
1CE7
330
1CDD
100
AcDbEntity
  8
0
100
AcDbBlockBegin
  2
*D26
 70
     1
 10
0.0
 20
0.0
 30
0.0
  3
*D26
  1

  0
LINE
  5
1F2D
330
1CDD
100
AcDbEntity
  8
AM_5
100
AcDbLine
 10
383.3922488696781
 20
296.4889956207452
 30
0.0
 11
383.3922488696781
 21
316.5889956207449
 31
0.0
  0
LINE
  5
1F2E
330
1CDD
100
AcDbEntity
  8
AM_5
100
AcDbLine
 10
440.3922488696781
 20
278.3889956207452
 30
0.0
 11
440.3922488696781
 21
316.5889956207449
 31
0.0
  0
LINE
  5
1F2F
330
1CDD
100
AcDbEntity
  8
AM_5
100
AcDbLine
 10
386.3922488696782
 20
315.0889956207449
 30
0.0
 11
437.3922488696782
 21
315.0889956207449
 31
0.0
  0
SOLID
  5
1F30
330
1CDD
100
AcDbEntity
  8
AM_5
100
AcDbTrace
 10
386.3922488696782
 20
315.5889956207449
 30
0.0
 11
386.3922488696782
 21
314.5889956207449
 31
0.0
 12
383.3922488696781
 22
315.0889956207449
 32
0.0
 13
383.3922488696781
 23
315.0889956207449
 33
0.0
  0
SOLID
  5
1F31
330
1CDD
100
AcDbEntity
  8
AM_5
100
AcDbTrace
 10
437.3922488696782
 20
315.5889956207449
 30
0.0
 11
437.3922488696782
 21
314.5889956207449
 31
0.0
 12
440.3922488696781
 22
315.0889956207449
 32
0.0
 13
440.3922488696781
 23
315.0889956207449
 33
0.0
  0
MTEXT
  5
1F32
330
1CDD
100
AcDbEntity
  8
AM_5
100
AcDbMText
 10
411.8922488696781
 20
317.5389956207449
 30
0.0
 40
3.5
 41
0.0
 71
     5
 72
     1
  1
57
 73
     1
 44
1.0
1001
ACAD
1000
MTEXTBEGIN
1070
    73
1070
     1
1070
    44
1040
1.0
1070
    74
1070
     0
1000
MTEXTEND
  0
POINT
  5
1F33
330
1CDD
100
AcDbEntity
  8
Defpoints
 62
     0
100
AcDbPoint
 10
383.3922488696781
 20
295.4889956207452
 30
0.0
  0
POINT
  5
1F34
330
1CDD
100
AcDbEntity
  8
Defpoints
 62
     0
100
AcDbPoint
 10
440.3922488696781
 20
277.3889956207451
 30
0.0
  0
POINT
  5
1F35
330
1CDD
100
AcDbEntity
  8
Defpoints
 62
     0
100
AcDbPoint
 10
440.3922488696781
 20
315.0889956207449
 30
0.0
  0
ENDBLK
  5
1CE8
330
1CDD
100
AcDbEntity
  8
0
100
AcDbBlockEnd
  0
BLOCK
  5
1D14
330
1D08
100
AcDbEntity
  8
0
100
AcDbBlockBegin
  2
*D27
 70
     1
 10
0.0
 20
0.0
 30
0.0
  3
*D27
  1

  0
LINE
  5
205F
330
1D08
100
AcDbEntity
  8
AM_5
100
AcDbLine
 10
270.5892329328811
 20
279.0736852173088
 30
0.0
 11
291.0892329328811
 21
279.0736852173088
 31
0.0
  0
LINE
  5
2060
330
1D08
100
AcDbEntity
  8
AM_5
100
AcDbLine
 10
252.0892329328812
 20
274.0736852173088
 30
0.0
 11
291.0892329328811
 21
274.0736852173088
 31
0.0
  0
LINE
  5
2061
330
1D08
100
AcDbEntity
  8
AM_5
100
AcDbLine
 10
289.5892329328812
 20
282.0736852173088
 30
0.0
 11
289.5892329328812
 21
285.0736852173088
 31
0.0
  0
LINE
  5
2062
330
1D08
100
AcDbEntity
  8
AM_5
100
AcDbLine
 10
289.5892329328812
 20
271.0736852173088
 30
0.0
 11
289.5892329328812
 21
268.0736852173088
 31
0.0
  0
LINE
  5
2063
330
1D08
100
AcDbEntity
  8
AM_5
100
AcDbLine
 10
289.5892329328812
 20
279.0736852173088
 30
0.0
 11
289.5892329328812
 21
274.0736852173088
 31
0.0
  0
SOLID
  5
2064
330
1D08
100
AcDbEntity
  8
AM_5
100
AcDbTrace
 10
289.0892329328811
 20
282.0736852173088
 30
0.0
 11
290.0892329328812
 21
282.0736852173088
 31
0.0
 12
289.5892329328812
 22
279.0736852173088
 32
0.0
 13
289.5892329328812
 23
279.0736852173088
 33
0.0
  0
SOLID
  5
2065
330
1D08
100
AcDbEntity
  8
AM_5
100
AcDbTrace
 10
289.0892329328811
 20
271.0736852173088
 30
0.0
 11
290.0892329328812
 21
271.0736852173088
 31
0.0
 12
289.5892329328812
 22
274.0736852173088
 32
0.0
 13
289.5892329328812
 23
274.0736852173088
 33
0.0
  0
MTEXT
  5
2066
330
1D08
100
AcDbEntity
  8
AM_5
100
AcDbMText
 10
287.1392329328811
 20
276.5736852173089
 30
0.0
 40
3.5
 41
0.0
 71
     5
 72
     1
  1
5
 11
0.0000000000000001
 21
1.0
 31
0.0
 73
     1
 44
1.0
1001
ACAD
1000
MTEXTBEGIN
1070
    73
1070
     1
1070
    44
1040
1.0
1070
    74
1070
     0
1000
MTEXTEND
  0
POINT
  5
2067
330
1D08
100
AcDbEntity
  8
Defpoints
 62
     0
100
AcDbPoint
 10
269.5892329328811
 20
279.0736852173088
 30
0.0
  0
POINT
  5
2068
330
1D08
100
AcDbEntity
  8
Defpoints
 62
     0
100
AcDbPoint
 10
251.0892329328811
 20
274.0736852173088
 30
0.0
  0
POINT
  5
2069
330
1D08
100
AcDbEntity
  8
Defpoints
 62
     0
100
AcDbPoint
 10
289.5892329328812
 20
274.0736852173088
 30
0.0
  0
ENDBLK
  5
1D15
330
1D08
100
AcDbEntity
  8
0
100
AcDbBlockEnd
  0
BLOCK
  5
1F98
330
1F8C
100
AcDbEntity
  8
0
100
AcDbBlockBegin
  2
*D28
 70
     1
 10
0.0
 20
0.0
 30
0.0
  3
*D28
  1

  0
LINE
  5
206A
330
1F8C
100
AcDbEntity
  8
AM_5
100
AcDbLine
 10
270.5892329328811
 20
279.0736852173088
 30
0.0
 11
283.0892329328811
 21
279.0736852173088
 31
0.0
  0
LINE
  5
206B
330
1F8C
100
AcDbEntity
  8
AM_5
100
AcDbLine
 10
270.5892329328811
 20
277.8736852173088
 30
0.0
 11
283.0892329328811
 21
277.8736852173088
 31
0.0
  0
LINE
  5
206C
330
1F8C
100
AcDbEntity
  8
AM_5
100
AcDbLine
 10
281.5892329328812
 20
274.8736852173088
 30
0.0
 11
281.5892329328812
 21
271.8736852173088
 31
0.0
  0
LINE
  5
206D
330
1F8C
100
AcDbEntity
  8
AM_5
100
AcDbLine
 10
281.5892329328812
 20
282.0736852173088
 30
0.0
 11
281.5892329328812
 21
290.8838919102222
 31
0.0
  0
LINE
  5
206E
330
1F8C
100
AcDbEntity
  8
AM_5
100
AcDbLine
 10
281.5892329328812
 20
277.8736852173088
 30
0.0
 11
281.5892329328812
 21
279.0736852173088
 31
0.0
  0
SOLID
  5
206F
330
1F8C
100
AcDbEntity
  8
AM_5
100
AcDbTrace
 10
281.0892329328812
 20
274.8736852173088
 30
0.0
 11
282.0892329328811
 21
274.8736852173088
 31
0.0
 12
281.5892329328812
 22
277.8736852173088
 32
0.0
 13
281.5892329328812
 23
277.8736852173088
 33
0.0
  0
SOLID
  5
2070
330
1F8C
100
AcDbEntity
  8
AM_5
100
AcDbTrace
 10
281.0892329328812
 20
282.0736852173088
 30
0.0
 11
282.0892329328811
 21
282.0736852173088
 31
0.0
 12
281.5892329328812
 22
279.0736852173088
 32
0.0
 13
281.5892329328812
 23
279.0736852173088
 33
0.0
  0
MTEXT
  5
2071
330
1F8C
100
AcDbEntity
  8
AM_5
100
AcDbMText
 10
279.1388884446921
 20
287.9787885637656
 30
0.0
 40
3.5
 41
0.0
 71
     5
 72
     1
  1
1.2
 11
0.0000000000000001
 21
1.0
 31
0.0
 73
     1
 44
1.0
1001
ACAD
1000
MTEXTBEGIN
1070
    73
1070
     1
1070
    44
1040
1.0
1070
    74
1070
     0
1000
MTEXTEND
  0
POINT
  5
2072
330
1F8C
100
AcDbEntity
  8
Defpoints
 62
     0
100
AcDbPoint
 10
269.5892329328811
 20
279.0736852173088
 30
0.0
  0
POINT
  5
2073
330
1F8C
100
AcDbEntity
  8
Defpoints
 62
     0
100
AcDbPoint
 10
269.5892329328811
 20
277.8736852173088
 30
0.0
  0
POINT
  5
2074
330
1F8C
100
AcDbEntity
  8
Defpoints
 62
     0
100
AcDbPoint
 10
281.5892329328812
 20
277.8736852173088
 30
0.0
  0
ENDBLK
  5
1F99
330
1F8C
100
AcDbEntity
  8
0
100
AcDbBlockEnd
  0
ENDSEC
  0
SECTION
  2
ENTITIES
  0
TEXT
  5
FC3
330
1F
100
AcDbEntity
  8
0
100
AcDbText
 10
173.8533657731364
 20
334.7544339129736
 30
0.0
 40
8.639999999999998
  1
1A
100
AcDbText
  0
TEXT
  5
FC4
330
1F
100
AcDbEntity
  8
0
100
AcDbText
 10
350.9723556126748
 20
334.7544339129736
 30
0.0
 40
8.639999999999998
  1
2A
100
AcDbText
  0
LINE
  5
108C
330
1F
100
AcDbEntity
  8
LOGO
 62
     4
100
AcDbLine
 10
232.2696127629911
 20
92.91503539646715
 30
0.0
 11
232.2696127629911
 21
127.4700312335714
 31
0.0
  0
TEXT
  5
108D
330
1F
100
AcDbEntity
  8
LOGO
  6
Continuous
100
AcDbText
 10
168.6609317537614
 20
99.70331218063074
 30
0.0
 40
5.183249375565609
  1
金器工業股份有限公司
  7
CHINESET
100
AcDbText
  0
TEXT
  5
108E
330
1F
100
AcDbEntity
  8
LOGO
  6
Continuous
100
AcDbText
 10
159.1403281061663
 20
94.51904729457011
 30
0.0
 40
3.455499583710407
  1
MINDMAN INDUSTRIAL CO., LTD.
 41
0.85
  7
CHINESET
100
AcDbText
  0
LINE
  5
108F
330
1F
100
AcDbEntity
  8
LOGO
 62
     4
100
AcDbLine
 10
232.2696127629911
 20
120.5590320661505
 30
0.0
 11
181.5889522019052
 21
120.5590320661505
 31
0.0
  0
LINE
  5
1090
330
1F
100
AcDbEntity
  8
LOGO
 62
     4
100
AcDbLine
 10
232.2696127629911
 20
113.6480328987296
 30
0.0
 11
181.5889522019052
 21
113.6480328987296
 31
0.0
  0
LINE
  5
1091
330
1F
100
AcDbEntity
  8
LOGO
 62
     4
100
AcDbLine
 10
232.2696127629911
 20
106.7370337313093
 30
0.0
 11
156.2486219213619
 21
106.7370337313093
 31
0.0
  0
LINE
  5
1092
330
1F
100
AcDbEntity
  8
LOGO
 62
     4
100
AcDbLine
 10
181.5889522019052
 20
106.7370337313093
 30
0.0
 11
181.5889522019052
 21
127.4700312335714
 31
0.0
  0
TEXT
  5
1093
330
1F
100
AcDbEntity
  8
LOGO
100
AcDbText
 10
216.2267916046651
 20
108.4647835231637
 30
0.0
 40
3.455499583710407
  1
mm
  7
CHINESET
 72
     1
 11
220.5050291844971
 21
110.1925333150189
 31
0.0
100
AcDbText
 73
     2
  0
TEXT
  5
1094
330
1F
100
AcDbEntity
  8
LOGO
100
AcDbText
 10
214.4167680131978
 20
122.2867818580056
 30
0.0
 40
3.455499583710407
  1
1 : 1
  7
CHINESET
 72
     1
 11
220.5050291844971
 21
124.0145316498608
 31
0.0
100
AcDbText
 73
     2
  0
LINE
  5
1095
330
1F
100
AcDbEntity
  8
LOGO
 62
     4
100
AcDbLine
 10
209.2329488715883
 20
106.7370337313093
 30
0.0
 11
209.2329488715883
 21
127.4700312335714
 31
0.0
  0
TEXT
  5
1096
330
1F
100
AcDbEntity
  8
LOGO
100
AcDbText
 10
184.4381967247231
 20
122.2884823991393
 30
226.4677501133661
 40
3.455499583710407
  1
比例 Scale:
 41
0.9
  7
CHINESET
 72
     4
 11
195.4109505367464
 21
124.0145316498608
 31
226.4677501133661
100
AcDbText
  0
TEXT
  5
1097
330
1F
100
AcDbEntity
  8
LOGO
100
AcDbText
 10
184.2391969719112
 20
115.4243898246567
 30
226.4677501133661
 40
3.455499583710407
  1
投影  View:
 41
0.9
  7
CHINESET
 72
     4
 11
195.4109505367464
 21
117.1035324824399
 31
226.4677501133661
100
AcDbText
  0
TEXT
  5
1098
330
1F
100
AcDbEntity
  8
LOGO
100
AcDbText
 10
184.5770337615687
 20
108.4647835231637
 30
226.4677501133661
 40
3.455499583710407
  1
單位  Unit:
 41
0.9
  7
CHINESET
 72
     4
 11
195.4109505367464
 21
110.1925333150189
 31
226.4677501133661
100
AcDbText
  0
LWPOLYLINE
  5
1099
330
1F
100
AcDbEntity
  8
LOGO
 62
     4
100
AcDbPolyline
 90
        4
 70
     1
 43
0.0
 10
156.2486219213619
 20
127.4700312335714
 10
529.3775014571801
 20
127.4700312335714
 10
529.3775014571801
 20
371.1857581753539
 10
156.2486219213619
 20
371.1857581753539
1001
GENIUS_GENREC_14
1002
{
1000
PYDIR
1011
156.2486219213619
1021
371.1857581753539
1031
0.0
1002
}
1002
{
1000
PXDIR
1011
529.3775014571801
1021
127.4700312335714
1031
0.0
1002
}
1002
{
1000
PORI
1011
156.2486219213619
1021
127.4700312335714
1031
0.0
1002
}
1002
{
1000
PINS
1011
156.2486219213619
1021
127.4700312335714
1031
0.0
1002
}
1002
{
1000
PINS2
1011
529.3775014571801
1021
371.1857581753539
1031
0.0
1002
}
1002
{
1000
C
1070
     1
1002
}
1001
GENIUS_GENODEF_13
1002
{
1000
HIER
1070
     0
1002
}
1002
{
1000
MANEDIT
1070
     0
1002
}
1002
{
1000
NOSEL
1070
     0
1002
}
1002
{
1000
BEHIND
1070
     0
1002
}
1002
{
1000
OTHER
1070
     0
1002
}
1002
{
1000
REACTOR
1002
}
1001
GENIUS_GENOBJ-N-REC_13
1002
{
1000
OWNER
1000
GEN
1002
}
  0
SOLID
  5
109A
330
1F
100
AcDbEntity
  8
LOGO
 62
     5
100
AcDbTrace
 10
159.8337581960118
 20
112.4813099375929
 30
0.0
 11
161.3278255436993
 21
112.4813099375925
 31
0.0
 12
167.5616927530149
 22
126.6491899587658
 32
0.0
 13
169.0557601007031
 23
126.6491899587651
 33
0.0
  0
SOLID
  5
109B
330
1F
100
AcDbEntity
  8
LOGO
 62
     5
100
AcDbTrace
 10
161.9460603082606
 20
112.4813099375929
 30
0.0
 11
163.4401276559481
 21
112.4813099375929
 31
0.0
 12
169.0557601007031
 22
125.5157595570715
 32
0.0
 13
167.5616927530149
 23
120.0375126155513
 33
0.0
  0
SOLID
  5
109C
330
1F
100
AcDbEntity
  8
LOGO
 62
     2
100
AcDbTrace
 10
161.3278255436993
 20
112.4813099375925
 30
0.0
 11
161.9460603082606
 21
112.4813099375929
 31
0.0
 12
169.0557601007031
 22
126.6491899587651
 32
0.0
 13
169.6739948652637
 23
126.6491899587651
 33
0.0
  0
SOLID
  5
109D
330
1F
100
AcDbEntity
  8
LOGO
 62
     5
100
AcDbTrace
 10
157.4384018474753
 20
107.3293535662577
 30
0.0
 11
157.9535974846089
 21
107.3293535662577
 31
0.0
 12
159.4044284984006
 22
109.905331751925
 32
0.0
 13
159.9196241355335
 23
109.905331751925
 33
0.0
  0
SOLID
  5
109E
330
1F
100
AcDbEntity
  8
LOGO
 62
     5
100
AcDbTrace
 10
159.4044284984006
 20
109.905331751925
 30
0.0
 11
159.9196241355335
 21
109.905331751925
 31
0.0
 12
159.4044284984006
 22
107.3293535662577
 32
0.0
 13
159.9196241355335
 23
107.3293535662577
 33
0.0
  0
SOLID
  5
109F
330
1F
100
AcDbEntity
  8
LOGO
 62
     5
100
AcDbTrace
 10
159.4044284984006
 20
107.3293535662577
 30
0.0
 11
159.9196241355335
 21
107.3293535662577
 31
0.0
 12
161.3704551493273
 22
109.905331751925
 32
0.0
 13
161.8856507864609
 23
109.905331751925
 33
0.0
  0
SOLID
  5
10A0
330
1F
100
AcDbEntity
  8
LOGO
 62
     5
100
AcDbTrace
 10
161.3704551493273
 20
109.905331751925
 30
0.0
 11
161.8856507864609
 21
109.905331751925
 31
0.0
 12
161.3704551493273
 22
107.3293535662577
 32
0.0
 13
161.8856507864609
 23
107.3293535662577
 33
0.0
  0
POLYLINE
  5
10A1
330
1F
100
AcDbEntity
  8
LOGO
 62
     5
100
AcDb2dPolyline
 66
     1
 10
0.0
 20
0.0
 30
0.0
 40
0.5160212711674208
 41
0.5160212711674208
  0
VERTEX
  5
10A2
330
10A1
100
AcDbEntity
  8
LOGO
 62
     5
100
AcDbVertex
100
AcDb2dVertex
 10
178.6396374024381
 20
108.8749404776581
 30
0.0
 42
1.0
  0
VERTEX
  5
10A3
330
10A1
100
AcDbEntity
  8
LOGO
 62
     5
100
AcDbVertex
100
AcDb2dVertex
 10
177.0915735889356
 20
108.8749404776581
 30
0.0
 42
1.0
  0
SEQEND
  5
10A4
330
10A1
100
AcDbEntity
  8
LOGO
 62
     5
  0
POLYLINE
  5
10A5
330
1F
100
AcDbEntity
  8
LOGO
 62
     5
100
AcDb2dPolyline
 66
     1
 10
0.0
 20
0.0
 30
0.0
 70
     1
  0
VERTEX
  5
10A6
330
10A5
100
AcDbEntity
  8
LOGO
 62
     5
100
AcDbVertex
100
AcDb2dVertex
 10
174.173404442605
 20
108.617342659091
 30
0.0
 42
1.000000057330635
  0
VERTEX
  5
10A7
330
10A5
100
AcDbEntity
  8
LOGO
 62
     5
100
AcDbVertex
100
AcDb2dVertex
 10
175.7189913540057
 20
108.617342659091
 30
0.0
 42
1.000000057330635
  0
SEQEND
  5
10A8
330
10A5
100
AcDbEntity
  8
LOGO
 62
     5
  0
CIRCLE
  5
10A9
330
1F
100
AcDbEntity
  8
LOGO
 62
     5
100
AcDbCircle
 10
174.9461978983059
 20
108.617342659091
 30
0.0
 40
0.7727934557003295
  0
POLYLINE
  5
10AA
330
1F
100
AcDbEntity
  8
LOGO
 62
     5
100
AcDb2dPolyline
 66
     1
 10
0.0
 20
0.0
 30
0.0
 70
     1
 40
0.5160212711674208
 41
0.5160212711674208
  0
VERTEX
  5
10AB
330
10AA
100
AcDbEntity
  8
LOGO
 62
     5
100
AcDbVertex
100
AcDb2dVertex
 10
173.9141553559707
 20
108.617342659091
 30
0.0
 42
1.0
  0
VERTEX
  5
10AC
330
10AA
100
AcDbEntity
  8
LOGO
 62
     5
100
AcDbVertex
100
AcDb2dVertex
 10
175.9782404406405
 20
108.617342659091
 30
0.0
 42
1.0
  0
SEQEND
  5
10AD
330
10AA
100
AcDbEntity
  8
LOGO
 62
     5
  0
LINE
  5
10AE
330
1F
100
AcDbEntity
  8
LOGO
100
AcDbLine
 10
178.895996769953
 20
107.3293535662577
 30
0.0
 11
178.895996769953
 21
108.8749404776581
 31
0.0
  0
SOLID
  5
10AF
330
1F
100
AcDbEntity
  8
LOGO
 62
     5
100
AcDbTrace
 10
175.7189398344441
 20
109.905331751925
 30
0.0
 11
176.2341354715763
 21
109.905331751925
 31
0.0
 12
175.7189398344441
 22
107.3293535662577
 32
0.0
 13
176.2341354715763
 23
107.3293535662577
 33
0.0
  0
SOLID
  5
10B0
330
1F
100
AcDbEntity
  8
LOGO
 62
     5
100
AcDbTrace
 10
176.8352142214194
 20
107.3293535662577
 30
0.0
 11
177.3504098585536
 21
107.3293535662577
 31
0.0
 12
176.8352142214194
 22
109.905331751925
 32
0.0
 13
177.3504098585536
 23
109.905331751925
 33
0.0
  0
SOLID
  5
10B1
330
1F
100
AcDbEntity
  8
LOGO
 62
     5
100
AcDbTrace
 10
178.3808011328208
 20
108.8749404776581
 30
0.0
 11
178.895996769953
 21
108.8749404776581
 31
0.0
 12
178.3808011328208
 22
107.3293535662577
 32
0.0
 13
178.895996769953
 23
107.3293535662577
 33
0.0
  0
SOLID
  5
10B2
330
1F
100
AcDbEntity
  8
LOGO
 62
     5
100
AcDbTrace
 10
176.7836946577055
 20
125.5157595570715
 30
0.0
 11
175.2896273100193
 21
120.0375126155513
 31
0.0
 12
176.7836946577055
 22
112.4813099375925
 32
0.0
 13
175.2896273100193
 23
112.4813099375925
 33
0.0
  0
SOLID
  5
10B3
330
1F
100
AcDbEntity
  8
LOGO
 62
     5
100
AcDbTrace
 10
177.4019294222668
 20
112.4813099375925
 30
0.0
 11
178.895996769953
 21
112.4813099375925
 31
0.0
 12
177.4019294222668
 22
126.6491899587651
 32
0.0
 13
178.895996769953
 23
126.6491899587658
 33
0.0
  0
SOLID
  5
10B4
330
1F
100
AcDbEntity
  8
LOGO
 62
     2
100
AcDbTrace
 10
176.7836946577055
 20
126.6491899587658
 30
0.0
 11
177.4019294222668
 21
126.6491899587651
 31
0.0
 12
176.7836946577055
 22
112.4813099375925
 32
0.0
 13
177.4019294222668
 23
112.4813099375925
 33
0.0
  0
POLYLINE
  5
10B5
330
1F
100
AcDbEntity
  8
LOGO
 62
     5
100
AcDb2dPolyline
 66
     1
 10
0.0
 20
0.0
 30
0.0
 40
0.5160212711674208
 41
0.5160212711674208
  0
VERTEX
  5
10B6
330
10B5
100
AcDbEntity
  8
LOGO
 62
     5
100
AcDbVertex
100
AcDb2dVertex
 10
171.2551322571482
 20
108.8749404776581
 30
0.0
 42
1.0
  0
VERTEX
  5
10B7
330
10B5
100
AcDbEntity
  8
LOGO
 62
     5
100
AcDbVertex
100
AcDb2dVertex
 10
169.7070684436459
 20
108.8749404776581
 30
0.0
 42
1.0
  0
SEQEND
  5
10B8
330
10B5
100
AcDbEntity
  8
LOGO
 62
     5
  0
POLYLINE
  5
10B9
330
1F
100
AcDbEntity
  8
LOGO
 62
     5
100
AcDb2dPolyline
 66
     1
 10
0.0
 20
0.0
 30
0.0
 40
0.5160212711674208
 41
0.5160212711674208
  0
VERTEX
  5
10BA
330
10B9
100
AcDbEntity
  8
LOGO
 62
     5
100
AcDbVertex
100
AcDb2dVertex
 10
172.8007191685477
 20
108.8749404776581
 30
0.0
 42
1.0
  0
VERTEX
  5
10BB
330
10B9
100
AcDbEntity
  8
LOGO
 62
     5
100
AcDbVertex
100
AcDb2dVertex
 10
171.2526553550459
 20
108.8749404776581
 30
0.0
 42
1.0
  0
SEQEND
  5
10BC
330
10B9
100
AcDbEntity
  8
LOGO
 62
     5
  0
POLYLINE
  5
10BD
330
1F
100
AcDbEntity
  8
LOGO
 62
     5
100
AcDb2dPolyline
 66
     1
 10
0.0
 20
0.0
 30
0.0
 40
0.5160212711674208
 41
0.5160212711674208
  0
VERTEX
  5
10BE
330
10BD
100
AcDbEntity
  8
LOGO
 62
     5
100
AcDbVertex
100
AcDb2dVertex
 10
165.4162140232579
 20
108.8749404776581
 30
0.0
 42
1.0
  0
VERTEX
  5
10BF
330
10BD
100
AcDbEntity
  8
LOGO
 62
     5
100
AcDbVertex
100
AcDb2dVertex
 10
163.8681502097561
 20
108.8749404776581
 30
0.0
 42
1.0
  0
SEQEND
  5
10C0
330
10BD
100
AcDbEntity
  8
LOGO
 62
     5
  0
SOLID
  5
10C1
330
1F
100
AcDbEntity
  8
LOGO
 62
     5
100
AcDbTrace
 10
163.6117908422398
 20
109.905331751925
 30
0.0
 11
164.1269864793728
 21
109.905331751925
 31
0.0
 12
163.6117908422398
 22
107.3293535662577
 32
0.0
 13
164.1269864793728
 23
107.3293535662577
 33
0.0
  0
SOLID
  5
10C2
330
1F
100
AcDbEntity
  8
LOGO
 62
     5
100
AcDbTrace
 10
165.1573777536406
 20
108.8749404776581
 30
0.0
 11
165.6725733907748
 21
108.8749404776581
 31
0.0
 12
165.1573777536406
 22
107.3293535662577
 32
0.0
 13
165.6725733907748
 23
107.3293535662577
 33
0.0
  0
POLYLINE
  5
10C3
330
1F
100
AcDbEntity
  8
LOGO
 62
     5
100
AcDb2dPolyline
 66
     1
 10
0.0
 20
0.0
 30
0.0
 70
     1
 40
0.5160212711674208
 41
0.5160212711674208
  0
VERTEX
  5
10C4
330
10C3
100
AcDbEntity
  8
LOGO
 62
     5
100
AcDbVertex
100
AcDb2dVertex
 10
166.5296502106796
 20
108.617342659091
 30
0.0
 42
1.0
  0
VERTEX
  5
10C5
330
10C3
100
AcDbEntity
  8
LOGO
 62
     5
100
AcDbVertex
100
AcDb2dVertex
 10
168.59373529535
 20
108.617342659091
 30
0.0
 42
1.0
  0
SEQEND
  5
10C6
330
10C3
100
AcDbEntity
  8
LOGO
 62
     5
  0
SOLID
  5
10C7
330
1F
100
AcDbEntity
  8
LOGO
 62
     5
100
AcDbTrace
 10
168.3344346891523
 20
110.678125207626
 30
0.0
 11
168.8496303262858
 21
110.678125207626
 31
0.0
 12
168.3344346891523
 22
107.3293535662577
 32
0.0
 13
168.8496303262858
 23
107.3293535662577
 33
0.0
  0
SOLID
  5
10C8
330
1F
100
AcDbEntity
  8
LOGO
 62
     5
100
AcDbTrace
 10
169.4507090761309
 20
109.905331751925
 30
0.0
 11
169.9659047132632
 21
109.905331751925
 31
0.0
 12
169.4507090761309
 22
107.3293535662577
 32
0.0
 13
169.9659047132632
 23
107.3293535662577
 33
0.0
  0
SOLID
  5
10C9
330
1F
100
AcDbEntity
  8
LOGO
 62
     5
100
AcDbTrace
 10
170.9962959875304
 20
108.8749404776581
 30
0.0
 11
171.5114916246639
 21
108.8749404776581
 31
0.0
 12
170.9962959875304
 22
107.3293535662577
 32
0.0
 13
171.5114916246639
 23
107.3293535662577
 33
0.0
  0
SOLID
  5
10CA
330
1F
100
AcDbEntity
  8
LOGO
 62
     5
100
AcDbTrace
 10
172.5418828989311
 20
108.8749404776581
 30
0.0
 11
173.0570785360639
 21
108.8749404776581
 31
0.0
 12
172.5418828989311
 22
107.329353566257
 32
0.0
 13
173.0570785360639
 23
107.329353566257
 33
0.0
  0
SOLID
  5
10CB
330
1F
100
AcDbEntity
  8
LOGO
 62
     5
100
AcDbTrace
 10
162.4955164552625
 20
110.2659686979189
 30
0.0
 11
163.0107120923974
 21
110.2659686979189
 31
0.0
 12
162.4955164552625
 22
110.678125207626
 32
0.0
 13
163.0107120923974
 23
110.678125207626
 33
0.0
  0
SOLID
  5
10CC
330
1F
100
AcDbEntity
  8
LOGO
 62
     5
100
AcDbTrace
 10
162.4955164552625
 20
109.905331751925
 30
0.0
 11
163.0107120923974
 21
109.905331751925
 31
0.0
 12
162.4955164552625
 22
107.329353566257
 32
0.0
 13
163.0107120923974
 23
107.3293535662577
 33
0.0
  0
SOLID
  5
10CD
330
1F
100
AcDbEntity
  8
LOGO
 62
     5
100
AcDbTrace
 10
167.5616927530149
 20
112.4813099375929
 30
0.0
 11
169.0557601007031
 21
112.4813099375929
 31
0.0
 12
167.5616927530149
 22
120.0375126155513
 32
0.0
 13
169.0557601007031
 23
125.5157595570715
 33
0.0
  0
SOLID
  5
10CE
330
1F
100
AcDbEntity
  8
LOGO
 62
     5
100
AcDbTrace
 10
169.6739948652637
 20
126.6491899587651
 30
0.0
 11
171.1680622129506
 21
126.6491899587658
 31
0.0
 12
169.6739948652637
 22
113.6147403392865
 32
0.0
 13
171.1680622129506
 23
119.0929872808066
 33
0.0
  0
SOLID
  5
10CF
330
1F
100
AcDbEntity
  8
LOGO
 62
     2
100
AcDbTrace
 10
169.0557601007031
 20
126.6491899587651
 30
0.0
 11
169.6739948652637
 21
126.6491899587651
 31
0.0
 12
169.0557601007031
 22
112.4813099375929
 32
0.0
 13
169.6739948652637
 23
112.4813099375929
 33
0.0
  0
SOLID
  5
10D0
330
1F
100
AcDbEntity
  8
LOGO
 62
     5
100
AcDbTrace
 10
169.6739948652637
 20
113.6147403392865
 30
0.0
 11
171.1680622129506
 21
119.0929872808066
 31
0.0
 12
176.7836946577055
 22
126.6491899587658
 32
0.0
 13
175.2896273100193
 23
126.6491899587658
 33
0.0
  0
SOLID
  5
10D1
330
1F
100
AcDbEntity
  8
LOGO
 62
     5
100
AcDbTrace
 10
169.6739948652637
 20
112.4813099375929
 30
0.0
 11
171.1680622129506
 21
112.4813099375929
 31
0.0
 12
176.7836946577055
 22
125.5157595570715
 32
0.0
 13
175.2896273100193
 23
120.0375126155513
 33
0.0
  0
SOLID
  5
10D2
330
1F
100
AcDbEntity
  8
LOGO
 62
     2
100
AcDbTrace
 10
169.0557601007031
 20
112.4813099375929
 30
0.0
 11
169.6739948652637
 21
112.4813099375929
 31
0.0
 12
176.7836946577055
 22
126.6491899587658
 32
0.0
 13
177.4019294222668
 23
126.6491899587651
 33
0.0
  0
LWPOLYLINE
  5
10D3
330
1F
100
AcDbEntity
  8
LOGO
 62
     4
100
AcDbPolyline
 90
        4
 70
     1
 43
0.0
 10
156.2486219213619
 20
127.4700312335714
 10
529.3775014571801
 20
127.4700312335714
 10
529.3775014571801
 20
92.91503539646681
 10
156.2486219213619
 20
92.91503539646681
1001
GENIUS_GENREC_14
1002
{
1000
PYDIR
1011
156.2486219213619
1021
92.91503539646681
1031
0.0
1002
}
1002
{
1000
PXDIR
1011
529.3775014571801
1021
127.4700312335714
1031
0.0
1002
}
1002
{
1000
PORI
1011
156.2486219213619
1021
127.4700312335714
1031
0.0
1002
}
1002
{
1000
PINS
1011
156.2486219213619
1021
127.4700312335714
1031
0.0
1002
}
1002
{
1000
PINS2
1011
529.3775014571801
1021
92.91503539646681
1031
0.0
1002
}
1002
{
1000
C
1070
     1
1002
}
1001
GENIUS_GENOBJ-N-REC_13
1002
{
1000
OWNER
1000
GEN
1002
}
1001
GENIUS_GENODEF_13
1002
{
1000
HIER
1070
     0
1002
}
1002
{
1000
MANEDIT
1070
     0
1002
}
1002
{
1000
NOSEL
1070
     0
1002
}
1002
{
1000
BEHIND
1070
     0
1002
}
1002
{
1000
OTHER
1070
     0
1002
}
1002
{
1000
REACTOR
1002
}
  0
CIRCLE
  5
10D4
330
1F
100
AcDbEntity
  8
LOGO
  6
Continuous
100
AcDbCircle
 10
215.6312385578835
 20
117.1109238213366
 30
0.0
 40
2.00634439159405
  0
CIRCLE
  5
10D5
330
1F
100
AcDbEntity
  8
LOGO
  6
Continuous
100
AcDbCircle
 10
215.6312385578835
 20
117.1109238213366
 30
0.0
 40
1.175540201854151
  0
LINE
  5
10D6
330
1F
100
AcDbEntity
  8
LOGO
100
AcDbLine
 10
228.239339521019
 20
115.1045794297421
 30
0.0
 11
228.239339521019
 21
119.1172682129311
 31
0.0
  0
LINE
  5
10D7
330
1F
100
AcDbEntity
  8
LOGO
100
AcDbLine
 10
221.9495650230355
 20
115.9353836194826
 30
0.0
 11
221.9495650230355
 21
118.2864640231908
 31
0.0
  0
LINE
  5
10D8
330
1F
100
AcDbEntity
  8
LOGO
  6
Continuous
100
AcDbLine
 10
221.9495650230355
 20
118.2864640231908
 30
0.0
 11
228.239339521019
 21
119.1172682129311
 31
0.0
  0
LINE
  5
10D9
330
1F
100
AcDbEntity
  8
LOGO
  6
Continuous
100
AcDbLine
 10
221.9495650230355
 20
115.9353836194826
 30
0.0
 11
228.239339521019
 21
115.1045794297421
 31
0.0
  0
LINE
  5
10DA
330
1F
100
AcDbEntity
  8
LOGO
  6
AM_ISO08W050x2
 48
0.3
100
AcDbLine
 10
212.8654627714297
 20
117.1109238213366
 30
0.0
 11
218.3970143443374
 21
117.1109238213366
 31
0.0
1001
GENIUS_GENOREF_13
1005
110F
  0
LINE
  5
10DB
330
1F
100
AcDbEntity
  8
LOGO
  6
AM_ISO08W050x2
 48
0.3
100
AcDbLine
 10
215.6312385578835
 20
114.3451480348824
 30
0.0
 11
215.6312385578835
 21
119.8766996077904
 31
0.0
1001
GENIUS_GENOREF_13
1005
110E
  0
LINE
  5
10DC
330
1F
100
AcDbEntity
  8
LOGO
  6
CENTER
 48
0.5
100
AcDbLine
 10
221.4465578866609
 20
117.1109238213366
 30
0.0
 11
228.8726994519161
 21
117.1109238213366
 31
0.0
1001
GENIUS_GENOREF_13
1005
110D
  0
TEXT
  5
10DD
330
1F
100
AcDbEntity
  8
LOGO
 62
     7
100
AcDbText
 10
234.2715144823283
 20
112.3320755608351
 30
0.0
 40
4.607332778280542
  1
Order example:
 41
0.8
  7
CHINESET
100
AcDbText
  0
TEXT
  5
10DE
330
1F
100
AcDbEntity
  8
LOGO
 62
     7
100
AcDbText
 10
235.0981080838439
 20
118.8182461522299
 30
0.0
 40
6.910999167420814
  1
訂購代號：
  7
CHINESET
100
AcDbText
  0
TEXT
  5
10DF
330
1F
100
AcDbEntity
  8
LOGO
100
AcDbText
 10
233.6978662646501
 20
94.75334753636337
 30
0.0
 40
3.456
  1
10703276
 41
0.7
  7
CHINESET
 72
     1
 11
242.2802662646501
 21
94.75334753636337
 31
0.0
100
AcDbText
  0
LINE
  5
10E0
330
1F
100
AcDbEntity
  8
LOGO
 62
     4
100
AcDbLine
 10
253.00561276299
 20
99.82603456388872
 30
0.0
 11
253.0056127629913
 21
92.91503539646747
 31
0.0
  0
LINE
  5
10E1
330
1F
100
AcDbEntity
  8
LOGO
 62
     4
100
AcDbLine
 10
253.00561276299
 20
99.82603456388872
 30
0.0
 11
232.2696127629911
 21
99.82603456388872
 31
0.0
  0
LINE
  5
10E2
330
1F
100
AcDbEntity
  8
LOGO
 62
     4
100
AcDbLine
 10
302.8351397997604
 20
108.4647835231646
 30
0.0
 11
302.8351397997604
 21
95.79461838289267
 31
0.0
  0
LINE
  5
10E3
330
1F
100
AcDbEntity
  8
LOGO
 62
     4
100
AcDbLine
 10
279.7984759083576
 20
108.4647835231646
 30
0.0
 11
279.7984759083576
 21
95.79461838289267
 31
0.0
  0
LINE
  5
10E4
330
1F
100
AcDbEntity
  8
LOGO
 62
     4
100
AcDbLine
 10
302.8351397997604
 20
95.79461838289267
 30
0.0
 11
279.7984759083576
 21
95.79461838289267
 31
0.0
  0
LINE
  5
10E5
330
1F
100
AcDbEntity
  8
LOGO
 62
     4
100
AcDbLine
 10
307.1054344416093
 20
124.0145316498608
 30
0.0
 11
279.7984759083576
 21
124.0145316498608
 31
0.0
  0
LINE
  5
10E6
330
1F
100
AcDbEntity
  8
LOGO
 62
     4
100
AcDbLine
 10
307.1054344416093
 20
113.6480328987296
 30
0.0
 11
279.7984759083576
 21
113.6480328987296
 31
0.0
  0
LINE
  5
10E7
330
1F
100
AcDbEntity
  8
LOGO
 62
     4
100
AcDbLine
 10
279.7984759083576
 20
124.0145316498608
 30
0.0
 11
279.7984759083576
 21
113.6480328987296
 31
0.0
  0
LINE
  5
10E8
330
1F
100
AcDbEntity
  8
LOGO
 62
     4
100
AcDbLine
 10
307.1054344416093
 20
124.0145316498608
 30
0.0
 11
307.1054344416093
 21
113.6480328987296
 31
0.0
  0
LINE
  5
10E9
330
1F
100
AcDbEntity
  8
LOGO
 62
     4
100
AcDbLine
 10
292.5187430996518
 20
113.6480328987296
 30
0.0
 11
292.5187430996518
 21
108.4647835231646
 31
0.0
  0
TEXT
  5
10EA
330
1F
100
AcDbEntity
  8
LOGO
  6
Continuous
 62
     7
100
AcDbText
 10
281.6404403825057
 20
115.812024357209
 30
0.0
 40
6.048
  1
MVSY
  7
CHINESET
100
AcDbText
  0
LINE
  5
10EB
330
1F
100
AcDbEntity
  8
LOGO
 62
     4
100
AcDbLine
 10
302.8351397997604
 20
108.4647835231646
 30
0.0
 11
279.7984759083576
 21
108.4647835231646
 31
0.0
  0
TEXT
  5
10EC
330
1F
100
AcDbEntity
  8
LOGO
  6
Continuous
100
AcDbText
 10
287.1908684181412
 20
97.58298532473274
 30
226.4677501133661
 40
2.592
  1
Model
 41
0.8
  7
CHINESET
100
AcDbText
  0
TEXT
  5
10ED
330
1F
100
AcDbEntity
  8
LOGO
100
AcDbText
 10
286.5009622788784
 20
102.3879947088628
 30
226.4677501133661
 40
4.319999999999999
  1
型號
  7
CHINESET
100
AcDbText
  0
LINE
  5
10EE
330
1F
100
AcDbEntity
  8
LOGO
  6
Continuous
 62
     7
100
AcDbLine
 10
308.2074789367874
 20
118.7945624974247
 30
0.0
 11
312.7849465285548
 21
118.7945624974247
 31
0.0
  0
TEXT
  5
10EF
330
1F
100
AcDbEntity
  8
LOGO
  6
Continuous
 62
     7
100
AcDbText
 10
314.7428202991437
 20
115.812024357209
 30
0.0
 40
6.048
  1
188
  7
CHINESET
100
AcDbText
  0
LINE
  5
10F0
330
1F
100
AcDbEntity
  8
LOGO
  6
Continuous
 62
     7
100
AcDbLine
 10
331.0428267351996
 20
118.7945624974247
 30
0.0
 11
335.6202943269677
 21
118.7945624974247
 31
0.0
  0
LINE
  5
10F4
330
1F
100
AcDbEntity
  8
LOGO
 62
     4
100
AcDbLine
 10
368.1209980084369
 20
124.0145316498608
 30
0.0
 11
337.0642440594534
 21
124.0145316498608
 31
0.0
  0
LINE
  5
10F5
330
1F
100
AcDbEntity
  8
LOGO
 62
     4
100
AcDbLine
 10
368.1209980084369
 20
113.6480328987296
 30
0.0
 11
337.0642440594534
 21
113.6480328987296
 31
0.0
  0
LINE
  5
10F6
330
1F
100
AcDbEntity
  8
LOGO
 62
     4
100
AcDbLine
 10
337.0642440594534
 20
124.0145316498608
 30
0.0
 11
337.0642440594534
 21
113.6480328987296
 31
0.0
  0
LINE
  5
10F7
330
1F
100
AcDbEntity
  8
LOGO
 62
     4
100
AcDbLine
 10
368.1209980084369
 20
124.0145316498608
 30
0.0
 11
368.1209980084369
 21
113.6480328987296
 31
0.0
  0
TEXT
  5
10F9
330
1F
100
AcDbEntity
  8
LOGO
  6
Continuous
 62
     7
100
AcDbText
 10
338.4439973232297
 20
115.812024357209
 30
0.0
 40
6.048
  1
1A/2A
  7
CHINESET
100
AcDbText
  0
LINE
  5
10FB
330
1F
100
AcDbEntity
  8
LOGO
 62
     4
100
AcDbLine
 10
360.3745130828206
 20
108.4647835231646
 30
0.0
 11
360.3745130828206
 21
95.79461838289267
 31
0.0
  0
LINE
  5
10FC
330
1F
100
AcDbEntity
  8
LOGO
 62
     4
100
AcDbLine
 10
341.6074778125887
 20
108.4647835231646
 30
0.0
 11
341.6074778125887
 21
95.79461838289267
 31
0.0
  0
LINE
  5
10FD
330
1F
100
AcDbEntity
  8
LOGO
 62
     4
100
AcDbLine
 10
360.3745130828206
 20
95.79461838289267
 30
0.0
 11
341.6074778125887
 21
95.79461838289267
 31
0.0
  0
LINE
  5
1104
330
1F
100
AcDbEntity
  8
LOGO
 62
     4
100
AcDbLine
 10
360.3745130828206
 20
108.4647835231646
 30
0.0
 11
341.6074778125887
 21
108.4647835231646
 31
0.0
  0
TEXT
  5
1107
330
1F
100
AcDbEntity
  8
LOGO
  6
Continuous
100
AcDbText
 10
345.5424902357076
 20
97.58298532473274
 30
226.4677501133661
 40
2.592
  1
Bracket
 41
0.8
  7
CHINESET
100
AcDbText
  0
TEXT
  5
1108
330
1F
100
AcDbEntity
  8
LOGO
100
AcDbText
 10
346.6531322015094
 20
102.3879947088628
 30
226.4677501133661
 40
4.319999999999999
  1
支架
  7
CHINESET
100
AcDbText
  0
LINE
  5
110B
330
1F
100
AcDbEntity
  8
LOGO
 62
     4
100
AcDbLine
 10
350.9909954477044
 20
108.4647835231646
 30
0.0
 11
350.9909954477044
 21
113.6480328987296
 31
0.0
  0
POINT
  5
110D
330
1F
100
AcDbEntity
  8
0
 60
     1
100
AcDbPoint
 10
-1947.385127577553
 20
-563.0507483499114
 30
0.0
1001
GENIUS_GENOBJ-N-CRS_13
1002
{
1000
OWNER
1000
GEN
1002
}
1001
GENIUS_GENOLIS_13
1002
{
1000
ENT
1005
0
1005
0
1005
0
1005
10DC
1002
}
1001
GENIUS_GENOENT_13
1002
{
1000
MYREF
1005
110D
1002
}
1002
{
1000
GRP
1005
0
1002
}
1001
GENIUS_GENODEF_13
1002
{
1000
HIER
1070
    10
1002
}
1002
{
1000
MANEDIT
1070
     1
1002
}
1002
{
1000
NOSEL
1070
     0
1002
}
1002
{
1000
BEHIND
1070
     0
1002
}
1002
{
1000
OTHER
1070
     0
1002
}
1002
{
1000
REACTOR
1002
}
  0
POINT
  5
110E
330
1F
100
AcDbEntity
  8
0
 60
     1
100
AcDbPoint
 10
-1958.709712800408
 20
-554.175161871275
 30
0.0
1001
GENIUS_GENOBJ-N-CRS_13
1002
{
1000
OWNER
1000
GEN
1002
}
1001
GENIUS_GENOLIS_13
1002
{
1000
ENT
1005
0
1005
0
1005
0
1005
10DB
1002
}
1001
GENIUS_GENOENT_13
1002
{
1000
MYREF
1005
110E
1002
}
1002
{
1000
GRP
1005
0
1002
}
1001
GENIUS_GENODEF_13
1002
{
1000
HIER
1070
    10
1002
}
1002
{
1000
MANEDIT
1070
     1
1002
}
1002
{
1000
NOSEL
1070
     0
1002
}
1002
{
1000
BEHIND
1070
     0
1002
}
1002
{
1000
OTHER
1070
     0
1002
}
1002
{
1000
REACTOR
1002
}
  0
POINT
  5
110F
330
1F
100
AcDbEntity
  8
0
 60
     1
100
AcDbPoint
 10
-1952.351039102571
 20
-563.0507483499114
 30
0.0
1001
GENIUS_GENOBJ-N-CRS_13
1002
{
1000
OWNER
1000
GEN
1002
}
1001
GENIUS_GENOLIS_13
1002
{
1000
ENT
1005
0
1005
0
1005
0
1005
10DA
1002
}
1001
GENIUS_GENOENT_13
1002
{
1000
MYREF
1005
110F
1002
}
1002
{
1000
GRP
1005
0
1002
}
1001
GENIUS_GENODEF_13
1002
{
1000
HIER
1070
    10
1002
}
1002
{
1000
MANEDIT
1070
     1
1002
}
1002
{
1000
NOSEL
1070
     0
1002
}
1002
{
1000
BEHIND
1070
     0
1002
}
1002
{
1000
OTHER
1070
     0
1002
}
1002
{
1000
REACTOR
1002
}
  0
LINE
  5
1110
330
1F
100
AcDbEntity
  8
LOGO
 62
     4
100
AcDbLine
 10
342.813061689271
 20
371.185758175354
 30
0.0
 11
342.813061689271
 21
127.4700312335714
 31
0.0
  0
LINE
  5
185B
330
1F
100
AcDbEntity
  8
AM_VIS
100
AcDbLine
 10
253.0892329328811
 20
220.9067679050586
 30
0.0
 11
253.0892329328811
 21
239.4067679050586
 31
0.0
  0
LINE
  5
185C
330
1F
100
AcDbEntity
  8
AM_VIS
100
AcDbLine
 10
268.0892329328811
 20
240.9067679050586
 30
0.0
 11
254.5892329328812
 21
240.9067679050586
 31
0.0
  0
LINE
  5
185D
330
1F
100
AcDbEntity
  8
AM_VIS
100
AcDbLine
 10
269.5892329328811
 20
210.9821324603643
 30
0.0
 11
269.5892329328811
 21
239.4067679050586
 31
0.0
  0
LINE
  5
185E
330
1F
100
AcDbEntity
  8
AM_VIS
100
AcDbLine
 10
222.7892329328811
 20
193.9067679050586
 30
0.0
 11
250.3892329328812
 21
193.9067679050586
 31
0.0
  0
LINE
  5
185F
330
1F
100
AcDbEntity
  8
AM_VIS
100
AcDbLine
 10
251.8892329328811
 20
195.4067679050586
 30
0.0
 11
251.8892329328811
 21
203.9067679050586
 31
0.0
  0
ARC
  5
1860
330
1F
100
AcDbEntity
  8
AM_VIS
100
AcDbCircle
 10
250.3876499666137
 20
195.407722469634
 30
0.0
 40
1.501583269678446
100
AcDbArc
 50
297.8545625228676
 51
359.9635767617848
  0
ARC
  5
1861
330
1F
100
AcDbEntity
  8
AM_VIS
100
AcDbCircle
 10
222.7908158991486
 20
195.407722469634
 30
0.0
 40
1.501583269678369
100
AcDbArc
 50
180.0364232382136
 51
242.1454374771327
  0
LINE
  5
1862
330
1F
100
AcDbEntity
  8
AM_VIS
100
AcDbLine
 10
221.2892329328811
 20
203.9067679050586
 30
0.0
 11
221.2892329328811
 21
195.4067679050586
 31
0.0
  0
LINE
  5
1863
330
1F
100
AcDbEntity
  8
AM_VIS
100
AcDbLine
 10
221.2892329328811
 20
203.9067679050586
 30
0.0
 11
220.0892329328811
 21
204.3135475660756
 31
0.0
  0
LINE
  5
1864
330
1F
100
AcDbEntity
  8
AM_VIS
100
AcDbLine
 10
220.0892329328811
 20
220.9067679050586
 30
0.0
 11
220.0892329328811
 21
204.3135475660756
 31
0.0
  0
LINE
  5
1865
330
1F
100
AcDbEntity
  8
AM_VIS
100
AcDbLine
 10
253.0892329328811
 20
204.3135475660756
 30
0.0
 11
253.0892329328811
 21
220.9067679050586
 31
0.0
  0
LINE
  5
1866
330
1F
100
AcDbEntity
  8
AM_VIS
100
AcDbLine
 10
204.6076740111443
 20
209.5615336412406
 30
0.0
 11
219.0892329328812
 21
204.652530616923
 31
0.0
  0
LINE
  5
1867
330
1F
100
AcDbEntity
  8
AM_VIS
100
AcDbLine
 10
203.5892329328811
 20
210.9821324603643
 30
0.0
 11
203.5892329328811
 21
239.4067679050586
 31
0.0
  0
LINE
  5
1868
330
1F
100
AcDbEntity
  8
AM_VIS
100
AcDbLine
 10
218.5892329328812
 20
240.9067679050586
 30
0.0
 11
205.0892329328811
 21
240.9067679050586
 31
0.0
  0
LINE
  5
1869
330
1F
100
AcDbEntity
  8
AM_VIS
100
AcDbLine
 10
219.0892329328812
 20
204.652530616923
 30
0.0
 11
220.0892329328811
 21
204.3135475660755
 31
0.0
  0
LINE
  5
186A
330
1F
100
AcDbEntity
  8
AM_VIS
100
AcDbLine
 10
253.0892329328811
 20
204.3135475660756
 30
0.0
 11
251.8892329328812
 21
203.9067679050586
 31
0.0
  0
LINE
  5
186B
330
1F
100
AcDbEntity
  8
AM_VIS
100
AcDbLine
 10
253.0892329328811
 20
204.3135475660756
 30
0.0
 11
254.0892329328812
 21
204.652530616923
 31
0.0
  0
LINE
  5
186C
330
1F
100
AcDbEntity
  8
AM_VIS
100
AcDbLine
 10
254.0892329328812
 20
204.652530616923
 30
0.0
 11
268.5707918546179
 21
209.5615336412406
 31
0.0
  0
LINE
  5
186D
330
1F
100
AcDbEntity
  8
AM_VIS
100
AcDbLine
 10
220.0892329328811
 20
220.9067679050586
 30
0.0
 11
220.0892329328811
 21
239.4067679050586
 31
0.0
  0
LINE
  5
186E
330
1F
100
AcDbEntity
  8
AM_VIS
100
AcDbLine
 10
253.0892329328811
 20
220.9067679050586
 30
0.0
 11
220.0892329328811
 21
220.9067679050586
 31
0.0
  0
CIRCLE
  5
186F
102
{ACAD_REACTORS
330
1C0D
102
}
330
1F
100
AcDbEntity
  8
AM_VIS
100
AcDbCircle
 10
262.5892329328812
 20
233.9067679050586
 30
0.0
 40
2.1
  0
ARC
  5
1870
330
1F
100
AcDbEntity
  8
AM_VIS
100
AcDbCircle
 10
268.0892329328811
 20
239.4067679050586
 30
0.0
 40
1.5
100
AcDbArc
 50
0.0
 51
90.0
  0
ARC
  5
1871
330
1F
100
AcDbEntity
  8
AM_VIS
100
AcDbCircle
 10
254.5892329328812
 20
239.4067679050586
 30
0.0
 40
1.5
100
AcDbArc
 50
90.0
 51
180.0
  0
ARC
  5
1872
330
1F
100
AcDbEntity
  8
AM_VIS
100
AcDbCircle
 10
268.0892329328811
 20
210.9821324603643
 30
0.0
 40
1.5
100
AcDbArc
 50
288.7257878452715
 51
0.0
  0
CIRCLE
  5
1873
330
1F
100
AcDbEntity
  8
AM_VIS
100
AcDbCircle
 10
226.5892329328811
 20
199.4067679050586
 30
0.0
 40
2.1
  0
CIRCLE
  5
1874
330
1F
100
AcDbEntity
  8
AM_VIS
100
AcDbCircle
 10
246.5892329328811
 20
199.4067679050586
 30
0.0
 40
2.1
  0
ARC
  5
1875
330
1F
100
AcDbEntity
  8
AM_VIS
100
AcDbCircle
 10
250.3892329328811
 20
195.4067679050586
 30
0.0
 40
1.5
100
AcDbArc
 50
270.0
 51
297.8181392846527
  0
ARC
  5
1876
102
{ACAD_REACTORS
330
1B29
102
}
330
1F
100
AcDbEntity
  8
AM_VIS
100
AcDbCircle
 10
222.7892329328811
 20
195.4067679050586
 30
0.0
 40
1.5
100
AcDbArc
 50
242.1818607153473
 51
270.0
  0
CIRCLE
  5
1877
330
1F
100
AcDbEntity
  8
AM_VIS
100
AcDbCircle
 10
210.5892329328812
 20
233.9067679050586
 30
0.0
 40
2.1
  0
ARC
  5
1878
330
1F
100
AcDbEntity
  8
AM_VIS
100
AcDbCircle
 10
205.0892329328811
 20
210.9821324603643
 30
0.0
 40
1.5
100
AcDbArc
 50
179.9999999999992
 51
251.2742121547285
  0
ARC
  5
1879
102
{ACAD_REACTORS
330
1B29
102
}
330
1F
100
AcDbEntity
  8
AM_VIS
100
AcDbCircle
 10
205.0892329328811
 20
239.4067679050586
 30
0.0
 40
1.5
100
AcDbArc
 50
90.0
 51
180.0
  0
ARC
  5
187A
330
1F
100
AcDbEntity
  8
AM_VIS
100
AcDbCircle
 10
218.5892329328812
 20
239.4067679050586
 30
0.0
 40
1.5
100
AcDbArc
 50
0.0
 51
90.0
  0
LINE
  5
187F
330
1F
100
AcDbEntity
  8
AM_VIS
100
AcDbLine
 10
268.0892329328811
 20
277.8736852173088
 30
0.0
 11
254.5892329328812
 21
277.8736852173088
 31
0.0
  0
LINE
  5
1880
330
1F
100
AcDbEntity
  8
AM_VIS
100
AcDbLine
 10
253.0892329328811
 20
278.9067154952912
 30
0.0
 11
253.0892329328811
 21
277.8736852173088
 31
0.0
  0
LINE
  5
1881
330
1F
100
AcDbEntity
  8
AM_VIS
100
AcDbLine
 10
269.5892329328811
 20
277.8736852173088
 30
0.0
 11
269.5892329328811
 21
279.0736852173088
 31
0.0
  0
LINE
  5
1882
330
1F
100
AcDbEntity
  8
AM_VIS
100
AcDbLine
 10
205.0892329328811
 20
279.0736852173088
 30
0.0
 11
218.5892329328812
 21
279.0736852173088
 31
0.0
  0
LINE
  5
1883
330
1F
100
AcDbEntity
  8
AM_VIS
100
AcDbLine
 10
203.5892329328811
 20
279.0736852173088
 30
0.0
 11
203.5892329328811
 21
277.8736852173088
 31
0.0
  0
LINE
  5
1884
330
1F
100
AcDbEntity
  8
AM_VIS
100
AcDbLine
 10
218.5892329328812
 20
277.8736852173088
 30
0.0
 11
205.0892329328811
 21
277.8736852173088
 31
0.0
  0
LINE
  5
1885
330
1F
100
AcDbEntity
  8
AM_VIS
100
AcDbLine
 10
254.5892329328812
 20
279.0736852173088
 30
0.0
 11
268.0892329328811
 21
279.0736852173088
 31
0.0
  0
ARC
  5
1886
330
1F
100
AcDbEntity
  8
AM_VIS
100
AcDbCircle
 10
253.8905399859968
 20
277.0674227495993
 30
0.0
 40
2.006262893473292
100
AcDbArc
 50
90.03732742736234
 51
113.5408510508362
  0
LINE
  5
1887
330
1F
100
AcDbEntity
  8
AM_VIS
100
AcDbLine
 10
220.0892329328811
 20
277.8736852173088
 30
0.0
 11
220.0892329328811
 21
278.9067154952912
 31
0.0
  0
LINE
  5
1888
330
1F
100
AcDbEntity
  8
AM_VIS
100
AcDbLine
 10
221.2892329328811
 20
277.0736852173088
 30
0.0
 11
221.2892329328811
 21
276.2736852173088
 31
0.0
  0
LINE
  5
1889
330
1F
100
AcDbEntity
  8
AM_VIS
100
AcDbLine
 10
222.2892329328811
 20
275.2736852173088
 30
0.0
 11
250.8892329328812
 21
275.2736852173088
 31
0.0
  0
LINE
  5
188A
330
1F
100
AcDbEntity
  8
AM_VIS
100
AcDbLine
 10
251.8892329328812
 20
276.2736852173088
 30
0.0
 11
251.8892329328812
 21
277.0736852173088
 31
0.0
  0
LINE
  5
188B
330
1F
100
AcDbEntity
  8
AM_VIS
100
AcDbLine
 10
253.0892329328811
 20
276.8736852173088
 30
0.0
 11
253.0892329328811
 21
276.0736852173088
 31
0.0
  0
LINE
  5
188C
330
1F
100
AcDbEntity
  8
AM_VIS
100
AcDbLine
 10
251.0892329328811
 20
274.0736852173088
 30
0.0
 11
222.0892329328811
 21
274.0736852173088
 31
0.0
  0
LINE
  5
188D
330
1F
100
AcDbEntity
  8
AM_VIS
100
AcDbLine
 10
220.0892329328811
 20
276.0736852173088
 30
0.0
 11
220.0892329328811
 21
276.8736852173088
 31
0.0
  0
ARC
  5
188E
330
1F
100
AcDbEntity
  8
AM_VIS
100
AcDbCircle
 10
219.2879258797649
 20
277.0674227495963
 30
0.0
 40
2.006262893476335
100
AcDbArc
 50
66.45914894918163
 51
89.96267257261811
  0
LINE
  5
188F
102
{ACAD_REACTORS
330
1F9B
102
}
330
1F
100
AcDbEntity
  8
AM_VIS
100
AcDbLine
 10
269.5892329328811
 20
277.8736852173088
 30
0.0
 11
268.0892329328811
 21
277.8736852173088
 31
0.0
  0
LINE
  5
1890
330
1F
100
AcDbEntity
  8
AM_VIS
100
AcDbLine
 10
254.5892329328812
 20
277.8736852173088
 30
0.0
 11
253.0892329328811
 21
277.8736852173088
 31
0.0
  0
LINE
  5
1891
102
{ACAD_REACTORS
330
1ADD
102
}
330
1F
100
AcDbEntity
  8
AM_VIS
100
AcDbLine
 10
203.5892329328811
 20
279.0736852173088
 30
0.0
 11
205.0892329328811
 21
279.0736852173088
 31
0.0
  0
LINE
  5
1892
330
1F
100
AcDbEntity
  8
AM_VIS
100
AcDbLine
 10
205.0892329328811
 20
277.8736852173088
 30
0.0
 11
203.5892329328811
 21
277.8736852173088
 31
0.0
  0
LINE
  5
1893
102
{ACAD_REACTORS
330
1ADD
330
1D17
330
1F9B
102
}
330
1F
100
AcDbEntity
  8
AM_VIS
100
AcDbLine
 10
268.0892329328811
 20
279.0736852173088
 30
0.0
 11
269.5892329328811
 21
279.0736852173088
 31
0.0
  0
LINE
  5
1894
330
1F
100
AcDbEntity
  8
AM_VIS
100
AcDbLine
 10
253.8892329328812
 20
279.0736852173088
 30
0.0
 11
254.5892329328812
 21
279.0736852173088
 31
0.0
  0
LINE
  5
1895
330
1F
100
AcDbEntity
  8
AM_VIS
100
AcDbLine
 10
220.0892329328811
 20
277.8736852173088
 30
0.0
 11
218.5892329328812
 21
277.8736852173088
 31
0.0
  0
LINE
  5
1896
330
1F
100
AcDbEntity
  8
AM_VIS
100
AcDbLine
 10
218.5892329328812
 20
279.0736852173088
 30
0.0
 11
219.2892329328812
 21
279.0736852173088
 31
0.0
  0
ARC
  5
1897
330
1F
100
AcDbEntity
  8
AM_VIS
100
AcDbCircle
 10
222.2892329328811
 20
276.2736852173088
 30
0.0
 40
1.0
100
AcDbArc
 50
180.0
 51
270.0
  0
ARC
  5
1898
330
1F
100
AcDbEntity
  8
AM_VIS
100
AcDbCircle
 10
250.8892329328812
 20
276.2736852173088
 30
0.0
 40
1.0
100
AcDbArc
 50
270.0
 51
0.0
  0
ARC
  5
1899
330
1F
100
AcDbEntity
  8
AM_VIS
100
AcDbCircle
 10
253.8892329328812
 20
277.0736852173088
 30
0.0
 40
2.0
100
AcDbArc
 50
113.5781784782008
 51
180.0
  0
ARC
  5
189A
330
1F
100
AcDbEntity
  8
AM_VIS
100
AcDbCircle
 10
254.0892329328812
 20
276.8736852173088
 30
0.0
 40
0.9999999999999998
100
AcDbArc
 50
90.0
 51
180.0
  0
ARC
  5
189B
102
{ACAD_REACTORS
330
1D17
102
}
330
1F
100
AcDbEntity
  8
AM_VIS
100
AcDbCircle
 10
251.0892329328811
 20
276.0736852173088
 30
0.0
 40
1.999999999999999
100
AcDbArc
 50
270.0
 51
0.0
  0
ARC
  5
189C
330
1F
100
AcDbEntity
  8
AM_VIS
100
AcDbCircle
 10
222.0892329328811
 20
276.0736852173088
 30
0.0
 40
1.999999999999999
100
AcDbArc
 50
180.0
 51
270.0
  0
ARC
  5
189D
330
1F
100
AcDbEntity
  8
AM_VIS
100
AcDbCircle
 10
219.0892329328812
 20
276.8736852173088
 30
0.0
 40
0.9999999999999998
100
AcDbArc
 50
0.0
 51
90.0
  0
ARC
  5
189E
330
1F
100
AcDbEntity
  8
AM_VIS
100
AcDbCircle
 10
219.2892329328811
 20
277.0736852173088
 30
0.0
 40
2.0
100
AcDbArc
 50
0.0
 51
66.42182152179947
  0
LINE
  5
18BF
330
1F
100
AcDbEntity
  8
AM_VIS
100
AcDbLine
 10
297.9659319265329
 20
240.9067679050586
 30
0.0
 11
296.7659319265329
 21
240.9067679050586
 31
0.0
  0
LINE
  5
18C0
330
1F
100
AcDbEntity
  8
AM_VIS
100
AcDbLine
 10
296.7659319265329
 20
210.9821324603643
 30
0.0
 11
296.7659319265329
 21
239.4067679050586
 31
0.0
  0
LINE
  5
18C1
330
1F
100
AcDbEntity
  8
AM_VIS
100
AcDbLine
 10
294.165931926533
 20
195.4067679050586
 30
0.0
 11
294.165931926533
 21
203.9067679050586
 31
0.0
  0
LINE
  5
18C2
330
1F
100
AcDbEntity
  8
AM_VIS
100
AcDbLine
 10
292.9659319265329
 20
193.9067679050586
 30
0.0
 11
294.165931926533
 21
193.9067679050586
 31
0.0
  0
LINE
  5
18C3
330
1F
100
AcDbEntity
  8
AM_VIS
100
AcDbLine
 10
293.1329016485506
 20
195.4067679050586
 30
0.0
 11
293.1329016485506
 21
203.9067679050586
 31
0.0
  0
ARC
  5
18C4
330
1F
100
AcDbEntity
  8
AM_VIS
100
AcDbCircle
 10
280.9550938461153
 20
196.2656122208479
 30
0.0
 40
12.20805539108576
100
AcDbArc
 50
349.687278305555
 51
355.9658738517809
  0
LINE
  5
18C5
330
1F
100
AcDbEntity
  8
AM_VIS
100
AcDbLine
 10
292.9659319265329
 20
220.9067679050586
 30
0.0
 11
292.9659319265329
 21
194.0801179889164
 31
0.0
  0
LINE
  5
18C6
330
1F
100
AcDbEntity
  8
AM_VIS
100
AcDbLine
 10
297.9659319265329
 20
210.9821324603643
 30
0.0
 11
297.9659319265329
 21
239.4067679050586
 31
0.0
  0
ELLIPSE
  5
18C7
330
1F
100
AcDbEntity
  8
AM_VIS
100
AcDbEllipse
 10
295.1659319265329
 20
203.5677848542111
 30
0.0
 11
-1.0
 21
0.0
 31
0.0
210
0.0
220
0.0
230
1.0
 40
0.3389830508474577
 41
4.712388980384689
 42
6.283185307179586
  0
ELLIPSE
  5
18C9
330
1F
100
AcDbEntity
  8
AM_VIS
100
AcDbEllipse
 10
294.9659319265329
 20
203.6355814643806
 30
0.0
 11
1.999999999999999
 21
0.0000000000000001
 31
0.0
210
0.0
220
0.0
230
1.0
 40
0.3389830508474578
 41
1.570796326794896
 42
2.730075807522306
  0
LINE
  5
18CA
330
1F
100
AcDbEntity
  8
AM_VIS
100
AcDbLine
 10
294.9659319265329
 20
204.3135475660756
 30
0.0
 11
295.7659319265328
 21
204.3135475660756
 31
0.0
  0
ELLIPSE
  5
18CB
330
1F
100
AcDbEntity
  8
AM_VIS
100
AcDbEllipse
 10
295.7659319265328
 20
204.652530616923
 30
0.0
 11
0.9999999999999998
 21
0.0000000000000001
 31
0.0
210
0.0
220
0.0
230
1.0
 40
0.3389830508474578
 41
4.712388980384689
 42
6.283185307179586
  0
LINE
  5
18CC
330
1F
100
AcDbEntity
  8
AM_VIS
100
AcDbLine
 10
296.7659319265329
 20
204.652530616923
 30
0.0
 11
296.7659319265329
 21
209.5615336412406
 31
0.0
  0
LINE
  5
18CD
330
1F
100
AcDbEntity
  8
AM_VIS
100
AcDbLine
 10
297.9659319265329
 20
209.5615336412406
 30
0.0
 11
297.9659319265329
 21
204.5847340067535
 31
0.0
  0
LINE
  5
18CE
330
1F
100
AcDbEntity
  8
AM_VIS
100
AcDbLine
 10
295.9659319265329
 20
203.9067679050586
 30
0.0
 11
295.1659319265329
 21
203.9067679050586
 31
0.0
  0
ELLIPSE
  5
18CF
330
1F
100
AcDbEntity
  8
AM_VIS
100
AcDbEllipse
 10
295.9659319265329
 20
204.5847340067535
 30
0.0
 11
-2.0
 21
-0.0000000000000001
 31
0.0
210
0.0
220
0.0
230
1.0
 40
0.3389830508474577
 41
1.570796326794896
 42
3.141592653589792
  0
LINE
  5
18D0
330
1F
100
AcDbEntity
  8
AM_VIS
100
AcDbLine
 10
295.7659319265328
 20
220.9067679050586
 30
0.0
 11
294.9659319265329
 21
220.9067679050586
 31
0.0
  0
LINE
  5
18D1
330
1F
100
AcDbEntity
  8
AM_VIS
100
AcDbLine
 10
296.7659319265329
 20
239.4067679050586
 30
0.0
 11
296.7659319265329
 21
240.9067679050586
 31
0.0
  0
LINE
  5
18D2
330
1F
100
AcDbEntity
  8
AM_VIS
100
AcDbLine
 10
296.7659319265329
 20
209.5615336412406
 30
0.0
 11
296.7659319265329
 21
210.9821324603643
 31
0.0
  0
LINE
  5
18D3
330
1F
100
AcDbEntity
  8
AM_VIS
100
AcDbLine
 10
294.165931926533
 20
195.4067679050586
 30
0.0
 11
294.165931926533
 21
193.9067679050586
 31
0.0
  0
LINE
  5
18D4
330
1F
100
AcDbEntity
  8
AM_VIS
100
AcDbLine
 10
292.9659319265329
 20
193.9067679050586
 30
0.0
 11
292.9659319265329
 21
194.0801179889164
 31
0.0
  0
LINE
  5
18D5
330
1F
100
AcDbEntity
  8
AM_VIS
100
AcDbLine
 10
297.9659319265329
 20
210.9821324603643
 30
0.0
 11
297.9659319265329
 21
209.5615336412406
 31
0.0
  0
LINE
  5
18D6
330
1F
100
AcDbEntity
  8
AM_VIS
100
AcDbLine
 10
297.9659319265329
 20
240.9067679050586
 30
0.0
 11
297.9659319265329
 21
239.4067679050586
 31
0.0
  0
LINE
  5
18D7
330
1F
100
AcDbEntity
  8
AM_VIS
100
AcDbLine
 10
296.7659319265329
 20
220.9067679050586
 30
0.0
 11
295.7659319265328
 21
220.9067679050586
 31
0.0
  0
LINE
  5
18D8
330
1F
100
AcDbEntity
  8
AM_VIS
100
AcDbLine
 10
292.9659319265329
 20
220.9067679050586
 30
0.0
 11
294.9659319265329
 21
220.9067679050586
 31
0.0
  0
LINE
  5
1974
330
1F
100
AcDbEntity
  8
AM_VIS
100
AcDbLine
 10
440.3922488696781
 20
277.3889956207451
 30
0.0
 11
440.3922488696781
 21
259.4889956207451
 31
0.0
  0
LINE
  5
1975
330
1F
100
AcDbEntity
  8
AM_VIS
100
AcDbLine
 10
439.3922488696781
 20
258.4889956207452
 30
0.0
 11
430.3922488696781
 21
258.4889956207452
 31
0.0
  0
LINE
  5
1976
330
1F
100
AcDbEntity
  8
AM_VIS
100
AcDbLine
 10
429.3922488696781
 20
259.4889956207451
 30
0.0
 11
429.3922488696781
 21
267.9889956207451
 31
0.0
  0
LINE
  5
1977
330
1F
100
AcDbEntity
  8
AM_VIS
100
AcDbLine
 10
428.3922488696781
 20
268.9889956207452
 30
0.0
 11
395.6625980110281
 21
268.9889956207452
 31
0.0
  0
LINE
  5
1978
330
1F
100
AcDbEntity
  8
AM_VIS
100
AcDbLine
 10
395.158726985504
 20
269.1252167198467
 30
0.0
 11
383.8883778441541
 21
275.6995870523009
 31
0.0
  0
LINE
  5
1979
330
1F
100
AcDbEntity
  8
AM_VIS
100
AcDbLine
 10
383.3922488696781
 20
276.5633659531993
 30
0.0
 11
383.3922488696781
 21
285.8889956207452
 31
0.0
  0
LINE
  5
197A
330
1F
100
AcDbEntity
  8
AM_VIS
100
AcDbLine
 10
383.3922488696781
 20
285.9889956207452
 30
0.0
 11
383.3922488696781
 21
295.4889956207452
 31
0.0
  0
LINE
  5
197B
330
1F
100
AcDbEntity
  8
AM_VIS
100
AcDbLine
 10
384.3922488696782
 20
296.4889956207452
 30
0.0
 11
392.8922488696782
 21
296.4889956207452
 31
0.0
  0
LINE
  5
197C
330
1F
100
AcDbEntity
  8
AM_VIS
100
AcDbLine
 10
393.8922488696782
 20
295.4889956207452
 30
0.0
 11
393.8922488696782
 21
286.9889956207452
 31
0.0
  0
LINE
  5
197D
330
1F
100
AcDbEntity
  8
AM_VIS
100
AcDbLine
 10
425.1422488696781
 20
285.9889956207452
 30
0.0
 11
422.3922488696781
 21
285.9889956207452
 31
0.0
  0
ARC
  5
197E
330
1F
100
AcDbEntity
  8
AM_VIS
100
AcDbCircle
 10
425.1405758189376
 20
284.9817029616393
 30
0.0
 40
1.007294048521727
100
AcDbArc
 50
64.25323189161654
 51
89.90483534518638
  0
LINE
  5
197F
330
1F
100
AcDbEntity
  8
AM_VIS
100
AcDbLine
 10
395.3922488696782
 20
285.9889956207452
 30
0.0
 11
383.3922488696781
 21
285.9889956207452
 31
0.0
  0
ARC
  5
1980
330
1F
100
AcDbEntity
  8
AM_VIS
100
AcDbCircle
 10
395.3922488696782
 20
286.9889956207452
 30
0.0
 40
1.0
100
AcDbArc
 50
323.1301023541541
 51
359.9999999999992
  0
ARC
  5
1981
330
1F
100
AcDbEntity
  8
AM_VIS
100
AcDbCircle
 10
395.3921262444564
 20
286.9892408711887
 30
0.0
 40
1.000245257960196
100
AcDbArc
 50
270.0070241849719
 51
323.1230781692284
  0
LINE
  5
1982
330
1F
100
AcDbEntity
  8
AM_VIS
100
AcDbLine
 10
399.0922488696782
 20
287.2889956207451
 30
0.0
 11
399.0922488696782
 21
286.3889956207452
 31
0.0
  0
LINE
  5
1983
330
1F
100
AcDbEntity
  8
AM_VIS
100
AcDbLine
 10
404.6922488696782
 20
287.2889956207451
 30
0.0
 11
404.6922488696782
 21
286.3889956207452
 31
0.0
  0
LINE
  5
1984
330
1F
100
AcDbEntity
  8
AM_VIS
100
AcDbLine
 10
396.3922488696781
 20
288.4889956207452
 30
0.0
 11
397.3922488696782
 21
288.4889956207452
 31
0.0
  0
LINE
  5
1985
330
1F
100
AcDbEntity
  8
AM_VIS
100
AcDbLine
 10
397.3922488696782
 20
287.2889956207451
 30
0.0
 11
396.3922488696781
 21
287.2889956207451
 31
0.0
  0
LINE
  5
1986
330
1F
100
AcDbEntity
  8
AM_VIS
100
AcDbLine
 10
422.3922488696781
 20
287.2889956207451
 30
0.0
 11
421.3922488696781
 21
287.2889956207451
 31
0.0
  0
LINE
  5
1987
330
1F
100
AcDbEntity
  8
AM_VIS
100
AcDbLine
 10
421.3922488696781
 20
288.4889956207452
 30
0.0
 11
422.3922488696781
 21
288.4889956207452
 31
0.0
  0
ARC
  5
1988
330
1F
100
AcDbEntity
  8
AM_VIS
100
AcDbCircle
 10
425.1422488696781
 20
284.9889956207452
 30
0.0
 40
0.9999999999999998
100
AcDbArc
 50
61.9275130641459
 51
64.15806723683144
  0
ARC
  5
1989
102
{ACAD_REACTORS
330
1CEA
102
}
330
1F
100
AcDbEntity
  8
AM_VIS
100
AcDbCircle
 10
439.3922488696781
 20
277.3889956207451
 30
0.0
 40
1.0
100
AcDbArc
 50
0.0
 51
61.9275130641459
  0
ARC
  5
198A
330
1F
100
AcDbEntity
  8
AM_VIS
100
AcDbCircle
 10
439.3922488696781
 20
259.4889956207452
 30
0.0
 40
0.9999999999999998
100
AcDbArc
 50
270.0
 51
0.0
  0
ARC
  5
198B
102
{ACAD_REACTORS
330
1CC4
102
}
330
1F
100
AcDbEntity
  8
AM_VIS
100
AcDbCircle
 10
430.3922488696781
 20
259.4889956207452
 30
0.0
 40
0.9999999999999998
100
AcDbArc
 50
180.0
 51
270.0
  0
ARC
  5
198C
330
1F
100
AcDbEntity
  8
AM_VIS
100
AcDbCircle
 10
428.3922488696781
 20
267.9889956207452
 30
0.0
 40
0.9999999999999998
100
AcDbArc
 50
0.0
 51
90.0
  0
ARC
  5
198D
330
1F
100
AcDbEntity
  8
AM_VIS
100
AcDbCircle
 10
395.6625980110281
 20
269.9889956207452
 30
0.0
 40
1.0
100
AcDbArc
 50
239.7435628364716
 51
270.0
  0
ARC
  5
198E
330
1F
100
AcDbEntity
  8
AM_VIS
100
AcDbCircle
 10
384.3922488696782
 20
276.5633659531993
 30
0.0
 40
1.0
100
AcDbArc
 50
180.0
 51
239.7435628364716
  0
CIRCLE
  5
198F
330
1F
100
AcDbEntity
  8
AM_VIS
100
AcDbCircle
 10
434.8922488696781
 20
263.4889956207452
 30
0.0
 40
2.1
  0
CIRCLE
  5
1990
102
{ACAD_REACTORS
330
1C2A
102
}
330
1F
100
AcDbEntity
  8
AM_VIS
100
AcDbCircle
 10
388.8922488696782
 20
291.4889956207452
 30
0.0
 40
2.1
  0
ARC
  5
1991
102
{ACAD_REACTORS
330
1CC4
330
1CEA
102
}
330
1F
100
AcDbEntity
  8
AM_VIS
100
AcDbCircle
 10
384.3922488696782
 20
295.4889956207452
 30
0.0
 40
0.9999999999999998
100
AcDbArc
 50
90.0
 51
180.0
  0
ARC
  5
1992
330
1F
100
AcDbEntity
  8
AM_VIS
100
AcDbCircle
 10
392.8922488696782
 20
295.4889956207452
 30
0.0
 40
0.9999999999999998
100
AcDbArc
 50
0.0
 51
90.0
  0
ARC
  5
1993
330
1F
100
AcDbEntity
  8
AM_VIS
100
AcDbCircle
 10
394.8922488696782
 20
286.9889956207452
 30
0.0
 40
0.9999999999999998
100
AcDbArc
 50
180.0
 51
270.0
  0
LINE
  5
1994
330
1F
100
AcDbEntity
  8
AM_VIS
100
AcDbLine
 10
383.3922488696781
 20
285.9889956207452
 30
0.0
 11
383.3922488696781
 21
285.8889956207452
 31
0.0
  0
LINE
  5
1995
330
1F
100
AcDbEntity
  8
AM_VIS
100
AcDbLine
 10
422.3922488696781
 20
285.9889956207452
 30
0.0
 11
422.3922488696781
 21
286.3889956207452
 31
0.0
  0
LINE
  5
1996
330
1F
100
AcDbEntity
  8
AM_VIS
100
AcDbLine
 10
404.6922488696781
 20
286.3889956207452
 30
0.0
 11
399.0922488696782
 21
286.3889956207452
 31
0.0
  0
LINE
  5
1997
330
1F
100
AcDbEntity
  8
AM_VIS
100
AcDbLine
 10
496.5197137916021
 20
170.4974334778305
 30
0.0
 11
495.6197137916022
 21
168.0247038003214
 31
0.0
  0
LINE
  5
1998
330
1F
100
AcDbEntity
  8
AM_VIS
100
AcDbLine
 10
495.6197137916022
 20
168.0247038003214
 30
0.0
 11
495.6197137916022
 21
157.7090258546807
 31
0.0
  0
LINE
  5
1999
330
1F
100
AcDbEntity
  8
AM_VIS
100
AcDbLine
 10
494.4197137916021
 20
158.4090258546807
 30
0.0
 11
494.4197137916021
 21
168.2362961771715
 31
0.0
  0
LINE
  5
199A
330
1F
100
AcDbEntity
  8
AM_VIS
100
AcDbLine
 10
494.4197137916021
 20
168.2362961771715
 30
0.0
 11
495.3197137916021
 21
170.7090258546807
 31
0.0
  0
LINE
  5
199B
330
1F
100
AcDbEntity
  8
AM_VIS
100
AcDbLine
 10
466.5197137916021
 20
157.9090258546807
 30
0.0
 11
466.5197137916021
 21
156.7090258546807
 31
0.0
  0
LINE
  5
199C
330
1F
100
AcDbEntity
  8
AM_VIS
100
AcDbLine
 10
494.0197137916022
 20
156.7090258546807
 30
0.0
 11
494.0197137916022
 21
157.9191279061241
 31
0.0
  0
LINE
  5
199D
330
1F
100
AcDbEntity
  8
AM_VIS
100
AcDbLine
 10
467.519713791602
 20
156.7090258546807
 30
0.0
 11
485.4197137916021
 21
156.7090258546807
 31
0.0
  0
LINE
  5
199E
330
1F
100
AcDbEntity
  8
AM_VIS
100
AcDbLine
 10
486.3020667327786
 20
156.7090258546807
 30
0.0
 11
493.9020667327786
 21
156.7090258546807
 31
0.0
  0
LINE
  5
199F
330
1F
100
AcDbEntity
  8
AM_VIS
100
AcDbLine
 10
494.6197137916022
 20
156.7090258546807
 30
0.0
 11
494.0197137916022
 21
156.7090258546807
 31
0.0
  0
LINE
  5
19A0
330
1F
100
AcDbEntity
  8
AM_VIS
100
AcDbLine
 10
504.5197137916021
 20
156.7090258546807
 30
0.0
 11
504.5197137916021
 21
157.9090258546807
 31
0.0
  0
LINE
  5
19A1
330
1F
100
AcDbEntity
  8
AM_VIS
100
AcDbLine
 10
495.0197137916021
 20
156.7090258546807
 30
0.0
 11
503.5197137916021
 21
156.7090258546807
 31
0.0
  0
LINE
  5
19A2
330
1F
100
AcDbEntity
  8
AM_VIS
100
AcDbLine
 10
496.5197137916021
 20
232.2090258546807
 30
0.0
 11
496.5197137916021
 21
170.4974334778305
 31
0.0
  0
LINE
  5
19A3
330
1F
100
AcDbEntity
  8
AM_VIS
100
AcDbLine
 10
495.219713791602
 20
195.2090258546807
 30
0.0
 11
495.3197137916021
 21
195.2090258546807
 31
0.0
  0
LINE
  5
19A4
330
1F
100
AcDbEntity
  8
AM_VIS
100
AcDbLine
 10
495.3197137916021
 20
207.2090258546807
 30
0.0
 11
495.219713791602
 21
207.2090258546807
 31
0.0
  0
LINE
  5
19A5
330
1F
100
AcDbEntity
  8
AM_VIS
100
AcDbLine
 10
494.4197137916021
 20
206.4090258546808
 30
0.0
 11
494.4197137916021
 21
196.0090258546807
 31
0.0
  0
ARC
  5
19A6
330
1F
100
AcDbEntity
  8
AM_VIS
100
AcDbCircle
 10
495.219713791602
 20
196.0090258546807
 30
0.0
 40
0.8000000000000007
100
AcDbArc
 50
180.0
 51
270.0
  0
ARC
  5
19A7
330
1F
100
AcDbEntity
  8
AM_VIS
100
AcDbCircle
 10
495.219713791602
 20
206.4090258546808
 30
0.0
 40
0.7999999999999999
100
AcDbArc
 50
90.0
 51
180.0
  0
LINE
  5
19A8
330
1F
100
AcDbEntity
  8
AM_VIS
100
AcDbLine
 10
495.3197137916021
 20
170.7090258546807
 30
0.0
 11
495.3197137916021
 21
232.2090258546807
 31
0.0
  0
LINE
  5
19A9
330
1F
100
AcDbEntity
  8
AM_VIS
100
AcDbLine
 10
496.519713791602
 20
233.2090258546807
 30
0.0
 11
495.3197137916021
 21
233.2090258546807
 31
0.0
  0
LINE
  5
19AA
330
1F
100
AcDbEntity
  8
AM_VIS
100
AcDbLine
 10
493.9020667327786
 20
157.9090258546807
 30
0.0
 11
486.3020667327786
 21
157.9090258546807
 31
0.0
  0
LINE
  5
19AB
330
1F
100
AcDbEntity
  8
AM_VIS
100
AcDbLine
 10
485.4197137916021
 20
157.9090258546807
 30
0.0
 11
467.519713791602
 21
157.9090258546807
 31
0.0
  0
LINE
  5
19AC
330
1F
100
AcDbEntity
  8
AM_VIS
100
AcDbLine
 10
503.5197137916021
 20
157.9090258546807
 30
0.0
 11
495.6197137916022
 21
157.9090258546807
 31
0.0
  0
ARC
  5
19AD
330
1F
100
AcDbEntity
  8
AM_VIS
100
AcDbCircle
 10
493.9245017320429
 20
158.3616301304789
 30
0.0
 40
0.4526296000534208
100
AcDbArc
 50
269.3939108355451
 51
282.1430481972442
  0
LINE
  5
19AE
330
1F
100
AcDbEntity
  8
AM_VIS
100
AcDbLine
 10
494.4197137916021
 20
208.2090258546807
 30
0.0
 11
494.4197137916021
 21
206.4090258546808
 31
0.0
  0
LINE
  5
19AF
330
1F
100
AcDbEntity
  8
AM_VIS
100
AcDbLine
 10
495.3197137916021
 20
191.0090258546807
 30
0.0
 11
494.4197137916021
 21
191.0090258546807
 31
0.0
  0
LINE
  5
19B0
330
1F
100
AcDbEntity
  8
AM_VIS
100
AcDbLine
 10
495.3197137916021
 20
185.4090258546807
 30
0.0
 11
494.4197137916021
 21
185.4090258546807
 31
0.0
  0
LINE
  5
19B1
330
1F
100
AcDbEntity
  8
AM_VIS
100
AcDbLine
 10
495.3197137916021
 20
211.0090258546807
 30
0.0
 11
494.4197137916021
 21
211.0090258546807
 31
0.0
  0
ARC
  5
19B2
330
1F
100
AcDbEntity
  8
AM_VIS
100
AcDbCircle
 10
494.6197137916022
 20
157.7090258546807
 30
0.0
 40
0.9999999999999998
100
AcDbArc
 50
270.0
 51
0.0
  0
LINE
  5
19B3
330
1F
100
AcDbEntity
  8
AM_VIS
100
AcDbLine
 10
467.5197137916021
 20
156.7090258546807
 30
0.0
 11
466.5197137916021
 21
156.7090258546807
 31
0.0
  0
LINE
  5
19B4
330
1F
100
AcDbEntity
  8
AM_VIS
100
AcDbLine
 10
486.3020667327786
 20
156.7090258546807
 30
0.0
 11
485.4197137916021
 21
156.7090258546807
 31
0.0
  0
LINE
  5
19B5
330
1F
100
AcDbEntity
  8
AM_VIS
100
AcDbLine
 10
494.0197137916022
 20
156.7090258546807
 30
0.0
 11
493.9020667327786
 21
156.7090258546807
 31
0.0
  0
LINE
  5
19B6
330
1F
100
AcDbEntity
  8
AM_VIS
100
AcDbLine
 10
504.5197137916021
 20
156.7090258546807
 30
0.0
 11
503.5197137916021
 21
156.7090258546807
 31
0.0
  0
LINE
  5
19B7
330
1F
100
AcDbEntity
  8
AM_VIS
100
AcDbLine
 10
494.6197137916042
 20
156.7090258546807
 30
0.0
 11
495.0197137916021
 21
156.7090258546807
 31
0.0
  0
LINE
  5
19B8
330
1F
100
AcDbEntity
  8
AM_VIS
100
AcDbLine
 10
494.4197137916021
 20
185.4090258546807
 30
0.0
 11
494.4197137916021
 21
191.0090258546807
 31
0.0
  0
LINE
  5
19B9
330
1F
100
AcDbEntity
  8
AM_VIS
100
AcDbLine
 10
495.3197137916021
 20
232.2090258546807
 30
0.0
 11
495.3197137916021
 21
233.2090258546807
 31
0.0
  0
LINE
  5
19BA
330
1F
100
AcDbEntity
  8
AM_VIS
100
AcDbLine
 10
496.519713791602
 20
233.2090258546807
 30
0.0
 11
496.519713791602
 21
232.2090258546807
 31
0.0
  0
LINE
  5
19BB
330
1F
100
AcDbEntity
  8
AM_VIS
100
AcDbLine
 10
493.9020667327786
 20
157.9090258546807
 30
0.0
 11
493.9197137916021
 21
157.9090258546807
 31
0.0
  0
LINE
  5
19BC
330
1F
100
AcDbEntity
  8
AM_VIS
100
AcDbLine
 10
485.4197137916021
 20
157.9090258546807
 30
0.0
 11
486.3020667327786
 21
157.9090258546807
 31
0.0
  0
LINE
  5
19BD
330
1F
100
AcDbEntity
  8
AM_VIS
100
AcDbLine
 10
466.5197137916021
 20
157.9090258546807
 30
0.0
 11
467.5197137916021
 21
157.9090258546807
 31
0.0
  0
LINE
  5
19BE
330
1F
100
AcDbEntity
  8
AM_VIS
100
AcDbLine
 10
503.5197137916021
 20
157.9090258546807
 30
0.0
 11
504.5197137916021
 21
157.9090258546807
 31
0.0
  0
ARC
  5
19BF
330
1F
100
AcDbEntity
  8
AM_VIS
100
AcDbCircle
 10
493.9197137916021
 20
158.4090258546807
 30
0.0
 40
0.5
100
AcDbArc
 50
281.5369590328181
 51
0.0
  0
LINE
  5
19C0
330
1F
100
AcDbEntity
  8
AM_VIS
100
AcDbLine
 10
494.4197137916021
 20
208.2090258546807
 30
0.0
 11
494.4197137916021
 21
211.0090258546807
 31
0.0
  0
LINE
  5
19C1
330
1F
100
AcDbEntity
  8
AM_VIS
100
AcDbLine
 10
396.3922488696781
 20
169.8847826288443
 30
0.0
 11
396.3922488696781
 21
170.7090258546807
 31
0.0
  0
LINE
  5
19C2
330
1F
100
AcDbEntity
  8
AM_VIS
100
AcDbLine
 10
396.1922488696781
 20
168.2362961771715
 30
0.0
 11
422.3922488696781
 21
168.2362961771715
 31
0.0
  0
LINE
  5
19C3
330
1F
100
AcDbEntity
  8
AM_VIS
100
AcDbLine
 10
422.3922488696781
 20
158.4090258546807
 30
0.0
 11
422.3922488696781
 21
168.2362961771715
 31
0.0
  0
LINE
  5
19C4
330
1F
100
AcDbEntity
  8
AM_VIS
100
AcDbLine
 10
422.3922488696781
 20
168.2362961771715
 30
0.0
 11
422.3922488696781
 21
170.7090258546807
 31
0.0
  0
LINE
  5
19C5
330
1F
100
AcDbEntity
  8
AM_VIS
100
AcDbLine
 10
440.3922488696781
 20
156.7090258546807
 30
0.0
 11
440.3922488696781
 21
157.9090258546807
 31
0.0
  0
LINE
  5
19C6
330
1F
100
AcDbEntity
  8
AM_VIS
100
AcDbLine
 10
383.3922488696781
 20
157.9090258546807
 30
0.0
 11
383.3922488696781
 21
156.7090258546807
 31
0.0
  0
LINE
  5
19C7
330
1F
100
AcDbEntity
  8
AM_VIS
100
AcDbLine
 10
383.8883778441541
 20
156.7090258546807
 30
0.0
 11
395.158726985504
 21
156.7090258546807
 31
0.0
  0
LINE
  5
19C8
330
1F
100
AcDbEntity
  8
AM_VIS
100
AcDbLine
 10
395.6625980110281
 20
156.7090258546807
 30
0.0
 11
428.3922488696781
 21
156.7090258546807
 31
0.0
  0
LINE
  5
19C9
330
1F
100
AcDbEntity
  8
AM_VIS
100
AcDbLine
 10
430.3922488696781
 20
156.7090258546807
 30
0.0
 11
439.3922488696781
 21
156.7090258546807
 31
0.0
  0
LINE
  5
19CA
330
1F
100
AcDbEntity
  8
AM_VIS
100
AcDbLine
 10
429.3922488696781
 20
157.9090258546807
 30
0.0
 11
429.3922488696781
 21
156.7090258546807
 31
0.0
  0
LINE
  5
19CF
330
1F
100
AcDbEntity
  8
AM_VIS
100
AcDbLine
 10
422.3922488696781
 20
170.7090258546807
 30
0.0
 11
422.3922488696781
 21
232.2090258546807
 31
0.0
  0
LINE
  5
19D0
330
1F
100
AcDbEntity
  8
AM_VIS
100
AcDbLine
 10
396.3922488696781
 20
170.7090258546807
 30
0.0
 11
422.3922488696781
 21
170.7090258546807
 31
0.0
  0
LINE
  5
19D1
330
1F
100
AcDbEntity
  8
AM_VIS
100
AcDbLine
 10
396.3922488696781
 20
170.7090258546807
 30
0.0
 11
396.3922488696781
 21
232.2090258546807
 31
0.0
  0
LINE
  5
19D2
330
1F
100
AcDbEntity
  8
AM_VIS
100
AcDbLine
 10
397.3922488696782
 20
233.2090258546807
 30
0.0
 11
421.3922488696781
 21
233.2090258546807
 31
0.0
  0
LINE
  5
19D3
330
1F
100
AcDbEntity
  8
AM_VIS
100
AcDbLine
 10
439.3922488696781
 20
157.9090258546807
 30
0.0
 11
430.3922488696781
 21
157.9090258546807
 31
0.0
  0
LINE
  5
19D4
330
1F
100
AcDbEntity
  8
AM_VIS
100
AcDbLine
 10
428.3922488696781
 20
157.9090258546807
 30
0.0
 11
395.6625980110281
 21
157.9090258546807
 31
0.0
  0
LINE
  5
19D5
330
1F
100
AcDbEntity
  8
AM_VIS
100
AcDbLine
 10
395.158726985504
 20
157.9090258546807
 30
0.0
 11
383.8883778441541
 21
157.9090258546807
 31
0.0
  0
LINE
  5
19D6
330
1F
100
AcDbEntity
  8
AM_VIS
100
AcDbLine
 10
425.1422488696781
 20
157.9191279061241
 30
0.0
 11
422.3922488696781
 21
157.9191279061241
 31
0.0
  0
LINE
  5
19D7
330
1F
100
AcDbEntity
  8
AM_VIS
100
AcDbLine
 10
425.1422755464977
 20
157.9201405398147
 30
0.0
 11
425.5781290842085
 21
157.9086584152198
 31
0.0
  0
LINE
  5
19D8
330
1F
100
AcDbEntity
  8
AM_VIS
100
AcDbLine
 10
395.3922488696782
 20
157.9191279061241
 30
0.0
 11
383.3922488696781
 21
157.9191279061241
 31
0.0
  0
ELLIPSE
  5
19D9
330
1F
100
AcDbEntity
  8
AM_VIS
100
AcDbEllipse
 10
395.3922488696782
 20
169.8847826288443
 30
0.0
 11
0.0000000000000002
 21
-2.747477419454629
 31
0.0
210
0.0
220
0.0
230
1.0
 40
0.3639702342662013
 41
0.927295218001597
 42
1.570796326794892
  0
LINE
  5
19DA
330
1F
100
AcDbEntity
  8
AM_VIS
100
AcDbLine
 10
396.1922488696781
 20
158.4090258546807
 30
0.0
 11
396.1922488696781
 21
168.2362961771715
 31
0.0
  0
SPLINE
  5
19DB
330
1F
100
AcDbEntity
  8
AM_VIS
100
AcDbSpline
210
0.0
220
0.0
230
1.0
 70
     8
 71
     3
 72
    18
 73
    14
 74
     0
 42
0.0000000001
 43
0.0000000001
 40
1.122981519273385
 40
1.122981519273385
 40
1.122981519273385
 40
1.122981519273385
 40
1.368755628843013
 40
1.368755628843013
 40
1.614529738412641
 40
1.614529738412641
 40
1.725938892506592
 40
1.725938892506592
 40
1.837348046600542
 40
1.837348046600542
 40
2.041655542573657
 40
2.041655542573657
 40
2.245963038546771
 40
2.245963038546771
 40
2.245963038546771
 40
2.245963038546771
 10
395.3922488696782
 20
157.9191279061241
 30
0.0
 10
395.474173572868
 20
157.9191279061241
 30
0.0
 10
395.5630830022938
 20
157.9208869768923
 30
0.0
 10
395.7335078174466
 20
157.9333771364993
 30
0.0
 10
395.8149909894798
 20
157.9445624309157
 30
0.0
 10
395.9154654546339
 20
157.9738615241165
 30
0.0
 10
395.9482555707061
 20
157.9860514089024
 30
0.0
 10
396.0087778479392
 20
158.0172168611543
 30
0.0
 10
396.0365013394365
 20
158.0363094563826
 30
0.0
 10
396.1015305000105
 20
158.0950771533578
 30
0.0
 10
396.1366120308576
 20
158.1473410307837
 30
0.0
 10
396.1815905018773
 20
158.2703393889638
 30
0.0
 10
396.1922488696781
 20
158.340923356023
 30
0.0
 10
396.1922488696781
 20
158.4090258546807
 30
0.0
  0
LINE
  5
19DC
330
1F
100
AcDbEntity
  8
AM_VIS
100
AcDbLine
 10
399.0922488696782
 20
201.2090258546807
 30
0.0
 11
399.0922488696782
 21
208.2090258546807
 31
0.0
  0
LINE
  5
19DD
330
1F
100
AcDbEntity
  8
AM_VIS
100
AcDbLine
 10
404.6922488696782
 20
208.2090258546807
 30
0.0
 11
404.6922488696782
 21
201.2090258546807
 31
0.0
  0
LINE
  5
19DE
330
1F
100
AcDbEntity
  8
AM_VIS
100
AcDbLine
 10
399.7922488696781
 20
201.2090258546807
 30
0.0
 11
399.7922488696781
 21
208.2090258546807
 31
0.0
  0
LINE
  5
19DF
330
1F
100
AcDbEntity
  8
AM_VIS
100
AcDbLine
 10
403.9922488696781
 20
208.2090258546807
 30
0.0
 11
403.9922488696781
 21
201.2090258546807
 31
0.0
  0
LINE
  5
19E0
330
1F
100
AcDbEntity
  8
AM_VIS
100
AcDbLine
 10
383.8883778441541
 20
156.7090258546807
 30
0.0
 11
383.3922488696781
 21
156.7090258546807
 31
0.0
  0
LINE
  5
19E1
330
1F
100
AcDbEntity
  8
AM_VIS
100
AcDbLine
 10
395.6625980110281
 20
156.7090258546807
 30
0.0
 11
395.158726985504
 21
156.7090258546807
 31
0.0
  0
LINE
  5
19E2
330
1F
100
AcDbEntity
  8
AM_VIS
100
AcDbLine
 10
430.3922488696781
 20
156.7090258546807
 30
0.0
 11
429.3922488696781
 21
156.7090258546807
 31
0.0
  0
LINE
  5
19E3
102
{ACAD_REACTORS
330
1BEF
102
}
330
1F
100
AcDbEntity
  8
AM_VIS
100
AcDbLine
 10
440.3922488696781
 20
156.7090258546807
 30
0.0
 11
439.3922488696781
 21
156.7090258546807
 31
0.0
  0
LINE
  5
19E4
330
1F
100
AcDbEntity
  8
AM_VIS
100
AcDbLine
 10
428.3922488696781
 20
156.7090258546807
 30
0.0
 11
429.3922488696781
 21
156.7090258546807
 31
0.0
  0
CIRCLE
  5
19E5
330
1F
100
AcDbEntity
  8
AM_VIS
100
AcDbCircle
 10
401.8922488696781
 20
188.2090258546807
 30
0.0
 40
2.799999999999999
  0
CIRCLE
  5
19E6
330
1F
100
AcDbEntity
  8
AM_VIS
100
AcDbCircle
 10
401.8922488696781
 20
188.2090258546807
 30
0.0
 40
2.1
  0
ARC
  5
19EB
102
{ACAD_REACTORS
330
1C80
102
}
330
1F
100
AcDbEntity
  8
AM_VIS
100
AcDbCircle
 10
397.3922488696782
 20
232.2090258546807
 30
0.0
 40
0.9999999999999998
100
AcDbArc
 50
90.0
 51
180.0
  0
ARC
  5
19EC
102
{ACAD_REACTORS
330
1BEF
330
1C80
102
}
330
1F
100
AcDbEntity
  8
AM_VIS
100
AcDbCircle
 10
421.3922488696781
 20
232.2090258546807
 30
0.0
 40
0.9999999999999998
100
AcDbArc
 50
0.0
 51
90.0
  0
LINE
  5
19ED
330
1F
100
AcDbEntity
  8
AM_VIS
100
AcDbLine
 10
439.3922488696781
 20
157.9090258546807
 30
0.0
 11
440.3922488696781
 21
157.9090258546807
 31
0.0
  0
LINE
  5
19EE
330
1F
100
AcDbEntity
  8
AM_VIS
100
AcDbLine
 10
429.3922488696781
 20
157.9090258546807
 30
0.0
 11
430.3922488696781
 21
157.9090258546807
 31
0.0
  0
LINE
  5
19EF
330
1F
100
AcDbEntity
  8
AM_VIS
100
AcDbLine
 10
429.3922488696781
 20
157.9090258546807
 30
0.0
 11
428.3922488696781
 21
157.9090258546807
 31
0.0
  0
LINE
  5
19F0
330
1F
100
AcDbEntity
  8
AM_VIS
100
AcDbLine
 10
395.158726985504
 20
157.9090258546807
 30
0.0
 11
395.6625980110281
 21
157.9090258546807
 31
0.0
  0
LINE
  5
19F1
330
1F
100
AcDbEntity
  8
AM_VIS
100
AcDbLine
 10
383.3922488696781
 20
157.9090258546807
 30
0.0
 11
383.8883778441541
 21
157.9090258546807
 31
0.0
  0
LINE
  5
19F2
330
1F
100
AcDbEntity
  8
AM_VIS
100
AcDbLine
 10
383.3922488696781
 20
157.9191279061241
 30
0.0
 11
383.3922488696781
 21
157.9090258546807
 31
0.0
  0
LINE
  5
19F3
330
1F
100
AcDbEntity
  8
AM_VIS
100
AcDbLine
 10
422.3922488696781
 20
157.9191279061241
 30
0.0
 11
422.3922488696781
 21
158.4090258546807
 31
0.0
  0
CIRCLE
  5
19F4
330
1F
100
AcDbEntity
  8
AM_VIS
100
AcDbCircle
 10
401.8922488696781
 20
221.2090258546807
 30
0.0
 40
2.1
  0
ARC
  5
19F5
330
1F
100
AcDbEntity
  8
AM_VIS
100
AcDbCircle
 10
401.8922488696781
 20
208.2090258546807
 30
0.0
 40
2.799999999999999
100
AcDbArc
 50
0.0
 51
180.0
  0
ARC
  5
19F6
330
1F
100
AcDbEntity
  8
AM_VIS
100
AcDbCircle
 10
401.8922488696781
 20
201.2090258546807
 30
0.0
 40
2.799999999999999
100
AcDbArc
 50
180.0
 51
0.0
  0
ARC
  5
19F7
330
1F
100
AcDbEntity
  8
AM_VIS
100
AcDbCircle
 10
401.8922488696781
 20
201.2090258546807
 30
0.0
 40
2.099999999999999
100
AcDbArc
 50
180.0
 51
0.0
  0
ARC
  5
19F8
330
1F
100
AcDbEntity
  8
AM_VIS
100
AcDbCircle
 10
401.8922488696781
 20
208.2090258546807
 30
0.0
 40
2.1
100
AcDbArc
 50
0.0
 51
180.0
  0
LINE
  5
19F9
330
1F
100
AcDbEntity
  8
AM_VIS
100
AcDbLine
 10
396.3922488696781
 20
286.9889956207452
 30
0.0
 11
396.3922488696781
 21
287.2889956207451
 31
0.0
  0
LINE
  5
19FA
330
1F
100
AcDbEntity
  8
AM_VIS
100
AcDbLine
 10
396.1922488696781
 20
286.3889956207452
 30
0.0
 11
399.0922488696782
 21
286.3889956207452
 31
0.0
  0
LINE
  5
19FB
330
1F
100
AcDbEntity
  8
AM_VIS
100
AcDbLine
 10
404.6922488696781
 20
286.3889956207452
 30
0.0
 11
413.6922488696781
 21
286.3889956207452
 31
0.0
  0
LINE
  5
19FC
330
1F
100
AcDbEntity
  8
AM_VIS
100
AcDbLine
 10
418.092248869678
 20
286.3889956207452
 30
0.0
 11
422.3922488696781
 21
286.3889956207452
 31
0.0
  0
LINE
  5
19FD
330
1F
100
AcDbEntity
  8
AM_VIS
100
AcDbLine
 10
422.3922488696781
 20
286.3889956207452
 30
0.0
 11
422.3922488696781
 21
287.2889956207451
 31
0.0
  0
LINE
  5
19FE
330
1F
100
AcDbEntity
  8
AM_VIS
100
AcDbLine
 10
412.8922488696781
 20
287.2889956207451
 30
0.0
 11
412.8922488696781
 21
287.1889956207451
 31
0.0
  0
LINE
  5
19FF
330
1F
100
AcDbEntity
  8
AM_VIS
100
AcDbLine
 10
418.8922488696781
 20
287.1889956207451
 30
0.0
 11
418.8922488696781
 21
287.2889956207451
 31
0.0
  0
LINE
  5
1A00
330
1F
100
AcDbEntity
  8
AM_VIS
100
AcDbLine
 10
413.6922488696781
 20
286.3889956207452
 30
0.0
 11
418.092248869678
 21
286.3889956207452
 31
0.0
  0
ARC
  5
1A01
330
1F
100
AcDbEntity
  8
AM_VIS
100
AcDbCircle
 10
418.092248869678
 20
287.1889956207451
 30
0.0
 40
0.8000000000000005
100
AcDbArc
 50
270.0
 51
0.0
  0
ARC
  5
1A02
330
1F
100
AcDbEntity
  8
AM_VIS
100
AcDbCircle
 10
413.6922488696781
 20
287.1889956207451
 30
0.0
 40
0.7999999999999999
100
AcDbArc
 50
180.0
 51
270.0
  0
LINE
  5
1A03
330
1F
100
AcDbEntity
  8
AM_VIS
100
AcDbLine
 10
396.3922488696781
 20
288.4889956207452
 30
0.0
 11
396.3922488696781
 21
287.2889956207451
 31
0.0
  0
LINE
  5
1A04
330
1F
100
AcDbEntity
  8
AM_VIS
100
AcDbLine
 10
397.3922488696782
 20
288.4889956207452
 30
0.0
 11
421.3922488696781
 21
288.4889956207452
 31
0.0
  0
LINE
  5
1A05
330
1F
100
AcDbEntity
  8
AM_VIS
100
AcDbLine
 10
397.3922488696782
 20
287.2889956207451
 30
0.0
 11
421.3922488696781
 21
287.2889956207451
 31
0.0
  0
LINE
  5
1A06
330
1F
100
AcDbEntity
  8
AM_VIS
100
AcDbLine
 10
422.3922488696781
 20
287.2889956207451
 30
0.0
 11
422.3922488696781
 21
288.4889956207452
 31
0.0
  0
LINE
  5
1A07
330
1F
100
AcDbEntity
  8
AM_VIS
100
AcDbLine
 10
425.6128371049722
 20
285.8713485619217
 30
0.0
 11
439.8628371049722
 21
278.2713485619216
 31
0.0
  0
LINE
  5
1A19
330
1F
100
AcDbEntity
  8
AM_7
  6
AM_ISO08W050x2
100
AcDbLine
 10
210.5892329328812
 20
233.9067679050586
 30
0.0
 11
214.1892329328812
 21
233.9067679050586
 31
0.0
1001
GENIUS_GENOREF_13
1005
1A1D
  0
LINE
  5
1A1A
102
{ACAD_REACTORS
330
1B03
102
}
330
1F
100
AcDbEntity
  8
AM_7
  6
AM_ISO08W050x2
100
AcDbLine
 10
210.5892329328812
 20
233.9067679050586
 30
0.0
 11
210.5892329328812
 21
237.5067679050586
 31
0.0
1001
GENIUS_GENOREF_13
1005
1A1D
  0
LINE
  5
1A1B
330
1F
100
AcDbEntity
  8
AM_7
  6
AM_ISO08W050x2
100
AcDbLine
 10
210.5892329328812
 20
233.9067679050586
 30
0.0
 11
206.9892329328811
 21
233.9067679050586
 31
0.0
1001
GENIUS_GENOREF_13
1005
1A1D
  0
LINE
  5
1A1C
330
1F
100
AcDbEntity
  8
AM_7
  6
AM_ISO08W050x2
100
AcDbLine
 10
210.5892329328812
 20
233.9067679050586
 30
0.0
 11
210.5892329328812
 21
230.3067679050585
 31
0.0
1001
GENIUS_GENOREF_13
1005
1A1D
  0
POINT
  5
1A1D
330
1F
100
AcDbEntity
  8
0
 60
     1
100
AcDbPoint
 10
0.0
 20
0.0
 30
0.0
1001
GENIUS_GENODEF_13
1002
{
1000
HIER
1070
    10
1002
}
1002
{
1000
MANEDIT
1070
     0
1002
}
1002
{
1000
NOSEL
1070
     0
1002
}
1002
{
1000
BEHIND
1070
     0
1002
}
1002
{
1000
OTHER
1070
     0
1002
}
1002
{
1000
REACTOR
1002
}
1001
GENIUS_GENOBJ-N-CRS_13
1002
{
1000
OWNER
1000
GEN
1002
}
1001
GENIUS_GENOENT_13
1002
{
1000
MYREF
1005
1A1D
1002
}
1002
{
1000
GRP
1005
0
1002
}
1001
GENIUS_GENOLIS_13
1002
{
1000
ENT
1005
1A1C
1005
1A1B
1005
1A1A
1005
1A19
1002
}
  0
LINE
  5
1A2B
330
1F
100
AcDbEntity
  8
AM_7
  6
AM_ISO08W050x2
100
AcDbLine
 10
262.5892329328812
 20
233.9067679050586
 30
0.0
 11
266.1892329328812
 21
233.9067679050586
 31
0.0
1001
GENIUS_GENOREF_13
1005
1A2F
  0
LINE
  5
1A2C
102
{ACAD_REACTORS
330
1B03
102
}
330
1F
100
AcDbEntity
  8
AM_7
  6
AM_ISO08W050x2
100
AcDbLine
 10
262.5892329328812
 20
233.9067679050586
 30
0.0
 11
262.5892329328812
 21
237.5067679050586
 31
0.0
1001
GENIUS_GENOREF_13
1005
1A2F
  0
LINE
  5
1A2D
330
1F
100
AcDbEntity
  8
AM_7
  6
AM_ISO08W050x2
100
AcDbLine
 10
262.5892329328812
 20
233.9067679050586
 30
0.0
 11
258.9892329328811
 21
233.9067679050586
 31
0.0
1001
GENIUS_GENOREF_13
1005
1A2F
  0
LINE
  5
1A2E
330
1F
100
AcDbEntity
  8
AM_7
  6
AM_ISO08W050x2
100
AcDbLine
 10
262.5892329328812
 20
233.9067679050586
 30
0.0
 11
262.5892329328812
 21
230.3067679050585
 31
0.0
1001
GENIUS_GENOREF_13
1005
1A2F
  0
POINT
  5
1A2F
330
1F
100
AcDbEntity
  8
0
 60
     1
100
AcDbPoint
 10
0.0
 20
0.0
 30
0.0
1001
GENIUS_GENOENT_13
1002
{
1000
MYREF
1005
1A2F
1002
}
1002
{
1000
GRP
1005
0
1002
}
1001
GENIUS_GENOBJ-N-CRS_13
1002
{
1000
OWNER
1000
GEN
1002
}
1001
GENIUS_GENOLIS_13
1002
{
1000
ENT
1005
1A2E
1005
1A2D
1005
1A2C
1005
1A2B
1002
}
1001
GENIUS_GENODEF_13
1002
{
1000
HIER
1070
    10
1002
}
1002
{
1000
MANEDIT
1070
     0
1002
}
1002
{
1000
NOSEL
1070
     0
1002
}
1002
{
1000
BEHIND
1070
     0
1002
}
1002
{
1000
OTHER
1070
     0
1002
}
1002
{
1000
REACTOR
1002
}
  0
LINE
  5
1A3D
330
1F
100
AcDbEntity
  8
AM_7
  6
AM_ISO08W050x2
100
AcDbLine
 10
226.5892329328811
 20
199.4067679050586
 30
0.0
 11
230.1892329328812
 21
199.4067679050586
 31
0.0
1001
GENIUS_GENOREF_13
1005
1A41
  0
LINE
  5
1A3E
330
1F
100
AcDbEntity
  8
AM_7
  6
AM_ISO08W050x2
100
AcDbLine
 10
226.5892329328811
 20
199.4067679050586
 30
0.0
 11
226.5892329328811
 21
203.0067679050586
 31
0.0
1001
GENIUS_GENOREF_13
1005
1A41
  0
LINE
  5
1A3F
330
1F
100
AcDbEntity
  8
AM_7
  6
AM_ISO08W050x2
100
AcDbLine
 10
226.5892329328811
 20
199.4067679050586
 30
0.0
 11
222.9892329328811
 21
199.4067679050586
 31
0.0
1001
GENIUS_GENOREF_13
1005
1A41
  0
LINE
  5
1A40
330
1F
100
AcDbEntity
  8
AM_7
  6
AM_ISO08W050x2
100
AcDbLine
 10
226.5892329328811
 20
199.4067679050586
 30
0.0
 11
226.5892329328811
 21
195.8067679050586
 31
0.0
1001
GENIUS_GENOREF_13
1005
1A41
  0
POINT
  5
1A41
330
1F
100
AcDbEntity
  8
0
 60
     1
100
AcDbPoint
 10
0.0
 20
0.0
 30
0.0
1001
GENIUS_GENODEF_13
1002
{
1000
HIER
1070
    10
1002
}
1002
{
1000
MANEDIT
1070
     0
1002
}
1002
{
1000
NOSEL
1070
     0
1002
}
1002
{
1000
BEHIND
1070
     0
1002
}
1002
{
1000
OTHER
1070
     0
1002
}
1002
{
1000
REACTOR
1002
}
1001
GENIUS_GENOENT_13
1002
{
1000
MYREF
1005
1A41
1002
}
1002
{
1000
GRP
1005
0
1002
}
1001
GENIUS_GENOBJ-N-CRS_13
1002
{
1000
OWNER
1000
GEN
1002
}
1001
GENIUS_GENOLIS_13
1002
{
1000
ENT
1005
1A40
1005
1A3F
1005
1A3E
1005
1A3D
1002
}
  0
LINE
  5
1A4F
330
1F
100
AcDbEntity
  8
AM_7
  6
AM_ISO08W050x2
100
AcDbLine
 10
246.5892329328811
 20
199.4067679050586
 30
0.0
 11
250.1892329328812
 21
199.4067679050586
 31
0.0
1001
GENIUS_GENOREF_13
1005
1A53
  0
LINE
  5
1A50
330
1F
100
AcDbEntity
  8
AM_7
  6
AM_ISO08W050x2
100
AcDbLine
 10
246.5892329328811
 20
199.4067679050586
 30
0.0
 11
246.5892329328811
 21
203.0067679050586
 31
0.0
1001
GENIUS_GENOREF_13
1005
1A53
  0
LINE
  5
1A51
330
1F
100
AcDbEntity
  8
AM_7
  6
AM_ISO08W050x2
100
AcDbLine
 10
246.5892329328811
 20
199.4067679050586
 30
0.0
 11
242.9892329328811
 21
199.4067679050586
 31
0.0
1001
GENIUS_GENOREF_13
1005
1A53
  0
LINE
  5
1A52
330
1F
100
AcDbEntity
  8
AM_7
  6
AM_ISO08W050x2
100
AcDbLine
 10
246.5892329328811
 20
199.4067679050586
 30
0.0
 11
246.5892329328811
 21
195.8067679050586
 31
0.0
1001
GENIUS_GENOREF_13
1005
1A53
  0
POINT
  5
1A53
330
1F
100
AcDbEntity
  8
0
 60
     1
100
AcDbPoint
 10
0.0
 20
0.0
 30
0.0
1001
GENIUS_GENOLIS_13
1002
{
1000
ENT
1005
1A52
1005
1A51
1005
1A50
1005
1A4F
1002
}
1001
GENIUS_GENOENT_13
1002
{
1000
MYREF
1005
1A53
1002
}
1002
{
1000
GRP
1005
0
1002
}
1001
GENIUS_GENODEF_13
1002
{
1000
HIER
1070
    10
1002
}
1002
{
1000
MANEDIT
1070
     0
1002
}
1002
{
1000
NOSEL
1070
     0
1002
}
1002
{
1000
BEHIND
1070
     0
1002
}
1002
{
1000
OTHER
1070
     0
1002
}
1002
{
1000
REACTOR
1002
}
1001
GENIUS_GENOBJ-N-CRS_13
1002
{
1000
OWNER
1000
GEN
1002
}
  0
LINE
  5
1A61
330
1F
100
AcDbEntity
  8
AM_7
  6
AM_ISO08W050x2
100
AcDbLine
 10
434.8922488696781
 20
263.4889956207452
 30
0.0
 11
438.4922488696782
 21
263.4889956207452
 31
0.0
1001
GENIUS_GENOREF_13
1005
1A65
  0
LINE
  5
1A62
102
{ACAD_REACTORS
330
1B79
102
}
330
1F
100
AcDbEntity
  8
AM_7
  6
AM_ISO08W050x2
100
AcDbLine
 10
434.8922488696781
 20
263.4889956207452
 30
0.0
 11
434.8922488696781
 21
267.0889956207452
 31
0.0
1001
GENIUS_GENOREF_13
1005
1A65
  0
LINE
  5
1A63
102
{ACAD_REACTORS
330
1B9F
102
}
330
1F
100
AcDbEntity
  8
AM_7
  6
AM_ISO08W050x2
100
AcDbLine
 10
434.8922488696781
 20
263.4889956207452
 30
0.0
 11
431.2922488696781
 21
263.4889956207452
 31
0.0
1001
GENIUS_GENOREF_13
1005
1A65
  0
LINE
  5
1A64
330
1F
100
AcDbEntity
  8
AM_7
  6
AM_ISO08W050x2
100
AcDbLine
 10
434.8922488696781
 20
263.4889956207452
 30
0.0
 11
434.8922488696781
 21
259.8889956207452
 31
0.0
1001
GENIUS_GENOREF_13
1005
1A65
  0
POINT
  5
1A65
330
1F
100
AcDbEntity
  8
0
 60
     1
100
AcDbPoint
 10
0.0
 20
0.0
 30
0.0
1001
GENIUS_GENOLIS_13
1002
{
1000
ENT
1005
1A64
1005
1A63
1005
1A62
1005
1A61
1002
}
1001
GENIUS_GENOENT_13
1002
{
1000
MYREF
1005
1A65
1002
}
1002
{
1000
GRP
1005
0
1002
}
1001
GENIUS_GENODEF_13
1002
{
1000
HIER
1070
    10
1002
}
1002
{
1000
MANEDIT
1070
     0
1002
}
1002
{
1000
NOSEL
1070
     0
1002
}
1002
{
1000
BEHIND
1070
     0
1002
}
1002
{
1000
OTHER
1070
     0
1002
}
1002
{
1000
REACTOR
1002
}
1001
GENIUS_GENOBJ-N-CRS_13
1002
{
1000
OWNER
1000
GEN
1002
}
  0
LINE
  5
1A73
330
1F
100
AcDbEntity
  8
AM_7
  6
AM_ISO08W050x2
100
AcDbLine
 10
388.8922488696782
 20
291.4889956207452
 30
0.0
 11
392.4922488696782
 21
291.4889956207452
 31
0.0
1001
GENIUS_GENOREF_13
1005
1A77
  0
LINE
  5
1A74
102
{ACAD_REACTORS
330
1B79
102
}
330
1F
100
AcDbEntity
  8
AM_7
  6
AM_ISO08W050x2
100
AcDbLine
 10
388.8922488696782
 20
291.4889956207452
 30
0.0
 11
388.8922488696782
 21
295.0889956207452
 31
0.0
1001
GENIUS_GENOREF_13
1005
1A77
  0
LINE
  5
1A75
102
{ACAD_REACTORS
330
1B9F
102
}
330
1F
100
AcDbEntity
  8
AM_7
  6
AM_ISO08W050x2
100
AcDbLine
 10
388.8922488696782
 20
291.4889956207452
 30
0.0
 11
385.2922488696781
 21
291.4889956207452
 31
0.0
1001
GENIUS_GENOREF_13
1005
1A77
  0
LINE
  5
1A76
330
1F
100
AcDbEntity
  8
AM_7
  6
AM_ISO08W050x2
100
AcDbLine
 10
388.8922488696782
 20
291.4889956207452
 30
0.0
 11
388.8922488696782
 21
287.8889956207451
 31
0.0
1001
GENIUS_GENOREF_13
1005
1A77
  0
POINT
  5
1A77
330
1F
100
AcDbEntity
  8
0
 60
     1
100
AcDbPoint
 10
0.0
 20
0.0
 30
0.0
1001
GENIUS_GENODEF_13
1002
{
1000
HIER
1070
    10
1002
}
1002
{
1000
MANEDIT
1070
     0
1002
}
1002
{
1000
NOSEL
1070
     0
1002
}
1002
{
1000
BEHIND
1070
     0
1002
}
1002
{
1000
OTHER
1070
     0
1002
}
1002
{
1000
REACTOR
1002
}
1001
GENIUS_GENOLIS_13
1002
{
1000
ENT
1005
1A76
1005
1A75
1005
1A74
1005
1A73
1002
}
1001
GENIUS_GENOENT_13
1002
{
1000
MYREF
1005
1A77
1002
}
1002
{
1000
GRP
1005
0
1002
}
1001
GENIUS_GENOBJ-N-CRS_13
1002
{
1000
OWNER
1000
GEN
1002
}
  0
LINE
  5
1A85
330
1F
100
AcDbEntity
  8
AM_7
  6
AM_ISO08W050x2
100
AcDbLine
 10
401.8922488696781
 20
221.2090258546807
 30
0.0
 11
405.4922488696782
 21
221.2090258546807
 31
0.0
1001
GENIUS_GENOREF_13
1005
1A89
  0
LINE
  5
1A86
330
1F
100
AcDbEntity
  8
AM_7
  6
AM_ISO08W050x2
100
AcDbLine
 10
401.8922488696781
 20
221.2090258546807
 30
0.0
 11
401.8922488696781
 21
224.8090258546807
 31
0.0
1001
GENIUS_GENOREF_13
1005
1A89
  0
LINE
  5
1A87
330
1F
100
AcDbEntity
  8
AM_7
  6
AM_ISO08W050x2
100
AcDbLine
 10
401.8922488696781
 20
221.2090258546807
 30
0.0
 11
398.2922488696782
 21
221.2090258546807
 31
0.0
1001
GENIUS_GENOREF_13
1005
1A89
  0
LINE
  5
1A88
330
1F
100
AcDbEntity
  8
AM_7
  6
AM_ISO08W050x2
100
AcDbLine
 10
401.8922488696781
 20
221.2090258546807
 30
0.0
 11
401.8922488696781
 21
217.6090258546807
 31
0.0
1001
GENIUS_GENOREF_13
1005
1A89
  0
POINT
  5
1A89
330
1F
100
AcDbEntity
  8
0
 60
     1
100
AcDbPoint
 10
0.0
 20
0.0
 30
0.0
1001
GENIUS_GENODEF_13
1002
{
1000
HIER
1070
    10
1002
}
1002
{
1000
MANEDIT
1070
     0
1002
}
1002
{
1000
NOSEL
1070
     0
1002
}
1002
{
1000
BEHIND
1070
     0
1002
}
1002
{
1000
OTHER
1070
     0
1002
}
1002
{
1000
REACTOR
1002
}
1001
GENIUS_GENOLIS_13
1002
{
1000
ENT
1005
1A88
1005
1A87
1005
1A86
1005
1A85
1002
}
1001
GENIUS_GENOENT_13
1002
{
1000
MYREF
1005
1A89
1002
}
1002
{
1000
GRP
1005
0
1002
}
1001
GENIUS_GENOBJ-N-CRS_13
1002
{
1000
OWNER
1000
GEN
1002
}
  0
LINE
  5
1A97
330
1F
100
AcDbEntity
  8
AM_7
  6
AM_ISO08W050x2
100
AcDbLine
 10
401.8922488696781
 20
208.2090258546807
 30
0.0
 11
406.192248869678
 21
208.2090258546807
 31
0.0
1001
GENIUS_GENOREF_13
1005
1A9B
  0
LINE
  5
1A98
330
1F
100
AcDbEntity
  8
AM_7
  6
AM_ISO08W050x2
100
AcDbLine
 10
401.8922488696781
 20
208.2090258546807
 30
0.0
 11
401.8922488696781
 21
212.5090258546807
 31
0.0
1001
GENIUS_GENOREF_13
1005
1A9B
  0
LINE
  5
1A99
330
1F
100
AcDbEntity
  8
AM_7
  6
AM_ISO08W050x2
100
AcDbLine
 10
401.8922488696781
 20
208.2090258546807
 30
0.0
 11
397.5922488696782
 21
208.2090258546807
 31
0.0
1001
GENIUS_GENOREF_13
1005
1A9B
  0
LINE
  5
1A9A
330
1F
100
AcDbEntity
  8
AM_7
  6
AM_ISO08W050x2
100
AcDbLine
 10
401.8922488696781
 20
208.2090258546807
 30
0.0
 11
401.8922488696781
 21
203.9090258546807
 31
0.0
1001
GENIUS_GENOREF_13
1005
1A9B
  0
POINT
  5
1A9B
330
1F
100
AcDbEntity
  8
0
 60
     1
100
AcDbPoint
 10
0.0
 20
0.0
 30
0.0
1001
GENIUS_GENOBJ-N-CRS_13
1002
{
1000
OWNER
1000
GEN
1002
}
1001
GENIUS_GENODEF_13
1002
{
1000
HIER
1070
    10
1002
}
1002
{
1000
MANEDIT
1070
     0
1002
}
1002
{
1000
NOSEL
1070
     0
1002
}
1002
{
1000
BEHIND
1070
     0
1002
}
1002
{
1000
OTHER
1070
     0
1002
}
1002
{
1000
REACTOR
1002
}
1001
GENIUS_GENOLIS_13
1002
{
1000
ENT
1005
1A9A
1005
1A99
1005
1A98
1005
1A97
1002
}
1001
GENIUS_GENOENT_13
1002
{
1000
MYREF
1005
1A9B
1002
}
1002
{
1000
GRP
1005
0
1002
}
  0
LINE
  5
1AA9
330
1F
100
AcDbEntity
  8
AM_7
  6
AM_ISO08W050x2
100
AcDbLine
 10
401.8922488696781
 20
201.2090258546807
 30
0.0
 11
406.192248869678
 21
201.2090258546807
 31
0.0
1001
GENIUS_GENOREF_13
1005
1AAD
  0
LINE
  5
1AAA
330
1F
100
AcDbEntity
  8
AM_7
  6
AM_ISO08W050x2
100
AcDbLine
 10
401.8922488696781
 20
201.2090258546807
 30
0.0
 11
401.8922488696781
 21
205.5090258546807
 31
0.0
1001
GENIUS_GENOREF_13
1005
1AAD
  0
LINE
  5
1AAB
330
1F
100
AcDbEntity
  8
AM_7
  6
AM_ISO08W050x2
100
AcDbLine
 10
401.8922488696781
 20
201.2090258546807
 30
0.0
 11
397.5922488696782
 21
201.2090258546807
 31
0.0
1001
GENIUS_GENOREF_13
1005
1AAD
  0
LINE
  5
1AAC
330
1F
100
AcDbEntity
  8
AM_7
  6
AM_ISO08W050x2
100
AcDbLine
 10
401.8922488696781
 20
201.2090258546807
 30
0.0
 11
401.8922488696781
 21
196.9090258546807
 31
0.0
1001
GENIUS_GENOREF_13
1005
1AAD
  0
POINT
  5
1AAD
330
1F
100
AcDbEntity
  8
0
 60
     1
100
AcDbPoint
 10
0.0
 20
0.0
 30
0.0
1001
GENIUS_GENOENT_13
1002
{
1000
MYREF
1005
1AAD
1002
}
1002
{
1000
GRP
1005
0
1002
}
1001
GENIUS_GENOBJ-N-CRS_13
1002
{
1000
OWNER
1000
GEN
1002
}
1001
GENIUS_GENODEF_13
1002
{
1000
HIER
1070
    10
1002
}
1002
{
1000
MANEDIT
1070
     0
1002
}
1002
{
1000
NOSEL
1070
     0
1002
}
1002
{
1000
BEHIND
1070
     0
1002
}
1002
{
1000
OTHER
1070
     0
1002
}
1002
{
1000
REACTOR
1002
}
1001
GENIUS_GENOLIS_13
1002
{
1000
ENT
1005
1AAC
1005
1AAB
1005
1AAA
1005
1AA9
1002
}
  0
LINE
  5
1ABB
330
1F
100
AcDbEntity
  8
AM_7
  6
AM_ISO08W050x2
100
AcDbLine
 10
401.8922488696781
 20
188.2090258546807
 30
0.0
 11
406.192248869678
 21
188.2090258546807
 31
0.0
1001
GENIUS_GENOREF_13
1005
1ABF
  0
LINE
  5
1ABC
330
1F
100
AcDbEntity
  8
AM_7
  6
AM_ISO08W050x2
100
AcDbLine
 10
401.8922488696781
 20
188.2090258546807
 30
0.0
 11
401.8922488696781
 21
192.5090258546807
 31
0.0
1001
GENIUS_GENOREF_13
1005
1ABF
  0
LINE
  5
1ABD
330
1F
100
AcDbEntity
  8
AM_7
  6
AM_ISO08W050x2
100
AcDbLine
 10
401.8922488696781
 20
188.2090258546807
 30
0.0
 11
397.5922488696782
 21
188.2090258546807
 31
0.0
1001
GENIUS_GENOREF_13
1005
1ABF
  0
LINE
  5
1ABE
330
1F
100
AcDbEntity
  8
AM_7
  6
AM_ISO08W050x2
100
AcDbLine
 10
401.8922488696781
 20
188.2090258546807
 30
0.0
 11
401.8922488696781
 21
183.9090258546807
 31
0.0
1001
GENIUS_GENOREF_13
1005
1ABF
  0
POINT
  5
1ABF
330
1F
100
AcDbEntity
  8
0
 60
     1
100
AcDbPoint
 10
0.0
 20
0.0
 30
0.0
1001
GENIUS_GENOENT_13
1002
{
1000
MYREF
1005
1ABF
1002
}
1002
{
1000
GRP
1005
0
1002
}
1001
GENIUS_GENOBJ-N-CRS_13
1002
{
1000
OWNER
1000
GEN
1002
}
1001
GENIUS_GENOLIS_13
1002
{
1000
ENT
1005
1ABE
1005
1ABD
1005
1ABC
1005
1ABB
1002
}
1001
GENIUS_GENODEF_13
1002
{
1000
HIER
1070
    10
1002
}
1002
{
1000
MANEDIT
1070
     0
1002
}
1002
{
1000
NOSEL
1070
     0
1002
}
1002
{
1000
BEHIND
1070
     0
1002
}
1002
{
1000
OTHER
1070
     0
1002
}
1002
{
1000
REACTOR
1002
}
  0
DIMENSION
  5
1ACF
102
{ACAD_XDICTIONARY
360
1ADC
102
}
102
{ACAD_REACTORS
330
1ADD
102
}
330
1F
100
AcDbEntity
  8
AM_5
100
AcDbDimension
  2
*D14
 10
269.5892329328811
 20
286.65074200635
 30
0.0
 11
236.5892329328811
 21
289.10074200635
 31
0.0
 70
    32
 71
     5
 42
66.0
  3
AM_ISO$0
100
AcDbAlignedDimension
 13
203.5892329328811
 23
279.0736852173088
 33
0.0
 14
269.5892329328811
 24
279.0736852173088
 34
0.0
100
AcDbRotatedDimension
1001
ACAD
1000
DSTYLE
1002
{
1070
    40
1040
1.0
1070
   144
1040
1.0
1070
   272
1070
     8
1002
}
  0
DIMENSION
  5
1AF5
102
{ACAD_XDICTIONARY
360
1B02
102
}
102
{ACAD_REACTORS
330
1B03
102
}
330
1F
100
AcDbEntity
  8
AM_5
100
AcDbDimension
  2
*D15
 10
262.5892329328812
 20
249.5067679050586
 30
0.0
 11
236.5892329328811
 21
251.9571123932476
 31
0.0
 70
    32
 71
     5
 42
52.0
  3
AM_ISO$0
100
AcDbAlignedDimension
 13
210.5892329328812
 23
237.5067679050586
 33
0.0
 14
262.5892329328812
 24
237.5067679050586
 34
0.0
100
AcDbRotatedDimension
1001
ACAD
1000
DSTYLE
1002
{
1070
    40
1040
1.0
1070
   144
1040
1.0
1070
   272
1070
     8
1002
}
  0
DIMENSION
  5
1B1B
102
{ACAD_XDICTIONARY
360
1B28
102
}
102
{ACAD_REACTORS
330
1B29
102
}
330
1F
100
AcDbEntity
  8
AM_5
100
AcDbDimension
  2
*D16
 10
193.0892329328811
 20
240.9067679050586
 30
0.0
 11
190.6392329328811
 21
217.4067679050586
 31
0.0
 70
    32
 71
     5
 42
47.0
  3
AM_ISO$0
100
AcDbAlignedDimension
 13
222.7892329328811
 23
193.9067679050586
 33
0.0
 14
205.0892329328811
 24
240.9067679050586
 34
0.0
 50
90.0
100
AcDbRotatedDimension
1001
ACAD
1000
DSTYLE
1002
{
1070
    40
1040
1.0
1070
   144
1040
1.0
1070
   272
1070
     8
1002
}
  0
DIMENSION
  5
1B6B
102
{ACAD_XDICTIONARY
360
1B78
102
}
102
{ACAD_REACTORS
330
1B79
102
}
330
1F
100
AcDbEntity
  8
AM_5
100
AcDbDimension
  2
*D18
 10
434.8922488696781
 20
307.0889956207452
 30
0.0
 11
411.8922488696781
 21
309.5389956207452
 31
0.0
 70
    32
 71
     5
 42
46.0
  3
AM_ISO$0
100
AcDbAlignedDimension
 13
388.8922488696782
 23
295.0889956207452
 33
0.0
 14
434.8922488696781
 24
267.0889956207452
 34
0.0
100
AcDbRotatedDimension
1001
ACAD
1000
DSTYLE
1002
{
1070
    40
1040
1.0
1070
   144
1040
1.0
1070
   272
1070
     8
1002
}
  0
DIMENSION
  5
1B91
102
{ACAD_XDICTIONARY
360
1B9E
102
}
102
{ACAD_REACTORS
330
1B9F
102
}
330
1F
100
AcDbEntity
  8
AM_5
100
AcDbDimension
  2
*D19
 10
373.2922488696782
 20
263.4889956207453
 30
0.0
 11
370.8419043814891
 21
277.4889956207453
 31
0.0
 70
    32
 71
     5
 42
28.0
  3
AM_ISO$0
100
AcDbAlignedDimension
 13
385.2922488696781
 23
291.4889956207452
 33
0.0
 14
431.2922488696781
 24
263.4889956207452
 34
0.0
 50
90.0
100
AcDbRotatedDimension
1001
ACAD
1000
DSTYLE
1002
{
1070
    40
1040
1.0
1070
   144
1040
1.0
1070
   272
1070
     8
1002
}
  0
DIMENSION
  5
1BB7
330
1F
100
AcDbEntity
  8
AM_5
100
AcDbDimension
  2
*D20
 10
445.9225129237893
 20
157.9090258546807
 30
0.0
 11
443.4721684356002
 21
166.8141292011374
 31
0.0
 70
    32
 71
     5
 42
1.199999999999988
  3
AM_ISO$0
100
AcDbAlignedDimension
 13
440.3922488696781
 23
156.7090258546807
 33
0.0
 14
440.3922488696781
 24
157.9090258546807
 34
0.0
 50
90.0
100
AcDbRotatedDimension
1001
ACAD
1000
DSTYLE
1002
{
1070
    40
1040
1.0
1070
   144
1040
1.0
1070
   272
1070
     8
1002
}
  0
DIMENSION
  5
1BE1
102
{ACAD_XDICTIONARY
360
1BEE
102
}
102
{ACAD_REACTORS
330
1BEF
102
}
330
1F
100
AcDbEntity
  8
AM_5
100
AcDbDimension
  2
*D21
 10
452.3922488696781
 20
233.2090258546807
 30
0.0
 11
449.942248869678
 21
194.9590258546807
 31
0.0
 70
    32
 71
     5
 42
76.5
  3
AM_ISO$0
100
AcDbAlignedDimension
 13
440.3922488696781
 23
156.7090258546807
 33
0.0
 14
421.3922488696781
 24
233.2090258546807
 34
0.0
 50
90.0
100
AcDbRotatedDimension
1001
ACAD
1000
DSTYLE
1002
{
1070
    40
1040
1.0
1070
   144
1040
1.0
1070
   272
1070
     8
1002
}
  0
DIMENSION
  5
1C00
102
{ACAD_XDICTIONARY
360
1C0C
102
}
102
{ACAD_REACTORS
330
1C0D
102
}
330
1F
100
AcDbEntity
  8
AM_5
100
AcDbDimension
  2
*D22
 10
261.3146611444136
 20
232.237796138957
 30
0.0
 11
279.4829720287782
 21
246.2078790086483
 31
0.0
 70
   163
  1
2-<>
 71
     5
 42
4.2000000000005
  3
AM_ISO$3
100
AcDbDiametricDimension
 15
263.8638047213488
 25
235.5757396711597
 35
0.0
 40
0.0
1001
ACAD
1000
DSTYLE
1002
{
1070
    40
1040
1.0
1070
   144
1040
1.0
1070
   272
1070
     8
1002
}
  0
DIMENSION
  5
1C20
102
{ACAD_XDICTIONARY
360
1C29
102
}
102
{ACAD_REACTORS
330
1C2A
102
}
330
1F
100
AcDbEntity
  8
AM_5
100
AcDbDimension
  2
*D23
 10
390.4025917142118
 20
290.0299327393154
 30
0.0
 11
368.812826358809
 21
303.6417570296044
 31
0.0
 70
   163
  1
2-<>
 71
     5
 42
4.200000000000017
  3
AM_ISO$3
100
AcDbDiametricDimension
 15
387.3819060251445
 25
292.948058502175
 35
0.0
 40
0.0
1001
ACAD
1000
DSTYLE
1002
{
1070
    40
1040
1.0
1070
   144
1040
1.0
1070
   272
1070
     8
1002
}
  0
DIMENSION
  5
1C72
102
{ACAD_XDICTIONARY
360
1C7F
102
}
102
{ACAD_REACTORS
330
1C80
102
}
330
1F
100
AcDbEntity
  8
AM_5
100
AcDbDimension
  2
*D24
 10
422.3922488696781
 20
244.2090258546807
 30
0.0
 11
409.3922488696781
 21
246.6593703428697
 31
0.0
 70
    32
 71
     5
 42
26.0
  3
AM_ISO$0
100
AcDbAlignedDimension
 13
396.3922488696781
 23
232.2090258546807
 33
0.0
 14
422.3922488696781
 24
232.2090258546807
 34
0.0
100
AcDbRotatedDimension
1001
ACAD
1000
DSTYLE
1002
{
1070
    40
1040
1.0
1070
   144
1040
1.0
1070
   272
1070
     8
1002
}
  0
DIMENSION
  5
1CB6
102
{ACAD_XDICTIONARY
360
1CC3
102
}
102
{ACAD_REACTORS
330
1CC4
102
}
330
1F
100
AcDbEntity
  8
AM_5
100
AcDbDimension
  2
*D25
 10
365.2922488696781
 20
258.4889956207452
 30
0.0
 11
362.8422488696781
 21
277.4889956207453
 31
0.0
 70
    32
 71
     5
 42
38.0
  3
AM_ISO$0
100
AcDbAlignedDimension
 13
384.3922488696782
 23
296.4889956207452
 33
0.0
 14
430.3922488696781
 24
258.4889956207452
 34
0.0
 50
90.0
100
AcDbRotatedDimension
1001
ACAD
1000
DSTYLE
1002
{
1070
    40
1040
1.0
1070
   144
1040
1.0
1070
   272
1070
     8
1002
}
  0
DIMENSION
  5
1CDC
102
{ACAD_XDICTIONARY
360
1CE9
102
}
102
{ACAD_REACTORS
330
1CEA
102
}
330
1F
100
AcDbEntity
  8
AM_5
100
AcDbDimension
  2
*D26
 10
440.3922488696781
 20
315.0889956207449
 30
0.0
 11
411.8922488696781
 21
317.5389956207449
 31
0.0
 70
    32
 71
     5
 42
57.0
  3
AM_ISO$0
100
AcDbAlignedDimension
 13
383.3922488696781
 23
295.4889956207452
 33
0.0
 14
440.3922488696781
 24
277.3889956207451
 34
0.0
100
AcDbRotatedDimension
1001
ACAD
1000
DSTYLE
1002
{
1070
    40
1040
1.0
1070
   144
1040
1.0
1070
   272
1070
     8
1002
}
  0
DIMENSION
  5
1D07
102
{ACAD_XDICTIONARY
360
1D16
102
}
102
{ACAD_REACTORS
330
1D17
102
}
330
1F
100
AcDbEntity
  8
AM_5
100
AcDbDimension
  2
*D27
 10
289.5892329328812
 20
274.0736852173088
 30
0.0
 11
287.1392329328811
 21
276.5736852173089
 31
0.0
 70
    32
 71
     5
 42
5.0
  3
AM_ISO$0
100
AcDbAlignedDimension
 13
269.5892329328811
 23
279.0736852173088
 33
0.0
 14
251.0892329328811
 24
274.0736852173088
 34
0.0
 50
90.0
100
AcDbRotatedDimension
1001
ACAD
1000
DSTYLE
1002
{
1070
    40
1040
1.0
1070
   144
1040
1.0
1070
   272
1070
     8
1002
}
  0
LINE
  5
1F3C
330
1F
100
AcDbEntity
  8
AM_7
  6
AM_ISO08W050x2
100
AcDbLine
 10
494.0882608127439
 20
221.2090258546807
 30
0.0
 11
497.6882608127438
 21
221.2090258546807
 31
0.0
  0
LINE
  5
1F3D
330
1F
100
AcDbEntity
  8
AM_7
  6
AM_ISO08W050x2
100
AcDbLine
 10
493.3263693224468
 20
208.2090258546807
 30
0.0
 11
497.6263693224467
 21
208.2090258546807
 31
0.0
  0
LINE
  5
1F3E
330
1F
100
AcDbEntity
  8
AM_7
  6
AM_ISO08W050x2
100
AcDbLine
 10
493.3263693224468
 20
201.2090258546807
 30
0.0
 11
497.6263693224467
 21
201.2090258546807
 31
0.0
  0
LINE
  5
1F3F
330
1F
100
AcDbEntity
  8
AM_7
  6
AM_ISO08W050x2
100
AcDbLine
 10
493.3263693224468
 20
188.2090258546807
 30
0.0
 11
497.6263693224467
 21
188.2090258546807
 31
0.0
  0
LINE
  5
1F41
330
1F
100
AcDbEntity
  8
AM_7
  6
AM_ISO08W050x2
100
AcDbLine
 10
388.8922488696782
 20
159.2951559684365
 30
0.0
 11
388.8922488696782
 21
155.6951559684365
 31
0.0
  0
LINE
  5
1F6F
330
1F
100
AcDbEntity
  8
AM_7
  6
AM_ISO08W050x2
100
AcDbLine
 10
434.8922488696781
 20
159.0691730903148
 30
0.0
 11
434.8922488696781
 21
155.4691730903148
 31
0.0
  0
DIMENSION
  5
1F8B
102
{ACAD_XDICTIONARY
360
1F9A
102
}
102
{ACAD_REACTORS
330
1F9B
102
}
330
1F
100
AcDbEntity
  8
AM_5
100
AcDbDimension
  2
*D28
 10
281.5892329328812
 20
277.8736852173088
 30
0.0
 11
281.5892329328811
 21
287.9787885637656
 31
0.0
 70
   160
 71
     5
 42
1.199999999999988
  3
AM_ISO$0
100
AcDbAlignedDimension
 13
269.5892329328811
 23
279.0736852173088
 33
0.0
 14
269.5892329328811
 24
277.8736852173088
 34
0.0
 50
90.0
100
AcDbRotatedDimension
1001
ACAD
1000
DSTYLE
1002
{
1070
    40
1040
1.0
1070
   144
1040
1.0
1070
   272
1070
     8
1002
}
  0
LINE
  5
207E
330
1F
100
AcDbEntity
  8
AM_7
  6
AM_ISO08W050x2
100
AcDbLine
 10
210.5892329328812
 20
280.3295555036079
 30
0.0
 11
210.5892329328812
 21
276.7295555036079
 31
0.0
  0
LINE
  5
207F
330
1F
100
AcDbEntity
  8
AM_7
  6
AM_ISO08W050x2
100
AcDbLine
 10
262.5892329328812
 20
280.3295555036079
 30
0.0
 11
262.5892329328812
 21
276.7295555036079
 31
0.0
  0
LINE
  5
2080
330
1F
100
AcDbEntity
  8
AM_7
  6
AM_ISO08W050x2
100
AcDbLine
 10
226.5892329328811
 20
272.9853775052918
 30
0.0
 11
226.5892329328811
 21
276.5853775052918
 31
0.0
  0
LINE
  5
2081
330
1F
100
AcDbEntity
  8
AM_7
  6
AM_ISO08W050x2
100
AcDbLine
 10
246.5892329328811
 20
272.9853775052918
 30
0.0
 11
246.5892329328811
 21
276.5853775052918
 31
0.0
  0
LINE
  5
2083
330
1F
100
AcDbEntity
  8
AM_7
  6
AM_ISO08W050x2
100
AcDbLine
 10
295.6550448478662
 20
233.9067679050586
 30
0.0
 11
299.2550448478662
 21
233.9067679050586
 31
0.0
  0
LINE
  5
20B7
330
1F
100
AcDbEntity
  8
AM_7
  6
AM_ISO08W050x2
100
AcDbLine
 10
291.7476200477555
 20
199.4067679050586
 30
0.0
 11
295.3476200477555
 21
199.4067679050586
 31
0.0
  0
ENDSEC
  0
SECTION
  2
OBJECTS
  0
DICTIONARY
  5
C
330
0
100
AcDbDictionary
281
     1
  3
ACAD_COLOR
350
BE
  3
ACAD_GROUP
350
D
  3
ACAD_LAYOUT
350
1A
  3
ACAD_MATERIAL
350
BD
  3
ACAD_MLINESTYLE
350
17
  3
ACAD_PLOTSETTINGS
350
19
  3
ACAD_PLOTSTYLENAME
350
E
  3
ACAD_TABLESTYLE
350
11A
  3
ACDBHEADERROUNDTRIPXREC
350
20EE
  3
AcDbVariableDictionary
350
94
  3
AcmDictionary
350
5B
  3
AMG
350
41
  3
AMGSNAPSETTINGS
350
1B8
  3
DWGPROPS
350
20ED
  0
DICTIONARY
  5
3F9
330
2
100
AcDbDictionary
280
     1
281
     1
  3
ACAD_LAYERFILTERS
360
5B7
  3
ACAD_LAYERSTATES
360
A7F
  3
ACLYDICTIONARY
360
5B6
  0
DICTIONARY
  5
8F
330
1F
100
AcDbDictionary
280
     1
281
     1
  0
DICTIONARY
  5
1855
330
17D6
100
AcDbDictionary
280
     1
281
     1
  0
DICTIONARY
  5
1ADC
330
1ACF
100
AcDbDictionary
280
     1
281
     1
  3
ACAD_DIMASSOC
360
1ADD
  0
DICTIONARY
  5
1B02
330
1AF5
100
AcDbDictionary
280
     1
281
     1
  3
ACAD_DIMASSOC
360
1B03
  0
DICTIONARY
  5
1B28
330
1B1B
100
AcDbDictionary
280
     1
281
     1
  3
ACAD_DIMASSOC
360
1B29
  0
DICTIONARY
  5
1B78
330
1B6B
100
AcDbDictionary
280
     1
281
     1
  3
ACAD_DIMASSOC
360
1B79
  0
DICTIONARY
  5
1B9E
330
1B91
100
AcDbDictionary
280
     1
281
     1
  3
ACAD_DIMASSOC
360
1B9F
  0
DICTIONARY
  5
1BEE
330
1BE1
100
AcDbDictionary
280
     1
281
     1
  3
ACAD_DIMASSOC
360
1BEF
  0
DICTIONARY
  5
1C0C
330
1C00
100
AcDbDictionary
280
     1
281
     1
  3
ACAD_DIMASSOC
360
1C0D
  0
DICTIONARY
  5
1C29
330
1C20
100
AcDbDictionary
280
     1
281
     1
  3
ACAD_DIMASSOC
360
1C2A
  0
DICTIONARY
  5
1C7F
330
1C72
100
AcDbDictionary
280
     1
281
     1
  3
ACAD_DIMASSOC
360
1C80
  0
DICTIONARY
  5
1CC3
330
1CB6
100
AcDbDictionary
280
     1
281
     1
  3
ACAD_DIMASSOC
360
1CC4
  0
DICTIONARY
  5
1CE9
330
1CDC
100
AcDbDictionary
280
     1
281
     1
  3
ACAD_DIMASSOC
360
1CEA
  0
DICTIONARY
  5
1D16
330
1D07
100
AcDbDictionary
280
     1
281
     1
  3
ACAD_DIMASSOC
360
1D17
  0
DICTIONARY
  5
1F9A
330
1F8B
100
AcDbDictionary
280
     1
281
     1
  3
ACAD_DIMASSOC
360
1F9B
  0
DICTIONARY
  5
BE
102
{ACAD_REACTORS
330
C
102
}
330
C
100
AcDbDictionary
281
     1
  0
DICTIONARY
  5
D
102
{ACAD_REACTORS
330
C
102
}
330
C
100
AcDbDictionary
281
     1
  0
DICTIONARY
  5
1A
102
{ACAD_REACTORS
330
C
102
}
330
C
100
AcDbDictionary
281
     1
  3
Model
350
22
  3
配置1
350
1E
  3
配置2
350
26
  0
DICTIONARY
  5
BD
102
{ACAD_REACTORS
330
C
102
}
330
C
100
AcDbDictionary
281
     1
  0
DICTIONARY
  5
17
102
{ACAD_REACTORS
330
C
102
}
330
C
100
AcDbDictionary
281
     1
  3
Standard
350
18
  0
DICTIONARY
  5
19
102
{ACAD_REACTORS
330
C
102
}
330
C
100
AcDbDictionary
281
     1
  0
ACDBDICTIONARYWDFLT
  5
E
102
{ACAD_REACTORS
330
C
102
}
330
C
100
AcDbDictionary
281
     1
  3
Normal
350
F
100
AcDbDictionaryWithDefault
340
F
  0
DICTIONARY
  5
11A
102
{ACAD_REACTORS
330
C
102
}
330
C
100
AcDbDictionary
281
     1
  3
Standard
350
11B
  0
DICTIONARY
  5
20EE
102
{ACAD_REACTORS
330
C
102
}
330
C
100
AcDbDictionary
281
     1
  0
DICTIONARY
  5
94
102
{ACAD_REACTORS
330
C
102
}
330
C
100
AcDbDictionary
281
     1
  3
CTABLESTYLE
350
138
  3
DIMASSOC
350
96
  3
INDEXCTL
350
95
  3
PROJECTNAME
350
20EB
  0
DICTIONARY
  5
5B
102
{ACAD_REACTORS
330
C
102
}
330
C
100
AcDbDictionary
281
     1
  3
AcmBOM
350
1B5
  3
AcmStdDictionary
350
61
  3
AMDTSECTSYM_ARROWCOLOR
350
123
  0
DICTIONARY
  5
41
102
{ACAD_REACTORS
330
C
102
}
330
C
100
AcDbDictionary
281
     1
  0
DICTIONARY
  5
1B8
102
{ACAD_REACTORS
330
C
102
}
330
C
100
AcDbDictionary
281
     1
  0
XRECORD
  5
20ED
102
{ACAD_REACTORS
330
C
102
}
330
C
100
AcDbXrecord
280
     1
  1
DWGPROPS COOKIE
  2

  3

  4

  6

  7

  8

  9

300
AmdtFileType=84
301
=
302
=
303
=
304
=
305
=
306
=
307
=
308
=
309
=
 40
0.0790563541666667
 41
2454188.339225614
 42
2454188.418610926
  1

 90
        1
  0
DICTIONARY
  5
5B7
102
{ACAD_REACTORS
330
3F9
102
}
330
3F9
100
AcDbDictionary
281
     1
  0
DICTIONARY
  5
A7F
102
{ACAD_REACTORS
330
3F9
102
}
330
3F9
100
AcDbDictionary
281
     1
  0
DICTIONARY
  5
5B6
102
{ACAD_REACTORS
330
3F9
102
}
330
3F9
100
AcDbDictionary
281
     1
1001
ACAD
1000
<All
  0
DIMASSOC
  5
1ADD
102
{ACAD_REACTORS
330
1ADC
102
}
330
1ADC
100
AcDbDimAssoc
330
1ACF
 90
        3
 70
     0
 71
     0
  1
AcDbOsnapPointRef
 72
    13
331
1891
 73
     0
 91
        0
 40
0.0
 10
0.0
 20
0.0
 30
2.000000000000000E+50
 75
     0
  1
AcDbOsnapPointRef
 72
     1
331
1893
 73
     0
 91
        0
 40
0.0
 10
0.0
 20
0.0
 30
2.000000000000000E+50
 75
     0
  0
DIMASSOC
  5
1B03
102
{ACAD_REACTORS
330
1B02
102
}
330
1B02
100
AcDbDimAssoc
330
1AF5
 90
        3
 70
     0
 71
     0
  1
AcDbOsnapPointRef
 72
     1
331
1A1A
 73
     0
 91
        0
 40
0.0
 10
0.0
 20
0.0
 30
2.000000000000000E+50
 75
     0
  1
AcDbOsnapPointRef
 72
     1
331
1A2C
 73
     0
 91
        0
 40
0.0
 10
0.0
 20
0.0
 30
2.000000000000000E+50
 75
     0
  0
DIMASSOC
  5
1B29
102
{ACAD_REACTORS
330
1B28
102
}
330
1B28
100
AcDbDimAssoc
330
1B1B
 90
        3
 70
     0
 71
     0
  1
AcDbOsnapPointRef
 72
     1
331
1876
 73
     0
 91
        0
 40
0.0
 10
0.0
 20
0.0
 30
2.000000000000000E+50
 75
     0
  1
AcDbOsnapPointRef
 72
    13
331
1879
 73
     0
 91
        0
 40
0.0
 10
0.0
 20
0.0
 30
2.000000000000000E+50
 75
     0
  0
DIMASSOC
  5
1B79
102
{ACAD_REACTORS
330
1B78
102
}
330
1B78
100
AcDbDimAssoc
330
1B6B
 90
        3
 70
     0
 71
     0
  1
AcDbOsnapPointRef
 72
     1
331
1A74
 73
     0
 91
        0
 40
0.0
 10
0.0
 20
0.0
 30
2.000000000000000E+50
 75
     0
  1
AcDbOsnapPointRef
 72
     1
331
1A62
 73
     0
 91
        0
 40
0.0
 10
0.0
 20
0.0
 30
2.000000000000000E+50
 75
     0
  0
DIMASSOC
  5
1B9F
102
{ACAD_REACTORS
330
1B9E
102
}
330
1B9E
100
AcDbDimAssoc
330
1B91
 90
        3
 70
     0
 71
     0
  1
AcDbOsnapPointRef
 72
     1
331
1A75
 73
     0
 91
        0
 40
0.0
 10
0.0
 20
0.0
 30
2.000000000000000E+50
 75
     0
  1
AcDbOsnapPointRef
 72
     1
331
1A63
 73
     0
 91
        0
 40
0.0
 10
0.0
 20
0.0
 30
2.000000000000000E+50
 75
     0
  0
DIMASSOC
  5
1BEF
102
{ACAD_REACTORS
330
1BEE
102
}
330
1BEE
100
AcDbDimAssoc
330
1BE1
 90
        3
 70
     0
 71
     0
  1
AcDbOsnapPointRef
 72
    13
331
19E3
 73
     0
 91
        0
 40
0.0
 10
0.0
 20
0.0
 30
2.000000000000000E+50
 75
     0
  1
AcDbOsnapPointRef
 72
     1
331
19EC
 73
     0
 91
        0
 40
0.0
 10
0.0
 20
0.0
 30
2.000000000000000E+50
 75
     0
  0
DIMASSOC
  5
1C0D
102
{ACAD_REACTORS
330
1C0C
102
}
330
1C0C
100
AcDbDimAssoc
330
1C00
 90
        2
 70
     0
 71
     0
  1
AcDbOsnapPointRef
 72
     3
331
186F
 73
     2
 91
        0
 40
0.0
 10
0.0
 20
0.0
 30
0.0
 75
     0
  0
DIMASSOC
  5
1C2A
102
{ACAD_REACTORS
330
1C29
102
}
330
1C29
100
AcDbDimAssoc
330
1C20
 90
        2
 70
     0
 71
     0
  1
AcDbOsnapPointRef
 72
     3
331
1990
 73
     2
 91
        0
 40
0.0
 10
0.0
 20
0.0
 30
0.0
 75
     0
  0
DIMASSOC
  5
1C80
102
{ACAD_REACTORS
330
1C7F
102
}
330
1C7F
100
AcDbDimAssoc
330
1C72
 90
        3
 70
     0
 71
     0
  1
AcDbOsnapPointRef
 72
     1
331
19EB
 73
     0
 91
        0
 40
0.0
 10
0.0
 20
0.0
 30
2.000000000000000E+50
 75
     0
  1
AcDbOsnapPointRef
 72
    13
331
19EC
 73
     0
 91
        0
 40
0.0
 10
0.0
 20
0.0
 30
2.000000000000000E+50
 75
     0
  0
DIMASSOC
  5
1CC4
102
{ACAD_REACTORS
330
1CC3
102
}
330
1CC3
100
AcDbDimAssoc
330
1CB6
 90
        3
 70
     0
 71
     0
  1
AcDbOsnapPointRef
 72
    13
331
1991
 73
     0
 91
        0
 40
0.0
 10
0.0
 20
0.0
 30
2.000000000000000E+50
 75
     0
  1
AcDbOsnapPointRef
 72
     1
331
198B
 73
     0
 91
        0
 40
0.0
 10
0.0
 20
0.0
 30
2.000000000000000E+50
 75
     0
  0
DIMASSOC
  5
1CEA
102
{ACAD_REACTORS
330
1CE9
102
}
330
1CE9
100
AcDbDimAssoc
330
1CDC
 90
        3
 70
     0
 71
     0
  1
AcDbOsnapPointRef
 72
     1
331
1991
 73
     0
 91
        0
 40
0.0
 10
0.0
 20
0.0
 30
2.000000000000000E+50
 75
     0
  1
AcDbOsnapPointRef
 72
    13
331
1989
 73
     0
 91
        0
 40
0.0
 10
0.0
 20
0.0
 30
2.000000000000000E+50
 75
     0
  0
DIMASSOC
  5
1D17
102
{ACAD_REACTORS
330
1D16
102
}
330
1D16
100
AcDbDimAssoc
330
1D07
 90
        3
 70
     0
 71
     0
  1
AcDbOsnapPointRef
 72
     1
331
1893
 73
     0
 91
        0
 40
0.0
 10
0.0
 20
0.0
 30
2.000000000000000E+50
 75
     0
  1
AcDbOsnapPointRef
 72
    13
331
189B
 73
     0
 91
        0
 40
0.0
 10
0.0
 20
0.0
 30
2.000000000000000E+50
 75
     0
  0
DIMASSOC
  5
1F9B
102
{ACAD_REACTORS
330
1F9A
102
}
330
1F9A
100
AcDbDimAssoc
330
1F8B
 90
        3
 70
     0
 71
     0
  1
AcDbOsnapPointRef
 72
     1
331
1893
 73
     0
 91
        0
 40
0.0
 10
0.0
 20
0.0
 30
2.000000000000000E+50
 75
     0
  1
AcDbOsnapPointRef
 72
    13
331
188F
 73
     0
 91
        0
 40
0.0
 10
0.0
 20
0.0
 30
2.000000000000000E+50
 75
     0
  0
LAYOUT
  5
22
102
{ACAD_XDICTIONARY
360
20F1
102
}
102
{ACAD_REACTORS
330
1A
102
}
330
1A
100
AcDbPlotSettings
  1

  2
\\RD\EPSON Stylus C63 Series單色
  4
A4
  6

 40
3.757083177566528
 41
3.757076978683471
 42
3.757080078125
 43
3.757080078125
 44
209.9733276367187
 45
296.9683227539062
 46
0.0
 47
0.0
 48
0.0
 49
0.0
140
0.0
141
0.0
142
1.0
143
0.3405120737814363
 70
 11952
 72
     1
 73
     0
 74
     0
  7
單色出圖.ctb
 75
     0
147
2.936753428137963
148
-2047.07469463503
149
-1261.649717473083
100
AcDbLayout
  1
Model
 70
     1
 71
     0
 10
0.0
 20
0.0
 11
12.0
 21
9.0
 12
0.0
 22
0.0
 32
0.0
 14
0.0
 24
0.0
 34
0.0
 15
0.0
 25
0.0
 35
0.0
146
0.0
 13
0.0
 23
0.0
 33
0.0
 16
1.0
 26
0.0
 36
0.0
 17
0.0
 27
1.0
 37
0.0
 76
     0
330
1F
1001
ACAD_PSEXT
1000
\\RD\EPSON Stylus C63 Series單色
1000
EPSON Stylus C63 Series
1000
\\RD
1000

1070
     0
  0
LAYOUT
  5
1E
102
{ACAD_XDICTIONARY
360
20EF
102
}
102
{ACAD_REACTORS
330
1A
102
}
330
1A
100
AcDbPlotSettings
  1

  2

  4

  6

 40
0.0
 41
0.0
 42
0.0
 43
0.0
 44
0.0
 45
0.0
 46
0.0
 47
0.0
 48
0.0
 49
0.0
140
0.0
141
0.0
142
1.0
143
1.0
 70
   688
 72
     0
 73
     0
 74
     5
  7
單色出圖.ctb
 75
    16
147
1.0
148
0.0
149
0.0
100
AcDbLayout
  1
配置1
 70
     1
 71
     1
 10
0.0
 20
0.0
 11
420.0
 21
297.0
 12
0.0
 22
0.0
 32
0.0
 14
1.000000000000000E+20
 24
1.000000000000000E+20
 34
1.000000000000000E+20
 15
-1.000000000000000E+20
 25
-1.000000000000000E+20
 35
-1.000000000000000E+20
146
0.0
 13
0.0
 23
0.0
 33
0.0
 16
1.0
 26
0.0
 36
0.0
 17
0.0
 27
1.0
 37
0.0
 76
     0
330
1B
  0
LAYOUT
  5
26
102
{ACAD_XDICTIONARY
360
20F3
102
}
102
{ACAD_REACTORS
330
1A
102
}
330
1A
100
AcDbPlotSettings
  1

  2

  4

  6

 40
0.0
 41
0.0
 42
0.0
 43
0.0
 44
0.0
 45
0.0
 46
0.0
 47
0.0
 48
0.0
 49
0.0
140
0.0
141
0.0
142
1.0
143
1.0
 70
   688
 72
     0
 73
     0
 74
     5
  7
單色出圖.ctb
 75
    16
147
1.0
148
0.0
149
0.0
100
AcDbLayout
  1
配置2
 70
     1
 71
     2
 10
0.0
 20
0.0
 11
12.0
 21
9.0
 12
0.0
 22
0.0
 32
0.0
 14
0.0
 24
0.0
 34
0.0
 15
0.0
 25
0.0
 35
0.0
146
0.0
 13
0.0
 23
0.0
 33
0.0
 16
1.0
 26
0.0
 36
0.0
 17
0.0
 27
1.0
 37
0.0
 76
     0
330
23
  0
MLINESTYLE
  5
18
102
{ACAD_REACTORS
330
17
102
}
330
17
100
AcDbMlineStyle
  2
STANDARD
 70
     0
  3

 62
   256
 51
90.0
 52
90.0
 71
     2
 49
0.5
 62
   256
  6
BYLAYER
 49
-0.5
 62
   256
  6
BYLAYER
  0
ACDBPLACEHOLDER
  5
F
102
{ACAD_REACTORS
330
E
102
}
330
E
  0
TABLESTYLE
  5
11B
102
{ACAD_REACTORS
330
11A
102
}
330
11A
100
AcDbTableStyle
  3
Standard
 70
     0
 71
     0
 40
1.5
 41
1.5
280
     0
281
     0
  7
STANDARD
140
4.5
170
     2
 62
     0
 63
     7
283
     0
274
    -2
284
     1
 64
     0
275
    -2
285
     1
 65
     0
276
    -2
286
     1
 66
     0
277
    -2
287
     1
 67
     0
278
    -2
288
     1
 68
     0
279
    -2
289
     1
 69
     0
  7
STANDARD
140
6.0
170
     5
 62
     0
 63
     7
283
     0
274
    -2
284
     1
 64
     0
275
    -2
285
     1
 65
     0
276
    -2
286
     1
 66
     0
277
    -2
287
     1
 67
     0
278
    -2
288
     1
 68
     0
279
    -2
289
     1
 69
     0
  7
STANDARD
140
4.5
170
     5
 62
     0
 63
     7
283
     0
274
    -2
284
     1
 64
     0
275
    -2
285
     1
 65
     0
276
    -2
286
     1
 66
     0
277
    -2
287
     1
 67
     0
278
    -2
288
     1
 68
     0
279
    -2
289
     1
 69
     0
  0
DICTIONARYVAR
  5
138
102
{ACAD_REACTORS
330
94
102
}
330
94
100
DictionaryVariables
280
     0
  1
STANDARD
  0
DICTIONARYVAR
  5
96
102
{ACAD_REACTORS
330
94
102
}
330
94
100
DictionaryVariables
280
     0
  1
2
  0
DICTIONARYVAR
  5
95
102
{ACAD_REACTORS
330
94
102
}
330
94
100
DictionaryVariables
280
     0
  1
0
  0
DICTIONARYVAR
  5
20EB
102
{ACAD_REACTORS
330
94
102
}
330
94
100
DictionaryVariables
280
     0
  1

  0
DICTIONARY
  5
1B5
102
{ACAD_REACTORS
330
5B
102
}
330
5B
100
AcDbDictionary
281
     1
  0
DICTIONARY
  5
61
102
{ACAD_REACTORS
330
5B
102
}
330
5B
100
AcDbDictionary
281
     1
  0
XRECORD
  5
123
102
{ACAD_REACTORS
330
5B
102
}
330
5B
100
AcDbXrecord
280
     1
 90
-1023410169
  0
DICTIONARY
  5
20F1
330
22
100
AcDbDictionary
280
     1
281
     1
  3
ACAD_XREC_ROUNDTRIP
360
20F2
  0
DICTIONARY
  5
20EF
330
1E
100
AcDbDictionary
280
     1
281
     1
  3
ACAD_XREC_ROUNDTRIP
360
20F0
  0
DICTIONARY
  5
20F3
330
26
100
AcDbDictionary
280
     1
281
     1
  3
ACAD_XREC_ROUNDTRIP
360
20F4
  0
XRECORD
  5
20F2
102
{ACAD_REACTORS
330
20F1
102
}
330
20F1
100
AcDbXrecord
280
     1
102
SHADEPLOT
 70
     0
102
SHADEPLOTRESLEVEL
 70
     2
102
SHADEPLOTCUSTOMDPI
 70
   300
  0
XRECORD
  5
20F0
102
{ACAD_REACTORS
330
20EF
102
}
330
20EF
100
AcDbXrecord
280
     1
102
SHADEPLOT
 70
     0
102
SHADEPLOTRESLEVEL
 70
     2
102
SHADEPLOTCUSTOMDPI
 70
   300
  0
XRECORD
  5
20F4
102
{ACAD_REACTORS
330
20F3
102
}
330
20F3
100
AcDbXrecord
280
     1
102
SHADEPLOT
 70
     0
102
SHADEPLOTRESLEVEL
 70
     2
102
SHADEPLOTCUSTOMDPI
 70
   300
  0
ENDSEC
  0
EOF
