  0
SECTION
  2
HEADER
  9
$ACADVER
  1
AC1015
  9
$ACADMAINTVER
 70
    20
  9
$DWGCODEPAGE
  3
ANSI_950
  9
$INSBASE
 10
0.0
 20
0.0
 30
0.0
  9
$EXTMIN
 10
548.6540085301421
 20
102.9715114783914
 30
-0.0115182181284013
  9
$EXTMAX
 10
899.7058040082221
 20
402.4658197587973
 30
188.7346450702748
  9
$LIMMIN
 10
0.0
 20
0.0
  9
$LIMMAX
 10
420.0
 20
297.0
  9
$ORTHOMODE
 70
     1
  9
$REGENMODE
 70
     1
  9
$FILLMODE
 70
     1
  9
$QTEXTMODE
 70
     0
  9
$MIRRTEXT
 70
     1
  9
$LTSCALE
 40
1.0
  9
$ATTMODE
 70
     1
  9
$TEXTSIZE
 40
3.0
  9
$TRACEWID
 40
1.0
  9
$TEXTSTYLE
  7
STANDARD
  9
$CLAYER
  8
0
  9
$CELTYPE
  6
ByLayer
  9
$CECOLOR
 62
   256
  9
$CELTSCALE
 40
1.0
  9
$DISPSILH
 70
     0
  9
$DIMSCALE
 40
1.0
  9
$DIMASZ
 40
3.0
  9
$DIMEXO
 40
1.0
  9
$DIMDLI
 40
8.0
  9
$DIMRND
 40
0.0
  9
$DIMDLE
 40
0.0
  9
$DIMEXE
 40
1.5
  9
$DIMTP
 40
0.1
  9
$DIMTM
 40
0.1
  9
$DIMTXT
 40
3.5
  9
$DIMCEN
 40
0.0
  9
$DIMTSZ
 40
0.0
  9
$DIMTOL
 70
     0
  9
$DIMLIM
 70
     0
  9
$DIMTIH
 70
     0
  9
$DIMTOH
 70
     0
  9
$DIMSE1
 70
     0
  9
$DIMSE2
 70
     0
  9
$DIMTAD
 70
     1
  9
$DIMZIN
 70
     8
  9
$DIMBLK
  1

  9
$DIMASO
 70
     1
  9
$DIMSHO
 70
     1
  9
$DIMPOST
  1

  9
$DIMAPOST
  1
"
  9
$DIMALT
 70
     0
  9
$DIMALTD
 70
     2
  9
$DIMALTF
 40
0.0393701
  9
$DIMLFAC
 40
1.0
  9
$DIMTOFL
 70
     1
  9
$DIMTVP
 40
0.0
  9
$DIMTIX
 70
     0
  9
$DIMSOXD
 70
     0
  9
$DIMSAH
 70
     0
  9
$DIMBLK1
  1

  9
$DIMBLK2
  1

  9
$DIMSTYLE
  2
AM_ISO
  9
$DIMCLRD
 70
   256
  9
$DIMCLRE
 70
   256
  9
$DIMCLRT
 70
   256
  9
$DIMTFAC
 40
0.6
  9
$DIMGAP
 40
0.7
  9
$DIMJUST
 70
     0
  9
$DIMSD1
 70
     0
  9
$DIMSD2
 70
     0
  9
$DIMTOLJ
 70
     0
  9
$DIMTZIN
 70
     8
  9
$DIMALTZ
 70
     0
  9
$DIMALTTZ
 70
     0
  9
$DIMUPT
 70
     0
  9
$DIMDEC
 70
     2
  9
$DIMTDEC
 70
     8
  9
$DIMALTU
 70
     2
  9
$DIMALTTD
 70
     2
  9
$DIMTXSTY
  7
STANDARD
  9
$DIMAUNIT
 70
     0
  9
$DIMADEC
 70
     0
  9
$DIMALTRND
 40
0.0
  9
$DIMAZIN
 70
     2
  9
$DIMDSEP
 70
    46
  9
$DIMATFIT
 70
     3
  9
$DIMFRAC
 70
     0
  9
$DIMLDRBLK
  1

  9
$DIMLUNIT
 70
     2
  9
$DIMLWD
 70
    -1
  9
$DIMLWE
 70
    -1
  9
$DIMTMOVE
 70
     0
  9
$LUNITS
 70
     2
  9
$LUPREC
 70
     2
  9
$SKETCHINC
 40
1.0
  9
$FILLETRAD
 40
2.5
  9
$AUNITS
 70
     0
  9
$AUPREC
 70
     0
  9
$MENU
  1
.
  9
$ELEVATION
 40
0.0
  9
$PELEVATION
 40
0.0
  9
$THICKNESS
 40
0.0
  9
$LIMCHECK
 70
     0
  9
$CHAMFERA
 40
2.5
  9
$CHAMFERB
 40
2.5
  9
$CHAMFERC
 40
20.0
  9
$CHAMFERD
 40
0.0
  9
$SKPOLY
 70
     0
  9
$TDCREATE
 40
2454013.612854456
  9
$TDUCREATE
 40
2454013.279521123
  9
$TDUPDATE
 40
2455009.341631667
  9
$TDUUPDATE
 40
2455009.008298334
  9
$TDINDWG
 40
0.1634914815
  9
$TDUSRTIMER
 40
0.1634914815
  9
$USRTIMER
 70
     1
  9
$ANGBASE
 50
0.0
  9
$ANGDIR
 70
     0
  9
$PDMODE
 70
     0
  9
$PDSIZE
 40
0.0
  9
$PLINEWID
 40
0.0
  9
$SPLFRAME
 70
     0
  9
$SPLINETYPE
 70
     6
  9
$SPLINESEGS
 70
     8
  9
$HANDSEED
  5
4C2F
  9
$SURFTAB1
 70
     6
  9
$SURFTAB2
 70
     6
  9
$SURFTYPE
 70
     6
  9
$SURFU
 70
     6
  9
$SURFV
 70
     6
  9
$UCSBASE
  2

  9
$UCSNAME
  2

  9
$UCSORG
 10
0.0
 20
0.0
 30
0.0
  9
$UCSXDIR
 10
1.0
 20
0.0
 30
0.0
  9
$UCSYDIR
 10
0.0
 20
1.0
 30
0.0
  9
$UCSORTHOREF
  2

  9
$UCSORTHOVIEW
 70
     0
  9
$UCSORGTOP
 10
0.0
 20
0.0
 30
0.0
  9
$UCSORGBOTTOM
 10
0.0
 20
0.0
 30
0.0
  9
$UCSORGLEFT
 10
0.0
 20
0.0
 30
0.0
  9
$UCSORGRIGHT
 10
0.0
 20
0.0
 30
0.0
  9
$UCSORGFRONT
 10
0.0
 20
0.0
 30
0.0
  9
$UCSORGBACK
 10
0.0
 20
0.0
 30
0.0
  9
$PUCSBASE
  2

  9
$PUCSNAME
  2

  9
$PUCSORG
 10
0.0
 20
0.0
 30
0.0
  9
$PUCSXDIR
 10
1.0
 20
0.0
 30
0.0
  9
$PUCSYDIR
 10
0.0
 20
1.0
 30
0.0
  9
$PUCSORTHOREF
  2

  9
$PUCSORTHOVIEW
 70
     0
  9
$PUCSORGTOP
 10
0.0
 20
0.0
 30
0.0
  9
$PUCSORGBOTTOM
 10
0.0
 20
0.0
 30
0.0
  9
$PUCSORGLEFT
 10
0.0
 20
0.0
 30
0.0
  9
$PUCSORGRIGHT
 10
0.0
 20
0.0
 30
0.0
  9
$PUCSORGFRONT
 10
0.0
 20
0.0
 30
0.0
  9
$PUCSORGBACK
 10
0.0
 20
0.0
 30
0.0
  9
$USERI1
 70
     0
  9
$USERI2
 70
     0
  9
$USERI3
 70
     0
  9
$USERI4
 70
     0
  9
$USERI5
 70
     0
  9
$USERR1
 40
0.0
  9
$USERR2
 40
0.0
  9
$USERR3
 40
0.0
  9
$USERR4
 40
0.0
  9
$USERR5
 40
0.0
  9
$WORLDVIEW
 70
     1
  9
$SHADEDGE
 70
     3
  9
$SHADEDIF
 70
    70
  9
$TILEMODE
 70
     1
  9
$MAXACTVP
 70
    64
  9
$PINSBASE
 10
0.0
 20
0.0
 30
0.0
  9
$PLIMCHECK
 70
     0
  9
$PEXTMIN
 10
1.000000000000000E+20
 20
1.000000000000000E+20
 30
1.000000000000000E+20
  9
$PEXTMAX
 10
-1.000000000000000E+20
 20
-1.000000000000000E+20
 30
-1.000000000000000E+20
  9
$PLIMMIN
 10
0.0
 20
0.0
  9
$PLIMMAX
 10
420.0
 20
297.0
  9
$UNITMODE
 70
     0
  9
$VISRETAIN
 70
     1
  9
$PLINEGEN
 70
     0
  9
$PSLTSCALE
 70
     1
  9
$TREEDEPTH
 70
  3020
  9
$CMLSTYLE
  2
Standard
  9
$CMLJUST
 70
     0
  9
$CMLSCALE
 40
20.0
  9
$PROXYGRAPHICS
 70
     1
  9
$MEASUREMENT
 70
     1
  9
$CELWEIGHT
370
    -1
  9
$ENDCAPS
280
     0
  9
$JOINSTYLE
280
     0
  9
$LWDISPLAY
290
     0
  9
$INSUNITS
 70
     4
  9
$HYPERLINKBASE
  1

  9
$STYLESHEET
  1
彩色出圖.ctb
  9
$XEDIT
290
     1
  9
$CEPSNTYPE
380
     0
  9
$PSTYLEMODE
290
     1
  9
$FINGERPRINTGUID
  2
{25AFC6F0-9DA1-4431-A483-4DF0D038E6B1}
  9
$VERSIONGUID
  2
{B7F7903D-5DA6-408B-A96E-B13B14A5A538}
  9
$EXTNAMES
290
     1
  9
$PSVPSCALE
 40
0.0
  9
$OLESTARTUP
290
     0
  0
ENDSEC
  0
SECTION
  2
CLASSES
  0
CLASS
  1
ACDBDICTIONARYWDFLT
  2
AcDbDictionaryWithDefault
  3
ObjectDBX Classes
 90
        0
280
     0
281
     0
  0
CLASS
  1
ACDBPLACEHOLDER
  2
AcDbPlaceHolder
  3
ObjectDBX Classes
 90
        0
280
     0
281
     0
  0
CLASS
  1
LAYOUT
  2
AcDbLayout
  3
ObjectDBX Classes
 90
        0
280
     0
281
     0
  0
CLASS
  1
ACME_DOCUMENT
  2
AcMeDbDoc
  3
AcMeServices
 90
        0
280
     0
281
     0
  0
CLASS
  1
AMGSETTINGSOBJ
  2
AmgSettingsObj
  3
"AcadM|Product Description: AutoCAD Mechanical 2000|Company: Autodesk"
 90
        0
280
     0
281
     0
  0
CLASS
  1
ACMESCOPE
  2
AcMeScope
  3
AcMeServices
 90
        0
280
     0
281
     0
  0
CLASS
  1
ACMECOMMANDHISTORY
  2
AcMeCommandHistory
  3
AcMeServices
 90
        0
280
     0
281
     0
  0
CLASS
  1
ACIMSYSVARMAN
  2
AcImSysVarManager
  3
AcMeServices
 90
        0
280
     0
281
     0
  0
CLASS
  1
ACIMREALSYSVAR
  2
AcImRealSysVar
  3
AcMeServices
 90
        0
280
     0
281
     0
  0
CLASS
  1
ACIMINTSYSVAR
  2
AcImIntSysVar
  3
AcMeServices
 90
        0
280
     0
281
     0
  0
CLASS
  1
ACMEDRAWINGMAN
  2
AcMeDrawingMan
  3
AcMeServices
 90
        0
280
     0
281
     0
  0
CLASS
  1
ACMEVIEW
  2
AcMeView
  3
AcMeServices
 90
        0
280
     0
281
     0
  0
CLASS
  1
ACDBENTITYCACHE
  2
AcMeEntityCache
  3
AcMeServices
 90
        0
280
     0
281
     0
  0
CLASS
  1
GSMANAGER
  2
AcMeGSManager
  3
AcMeServices
 90
        0
280
     0
281
     0
  0
CLASS
  1
AMDTINTERNALREACTOR
  2
AmdtInternalReactor
  3
AcMeServices
 90
        0
280
     0
281
     0
  0
CLASS
  1
ACMESTATEMGR
  2
AcMeStateMgr
  3
AcMeServices
 90
        0
280
     0
281
     0
  0
CLASS
  1
ACGREFMASTER
  2
AcGrefMaster
  3
AcAttribServices
 90
        0
280
     0
281
     0
  0
CLASS
  1
ACME_DATABASE
  2
AcMeDbDatabase
  3
AcMeServices
 90
        0
280
     0
281
     0
  0
CLASS
  1
ACRFINSADJUSTERMGR
  2
AcRfInsAdjusterMgr
  3
AcMeServices
 90
        0
280
     0
281
     0
  0
CLASS
  1
ACGREFACADMASTER
  2
AcGrefacadMaster
  3
AcGrefServices
 90
        0
280
     0
281
     0
  0
CLASS
  1
AMIMASTER
  2
AmiMaster
  3
AmiServices
 90
        0
280
     0
281
     0
  0
CLASS
  1
ACMDATADICTIONARY
  2
AcmDataDictionary
  3
"AcmSymBB|Product Description: AutoCAD Mechanical 2004 DX|Company: Autodesk"
 90
        0
280
     0
281
     0
  0
CLASS
  1
ACMDATAENTRYBLOCK
  2
AcmDataEntryBlock
  3
"AcmSymBB|Product Description: AutoCAD Mechanical 2004 DX|Company: Autodesk"
 90
    32768
280
     0
281
     0
  0
CLASS
  1
ACIMSTRSYSVAR
  2
AcImStrSysVar
  3
AcMeServices
 90
        0
280
     0
281
     0
  0
CLASS
  1
ACMSTANDARDISO
  2
AcmStandardISO
  3
"Amdt_StdImp|Product Description: AutoCAD Mechanical 2004 DX|Company: Autodesk"
 90
        0
280
     0
281
     0
  0
CLASS
  1
AMGOBJPROPCFG
  2
AmgObjPropCfg
  3
"AmgLay|Product Description: AutoCAD Mechanical 2000|Company: Autodesk"
 90
        1
280
     0
281
     0
  0
CLASS
  1
AMDTEDGESTANDARDISO
  2
AmdtEdgeStdISO
  3
"Amdt_StdImp|Product Description: AutoCAD Mechanical 2004 DX|Company: Autodesk"
 90
    32768
280
     0
281
     0
  0
CLASS
  1
ACMSURFSTANDARDISO
  2
AcmSurfTextStdISO
  3
"Amdt_StdImp|Product Description: AutoCAD Mechanical 2004 DX|Company: Autodesk"
 90
        0
280
     0
281
     0
  0
CLASS
  1
ACMFCFSTANDARDISO
  2
AcmFCFStdISO
  3
"Amdt_StdImp|Product Description: AutoCAD Mechanical 2004 DX|Company: Autodesk"
 90
        0
280
     0
281
     0
  0
CLASS
  1
ACMWELDSTANDARDISO
  2
AcmWeldingStdISO
  3
"Amdt_StdImp|Product Description: AutoCAD Mechanical 2004 DX|Company: Autodesk"
 90
        0
280
     0
281
     0
  0
CLASS
  1
ACMIDSTANDARDISO
  2
AcmIdStdISO
  3
"Amdt_StdImp|Product Description: AutoCAD Mechanical 2004 DX|Company: Autodesk"
 90
        0
280
     0
281
     0
  0
CLASS
  1
ACMDATUMSTANDARDISO
  2
AcmDatumStdISO
  3
"Amdt_StdImp|Product Description: AutoCAD Mechanical 2004 DX|Company: Autodesk"
 90
        0
280
     0
281
     0
  0
CLASS
  1
ACMBOMSTANDARDISO
  2
AcmBOMStdISO
  3
"Amdt_StdImp|Product Description: AutoCAD Mechanical 2004 DX|Company: Autodesk"
 90
        0
280
     0
281
     0
  0
CLASS
  1
ACMDETAILSTANDARDISO
  2
AmdtDetailSymStdISO
  3
"Amdt_StdImp|Product Description: AutoCAD Mechanical 2004 DX|Company: Autodesk"
 90
        0
280
     0
281
     0
  0
CLASS
  1
ACMSECTIONSTANDARDISO
  2
AmdtSectionSymStdISO
  3
"Amdt_StdImp|Product Description: AutoCAD Mechanical 2004 DX|Company: Autodesk"
 90
        0
280
     0
281
     0
  0
CLASS
  1
ACMCENTERLINESTANDARDISO
  2
AmdtCenterLineStdISO
  3
"Amdt_StdImp|Product Description: AutoCAD Mechanical 2004 DX|Company: Autodesk"
 90
        0
280
     0
281
     0
  0
CLASS
  1
ACMNOTESTANDARDISO
  2
AmdtNoteStdISO
  3
"Amdt_StdImp|Product Description: AutoCAD Mechanical 2004 DX|Company: Autodesk"
 90
        0
280
     0
281
     0
  0
CLASS
  1
ACAMGLAYSTD
  2
AcAmgLayStd
  3
"AcAmgLayStd|Product Description: AutoCAD Mechanical 2000|Company: Autodesk"
 90
        0
280
     0
281
     0
  0
CLASS
  1
ACAMGDIMSTD
  2
AcAmgDimStd
  3
"AcAmgDimStd|Product Description: AutoCAD Mechanical 2000|Company: Autodesk"
 90
        0
280
     0
281
     0
  0
CLASS
  1
ACAMGHOLECHARTSTDISO
  2
AcAmgHoleChartStdISO
  3
ACMSYMBB_MODULE_NAME
 90
        0
280
     0
281
     0
  0
CLASS
  1
ACAMGTITLESTD
  2
AcAmgTitleStd
  3
"TITLEAPP"
 90
        0
280
     0
281
     0
  0
CLASS
  1
LAYER_INDEX
  2
AcDbLayerIndex
  3
ObjectDBX Classes
 90
    32768
280
     0
281
     0
  0
CLASS
  1
IDBUFFER
  2
AcDbIdBuffer
  3
ObjectDBX Classes
 90
    32768
280
     0
281
     0
  0
CLASS
  1
DICTIONARYVAR
  2
AcDbDictionaryVar
  3
ObjectDBX Classes
 90
        0
280
     0
281
     0
  0
CLASS
  1
AM_DRAWING_MGR
  2
AcDmDwgMgr
  3
AcMechDwgViewMgmt
 90
        0
280
     0
281
     0
  0
CLASS
  1
AM_DWG_DOCUMENT
  2
AcDmDwgDocument
  3
AcMechDwgViewMgmt
 90
        0
280
     0
281
     0
  0
CLASS
  1
AM_DWG_SHEET
  2
AcDmSheet
  3
AcMechDwgViewMgmt
 90
        0
280
     0
281
     0
  0
CLASS
  1
AM_VIEWDIMPARMAP
  2
AcDmViewDimParMap
  3
AcMechDwgViewMgmt
 90
        0
280
     0
281
     0
  0
CLASS
  1
AM_DWGMGR_NAME
  2
AcDmDwgMgrName
  3
AcMechDwgViewMgmt
 90
        0
280
     0
281
     0
  0
CLASS
  1
AMDTMENUSTATEMGR
  2
AmdtMenuStateMgr
  3
McadcomServices
 90
        0
280
     0
281
     0
  0
CLASS
  1
AMDTMCOMMENUSTATE
  2
AmdtMcomMenuState
  3
McadcomServices
 90
        0
280
     0
281
     0
  0
CLASS
  1
MAPIAMMOUDLE
  2
MApiAmModule
  3
MApiAmServices
 90
        0
280
     0
281
     0
  0
CLASS
  1
AMDTADMENUSTATE
  2
AmdtAdMenuState
  3
DesignerServices
 90
        0
280
     0
281
     0
  0
CLASS
  1
ADAPPL
  2
AcAdAppl
  3
DesignerServices
 90
        0
280
     0
281
     0
  0
CLASS
  1
DEPMGR
  2
AcAdDepMgr
  3
DesignerServices
 90
        0
280
     0
281
     0
  0
CLASS
  1
PARAMMGR
  2
AcAdParamMgr
  3
DesignerServices
 90
        0
280
     0
281
     0
  0
CLASS
  1
PARAMSCOPE
  2
AcAdParamScope
  3
DesignerServices
 90
        0
280
     0
281
     0
  0
CLASS
  1
NAMEDAPPL
  2
AcAdNamedAppl
  3
DesignerServices
 90
        0
280
     0
281
     0
  0
CLASS
  1
AMDTDMMENUSTATE
  2
AmdtDmMenuState
  3
AcMechDwgViewMgmt
 90
        0
280
     0
281
     0
  0
CLASS
  1
AMDTAMMENUSTATE
  2
AmdtAmMenuState
  3
DesignerAssemblies
 90
        0
280
     0
281
     0
  0
CLASS
  1
ACAMPROJECT
  2
AcAmProject
  3
DesignerAssemblies
 90
        0
280
     0
281
     0
  0
CLASS
  1
ACAMGRCOMPDEF
  2
AcAmGrCompDef
  3
DesignerAssemblies
 90
        0
280
     0
281
     0
  0
CLASS
  1
ACCMCONTEXT
  2
AcCmContext
  3
DesignerAssemblies
 90
        0
280
     0
281
     0
  0
CLASS
  1
ACAMCOMPDEF
  2
AcAmCompDef
  3
DesignerAssemblies
 90
        0
280
     0
281
     0
  0
CLASS
  1
ACAMCOMPDEFMGR
  2
AcAmCompDefMgr
  3
DesignerAssemblies
 90
        0
280
     0
281
     0
  0
CLASS
  1
AMCONTEXTMGR
  2
AcAmContextMgr
  3
DesignerAssemblies
 90
        0
280
     0
281
     0
  0
CLASS
  1
ACAMCONTEXTMODELER
  2
AcAmContextModeler
  3
DesignerAssemblies
 90
        0
280
     0
281
     0
  0
CLASS
  1
ACMTHREADLINESTANDARDISO
  2
AmdtThreadLineStdISO
  3
"Amdt_StdImp|Product Description: AutoCAD Mechanical 2004 DX|Company: Autodesk"
 90
        0
280
     0
281
     0
  0
CLASS
  1
CATALOGSTATE
  2
AcAmCatalogState
  3
DesignerAssemblies
 90
        0
280
     0
281
     0
  0
CLASS
  1
ACAMGRCOMPDEFSET
  2
AcAmGrCompDefSet
  3
DesignerAssemblies
 90
        0
280
     0
281
     0
  0
CLASS
  1
AMDTBROWSERDBTAB
  2
AmdtBrowserDbTab
  3
McadcomServices
 90
        0
280
     0
281
     0
  0
CLASS
  1
CBROWSERAPPOBJECT
  2
CBrowserAppObject
  3
McadcomServices
 90
        0
280
     0
281
     0
  0
CLASS
  1
DM_PLACEHOLDER
  2
AcDmSelsetPlaceholder
  3
AcMechDwgViewMgmt
 90
        0
280
     0
281
     0
  0
CLASS
  1
TABLESTYLE
  2
AcDbTableStyle
  3
ObjectDBX Classes
 90
     2047
280
     0
281
     0
  0
CLASS
  1
VAACXREFPANELOBJECT
  2
VaAcXREFPanelObject
  3
VAAC_ADDIN
 90
    32768
280
     0
281
     0
  0
CLASS
  1
VAACIMAGEINVENTORY
  2
VaAcImageInventory
  3
VAAC_ADDIN
 90
    32768
280
     0
281
     0
  0
CLASS
  1
AMDTNOTETEMPLATEDB
  2
AmdtNoteTemplateDB
  3
AMDT_STDIMP_MODULE_NAME
 90
        0
280
     0
281
     0
  0
CLASS
  1
ACMBOM
  2
AcmBom
  3
"AcmSymBB|Product Description: AutoCAD Mechanical 2004 DX|Company: Autodesk"
 90
    32768
280
     0
281
     0
  0
CLASS
  1
AMDTFORMULAUPDATEDISPATCHER
  2
AmdtFormulaUpdateDispatcher
  3
AcMeServices
 90
    32768
280
     0
281
     0
  0
CLASS
  1
ACMPARTLIST
  2
AcmPartList
  3
"AcmSymBB|Product Description: AutoCAD Mechanical 2004 DX|Company: Autodesk"
 90
    33791
280
     0
281
     1
  0
CLASS
  1
ACAMGFILTERDAT
  2
AcAmgFilterDat
  3
"AcadM|Product Description: AutoCAD Mechanical 2000|Company: Autodesk"
 90
    32768
280
     0
281
     0
  0
CLASS
  1
DIMASSOC
  2
AcDbDimAssoc
  3
"AcDbDimAssoc|Product Desc:     AcDim ARX App For Dimension|Company:          Autodesk, Inc.|WEB Address:      www.autodesk.com"
 90
        0
280
     0
281
     0
  0
CLASS
  1
SORTENTSTABLE
  2
AcDbSortentsTable
  3
ObjectDBX Classes
 90
        0
280
     0
281
     0
  0
CLASS
  1
AMDTNOTE
  2
AmdtNote
  3
"AcmSymBB|Product Description: AutoCAD Mechanical 2004 DX|Company: Autodesk"
 90
    33791
280
     0
281
     1
  0
CLASS
  1
AMDTEDGESTANDARDISO13715
  2
AmdtEdgeStdISO13715
  3
"Amdt_StdImp|Product Description: AutoCAD Mechanical 2004 DX|Company: Autodesk"
 90
        0
280
     0
281
     0
  0
CLASS
  1
ACRFATTGENMGR
  2
AcRfAttGeneralMgr
  3
AcAttribServices
 90
        0
280
     0
281
     0
  0
ENDSEC
  0
SECTION
  2
TABLES
  0
TABLE
  2
VPORT
  5
8
330
0
100
AcDbSymbolTable
 70
     4
  0
VPORT
  5
4C26
330
8
100
AcDbSymbolTableRecord
100
AcDbViewportTableRecord
  2
*Active
 70
     0
 10
0.0
 20
0.0
 11
1.0
 21
1.0
 12
724.179906269182
 22
252.7186656185944
 13
0.0
 23
0.0
 14
2.5
 24
2.5
 15
10.0
 25
10.0
 16
0.0
 26
0.0
 36
1.0
 17
0.0
 27
0.0
 37
0.0
 40
389.3984243373275
 41
0.9093298291721417
 42
50.0
 43
0.0
 44
0.0
 50
0.0
 51
0.0
 71
     0
 72
   100
 73
     1
 74
     3
 75
     0
 76
     0
 77
     0
 78
     0
281
     0
 65
     1
110
0.0
120
0.0
130
0.0
111
1.0
121
0.0
131
0.0
112
0.0
122
1.0
132
0.0
 79
     0
146
0.0
  0
ENDTAB
  0
TABLE
  2
LTYPE
  5
5
330
0
100
AcDbSymbolTable
 70
    15
  0
LTYPE
  5
14
330
5
100
AcDbSymbolTableRecord
100
AcDbLinetypeTableRecord
  2
ByBlock
 70
     0
  3

 72
    65
 73
     0
 40
0.0
  0
LTYPE
  5
15
330
5
100
AcDbSymbolTableRecord
100
AcDbLinetypeTableRecord
  2
ByLayer
 70
     0
  3

 72
    65
 73
     0
 40
0.0
  0
LTYPE
  5
16
330
5
100
AcDbSymbolTableRecord
100
AcDbLinetypeTableRecord
  2
Continuous
 70
     0
  3
Solid line
 72
    65
 73
     0
 40
0.0
  0
LTYPE
  5
64
330
5
100
AcDbSymbolTableRecord
100
AcDbLinetypeTableRecord
  2
AM_ISO02W050
 70
     0
  3
__ __ __ __ __ __ __ __ __ __ __ __ __ __ __
 72
    65
 73
     2
 40
7.5
 49
6.0
 74
     0
 49
-1.5
 74
     0
  0
LTYPE
  5
65
330
5
100
AcDbSymbolTableRecord
100
AcDbLinetypeTableRecord
  2
AM_ISO08W050
 70
     0
  3
____ . ____ . ____ . ____ . ____ . ____ . ____
 72
    65
 73
     4
 40
18.0
 49
12.0
 74
     0
 49
-1.5
 74
     0
 49
3.0
 74
     0
 49
-1.5
 74
     0
  0
LTYPE
  5
66
330
5
100
AcDbSymbolTableRecord
100
AcDbLinetypeTableRecord
  2
AM_ISO09W050
 70
     0
  3
_____ . . _____ . . _____ . . ____ .. ____
 72
    65
 73
     6
 40
22.5
 49
12.0
 74
     0
 49
-1.5
 74
     0
 49
3.0
 74
     0
 49
-1.5
 74
     0
 49
3.0
 74
     0
 49
-1.5
 74
     0
  0
LTYPE
  5
67
330
5
100
AcDbSymbolTableRecord
100
AcDbLinetypeTableRecord
  2
Amconstr
 70
     0
  3
_______________________
 72
    65
 73
     2
 40
9999.0
 49
9999.0
 74
     0
 49
0.0
 74
     0
  0
LTYPE
  5
68
330
5
100
AcDbSymbolTableRecord
100
AcDbLinetypeTableRecord
  2
AM_ISO08W050x2
 70
     0
  3
__ . __ . __ . __ . __ . __
 72
    65
 73
     4
 40
9.0
 49
6.0
 74
     0
 49
-0.75
 74
     0
 49
1.5
 74
     0
 49
-0.75
 74
     0
  0
LTYPE
  5
69
330
5
100
AcDbSymbolTableRecord
100
AcDbLinetypeTableRecord
  2
AM_ISO02W050x2
 70
     0
  3
 _ _ _ _ _ _ _ _ _ _ _ _
 72
    65
 73
     2
 40
3.75
 49
3.0
 74
     0
 49
-0.75
 74
     0
  0
LTYPE
  5
6C
330
5
100
AcDbSymbolTableRecord
100
AcDbLinetypeTableRecord
  2
Amzigzag
 70
     0
  3
/\/-/\/-/\/-/\/-/\/-/\/
 72
    65
 73
     2
 40
11.0001
 49
0.0001
 74
     4
 75
   135
340
6B
 46
0.04
 50
0.0
 44
0.0
 45
0.0
 49
-11.0
 74
     0
  0
LTYPE
  5
7A
330
5
100
AcDbSymbolTableRecord
100
AcDbLinetypeTableRecord
  2
ACISOWELD
 70
     0
  3
_ _ _ _ _
 72
    65
 73
     2
 40
2.0
 49
2.0
 74
     0
 49
-1.0
 74
     0
  0
LTYPE
  5
7B
330
5
100
AcDbSymbolTableRecord
100
AcDbLinetypeTableRecord
  2
ACISOTGB
 70
     0
  3
__ . . __ . .
 72
    65
 73
     6
 40
9.0
 49
4.0
 74
     0
 49
-1.0
 74
     0
 49
1.0
 74
     0
 49
-1.0
 74
     0
 49
1.0
 74
     0
 49
-1.0
 74
     0
  0
LTYPE
  5
7C
330
5
100
AcDbSymbolTableRecord
100
AcDbLinetypeTableRecord
  2
ACISOTGL
 70
     0
  3
_ _ _ _ _
 72
    65
 73
     2
 40
3.0
 49
2.0
 74
     0
 49
-1.0
 74
     0
  0
LTYPE
  5
7E
330
5
100
AcDbSymbolTableRecord
100
AcDbLinetypeTableRecord
  2
CENTER
 70
     0
  3
__ . __
 72
    65
 73
     4
 40
7.0
 49
4.0
 74
     0
 49
-1.0
 74
     0
 49
1.0
 74
     0
 49
-1.0
 74
     0
  0
LTYPE
  5
D8
330
5
100
AcDbSymbolTableRecord
100
AcDbLinetypeTableRecord
  2
HIDDEN
 70
     0
  3
Hidden __ __ __ __ __ __ __ __ __ __ __ __ __ _
 72
    65
 73
     2
 40
9.524999999999998
 49
6.349999999999999
 74
     0
 49
-3.174999999999999
 74
     0
  0
LTYPE
  5
D9
330
5
100
AcDbSymbolTableRecord
100
AcDbLinetypeTableRecord
  2
PHANTOM2
 70
     0
  3
Phantom (.5x) ___ _ _ ___ _ _ ___ _ _ ___ _ _
 72
    65
 73
     6
 40
31.75
 49
15.875
 74
     0
 49
-3.174999999999999
 74
     0
 49
3.174999999999999
 74
     0
 49
-3.174999999999999
 74
     0
 49
3.174999999999999
 74
     0
 49
-3.174999999999999
 74
     0
  0
ENDTAB
  0
TABLE
  2
LAYER
  5
2
102
{ACAD_XDICTIONARY
360
3F9
102
}
330
0
100
AcDbSymbolTable
 70
    10
  0
LAYER
  5
10
330
2
100
AcDbSymbolTableRecord
100
AcDbLayerTableRecord
  2
0
 70
     0
 62
     7
  6
Continuous
370
    -3
390
F
  0
LAYER
  5
AB7
330
2
100
AcDbSymbolTableRecord
100
AcDbLayerTableRecord
  2
AM_5
 70
     0
 62
     5
  6
Continuous
370
    50
390
F
  0
LAYER
  5
AB8
330
2
100
AcDbSymbolTableRecord
100
AcDbLayerTableRecord
  2
Defpoints
 70
     0
 62
     7
  6
Continuous
290
     0
370
    -3
390
F
  0
LAYER
  5
AB9
330
2
100
AcDbSymbolTableRecord
100
AcDbLayerTableRecord
  2
LOGO
 70
     0
 62
     7
  6
Continuous
370
    -3
390
F
  0
LAYER
  5
ABA
330
2
100
AcDbSymbolTableRecord
100
AcDbLayerTableRecord
  2
AM_VIS
 70
     0
 62
     7
  6
Continuous
370
    50
390
F
  0
LAYER
  5
ABB
330
2
100
AcDbSymbolTableRecord
100
AcDbLayerTableRecord
  2
AM_7
 70
     0
 62
     1
  6
CENTER
370
    25
390
F
  0
LAYER
  5
ABC
330
2
100
AcDbSymbolTableRecord
100
AcDbLayerTableRecord
  2
AM_4
 70
     0
 62
     3
  6
Continuous
370
    25
390
F
  0
LAYER
  5
EF2
330
2
100
AcDbSymbolTableRecord
100
AcDbLayerTableRecord
  2
SL
 70
     0
 62
     4
  6
Continuous
370
    -3
390
F
1001
AcAecLayerStandard
1000

1000

  0
ENDTAB
  0
TABLE
  2
STYLE
  5
3
330
0
100
AcDbSymbolTable
 70
     6
  0
STYLE
  5
11
330
3
100
AcDbSymbolTableRecord
100
AcDbTextStyleTableRecord
  2
STANDARD
 70
     0
 40
0.0
 41
1.0
 50
0.0
 71
     0
 42
3.0
  3
ISOCP.SHX
  4
CHINESET.SHX
  0
STYLE
  5
6B
330
3
100
AcDbSymbolTableRecord
100
AcDbTextStyleTableRecord
  2

 70
     1
 40
0.0
 41
1.0
 50
0.0
 71
     0
 42
2.5
  3
ltypeshp.shx
  4

  0
STYLE
  5
6D
330
3
100
AcDbSymbolTableRecord
100
AcDbTextStyleTableRecord
  2
ACISOTS
 70
     0
 40
1.0
 41
1.0
 50
0.0
 71
     0
 42
1.0
  3
isocp.shx
  4
chineset.shx
  0
STYLE
  5
79
330
3
100
AcDbSymbolTableRecord
100
AcDbTextStyleTableRecord
  2
ACISOGDT
 70
     0
 40
0.0
 41
1.0
 50
0.0
 71
     0
 42
2.5
  3
amgdt.shx
  4
chineset.shx
  0
STYLE
  5
ABE
330
3
100
AcDbSymbolTableRecord
100
AcDbTextStyleTableRecord
  2
CHINESET
 70
     0
 40
0.0
 41
0.75
 50
0.0
 71
     0
 42
3.0
  3
simplex.shx
  4
CHINESET.SHX
  0
STYLE
  5
1999
330
3
100
AcDbSymbolTableRecord
100
AcDbTextStyleTableRecord
  2
DAYUS
 70
     0
 40
0.0
 41
1.0
 50
0.0
 71
     0
 42
2.5
  3
simplex.shx
  4
dayus.shx
  0
ENDTAB
  0
TABLE
  2
VIEW
  5
6
330
0
100
AcDbSymbolTable
 70
     0
  0
ENDTAB
  0
TABLE
  2
UCS
  5
7
330
0
100
AcDbSymbolTable
 70
     0
  0
ENDTAB
  0
TABLE
  2
APPID
  5
9
330
0
100
AcDbSymbolTable
 70
    22
  0
APPID
  5
12
330
9
100
AcDbSymbolTableRecord
100
AcDbRegAppTableRecord
  2
ACAD
 70
     0
  0
APPID
  5
46
330
9
100
AcDbSymbolTableRecord
100
AcDbRegAppTableRecord
  2
MCAD_NO_VIS
 70
     0
  0
APPID
  5
47
330
9
100
AcDbSymbolTableRecord
100
AcDbRegAppTableRecord
  2
ACAD_TEMP_GRAPHIC
 70
     0
  0
APPID
  5
58
330
9
100
AcDbSymbolTableRecord
100
AcDbRegAppTableRecord
  2
ACATTRIBSERVICES
 70
     0
  0
APPID
  5
EE
330
9
100
AcDbSymbolTableRecord
100
AcDbRegAppTableRecord
  2
AD_DRAW
 70
     0
  0
APPID
  5
10C
330
9
100
AcDbSymbolTableRecord
100
AcDbRegAppTableRecord
  2
DESIGNERASSEMBLIES
 70
     0
  0
APPID
  5
111
330
9
100
AcDbSymbolTableRecord
100
AcDbRegAppTableRecord
  2
ACADM_DIM_EDIT
 70
     0
  0
APPID
  5
112
330
9
100
AcDbSymbolTableRecord
100
AcDbRegAppTableRecord
  2
AMDT_DM_ADJ
 70
     0
  0
APPID
  5
22C
330
9
100
AcDbSymbolTableRecord
100
AcDbRegAppTableRecord
  2
ACAD_DSTYLE_DIMTEXT_FILL
 70
     0
  0
APPID
  5
452
330
9
100
AcDbSymbolTableRecord
100
AcDbRegAppTableRecord
  2
GENIUS_GENOENT_13
 70
     0
  0
APPID
  5
453
330
9
100
AcDbSymbolTableRecord
100
AcDbRegAppTableRecord
  2
GENIUS_GENOBJ-N-CRS_13
 70
     0
  0
APPID
  5
454
330
9
100
AcDbSymbolTableRecord
100
AcDbRegAppTableRecord
  2
GENIUS_GENOLIS_13
 70
     0
  0
APPID
  5
455
330
9
100
AcDbSymbolTableRecord
100
AcDbRegAppTableRecord
  2
GENIUS_GENODEF_13
 70
     0
  0
APPID
  5
456
330
9
100
AcDbSymbolTableRecord
100
AcDbRegAppTableRecord
  2
GENIUS_GENOREF_13
 70
     0
  0
APPID
  5
6F3
330
9
100
AcDbSymbolTableRecord
100
AcDbRegAppTableRecord
  2
ACAD_PSEXT
 70
     0
  0
APPID
  5
808
330
9
100
AcDbSymbolTableRecord
100
AcDbRegAppTableRecord
  2
GENIUS_GENDTOL_13
 70
     0
  0
APPID
  5
AC0
330
9
100
AcDbSymbolTableRecord
100
AcDbRegAppTableRecord
  2
GENIUS_GENREC_14
 70
     0
  0
APPID
  5
AC1
330
9
100
AcDbSymbolTableRecord
100
AcDbRegAppTableRecord
  2
GENIUS_GENOBJ-N-REC_13
 70
     0
  0
APPID
  5
AC2
330
9
100
AcDbSymbolTableRecord
100
AcDbRegAppTableRecord
  2
GENIUS_GENOBJ-N-CEN_13
 70
     0
  0
APPID
  5
AC3
330
9
100
AcDbSymbolTableRecord
100
AcDbRegAppTableRecord
  2
GENIUS_GENCEN_19
 70
     0
  0
APPID
  5
EF3
330
9
100
AcDbSymbolTableRecord
100
AcDbRegAppTableRecord
  2
AcAecLayerStandard
 70
     0
  0
APPID
  5
31B8
330
9
100
AcDbSymbolTableRecord
100
AcDbRegAppTableRecord
  2
GENIUS_GENDIMSH_14
 70
     0
  0
ENDTAB
  0
TABLE
  2
DIMSTYLE
  5
A
330
0
100
AcDbSymbolTable
 70
    10
100
AcDbDimStyleTable
 71
     4
340
81
340
199A
340
8B
340
86
  0
DIMSTYLE
105
81
102
{ACAD_REACTORS
330
3AA0
330
3A0F
102
}
330
A
100
AcDbSymbolTableRecord
100
AcDbDimStyleTableRecord
  2
AM_ISO
 70
     0
  4
"
 41
3.0
 42
1.0
 43
8.0
 44
1.5
 47
0.1
 48
0.1
 73
     0
 74
     0
 77
     1
 78
     8
 79
     2
140
3.5
141
0.0
143
0.0393701
146
0.6
147
0.7
172
     1
176
   256
177
   256
178
   256
271
     2
272
     2
283
     0
284
     8
340
11
371
    -1
372
    -1
  0
DIMSTYLE
105
82
102
{ACAD_REACTORS
330
3010
102
}
330
A
100
AcDbSymbolTableRecord
100
AcDbDimStyleTableRecord
  2
AM_ISO$3
 70
     0
  4
"
 41
3.0
 42
1.0
 43
8.0
 44
1.5
 47
0.1
 48
0.1
 73
     0
 77
     1
 78
     8
 79
     2
140
3.5
141
0.0
143
0.0393701
146
0.6
147
0.7
176
   256
177
   256
178
   256
271
     2
272
     2
283
     0
284
     8
288
     1
289
     0
340
11
371
    -1
372
    -1
  0
DIMSTYLE
105
83
102
{ACAD_REACTORS
330
4192
102
}
330
A
100
AcDbSymbolTableRecord
100
AcDbDimStyleTableRecord
  2
AM_ISO$4
 70
     0
  4
"
 41
3.0
 42
1.0
 43
8.0
 44
1.5
 47
0.1
 48
0.1
 73
     0
 77
     1
 78
     8
 79
     2
140
3.5
141
0.0
143
0.0393701
146
0.6
147
0.7
176
   256
177
   256
178
   256
271
     2
272
     2
283
     0
284
     8
288
     1
289
     0
340
11
371
    -1
372
    -1
  0
DIMSTYLE
105
84
330
A
100
AcDbSymbolTableRecord
100
AcDbDimStyleTableRecord
  2
AM_ISO$6
 70
     0
  4
"
 41
3.0
 42
1.0
 43
8.0
 44
1.5
 47
0.1
 48
0.1
 73
     0
 74
     0
 78
     8
 79
     2
140
3.5
141
0.0
143
0.0393701
146
0.6
147
0.7
172
     1
176
   256
177
   256
178
   256
271
     2
272
     2
283
     0
284
     8
340
11
371
    -1
372
    -1
  0
DIMSTYLE
105
85
330
A
100
AcDbSymbolTableRecord
100
AcDbDimStyleTableRecord
  2
AM_ISO$7
 70
     0
  4
"
 41
3.0
 42
1.0
 43
8.0
 44
1.5
 47
0.1
 48
0.1
 73
     0
 74
     0
 77
     1
 78
     8
 79
     2
140
5.0
141
0.0
143
0.0393701
146
0.6
147
0.7
172
     1
176
   256
177
   256
178
   256
271
     2
272
     2
283
     0
284
     8
340
11
371
    -1
372
    -1
  0
DIMSTYLE
105
86
330
A
100
AcDbSymbolTableRecord
100
AcDbDimStyleTableRecord
  2
AM_ISO$SF
 70
     0
  4
"
 41
2.5
 42
1.0
 43
10.0
 44
1.0
 47
0.1
 48
0.1
 73
     0
 74
     0
 75
     1
 76
     1
 77
     1
 78
     8
 79
     2
140
3.5
141
0.0
143
0.0393701
146
0.71
147
1.5
172
     1
176
   256
177
   256
178
     2
271
     2
272
     3
274
     4
283
     0
284
     8
340
11
371
    -1
372
    -1
  0
DIMSTYLE
105
8B
330
A
100
AcDbSymbolTableRecord
100
AcDbDimStyleTableRecord
  2
AM_ISO$SH
 70
     0
  4
"
 41
2.5
 42
1.0
 43
10.0
 44
1.0
 47
0.1
 48
0.1
 73
     0
 74
     0
 75
     1
 76
     1
 77
     1
 78
     8
 79
     2
140
3.5
141
0.0
143
0.0393701
144
2.0
146
0.71
147
1.5
172
     1
173
     1
176
   256
177
   256
178
     2
271
     2
272
     3
274
     4
283
     0
284
     8
340
11
343
87
371
    -1
372
    -1
  0
DIMSTYLE
105
40B
102
{ACAD_REACTORS
330
3A9F
330
3A9D
330
3A9E
330
3A7D
330
3B17
330
3B16
330
3B15
330
3A5A
330
3A6A
330
3A69
330
3AD7
330
3A71
330
3A6D
330
3A6C
330
3A6B
330
44B5
330
3B18
102
}
330
A
100
AcDbSymbolTableRecord
100
AcDbDimStyleTableRecord
  2
AM_ISO$0
 70
     0
  4
"
 41
3.0
 42
1.0
 43
8.0
 44
1.5
 47
0.1
 48
0.1
 73
     0
 74
     0
 77
     1
 78
     8
 79
     2
140
3.5
141
0.0
143
0.0393701
146
0.6
147
0.7
172
     1
176
   256
177
   256
178
   256
271
     2
272
     2
283
     0
284
     8
340
11
371
    -1
372
    -1
  0
DIMSTYLE
105
199A
330
A
100
AcDbSymbolTableRecord
100
AcDbDimStyleTableRecord
  2
AM_ANSI
 70
     0
  4
"
 40
0.8333333333333333
 41
3.0
 42
1.5
 43
6.666666666
 44
2.0
 47
0.1
 48
0.1
 73
     0
 74
     0
 77
     3
 78
     8
 79
     2
140
3.0
141
0.0
143
0.0393701
146
0.6
147
0.8
172
     1
176
   256
177
   256
178
   256
271
     2
272
     2
284
     8
340
1999
371
    -1
372
    -1
  0
DIMSTYLE
105
199B
102
{ACAD_REACTORS
330
3A72
102
}
330
A
100
AcDbSymbolTableRecord
100
AcDbDimStyleTableRecord
  2
AM_ANSI$3
 70
     0
  4
"
 40
0.8333333333333333
 41
3.0
 42
1.5
 43
6.666666666
 44
2.0
 47
0.1
 48
0.1
 73
     0
 74
     0
 77
     3
 78
     8
 79
     2
140
3.0
141
0.0
143
0.0393701
146
0.6
147
0.8
172
     1
176
   256
177
   256
178
   256
271
     2
272
     2
284
     8
288
     1
289
     0
340
1999
371
    -1
372
    -1
  0
ENDTAB
  0
TABLE
  2
BLOCK_RECORD
  5
1
330
0
100
AcDbSymbolTable
 70
    32
  0
BLOCK_RECORD
  5
1F
102
{ACAD_XDICTIONARY
360
8F
102
}
330
1
100
AcDbSymbolTableRecord
100
AcDbBlockTableRecord
  2
*Model_Space
340
22
  0
BLOCK_RECORD
  5
1B
330
1
100
AcDbSymbolTableRecord
100
AcDbBlockTableRecord
  2
*Paper_Space
340
1E
  0
BLOCK_RECORD
  5
23
330
1
100
AcDbSymbolTableRecord
100
AcDbBlockTableRecord
  2
*Paper_Space0
340
26
  0
BLOCK_RECORD
  5
87
330
1
100
AcDbSymbolTableRecord
100
AcDbBlockTableRecord
  2
GENAXEH
340
0
  0
BLOCK_RECORD
  5
2F17
102
{ACAD_XDICTIONARY
360
2F1B
102
}
330
1
100
AcDbSymbolTableRecord
100
AcDbBlockTableRecord
  2
A$C0B032DDE
340
0
102
{BLKREFS
331
2F42
331
45E6
102
}
  0
BLOCK_RECORD
  5
3011
330
1
100
AcDbSymbolTableRecord
100
AcDbBlockTableRecord
  2
*D3
340
0
  0
BLOCK_RECORD
  5
33EB
102
{ACAD_XDICTIONARY
360
33EC
102
}
330
1
100
AcDbSymbolTableRecord
100
AcDbBlockTableRecord
  2
A$C4A810FDD
340
0
102
{BLKREFS
331
3409
102
}
  0
BLOCK_RECORD
  5
3D7D
330
1
100
AcDbSymbolTableRecord
100
AcDbBlockTableRecord
  2
*D8
340
0
  0
BLOCK_RECORD
  5
3D89
330
1
100
AcDbSymbolTableRecord
100
AcDbBlockTableRecord
  2
*D9
340
0
  0
BLOCK_RECORD
  5
3D95
330
1
100
AcDbSymbolTableRecord
100
AcDbBlockTableRecord
  2
*D10
340
0
  0
BLOCK_RECORD
  5
3DA1
330
1
100
AcDbSymbolTableRecord
100
AcDbBlockTableRecord
  2
*D11
340
0
  0
BLOCK_RECORD
  5
3DAD
330
1
100
AcDbSymbolTableRecord
100
AcDbBlockTableRecord
  2
*D12
340
0
  0
BLOCK_RECORD
  5
3DDD
330
1
100
AcDbSymbolTableRecord
100
AcDbBlockTableRecord
  2
*D13
340
0
  0
BLOCK_RECORD
  5
3DF5
330
1
100
AcDbSymbolTableRecord
100
AcDbBlockTableRecord
  2
*D14
340
0
  0
BLOCK_RECORD
  5
3E03
330
1
100
AcDbSymbolTableRecord
100
AcDbBlockTableRecord
  2
*D15
340
0
  0
BLOCK_RECORD
  5
3E0F
330
1
100
AcDbSymbolTableRecord
100
AcDbBlockTableRecord
  2
*D16
340
0
  0
BLOCK_RECORD
  5
3E1B
330
1
100
AcDbSymbolTableRecord
100
AcDbBlockTableRecord
  2
*D17
340
0
  0
BLOCK_RECORD
  5
3E27
330
1
100
AcDbSymbolTableRecord
100
AcDbBlockTableRecord
  2
*D18
340
0
  0
BLOCK_RECORD
  5
3E53
330
1
100
AcDbSymbolTableRecord
100
AcDbBlockTableRecord
  2
*D19
340
0
  0
BLOCK_RECORD
  5
3E5F
330
1
100
AcDbSymbolTableRecord
100
AcDbBlockTableRecord
  2
*D20
340
0
  0
BLOCK_RECORD
  5
3E9B
330
1
100
AcDbSymbolTableRecord
100
AcDbBlockTableRecord
  2
*D21
340
0
  0
BLOCK_RECORD
  5
3ECB
330
1
100
AcDbSymbolTableRecord
100
AcDbBlockTableRecord
  2
*D22
340
0
  0
BLOCK_RECORD
  5
3ED7
330
1
100
AcDbSymbolTableRecord
100
AcDbBlockTableRecord
  2
*D23
340
0
  0
BLOCK_RECORD
  5
3EE3
330
1
100
AcDbSymbolTableRecord
100
AcDbBlockTableRecord
  2
*D24
340
0
  0
BLOCK_RECORD
  5
3EF1
330
1
100
AcDbSymbolTableRecord
100
AcDbBlockTableRecord
  2
*D25
340
0
  0
BLOCK_RECORD
  5
3F53
330
1
100
AcDbSymbolTableRecord
100
AcDbBlockTableRecord
  2
*D26
340
0
  0
BLOCK_RECORD
  5
4193
330
1
100
AcDbSymbolTableRecord
100
AcDbBlockTableRecord
  2
*D27
340
0
  0
BLOCK_RECORD
  5
44B6
330
1
100
AcDbSymbolTableRecord
100
AcDbBlockTableRecord
  2
*D29
340
0
  0
ENDTAB
  0
ENDSEC
  0
SECTION
  2
BLOCKS
  0
BLOCK
  5
20
330
1F
100
AcDbEntity
  8
0
100
AcDbBlockBegin
  2
*Model_Space
 70
     0
 10
0.0
 20
0.0
 30
0.0
  3
*Model_Space
  1

  0
ENDBLK
  5
21
330
1F
100
AcDbEntity
  8
0
100
AcDbBlockEnd
  0
BLOCK
  5
1C
330
1B
100
AcDbEntity
 67
     1
  8
0
100
AcDbBlockBegin
  2
*Paper_Space
 70
     0
 10
0.0
 20
0.0
 30
0.0
  3
*Paper_Space
  1

  0
ENDBLK
  5
1D
330
1B
100
AcDbEntity
 67
     1
  8
0
100
AcDbBlockEnd
  0
BLOCK
  5
24
330
23
100
AcDbEntity
  8
0
100
AcDbBlockBegin
  2
*Paper_Space0
 70
     0
 10
0.0
 20
0.0
 30
0.0
  3
*Paper_Space0
  1

  0
ENDBLK
  5
25
330
23
100
AcDbEntity
  8
0
100
AcDbBlockEnd
  0
BLOCK
  5
89
330
87
100
AcDbEntity
  8
0
100
AcDbBlockBegin
  2
GENAXEH
 70
     0
 10
0.0
 20
0.0
 30
0.0
  3
GENAXEH
  1

  0
LINE
  5
88
330
87
100
AcDbEntity
  8
0
100
AcDbLine
 10
-1.0
 20
0.0
 30
0.0
 11
1.0
 21
0.0
 31
0.0
  0
ENDBLK
  5
8A
330
87
100
AcDbEntity
  8
0
100
AcDbBlockEnd
  0
BLOCK
  5
2F1D
330
2F17
100
AcDbEntity
  8
0
100
AcDbBlockBegin
  2
A$C0B032DDE
 70
     0
 10
0.0
 20
0.0
 30
0.0
  3
A$C0B032DDE
  1

  0
LINE
  5
2F18
330
2F17
100
AcDbEntity
  8
SL
100
AcDbLine
 10
13.55998816895715
 20
0.6911750091422278
 30
0.0
 11
0.0
 21
0.6911750091422278
 31
0.0
  0
MTEXT
  5
2F19
330
2F17
100
AcDbEntity
  8
SL
100
AcDbMText
 10
1.217878159382053
 20
2.131626880873
 30
0.0
 40
3.674999999999999
 41
0.0
 71
     7
 72
     5
  1
SL
  7
ACISOTS
 73
     1
 44
1.0
1001
ACAD
1000
MTEXTBEGIN
1070
    73
1070
     1
1070
    44
1040
1.0
1070
    74
1070
     0
1000
MTEXTEND
  0
TRACE
  5
2F1A
330
2F17
100
AcDbEntity
  8
SL
370
    35
100
AcDbTrace
 10
8.309988168957147
 20
1.382350618392194
 30
0.0
 11
8.309988168957147
 21
-0.0000006001077395
 31
0.0
 12
13.55998816895715
 22
0.6911750091422278
 32
0.0
 13
13.55998816895715
 23
0.6911750091422278
 33
0.0
  0
ENDBLK
  5
2F1E
330
2F17
100
AcDbEntity
  8
0
100
AcDbBlockEnd
  0
BLOCK
  5
301A
330
3011
100
AcDbEntity
  8
0
100
AcDbBlockBegin
  2
*D3
 70
     1
 10
0.0
 20
0.0
 30
0.0
  3
*D3
  1

  0
LINE
  5
45E8
330
3011
100
AcDbEntity
  8
AM_5
100
AcDbLine
 10
758.430629604841
 20
194.4967386419694
 30
0.0
 11
768.902948673402
 21
212.6761459120236
 31
0.0
  0
LINE
  5
45E9
330
3011
100
AcDbEntity
  8
AM_5
100
AcDbLine
 10
768.902948673402
 20
212.6761459120236
 30
0.0
 11
792.0029486734022
 21
212.6761459120236
 31
0.0
  0
SOLID
  5
45EA
330
3011
100
AcDbEntity
  8
AM_5
100
AcDbTrace
 10
757.9973739085146
 20
194.7463172900959
 30
0.0
 11
758.8638853011674
 21
194.2471599938428
 31
0.0
 12
756.9331577160816
 22
191.8972044640106
 32
0.0
 13
756.9331577160816
 23
191.8972044640106
 33
0.0
  0
MTEXT
  5
45EB
330
3011
100
AcDbEntity
  8
AM_5
100
AcDbMText
 10
780.8029486734022
 20
215.1264904002127
 30
0.0
 40
3.5
 41
0.0
 71
     5
 72
     1
  1
3×2-PT1/4
 73
     1
 44
1.0
1001
ACAD
1000
MTEXTBEGIN
1070
    73
1070
     1
1070
    44
1040
1.0
1070
    74
1070
     0
1000
MTEXTEND
  0
POINT
  5
45EC
330
3011
100
AcDbEntity
  8
Defpoints
 62
     0
100
AcDbPoint
 10
756.9331577160816
 20
191.8972044640106
 30
0.0
  0
POINT
  5
45ED
330
3011
100
AcDbEntity
  8
Defpoints
 62
     0
100
AcDbPoint
 10
751.2427645387963
 20
182.0189745877677
 30
0.0
  0
ENDBLK
  5
301B
330
3011
100
AcDbEntity
  8
0
100
AcDbBlockEnd
  0
BLOCK
  5
33EE
330
33EB
100
AcDbEntity
  8
0
100
AcDbBlockBegin
  2
A$C4A810FDD
 70
     0
 10
0.0
 20
0.0
 30
0.0
  3
A$C4A810FDD
  1

  0
LINE
  5
33EF
330
33EB
100
AcDbEntity
  8
0
 62
     4
100
AcDbLine
 10
0.6303262853494971
 20
-0.000000562845571
 30
0.0
 11
0.6303262853494971
 21
12.50658953116749
 31
0.0
  0
TEXT
  5
33F0
330
33EB
100
AcDbEntity
  8
0
 62
     4
100
AcDbText
 10
-0.0000006125122809
 20
15.6750724592664
 30
0.0
 40
3.0
  1
2
 41
0.75
  7
CHINESET
100
AcDbText
  0
LINE
  5
33F1
330
33EB
100
AcDbEntity
  8
0
 62
     4
100
AcDbLine
 10
19.6303262853495
 20
-0.000000562845571
 30
0.0
 11
19.6303262853495
 21
12.50658953116749
 31
0.0
  0
TEXT
  5
33F2
330
33EB
100
AcDbEntity
  8
0
 62
     4
100
AcDbText
 10
18.99999938748772
 20
15.6750724592664
 30
0.0
 40
3.0
  1
3
 41
0.75
  7
CHINESET
100
AcDbText
  0
LINE
  5
33F3
330
33EB
100
AcDbEntity
  8
0
 62
     4
100
AcDbLine
 10
38.6303262853495
 20
-0.000000562845571
 30
0.0
 11
38.6303262853495
 21
12.50658953116749
 31
0.0
  0
TEXT
  5
33F4
330
33EB
100
AcDbEntity
  8
0
 62
     4
100
AcDbText
 10
37.99999938748772
 20
15.6750724592664
 30
0.0
 40
3.0
  1
4
 41
0.75
  7
CHINESET
100
AcDbText
  0
LINE
  5
33F5
330
33EB
100
AcDbEntity
  8
0
 62
     4
100
AcDbLine
 10
57.6303262853495
 20
-0.000000562845571
 30
0.0
 11
57.6303262853495
 21
12.50658953116749
 31
0.0
  0
TEXT
  5
33F6
330
33EB
100
AcDbEntity
  8
0
 62
     4
100
AcDbText
 10
56.99999938748772
 20
15.6750724592664
 30
0.0
 40
3.0
  1
5
 41
0.75
  7
CHINESET
100
AcDbText
  0
LINE
  5
33F7
330
33EB
100
AcDbEntity
  8
0
 62
     4
100
AcDbLine
 10
76.63032628534949
 20
-0.000000562845571
 30
0.0
 11
76.63032628534949
 21
12.50658953116749
 31
0.0
  0
TEXT
  5
33F8
330
33EB
100
AcDbEntity
  8
0
 62
     4
100
AcDbText
 10
75.99999938748772
 20
15.6750724592664
 30
0.0
 40
3.0
  1
6
 41
0.75
  7
CHINESET
100
AcDbText
  0
LINE
  5
33F9
330
33EB
100
AcDbEntity
  8
0
 62
     4
100
AcDbLine
 10
95.6303262853495
 20
-0.000000562845571
 30
0.0
 11
95.6303262853495
 21
12.50658953116749
 31
0.0
  0
TEXT
  5
33FA
330
33EB
100
AcDbEntity
  8
0
 62
     4
100
AcDbText
 10
94.99999938748771
 20
15.6750724592664
 30
0.0
 40
3.0
  1
7
 41
0.75
  7
CHINESET
100
AcDbText
  0
LINE
  5
33FB
330
33EB
100
AcDbEntity
  8
0
 62
     4
100
AcDbLine
 10
114.6303262853495
 20
-0.000000562845571
 30
0.0
 11
114.6303262853495
 21
12.50658953116749
 31
0.0
  0
TEXT
  5
33FC
330
33EB
100
AcDbEntity
  8
0
 62
     4
100
AcDbText
 10
113.9999993874877
 20
15.6750724592664
 30
0.0
 40
3.0
  1
8
 41
0.75
  7
CHINESET
100
AcDbText
  0
LINE
  5
33FD
330
33EB
100
AcDbEntity
  8
0
 62
     4
100
AcDbLine
 10
133.6303262853495
 20
-0.000000562845571
 30
0.0
 11
133.6303262853495
 21
12.50658953116749
 31
0.0
  0
TEXT
  5
33FE
330
33EB
100
AcDbEntity
  8
0
 62
     4
100
AcDbText
 10
132.9999993874877
 20
15.6750724592664
 30
0.0
 40
3.0
  1
9
 41
0.75
  7
CHINESET
100
AcDbText
  0
LINE
  5
33FF
330
33EB
100
AcDbEntity
  8
0
 62
     4
100
AcDbLine
 10
152.6303262853495
 20
-0.000000562845571
 30
0.0
 11
152.6303262853495
 21
12.50658953116749
 31
0.0
  0
TEXT
  5
3400
330
33EB
100
AcDbEntity
  8
0
 62
     4
100
AcDbText
 10
151.9999993874877
 20
15.6750724592664
 30
0.0
 40
3.0
  1
10
 41
0.75
  7
CHINESET
100
AcDbText
  0
ENDBLK
  5
3401
330
33EB
100
AcDbEntity
  8
0
100
AcDbBlockEnd
  0
BLOCK
  5
3D87
330
3D7D
100
AcDbEntity
  8
0
100
AcDbBlockBegin
  2
*D8
 70
     1
 10
0.0
 20
0.0
 30
0.0
  3
*D8
  1

  0
LINE
  5
4691
330
3D7D
100
AcDbEntity
  8
AM_5
100
AcDbLine
 10
733.0879611274391
 20
178.2355895258894
 30
0.0
 11
733.0879611274391
 21
158.3580895258894
 31
0.0
  0
LINE
  5
4692
330
3D7D
100
AcDbEntity
  8
AM_5
100
AcDbLine
 10
754.0879611274391
 20
178.2355895258894
 30
0.0
 11
754.0879611274391
 21
158.3580895258894
 31
0.0
  0
LINE
  5
4693
330
3D7D
100
AcDbEntity
  8
AM_5
100
AcDbLine
 10
736.0879611274391
 20
159.8580895258894
 30
0.0
 11
751.0879611274391
 21
159.8580895258894
 31
0.0
  0
SOLID
  5
4694
330
3D7D
100
AcDbEntity
  8
AM_5
100
AcDbTrace
 10
736.0879611274391
 20
160.3580895258894
 30
0.0
 11
736.0879611274391
 21
159.3580895258894
 31
0.0
 12
733.0879611274391
 22
159.8580895258894
 32
0.0
 13
733.0879611274391
 23
159.8580895258894
 33
0.0
  0
SOLID
  5
4695
330
3D7D
100
AcDbEntity
  8
AM_5
100
AcDbTrace
 10
751.0879611274391
 20
160.3580895258894
 30
0.0
 11
751.0879611274391
 21
159.3580895258894
 31
0.0
 12
754.0879611274391
 22
159.8580895258894
 32
0.0
 13
754.0879611274391
 23
159.8580895258894
 33
0.0
  0
MTEXT
  5
4696
330
3D7D
100
AcDbEntity
  8
AM_5
100
AcDbMText
 10
743.5879611274391
 20
162.4830895258894
 30
0.0
 40
3.5
 41
0.0
 71
     5
 72
     1
  1
(21)
 73
     1
 44
1.0
1001
ACAD
1000
MTEXTBEGIN
1070
    73
1070
     1
1070
    44
1040
1.0
1070
    74
1070
     0
1000
MTEXTEND
  0
POINT
  5
4697
330
3D7D
100
AcDbEntity
  8
Defpoints
 62
     0
100
AcDbPoint
 10
733.0879611274391
 20
179.2355895258894
 30
0.0
  0
POINT
  5
4698
330
3D7D
100
AcDbEntity
  8
Defpoints
 62
     0
100
AcDbPoint
 10
754.0879611274391
 20
179.2355895258894
 30
0.0
  0
POINT
  5
4699
330
3D7D
100
AcDbEntity
  8
Defpoints
 62
     0
100
AcDbPoint
 10
754.0879611274391
 20
159.8580895258894
 30
0.0
  0
ENDBLK
  5
3D88
330
3D7D
100
AcDbEntity
  8
0
100
AcDbBlockEnd
  0
BLOCK
  5
3D93
330
3D89
100
AcDbEntity
  8
0
100
AcDbBlockBegin
  2
*D9
 70
     1
 10
0.0
 20
0.0
 30
0.0
  3
*D9
  1

  0
LINE
  5
469A
330
3D89
100
AcDbEntity
  8
AM_5
100
AcDbLine
 10
733.0879611274391
 20
178.2355895258894
 30
0.0
 11
733.0879611274391
 21
158.3580895258894
 31
0.0
  0
LINE
  5
469B
330
3D89
100
AcDbEntity
  8
AM_5
100
AcDbLine
 10
712.0879611274391
 20
178.2355895258894
 30
0.0
 11
712.0879611274391
 21
158.3580895258894
 31
0.0
  0
LINE
  5
469C
330
3D89
100
AcDbEntity
  8
AM_5
100
AcDbLine
 10
730.0879611274391
 20
159.8580895258894
 30
0.0
 11
715.0879611274391
 21
159.8580895258894
 31
0.0
  0
SOLID
  5
469D
330
3D89
100
AcDbEntity
  8
AM_5
100
AcDbTrace
 10
730.0879611274391
 20
160.3580895258894
 30
0.0
 11
730.0879611274391
 21
159.3580895258894
 31
0.0
 12
733.0879611274391
 22
159.8580895258894
 32
0.0
 13
733.0879611274391
 23
159.8580895258894
 33
0.0
  0
SOLID
  5
469E
330
3D89
100
AcDbEntity
  8
AM_5
100
AcDbTrace
 10
715.0879611274391
 20
160.3580895258894
 30
0.0
 11
715.0879611274391
 21
159.3580895258894
 31
0.0
 12
712.0879611274391
 22
159.8580895258894
 32
0.0
 13
712.0879611274391
 23
159.8580895258894
 33
0.0
  0
MTEXT
  5
469F
330
3D89
100
AcDbEntity
  8
AM_5
100
AcDbMText
 10
722.5879611274391
 20
162.4830895258894
 30
0.0
 40
3.5
 41
0.0
 71
     5
 72
     1
  1
(21)
 73
     1
 44
1.0
1001
ACAD
1000
MTEXTBEGIN
1070
    73
1070
     1
1070
    44
1040
1.0
1070
    74
1070
     0
1000
MTEXTEND
  0
POINT
  5
46A0
330
3D89
100
AcDbEntity
  8
Defpoints
 62
     0
100
AcDbPoint
 10
733.0879611274391
 20
179.2355895258894
 30
0.0
  0
POINT
  5
46A1
330
3D89
100
AcDbEntity
  8
Defpoints
 62
     0
100
AcDbPoint
 10
712.0879611274391
 20
179.2355895258894
 30
0.0
  0
POINT
  5
46A2
330
3D89
100
AcDbEntity
  8
Defpoints
 62
     0
100
AcDbPoint
 10
712.0879611274391
 20
159.8580895258894
 30
0.0
  0
ENDBLK
  5
3D94
330
3D89
100
AcDbEntity
  8
0
100
AcDbBlockEnd
  0
BLOCK
  5
3D9F
330
3D95
100
AcDbEntity
  8
0
100
AcDbBlockBegin
  2
*D10
 70
     1
 10
0.0
 20
0.0
 30
0.0
  3
*D10
  1

  0
LINE
  5
46A3
330
3D95
100
AcDbEntity
  8
AM_5
100
AcDbLine
 10
733.0879611274391
 20
178.2355895258894
 30
0.0
 11
733.0879611274391
 21
150.3580895258894
 31
0.0
  0
LINE
  5
46A4
330
3D95
100
AcDbEntity
  8
AM_5
100
AcDbLine
 10
691.0879611274388
 20
166.8580895258894
 30
0.0
 11
691.0879611274388
 21
150.3580895258894
 31
0.0
  0
LINE
  5
46A5
330
3D95
100
AcDbEntity
  8
AM_5
100
AcDbLine
 10
730.0879611274391
 20
151.8580895258894
 30
0.0
 11
694.0879611274389
 21
151.8580895258894
 31
0.0
  0
SOLID
  5
46A6
330
3D95
100
AcDbEntity
  8
AM_5
100
AcDbTrace
 10
730.0879611274391
 20
152.3580895258894
 30
0.0
 11
730.0879611274391
 21
151.3580895258894
 31
0.0
 12
733.0879611274391
 22
151.8580895258894
 32
0.0
 13
733.0879611274391
 23
151.8580895258894
 33
0.0
  0
SOLID
  5
46A7
330
3D95
100
AcDbEntity
  8
AM_5
100
AcDbTrace
 10
694.0879611274389
 20
152.3580895258894
 30
0.0
 11
694.0879611274389
 21
151.3580895258894
 31
0.0
 12
691.0879611274388
 22
151.8580895258894
 32
0.0
 13
691.0879611274388
 23
151.8580895258894
 33
0.0
  0
MTEXT
  5
46A8
330
3D95
100
AcDbEntity
  8
AM_5
100
AcDbMText
 10
712.087961127439
 20
154.3084340140784
 30
0.0
 40
3.5
 41
0.0
 71
     5
 72
     1
  1
42
 73
     1
 44
1.0
1001
ACAD
1000
MTEXTBEGIN
1070
    73
1070
     1
1070
    44
1040
1.0
1070
    74
1070
     0
1000
MTEXTEND
  0
POINT
  5
46A9
330
3D95
100
AcDbEntity
  8
Defpoints
 62
     0
100
AcDbPoint
 10
733.0879611274391
 20
179.2355895258894
 30
0.0
  0
POINT
  5
46AA
330
3D95
100
AcDbEntity
  8
Defpoints
 62
     0
100
AcDbPoint
 10
691.0879611274388
 20
167.8580895258894
 30
0.0
  0
POINT
  5
46AB
330
3D95
100
AcDbEntity
  8
Defpoints
 62
     0
100
AcDbPoint
 10
691.0879611274388
 20
151.8580895258894
 30
0.0
  0
ENDBLK
  5
3DA0
330
3D95
100
AcDbEntity
  8
0
100
AcDbBlockEnd
  0
BLOCK
  5
3DAB
330
3DA1
100
AcDbEntity
  8
0
100
AcDbBlockBegin
  2
*D11
 70
     1
 10
0.0
 20
0.0
 30
0.0
  3
*D11
  1

  0
LINE
  5
46AC
330
3DA1
100
AcDbEntity
  8
AM_5
100
AcDbLine
 10
765.0879611274391
 20
167.8580895258894
 30
0.0
 11
777.5879611274391
 21
167.8580895258894
 31
0.0
  0
LINE
  5
46AD
330
3DA1
100
AcDbEntity
  8
AM_5
100
AcDbLine
 10
762.8104611274389
 20
186.9580895258894
 30
0.0
 11
777.5879611274391
 21
186.9580895258894
 31
0.0
  0
LINE
  5
46AE
330
3DA1
100
AcDbEntity
  8
AM_5
100
AcDbLine
 10
776.0879611274391
 20
170.8580895258894
 30
0.0
 11
776.0879611274391
 21
183.9580895258894
 31
0.0
  0
SOLID
  5
46AF
330
3DA1
100
AcDbEntity
  8
AM_5
100
AcDbTrace
 10
775.5879611274391
 20
170.8580895258894
 30
0.0
 11
776.5879611274391
 21
170.8580895258894
 31
0.0
 12
776.0879611274391
 22
167.8580895258894
 32
0.0
 13
776.0879611274391
 23
167.8580895258894
 33
0.0
  0
SOLID
  5
46B0
330
3DA1
100
AcDbEntity
  8
AM_5
100
AcDbTrace
 10
775.5879611274391
 20
183.9580895258894
 30
0.0
 11
776.5879611274391
 21
183.9580895258894
 31
0.0
 12
776.0879611274391
 22
186.9580895258894
 32
0.0
 13
776.0879611274391
 23
186.9580895258894
 33
0.0
  0
MTEXT
  5
46B1
330
3DA1
100
AcDbEntity
  8
AM_5
100
AcDbMText
 10
773.4621152491546
 20
177.4080895258896
 30
0.0
 40
3.5
 41
0.0
 71
     5
 72
     1
  1
(19.1)
 11
0.0000000000000001
 21
1.0
 31
0.0
 73
     1
 44
1.0
1001
ACAD
1000
MTEXTBEGIN
1070
    73
1070
     1
1070
    44
1040
1.0
1070
    74
1070
     0
1000
MTEXTEND
  0
POINT
  5
46B2
330
3DA1
100
AcDbEntity
  8
Defpoints
 62
     0
100
AcDbPoint
 10
764.0879611274391
 20
167.8580895258894
 30
0.0
  0
POINT
  5
46B3
330
3DA1
100
AcDbEntity
  8
Defpoints
 62
     0
100
AcDbPoint
 10
761.8104611274389
 20
186.9580895258894
 30
0.0
  0
POINT
  5
46B4
330
3DA1
100
AcDbEntity
  8
Defpoints
 62
     0
100
AcDbPoint
 10
776.0879611274391
 20
186.9580895258894
 30
0.0
  0
ENDBLK
  5
3DAC
330
3DA1
100
AcDbEntity
  8
0
100
AcDbBlockEnd
  0
BLOCK
  5
3DB7
330
3DAD
100
AcDbEntity
  8
0
100
AcDbBlockBegin
  2
*D12
 70
     1
 10
0.0
 20
0.0
 30
0.0
  3
*D12
  1

  0
LINE
  5
45EE
330
3DAD
100
AcDbEntity
  8
AM_5
100
AcDbLine
 10
594.0699718406705
 20
196.7580895258894
 30
0.0
 11
569.8258051746705
 21
196.7580895258894
 31
0.0
  0
LINE
  5
45EF
330
3DAD
100
AcDbEntity
  8
AM_5
100
AcDbLine
 10
584.7924718406706
 20
167.8580895258894
 30
0.0
 11
569.8258051746705
 21
167.8580895258894
 31
0.0
  0
LINE
  5
45F0
330
3DAD
100
AcDbEntity
  8
AM_5
100
AcDbLine
 10
571.3258051746705
 20
193.7580895258894
 30
0.0
 11
571.3258051746705
 21
170.8580895258894
 31
0.0
  0
SOLID
  5
45F1
330
3DAD
100
AcDbEntity
  8
AM_5
100
AcDbTrace
 10
570.8258051746705
 20
193.7580895258894
 30
0.0
 11
571.8258051746706
 21
193.7580895258894
 31
0.0
 12
571.3258051746705
 22
196.7580895258894
 32
0.0
 13
571.3258051746705
 23
196.7580895258894
 33
0.0
  0
SOLID
  5
45F2
330
3DAD
100
AcDbEntity
  8
AM_5
100
AcDbTrace
 10
570.8258051746705
 20
170.8580895258894
 30
0.0
 11
571.8258051746706
 21
170.8580895258894
 31
0.0
 12
571.3258051746705
 22
167.8580895258894
 32
0.0
 13
571.3258051746705
 23
167.8580895258894
 33
0.0
  0
MTEXT
  5
45F3
330
3DAD
100
AcDbEntity
  8
AM_5
100
AcDbMText
 10
568.8754606864815
 20
182.3080895258895
 30
0.0
 40
3.5
 41
0.0
 71
     5
 72
     1
  1
28.9
 11
0.0000000000000001
 21
1.0
 31
0.0
 73
     1
 44
1.0
1001
ACAD
1000
MTEXTBEGIN
1070
    73
1070
     1
1070
    44
1040
1.0
1070
    74
1070
     0
1000
MTEXTEND
  0
POINT
  5
45F4
330
3DAD
100
AcDbEntity
  8
Defpoints
 62
     0
100
AcDbPoint
 10
595.0699718406704
 20
196.7580895258894
 30
0.0
  0
POINT
  5
45F5
330
3DAD
100
AcDbEntity
  8
Defpoints
 62
     0
100
AcDbPoint
 10
585.7924718406706
 20
167.8580895258894
 30
0.0
  0
POINT
  5
45F6
330
3DAD
100
AcDbEntity
  8
Defpoints
 62
     0
100
AcDbPoint
 10
571.3258051746705
 20
167.8580895258894
 30
0.0
  0
ENDBLK
  5
3DB8
330
3DAD
100
AcDbEntity
  8
0
100
AcDbBlockEnd
  0
BLOCK
  5
3DE7
330
3DDD
100
AcDbEntity
  8
0
100
AcDbBlockBegin
  2
*D13
 70
     1
 10
0.0
 20
0.0
 30
0.0
  3
*D13
  1

  0
LINE
  5
45F7
330
3DDD
100
AcDbEntity
  8
AM_5
100
AcDbLine
 10
691.0879611274391
 20
166.8580895258894
 30
0.0
 11
691.0879611274391
 21
142.3580895258894
 31
0.0
  0
LINE
  5
45F8
330
3DDD
100
AcDbEntity
  8
AM_5
100
AcDbLine
 10
764.0879611274391
 20
166.8580895258894
 30
0.0
 11
764.0879611274391
 21
142.3580895258894
 31
0.0
  0
LINE
  5
45F9
330
3DDD
100
AcDbEntity
  8
AM_5
100
AcDbLine
 10
694.0879611274391
 20
143.8580895258894
 30
0.0
 11
761.0879611274391
 21
143.8580895258894
 31
0.0
  0
SOLID
  5
45FA
330
3DDD
100
AcDbEntity
  8
AM_5
100
AcDbTrace
 10
694.0879611274391
 20
144.3580895258894
 30
0.0
 11
694.0879611274391
 21
143.3580895258894
 31
0.0
 12
691.0879611274391
 22
143.8580895258894
 32
0.0
 13
691.0879611274391
 23
143.8580895258894
 33
0.0
  0
SOLID
  5
45FB
330
3DDD
100
AcDbEntity
  8
AM_5
100
AcDbTrace
 10
761.0879611274391
 20
144.3580895258894
 30
0.0
 11
761.0879611274391
 21
143.3580895258894
 31
0.0
 12
764.0879611274391
 22
143.8580895258894
 32
0.0
 13
764.0879611274391
 23
143.8580895258894
 33
0.0
  0
MTEXT
  5
45FC
330
3DDD
100
AcDbEntity
  8
AM_5
100
AcDbMText
 10
727.5879611274391
 20
146.3080895258894
 30
0.0
 40
3.5
 41
0.0
 71
     5
 72
     1
  1
73
 73
     1
 44
1.0
1001
ACAD
1000
MTEXTBEGIN
1070
    73
1070
     1
1070
    44
1040
1.0
1070
    74
1070
     0
1000
MTEXTEND
  0
POINT
  5
45FD
330
3DDD
100
AcDbEntity
  8
Defpoints
 62
     0
100
AcDbPoint
 10
691.0879611274391
 20
167.8580895258894
 30
0.0
  0
POINT
  5
45FE
330
3DDD
100
AcDbEntity
  8
Defpoints
 62
     0
100
AcDbPoint
 10
764.0879611274391
 20
167.8580895258894
 30
0.0
  0
POINT
  5
45FF
330
3DDD
100
AcDbEntity
  8
Defpoints
 62
     0
100
AcDbPoint
 10
764.0879611274391
 20
143.8580895258894
 30
0.0
  0
ENDBLK
  5
3DE8
330
3DDD
100
AcDbEntity
  8
0
100
AcDbBlockEnd
  0
BLOCK
  5
3E01
330
3DF5
100
AcDbEntity
  8
0
100
AcDbBlockBegin
  2
*D14
 70
     1
 10
0.0
 20
0.0
 30
0.0
  3
*D14
  1

  0
LINE
  5
46CA
330
3DF5
100
AcDbEntity
  8
AM_5
100
AcDbLine
 10
591.7924718406705
 20
285.3767439003116
 30
0.0
 11
591.7924718406705
 21
245.6267439003116
 31
0.0
  0
LINE
  5
46CB
330
3DF5
100
AcDbEntity
  8
AM_5
100
AcDbLine
 10
585.7924718406706
 20
258.1267439003116
 30
0.0
 11
585.7924718406706
 21
245.6267439003116
 31
0.0
  0
LINE
  5
46CC
330
3DF5
100
AcDbEntity
  8
AM_5
100
AcDbLine
 10
594.7924718406706
 20
247.1267439003116
 30
0.0
 11
597.7924718406706
 21
247.1267439003116
 31
0.0
  0
LINE
  5
46CD
330
3DF5
100
AcDbEntity
  8
AM_5
100
AcDbLine
 10
582.7924718406706
 20
247.1267439003116
 30
0.0
 11
579.7924718406705
 21
247.1267439003116
 31
0.0
  0
LINE
  5
46CE
330
3DF5
100
AcDbEntity
  8
AM_5
100
AcDbLine
 10
591.7924718406705
 20
247.1267439003116
 30
0.0
 11
585.7924718406706
 21
247.1267439003116
 31
0.0
  0
SOLID
  5
46CF
330
3DF5
100
AcDbEntity
  8
AM_5
100
AcDbTrace
 10
594.7924718406706
 20
247.6267439003116
 30
0.0
 11
594.7924718406706
 21
246.6267439003116
 31
0.0
 12
591.7924718406705
 22
247.1267439003116
 32
0.0
 13
591.7924718406705
 23
247.1267439003116
 33
0.0
  0
SOLID
  5
46D0
330
3DF5
100
AcDbEntity
  8
AM_5
100
AcDbTrace
 10
582.7924718406706
 20
247.6267439003116
 30
0.0
 11
582.7924718406706
 21
246.6267439003116
 31
0.0
 12
585.7924718406706
 22
247.1267439003116
 32
0.0
 13
585.7924718406706
 23
247.1267439003116
 33
0.0
  0
MTEXT
  5
46D1
330
3DF5
100
AcDbEntity
  8
AM_5
100
AcDbMText
 10
588.7924718406706
 20
249.5767439003115
 30
0.0
 40
3.5
 41
0.0
 71
     5
 72
     1
  1
6
 73
     1
 44
1.0
1001
ACAD
1000
MTEXTBEGIN
1070
    73
1070
     1
1070
    44
1040
1.0
1070
    74
1070
     0
1000
MTEXTEND
  0
POINT
  5
46D2
330
3DF5
100
AcDbEntity
  8
Defpoints
 62
     0
100
AcDbPoint
 10
591.7924718406705
 20
286.3767439003116
 30
0.0
  0
POINT
  5
46D3
330
3DF5
100
AcDbEntity
  8
Defpoints
 62
     0
100
AcDbPoint
 10
585.7924718406706
 20
259.1267439003116
 30
0.0
  0
POINT
  5
46D4
330
3DF5
100
AcDbEntity
  8
Defpoints
 62
     0
100
AcDbPoint
 10
585.7924718406706
 20
247.1267439003116
 30
0.0
  0
ENDBLK
  5
3E02
330
3DF5
100
AcDbEntity
  8
0
100
AcDbBlockEnd
  0
BLOCK
  5
3E0D
330
3E03
100
AcDbEntity
  8
0
100
AcDbBlockBegin
  2
*D15
 70
     1
 10
0.0
 20
0.0
 30
0.0
  3
*D15
  1

  0
LINE
  5
46D5
330
3E03
100
AcDbEntity
  8
AM_5
100
AcDbLine
 10
591.7924718406705
 20
285.3767439003116
 30
0.0
 11
591.7924718406705
 21
245.6267439003116
 31
0.0
  0
LINE
  5
46D6
330
3E03
100
AcDbEntity
  8
AM_5
100
AcDbLine
 10
640.7924718406706
 20
285.3767439003116
 30
0.0
 11
640.7924718406706
 21
245.6267439003116
 31
0.0
  0
LINE
  5
46D7
330
3E03
100
AcDbEntity
  8
AM_5
100
AcDbLine
 10
594.7924718406706
 20
247.1267439003116
 30
0.0
 11
637.7924718406705
 21
247.1267439003116
 31
0.0
  0
SOLID
  5
46D8
330
3E03
100
AcDbEntity
  8
AM_5
100
AcDbTrace
 10
594.7924718406706
 20
247.6267439003116
 30
0.0
 11
594.7924718406706
 21
246.6267439003116
 31
0.0
 12
591.7924718406705
 22
247.1267439003116
 32
0.0
 13
591.7924718406705
 23
247.1267439003116
 33
0.0
  0
SOLID
  5
46D9
330
3E03
100
AcDbEntity
  8
AM_5
100
AcDbTrace
 10
637.7924718406705
 20
247.6267439003116
 30
0.0
 11
637.7924718406705
 21
246.6267439003116
 31
0.0
 12
640.7924718406706
 22
247.1267439003116
 32
0.0
 13
640.7924718406706
 23
247.1267439003116
 33
0.0
  0
MTEXT
  5
46DA
330
3E03
100
AcDbEntity
  8
AM_5
100
AcDbMText
 10
616.2924718406705
 20
249.5767439003115
 30
0.0
 40
3.5
 41
0.0
 71
     5
 72
     1
  1
Y
 73
     1
 44
1.0
1001
ACAD
1000
MTEXTBEGIN
1070
    73
1070
     1
1070
    44
1040
1.0
1070
    74
1070
     0
1000
MTEXTEND
  0
POINT
  5
46DB
330
3E03
100
AcDbEntity
  8
Defpoints
 62
     0
100
AcDbPoint
 10
591.7924718406705
 20
286.3767439003116
 30
0.0
  0
POINT
  5
46DC
330
3E03
100
AcDbEntity
  8
Defpoints
 62
     0
100
AcDbPoint
 10
640.7924718406706
 20
286.3767439003116
 30
0.0
  0
POINT
  5
46DD
330
3E03
100
AcDbEntity
  8
Defpoints
 62
     0
100
AcDbPoint
 10
640.7924718406706
 20
247.1267439003116
 30
0.0
  0
ENDBLK
  5
3E0E
330
3E03
100
AcDbEntity
  8
0
100
AcDbBlockEnd
  0
BLOCK
  5
3E19
330
3E0F
100
AcDbEntity
  8
0
100
AcDbBlockBegin
  2
*D16
 70
     1
 10
0.0
 20
0.0
 30
0.0
  3
*D16
  1

  0
LINE
  5
46DE
330
3E0F
100
AcDbEntity
  8
AM_5
100
AcDbLine
 10
647.7924718406706
 20
259.1267439003116
 30
0.0
 11
660.2924718406706
 21
259.1267439003116
 31
0.0
  0
LINE
  5
46DF
330
3E0F
100
AcDbEntity
  8
AM_5
100
AcDbLine
 10
646.0424718406706
 20
290.6267439003116
 30
0.0
 11
660.2924718406706
 21
290.6267439003116
 31
0.0
  0
LINE
  5
46E0
330
3E0F
100
AcDbEntity
  8
AM_5
100
AcDbLine
 10
658.7924718406705
 20
262.1267439003116
 30
0.0
 11
658.7924718406705
 21
287.6267439003115
 31
0.0
  0
SOLID
  5
46E1
330
3E0F
100
AcDbEntity
  8
AM_5
100
AcDbTrace
 10
658.2924718406705
 20
262.1267439003116
 30
0.0
 11
659.2924718406706
 21
262.1267439003116
 31
0.0
 12
658.7924718406705
 22
259.1267439003116
 32
0.0
 13
658.7924718406705
 23
259.1267439003116
 33
0.0
  0
SOLID
  5
46E2
330
3E0F
100
AcDbEntity
  8
AM_5
100
AcDbTrace
 10
658.2924718406705
 20
287.6267439003115
 30
0.0
 11
659.2924718406706
 21
287.6267439003115
 31
0.0
 12
658.7924718406705
 22
290.6267439003116
 32
0.0
 13
658.7924718406705
 23
290.6267439003116
 33
0.0
  0
MTEXT
  5
46E3
330
3E0F
100
AcDbEntity
  8
AM_5
100
AcDbMText
 10
656.3424718406704
 20
274.8767439003117
 30
0.0
 40
3.5
 41
0.0
 71
     5
 72
     1
  1
31.5
 11
0.0000000000000001
 21
1.0
 31
0.0
 73
     1
 44
1.0
1001
ACAD
1000
MTEXTBEGIN
1070
    73
1070
     1
1070
    44
1040
1.0
1070
    74
1070
     0
1000
MTEXTEND
  0
POINT
  5
46E4
330
3E0F
100
AcDbEntity
  8
Defpoints
 62
     0
100
AcDbPoint
 10
646.7924718406706
 20
259.1267439003116
 30
0.0
  0
POINT
  5
46E5
330
3E0F
100
AcDbEntity
  8
Defpoints
 62
     0
100
AcDbPoint
 10
645.0424718406706
 20
290.6267439003116
 30
0.0
  0
POINT
  5
46E6
330
3E0F
100
AcDbEntity
  8
Defpoints
 62
     0
100
AcDbPoint
 10
658.7924718406705
 20
290.6267439003116
 30
0.0
  0
ENDBLK
  5
3E1A
330
3E0F
100
AcDbEntity
  8
0
100
AcDbBlockEnd
  0
BLOCK
  5
3E25
330
3E1B
100
AcDbEntity
  8
0
100
AcDbBlockBegin
  2
*D17
 70
     1
 10
0.0
 20
0.0
 30
0.0
  3
*D17
  1

  0
LINE
  5
46E7
330
3E1B
100
AcDbEntity
  8
AM_5
100
AcDbLine
 10
646.0424718406706
 20
290.6267439003116
 30
0.0
 11
660.2924718406706
 21
290.6267439003116
 31
0.0
  0
LINE
  5
46E8
330
3E1B
100
AcDbEntity
  8
AM_5
100
AcDbLine
 10
646.0424718406706
 20
311.6267439003116
 30
0.0
 11
660.2924718406706
 21
311.6267439003116
 31
0.0
  0
LINE
  5
46E9
330
3E1B
100
AcDbEntity
  8
AM_5
100
AcDbLine
 10
658.7924718406705
 20
293.6267439003115
 30
0.0
 11
658.7924718406705
 21
308.6267439003116
 31
0.0
  0
SOLID
  5
46EA
330
3E1B
100
AcDbEntity
  8
AM_5
100
AcDbTrace
 10
658.2924718406705
 20
293.6267439003115
 30
0.0
 11
659.2924718406706
 21
293.6267439003115
 31
0.0
 12
658.7924718406705
 22
290.6267439003116
 32
0.0
 13
658.7924718406705
 23
290.6267439003116
 33
0.0
  0
SOLID
  5
46EB
330
3E1B
100
AcDbEntity
  8
AM_5
100
AcDbTrace
 10
658.2924718406705
 20
308.6267439003116
 30
0.0
 11
659.2924718406706
 21
308.6267439003116
 31
0.0
 12
658.7924718406705
 22
311.6267439003116
 32
0.0
 13
658.7924718406705
 23
311.6267439003116
 33
0.0
  0
MTEXT
  5
46EC
330
3E1B
100
AcDbEntity
  8
AM_5
100
AcDbMText
 10
656.3421273524815
 20
301.1267439003117
 30
0.0
 40
3.5
 41
0.0
 71
     5
 72
     1
  1
21
 11
0.0000000000000001
 21
1.0
 31
0.0
 73
     1
 44
1.0
1001
ACAD
1000
MTEXTBEGIN
1070
    73
1070
     1
1070
    44
1040
1.0
1070
    74
1070
     0
1000
MTEXTEND
  0
POINT
  5
46ED
330
3E1B
100
AcDbEntity
  8
Defpoints
 62
     0
100
AcDbPoint
 10
645.0424718406706
 20
290.6267439003116
 30
0.0
  0
POINT
  5
46EE
330
3E1B
100
AcDbEntity
  8
Defpoints
 62
     0
100
AcDbPoint
 10
645.0424718406706
 20
311.6267439003116
 30
0.0
  0
POINT
  5
46EF
330
3E1B
100
AcDbEntity
  8
Defpoints
 62
     0
100
AcDbPoint
 10
658.7924718406705
 20
311.6267439003116
 30
0.0
  0
ENDBLK
  5
3E26
330
3E1B
100
AcDbEntity
  8
0
100
AcDbBlockEnd
  0
BLOCK
  5
3E31
330
3E27
100
AcDbEntity
  8
0
100
AcDbBlockBegin
  2
*D18
 70
     1
 10
0.0
 20
0.0
 30
0.0
  3
*D18
  1

  0
LINE
  5
46F0
330
3E27
100
AcDbEntity
  8
AM_5
100
AcDbLine
 10
584.7924718406706
 20
259.1267439003116
 30
0.0
 11
564.2924718406706
 21
259.1267439003116
 31
0.0
  0
LINE
  5
46F1
330
3E27
100
AcDbEntity
  8
AM_5
100
AcDbLine
 10
581.8313053328194
 20
300.7267439003116
 30
0.0
 11
564.2924718406706
 21
300.7267439003116
 31
0.0
  0
LINE
  5
46F2
330
3E27
100
AcDbEntity
  8
AM_5
100
AcDbLine
 10
565.7924718406706
 20
262.1267439003116
 30
0.0
 11
565.7924718406706
 21
297.7267439003116
 31
0.0
  0
SOLID
  5
46F3
330
3E27
100
AcDbEntity
  8
AM_5
100
AcDbTrace
 10
565.2924718406706
 20
262.1267439003116
 30
0.0
 11
566.2924718406705
 21
262.1267439003116
 31
0.0
 12
565.7924718406706
 22
259.1267439003116
 32
0.0
 13
565.7924718406706
 23
259.1267439003116
 33
0.0
  0
SOLID
  5
46F4
330
3E27
100
AcDbEntity
  8
AM_5
100
AcDbTrace
 10
565.2924718406706
 20
297.7267439003116
 30
0.0
 11
566.2924718406705
 21
297.7267439003116
 31
0.0
 12
565.7924718406706
 22
300.7267439003116
 32
0.0
 13
565.7924718406706
 23
300.7267439003116
 33
0.0
  0
MTEXT
  5
46F5
330
3E27
100
AcDbEntity
  8
AM_5
100
AcDbMText
 10
563.3424718406704
 20
279.9267439003116
 30
0.0
 40
3.5
 41
0.0
 71
     5
 72
     1
  1
41.6
 11
0.0000000000000001
 21
1.0
 31
0.0
 73
     1
 44
1.0
1001
ACAD
1000
MTEXTBEGIN
1070
    73
1070
     1
1070
    44
1040
1.0
1070
    74
1070
     0
1000
MTEXTEND
  0
POINT
  5
46F6
330
3E27
100
AcDbEntity
  8
Defpoints
 62
     0
100
AcDbPoint
 10
585.7924718406706
 20
259.1267439003116
 30
0.0
  0
POINT
  5
46F7
330
3E27
100
AcDbEntity
  8
Defpoints
 62
     0
100
AcDbPoint
 10
582.8313053328193
 20
300.7267439003116
 30
0.0
  0
POINT
  5
46F8
330
3E27
100
AcDbEntity
  8
Defpoints
 62
     0
100
AcDbPoint
 10
565.7924718406706
 20
300.7267439003116
 30
0.0
  0
ENDBLK
  5
3E32
330
3E27
100
AcDbEntity
  8
0
100
AcDbBlockEnd
  0
BLOCK
  5
3E5D
330
3E53
100
AcDbEntity
  8
0
100
AcDbBlockBegin
  2
*D19
 70
     1
 10
0.0
 20
0.0
 30
0.0
  3
*D19
  1

  0
LINE
  5
46F9
330
3E53
100
AcDbEntity
  8
AM_5
100
AcDbLine
 10
581.8313053328194
 20
300.7267439003116
 30
0.0
 11
572.2924718406706
 21
300.7267439003116
 31
0.0
  0
LINE
  5
46FA
330
3E53
100
AcDbEntity
  8
AM_5
100
AcDbLine
 10
595.0814718406705
 20
279.7267439003116
 30
0.0
 11
572.2924718406706
 21
279.7267439003116
 31
0.0
  0
LINE
  5
46FB
330
3E53
100
AcDbEntity
  8
AM_5
100
AcDbLine
 10
573.7924718406706
 20
297.7267439003116
 30
0.0
 11
573.7924718406706
 21
282.7267439003116
 31
0.0
  0
SOLID
  5
46FC
330
3E53
100
AcDbEntity
  8
AM_5
100
AcDbTrace
 10
573.2924718406706
 20
297.7267439003116
 30
0.0
 11
574.2924718406706
 21
297.7267439003116
 31
0.0
 12
573.7924718406706
 22
300.7267439003116
 32
0.0
 13
573.7924718406706
 23
300.7267439003116
 33
0.0
  0
SOLID
  5
46FD
330
3E53
100
AcDbEntity
  8
AM_5
100
AcDbTrace
 10
573.2924718406706
 20
282.7267439003116
 30
0.0
 11
574.2924718406706
 21
282.7267439003116
 31
0.0
 12
573.7924718406706
 22
279.7267439003116
 32
0.0
 13
573.7924718406706
 23
279.7267439003116
 33
0.0
  0
MTEXT
  5
46FE
330
3E53
100
AcDbEntity
  8
AM_5
100
AcDbMText
 10
571.3421273524814
 20
290.2267439003117
 30
0.0
 40
3.5
 41
0.0
 71
     5
 72
     1
  1
21
 11
0.0000000000000001
 21
1.0
 31
0.0
 73
     1
 44
1.0
1001
ACAD
1000
MTEXTBEGIN
1070
    73
1070
     1
1070
    44
1040
1.0
1070
    74
1070
     0
1000
MTEXTEND
  0
POINT
  5
46FF
330
3E53
100
AcDbEntity
  8
Defpoints
 62
     0
100
AcDbPoint
 10
582.8313053328193
 20
300.7267439003116
 30
0.0
  0
POINT
  5
4700
330
3E53
100
AcDbEntity
  8
Defpoints
 62
     0
100
AcDbPoint
 10
596.0814718406705
 20
279.7267439003116
 30
0.0
  0
POINT
  5
4701
330
3E53
100
AcDbEntity
  8
Defpoints
 62
     0
100
AcDbPoint
 10
573.7924718406706
 20
279.7267439003116
 30
0.0
  0
ENDBLK
  5
3E5E
330
3E53
100
AcDbEntity
  8
0
100
AcDbBlockEnd
  0
BLOCK
  5
3E69
330
3E5F
100
AcDbEntity
  8
0
100
AcDbBlockBegin
  2
*D20
 70
     1
 10
0.0
 20
0.0
 30
0.0
  3
*D20
  1

  0
LINE
  5
4702
330
3E5F
100
AcDbEntity
  8
AM_5
100
AcDbLine
 10
681.767918269242
 20
330.6267439003124
 30
0.0
 11
653.4924718406723
 21
330.6267439003126
 31
0.0
  0
LINE
  5
4703
330
3E5F
100
AcDbEntity
  8
AM_5
100
AcDbLine
 10
653.4924718406723
 20
330.6267439003126
 30
0.0
 11
643.432092235347
 21
315.5757822860471
 31
0.0
  0
MTEXT
  5
4704
330
3E5F
100
AcDbEntity
  8
AM_5
100
AcDbMText
 10
669.2790789835278
 20
332.5434105669792
 30
0.0
 40
2.5
 41
0.0
 71
     5
 72
     1
  1
\A1;2×2-\U+22054.5貫通
  7
DAYUS
 73
     1
 44
1.0
1001
ACAD
1000
MTEXTBEGIN
1070
    73
1070
     1
1070
    44
1040
1.0
1070
    74
1070
     0
1000
MTEXTEND
  0
SOLID
  5
4705
330
3E5F
100
AcDbEntity
  8
AM_5
100
AcDbTrace
 10
643.0856853594053
 20
315.8073279347029
 30
0.0
 11
643.7784991112887
 21
315.3442366373913
 31
0.0
 12
642.0428183434124
 22
313.4973410303969
 32
0.0
 13
642.0428183434124
 23
313.4973410303969
 33
0.0
  0
POINT
  5
4706
330
3E5F
100
AcDbEntity
  8
Defpoints
 62
     0
100
AcDbPoint
 10
642.0428183434124
 20
313.4973410303969
 30
0.0
  0
POINT
  5
4707
330
3E5F
100
AcDbEntity
  8
Defpoints
 62
     0
100
AcDbPoint
 10
639.5421253379297
 20
309.7561467702262
 30
0.0
  0
ENDBLK
  5
3E6A
330
3E5F
100
AcDbEntity
  8
0
100
AcDbBlockEnd
  0
BLOCK
  5
3EA5
330
3E9B
100
AcDbEntity
  8
0
100
AcDbBlockBegin
  2
*D21
 70
     1
 10
0.0
 20
0.0
 30
0.0
  3
*D21
  1

  0
LINE
  5
4C11
330
3E9B
100
AcDbEntity
  8
AM_5
100
AcDbLine
 10
690.0879611274391
 20
167.8580895258894
 30
0.0
 11
677.0017231596914
 21
167.8580895258894
 31
0.0
  0
LINE
  5
4C12
330
3E9B
100
AcDbEntity
  8
AM_5
100
AcDbLine
 10
701.5879611274391
 20
208.8580895258894
 30
0.0
 11
677.0017231596914
 21
208.8580895258894
 31
0.0
  0
LINE
  5
4C13
330
3E9B
100
AcDbEntity
  8
AM_5
100
AcDbLine
 10
678.5017231596914
 20
170.8580895258894
 30
0.0
 11
678.5017231596914
 21
205.8580895258895
 31
0.0
  0
SOLID
  5
4C14
330
3E9B
100
AcDbEntity
  8
AM_5
100
AcDbTrace
 10
678.0017231596914
 20
170.8580895258894
 30
0.0
 11
679.0017231596914
 21
170.8580895258894
 31
0.0
 12
678.5017231596914
 22
167.8580895258894
 32
0.0
 13
678.5017231596914
 23
167.8580895258894
 33
0.0
  0
SOLID
  5
4C15
330
3E9B
100
AcDbEntity
  8
AM_5
100
AcDbTrace
 10
678.0017231596914
 20
205.8580895258895
 30
0.0
 11
679.0017231596914
 21
205.8580895258895
 31
0.0
 12
678.5017231596914
 22
208.8580895258894
 32
0.0
 13
678.5017231596914
 23
208.8580895258894
 33
0.0
  0
MTEXT
  5
4C16
330
3E9B
100
AcDbEntity
  8
AM_5
100
AcDbMText
 10
676.0517231596914
 20
188.3580895258895
 30
0.0
 40
3.5
 41
0.0
 71
     5
 72
     1
  1
41
 11
0.0000000000000001
 21
1.0
 31
0.0
 73
     1
 44
1.0
1001
ACAD
1000
MTEXTBEGIN
1070
    73
1070
     1
1070
    44
1040
1.0
1070
    74
1070
     0
1000
MTEXTEND
  0
POINT
  5
4C17
330
3E9B
100
AcDbEntity
  8
Defpoints
 62
     0
100
AcDbPoint
 10
691.0879611274391
 20
167.8580895258894
 30
0.0
  0
POINT
  5
4C18
330
3E9B
100
AcDbEntity
  8
Defpoints
 62
     0
100
AcDbPoint
 10
702.5879611274391
 20
208.8580895258894
 30
0.0
  0
POINT
  5
4C19
330
3E9B
100
AcDbEntity
  8
Defpoints
 62
     0
100
AcDbPoint
 10
678.5017231596914
 20
208.8580895258894
 30
0.0
  0
ENDBLK
  5
3EA6
330
3E9B
100
AcDbEntity
  8
0
100
AcDbBlockEnd
  0
BLOCK
  5
3ED5
330
3ECB
100
AcDbEntity
  8
0
100
AcDbBlockBegin
  2
*D22
 70
     1
 10
0.0
 20
0.0
 30
0.0
  3
*D22
  1

  0
LINE
  5
4647
330
3ECB
100
AcDbEntity
  8
AM_5
100
AcDbLine
 10
609.7924718406706
 20
168.5355895258894
 30
0.0
 11
609.7924718406706
 21
146.3580895258894
 31
0.0
  0
LINE
  5
4648
330
3ECB
100
AcDbEntity
  8
AM_5
100
AcDbLine
 10
585.7924718406706
 20
166.8580895258894
 30
0.0
 11
585.7924718406706
 21
146.3580895258894
 31
0.0
  0
LINE
  5
4649
330
3ECB
100
AcDbEntity
  8
AM_5
100
AcDbLine
 10
606.7924718406706
 20
147.8580895258894
 30
0.0
 11
588.7924718406706
 21
147.8580895258894
 31
0.0
  0
SOLID
  5
464A
330
3ECB
100
AcDbEntity
  8
AM_5
100
AcDbTrace
 10
606.7924718406706
 20
148.3580895258894
 30
0.0
 11
606.7924718406706
 21
147.3580895258894
 31
0.0
 12
609.7924718406706
 22
147.8580895258894
 32
0.0
 13
609.7924718406706
 23
147.8580895258894
 33
0.0
  0
SOLID
  5
464B
330
3ECB
100
AcDbEntity
  8
AM_5
100
AcDbTrace
 10
588.7924718406706
 20
148.3580895258894
 30
0.0
 11
588.7924718406706
 21
147.3580895258894
 31
0.0
 12
585.7924718406706
 22
147.8580895258894
 32
0.0
 13
585.7924718406706
 23
147.8580895258894
 33
0.0
  0
MTEXT
  5
464C
330
3ECB
100
AcDbEntity
  8
AM_5
100
AcDbMText
 10
597.7924718406706
 20
150.3084340140784
 30
0.0
 40
3.5
 41
0.0
 71
     5
 72
     1
  1
24
 73
     1
 44
1.0
1001
ACAD
1000
MTEXTBEGIN
1070
    73
1070
     1
1070
    44
1040
1.0
1070
    74
1070
     0
1000
MTEXTEND
  0
POINT
  5
464D
330
3ECB
100
AcDbEntity
  8
Defpoints
 62
     0
100
AcDbPoint
 10
609.7924718406706
 20
169.5355895258894
 30
0.0
  0
POINT
  5
464E
330
3ECB
100
AcDbEntity
  8
Defpoints
 62
     0
100
AcDbPoint
 10
585.7924718406706
 20
167.8580895258894
 30
0.0
  0
POINT
  5
464F
330
3ECB
100
AcDbEntity
  8
Defpoints
 62
     0
100
AcDbPoint
 10
585.7924718406706
 20
147.8580895258894
 30
0.0
  0
ENDBLK
  5
3ED6
330
3ECB
100
AcDbEntity
  8
0
100
AcDbBlockEnd
  0
BLOCK
  5
3EE1
330
3ED7
100
AcDbEntity
  8
0
100
AcDbBlockBegin
  2
*D23
 70
     1
 10
0.0
 20
0.0
 30
0.0
  3
*D23
  1

  0
LINE
  5
4650
330
3ED7
100
AcDbEntity
  8
AM_5
100
AcDbLine
 10
609.7924718406706
 20
168.5355895258894
 30
0.0
 11
609.7924718406706
 21
146.3580895258894
 31
0.0
  0
LINE
  5
4651
330
3ED7
100
AcDbEntity
  8
AM_5
100
AcDbLine
 10
628.7924718406705
 20
168.5355895258894
 30
0.0
 11
628.7924718406705
 21
146.3580895258894
 31
0.0
  0
LINE
  5
4652
330
3ED7
100
AcDbEntity
  8
AM_5
100
AcDbLine
 10
612.7924718406705
 20
147.8580895258894
 30
0.0
 11
625.7924718406705
 21
147.8580895258894
 31
0.0
  0
SOLID
  5
4653
330
3ED7
100
AcDbEntity
  8
AM_5
100
AcDbTrace
 10
612.7924718406705
 20
148.3580895258894
 30
0.0
 11
612.7924718406705
 21
147.3580895258894
 31
0.0
 12
609.7924718406706
 22
147.8580895258894
 32
0.0
 13
609.7924718406706
 23
147.8580895258894
 33
0.0
  0
SOLID
  5
4654
330
3ED7
100
AcDbEntity
  8
AM_5
100
AcDbTrace
 10
625.7924718406705
 20
148.3580895258894
 30
0.0
 11
625.7924718406705
 21
147.3580895258894
 31
0.0
 12
628.7924718406705
 22
147.8580895258894
 32
0.0
 13
628.7924718406705
 23
147.8580895258894
 33
0.0
  0
MTEXT
  5
4655
330
3ED7
100
AcDbEntity
  8
AM_5
100
AcDbMText
 10
619.2924718406706
 20
150.3080895258894
 30
0.0
 40
3.5
 41
0.0
 71
     5
 72
     1
  1
P=19
 73
     1
 44
1.0
1001
ACAD
1000
MTEXTBEGIN
1070
    73
1070
     1
1070
    44
1040
1.0
1070
    74
1070
     0
1000
MTEXTEND
  0
POINT
  5
4656
330
3ED7
100
AcDbEntity
  8
Defpoints
 62
     0
100
AcDbPoint
 10
609.7924718406706
 20
169.5355895258894
 30
0.0
  0
POINT
  5
4657
330
3ED7
100
AcDbEntity
  8
Defpoints
 62
     0
100
AcDbPoint
 10
628.7924718406705
 20
169.5355895258894
 30
0.0
  0
POINT
  5
4658
330
3ED7
100
AcDbEntity
  8
Defpoints
 62
     0
100
AcDbPoint
 10
628.7924718406705
 20
147.8580895258894
 30
0.0
  0
ENDBLK
  5
3EE2
330
3ED7
100
AcDbEntity
  8
0
100
AcDbBlockEnd
  0
BLOCK
  5
3EEF
330
3EE3
100
AcDbEntity
  8
0
100
AcDbBlockBegin
  2
*D24
 70
     1
 10
0.0
 20
0.0
 30
0.0
  3
*D24
  1

  0
LINE
  5
4659
330
3EE3
100
AcDbEntity
  8
AM_5
100
AcDbLine
 10
609.7924718406706
 20
168.5355895258894
 30
0.0
 11
609.7924718406706
 21
154.3580895258894
 31
0.0
  0
LINE
  5
465A
330
3EE3
100
AcDbEntity
  8
AM_5
100
AcDbLine
 10
602.7924718406706
 20
188.0355895258894
 30
0.0
 11
602.7924718406706
 21
154.3580895258894
 31
0.0
  0
LINE
  5
465B
330
3EE3
100
AcDbEntity
  8
AM_5
100
AcDbLine
 10
612.7924718406705
 20
155.8580895258894
 30
0.0
 11
615.7924718406706
 21
155.8580895258894
 31
0.0
  0
LINE
  5
465C
330
3EE3
100
AcDbEntity
  8
AM_5
100
AcDbLine
 10
599.7924718406705
 20
155.8580895258894
 30
0.0
 11
596.7924718406705
 21
155.8580895258894
 31
0.0
  0
LINE
  5
465D
330
3EE3
100
AcDbEntity
  8
AM_5
100
AcDbLine
 10
609.7924718406706
 20
155.8580895258894
 30
0.0
 11
602.7924718406706
 21
155.8580895258894
 31
0.0
  0
SOLID
  5
465E
330
3EE3
100
AcDbEntity
  8
AM_5
100
AcDbTrace
 10
612.7924718406705
 20
156.3580895258894
 30
0.0
 11
612.7924718406705
 21
155.3580895258894
 31
0.0
 12
609.7924718406706
 22
155.8580895258894
 32
0.0
 13
609.7924718406706
 23
155.8580895258894
 33
0.0
  0
SOLID
  5
465F
330
3EE3
100
AcDbEntity
  8
AM_5
100
AcDbTrace
 10
599.7924718406705
 20
156.3580895258894
 30
0.0
 11
599.7924718406705
 21
155.3580895258894
 31
0.0
 12
602.7924718406706
 22
155.8580895258894
 32
0.0
 13
602.7924718406706
 23
155.8580895258894
 33
0.0
  0
MTEXT
  5
4660
330
3EE3
100
AcDbEntity
  8
AM_5
100
AcDbMText
 10
606.2924718406706
 20
158.3080895258894
 30
0.0
 40
3.5
 41
0.0
 71
     5
 72
     1
  1
7
 73
     1
 44
1.0
1001
ACAD
1000
MTEXTBEGIN
1070
    73
1070
     1
1070
    44
1040
1.0
1070
    74
1070
     0
1000
MTEXTEND
  0
POINT
  5
4661
330
3EE3
100
AcDbEntity
  8
Defpoints
 62
     0
100
AcDbPoint
 10
609.7924718406706
 20
169.5355895258894
 30
0.0
  0
POINT
  5
4662
330
3EE3
100
AcDbEntity
  8
Defpoints
 62
     0
100
AcDbPoint
 10
602.7924718406706
 20
189.0355895258894
 30
0.0
  0
POINT
  5
4663
330
3EE3
100
AcDbEntity
  8
Defpoints
 62
     0
100
AcDbPoint
 10
602.7924718406706
 20
155.8580895258894
 30
0.0
  0
ENDBLK
  5
3EF0
330
3EE3
100
AcDbEntity
  8
0
100
AcDbBlockEnd
  0
BLOCK
  5
3EFB
330
3EF1
100
AcDbEntity
  8
0
100
AcDbBlockBegin
  2
*D25
 70
     1
 10
0.0
 20
0.0
 30
0.0
  3
*D25
  1

  0
LINE
  5
4664
330
3EF1
100
AcDbEntity
  8
AM_5
100
AcDbLine
 10
584.7924718406706
 20
167.8580895258894
 30
0.0
 11
576.4924718406706
 21
167.8580895258894
 31
0.0
  0
LINE
  5
4665
330
3EF1
100
AcDbEntity
  8
AM_5
100
AcDbLine
 10
601.0699718406705
 20
177.2580895258894
 30
0.0
 11
576.4924718406706
 21
177.2580895258894
 31
0.0
  0
LINE
  5
4666
330
3EF1
100
AcDbEntity
  8
AM_5
100
AcDbLine
 10
577.9924718406706
 20
170.8580895258894
 30
0.0
 11
577.9924718406706
 21
174.2580895258894
 31
0.0
  0
SOLID
  5
4667
330
3EF1
100
AcDbEntity
  8
AM_5
100
AcDbTrace
 10
577.4924718406706
 20
170.8580895258894
 30
0.0
 11
578.4924718406706
 21
170.8580895258894
 31
0.0
 12
577.9924718406706
 22
167.8580895258894
 32
0.0
 13
577.9924718406706
 23
167.8580895258894
 33
0.0
  0
SOLID
  5
4668
330
3EF1
100
AcDbEntity
  8
AM_5
100
AcDbTrace
 10
577.4924718406706
 20
174.2580895258894
 30
0.0
 11
578.4924718406706
 21
174.2580895258894
 31
0.0
 12
577.9924718406706
 22
177.2580895258894
 32
0.0
 13
577.9924718406706
 23
177.2580895258894
 33
0.0
  0
MTEXT
  5
4669
330
3EF1
100
AcDbEntity
  8
AM_5
100
AcDbMText
 10
575.5424718406706
 20
172.5580895258895
 30
0.0
 40
3.5
 41
0.0
 71
     5
 72
     1
  1
9.4
 11
0.0000000000000001
 21
1.0
 31
0.0
 73
     1
 44
1.0
1001
ACAD
1000
MTEXTBEGIN
1070
    73
1070
     1
1070
    44
1040
1.0
1070
    74
1070
     0
1000
MTEXTEND
  0
POINT
  5
466A
330
3EF1
100
AcDbEntity
  8
Defpoints
 62
     0
100
AcDbPoint
 10
585.7924718406706
 20
167.8580895258894
 30
0.0
  0
POINT
  5
466B
330
3EF1
100
AcDbEntity
  8
Defpoints
 62
     0
100
AcDbPoint
 10
602.0699718406705
 20
177.2580895258894
 30
0.0
  0
POINT
  5
466C
330
3EF1
100
AcDbEntity
  8
Defpoints
 62
     0
100
AcDbPoint
 10
577.9924718406706
 20
177.2580895258894
 30
0.0
  0
ENDBLK
  5
3EFC
330
3EF1
100
AcDbEntity
  8
0
100
AcDbBlockEnd
  0
BLOCK
  5
3F5D
330
3F53
100
AcDbEntity
  8
0
100
AcDbBlockBegin
  2
*D26
 70
     1
 10
0.0
 20
0.0
 30
0.0
  3
*D26
  1

  0
LINE
  5
4708
330
3F53
100
AcDbEntity
  8
AM_5
100
AcDbLine
 10
581.8313053328194
 20
300.7267439003116
 30
0.0
 11
572.2924718406706
 21
300.7267439003116
 31
0.0
  0
LINE
  5
4709
330
3F53
100
AcDbEntity
  8
AM_5
100
AcDbLine
 10
608.6814718406705
 20
321.7267439003116
 30
0.0
 11
572.2924718406706
 21
321.7267439003116
 31
0.0
  0
LINE
  5
470A
330
3F53
100
AcDbEntity
  8
AM_5
100
AcDbLine
 10
573.7924718406706
 20
303.7267439003116
 30
0.0
 11
573.7924718406706
 21
318.7267439003116
 31
0.0
  0
SOLID
  5
470B
330
3F53
100
AcDbEntity
  8
AM_5
100
AcDbTrace
 10
573.2924718406706
 20
303.7267439003116
 30
0.0
 11
574.2924718406706
 21
303.7267439003116
 31
0.0
 12
573.7924718406706
 22
300.7267439003116
 32
0.0
 13
573.7924718406706
 23
300.7267439003116
 33
0.0
  0
SOLID
  5
470C
330
3F53
100
AcDbEntity
  8
AM_5
100
AcDbTrace
 10
573.2924718406706
 20
318.7267439003116
 30
0.0
 11
574.2924718406706
 21
318.7267439003116
 31
0.0
 12
573.7924718406706
 22
321.7267439003116
 32
0.0
 13
573.7924718406706
 23
321.7267439003116
 33
0.0
  0
MTEXT
  5
470D
330
3F53
100
AcDbEntity
  8
AM_5
100
AcDbMText
 10
571.3421273524814
 20
311.2267439003117
 30
0.0
 40
3.5
 41
0.0
 71
     5
 72
     1
  1
21
 11
0.0000000000000001
 21
1.0
 31
0.0
 73
     1
 44
1.0
1001
ACAD
1000
MTEXTBEGIN
1070
    73
1070
     1
1070
    44
1040
1.0
1070
    74
1070
     0
1000
MTEXTEND
  0
POINT
  5
470E
330
3F53
100
AcDbEntity
  8
Defpoints
 62
     0
100
AcDbPoint
 10
582.8313053328193
 20
300.7267439003116
 30
0.0
  0
POINT
  5
470F
330
3F53
100
AcDbEntity
  8
Defpoints
 62
     0
100
AcDbPoint
 10
609.6814718406704
 20
321.7267439003116
 30
0.0
  0
POINT
  5
4710
330
3F53
100
AcDbEntity
  8
Defpoints
 62
     0
100
AcDbPoint
 10
573.7924718406706
 20
321.7267439003116
 30
0.0
  0
ENDBLK
  5
3F5E
330
3F53
100
AcDbEntity
  8
0
100
AcDbBlockEnd
  0
BLOCK
  5
419A
330
4193
100
AcDbEntity
  8
0
100
AcDbBlockBegin
  2
*D27
 70
     1
 10
0.0
 20
0.0
 30
0.0
  3
*D27
  1

  0
LINE
  5
46B5
330
4193
100
AcDbEntity
  8
AM_5
100
AcDbLine
 10
598.7585569117644
 20
205.4457355014313
 30
0.0
 11
594.1397953653319
 21
215.3929371326086
 31
0.0
  0
LINE
  5
46B6
330
4193
100
AcDbEntity
  8
AM_5
100
AcDbLine
 10
594.1397953653319
 20
215.3929371326086
 30
0.0
 11
570.6009174125759
 21
215.3929371326086
 31
0.0
  0
SOLID
  5
46B7
330
4193
100
AcDbEntity
  8
AM_5
100
AcDbTrace
 10
599.2120541177748
 20
205.6563068293483
 30
0.0
 11
598.3050597057539
 21
205.2351641735142
 31
0.0
 12
600.0219848792667
 22
202.7247522653688
 32
0.0
 13
600.0219848792667
 23
202.7247522653688
 33
0.0
  0
MTEXT
  5
46B8
330
4193
100
AcDbEntity
  8
AM_5
100
AcDbMText
 10
582.0203563889536
 20
217.8432816207975
 30
0.0
 40
3.5
 41
0.0
 71
     5
 72
     1
  1
2×N-PT1/4
 73
     1
 44
1.0
1001
ACAD
1000
MTEXTBEGIN
1070
    73
1070
     1
1070
    44
1040
1.0
1070
    74
1070
     0
1000
MTEXTEND
  0
POINT
  5
46B9
330
4193
100
AcDbEntity
  8
Defpoints
 62
     0
100
AcDbPoint
 10
600.0219848792667
 20
202.7247522653688
 30
0.0
  0
POINT
  5
46BA
330
4193
100
AcDbEntity
  8
Defpoints
 62
     0
100
AcDbPoint
 10
602.792471840671
 20
196.75808952589
 30
0.0
  0
ENDBLK
  5
419B
330
4193
100
AcDbEntity
  8
0
100
AcDbBlockEnd
  0
BLOCK
  5
44C0
330
44B6
100
AcDbEntity
  8
0
100
AcDbBlockBegin
  2
*D29
 70
     1
 10
0.0
 20
0.0
 30
0.0
  3
*D29
  1

  0
LINE
  5
4711
330
44B6
100
AcDbEntity
  8
AM_5
100
AcDbLine
 10
585.7924718406706
 20
258.1267439003116
 30
0.0
 11
585.7924718406706
 21
237.6267439003129
 31
0.0
  0
LINE
  5
4712
330
44B6
100
AcDbEntity
  8
AM_5
100
AcDbLine
 10
646.7924718406706
 20
258.1267439003116
 30
0.0
 11
646.7924718406706
 21
237.6267439003129
 31
0.0
  0
LINE
  5
4713
330
44B6
100
AcDbEntity
  8
AM_5
100
AcDbLine
 10
588.7924718406706
 20
239.1267439003129
 30
0.0
 11
643.7924718406706
 21
239.1267439003129
 31
0.0
  0
SOLID
  5
4714
330
44B6
100
AcDbEntity
  8
AM_5
100
AcDbTrace
 10
588.7924718406706
 20
239.6267439003129
 30
0.0
 11
588.7924718406706
 21
238.6267439003129
 31
0.0
 12
585.7924718406706
 22
239.1267439003129
 32
0.0
 13
585.7924718406706
 23
239.1267439003129
 33
0.0
  0
SOLID
  5
4715
330
44B6
100
AcDbEntity
  8
AM_5
100
AcDbTrace
 10
643.7924718406706
 20
239.6267439003129
 30
0.0
 11
643.7924718406706
 21
238.6267439003129
 31
0.0
 12
646.7924718406706
 22
239.1267439003129
 32
0.0
 13
646.7924718406706
 23
239.1267439003129
 33
0.0
  0
MTEXT
  5
4716
330
44B6
100
AcDbEntity
  8
AM_5
100
AcDbMText
 10
616.2924718406705
 20
241.5767439003129
 30
0.0
 40
3.5
 41
0.0
 71
     5
 72
     1
  1
L
 73
     1
 44
1.0
1001
ACAD
1000
MTEXTBEGIN
1070
    73
1070
     1
1070
    44
1040
1.0
1070
    74
1070
     0
1000
MTEXTEND
  0
POINT
  5
4717
330
44B6
100
AcDbEntity
  8
Defpoints
 62
     0
100
AcDbPoint
 10
585.7924718406706
 20
259.1267439003116
 30
0.0
  0
POINT
  5
4718
330
44B6
100
AcDbEntity
  8
Defpoints
 62
     0
100
AcDbPoint
 10
646.7924718406706
 20
259.1267439003116
 30
0.0
  0
POINT
  5
4719
330
44B6
100
AcDbEntity
  8
Defpoints
 62
     0
100
AcDbPoint
 10
646.7924718406706
 20
239.1267439003129
 30
0.0
  0
ENDBLK
  5
44C1
330
44B6
100
AcDbEntity
  8
0
100
AcDbBlockEnd
  0
ENDSEC
  0
SECTION
  2
ENTITIES
  0
LINE
  5
C92
330
1F
100
AcDbEntity
  8
0
100
AcDbLine
 10
814.0309076478347
 20
210.9385296031036
 30
0.0
 11
814.0309076478347
 21
162.5545296031038
 31
0.0
  0
LINE
  5
C93
330
1F
100
AcDbEntity
  8
0
100
AcDbLine
 10
859.5983357737887
 20
210.9385296031039
 30
0.0
 11
859.5983357737887
 21
201.2617296031038
 31
0.0
  0
LINE
  5
C94
330
1F
100
AcDbEntity
  8
0
100
AcDbLine
 10
877.7423357737886
 20
210.9385296031039
 30
0.0
 11
877.7423357737886
 21
201.2617296031041
 31
0.0
  0
LINE
  5
C95
330
1F
100
AcDbEntity
  8
0
100
AcDbLine
 10
841.454335773788
 20
210.9385296031036
 30
0.0
 11
841.4543357737912
 21
162.5545296031038
 31
0.0
  0
LINE
  5
C96
330
1F
100
AcDbEntity
  8
0
100
AcDbLine
 10
814.0309076478347
 20
201.2617296031038
 30
0.0
 11
877.7423357737886
 21
201.2617296031038
 31
0.0
  0
LINE
  5
C97
330
1F
100
AcDbEntity
  8
0
100
AcDbLine
 10
814.0309076478347
 20
206.1001296031038
 30
0.0
 11
877.7423357737886
 21
206.1001296031038
 31
0.0
  0
TEXT
  5
C98
330
1F
100
AcDbEntity
  8
0
100
AcDbText
 10
827.014044547238
 20
202.0841875015777
 30
0.0
 40
3.037726430252237
  1
2
 41
0.8
  7
CHINESET
 72
     4
 11
827.8241049286387
 21
203.6030507167038
 31
0.0
100
AcDbText
  0
TEXT
  5
C99
330
1F
100
AcDbEntity
  8
0
100
AcDbText
 10
815.7991276731554
 20
207.5821533134812
 30
0.0
 40
2.4192
  1
No. of stations
 41
0.8
  7
CHINESET
100
AcDbText
  0
TEXT
  5
C9A
330
1F
100
AcDbEntity
  8
0
100
AcDbText
 10
845.9753247895971
 20
202.1092528174554
 30
0.0
 40
3.023999999999999
  1
49
 41
0.8
  7
CHINESET
100
AcDbText
  0
TEXT
  5
C9B
330
1F
100
AcDbEntity
  8
0
100
AcDbText
 10
848.9152022114
 20
206.9695907614904
 30
0.0
 40
3.023999999999999
  1
Y
 41
0.8
  7
CHINESET
100
AcDbText
  0
LINE
  5
C9C
330
1F
100
AcDbEntity
  8
0
100
AcDbLine
 10
814.0309076478347
 20
210.9385296031039
 30
0.0
 11
877.7423357737886
 21
210.9385296031039
 31
0.0
  0
LINE
  5
C9D
330
1F
100
AcDbEntity
  8
0
100
AcDbLine
 10
859.5983357737882
 20
210.9385296031036
 30
0.0
 11
859.5983357737909
 21
162.5545296031038
 31
0.0
  0
LINE
  5
C9E
330
1F
100
AcDbEntity
  8
0
100
AcDbLine
 10
877.7423357737884
 20
210.9385296031036
 30
0.0
 11
877.7423357737909
 21
162.5545296031038
 31
0.0
  0
LINE
  5
C9F
330
1F
100
AcDbEntity
  8
0
100
AcDbLine
 10
814.0309076478347
 20
196.4233296031039
 30
0.0
 11
877.7423357737886
 21
196.4233296031039
 31
0.0
  0
LINE
  5
CA0
330
1F
100
AcDbEntity
  8
0
100
AcDbLine
 10
814.0309076478347
 20
191.5849296031039
 30
0.0
 11
877.7423357737886
 21
191.5849296031039
 31
0.0
  0
LINE
  5
CA1
330
1F
100
AcDbEntity
  8
0
100
AcDbLine
 10
814.0309076478347
 20
186.7465296031038
 30
0.0
 11
877.7423357737886
 21
186.7465296031038
 31
0.0
  0
LINE
  5
CA2
330
1F
100
AcDbEntity
  8
0
100
AcDbLine
 10
814.0309076478347
 20
181.9081296031038
 30
0.0
 11
877.7423357737886
 21
181.9081296031038
 31
0.0
  0
LINE
  5
CA3
330
1F
100
AcDbEntity
  8
0
100
AcDbLine
 10
814.0309076478347
 20
177.0697296031038
 30
0.0
 11
877.7423357737886
 21
177.0697296031038
 31
0.0
  0
LINE
  5
CA4
330
1F
100
AcDbEntity
  8
0
100
AcDbLine
 10
814.0309076478347
 20
172.2313296031039
 30
0.0
 11
877.7423357737886
 21
172.2313296031039
 31
0.0
  0
LINE
  5
CA5
330
1F
100
AcDbEntity
  8
0
100
AcDbLine
 10
814.0309076478347
 20
167.3929296031039
 30
0.0
 11
877.7423357737886
 21
167.3929296031039
 31
0.0
  0
LINE
  5
CA6
330
1F
100
AcDbEntity
  8
0
100
AcDbLine
 10
814.0309076478347
 20
162.5545296031038
 30
0.0
 11
877.7423357737886
 21
162.5545296031038
 31
0.0
  0
TEXT
  5
CA7
330
1F
100
AcDbEntity
  8
0
100
AcDbText
 10
827.014044547238
 20
197.2457875015777
 30
0.0
 40
3.037726430252237
  1
3
 41
0.8
  7
CHINESET
 72
     4
 11
827.8241049286387
 21
198.7646507167038
 31
0.0
100
AcDbText
  0
TEXT
  5
CA8
330
1F
100
AcDbEntity
  8
0
100
AcDbText
 10
826.9561830914241
 20
192.4073875015777
 30
0.0
 40
3.037726430252237
  1
4
 41
0.8
  7
CHINESET
 72
     4
 11
827.8241049286391
 21
193.9262507167038
 31
0.0
100
AcDbText
  0
TEXT
  5
CA9
330
1F
100
AcDbEntity
  8
0
100
AcDbText
 10
827.0140445472392
 20
187.5689875015777
 30
0.0
 40
3.037726430252237
  1
5
 41
0.8
  7
CHINESET
 72
     4
 11
827.8241049286398
 21
189.0878507167038
 31
0.0
100
AcDbText
  0
TEXT
  5
CAA
330
1F
100
AcDbEntity
  8
0
100
AcDbText
 10
827.0719060030534
 20
182.7305875015777
 30
0.0
 40
3.037726430252237
  1
6
 41
0.8
  7
CHINESET
 72
     4
 11
827.8241049286398
 21
184.2494507167038
 31
0.0
100
AcDbText
  0
TEXT
  5
CAB
330
1F
100
AcDbEntity
  8
0
100
AcDbText
 10
827.0140445472392
 20
177.8921875015777
 30
0.0
 40
3.037726430252237
  1
7
 41
0.8
  7
CHINESET
 72
     4
 11
827.8241049286398
 21
179.4110507167038
 31
0.0
100
AcDbText
  0
TEXT
  5
CAC
330
1F
100
AcDbEntity
  8
0
100
AcDbText
 10
827.0140445472396
 20
173.0537875015777
 30
0.0
 40
3.037726430252237
  1
8
 41
0.8
  7
CHINESET
 72
     4
 11
827.8241049286403
 21
174.5726507167038
 31
0.0
100
AcDbText
  0
TEXT
  5
CAD
330
1F
100
AcDbEntity
  8
0
100
AcDbText
 10
827.0719060030545
 20
168.2153875015777
 30
0.0
 40
3.037726430252237
  1
9
 41
0.8
  7
CHINESET
 72
     4
 11
827.8241049286409
 21
169.7342507167038
 31
0.0
100
AcDbText
  0
TEXT
  5
CAE
330
1F
100
AcDbEntity
  8
0
100
AcDbText
 10
826.0882612542109
 20
163.3769875015778
 30
0.0
 40
3.037726430252237
  1
10
 41
0.8
  7
CHINESET
 72
     4
 11
827.8241049286409
 21
164.8958507167039
 31
0.0
100
AcDbText
  0
TEXT
  5
CAF
330
1F
100
AcDbEntity
  8
0
100
AcDbText
 10
864.1193247895973
 20
202.1092528174554
 30
0.0
 40
3.023999999999999
  1
61
 41
0.8
  7
CHINESET
100
AcDbText
  0
TEXT
  5
CB0
330
1F
100
AcDbEntity
  8
0
100
AcDbText
 10
845.9753247895971
 20
197.2708528174554
 30
0.0
 40
3.023999999999999
  1
68
 41
0.8
  7
CHINESET
100
AcDbText
  0
TEXT
  5
CB1
330
1F
100
AcDbEntity
  8
0
100
AcDbText
 10
864.1193247895973
 20
197.2708528174554
 30
0.0
 40
3.023999999999999
  1
80
 41
0.8
  7
CHINESET
100
AcDbText
  0
TEXT
  5
CB2
330
1F
100
AcDbEntity
  8
0
100
AcDbText
 10
845.975324789598
 20
192.4324528174554
 30
0.0
 40
3.023999999999999
  1
87
 41
0.8
  7
CHINESET
100
AcDbText
  0
TEXT
  5
CB3
330
1F
100
AcDbEntity
  8
0
100
AcDbText
 10
864.119324789598
 20
192.4324528174554
 30
0.0
 40
3.023999999999999
  1
99
 41
0.8
  7
CHINESET
100
AcDbText
  0
TEXT
  5
CB4
330
1F
100
AcDbEntity
  8
0
100
AcDbText
 10
845.9753247895985
 20
187.5940528174553
 30
0.0
 40
3.023999999999999
  1
106
 41
0.8
  7
CHINESET
100
AcDbText
  0
TEXT
  5
CB5
330
1F
100
AcDbEntity
  8
0
100
AcDbText
 10
864.1193247895985
 20
187.5940528174553
 30
0.0
 40
3.023999999999999
  1
118
 41
0.8
  7
CHINESET
100
AcDbText
  0
TEXT
  5
CB6
330
1F
100
AcDbEntity
  8
0
100
AcDbText
 10
845.9753247895985
 20
182.7556528174554
 30
0.0
 40
3.023999999999999
  1
125
 41
0.8
  7
CHINESET
100
AcDbText
  0
TEXT
  5
CB7
330
1F
100
AcDbEntity
  8
0
100
AcDbText
 10
864.1193247895985
 20
182.7556528174554
 30
0.0
 40
3.023999999999999
  1
137
 41
0.8
  7
CHINESET
100
AcDbText
  0
TEXT
  5
CB8
330
1F
100
AcDbEntity
  8
0
100
AcDbText
 10
845.9753247895985
 20
177.9172528174554
 30
0.0
 40
3.023999999999999
  1
144
 41
0.8
  7
CHINESET
100
AcDbText
  0
TEXT
  5
CB9
330
1F
100
AcDbEntity
  8
0
100
AcDbText
 10
864.1193247895985
 20
177.9172528174554
 30
0.0
 40
3.023999999999999
  1
156
 41
0.8
  7
CHINESET
100
AcDbText
  0
TEXT
  5
CBA
330
1F
100
AcDbEntity
  8
0
100
AcDbText
 10
845.9753247895992
 20
173.0788528174553
 30
0.0
 40
3.023999999999999
  1
163
 41
0.8
  7
CHINESET
100
AcDbText
  0
TEXT
  5
CBB
330
1F
100
AcDbEntity
  8
0
100
AcDbText
 10
864.1193247895989
 20
173.0788528174553
 30
0.0
 40
3.023999999999999
  1
175
 41
0.8
  7
CHINESET
100
AcDbText
  0
TEXT
  5
CBC
330
1F
100
AcDbEntity
  8
0
100
AcDbText
 10
845.9753247895996
 20
168.2404528174553
 30
0.0
 40
3.023999999999999
  1
182
 41
0.8
  7
CHINESET
100
AcDbText
  0
TEXT
  5
CBD
330
1F
100
AcDbEntity
  8
0
100
AcDbText
 10
864.1193247895996
 20
168.2404528174553
 30
0.0
 40
3.023999999999999
  1
194
 41
0.8
  7
CHINESET
100
AcDbText
  0
TEXT
  5
CBE
330
1F
100
AcDbEntity
  8
0
100
AcDbText
 10
845.9753247895996
 20
163.4020528174554
 30
0.0
 40
3.023999999999999
  1
201
 41
0.8
  7
CHINESET
100
AcDbText
  0
TEXT
  5
CBF
330
1F
100
AcDbEntity
  8
0
100
AcDbText
 10
864.1193247895996
 20
163.4020528174554
 30
0.0
 40
3.023999999999999
  1
213
 41
0.8
  7
CHINESET
100
AcDbText
  0
TEXT
  5
CC0
330
1F
100
AcDbEntity
  8
0
100
AcDbText
 10
867.0592022113998
 20
206.9695907614904
 30
0.0
 40
3.023999999999999
  1
L
 41
0.8
  7
CHINESET
100
AcDbText
  0
TEXT
  5
CC1
330
1F
100
AcDbEntity
  8
0
100
AcDbText
 10
557.1993047686284
 20
388.233111412787
 30
0.0
 40
5.760000000000001
  1
MVSY-188M-5M2
 41
0.75
  7
CHINESET
100
AcDbText
  0
CIRCLE
  5
CC2
330
1F
100
AcDbEntity
  8
0
100
AcDbCircle
 10
811.7321765350073
 20
203.423016145018
 30
0.0
 40
1.232373610538005
  0
CIRCLE
  5
CC3
330
1F
100
AcDbEntity
  8
0
100
AcDbCircle
 10
811.7321765350073
 20
203.423016145018
 30
0.0
 40
0.8019096229170319
  0
LINE
  5
DCA
330
1F
100
AcDbEntity
  8
LOGO
 62
     4
100
AcDbLine
 10
612.0491613277978
 20
102.9866482994692
 30
0.0
 11
612.0491613277978
 21
131.7824781637227
 31
0.0
  0
TEXT
  5
DCB
330
1F
100
AcDbEntity
  8
LOGO
  6
Continuous
100
AcDbText
 10
559.0419271534398
 20
108.6435456196055
 30
0.0
 40
4.319374479638009
  1
金器工業股份有限公司
  7
CHINESET
100
AcDbText
  0
TEXT
  5
DCC
330
1F
100
AcDbEntity
  8
LOGO
  6
Continuous
100
AcDbText
 10
551.1080907804438
 20
104.3233248812216
 30
0.0
 40
2.879582986425339
  1
MINDMAN INDUSTRIAL CO., LTD.
 41
0.85
  7
CHINESET
100
AcDbText
  0
LINE
  5
DCD
330
1F
100
AcDbEntity
  8
LOGO
 62
     4
100
AcDbLine
 10
612.0491613277978
 20
126.0233121908721
 30
0.0
 11
569.8152775268925
 21
126.0233121908721
 31
0.0
  0
LINE
  5
DCE
330
1F
100
AcDbEntity
  8
LOGO
 62
     4
100
AcDbLine
 10
612.0491613277978
 20
120.2641462180213
 30
0.0
 11
569.8152775268925
 21
120.2641462180213
 31
0.0
  0
LINE
  5
DCF
330
1F
100
AcDbEntity
  8
LOGO
 62
     4
100
AcDbLine
 10
612.0491613277978
 20
114.5049802451709
 30
0.0
 11
548.6983356264403
 21
114.5049802451709
 31
0.0
  0
LINE
  5
DD0
330
1F
100
AcDbEntity
  8
LOGO
 62
     4
100
AcDbLine
 10
569.8152775268925
 20
114.5049802451709
 30
0.0
 11
569.8152775268925
 21
131.7824781637227
 31
0.0
  0
TEXT
  5
DD1
330
1F
100
AcDbEntity
  8
LOGO
100
AcDbText
 10
598.6801436958594
 20
115.9447717383831
 30
0.0
 40
2.879582986425339
  1
mm
  7
CHINESET
 72
     1
 11
602.2453416790527
 21
117.3845632315958
 31
0.0
100
AcDbText
 73
     2
  0
TEXT
  5
DD2
330
1F
100
AcDbEntity
  8
LOGO
100
AcDbText
 10
597.1717907029699
 20
127.4631036840845
 30
0.0
 40
2.879582986425339
  1
1 : 1
  7
CHINESET
 72
     1
 11
602.2453416790527
 21
128.9028951772972
 31
0.0
100
AcDbText
 73
     2
  0
LINE
  5
DD3
330
1F
100
AcDbEntity
  8
LOGO
 62
     4
100
AcDbLine
 10
592.8519414182954
 20
114.5049802451709
 30
0.0
 11
592.8519414182954
 21
131.7824781637227
 31
0.0
  0
TEXT
  5
DD4
330
1F
100
AcDbEntity
  8
LOGO
100
AcDbText
 10
572.1896479625747
 20
127.464520801696
 30
188.7231250944717
 40
2.879582986425339
  1
比例 Scale:
 41
0.9
  7
CHINESET
 72
     4
 11
581.333609472594
 21
128.9028951772972
 31
188.7231250944717
100
AcDbText
  0
TEXT
  5
DD5
330
1F
100
AcDbEntity
  8
LOGO
100
AcDbText
 10
572.0238148352314
 20
121.7444436562939
 30
188.7231250944717
 40
2.879582986425339
  1
投影  View:
 41
0.9
  7
CHINESET
 72
     4
 11
581.333609472594
 21
123.1437292044465
 31
188.7231250944717
100
AcDbText
  0
TEXT
  5
DD6
330
1F
100
AcDbEntity
  8
LOGO
100
AcDbText
 10
572.3053454932792
 20
115.9447717383831
 30
188.7231250944717
 40
2.879582986425339
  1
單位  Unit:
 41
0.9
  7
CHINESET
 72
     4
 11
581.333609472594
 21
117.3845632315958
 31
188.7231250944717
100
AcDbText
  0
LWPOLYLINE
  5
DD7
330
1F
100
AcDbEntity
  8
LOGO
 62
     4
100
AcDbPolyline
 90
        4
 70
     1
 43
0.0
 10
548.6983356264403
 20
131.7824781637227
 10
899.6507079594719
 20
131.7824781637227
 10
899.6507079594719
 20
402.4412544450493
 10
548.6983356264403
 20
402.4412544450493
1001
GENIUS_GENREC_14
1002
{
1000
PYDIR
1011
548.6983356264403
1021
402.4412544450493
1031
0.0
1002
}
1002
{
1000
PXDIR
1011
899.6507079594719
1021
131.7824781637227
1031
0.0
1002
}
1002
{
1000
PORI
1011
548.6983356264403
1021
131.7824781637227
1031
0.0
1002
}
1002
{
1000
PINS
1011
548.6983356264403
1021
131.7824781637227
1031
0.0
1002
}
1002
{
1000
PINS2
1011
899.6507079594719
1021
402.4412544450493
1031
0.0
1002
}
1002
{
1000
C
1070
     1
1002
}
1001
GENIUS_GENODEF_13
1002
{
1000
HIER
1070
     0
1002
}
1002
{
1000
MANEDIT
1070
     0
1002
}
1002
{
1000
NOSEL
1070
     0
1002
}
1002
{
1000
BEHIND
1070
     0
1002
}
1002
{
1000
OTHER
1070
     0
1002
}
1002
{
1000
REACTOR
1002
}
1001
GENIUS_GENOBJ-N-REC_13
1002
{
1000
OWNER
1000
GEN
1002
}
  0
SOLID
  5
DD8
330
1F
100
AcDbEntity
  8
LOGO
 62
     5
100
AcDbTrace
 10
551.6859491886482
 20
119.2918770837406
 30
0.0
 11
552.931005311721
 21
119.2918770837403
 31
0.0
 12
558.1258946528175
 22
131.0984437680515
 32
0.0
 13
559.3709507758908
 23
131.0984437680508
 33
0.0
  0
SOLID
  5
DD9
330
1F
100
AcDbEntity
  8
LOGO
 62
     5
100
AcDbTrace
 10
553.4462009488558
 20
119.2918770837406
 30
0.0
 11
554.6912570719285
 21
119.2918770837406
 31
0.0
 12
559.3709507758908
 22
130.1539184333061
 32
0.0
 13
558.1258946528175
 23
125.588712648706
 33
0.0
  0
SOLID
  5
DDA
330
1F
100
AcDbEntity
  8
LOGO
 62
     2
100
AcDbTrace
 10
552.931005311721
 20
119.2918770837403
 30
0.0
 11
553.4462009488558
 21
119.2918770837406
 31
0.0
 12
559.3709507758908
 22
131.0984437680508
 32
0.0
 13
559.886146413025
 23
131.0984437680508
 33
0.0
  0
SOLID
  5
DDB
330
1F
100
AcDbEntity
  8
LOGO
 62
     5
100
AcDbTrace
 10
549.689818898201
 20
114.998580107628
 30
0.0
 11
550.1191485958128
 21
114.998580107628
 31
0.0
 12
551.3281744406392
 22
117.1452285956841
 32
0.0
 13
551.7575041382497
 23
117.1452285956841
 33
0.0
  0
SOLID
  5
DDC
330
1F
100
AcDbEntity
  8
LOGO
 62
     5
100
AcDbTrace
 10
551.3281744406392
 20
117.1452285956841
 30
0.0
 11
551.7575041382497
 21
117.1452285956841
 31
0.0
 12
551.3281744406392
 22
114.998580107628
 32
0.0
 13
551.7575041382497
 23
114.998580107628
 33
0.0
  0
SOLID
  5
DDD
330
1F
100
AcDbEntity
  8
LOGO
 62
     5
100
AcDbTrace
 10
551.3281744406392
 20
114.998580107628
 30
0.0
 11
551.7575041382497
 21
114.998580107628
 31
0.0
 12
552.9665299830782
 22
117.1452285956841
 32
0.0
 13
553.3958596806892
 23
117.1452285956841
 33
0.0
  0
SOLID
  5
DDE
330
1F
100
AcDbEntity
  8
LOGO
 62
     5
100
AcDbTrace
 10
552.9665299830782
 20
117.1452285956841
 30
0.0
 11
553.3958596806892
 21
117.1452285956841
 31
0.0
 12
552.9665299830782
 22
114.998580107628
 32
0.0
 13
553.3958596806892
 23
114.998580107628
 33
0.0
  0
POLYLINE
  5
DDF
330
1F
100
AcDbEntity
  8
LOGO
 62
     5
100
AcDb2dPolyline
 66
     1
 10
0.0
 20
0.0
 30
0.0
 40
0.4300177259728506
 41
0.4300177259728506
  0
VERTEX
  5
DE0
330
DDF
100
AcDbEntity
  8
LOGO
 62
     5
100
AcDbVertex
100
AcDb2dVertex
 10
567.3575151940037
 20
116.2865692004616
 30
0.0
 42
1.0
  0
VERTEX
  5
DE1
330
DDF
100
AcDbEntity
  8
LOGO
 62
     5
100
AcDbVertex
100
AcDb2dVertex
 10
566.0674620160849
 20
116.2865692004616
 30
0.0
 42
1.0
  0
SEQEND
  5
DE2
330
DDF
100
AcDbEntity
  8
LOGO
 62
     5
  0
POLYLINE
  5
DE3
330
1F
100
AcDbEntity
  8
LOGO
 62
     5
100
AcDb2dPolyline
 66
     1
 10
0.0
 20
0.0
 30
0.0
 70
     1
  0
VERTEX
  5
DE4
330
DE3
100
AcDbEntity
  8
LOGO
 62
     5
100
AcDbVertex
100
AcDb2dVertex
 10
563.6356543941424
 20
116.0719043516557
 30
0.0
 42
1.000000057330635
  0
VERTEX
  5
DE5
330
DE3
100
AcDbEntity
  8
LOGO
 62
     5
100
AcDbVertex
100
AcDb2dVertex
 10
564.9236434869764
 20
116.0719043516557
 30
0.0
 42
1.000000057330635
  0
SEQEND
  5
DE6
330
DE3
100
AcDbEntity
  8
LOGO
 62
     5
  0
CIRCLE
  5
DE7
330
1F
100
AcDbEntity
  8
LOGO
 62
     5
100
AcDbCircle
 10
564.2796489405603
 20
116.0719043516557
 30
0.0
 40
0.6439945464169412
  0
POLYLINE
  5
DE8
330
1F
100
AcDbEntity
  8
LOGO
 62
     5
100
AcDb2dPolyline
 66
     1
 10
0.0
 20
0.0
 30
0.0
 70
     1
 40
0.4300177259728506
 41
0.4300177259728506
  0
VERTEX
  5
DE9
330
DE8
100
AcDbEntity
  8
LOGO
 62
     5
100
AcDbVertex
100
AcDb2dVertex
 10
563.4196134886139
 20
116.0719043516557
 30
0.0
 42
1.0
  0
VERTEX
  5
DEA
330
DE8
100
AcDbEntity
  8
LOGO
 62
     5
100
AcDbVertex
100
AcDb2dVertex
 10
565.1396843925054
 20
116.0719043516557
 30
0.0
 42
1.0
  0
SEQEND
  5
DEB
330
DE8
100
AcDbEntity
  8
LOGO
 62
     5
  0
LINE
  5
DEC
330
1F
100
AcDbEntity
  8
LOGO
100
AcDbLine
 10
567.5711480002662
 20
114.998580107628
 30
0.0
 11
567.5711480002662
 21
116.2865692004616
 31
0.0
  0
SOLID
  5
DED
330
1F
100
AcDbEntity
  8
LOGO
 62
     5
100
AcDbTrace
 10
564.9236005540084
 20
117.1452285956841
 30
0.0
 11
565.3529302516189
 21
117.1452285956841
 31
0.0
 12
564.9236005540084
 22
114.998580107628
 32
0.0
 13
565.3529302516189
 23
114.998580107628
 33
0.0
  0
SOLID
  5
DEE
330
1F
100
AcDbEntity
  8
LOGO
 62
     5
100
AcDbTrace
 10
565.8538292098211
 20
114.998580107628
 30
0.0
 11
566.2831589074329
 21
114.998580107628
 31
0.0
 12
565.8538292098211
 22
117.1452285956841
 32
0.0
 13
566.2831589074329
 23
117.1452285956841
 33
0.0
  0
SOLID
  5
DEF
330
1F
100
AcDbEntity
  8
LOGO
 62
     5
100
AcDbTrace
 10
567.1418183026558
 20
116.2865692004616
 30
0.0
 11
567.5711480002662
 21
116.2865692004616
 31
0.0
 12
567.1418183026558
 22
114.998580107628
 32
0.0
 13
567.5711480002662
 23
114.998580107628
 33
0.0
  0
SOLID
  5
DF0
330
1F
100
AcDbEntity
  8
LOGO
 62
     5
100
AcDbTrace
 10
565.8108962400599
 20
130.1539184333061
 30
0.0
 11
564.5658401169878
 21
125.588712648706
 31
0.0
 12
565.8108962400599
 22
119.2918770837403
 32
0.0
 13
564.5658401169878
 23
119.2918770837403
 33
0.0
  0
SOLID
  5
DF1
330
1F
100
AcDbEntity
  8
LOGO
 62
     5
100
AcDbTrace
 10
566.3260918771941
 20
119.2918770837403
 30
0.0
 11
567.5711480002662
 21
119.2918770837403
 31
0.0
 12
566.3260918771941
 22
131.0984437680508
 32
0.0
 13
567.5711480002662
 23
131.0984437680515
 33
0.0
  0
SOLID
  5
DF2
330
1F
100
AcDbEntity
  8
LOGO
 62
     2
100
AcDbTrace
 10
565.8108962400599
 20
131.0984437680515
 30
0.0
 11
566.3260918771941
 21
131.0984437680508
 31
0.0
 12
565.8108962400599
 22
119.2918770837403
 32
0.0
 13
566.3260918771941
 23
119.2918770837403
 33
0.0
  0
POLYLINE
  5
DF3
330
1F
100
AcDbEntity
  8
LOGO
 62
     5
100
AcDb2dPolyline
 66
     1
 10
0.0
 20
0.0
 30
0.0
 40
0.4300177259728506
 41
0.4300177259728506
  0
VERTEX
  5
DF4
330
DF3
100
AcDbEntity
  8
LOGO
 62
     5
100
AcDbVertex
100
AcDb2dVertex
 10
561.2037609062621
 20
116.2865692004616
 30
0.0
 42
1.0
  0
VERTEX
  5
DF5
330
DF3
100
AcDbEntity
  8
LOGO
 62
     5
100
AcDbVertex
100
AcDb2dVertex
 10
559.9137077283432
 20
116.2865692004616
 30
0.0
 42
1.0
  0
SEQEND
  5
DF6
330
DF3
100
AcDbEntity
  8
LOGO
 62
     5
  0
POLYLINE
  5
DF7
330
1F
100
AcDbEntity
  8
LOGO
 62
     5
100
AcDb2dPolyline
 66
     1
 10
0.0
 20
0.0
 30
0.0
 40
0.4300177259728506
 41
0.4300177259728506
  0
VERTEX
  5
DF8
330
DF7
100
AcDbEntity
  8
LOGO
 62
     5
100
AcDbVertex
100
AcDb2dVertex
 10
562.4917499990949
 20
116.2865692004616
 30
0.0
 42
1.0
  0
VERTEX
  5
DF9
330
DF7
100
AcDbEntity
  8
LOGO
 62
     5
100
AcDbVertex
100
AcDb2dVertex
 10
561.2016968211766
 20
116.2865692004616
 30
0.0
 42
1.0
  0
SEQEND
  5
DFA
330
DF7
100
AcDbEntity
  8
LOGO
 62
     5
  0
POLYLINE
  5
DFB
330
1F
100
AcDbEntity
  8
LOGO
 62
     5
100
AcDb2dPolyline
 66
     1
 10
0.0
 20
0.0
 30
0.0
 40
0.4300177259728506
 41
0.4300177259728506
  0
VERTEX
  5
DFC
330
DFB
100
AcDbEntity
  8
LOGO
 62
     5
100
AcDbVertex
100
AcDb2dVertex
 10
556.3379957113531
 20
116.2865692004616
 30
0.0
 42
1.0
  0
VERTEX
  5
DFD
330
DFB
100
AcDbEntity
  8
LOGO
 62
     5
100
AcDbVertex
100
AcDb2dVertex
 10
555.0479425334351
 20
116.2865692004616
 30
0.0
 42
1.0
  0
SEQEND
  5
DFE
330
DFB
100
AcDbEntity
  8
LOGO
 62
     5
  0
SOLID
  5
DFF
330
1F
100
AcDbEntity
  8
LOGO
 62
     5
100
AcDbTrace
 10
554.8343097271718
 20
117.1452285956841
 30
0.0
 11
555.2636394247823
 21
117.1452285956841
 31
0.0
 12
554.8343097271718
 22
114.998580107628
 32
0.0
 13
555.2636394247823
 23
114.998580107628
 33
0.0
  0
SOLID
  5
E00
330
1F
100
AcDbEntity
  8
LOGO
 62
     5
100
AcDbTrace
 10
556.1222988200058
 20
116.2865692004616
 30
0.0
 11
556.5516285176175
 21
116.2865692004616
 31
0.0
 12
556.1222988200058
 22
114.998580107628
 32
0.0
 13
556.5516285176175
 23
114.998580107628
 33
0.0
  0
POLYLINE
  5
E01
330
1F
100
AcDbEntity
  8
LOGO
 62
     5
100
AcDb2dPolyline
 66
     1
 10
0.0
 20
0.0
 30
0.0
 70
     1
 40
0.4300177259728506
 41
0.4300177259728506
  0
VERTEX
  5
E02
330
E01
100
AcDbEntity
  8
LOGO
 62
     5
100
AcDbVertex
100
AcDb2dVertex
 10
557.2658592008718
 20
116.0719043516557
 30
0.0
 42
1.0
  0
VERTEX
  5
E03
330
E01
100
AcDbEntity
  8
LOGO
 62
     5
100
AcDbVertex
100
AcDb2dVertex
 10
558.9859301047637
 20
116.0719043516557
 30
0.0
 42
1.0
  0
SEQEND
  5
E04
330
E01
100
AcDbEntity
  8
LOGO
 62
     5
  0
SOLID
  5
E05
330
1F
100
AcDbEntity
  8
LOGO
 62
     5
100
AcDbTrace
 10
558.7698462662656
 20
117.7892231421015
 30
0.0
 11
559.1991759638766
 21
117.7892231421015
 31
0.0
 12
558.7698462662656
 22
114.998580107628
 32
0.0
 13
559.1991759638766
 23
114.998580107628
 33
0.0
  0
SOLID
  5
E06
330
1F
100
AcDbEntity
  8
LOGO
 62
     5
100
AcDbTrace
 10
559.7000749220808
 20
117.1452285956841
 30
0.0
 11
560.1294046196914
 21
117.1452285956841
 31
0.0
 12
559.7000749220808
 22
114.998580107628
 32
0.0
 13
560.1294046196914
 23
114.998580107628
 33
0.0
  0
SOLID
  5
E07
330
1F
100
AcDbEntity
  8
LOGO
 62
     5
100
AcDbTrace
 10
560.9880640149135
 20
116.2865692004616
 30
0.0
 11
561.4173937125253
 21
116.2865692004616
 31
0.0
 12
560.9880640149135
 22
114.998580107628
 32
0.0
 13
561.4173937125253
 23
114.998580107628
 33
0.0
  0
SOLID
  5
E08
330
1F
100
AcDbEntity
  8
LOGO
 62
     5
100
AcDbTrace
 10
562.2760531077475
 20
116.2865692004616
 30
0.0
 11
562.7053828053585
 21
116.2865692004616
 31
0.0
 12
562.2760531077475
 22
114.9985801076273
 32
0.0
 13
562.7053828053585
 23
114.9985801076273
 33
0.0
  0
SOLID
  5
E09
330
1F
100
AcDbEntity
  8
LOGO
 62
     5
100
AcDbTrace
 10
553.9040810713572
 20
117.4457593840122
 30
0.0
 11
554.3334107689696
 21
117.4457593840122
 31
0.0
 12
553.9040810713572
 22
117.7892231421015
 32
0.0
 13
554.3334107689696
 23
117.7892231421015
 33
0.0
  0
SOLID
  5
E0A
330
1F
100
AcDbEntity
  8
LOGO
 62
     5
100
AcDbTrace
 10
553.9040810713572
 20
117.1452285956841
 30
0.0
 11
554.3334107689696
 21
117.1452285956841
 31
0.0
 12
553.9040810713572
 22
114.9985801076273
 32
0.0
 13
554.3334107689696
 23
114.998580107628
 33
0.0
  0
SOLID
  5
E0B
330
1F
100
AcDbEntity
  8
LOGO
 62
     5
100
AcDbTrace
 10
558.1258946528175
 20
119.2918770837406
 30
0.0
 11
559.3709507758908
 21
119.2918770837406
 31
0.0
 12
558.1258946528175
 22
125.588712648706
 32
0.0
 13
559.3709507758908
 23
130.1539184333061
 33
0.0
  0
SOLID
  5
E0C
330
1F
100
AcDbEntity
  8
LOGO
 62
     5
100
AcDbTrace
 10
559.886146413025
 20
131.0984437680508
 30
0.0
 11
561.1312025360971
 21
131.0984437680515
 31
0.0
 12
559.886146413025
 22
120.2364024184853
 32
0.0
 13
561.1312025360971
 23
124.8016082030855
 33
0.0
  0
SOLID
  5
E0D
330
1F
100
AcDbEntity
  8
LOGO
 62
     2
100
AcDbTrace
 10
559.3709507758908
 20
131.0984437680508
 30
0.0
 11
559.886146413025
 21
131.0984437680508
 31
0.0
 12
559.3709507758908
 22
119.2918770837406
 32
0.0
 13
559.886146413025
 23
119.2918770837406
 33
0.0
  0
SOLID
  5
E0E
330
1F
100
AcDbEntity
  8
LOGO
 62
     5
100
AcDbTrace
 10
559.886146413025
 20
120.2364024184853
 30
0.0
 11
561.1312025360971
 21
124.8016082030855
 31
0.0
 12
565.8108962400599
 22
131.0984437680515
 32
0.0
 13
564.5658401169878
 23
131.0984437680515
 33
0.0
  0
SOLID
  5
E0F
330
1F
100
AcDbEntity
  8
LOGO
 62
     5
100
AcDbTrace
 10
559.886146413025
 20
119.2918770837406
 30
0.0
 11
561.1312025360971
 21
119.2918770837406
 31
0.0
 12
565.8108962400599
 22
130.1539184333061
 32
0.0
 13
564.5658401169878
 23
125.588712648706
 33
0.0
  0
SOLID
  5
E10
330
1F
100
AcDbEntity
  8
LOGO
 62
     2
100
AcDbTrace
 10
559.3709507758908
 20
119.2918770837406
 30
0.0
 11
559.886146413025
 21
119.2918770837406
 31
0.0
 12
565.8108962400599
 22
131.0984437680515
 32
0.0
 13
566.3260918771941
 23
131.0984437680508
 33
0.0
  0
LWPOLYLINE
  5
E11
330
1F
100
AcDbEntity
  8
LOGO
 62
     4
100
AcDbPolyline
 90
        4
 70
     1
 43
0.0
 10
548.6983356264403
 20
131.7824781637227
 10
899.6507079594719
 20
131.7824781637227
 10
899.6507079594719
 20
102.9866482994688
 10
548.6983356264403
 20
102.9866482994688
1001
GENIUS_GENREC_14
1002
{
1000
PYDIR
1011
548.6983356264403
1021
102.9866482994688
1031
0.0
1002
}
1002
{
1000
PXDIR
1011
899.6507079594719
1021
131.7824781637227
1031
0.0
1002
}
1002
{
1000
PORI
1011
548.6983356264403
1021
131.7824781637227
1031
0.0
1002
}
1002
{
1000
PINS
1011
548.6983356264403
1021
131.7824781637227
1031
0.0
1002
}
1002
{
1000
PINS2
1011
899.6507079594719
1021
102.9866482994688
1031
0.0
1002
}
1002
{
1000
C
1070
     1
1002
}
1001
GENIUS_GENOBJ-N-REC_13
1002
{
1000
OWNER
1000
GEN
1002
}
1001
GENIUS_GENODEF_13
1002
{
1000
HIER
1070
     0
1002
}
1002
{
1000
MANEDIT
1070
     0
1002
}
1002
{
1000
NOSEL
1070
     0
1002
}
1002
{
1000
BEHIND
1070
     0
1002
}
1002
{
1000
OTHER
1070
     0
1002
}
1002
{
1000
REACTOR
1002
}
  0
CIRCLE
  5
E12
330
1F
100
AcDbEntity
  8
LOGO
  6
Continuous
100
AcDbCircle
 10
598.1838494902082
 20
123.149888653527
 30
0.0
 40
1.671953659661709
  0
CIRCLE
  5
E13
330
1F
100
AcDbEntity
  8
LOGO
  6
Continuous
100
AcDbCircle
 10
598.1838494902082
 20
123.149888653527
 30
0.0
 40
0.9796168348784599
  0
LINE
  5
E14
330
1F
100
AcDbEntity
  8
LOGO
100
AcDbLine
 10
608.6906002928209
 20
121.477934993865
 30
0.0
 11
608.6906002928209
 21
124.821842313189
 31
0.0
  0
LINE
  5
E15
330
1F
100
AcDbEntity
  8
LOGO
100
AcDbLine
 10
603.449121544501
 20
122.1702718186487
 30
0.0
 11
603.449121544501
 21
124.1295054884056
 31
0.0
  0
LINE
  5
E16
330
1F
100
AcDbEntity
  8
LOGO
  6
Continuous
100
AcDbLine
 10
603.449121544501
 20
124.1295054884056
 30
0.0
 11
608.6906002928209
 21
124.821842313189
 31
0.0
  0
LINE
  5
E17
330
1F
100
AcDbEntity
  8
LOGO
  6
Continuous
100
AcDbLine
 10
603.449121544501
 20
122.1702718186487
 30
0.0
 11
608.6906002928209
 21
121.477934993865
 31
0.0
  0
LINE
  5
E18
330
1F
100
AcDbEntity
  8
LOGO
  6
AM_ISO08W050x2
 48
0.3
100
AcDbLine
 10
595.8790363348299
 20
123.149888653527
 30
0.0
 11
600.4886626455864
 21
123.149888653527
 31
0.0
1001
GENIUS_GENOREF_13
1005
E4F
  0
LINE
  5
E19
330
1F
100
AcDbEntity
  8
LOGO
  6
AM_ISO08W050x2
 48
0.3
100
AcDbLine
 10
598.1838494902082
 20
120.8450754981487
 30
0.0
 11
598.1838494902082
 21
125.4547018089053
 31
0.0
1001
GENIUS_GENOREF_13
1005
E4E
  0
LINE
  5
E1A
330
1F
100
AcDbEntity
  8
LOGO
  6
CENTER
 48
0.5
100
AcDbLine
 10
603.0299489308556
 20
123.149888653527
 30
0.0
 11
609.2184002352352
 21
123.149888653527
 31
0.0
1001
GENIUS_GENOREF_13
1005
E4D
  0
TEXT
  5
E1B
330
1F
100
AcDbEntity
  8
LOGO
 62
     7
100
AcDbText
 10
613.7174127605788
 20
119.1675151031091
 30
0.0
 40
3.839443981900452
  1
Order example:
 41
0.8
  7
CHINESET
100
AcDbText
  0
TEXT
  5
E1C
330
1F
100
AcDbEntity
  8
LOGO
 62
     7
100
AcDbText
 10
614.4062407618418
 20
124.5726572626048
 30
0.0
 40
5.759165972850678
  1
訂購代號：
  7
CHINESET
100
AcDbText
  0
TEXT
  5
E1D
330
1F
100
AcDbEntity
  8
LOGO
100
AcDbText
 10
612.9513725791801
 20
104.5185750827159
 30
0.0
 40
2.88
  1
30906264
 41
0.7
  7
CHINESET
 72
     1
 11
620.3913725791801
 21
104.5185750827159
 31
0.0
100
AcDbText
  0
LINE
  5
E1E
330
1F
100
AcDbEntity
  8
LOGO
 62
     4
100
AcDbLine
 10
629.3291613277965
 20
108.7458142723206
 30
0.0
 11
629.3291613277978
 21
102.9866482994695
 31
0.0
  0
LINE
  5
E1F
330
1F
100
AcDbEntity
  8
LOGO
 62
     4
100
AcDbLine
 10
629.3291613277965
 20
108.7458142723206
 30
0.0
 11
612.0491613277978
 21
108.7458142723206
 31
0.0
  0
LINE
  5
E20
330
1F
100
AcDbEntity
  8
LOGO
 62
     4
100
AcDbLine
 10
670.8537671917723
 20
115.9447717383837
 30
0.0
 11
670.8537671917723
 21
105.3863007881572
 31
0.0
  0
LINE
  5
E21
330
1F
100
AcDbEntity
  8
LOGO
 62
     4
100
AcDbLine
 10
651.65654728227
 20
115.9447717383837
 30
0.0
 11
651.65654728227
 21
105.3863007881572
 31
0.0
  0
LINE
  5
E22
330
1F
100
AcDbEntity
  8
LOGO
 62
     4
100
AcDbLine
 10
670.8537671917723
 20
105.3863007881572
 30
0.0
 11
651.65654728227
 21
105.3863007881572
 31
0.0
  0
LINE
  5
E23
330
1F
100
AcDbEntity
  8
LOGO
 62
     4
100
AcDbLine
 10
674.4123460599795
 20
128.9028951772972
 30
0.0
 11
651.65654728227
 21
128.9028951772972
 31
0.0
  0
LINE
  5
E24
330
1F
100
AcDbEntity
  8
LOGO
 62
     4
100
AcDbLine
 10
674.4123460599795
 20
120.2641462180213
 30
0.0
 11
651.65654728227
 21
120.2641462180213
 31
0.0
  0
LINE
  5
E25
330
1F
100
AcDbEntity
  8
LOGO
 62
     4
100
AcDbLine
 10
651.65654728227
 20
128.9028951772972
 30
0.0
 11
651.65654728227
 21
120.2641462180213
 31
0.0
  0
LINE
  5
E26
330
1F
100
AcDbEntity
  8
LOGO
 62
     4
100
AcDbLine
 10
674.4123460599795
 20
128.9028951772972
 30
0.0
 11
674.4123460599795
 21
120.2641462180213
 31
0.0
  0
LINE
  5
E27
330
1F
100
AcDbEntity
  8
LOGO
 62
     4
100
AcDbLine
 10
662.2567699416816
 20
120.2641462180213
 30
0.0
 11
662.2567699416816
 21
115.9447717383837
 31
0.0
  0
TEXT
  5
E28
330
1F
100
AcDbEntity
  8
LOGO
  6
Continuous
 62
     7
100
AcDbText
 10
653.1915176773932
 20
122.0674724334208
 30
0.0
 40
5.04
  1
MVSY
  7
CHINESET
100
AcDbText
  0
LINE
  5
E29
330
1F
100
AcDbEntity
  8
LOGO
 62
     4
100
AcDbLine
 10
670.8537671917723
 20
115.9447717383837
 30
0.0
 11
651.65654728227
 21
115.9447717383837
 31
0.0
  0
TEXT
  5
E2A
330
1F
100
AcDbEntity
  8
LOGO
  6
Continuous
100
AcDbText
 10
657.8168743737559
 20
106.8766065730239
 30
188.7231250944717
 40
2.16
  1
Model
 41
0.8
  7
CHINESET
100
AcDbText
  0
TEXT
  5
E2B
330
1F
100
AcDbEntity
  8
LOGO
100
AcDbText
 10
657.2419525910371
 20
110.880781059799
 30
188.7231250944717
 40
3.6
  1
型號
  7
CHINESET
100
AcDbText
  0
LINE
  5
E2C
330
1F
100
AcDbEntity
  8
LOGO
  6
Continuous
 62
     7
100
AcDbLine
 10
675.3307164726277
 20
124.5529208836006
 30
0.0
 11
679.1452727991007
 21
124.5529208836006
 31
0.0
  0
TEXT
  5
E2D
330
1F
100
AcDbEntity
  8
LOGO
  6
Continuous
 62
     7
100
AcDbText
 10
680.2515592174272
 20
122.0674724334208
 30
0.0
 40
5.04
  1
188M
  7
CHINESET
100
AcDbText
  0
LINE
  5
E2E
330
1F
100
AcDbEntity
  8
LOGO
  6
Continuous
 62
     7
100
AcDbLine
 10
699.4816123923475
 20
124.5529208836006
 30
0.0
 11
703.2961687188205
 21
124.5529208836006
 31
0.0
  0
LINE
  5
E2F
330
1F
100
AcDbEntity
  8
LOGO
 62
     4
100
AcDbLine
 10
702.1410404167376
 20
115.9447717383837
 30
0.0
 11
702.1410404167376
 21
105.3863007881572
 31
0.0
  0
LINE
  5
E30
330
1F
100
AcDbEntity
  8
LOGO
 62
     4
100
AcDbLine
 10
684.6065702585389
 20
115.9447717383837
 30
0.0
 11
684.6065702585389
 21
105.3863007881572
 31
0.0
  0
LINE
  5
E31
330
1F
100
AcDbEntity
  8
LOGO
 62
     4
100
AcDbLine
 10
702.1410404167376
 20
105.3863007881572
 30
0.0
 11
684.6065702585389
 21
105.3863007881572
 31
0.0
  0
LINE
  5
E32
330
1F
100
AcDbEntity
  8
LOGO
 62
     4
100
AcDbLine
 10
715.4243307977008
 20
128.9028951772972
 30
0.0
 11
704.4994601625587
 21
128.9028951772972
 31
0.0
  0
LINE
  5
E33
330
1F
100
AcDbEntity
  8
LOGO
 62
     4
100
AcDbLine
 10
715.4243307977008
 20
120.2641462180213
 30
0.0
 11
704.4994601625587
 21
120.2641462180213
 31
0.0
  0
LINE
  5
E34
330
1F
100
AcDbEntity
  8
LOGO
 62
     4
100
AcDbLine
 10
704.4994601625587
 20
128.9028951772972
 30
0.0
 11
704.4994601625587
 21
120.2641462180213
 31
0.0
  0
LINE
  5
E35
330
1F
100
AcDbEntity
  8
LOGO
 62
     4
100
AcDbLine
 10
715.4243307977008
 20
128.9028951772972
 30
0.0
 11
715.4243307977008
 21
120.2641462180213
 31
0.0
  0
LINE
  5
E36
330
1F
100
AcDbEntity
  8
LOGO
 62
     4
100
AcDbLine
 10
711.1367708910194
 20
120.2641462180213
 30
0.0
 11
711.1367708910194
 21
118.1044589782025
 31
0.0
  0
TEXT
  5
E37
330
1F
100
AcDbEntity
  8
LOGO
  6
Continuous
 62
     7
100
AcDbText
 10
705.6492545490392
 20
122.0674724334208
 30
0.0
 40
5.04
  1
5M
  7
CHINESET
100
AcDbText
  0
LINE
  5
E38
330
1F
100
AcDbEntity
  8
LOGO
 62
     4
100
AcDbLine
 10
702.1410404167376
 20
115.9447717383837
 30
0.0
 11
684.6065702585389
 21
115.9447717383837
 31
0.0
  0
LINE
  5
E39
330
1F
100
AcDbEntity
  8
LOGO
 62
     4
100
AcDbLine
 10
723.9246843486981
 20
115.9447717383837
 30
0.0
 11
723.9246843486981
 21
105.3863007881572
 31
0.0
  0
LINE
  5
E3A
330
1F
100
AcDbEntity
  8
LOGO
 62
     4
100
AcDbLine
 10
708.2854882901715
 20
115.9447717383837
 30
0.0
 11
708.2854882901715
 21
105.3863007881572
 31
0.0
  0
LINE
  5
E3B
330
1F
100
AcDbEntity
  8
LOGO
 62
     4
100
AcDbLine
 10
723.9246843486981
 20
105.3863007881572
 30
0.0
 11
708.2854882901715
 21
105.3863007881572
 31
0.0
  0
LINE
  5
E3C
330
1F
100
AcDbEntity
  8
LOGO
 62
     4
100
AcDbLine
 10
723.9158971737764
 20
128.9028951772972
 30
0.0
 11
716.5916039960981
 21
128.9028951772972
 31
0.0
  0
LINE
  5
E3D
330
1F
100
AcDbEntity
  8
LOGO
 62
     4
100
AcDbLine
 10
723.9158971737764
 20
120.2641462180213
 30
0.0
 11
716.5916039960981
 21
120.2641462180213
 31
0.0
  0
LINE
  5
E3E
330
1F
100
AcDbEntity
  8
LOGO
 62
     4
100
AcDbLine
 10
716.5916039960981
 20
128.9028951772972
 30
0.0
 11
716.5916039960981
 21
120.2641462180213
 31
0.0
  0
LINE
  5
E3F
330
1F
100
AcDbEntity
  8
LOGO
 62
     4
100
AcDbLine
 10
723.9158971737764
 20
128.9028951772972
 30
0.0
 11
723.9158971737764
 21
120.2641462180213
 31
0.0
  0
LINE
  5
E40
330
1F
100
AcDbEntity
  8
LOGO
 62
     4
100
AcDbLine
 10
721.1872984942592
 20
120.2641462180213
 30
0.0
 11
721.1872984942585
 21
118.1044589782025
 31
0.0
  0
TEXT
  5
E41
330
1F
100
AcDbEntity
  8
LOGO
  6
Continuous
 62
     7
100
AcDbText
 10
718.5226031037457
 20
122.0674724334208
 30
0.0
 40
5.04
  1
*
  7
CHINESET
100
AcDbText
  0
LINE
  5
E42
330
1F
100
AcDbEntity
  8
LOGO
 62
     4
100
AcDbLine
 10
723.9246843486981
 20
115.9447717383837
 30
0.0
 11
708.2854882901715
 21
115.9447717383837
 31
0.0
  0
TEXT
  5
E43
330
1F
100
AcDbEntity
  8
LOGO
  6
Continuous
100
AcDbText
 10
688.6276032183356
 20
106.8766065730239
 30
188.7231250944717
 40
2.16
  1
Manifold
 41
0.8
  7
CHINESET
100
AcDbText
  0
TEXT
  5
E44
330
1F
100
AcDbEntity
  8
LOGO
100
AcDbText
 10
689.4985384901405
 20
110.880781059799
 30
188.7231250944717
 40
3.6
  1
連座
  7
CHINESET
100
AcDbText
  0
TEXT
  5
E45
330
1F
100
AcDbEntity
  8
LOGO
  6
Continuous
100
AcDbText
 10
710.9194846569789
 20
106.8766065730239
 30
188.7231250944717
 40
2.16
  1
Number
 41
0.8
  7
CHINESET
100
AcDbText
  0
TEXT
  5
E46
330
1F
100
AcDbEntity
  8
LOGO
100
AcDbText
 10
710.7697173574949
 20
110.880781059799
 30
188.7231250944717
 40
3.6
  1
連座數
  7
CHINESET
100
AcDbText
  0
LINE
  5
E47
330
1F
100
AcDbEntity
  8
LOGO
 62
     4
100
AcDbLine
 10
711.1367708910194
 20
118.1044589782025
 30
0.0
 11
694.2051802132903
 21
118.1044589782025
 31
0.0
  0
LINE
  5
E48
330
1F
100
AcDbEntity
  8
LOGO
 62
     4
100
AcDbLine
 10
694.2051802132903
 20
115.9447717383837
 30
0.0
 11
694.2051802132903
 21
118.1044589782025
 31
0.0
  0
LINE
  5
E49
330
1F
100
AcDbEntity
  8
LOGO
 62
     4
100
AcDbLine
 10
716.1050863194344
 20
115.9447717383837
 30
0.0
 11
716.1050863194344
 21
118.1044589782025
 31
0.0
  0
LINE
  5
E4A
330
1F
100
AcDbEntity
  8
LOGO
 62
     4
100
AcDbLine
 10
721.1872984942592
 20
118.1044589782025
 30
0.0
 11
716.1050863194344
 21
118.1044589782025
 31
0.0
  0
POINT
  5
E4D
330
1F
100
AcDbEntity
  8
0
 60
     1
100
AcDbPoint
 10
-1897.544112831003
 20
-477.3049321738528
 30
0.0
1001
GENIUS_GENOBJ-N-CRS_13
1002
{
1000
OWNER
1000
GEN
1002
}
1001
GENIUS_GENOLIS_13
1002
{
1000
ENT
1005
0
1005
0
1005
0
1005
E1A
1002
}
1001
GENIUS_GENOENT_13
1002
{
1000
MYREF
1005
E4D
1002
}
1002
{
1000
GRP
1005
0
1002
}
1001
GENIUS_GENODEF_13
1002
{
1000
HIER
1070
    10
1002
}
1002
{
1000
MANEDIT
1070
     1
1002
}
1002
{
1000
NOSEL
1070
     0
1002
}
1002
{
1000
BEHIND
1070
     0
1002
}
1002
{
1000
OTHER
1070
     0
1002
}
1002
{
1000
REACTOR
1002
}
  0
POINT
  5
E4E
330
1F
100
AcDbEntity
  8
0
 60
     1
100
AcDbPoint
 10
-1908.868698053857
 20
-468.4293456952166
 30
0.0
1001
GENIUS_GENOBJ-N-CRS_13
1002
{
1000
OWNER
1000
GEN
1002
}
1001
GENIUS_GENOLIS_13
1002
{
1000
ENT
1005
0
1005
0
1005
0
1005
E19
1002
}
1001
GENIUS_GENOENT_13
1002
{
1000
MYREF
1005
E4E
1002
}
1002
{
1000
GRP
1005
0
1002
}
1001
GENIUS_GENODEF_13
1002
{
1000
HIER
1070
    10
1002
}
1002
{
1000
MANEDIT
1070
     1
1002
}
1002
{
1000
NOSEL
1070
     0
1002
}
1002
{
1000
BEHIND
1070
     0
1002
}
1002
{
1000
OTHER
1070
     0
1002
}
1002
{
1000
REACTOR
1002
}
  0
POINT
  5
E4F
330
1F
100
AcDbEntity
  8
0
 60
     1
100
AcDbPoint
 10
-1902.51002435602
 20
-477.3049321738528
 30
0.0
1001
GENIUS_GENOBJ-N-CRS_13
1002
{
1000
OWNER
1000
GEN
1002
}
1001
GENIUS_GENOLIS_13
1002
{
1000
ENT
1005
0
1005
0
1005
0
1005
E18
1002
}
1001
GENIUS_GENOENT_13
1002
{
1000
MYREF
1005
E4F
1002
}
1002
{
1000
GRP
1005
0
1002
}
1001
GENIUS_GENODEF_13
1002
{
1000
HIER
1070
    10
1002
}
1002
{
1000
MANEDIT
1070
     1
1002
}
1002
{
1000
NOSEL
1070
     0
1002
}
1002
{
1000
BEHIND
1070
     0
1002
}
1002
{
1000
OTHER
1070
     0
1002
}
1002
{
1000
REACTOR
1002
}
  0
LINE
  5
2F3F
330
1F
100
AcDbEntity
  8
SL
  6
ACISOTGB
 62
     4
100
AcDbLine
 10
618.6028349678069
 20
307.8322027108074
 30
0.0
 11
618.6028349678066
 21
340.9078963357283
 31
0.0
  0
LINE
  5
2F40
330
1F
100
AcDbEntity
  8
SL
  6
ACISOTGB
 62
     4
100
AcDbLine
 10
610.9811030001605
 20
307.8322027108071
 30
0.0
 11
618.6028349678069
 21
307.8322027108074
 31
0.0
  0
LINE
  5
2F41
330
1F
100
AcDbEntity
  8
SL
  6
ACISOTGB
 62
     4
100
AcDbLine
 10
610.9811030001605
 20
307.8322027108072
 30
0.0
 11
610.9811030001605
 21
257.50045434549
 31
0.0
  0
INSERT
  5
2F42
330
1F
100
AcDbEntity
  8
0
100
AcDbBlockReference
  2
A$C0B032DDE
 10
605.0428467988496
 20
337.6774755030223
 30
0.0
  0
DIMENSION
  5
3010
330
1F
100
AcDbEntity
  8
AM_5
100
AcDbDimension
  2
*D3
 10
751.2427645387963
 20
182.0189745877677
 30
0.0
 11
780.8029486734022
 21
212.6761459120237
 31
0.0
 70
   163
  1
3×2-PT1/4
 71
     5
 42
11.39999999999975
  3
AM_ISO$3
100
AcDbDiametricDimension
 15
756.9331577160816
 25
191.8972044640106
 35
0.0
 40
0.0
1001
ACAD
1000
DSTYLE
1002
{
1070
    40
1040
1.0
1070
   144
1040
1.0
1070
   272
1070
     8
1002
}
  0
INSERT
  5
3409
330
1F
100
AcDbEntity
  8
0
100
AcDbBlockReference
  2
A$C4A810FDD
 10
617.972508682457
 20
348.6142637800194
 30
0.0
  0
LINE
  5
39D8
330
1F
100
AcDbEntity
  8
AM_7
100
AcDbLine
 10
591.0424718406706
 20
290.6267439003116
 30
0.0
 11
592.5424718406706
 21
290.6267439003116
 31
0.0
  0
LINE
  5
39D9
330
1F
100
AcDbEntity
  8
AM_7
100
AcDbLine
 10
591.7924718406705
 20
289.8767439003115
 30
0.0
 11
591.7924718406705
 21
291.3767439003116
 31
0.0
  0
LINE
  5
39DA
330
1F
100
AcDbEntity
  8
AM_7
100
AcDbLine
 10
587.5424718406706
 20
290.6267439003116
 30
0.0
 11
590.2424718406706
 21
290.6267439003116
 31
0.0
  0
LINE
  5
39DB
330
1F
100
AcDbEntity
  8
AM_7
100
AcDbLine
 10
593.3424718406705
 20
290.6267439003116
 30
0.0
 11
596.0424718406706
 21
290.6267439003116
 31
0.0
  0
LINE
  5
39DC
330
1F
100
AcDbEntity
  8
AM_7
100
AcDbLine
 10
591.7924718406705
 20
286.3767439003116
 30
0.0
 11
591.7924718406705
 21
289.0767439003115
 31
0.0
  0
LINE
  5
39DD
330
1F
100
AcDbEntity
  8
AM_7
100
AcDbLine
 10
591.7924718406705
 20
292.1767439003115
 30
0.0
 11
591.7924718406705
 21
294.8767439003116
 31
0.0
  0
LINE
  5
39DE
330
1F
100
AcDbEntity
  8
AM_7
100
AcDbLine
 10
640.0424718406705
 20
290.6267439003116
 30
0.0
 11
641.5424718406706
 21
290.6267439003116
 31
0.0
  0
LINE
  5
39DF
330
1F
100
AcDbEntity
  8
AM_7
100
AcDbLine
 10
640.7924718406706
 20
289.8767439003115
 30
0.0
 11
640.7924718406706
 21
291.3767439003116
 31
0.0
  0
LINE
  5
39E0
330
1F
100
AcDbEntity
  8
AM_7
100
AcDbLine
 10
636.5424718406706
 20
290.6267439003116
 30
0.0
 11
639.2424718406706
 21
290.6267439003116
 31
0.0
  0
LINE
  5
39E1
330
1F
100
AcDbEntity
  8
AM_7
100
AcDbLine
 10
642.3424718406705
 20
290.6267439003116
 30
0.0
 11
645.0424718406706
 21
290.6267439003116
 31
0.0
  0
LINE
  5
39E2
330
1F
100
AcDbEntity
  8
AM_7
100
AcDbLine
 10
640.7924718406706
 20
286.3767439003116
 30
0.0
 11
640.7924718406706
 21
289.0767439003115
 31
0.0
  0
LINE
  5
39E3
330
1F
100
AcDbEntity
  8
AM_7
100
AcDbLine
 10
640.7924718406706
 20
292.1767439003115
 30
0.0
 11
640.7924718406706
 21
294.8767439003116
 31
0.0
  0
LINE
  5
39E4
330
1F
100
AcDbEntity
  8
AM_7
100
AcDbLine
 10
591.0424718406706
 20
311.6267439003116
 30
0.0
 11
592.5424718406706
 21
311.6267439003116
 31
0.0
  0
LINE
  5
39E5
330
1F
100
AcDbEntity
  8
AM_7
100
AcDbLine
 10
591.7924718406705
 20
310.8767439003116
 30
0.0
 11
591.7924718406705
 21
312.3767439003116
 31
0.0
  0
LINE
  5
39E6
330
1F
100
AcDbEntity
  8
AM_7
100
AcDbLine
 10
587.5424718406706
 20
311.6267439003116
 30
0.0
 11
590.2424718406706
 21
311.6267439003116
 31
0.0
  0
LINE
  5
39E7
330
1F
100
AcDbEntity
  8
AM_7
100
AcDbLine
 10
593.3424718406705
 20
311.6267439003116
 30
0.0
 11
596.0424718406706
 21
311.6267439003116
 31
0.0
  0
LINE
  5
39E8
330
1F
100
AcDbEntity
  8
AM_7
100
AcDbLine
 10
591.7924718406705
 20
307.3767439003116
 30
0.0
 11
591.7924718406705
 21
310.0767439003115
 31
0.0
  0
LINE
  5
39E9
330
1F
100
AcDbEntity
  8
AM_7
100
AcDbLine
 10
591.7924718406705
 20
313.1767439003115
 30
0.0
 11
591.7924718406705
 21
315.8767439003116
 31
0.0
  0
LINE
  5
39EA
330
1F
100
AcDbEntity
  8
AM_7
100
AcDbLine
 10
640.0424718406705
 20
311.6267439003116
 30
0.0
 11
641.5424718406706
 21
311.6267439003116
 31
0.0
  0
LINE
  5
39EB
330
1F
100
AcDbEntity
  8
AM_7
100
AcDbLine
 10
640.7924718406706
 20
310.8767439003116
 30
0.0
 11
640.7924718406706
 21
312.3767439003116
 31
0.0
  0
LINE
  5
39EC
330
1F
100
AcDbEntity
  8
AM_7
100
AcDbLine
 10
636.5424718406706
 20
311.6267439003116
 30
0.0
 11
639.2424718406706
 21
311.6267439003116
 31
0.0
  0
LINE
  5
39ED
330
1F
100
AcDbEntity
  8
AM_7
100
AcDbLine
 10
642.3424718406705
 20
311.6267439003116
 30
0.0
 11
645.0424718406706
 21
311.6267439003116
 31
0.0
  0
LINE
  5
39EE
330
1F
100
AcDbEntity
  8
AM_7
100
AcDbLine
 10
640.7924718406706
 20
307.3767439003116
 30
0.0
 11
640.7924718406706
 21
310.0767439003115
 31
0.0
  0
LINE
  5
39EF
330
1F
100
AcDbEntity
  8
AM_7
100
AcDbLine
 10
640.7924718406706
 20
313.1767439003115
 30
0.0
 11
640.7924718406706
 21
315.8767439003116
 31
0.0
  0
LINE
  5
39FF
330
1F
100
AcDbEntity
  8
AM_7
100
AcDbLine
 10
582.8313053328193
 20
300.7267439003116
 30
0.0
 11
649.4731298777102
 21
300.7267439003116
 31
0.0
  0
DIMENSION
  5
3A0F
330
1F
100
AcDbEntity
  8
AM_5
100
AcDbDimension
  2
*D12
 10
571.3258051746705
 20
167.8580895258894
 30
0.0
 11
568.8754606864815
 21
182.3080895258895
 31
0.0
 70
    32
 71
     5
 42
28.9
  3
AM_ISO
100
AcDbAlignedDimension
 13
595.0699718406704
 23
196.7580895258894
 33
0.0
 14
585.7924718406706
 24
167.8580895258894
 34
0.0
 50
90.0
100
AcDbRotatedDimension
  0
LINE
  5
3A12
330
1F
100
AcDbEntity
  8
AM_7
100
AcDbLine
 10
596.0814718406705
 20
279.7267439003116
 30
0.0
 11
603.5034718406708
 21
279.7267439003116
 31
0.0
  0
LINE
  5
3A15
330
1F
100
AcDbEntity
  8
AM_7
100
AcDbLine
 10
599.7924718406705
 20
276.0157439003117
 30
0.0
 11
599.7924718406705
 21
283.4377439003116
 31
0.0
  0
DIMENSION
  5
3A5A
330
1F
100
AcDbEntity
  8
AM_5
100
AcDbDimension
  2
*D13
 10
764.0879611274391
 20
143.8580895258894
 30
0.0
 11
727.5879611274391
 21
146.3080895258894
 31
0.0
 70
    32
 71
     5
 42
73.0
  3
AM_ISO$0
100
AcDbAlignedDimension
 13
691.0879611274391
 23
167.8580895258894
 33
0.0
 14
764.0879611274391
 24
167.8580895258894
 34
0.0
100
AcDbRotatedDimension
  0
DIMENSION
  5
3A69
330
1F
100
AcDbEntity
  8
AM_5
100
AcDbDimension
  2
*D14
 10
585.7924718406706
 20
247.1267439003116
 30
0.0
 11
588.7924718406706
 21
249.5767439003115
 31
0.0
 70
    32
 71
     5
 42
6.0
  3
AM_ISO$0
100
AcDbAlignedDimension
 13
591.7924718406705
 23
286.3767439003116
 33
0.0
 14
585.7924718406706
 24
259.1267439003116
 34
0.0
100
AcDbRotatedDimension
1001
ACAD
1000
DSTYLE
1002
{
1070
   272
1070
     8
1002
}
  0
DIMENSION
  5
3A6A
330
1F
100
AcDbEntity
  8
AM_5
100
AcDbDimension
  2
*D15
 10
640.7924718406706
 20
247.1267439003116
 30
0.0
 11
616.2924718406705
 21
249.5767439003115
 31
0.0
 70
    32
  1
Y
 71
     5
 42
49.0
  3
AM_ISO$0
100
AcDbAlignedDimension
 13
591.7924718406705
 23
286.3767439003116
 33
0.0
 14
640.7924718406706
 24
286.3767439003116
 34
0.0
100
AcDbRotatedDimension
1001
ACAD
1000
DSTYLE
1002
{
1070
   272
1070
     8
1002
}
  0
DIMENSION
  5
3A6B
330
1F
100
AcDbEntity
  8
AM_5
100
AcDbDimension
  2
*D16
 10
658.7924718406705
 20
290.6267439003116
 30
0.0
 11
656.3424718406704
 21
274.8767439003117
 31
0.0
 70
    32
 71
     5
 42
31.5
  3
AM_ISO$0
100
AcDbAlignedDimension
 13
646.7924718406706
 23
259.1267439003116
 33
0.0
 14
645.0424718406706
 24
290.6267439003116
 34
0.0
 50
90.0
100
AcDbRotatedDimension
1001
ACAD
1000
DSTYLE
1002
{
1070
   272
1070
     8
1002
}
  0
DIMENSION
  5
3A6C
330
1F
100
AcDbEntity
  8
AM_5
100
AcDbDimension
  2
*D17
 10
658.7924718406705
 20
311.6267439003116
 30
0.0
 11
656.3421273524815
 21
301.1267439003117
 31
0.0
 70
    32
 71
     5
 42
21.0
  3
AM_ISO$0
100
AcDbAlignedDimension
 13
645.0424718406706
 23
290.6267439003116
 33
0.0
 14
645.0424718406706
 24
311.6267439003116
 34
0.0
 50
90.0
100
AcDbRotatedDimension
1001
ACAD
1000
DSTYLE
1002
{
1070
   272
1070
     8
1002
}
  0
DIMENSION
  5
3A6D
330
1F
100
AcDbEntity
  8
AM_5
100
AcDbDimension
  2
*D18
 10
565.7924718406706
 20
300.7267439003116
 30
0.0
 11
563.3424718406704
 21
279.9267439003116
 31
0.0
 70
    32
 71
     5
 42
41.60000000000002
  3
AM_ISO$0
100
AcDbAlignedDimension
 13
585.7924718406706
 23
259.1267439003116
 33
0.0
 14
582.8313053328193
 24
300.7267439003116
 34
0.0
 50
90.0
100
AcDbRotatedDimension
1001
ACAD
1000
DSTYLE
1002
{
1070
   272
1070
     8
1002
}
  0
DIMENSION
  5
3A71
330
1F
100
AcDbEntity
  8
AM_5
100
AcDbDimension
  2
*D19
 10
573.7924718406706
 20
279.7267439003116
 30
0.0
 11
571.3421273524814
 21
290.2267439003117
 31
0.0
 70
    32
 71
     5
 42
21.0
  3
AM_ISO$0
100
AcDbAlignedDimension
 13
582.8313053328193
 23
300.7267439003116
 33
0.0
 14
596.0814718406705
 24
279.7267439003116
 34
0.0
 50
90.0
100
AcDbRotatedDimension
1001
ACAD
1000
DSTYLE
1002
{
1070
   272
1070
     8
1002
}
  0
DIMENSION
  5
3A72
330
1F
100
AcDbEntity
  8
AM_5
100
AcDbDimension
  2
*D20
 10
639.5421253379297
 20
309.7561467702262
 30
0.0
 11
669.2790789835278
 21
330.6267439003125
 31
0.0
 70
   163
  1
2×2-<>貫通
 71
     5
 42
4.500000000000454
  3
AM_ANSI$3
100
AcDbDiametricDimension
 15
642.0428183434124
 25
313.4973410303969
 35
0.0
 40
0.0
1001
ACAD
1000
DSTYLE
1002
{
1070
    74
1070
     1
1070
   172
1070
     0
1070
   271
1070
     1
1070
   289
1070
     3
1002
}
  0
DIMENSION
  5
3A7D
330
1F
100
AcDbEntity
  8
AM_5
100
AcDbDimension
  2
*D21
 10
678.5017231596914
 20
208.8580895258894
 30
0.0
 11
678.5017231596914
 21
188.3580895258895
 31
0.0
 70
   160
 71
     5
 42
41.00000000000003
  3
AM_ISO$0
100
AcDbAlignedDimension
 13
691.0879611274391
 23
167.8580895258894
 33
0.0
 14
702.5879611274391
 24
208.8580895258894
 34
0.0
 50
90.0
100
AcDbRotatedDimension
  0
DIMENSION
  5
3A9D
330
1F
100
AcDbEntity
  8
AM_5
100
AcDbDimension
  2
*D22
 10
585.7924718406706
 20
147.8580895258894
 30
0.0
 11
597.7924718406706
 21
150.3084340140784
 31
0.0
 70
    32
 71
     5
 42
24.0
  3
AM_ISO$0
100
AcDbAlignedDimension
 13
609.7924718406706
 23
169.5355895258894
 33
0.0
 14
585.7924718406706
 24
167.8580895258894
 34
0.0
100
AcDbRotatedDimension
  0
DIMENSION
  5
3A9E
330
1F
100
AcDbEntity
  8
AM_5
100
AcDbDimension
  2
*D23
 10
628.7924718406705
 20
147.8580895258894
 30
0.0
 11
619.2924718406706
 21
150.3080895258894
 31
0.0
 70
    32
  1
P=<>
 71
     5
 42
19.0
  3
AM_ISO$0
100
AcDbAlignedDimension
 13
609.7924718406706
 23
169.5355895258894
 33
0.0
 14
628.7924718406705
 24
169.5355895258894
 34
0.0
100
AcDbRotatedDimension
1001
GENIUS_GENDTOL_13
1000
TolAcTol
1000

1000

1040
19.0
  0
DIMENSION
  5
3A9F
330
1F
100
AcDbEntity
  8
AM_5
100
AcDbDimension
  2
*D24
 10
602.7924718406706
 20
155.8580895258894
 30
0.0
 11
606.2924718406706
 21
158.3080895258894
 31
0.0
 70
    32
 71
     5
 42
7.0
  3
AM_ISO$0
100
AcDbAlignedDimension
 13
609.7924718406706
 23
169.5355895258894
 33
0.0
 14
602.7924718406706
 24
189.0355895258894
 34
0.0
100
AcDbRotatedDimension
  0
DIMENSION
  5
3AA0
330
1F
100
AcDbEntity
  8
AM_5
100
AcDbDimension
  2
*D25
 10
577.9924718406706
 20
177.2580895258894
 30
0.0
 11
575.5424718406706
 21
172.5580895258895
 31
0.0
 70
    32
 71
     5
 42
9.400000000000005
  3
AM_ISO
100
AcDbAlignedDimension
 13
585.7924718406706
 23
167.8580895258894
 33
0.0
 14
602.0699718406705
 24
177.2580895258894
 34
0.0
 50
90.0
100
AcDbRotatedDimension
  0
DIMENSION
  5
3AD7
330
1F
100
AcDbEntity
  8
AM_5
100
AcDbDimension
  2
*D26
 10
573.7924718406706
 20
321.7267439003116
 30
0.0
 11
571.3421273524814
 21
311.2267439003117
 31
0.0
 70
    32
 71
     5
 42
21.0
  3
AM_ISO$0
100
AcDbAlignedDimension
 13
582.8313053328193
 23
300.7267439003116
 33
0.0
 14
609.6814718406704
 24
321.7267439003116
 34
0.0
 50
90.0
100
AcDbRotatedDimension
1001
ACAD
1000
DSTYLE
1002
{
1070
   272
1070
     8
1002
}
  0
LINE
  5
3AE6
330
1F
100
AcDbEntity
  8
AM_7
100
AcDbLine
 10
602.8424718406705
 20
326.3267439003115
 30
0.0
 11
604.3424718406705
 21
326.3267439003115
 31
0.0
  0
LINE
  5
3AE7
330
1F
100
AcDbEntity
  8
AM_7
100
AcDbLine
 10
603.5924718406705
 20
325.5767439003116
 30
0.0
 11
603.5924718406705
 21
327.0767439003116
 31
0.0
  0
LINE
  5
3AE8
330
1F
100
AcDbEntity
  8
AM_7
100
AcDbLine
 10
600.9924718406704
 20
326.3267439003115
 30
0.0
 11
602.0424718406705
 21
326.3267439003115
 31
0.0
  0
LINE
  5
3AE9
330
1F
100
AcDbEntity
  8
AM_7
100
AcDbLine
 10
605.1424718406705
 20
326.3267439003115
 30
0.0
 11
606.1924718406705
 21
326.3267439003115
 31
0.0
  0
LINE
  5
3AEA
330
1F
100
AcDbEntity
  8
AM_7
100
AcDbLine
 10
603.5924718406705
 20
323.7267439003116
 30
0.0
 11
603.5924718406705
 21
324.7767439003116
 31
0.0
  0
LINE
  5
3AEB
330
1F
100
AcDbEntity
  8
AM_7
100
AcDbLine
 10
603.5924718406705
 20
327.8767439003116
 30
0.0
 11
603.5924718406705
 21
328.9267439003115
 31
0.0
  0
LINE
  5
3AEC
330
1F
100
AcDbEntity
  8
AM_7
100
AcDbLine
 10
604.5424718406706
 20
275.1267439003115
 30
0.0
 11
606.0424718406705
 21
275.1267439003115
 31
0.0
  0
LINE
  5
3AED
330
1F
100
AcDbEntity
  8
AM_7
100
AcDbLine
 10
605.2924718406706
 20
274.3767439003116
 30
0.0
 11
605.2924718406706
 21
275.8767439003116
 31
0.0
  0
LINE
  5
3AEE
330
1F
100
AcDbEntity
  8
AM_7
100
AcDbLine
 10
602.6924718406704
 20
275.1267439003115
 30
0.0
 11
603.7424718406706
 21
275.1267439003115
 31
0.0
  0
LINE
  5
3AEF
330
1F
100
AcDbEntity
  8
AM_7
100
AcDbLine
 10
606.8424718406705
 20
275.1267439003115
 30
0.0
 11
607.8924718406705
 21
275.1267439003115
 31
0.0
  0
LINE
  5
3AF0
330
1F
100
AcDbEntity
  8
AM_7
100
AcDbLine
 10
605.2924718406706
 20
272.5267439003115
 30
0.0
 11
605.2924718406706
 21
273.5767439003116
 31
0.0
  0
LINE
  5
3AF1
330
1F
100
AcDbEntity
  8
AM_7
100
AcDbLine
 10
605.2924718406706
 20
276.6767439003115
 30
0.0
 11
605.2924718406706
 21
277.7267439003116
 31
0.0
  0
LINE
  5
3AF2
330
1F
100
AcDbEntity
  8
AM_7
100
AcDbLine
 10
621.8424718406705
 20
326.3267439003115
 30
0.0
 11
623.3424718406705
 21
326.3267439003115
 31
0.0
  0
LINE
  5
3AF3
330
1F
100
AcDbEntity
  8
AM_7
100
AcDbLine
 10
622.5924718406705
 20
325.5767439003116
 30
0.0
 11
622.5924718406705
 21
327.0767439003116
 31
0.0
  0
LINE
  5
3AF4
330
1F
100
AcDbEntity
  8
AM_7
100
AcDbLine
 10
619.9924718406706
 20
326.3267439003115
 30
0.0
 11
621.0424718406706
 21
326.3267439003115
 31
0.0
  0
LINE
  5
3AF5
330
1F
100
AcDbEntity
  8
AM_7
100
AcDbLine
 10
624.1424718406705
 20
326.3267439003115
 30
0.0
 11
625.1924718406704
 21
326.3267439003115
 31
0.0
  0
LINE
  5
3AF6
330
1F
100
AcDbEntity
  8
AM_7
100
AcDbLine
 10
622.5924718406705
 20
323.7267439003116
 30
0.0
 11
622.5924718406705
 21
324.7767439003116
 31
0.0
  0
LINE
  5
3AF7
330
1F
100
AcDbEntity
  8
AM_7
100
AcDbLine
 10
622.5924718406705
 20
327.8767439003116
 30
0.0
 11
622.5924718406705
 21
328.9267439003115
 31
0.0
  0
LINE
  5
3AFE
330
1F
100
AcDbEntity
  8
AM_7
100
AcDbLine
 10
623.5424718406705
 20
275.1267439003115
 30
0.0
 11
625.0424718406706
 21
275.1267439003115
 31
0.0
  0
LINE
  5
3AFF
330
1F
100
AcDbEntity
  8
AM_7
100
AcDbLine
 10
624.2924718406706
 20
274.3767439003116
 30
0.0
 11
624.2924718406706
 21
275.8767439003116
 31
0.0
  0
LINE
  5
3B00
330
1F
100
AcDbEntity
  8
AM_7
100
AcDbLine
 10
621.6924718406704
 20
275.1267439003115
 30
0.0
 11
622.7424718406706
 21
275.1267439003115
 31
0.0
  0
LINE
  5
3B01
330
1F
100
AcDbEntity
  8
AM_7
100
AcDbLine
 10
625.8424718406705
 20
275.1267439003115
 30
0.0
 11
626.8924718406704
 21
275.1267439003115
 31
0.0
  0
LINE
  5
3B02
330
1F
100
AcDbEntity
  8
AM_7
100
AcDbLine
 10
624.2924718406706
 20
272.5267439003115
 30
0.0
 11
624.2924718406706
 21
273.5767439003116
 31
0.0
  0
LINE
  5
3B03
330
1F
100
AcDbEntity
  8
AM_7
100
AcDbLine
 10
624.2924718406706
 20
276.6767439003115
 30
0.0
 11
624.2924718406706
 21
277.7267439003116
 31
0.0
  0
DIMENSION
  5
3B15
330
1F
100
AcDbEntity
  8
AM_5
100
AcDbDimension
  2
*D8
 10
754.0879611274391
 20
159.8580895258894
 30
0.0
 11
743.5879611274391
 21
162.4830895258894
 31
0.0
 70
    32
  1
(<>)
 71
     5
 42
21.0
  3
AM_ISO$0
100
AcDbAlignedDimension
 13
733.0879611274391
 23
179.2355895258894
 33
0.0
 14
754.0879611274391
 24
179.2355895258894
 34
0.0
100
AcDbRotatedDimension
  0
DIMENSION
  5
3B16
330
1F
100
AcDbEntity
  8
AM_5
100
AcDbDimension
  2
*D9
 10
712.0879611274391
 20
159.8580895258894
 30
0.0
 11
722.5879611274391
 21
162.4830895258894
 31
0.0
 70
    32
  1
(<>)
 71
     5
 42
21.0
  3
AM_ISO$0
100
AcDbAlignedDimension
 13
733.0879611274391
 23
179.2355895258894
 33
0.0
 14
712.0879611274391
 24
179.2355895258894
 34
0.0
100
AcDbRotatedDimension
  0
DIMENSION
  5
3B17
330
1F
100
AcDbEntity
  8
AM_5
100
AcDbDimension
  2
*D10
 10
691.0879611274388
 20
151.8580895258894
 30
0.0
 11
712.087961127439
 21
154.3084340140784
 31
0.0
 70
    32
  1
<>
 71
     5
 42
42.00000000000023
  3
AM_ISO$0
100
AcDbAlignedDimension
 13
733.0879611274391
 23
179.2355895258894
 33
0.0
 14
691.0879611274388
 24
167.8580895258894
 34
0.0
100
AcDbRotatedDimension
  0
DIMENSION
  5
3B18
330
1F
100
AcDbEntity
  8
AM_5
100
AcDbDimension
  2
*D11
 10
776.0879611274391
 20
186.9580895258894
 30
0.0
 11
773.4621152491546
 21
177.4080895258896
 31
0.0
 70
    32
  1
(<>)
 71
     5
 42
19.09999999999999
  3
AM_ISO$0
100
AcDbAlignedDimension
 13
764.0879611274391
 23
167.8580895258894
 33
0.0
 14
761.8104611274389
 24
186.9580895258894
 34
0.0
 50
90.0
100
AcDbRotatedDimension
  0
LINE
  5
3B25
330
1F
100
AcDbEntity
  8
AM_VIS
100
AcDbLine
 10
585.7924718406706
 20
270.6267439003116
 30
0.0
 11
646.7924718406706
 21
270.6267439003116
 31
0.0
  0
LINE
  5
3B26
330
1F
100
AcDbEntity
  8
AM_VIS
100
AcDbLine
 10
585.7924718406706
 20
332.1267439003116
 30
0.0
 11
646.7924718406706
 21
332.1267439003116
 31
0.0
  0
LINE
  5
3B2D
102
{ACAD_REACTORS
330
44C3
102
}
330
1F
100
AcDbEntity
  8
AM_VIS
100
AcDbLine
 10
585.7924718406706
 20
259.1267439003116
 30
0.0
 11
646.7924718406706
 21
259.1267439003116
 31
0.0
  0
LINE
  5
3B2E
330
1F
100
AcDbEntity
  8
AM_VIS
100
AcDbLine
 10
599.9650261884964
 20
259.1267439003116
 30
0.0
 11
600.4786131450178
 21
259.1267439003116
 31
0.0
  0
LINE
  5
3B2F
330
1F
100
AcDbEntity
  8
AM_VIS
100
AcDbLine
 10
599.2231783624093
 20
259.1267439003116
 30
0.0
 11
599.9650261884964
 21
259.1267439003116
 31
0.0
  0
LINE
  5
3B30
330
1F
100
AcDbEntity
  8
AM_VIS
100
AcDbLine
 10
599.5166566232788
 20
259.1267439003116
 30
0.0
 11
600.3970914058876
 21
259.1267439003116
 31
0.0
  0
LINE
  5
3B31
330
1F
100
AcDbEntity
  8
AM_VIS
100
AcDbLine
 10
599.3291566232788
 20
259.1267439003116
 30
0.0
 11
599.5166566232788
 21
259.1267439003116
 31
0.0
  0
LINE
  5
3B32
330
1F
100
AcDbEntity
  8
AM_VIS
100
AcDbLine
 10
599.2394827102353
 20
259.1267439003116
 30
0.0
 11
599.3291566232788
 21
259.1267439003116
 31
0.0
  0
LINE
  5
3B33
330
1F
100
AcDbEntity
  8
AM_VIS
100
AcDbLine
 10
599.2231783002131
 20
259.1267439003116
 30
0.0
 11
599.2394827102353
 21
259.1267439003116
 31
0.0
  0
LINE
  5
3B34
330
1F
100
AcDbEntity
  8
AM_VIS
100
AcDbLine
 10
640.7250261884963
 20
259.1267439003116
 30
0.0
 11
641.2386131450181
 21
259.1267439003116
 31
0.0
  0
LINE
  5
3B35
330
1F
100
AcDbEntity
  8
AM_VIS
100
AcDbLine
 10
639.9831783624094
 20
259.1267439003116
 30
0.0
 11
640.7250261884963
 21
259.1267439003116
 31
0.0
  0
LINE
  5
3B36
330
1F
100
AcDbEntity
  8
AM_VIS
100
AcDbLine
 10
640.2766566232789
 20
259.1267439003116
 30
0.0
 11
641.1570914058876
 21
259.1267439003116
 31
0.0
  0
LINE
  5
3B37
330
1F
100
AcDbEntity
  8
AM_VIS
100
AcDbLine
 10
640.0891566232789
 20
259.1267439003116
 30
0.0
 11
640.2766566232789
 21
259.1267439003116
 31
0.0
  0
LINE
  5
3B38
330
1F
100
AcDbEntity
  8
AM_VIS
100
AcDbLine
 10
639.9994827102354
 20
259.1267439003116
 30
0.0
 11
640.0891566232789
 21
259.1267439003116
 31
0.0
  0
LINE
  5
3B39
330
1F
100
AcDbEntity
  8
AM_VIS
100
AcDbLine
 10
639.9831783002131
 20
259.1267439003116
 30
0.0
 11
639.9994827102354
 21
259.1267439003116
 31
0.0
  0
LINE
  5
3B3A
330
1F
100
AcDbEntity
  8
AM_VIS
100
AcDbLine
 10
585.7924718406706
 20
332.1267439003116
 30
0.0
 11
585.7924718406706
 21
270.6267439003116
 31
0.0
  0
LINE
  5
3B3B
330
1F
100
AcDbEntity
  8
AM_VIS
100
AcDbLine
 10
585.7924718406706
 20
270.6267439003116
 30
0.0
 11
585.7924718406706
 21
259.1267439003116
 31
0.0
  0
LINE
  5
3B3C
330
1F
100
AcDbEntity
  8
AM_VIS
100
AcDbLine
 10
646.7924718406706
 20
259.1267439003116
 30
0.0
 11
646.7924718406706
 21
270.6267439003116
 31
0.0
  0
LINE
  5
3B3D
330
1F
100
AcDbEntity
  8
AM_VIS
100
AcDbLine
 10
646.7924718406706
 20
270.6267439003116
 30
0.0
 11
646.7924718406706
 21
332.1267439003116
 31
0.0
  0
LINE
  5
3B3E
330
1F
100
AcDbEntity
  8
AM_VIS
100
AcDbLine
 10
646.7924718406706
 20
319.9446786829548
 30
0.0
 11
646.7924718406706
 21
319.0031025959982
 31
0.0
  0
LINE
  5
3B3F
330
1F
100
AcDbEntity
  8
AM_VIS
100
AcDbLine
 10
646.7924718406706
 20
319.0031025959982
 30
0.0
 11
646.7924718406706
 21
318.852287378607
 31
0.0
  0
LINE
  5
3B40
330
1F
100
AcDbEntity
  8
AM_VIS
100
AcDbLine
 10
646.7924718406706
 20
318.852287378607
 30
0.0
 11
646.7924718406706
 21
318.8115265090417
 31
0.0
  0
LINE
  5
3B41
330
1F
100
AcDbEntity
  8
AM_VIS
100
AcDbLine
 10
646.7924718406706
 20
282.0478852046195
 30
0.0
 11
646.7924718406706
 21
281.5342982480977
 31
0.0
  0
LINE
  5
3B42
330
1F
100
AcDbEntity
  8
AM_VIS
100
AcDbLine
 10
646.7924718406706
 20
281.5342982480977
 30
0.0
 11
646.7924718406706
 21
280.7924504220108
 31
0.0
  0
LINE
  5
3B43
330
1F
100
AcDbEntity
  8
AM_VIS
100
AcDbLine
 10
646.7924718406706
 20
281.9663634654891
 30
0.0
 11
646.7924718406706
 21
281.0859286828804
 31
0.0
  0
LINE
  5
3B44
330
1F
100
AcDbEntity
  8
AM_VIS
100
AcDbLine
 10
646.7924718406706
 20
281.0859286828804
 30
0.0
 11
646.7924718406706
 21
280.8984286828803
 31
0.0
  0
LINE
  5
3B45
330
1F
100
AcDbEntity
  8
AM_VIS
100
AcDbLine
 10
646.7924718406706
 20
280.8984286828803
 30
0.0
 11
646.7924718406706
 21
280.8087547698369
 31
0.0
  0
LINE
  5
3B46
330
1F
100
AcDbEntity
  8
AM_VIS
100
AcDbLine
 10
646.7924718406706
 20
280.8087547698369
 30
0.0
 11
646.7924718406706
 21
280.7924503598147
 31
0.0
  0
LINE
  5
3B47
330
1F
100
AcDbEntity
  8
AM_VIS
100
AcDbLine
 10
646.7924718406706
 20
301.871417813368
 30
0.0
 11
646.7924718406706
 21
300.9298417264115
 31
0.0
  0
LINE
  5
3B48
330
1F
100
AcDbEntity
  8
AM_VIS
100
AcDbLine
 10
646.7924718406706
 20
300.9298417264115
 30
0.0
 11
646.7924718406706
 21
300.7790265090202
 31
0.0
  0
LINE
  5
3B49
330
1F
100
AcDbEntity
  8
AM_VIS
100
AcDbLine
 10
646.7924718406706
 20
300.7790265090202
 30
0.0
 11
646.7924718406706
 21
300.738265639455
 31
0.0
  0
CIRCLE
  5
3B4C
330
1F
100
AcDbEntity
  8
AM_VIS
100
AcDbCircle
 10
599.7924718406705
 20
279.7267439003116
 30
0.0
 40
1.711
  0
CIRCLE
  5
3B4D
330
1F
100
AcDbEntity
  8
AM_VIS
100
AcDbCircle
 10
613.3924718406705
 20
321.7267439003116
 30
0.0
 40
1.711
  0
CIRCLE
  5
3B4E
330
1F
100
AcDbEntity
  8
AM_VIS
100
AcDbCircle
 10
618.7924718406706
 20
279.7267439003116
 30
0.0
 40
1.711
  0
CIRCLE
  5
3B4F
330
1F
100
AcDbEntity
  8
AM_VIS
100
AcDbCircle
 10
632.3924718406705
 20
321.7267439003116
 30
0.0
 40
1.711
  0
CIRCLE
  5
3B53
330
1F
100
AcDbEntity
  8
AM_VIS
100
AcDbCircle
 10
591.7924718406705
 20
290.6267439003116
 30
0.0
 40
2.25
  0
CIRCLE
  5
3B54
330
1F
100
AcDbEntity
  8
AM_VIS
100
AcDbCircle
 10
640.7924718406706
 20
290.6267439003116
 30
0.0
 40
2.25
  0
CIRCLE
  5
3B55
330
1F
100
AcDbEntity
  8
AM_VIS
100
AcDbCircle
 10
591.7924718406705
 20
311.6267439003116
 30
0.0
 40
2.25
  0
CIRCLE
  5
3B56
330
1F
100
AcDbEntity
  8
AM_VIS
100
AcDbCircle
 10
640.7924718406706
 20
311.6267439003116
 30
0.0
 40
2.25
  0
CIRCLE
  5
3B5D
330
1F
100
AcDbEntity
  8
AM_VIS
100
AcDbCircle
 10
603.5924718406705
 20
326.3267439003115
 30
0.0
 40
0.6
  0
CIRCLE
  5
3B5E
330
1F
100
AcDbEntity
  8
AM_VIS
100
AcDbCircle
 10
605.2924718406706
 20
275.1267439003115
 30
0.0
 40
0.6
  0
CIRCLE
  5
3B6D
330
1F
100
AcDbEntity
  8
AM_VIS
100
AcDbCircle
 10
624.2924718406706
 20
275.1267439003115
 30
0.0
 40
0.6
  0
CIRCLE
  5
3B6E
330
1F
100
AcDbEntity
  8
AM_VIS
100
AcDbCircle
 10
622.5924718406705
 20
326.3267439003115
 30
0.0
 40
0.6
  0
LINE
  5
3B77
330
1F
100
AcDbEntity
  8
AM_VIS
100
AcDbLine
 10
585.7924718406706
 20
208.8580895258894
 30
0.0
 11
646.7924718406706
 21
208.8580895258894
 31
0.0
  0
LINE
  5
3B7C
330
1F
100
AcDbEntity
  8
AM_VIS
100
AcDbLine
 10
585.7924718406706
 20
167.8580895258894
 30
0.0
 11
646.7924718406706
 21
167.8580895258894
 31
0.0
  0
LINE
  5
3B7D
330
1F
100
AcDbEntity
  8
AM_VIS
100
AcDbLine
 10
585.7924718406706
 20
206.8580895258894
 30
0.0
 11
646.7924718406706
 21
206.8580895258894
 31
0.0
  0
SPLINE
  5
3B7E
330
1F
100
AcDbEntity
  8
AM_VIS
100
AcDbSpline
210
0.0
220
0.0
230
1.0
 70
     8
 71
     3
 72
     8
 73
     4
 74
     0
 42
0.0000000001
 43
0.0000000001
 40
0.0
 40
0.0
 40
0.0
 40
0.0
 40
80.0
 40
80.0
 40
80.0
 40
80.0
 10
600.4786131450178
 20
176.5651547432807
 30
0.0
 10
600.4786130828218
 20
176.8830894636933
 30
0.0
 10
600.3074174306479
 20
177.1004808095052
 30
0.0
 10
599.9650261884964
 20
177.2173286563242
 30
0.0
  0
SPLINE
  5
3B7F
330
1F
100
AcDbEntity
  8
AM_VIS
100
AcDbSpline
210
0.0
220
0.0
230
1.0
 70
     8
 71
     3
 72
     8
 73
     4
 74
     0
 42
0.0000000001
 43
0.0000000001
 40
0.0
 40
0.0
 40
0.0
 40
0.0
 40
80.0
 40
80.0
 40
80.0
 40
80.0
 10
599.9650261884964
 20
177.2173286563242
 30
0.0
 10
599.8373087557277
 20
177.2608068757297
 30
0.0
 10
599.5900261884964
 20
177.2825460476285
 30
0.0
 10
599.2231783624093
 20
177.2825460476285
 30
0.0
  0
LINE
  5
3B80
330
1F
100
AcDbEntity
  8
AM_VIS
100
AcDbLine
 10
599.2231783624093
 20
177.2825460476285
 30
0.0
 11
599.2231783624093
 21
176.1086330041503
 31
0.0
  0
SPLINE
  5
3B81
330
1F
100
AcDbEntity
  8
AM_VIS
100
AcDbSpline
210
0.0
220
0.0
230
1.0
 70
     8
 71
     3
 72
     8
 73
     4
 74
     0
 42
0.0000000001
 43
0.0000000001
 40
0.0
 40
0.0
 40
0.0
 40
0.0
 40
80.0
 40
80.0
 40
80.0
 40
80.0
 10
599.2231783624093
 20
176.1086330041503
 30
0.0
 10
599.2231783002131
 20
176.013524267034
 30
0.0
 10
599.2666565818147
 20
175.9496656128459
 30
0.0
 10
599.3536131450179
 20
175.9170569171937
 30
0.0
  0
SPLINE
  5
3B82
330
1F
100
AcDbEntity
  8
AM_VIS
100
AcDbSpline
210
0.0
220
0.0
230
1.0
 70
     8
 71
     3
 72
     8
 73
     4
 74
     0
 42
0.0000000001
 43
0.0000000001
 40
0.0
 40
0.0
 40
0.0
 40
0.0
 40
80.0
 40
80.0
 40
80.0
 40
80.0
 10
599.3536131450179
 20
175.9170569171937
 30
0.0
 10
599.4052435383365
 20
175.9007526315638
 30
0.0
 10
599.4908413644235
 20
175.8926004576508
 30
0.0
 10
599.6104066232788
 20
175.8926003954546
 30
0.0
  0
SPLINE
  5
3B83
330
1F
100
AcDbEntity
  8
AM_VIS
100
AcDbSpline
210
0.0
220
0.0
230
1.0
 70
     8
 71
     3
 72
     8
 73
     4
 74
     0
 42
0.0000000001
 43
0.0000000001
 40
0.0
 40
0.0
 40
0.0
 40
0.0
 40
80.0
 40
80.0
 40
80.0
 40
80.0
 10
599.6104066232788
 20
175.8926003954546
 30
0.0
 10
600.1892109089088
 20
175.8926004576508
 30
0.0
 10
600.4786130828218
 20
176.1167851780633
 30
0.0
 10
600.4786131450178
 20
176.5651547432807
 30
0.0
  0
SPLINE
  5
3B84
330
1F
100
AcDbEntity
  8
AM_VIS
100
AcDbSpline
210
0.0
220
0.0
230
1.0
 70
     8
 71
     3
 72
     8
 73
     4
 74
     0
 42
0.0000000001
 43
0.0000000001
 40
0.0
 40
0.0
 40
0.0
 40
0.0
 40
80.0
 40
80.0
 40
80.0
 40
80.0
 10
600.3970914058876
 20
177.9754808302372
 30
0.0
 10
600.3970914058876
 20
178.4075460476285
 30
0.0
 10
600.1036131450178
 20
178.6235786563242
 30
0.0
 10
599.5166566232788
 20
178.6235786563242
 30
0.0
  0
SPLINE
  5
3B85
330
1F
100
AcDbEntity
  8
AM_VIS
100
AcDbSpline
210
0.0
220
0.0
230
1.0
 70
     8
 71
     3
 72
     8
 73
     4
 74
     0
 42
0.0000000001
 43
0.0000000001
 40
0.0
 40
0.0
 40
0.0
 40
0.0
 40
80.0
 40
80.0
 40
80.0
 40
80.0
 10
599.5166566232788
 20
178.6235786563242
 30
0.0
 10
599.4025261263001
 20
178.6235786563242
 30
0.0
 10
599.340026147032
 20
178.6222199192079
 30
0.0
 10
599.3291566232788
 20
178.6195025693677
 30
0.0
  0
SPLINE
  5
3B86
330
1F
100
AcDbEntity
  8
AM_VIS
100
AcDbSpline
210
0.0
220
0.0
230
1.0
 70
     8
 71
     3
 72
     8
 73
     4
 74
     0
 42
0.0000000001
 43
0.0000000001
 40
0.0
 40
0.0
 40
0.0
 40
0.0
 40
80.0
 40
80.0
 40
80.0
 40
80.0
 10
599.3291566232788
 20
178.6195025693677
 30
0.0
 10
599.2802435798006
 20
178.6140677452949
 30
0.0
 10
599.2503522339887
 20
178.6045568964617
 30
0.0
 10
599.2394827102353
 20
178.590969960672
 30
0.0
  0
SPLINE
  5
3B87
330
1F
100
AcDbEntity
  8
AM_VIS
100
AcDbSpline
210
0.0
220
0.0
230
1.0
 70
     8
 71
     3
 72
     8
 73
     4
 74
     0
 42
0.0000000001
 43
0.0000000001
 40
0.0
 40
0.0
 40
0.0
 40
0.0
 40
80.0
 40
80.0
 40
80.0
 40
80.0
 10
599.2394827102353
 20
178.590969960672
 30
0.0
 10
599.228613124286
 20
178.5773829626862
 30
0.0
 10
599.2231783002131
 20
178.5488503539905
 30
0.0
 10
599.2231783624093
 20
178.5053721345851
 30
0.0
  0
LINE
  5
3B88
330
1F
100
AcDbEntity
  8
AM_VIS
100
AcDbLine
 10
599.2231783624093
 20
178.5053721345851
 30
0.0
 11
599.2231783624093
 21
177.4496656128459
 31
0.0
  0
LINE
  5
3B89
330
1F
100
AcDbEntity
  8
AM_VIS
100
AcDbLine
 10
599.2231783624093
 20
177.4496656128459
 30
0.0
 11
599.6837761884964
 21
177.4537416998025
 31
0.0
  0
SPLINE
  5
3B8A
330
1F
100
AcDbEntity
  8
AM_VIS
100
AcDbSpline
210
0.0
220
0.0
230
1.0
 70
     8
 71
     3
 72
     8
 73
     4
 74
     0
 42
0.0000000001
 43
0.0000000001
 40
0.0
 40
0.0
 40
0.0
 40
0.0
 40
80.0
 40
80.0
 40
80.0
 40
80.0
 10
599.6837761884964
 20
177.4537416998025
 30
0.0
 10
599.8685587764599
 20
177.4564590496427
 30
0.0
 10
600.003069646025
 20
177.4714047225487
 30
0.0
 10
600.0873087971918
 20
177.4985786563242
 30
0.0
  0
SPLINE
  5
3B8B
330
1F
100
AcDbEntity
  8
AM_VIS
100
AcDbSpline
210
0.0
220
0.0
230
1.0
 70
     8
 71
     3
 72
     8
 73
     4
 74
     0
 42
0.0000000001
 43
0.0000000001
 40
0.0
 40
0.0
 40
0.0
 40
0.0
 40
80.0
 40
80.0
 40
80.0
 40
80.0
 10
600.0873087971918
 20
177.4985786563242
 30
0.0
 10
600.2938304948583
 20
177.5746655713818
 30
0.0
 10
600.3970914058876
 20
177.7336329626862
 30
0.0
 10
600.3970914058876
 20
177.9754808302372
 30
0.0
  0
SPLINE
  5
3B8C
330
1F
100
AcDbEntity
  8
AM_VIS
100
AcDbSpline
210
0.0
220
0.0
230
1.0
 70
     8
 71
     3
 72
     8
 73
     4
 74
     0
 42
0.0000000001
 43
0.0000000001
 40
0.0
 40
0.0
 40
0.0
 40
0.0
 40
80.0
 40
80.0
 40
80.0
 40
80.0
 10
600.7924718406701
 20
176.5488503954546
 30
0.0
 10
600.7924718406701
 20
176.3749373312443
 30
0.0
 10
600.7435587971919
 20
176.2214047018166
 30
0.0
 10
600.6457327102354
 20
176.0882525693677
 30
0.0
  0
SPLINE
  5
3B8D
330
1F
100
AcDbEntity
  8
AM_VIS
100
AcDbSpline
210
0.0
220
0.0
230
1.0
 70
     8
 71
     3
 72
     8
 73
     4
 74
     0
 42
0.0000000001
 43
0.0000000001
 40
0.0
 40
0.0
 40
0.0
 40
0.0
 40
80.0
 40
80.0
 40
80.0
 40
80.0
 10
600.6457327102354
 20
176.0882525693677
 30
0.0
 10
600.4854065818148
 20
175.8681438737155
 30
0.0
 10
600.2204609296407
 20
175.7580895258894
 30
0.0
 10
599.8508957537136
 20
175.7580895258894
 30
0.0
  0
LINE
  5
3B8E
330
1F
100
AcDbEntity
  8
AM_VIS
100
AcDbLine
 10
599.8508957537136
 20
175.7580895258894
 30
0.0
 11
598.5343196667571
 21
175.7580895258894
 31
0.0
  0
LINE
  5
3B8F
330
1F
100
AcDbEntity
  8
AM_VIS
100
AcDbLine
 10
598.5343196667571
 20
175.7580895258894
 30
0.0
 11
598.5343196667571
 21
175.8396112650198
 31
0.0
  0
SPLINE
  5
3B90
330
1F
100
AcDbEntity
  8
AM_VIS
100
AcDbSpline
210
0.0
220
0.0
230
1.0
 70
     8
 71
     3
 72
     8
 73
     4
 74
     0
 42
0.0000000001
 43
0.0000000001
 40
0.0
 40
0.0
 40
0.0
 40
0.0
 40
80.0
 40
80.0
 40
80.0
 40
80.0
 10
598.5343196667571
 20
175.8396112650198
 30
0.0
 10
598.7027979068947
 20
175.8504808509693
 30
0.0
 10
598.8182870165973
 20
175.887165633578
 30
0.0
 10
598.8807870580614
 20
175.9496656128459
 30
0.0
  0
SPLINE
  5
3B91
330
1F
100
AcDbEntity
  8
AM_VIS
100
AcDbSpline
210
0.0
220
0.0
230
1.0
 70
     8
 71
     3
 72
     8
 73
     4
 74
     0
 42
0.0000000001
 43
0.0000000001
 40
0.0
 40
0.0
 40
0.0
 40
0.0
 40
80.0
 40
80.0
 40
80.0
 40
80.0
 10
598.8807870580614
 20
175.9496656128459
 30
0.0
 10
598.940569625293
 20
176.0121655921139
 30
0.0
 10
598.9704609711049
 20
176.1276547018166
 30
0.0
 10
598.9704609711049
 20
176.2961330041503
 30
0.0
  0
LINE
  5
3B92
330
1F
100
AcDbEntity
  8
AM_VIS
100
AcDbLine
 10
598.9704609711049
 20
176.2961330041503
 30
0.0
 11
598.9704609711049
 21
178.2852634389329
 31
0.0
  0
SPLINE
  5
3B93
330
1F
100
AcDbEntity
  8
AM_VIS
100
AcDbSpline
210
0.0
220
0.0
230
1.0
 70
     8
 71
     3
 72
     8
 73
     4
 74
     0
 42
0.0000000001
 43
0.0000000001
 40
0.0
 40
0.0
 40
0.0
 40
0.0
 40
80.0
 40
80.0
 40
80.0
 40
80.0
 10
598.9704609711049
 20
178.2852634389329
 30
0.0
 10
598.9704609711049
 20
178.4483069171938
 30
0.0
 10
598.939210950373
 20
178.5542851780633
 30
0.0
 10
598.8767109711049
 20
178.6031982215416
 30
0.0
  0
SPLINE
  5
3B94
330
1F
100
AcDbEntity
  8
AM_VIS
100
AcDbSpline
210
0.0
220
0.0
230
1.0
 70
     8
 71
     3
 72
     8
 73
     4
 74
     0
 42
0.0000000001
 43
0.0000000001
 40
0.0
 40
0.0
 40
0.0
 40
0.0
 40
80.0
 40
80.0
 40
80.0
 40
80.0
 10
598.8767109711049
 20
178.6031982215416
 30
0.0
 10
598.8250805155902
 20
178.6412416790704
 30
0.0
 10
598.7109500808077
 20
178.6656982008095
 30
0.0
 10
598.5343196667571
 20
178.676567786759
 30
0.0
  0
LINE
  5
3B95
330
1F
100
AcDbEntity
  8
AM_VIS
100
AcDbLine
 10
598.5343196667571
 20
178.676567786759
 30
0.0
 11
598.5343196667571
 21
178.7580895258894
 31
0.0
  0
LINE
  5
3B96
330
1F
100
AcDbEntity
  8
AM_VIS
100
AcDbLine
 10
598.5343196667571
 20
178.7580895258894
 30
0.0
 11
599.6307870580614
 21
178.7580895258894
 31
0.0
  0
SPLINE
  5
3B97
330
1F
100
AcDbEntity
  8
AM_VIS
100
AcDbSpline
210
0.0
220
0.0
230
1.0
 70
     8
 71
     3
 72
     8
 73
     4
 74
     0
 42
0.0000000001
 43
0.0000000001
 40
0.0
 40
0.0
 40
0.0
 40
0.0
 40
80.0
 40
80.0
 40
80.0
 40
80.0
 10
599.6307870580614
 20
178.7580895258894
 30
0.0
 10
600.3182870165972
 20
178.7580895258894
 30
0.0
 10
600.6620370580614
 20
178.5080894844253
 30
0.0
 10
600.6620370580614
 20
178.0080895258894
 30
0.0
  0
SPLINE
  5
3B98
330
1F
100
AcDbEntity
  8
AM_VIS
100
AcDbSpline
210
0.0
220
0.0
230
1.0
 70
     8
 71
     3
 72
     8
 73
     4
 74
     0
 42
0.0000000001
 43
0.0000000001
 40
0.0
 40
0.0
 40
0.0
 40
0.0
 40
80.0
 40
80.0
 40
80.0
 40
80.0
 10
600.6620370580614
 20
178.0080895258894
 30
0.0
 10
600.6620370580614
 20
177.6711329834182
 30
0.0
 10
600.465026147032
 20
177.4483068757296
 30
0.0
 10
600.0710044493659
 20
177.3396112650198
 30
0.0
  0
LINE
  5
3B99
330
1F
100
AcDbEntity
  8
AM_VIS
100
AcDbLine
 10
600.0710044493659
 20
177.3396112650198
 30
0.0
 11
600.1402979276266
 21
177.3233069171937
 31
0.0
  0
SPLINE
  5
3B9A
330
1F
100
AcDbEntity
  8
AM_VIS
100
AcDbSpline
210
0.0
220
0.0
230
1.0
 70
     8
 71
     3
 72
     8
 73
     4
 74
     0
 42
0.0000000001
 43
0.0000000001
 40
0.0
 40
0.0
 40
0.0
 40
0.0
 40
80.0
 40
80.0
 40
80.0
 40
80.0
 10
600.1402979276266
 20
177.3233069171937
 30
0.0
 10
600.5750804948583
 20
177.2200460061644
 30
0.0
 10
600.7924718406701
 20
176.9618938529835
 30
0.0
 10
600.7924718406701
 20
176.5488503954546
 30
0.0
  0
SPLINE
  5
3B9B
330
1F
100
AcDbEntity
  8
AM_VIS
100
AcDbSpline
210
0.0
220
0.0
230
1.0
 70
     8
 71
     3
 72
     8
 73
     4
 74
     0
 42
0.0000000001
 43
0.0000000001
 40
0.0
 40
0.0
 40
0.0
 40
0.0
 40
80.0
 40
80.0
 40
80.0
 40
80.0
 10
641.2386131450181
 20
176.5651547432807
 30
0.0
 10
641.2386130828219
 20
176.8830894636932
 30
0.0
 10
641.0674174306478
 20
177.1004808095052
 30
0.0
 10
640.7250261884963
 20
177.2173286563242
 30
0.0
  0
SPLINE
  5
3B9C
330
1F
100
AcDbEntity
  8
AM_VIS
100
AcDbSpline
210
0.0
220
0.0
230
1.0
 70
     8
 71
     3
 72
     8
 73
     4
 74
     0
 42
0.0000000001
 43
0.0000000001
 40
0.0
 40
0.0
 40
0.0
 40
0.0
 40
80.0
 40
80.0
 40
80.0
 40
80.0
 10
640.7250261884963
 20
177.2173286563242
 30
0.0
 10
640.5973087557278
 20
177.2608068757296
 30
0.0
 10
640.3500261884963
 20
177.2825460476285
 30
0.0
 10
639.9831783624094
 20
177.2825460476285
 30
0.0
  0
LINE
  5
3B9D
330
1F
100
AcDbEntity
  8
AM_VIS
100
AcDbLine
 10
639.9831783624094
 20
177.2825460476285
 30
0.0
 11
639.9831783624094
 21
176.1086330041503
 31
0.0
  0
SPLINE
  5
3B9E
330
1F
100
AcDbEntity
  8
AM_VIS
100
AcDbSpline
210
0.0
220
0.0
230
1.0
 70
     8
 71
     3
 72
     8
 73
     4
 74
     0
 42
0.0000000001
 43
0.0000000001
 40
0.0
 40
0.0
 40
0.0
 40
0.0
 40
80.0
 40
80.0
 40
80.0
 40
80.0
 10
639.9831783624094
 20
176.1086330041503
 30
0.0
 10
639.9831783002131
 20
176.013524267034
 30
0.0
 10
640.0266565818148
 20
175.9496656128459
 30
0.0
 10
640.1136131450181
 20
175.9170569171937
 30
0.0
  0
SPLINE
  5
3B9F
330
1F
100
AcDbEntity
  8
AM_VIS
100
AcDbSpline
210
0.0
220
0.0
230
1.0
 70
     8
 71
     3
 72
     8
 73
     4
 74
     0
 42
0.0000000001
 43
0.0000000001
 40
0.0
 40
0.0
 40
0.0
 40
0.0
 40
80.0
 40
80.0
 40
80.0
 40
80.0
 10
640.1136131450181
 20
175.9170569171937
 30
0.0
 10
640.1652435383365
 20
175.9007526315638
 30
0.0
 10
640.2508413644235
 20
175.8926004576508
 30
0.0
 10
640.3704066232789
 20
175.8926003954546
 30
0.0
  0
SPLINE
  5
3BA0
330
1F
100
AcDbEntity
  8
AM_VIS
100
AcDbSpline
210
0.0
220
0.0
230
1.0
 70
     8
 71
     3
 72
     8
 73
     4
 74
     0
 42
0.0000000001
 43
0.0000000001
 40
0.0
 40
0.0
 40
0.0
 40
0.0
 40
80.0
 40
80.0
 40
80.0
 40
80.0
 10
640.3704066232789
 20
175.8926003954546
 30
0.0
 10
640.9492109089089
 20
175.8926004576508
 30
0.0
 10
641.2386130828219
 20
176.1167851780633
 30
0.0
 10
641.2386131450181
 20
176.5651547432807
 30
0.0
  0
SPLINE
  5
3BA1
330
1F
100
AcDbEntity
  8
AM_VIS
100
AcDbSpline
210
0.0
220
0.0
230
1.0
 70
     8
 71
     3
 72
     8
 73
     4
 74
     0
 42
0.0000000001
 43
0.0000000001
 40
0.0
 40
0.0
 40
0.0
 40
0.0
 40
80.0
 40
80.0
 40
80.0
 40
80.0
 10
641.1570914058876
 20
177.9754808302372
 30
0.0
 10
641.1570914058876
 20
178.4075460476285
 30
0.0
 10
640.863613145018
 20
178.6235786563242
 30
0.0
 10
640.2766566232789
 20
178.6235786563242
 30
0.0
  0
SPLINE
  5
3BA2
330
1F
100
AcDbEntity
  8
AM_VIS
100
AcDbSpline
210
0.0
220
0.0
230
1.0
 70
     8
 71
     3
 72
     8
 73
     4
 74
     0
 42
0.0000000001
 43
0.0000000001
 40
0.0
 40
0.0
 40
0.0
 40
0.0
 40
80.0
 40
80.0
 40
80.0
 40
80.0
 10
640.2766566232789
 20
178.6235786563242
 30
0.0
 10
640.1625261263001
 20
178.6235786563242
 30
0.0
 10
640.1000261470322
 20
178.6222199192079
 30
0.0
 10
640.0891566232789
 20
178.6195025693677
 30
0.0
  0
SPLINE
  5
3BA3
330
1F
100
AcDbEntity
  8
AM_VIS
100
AcDbSpline
210
0.0
220
0.0
230
1.0
 70
     8
 71
     3
 72
     8
 73
     4
 74
     0
 42
0.0000000001
 43
0.0000000001
 40
0.0
 40
0.0
 40
0.0
 40
0.0
 40
80.0
 40
80.0
 40
80.0
 40
80.0
 10
640.0891566232789
 20
178.6195025693677
 30
0.0
 10
640.0402435798006
 20
178.6140677452948
 30
0.0
 10
640.0103522339888
 20
178.6045568964617
 30
0.0
 10
639.9994827102354
 20
178.590969960672
 30
0.0
  0
SPLINE
  5
3BA4
330
1F
100
AcDbEntity
  8
AM_VIS
100
AcDbSpline
210
0.0
220
0.0
230
1.0
 70
     8
 71
     3
 72
     8
 73
     4
 74
     0
 42
0.0000000001
 43
0.0000000001
 40
0.0
 40
0.0
 40
0.0
 40
0.0
 40
80.0
 40
80.0
 40
80.0
 40
80.0
 10
639.9994827102354
 20
178.590969960672
 30
0.0
 10
639.9886131242859
 20
178.5773829626862
 30
0.0
 10
639.9831783002131
 20
178.5488503539905
 30
0.0
 10
639.9831783624094
 20
178.505372134585
 30
0.0
  0
LINE
  5
3BA5
330
1F
100
AcDbEntity
  8
AM_VIS
100
AcDbLine
 10
639.9831783624094
 20
178.505372134585
 30
0.0
 11
639.9831783624094
 21
177.4496656128459
 31
0.0
  0
LINE
  5
3BA6
330
1F
100
AcDbEntity
  8
AM_VIS
100
AcDbLine
 10
639.9831783624094
 20
177.4496656128459
 30
0.0
 11
640.4437761884963
 21
177.4537416998024
 31
0.0
  0
SPLINE
  5
3BA7
330
1F
100
AcDbEntity
  8
AM_VIS
100
AcDbSpline
210
0.0
220
0.0
230
1.0
 70
     8
 71
     3
 72
     8
 73
     4
 74
     0
 42
0.0000000001
 43
0.0000000001
 40
0.0
 40
0.0
 40
0.0
 40
0.0
 40
80.0
 40
80.0
 40
80.0
 40
80.0
 10
640.4437761884963
 20
177.4537416998024
 30
0.0
 10
640.62855877646
 20
177.4564590496427
 30
0.0
 10
640.7630696460252
 20
177.4714047225486
 30
0.0
 10
640.8473087971919
 20
177.4985786563242
 30
0.0
  0
SPLINE
  5
3BA8
330
1F
100
AcDbEntity
  8
AM_VIS
100
AcDbSpline
210
0.0
220
0.0
230
1.0
 70
     8
 71
     3
 72
     8
 73
     4
 74
     0
 42
0.0000000001
 43
0.0000000001
 40
0.0
 40
0.0
 40
0.0
 40
0.0
 40
80.0
 40
80.0
 40
80.0
 40
80.0
 10
640.8473087971919
 20
177.4985786563242
 30
0.0
 10
641.0538304948582
 20
177.5746655713818
 30
0.0
 10
641.1570914058876
 20
177.7336329626862
 30
0.0
 10
641.1570914058876
 20
177.9754808302372
 30
0.0
  0
SPLINE
  5
3BA9
330
1F
100
AcDbEntity
  8
AM_VIS
100
AcDbSpline
210
0.0
220
0.0
230
1.0
 70
     8
 71
     3
 72
     8
 73
     4
 74
     0
 42
0.0000000001
 43
0.0000000001
 40
0.0
 40
0.0
 40
0.0
 40
0.0
 40
80.0
 40
80.0
 40
80.0
 40
80.0
 10
641.5524718406701
 20
176.5488503954546
 30
0.0
 10
641.5524718406701
 20
176.3749373312443
 30
0.0
 10
641.5035587971918
 20
176.2214047018166
 30
0.0
 10
641.4057327102353
 20
176.0882525693677
 30
0.0
  0
SPLINE
  5
3BAA
330
1F
100
AcDbEntity
  8
AM_VIS
100
AcDbSpline
210
0.0
220
0.0
230
1.0
 70
     8
 71
     3
 72
     8
 73
     4
 74
     0
 42
0.0000000001
 43
0.0000000001
 40
0.0
 40
0.0
 40
0.0
 40
0.0
 40
80.0
 40
80.0
 40
80.0
 40
80.0
 10
641.4057327102353
 20
176.0882525693677
 30
0.0
 10
641.2454065818147
 20
175.8681438737155
 30
0.0
 10
640.9804609296408
 20
175.7580895258894
 30
0.0
 10
640.6108957537136
 20
175.7580895258894
 30
0.0
  0
LINE
  5
3BAB
330
1F
100
AcDbEntity
  8
AM_VIS
100
AcDbLine
 10
640.6108957537136
 20
175.7580895258894
 30
0.0
 11
639.2943196667571
 21
175.7580895258894
 31
0.0
  0
LINE
  5
3BAC
330
1F
100
AcDbEntity
  8
AM_VIS
100
AcDbLine
 10
639.2943196667571
 20
175.7580895258894
 30
0.0
 11
639.2943196667571
 21
175.8396112650198
 31
0.0
  0
SPLINE
  5
3BAD
330
1F
100
AcDbEntity
  8
AM_VIS
100
AcDbSpline
210
0.0
220
0.0
230
1.0
 70
     8
 71
     3
 72
     8
 73
     4
 74
     0
 42
0.0000000001
 43
0.0000000001
 40
0.0
 40
0.0
 40
0.0
 40
0.0
 40
80.0
 40
80.0
 40
80.0
 40
80.0
 10
639.2943196667571
 20
175.8396112650198
 30
0.0
 10
639.4627979068947
 20
175.8504808509693
 30
0.0
 10
639.5782870165973
 20
175.887165633578
 30
0.0
 10
639.6407870580613
 20
175.9496656128459
 30
0.0
  0
SPLINE
  5
3BAE
330
1F
100
AcDbEntity
  8
AM_VIS
100
AcDbSpline
210
0.0
220
0.0
230
1.0
 70
     8
 71
     3
 72
     8
 73
     4
 74
     0
 42
0.0000000001
 43
0.0000000001
 40
0.0
 40
0.0
 40
0.0
 40
0.0
 40
80.0
 40
80.0
 40
80.0
 40
80.0
 10
639.6407870580613
 20
175.9496656128459
 30
0.0
 10
639.700569625293
 20
176.0121655921139
 30
0.0
 10
639.7304609711048
 20
176.1276547018166
 30
0.0
 10
639.7304609711048
 20
176.2961330041503
 30
0.0
  0
LINE
  5
3BAF
330
1F
100
AcDbEntity
  8
AM_VIS
100
AcDbLine
 10
639.7304609711048
 20
176.2961330041503
 30
0.0
 11
639.7304609711048
 21
178.2852634389329
 31
0.0
  0
SPLINE
  5
3BB0
330
1F
100
AcDbEntity
  8
AM_VIS
100
AcDbSpline
210
0.0
220
0.0
230
1.0
 70
     8
 71
     3
 72
     8
 73
     4
 74
     0
 42
0.0000000001
 43
0.0000000001
 40
0.0
 40
0.0
 40
0.0
 40
0.0
 40
80.0
 40
80.0
 40
80.0
 40
80.0
 10
639.7304609711048
 20
178.2852634389329
 30
0.0
 10
639.7304609711048
 20
178.4483069171938
 30
0.0
 10
639.6992109503729
 20
178.5542851780633
 30
0.0
 10
639.6367109711048
 20
178.6031982215416
 30
0.0
  0
SPLINE
  5
3BB1
330
1F
100
AcDbEntity
  8
AM_VIS
100
AcDbSpline
210
0.0
220
0.0
230
1.0
 70
     8
 71
     3
 72
     8
 73
     4
 74
     0
 42
0.0000000001
 43
0.0000000001
 40
0.0
 40
0.0
 40
0.0
 40
0.0
 40
80.0
 40
80.0
 40
80.0
 40
80.0
 10
639.6367109711048
 20
178.6031982215416
 30
0.0
 10
639.5850805155902
 20
178.6412416790704
 30
0.0
 10
639.4709500808077
 20
178.6656982008095
 30
0.0
 10
639.2943196667571
 20
178.676567786759
 30
0.0
  0
LINE
  5
3BB2
330
1F
100
AcDbEntity
  8
AM_VIS
100
AcDbLine
 10
639.2943196667571
 20
178.676567786759
 30
0.0
 11
639.2943196667571
 21
178.7580895258894
 31
0.0
  0
LINE
  5
3BB3
330
1F
100
AcDbEntity
  8
AM_VIS
100
AcDbLine
 10
639.2943196667571
 20
178.7580895258894
 30
0.0
 11
640.3907870580616
 21
178.7580895258894
 31
0.0
  0
SPLINE
  5
3BB4
330
1F
100
AcDbEntity
  8
AM_VIS
100
AcDbSpline
210
0.0
220
0.0
230
1.0
 70
     8
 71
     3
 72
     8
 73
     4
 74
     0
 42
0.0000000001
 43
0.0000000001
 40
0.0
 40
0.0
 40
0.0
 40
0.0
 40
80.0
 40
80.0
 40
80.0
 40
80.0
 10
640.3907870580614
 20
178.7580895258894
 30
0.0
 10
641.0782870165973
 20
178.7580895258894
 30
0.0
 10
641.4220370580614
 20
178.5080894844253
 30
0.0
 10
641.4220370580614
 20
178.0080895258894
 30
0.0
  0
SPLINE
  5
3BB5
330
1F
100
AcDbEntity
  8
AM_VIS
100
AcDbSpline
210
0.0
220
0.0
230
1.0
 70
     8
 71
     3
 72
     8
 73
     4
 74
     0
 42
0.0000000001
 43
0.0000000001
 40
0.0
 40
0.0
 40
0.0
 40
0.0
 40
80.0
 40
80.0
 40
80.0
 40
80.0
 10
641.4220370580614
 20
178.0080895258894
 30
0.0
 10
641.4220370580614
 20
177.6711329834182
 30
0.0
 10
641.2250261470322
 20
177.4483068757296
 30
0.0
 10
640.8310044493658
 20
177.3396112650198
 30
0.0
  0
LINE
  5
3BB6
330
1F
100
AcDbEntity
  8
AM_VIS
100
AcDbLine
 10
640.8310044493658
 20
177.3396112650198
 30
0.0
 11
640.9002979276266
 21
177.3233069171937
 31
0.0
  0
SPLINE
  5
3BB7
330
1F
100
AcDbEntity
  8
AM_VIS
100
AcDbSpline
210
0.0
220
0.0
230
1.0
 70
     8
 71
     3
 72
     8
 73
     4
 74
     0
 42
0.0000000001
 43
0.0000000001
 40
0.0
 40
0.0
 40
0.0
 40
0.0
 40
80.0
 40
80.0
 40
80.0
 40
80.0
 10
640.9002979276266
 20
177.3233069171937
 30
0.0
 10
641.3350804948582
 20
177.2200460061644
 30
0.0
 10
641.5524718406701
 20
176.9618938529834
 30
0.0
 10
641.5524718406701
 20
176.5488503954546
 30
0.0
  0
LINE
  5
3BB8
330
1F
100
AcDbEntity
  8
AM_VIS
100
AcDbLine
 10
592.8992809194307
 20
196.3715741720843
 30
0.0
 11
592.3946080222343
 21
197.8415341186798
 31
0.0
  0
LINE
  5
3BB9
330
1F
100
AcDbEntity
  8
AM_VIS
100
AcDbLine
 10
592.3946080222343
 20
197.8415341186798
 30
0.0
 11
591.8659030823144
 21
196.3715741720843
 31
0.0
  0
LINE
  5
3BBA
330
1F
100
AcDbEntity
  8
AM_VIS
100
AcDbLine
 10
591.8659030823144
 20
196.3715741720843
 30
0.0
 11
592.8992809194307
 21
196.3715741720843
 31
0.0
  0
LINE
  5
3BBB
330
1F
100
AcDbEntity
  8
AM_VIS
100
AcDbLine
 10
593.7924718406589
 20
195.2580895258894
 30
0.0
 11
592.8432061530755
 21
195.2580895258894
 31
0.0
  0
LINE
  5
3BBC
330
1F
100
AcDbEntity
  8
AM_VIS
100
AcDbLine
 10
592.8432061530755
 20
195.2580895258894
 30
0.0
 11
592.8432061530755
 21
195.3381963349682
 31
0.0
  0
SPLINE
  5
3BBD
330
1F
100
AcDbEntity
  8
AM_VIS
100
AcDbSpline
210
0.0
220
0.0
230
1.0
 70
     8
 71
     3
 72
     8
 73
     4
 74
     0
 42
0.0000000001
 43
0.0000000001
 40
0.0
 40
0.0
 40
0.0
 40
0.0
 40
80.0
 40
80.0
 40
80.0
 40
80.0
 10
592.8432061530755
 20
195.3381963349682
 30
0.0
 10
592.947345004878
 20
195.3435368296512
 30
0.0
 10
593.0207762261613
 20
195.3542176967839
 30
0.0
 10
593.063499878042
 20
195.3702390585997
 30
0.0
  0
SPLINE
  5
3BBE
330
1F
100
AcDbEntity
  8
AM_VIS
100
AcDbSpline
210
0.0
220
0.0
230
1.0
 70
     8
 71
     3
 72
     8
 73
     4
 74
     0
 42
0.0000000001
 43
0.0000000001
 40
0.0
 40
0.0
 40
0.0
 40
0.0
 40
80.0
 40
80.0
 40
80.0
 40
80.0
 10
593.063499878042
 20
195.3702390585997
 30
0.0
 10
593.13025551153
 20
195.3996115960063
 30
0.0
 10
593.1636333893906
 20
195.4556863623615
 30
0.0
 10
593.1636333893906
 20
195.5384633576651
 30
0.0
  0
SPLINE
  5
3BBF
330
1F
100
AcDbEntity
  8
AM_VIS
100
AcDbSpline
210
0.0
220
0.0
230
1.0
 70
     8
 71
     3
 72
     8
 73
     4
 74
     0
 42
0.0000000001
 43
0.0000000001
 40
0.0
 40
0.0
 40
0.0
 40
0.0
 40
80.0
 40
80.0
 40
80.0
 40
80.0
 10
593.1636333893906
 20
195.5384633576651
 30
0.0
 10
593.1636333893906
 20
195.605218991153
 30
0.0
 10
593.1409364397794
 20
195.7013471620475
 30
0.0
 10
593.0955426016736
 20
195.8268478703487
 30
0.0
  0
LINE
  5
3BC0
330
1F
100
AcDbEntity
  8
AM_VIS
100
AcDbLine
 10
593.0955426016736
 20
195.8268478703487
 30
0.0
 11
592.9513503453319
 21
196.2233765752886
 31
0.0
  0
LINE
  5
3BC1
330
1F
100
AcDbEntity
  8
AM_VIS
100
AcDbLine
 10
592.9513503453319
 20
196.2233765752886
 30
0.0
 11
591.829855018229
 21
196.2233765752886
 31
0.0
  0
LINE
  5
3BC2
330
1F
100
AcDbEntity
  8
AM_VIS
100
AcDbLine
 10
591.829855018229
 20
196.2233765752886
 30
0.0
 11
591.6295879955322
 21
195.7146983376384
 31
0.0
  0
SPLINE
  5
3BC3
330
1F
100
AcDbEntity
  8
AM_VIS
100
AcDbSpline
210
0.0
220
0.0
230
1.0
 70
     8
 71
     3
 72
     8
 73
     4
 74
     0
 42
0.0000000001
 43
0.0000000001
 40
0.0
 40
0.0
 40
0.0
 40
0.0
 40
80.0
 40
80.0
 40
80.0
 40
80.0
 10
591.6295879955322
 20
195.7146983376384
 30
0.0
 10
591.6082261390335
 20
195.6612937575081
 30
0.0
 10
591.5975452719006
 20
195.6025488049281
 30
0.0
 10
591.5975452719006
 20
195.5384633576651
 30
0.0
  0
SPLINE
  5
3BC4
330
1F
100
AcDbEntity
  8
AM_VIS
100
AcDbSpline
210
0.0
220
0.0
230
1.0
 70
     8
 71
     3
 72
     8
 73
     4
 74
     0
 42
0.0000000001
 43
0.0000000001
 40
0.0
 40
0.0
 40
0.0
 40
0.0
 40
80.0
 40
80.0
 40
80.0
 40
80.0
 10
591.5975452719006
 20
195.5384633576651
 30
0.0
 10
591.5975452719006
 20
195.4530161150199
 30
0.0
 10
591.6295879955322
 20
195.3969413486648
 30
0.0
 10
591.6936734427951
 20
195.3702390585997
 30
0.0
  0
SPLINE
  5
3BC5
330
1F
100
AcDbEntity
  8
AM_VIS
100
AcDbSpline
210
0.0
220
0.0
230
1.0
 70
     8
 71
     3
 72
     8
 73
     4
 74
     0
 42
0.0000000001
 43
0.0000000001
 40
0.0
 40
0.0
 40
0.0
 40
0.0
 40
80.0
 40
80.0
 40
80.0
 40
80.0
 10
591.6936734427951
 20
195.3702390585997
 30
0.0
 10
591.7230459190851
 20
195.3542176967839
 30
0.0
 10
591.7791206854402
 20
195.3435368296512
 30
0.0
 10
591.8618977418605
 20
195.3381963349682
 30
0.0
  0
LINE
  5
3BC6
330
1F
100
AcDbEntity
  8
AM_VIS
100
AcDbLine
 10
591.8618977418605
 20
195.3381963349682
 30
0.0
 11
591.8618977418605
 21
195.2580895258894
 31
0.0
  0
LINE
  5
3BC7
330
1F
100
AcDbEntity
  8
AM_VIS
100
AcDbLine
 10
591.8618977418605
 20
195.2580895258894
 30
0.0
 11
591.1289204387897
 21
195.2580895258894
 31
0.0
  0
LINE
  5
3BC8
330
1F
100
AcDbEntity
  8
AM_VIS
100
AcDbLine
 10
591.1289204387897
 20
195.2580895258894
 30
0.0
 11
591.1289204387897
 21
195.3381963349682
 31
0.0
  0
LINE
  5
3BC9
330
1F
100
AcDbEntity
  8
AM_VIS
100
AcDbLine
 10
591.1290453594882
 20
195.3375471175885
 30
0.0
 11
591.2331820920868
 21
195.3575848334371
 31
0.0
  0
SPLINE
  5
3BCA
330
1F
100
AcDbEntity
  8
AM_VIS
100
AcDbSpline
210
0.0
220
0.0
230
1.0
 70
     8
 71
     3
 72
     8
 73
     4
 74
     0
 42
0.0000000001
 43
0.0000000001
 40
0.0
 40
0.0
 40
0.0
 40
0.0
 40
80.0
 40
80.0
 40
80.0
 40
80.0
 10
591.2330592905922
 20
195.3582230372379
 30
0.0
 10
591.2651019531071
 20
195.3662337181457
 30
0.0
 10
591.2958095836262
 20
195.3889306677569
 30
0.0
 10
591.3251821210327
 20
195.4263138249548
 30
0.0
  0
SPLINE
  5
3BCB
330
1F
100
AcDbEntity
  8
AM_VIS
100
AcDbSpline
210
0.0
220
0.0
230
1.0
 70
     8
 71
     3
 72
     8
 73
     4
 74
     0
 42
0.0000000001
 43
0.0000000001
 40
0.0
 40
0.0
 40
0.0
 40
0.0
 40
80.0
 40
80.0
 40
80.0
 40
80.0
 10
591.3251821210327
 20
195.4263138249548
 30
0.0
 10
591.3999484354286
 20
195.5224419347327
 30
0.0
 10
591.4974117605521
 20
195.733389885679
 30
0.0
 10
591.6175719741703
 20
196.0591576166771
 30
0.0
  0
LINE
  5
3BCC
330
1F
100
AcDbEntity
  8
AM_VIS
100
AcDbLine
 10
591.6175719741703
 20
196.0591576166771
 30
0.0
 11
592.4266507458659
 21
198.2580895258894
 31
0.0
  0
LINE
  5
3BCD
330
1F
100
AcDbEntity
  8
AM_VIS
100
AcDbLine
 10
592.4266507458659
 20
198.2580895258894
 30
0.0
 11
592.4426721076817
 21
198.2580895258894
 31
0.0
  0
LINE
  5
3BCE
330
1F
100
AcDbEntity
  8
AM_VIS
100
AcDbLine
 10
592.4426721076817
 20
198.2580895258894
 30
0.0
 11
593.391937795265
 21
195.7307196994542
 31
0.0
  0
SPLINE
  5
3BCF
330
1F
100
AcDbEntity
  8
AM_VIS
100
AcDbSpline
210
0.0
220
0.0
230
1.0
 70
     8
 71
     3
 72
     8
 73
     4
 74
     0
 42
0.0000000001
 43
0.0000000001
 40
0.0
 40
0.0
 40
0.0
 40
0.0
 40
80.0
 40
80.0
 40
80.0
 40
80.0
 10
593.391937795265
 20
195.7307196994542
 30
0.0
 10
593.4506827478452
 20
195.5705060812966
 30
0.0
 10
593.5147681951081
 20
195.4623618890403
 30
0.0
 10
593.5841941370541
 20
195.4062871226851
 30
0.0
  0
SPLINE
  5
3BD0
330
1F
100
AcDbEntity
  8
AM_VIS
100
AcDbSpline
210
0.0
220
0.0
230
1.0
 70
     8
 71
     3
 72
     8
 73
     4
 74
     0
 42
0.0000000001
 43
0.0000000001
 40
0.0
 40
0.0
 40
0.0
 40
0.0
 40
80.0
 40
80.0
 40
80.0
 40
80.0
 10
593.5841941370541
 20
195.4062871226851
 30
0.0
 10
593.6242475415935
 20
195.3742443990536
 30
0.0
 10
593.6936734224229
 20
195.3515475105591
 30
0.0
 10
593.7924718406589
 20
195.3381963349682
 30
0.0
  0
LINE
  5
3BD1
330
1F
100
AcDbEntity
  8
AM_VIS
100
AcDbLine
 10
593.7924718406589
 20
195.3381963349682
 30
0.0
 11
593.7924718406589
 21
195.2580895258894
 31
0.0
  0
LINE
  5
3BD2
330
1F
100
AcDbEntity
  8
AM_VIS
100
AcDbLine
 10
634.0592809194308
 20
196.3715741720843
 30
0.0
 11
633.5546080222344
 21
197.8415341186798
 31
0.0
  0
LINE
  5
3BD3
330
1F
100
AcDbEntity
  8
AM_VIS
100
AcDbLine
 10
633.5546080222344
 20
197.8415341186798
 30
0.0
 11
633.0259030823145
 21
196.3715741720843
 31
0.0
  0
LINE
  5
3BD4
330
1F
100
AcDbEntity
  8
AM_VIS
100
AcDbLine
 10
633.0259030823145
 20
196.3715741720843
 30
0.0
 11
634.0592809194308
 21
196.3715741720843
 31
0.0
  0
LINE
  5
3BD5
330
1F
100
AcDbEntity
  8
AM_VIS
100
AcDbLine
 10
634.9524718406589
 20
195.2580895258894
 30
0.0
 11
634.0032061530754
 21
195.2580895258894
 31
0.0
  0
LINE
  5
3BD6
330
1F
100
AcDbEntity
  8
AM_VIS
100
AcDbLine
 10
634.0032061530754
 20
195.2580895258894
 30
0.0
 11
634.0032061530754
 21
195.3381963349682
 31
0.0
  0
SPLINE
  5
3BD7
330
1F
100
AcDbEntity
  8
AM_VIS
100
AcDbSpline
210
0.0
220
0.0
230
1.0
 70
     8
 71
     3
 72
     8
 73
     4
 74
     0
 42
0.0000000001
 43
0.0000000001
 40
0.0
 40
0.0
 40
0.0
 40
0.0
 40
80.0
 40
80.0
 40
80.0
 40
80.0
 10
634.0032061530754
 20
195.3381963349682
 30
0.0
 10
634.1073450048778
 20
195.3435368296512
 30
0.0
 10
634.1807762261614
 20
195.3542176967839
 30
0.0
 10
634.2234998780421
 20
195.3702390585997
 30
0.0
  0
SPLINE
  5
3BD8
330
1F
100
AcDbEntity
  8
AM_VIS
100
AcDbSpline
210
0.0
220
0.0
230
1.0
 70
     8
 71
     3
 72
     8
 73
     4
 74
     0
 42
0.0000000001
 43
0.0000000001
 40
0.0
 40
0.0
 40
0.0
 40
0.0
 40
80.0
 40
80.0
 40
80.0
 40
80.0
 10
634.2234998780421
 20
195.3702390585997
 30
0.0
 10
634.29025551153
 20
195.3996115960063
 30
0.0
 10
634.3236333893907
 20
195.4556863623615
 30
0.0
 10
634.3236333893907
 20
195.5384633576651
 30
0.0
  0
SPLINE
  5
3BD9
330
1F
100
AcDbEntity
  8
AM_VIS
100
AcDbSpline
210
0.0
220
0.0
230
1.0
 70
     8
 71
     3
 72
     8
 73
     4
 74
     0
 42
0.0000000001
 43
0.0000000001
 40
0.0
 40
0.0
 40
0.0
 40
0.0
 40
80.0
 40
80.0
 40
80.0
 40
80.0
 10
634.3236333893907
 20
195.5384633576651
 30
0.0
 10
634.3236333893907
 20
195.605218991153
 30
0.0
 10
634.3009364397793
 20
195.7013471620475
 30
0.0
 10
634.2555426016737
 20
195.8268478703487
 30
0.0
  0
LINE
  5
3BDA
330
1F
100
AcDbEntity
  8
AM_VIS
100
AcDbLine
 10
634.2555426016737
 20
195.8268478703487
 30
0.0
 11
634.1113503453319
 21
196.2233765752886
 31
0.0
  0
LINE
  5
3BDB
330
1F
100
AcDbEntity
  8
AM_VIS
100
AcDbLine
 10
634.1113503453319
 20
196.2233765752886
 30
0.0
 11
632.9898550182291
 21
196.2233765752886
 31
0.0
  0
LINE
  5
3BDC
330
1F
100
AcDbEntity
  8
AM_VIS
100
AcDbLine
 10
632.9898550182291
 20
196.2233765752886
 30
0.0
 11
632.789587995532
 21
195.7146983376384
 31
0.0
  0
SPLINE
  5
3BDD
330
1F
100
AcDbEntity
  8
AM_VIS
100
AcDbSpline
210
0.0
220
0.0
230
1.0
 70
     8
 71
     3
 72
     8
 73
     4
 74
     0
 42
0.0000000001
 43
0.0000000001
 40
0.0
 40
0.0
 40
0.0
 40
0.0
 40
80.0
 40
80.0
 40
80.0
 40
80.0
 10
632.789587995532
 20
195.7146983376384
 30
0.0
 10
632.7682261390333
 20
195.6612937575081
 30
0.0
 10
632.7575452719005
 20
195.6025488049281
 30
0.0
 10
632.7575452719005
 20
195.5384633576651
 30
0.0
  0
SPLINE
  5
3BDE
330
1F
100
AcDbEntity
  8
AM_VIS
100
AcDbSpline
210
0.0
220
0.0
230
1.0
 70
     8
 71
     3
 72
     8
 73
     4
 74
     0
 42
0.0000000001
 43
0.0000000001
 40
0.0
 40
0.0
 40
0.0
 40
0.0
 40
80.0
 40
80.0
 40
80.0
 40
80.0
 10
632.7575452719005
 20
195.5384633576651
 30
0.0
 10
632.7575452719005
 20
195.4530161150199
 30
0.0
 10
632.789587995532
 20
195.3969413486648
 30
0.0
 10
632.8536734427951
 20
195.3702390585997
 30
0.0
  0
SPLINE
  5
3BDF
330
1F
100
AcDbEntity
  8
AM_VIS
100
AcDbSpline
210
0.0
220
0.0
230
1.0
 70
     8
 71
     3
 72
     8
 73
     4
 74
     0
 42
0.0000000001
 43
0.0000000001
 40
0.0
 40
0.0
 40
0.0
 40
0.0
 40
80.0
 40
80.0
 40
80.0
 40
80.0
 10
632.8536734427951
 20
195.3702390585997
 30
0.0
 10
632.8830459190852
 20
195.3542176967839
 30
0.0
 10
632.9391206854403
 20
195.3435368296512
 30
0.0
 10
633.0218977418605
 20
195.3381963349682
 30
0.0
  0
LINE
  5
3BE0
330
1F
100
AcDbEntity
  8
AM_VIS
100
AcDbLine
 10
633.0218977418605
 20
195.3381963349682
 30
0.0
 11
633.0218977418605
 21
195.2580895258894
 31
0.0
  0
LINE
  5
3BE1
330
1F
100
AcDbEntity
  8
AM_VIS
100
AcDbLine
 10
633.0218977418605
 20
195.2580895258894
 30
0.0
 11
632.2889204387898
 21
195.2580895258894
 31
0.0
  0
LINE
  5
3BE2
330
1F
100
AcDbEntity
  8
AM_VIS
100
AcDbLine
 10
632.2889204387898
 20
195.2580895258894
 30
0.0
 11
632.2889204387898
 21
195.3381963349682
 31
0.0
  0
LINE
  5
3BE3
330
1F
100
AcDbEntity
  8
AM_VIS
100
AcDbLine
 10
632.2890453594883
 20
195.3375471175885
 30
0.0
 11
632.3931820920869
 21
195.3575848334371
 31
0.0
  0
SPLINE
  5
3BE4
330
1F
100
AcDbEntity
  8
AM_VIS
100
AcDbSpline
210
0.0
220
0.0
230
1.0
 70
     8
 71
     3
 72
     8
 73
     4
 74
     0
 42
0.0000000001
 43
0.0000000001
 40
0.0
 40
0.0
 40
0.0
 40
0.0
 40
80.0
 40
80.0
 40
80.0
 40
80.0
 10
632.3930592905923
 20
195.3582230372379
 30
0.0
 10
632.4251019531072
 20
195.3662337181457
 30
0.0
 10
632.4558095836261
 20
195.3889306677569
 30
0.0
 10
632.4851821210328
 20
195.4263138249548
 30
0.0
  0
SPLINE
  5
3BE5
330
1F
100
AcDbEntity
  8
AM_VIS
100
AcDbSpline
210
0.0
220
0.0
230
1.0
 70
     8
 71
     3
 72
     8
 73
     4
 74
     0
 42
0.0000000001
 43
0.0000000001
 40
0.0
 40
0.0
 40
0.0
 40
0.0
 40
80.0
 40
80.0
 40
80.0
 40
80.0
 10
632.4851821210328
 20
195.4263138249548
 30
0.0
 10
632.5599484354285
 20
195.5224419347327
 30
0.0
 10
632.6574117605522
 20
195.733389885679
 30
0.0
 10
632.7775719741704
 20
196.0591576166771
 30
0.0
  0
LINE
  5
3BE6
330
1F
100
AcDbEntity
  8
AM_VIS
100
AcDbLine
 10
632.7775719741704
 20
196.0591576166771
 30
0.0
 11
633.586650745866
 21
198.2580895258894
 31
0.0
  0
LINE
  5
3BE7
330
1F
100
AcDbEntity
  8
AM_VIS
100
AcDbLine
 10
633.586650745866
 20
198.2580895258894
 30
0.0
 11
633.6026721076818
 21
198.2580895258894
 31
0.0
  0
LINE
  5
3BE8
330
1F
100
AcDbEntity
  8
AM_VIS
100
AcDbLine
 10
633.6026721076818
 20
198.2580895258894
 30
0.0
 11
634.5519377952651
 21
195.7307196994541
 31
0.0
  0
SPLINE
  5
3BE9
330
1F
100
AcDbEntity
  8
AM_VIS
100
AcDbSpline
210
0.0
220
0.0
230
1.0
 70
     8
 71
     3
 72
     8
 73
     4
 74
     0
 42
0.0000000001
 43
0.0000000001
 40
0.0
 40
0.0
 40
0.0
 40
0.0
 40
80.0
 40
80.0
 40
80.0
 40
80.0
 10
634.5519377952651
 20
195.7307196994541
 30
0.0
 10
634.610682747845
 20
195.5705060812966
 30
0.0
 10
634.6747681951081
 20
195.4623618890402
 30
0.0
 10
634.7441941370542
 20
195.4062871226851
 30
0.0
  0
SPLINE
  5
3BEA
330
1F
100
AcDbEntity
  8
AM_VIS
100
AcDbSpline
210
0.0
220
0.0
230
1.0
 70
     8
 71
     3
 72
     8
 73
     4
 74
     0
 42
0.0000000001
 43
0.0000000001
 40
0.0
 40
0.0
 40
0.0
 40
0.0
 40
80.0
 40
80.0
 40
80.0
 40
80.0
 10
634.7441941370542
 20
195.4062871226851
 30
0.0
 10
634.7842475415935
 20
195.3742443990536
 30
0.0
 10
634.853673422423
 20
195.351547510559
 30
0.0
 10
634.952471840659
 20
195.3381963349682
 30
0.0
  0
LINE
  5
3BEB
330
1F
100
AcDbEntity
  8
AM_VIS
100
AcDbLine
 10
634.952471840659
 20
195.3381963349682
 30
0.0
 11
634.952471840659
 21
195.2580895258894
 31
0.0
  0
LINE
  5
3BEC
330
1F
100
AcDbEntity
  8
AM_VIS
100
AcDbLine
 10
585.7924718406706
 20
208.8580895258894
 30
0.0
 11
585.7924718406706
 21
206.8580895258894
 31
0.0
  0
LINE
  5
3BED
330
1F
100
AcDbEntity
  8
AM_VIS
100
AcDbLine
 10
585.7924718406706
 20
206.8580895258894
 30
0.0
 11
585.7924718406706
 21
167.8580895258894
 31
0.0
  0
LINE
  5
3BEE
330
1F
100
AcDbEntity
  8
AM_VIS
100
AcDbLine
 10
646.7924718406706
 20
167.8580895258894
 30
0.0
 11
646.7924718406706
 21
206.8580895258894
 31
0.0
  0
LINE
  5
3BEF
330
1F
100
AcDbEntity
  8
AM_VIS
100
AcDbLine
 10
646.7924718406706
 20
206.8580895258894
 30
0.0
 11
646.7924718406706
 21
208.8580895258894
 31
0.0
  0
LINE
  5
3BF0
330
1F
100
AcDbEntity
  8
AM_VIS
100
AcDbLine
 10
646.7924718406706
 20
206.2195025693677
 30
0.0
 11
646.7924718406706
 21
206.1950460476286
 31
0.0
  0
LINE
  5
3BF1
330
1F
100
AcDbEntity
  8
AM_VIS
100
AcDbLine
 10
646.7924718406706
 20
206.1950460476286
 30
0.0
 11
646.7924718406706
 21
206.0320025693677
 31
0.0
  0
LINE
  5
3BF2
330
1F
100
AcDbEntity
  8
AM_VIS
100
AcDbLine
 10
646.7924718406706
 20
204.8458612650199
 30
0.0
 11
646.7924718406706
 21
204.8295569171938
 31
0.0
  0
LINE
  5
3BF3
330
1F
100
AcDbEntity
  8
AM_VIS
100
AcDbLine
 10
646.7924718406706
 20
195.3086330041503
 30
0.0
 11
646.7924718406706
 21
195.1170569171938
 31
0.0
  0
LINE
  5
3BF4
330
1F
100
AcDbEntity
  8
AM_VIS
100
AcDbLine
 10
646.7924718406706
 20
195.1170569171938
 30
0.0
 11
646.7924718406706
 21
195.0926003954546
 31
0.0
  0
LINE
  5
3BF5
330
1F
100
AcDbEntity
  8
AM_VIS
100
AcDbLine
 10
646.7924718406706
 20
197.8235786563242
 30
0.0
 11
646.7924718406706
 21
197.8195025693677
 31
0.0
  0
LINE
  5
3BF6
330
1F
100
AcDbEntity
  8
AM_VIS
100
AcDbLine
 10
646.7924718406706
 20
197.8195025693677
 30
0.0
 11
646.7924718406706
 21
197.7909699606721
 31
0.0
  0
LINE
  5
3BF7
330
1F
100
AcDbEntity
  8
AM_VIS
100
AcDbLine
 10
646.7924718406706
 20
197.790969960672
 30
0.0
 11
646.7924718406706
 21
197.7053721345851
 31
0.0
  0
LINE
  5
3BF8
330
1F
100
AcDbEntity
  8
AM_VIS
100
AcDbLine
 10
646.7924718406706
 20
197.8195025693677
 30
0.0
 11
646.7924718406706
 21
197.7950460476286
 31
0.0
  0
LINE
  5
3BF9
330
1F
100
AcDbEntity
  8
AM_VIS
100
AcDbLine
 10
646.7924718406706
 20
197.7950460476286
 30
0.0
 11
646.7924718406706
 21
197.6320025693677
 31
0.0
  0
LINE
  5
3BFA
330
1F
100
AcDbEntity
  8
AM_VIS
100
AcDbLine
 10
646.7924718406706
 20
196.4458612650199
 30
0.0
 11
646.7924718406706
 21
196.4295569171938
 31
0.0
  0
CIRCLE
  5
3BFB
330
1F
100
AcDbEntity
  8
AM_VIS
100
AcDbCircle
 10
609.7924718406706
 20
177.2580895258894
 30
0.0
 40
5.7225
  0
CIRCLE
  5
3BFC
330
1F
100
AcDbEntity
  8
AM_VIS
100
AcDbCircle
 10
602.7924718406706
 20
196.7580895258894
 30
0.0
 40
5.7225
  0
CIRCLE
  5
3C01
330
1F
100
AcDbEntity
  8
AM_VIS
100
AcDbCircle
 10
628.7924718406705
 20
177.2580895258894
 30
0.0
 40
5.7225
  0
CIRCLE
  5
3C05
330
1F
100
AcDbEntity
  8
AM_VIS
100
AcDbCircle
 10
621.7924718406706
 20
196.7580895258894
 30
0.0
 40
5.7225
  0
ARC
  5
3C11
330
1F
100
AcDbEntity
  8
AM_VIS
100
AcDbCircle
 10
710.8306018145582
 20
168.8580895258894
 30
0.0
 40
3.0
100
AcDbArc
 50
90.0
 51
135.0
  0
ARC
  5
3C12
330
1F
100
AcDbEntity
  8
AM_VIS
100
AcDbCircle
 10
736.8306018145582
 20
173.8580895258894
 30
0.0
 40
2.999999999999999
100
AcDbArc
 50
90.0
 51
135.0
  0
ARC
  5
3C13
330
1F
100
AcDbEntity
  8
AM_VIS
100
AcDbCircle
 10
757.0879611274391
 20
173.8580895258894
 30
0.0
 40
3.0
100
AcDbArc
 50
0.0
 51
90.0
  0
CIRCLE
  5
3C1A
330
1F
100
AcDbEntity
  8
AM_VIS
100
AcDbCircle
 10
733.0879611274391
 20
186.9580895258894
 30
0.0
 40
5.7
  0
CIRCLE
  5
3C1C
330
1F
100
AcDbEntity
  8
AM_VIS
100
AcDbCircle
 10
712.0879611274391
 20
186.9580895258894
 30
0.0
 40
5.7
  0
CIRCLE
  5
3C1E
330
1F
100
AcDbEntity
  8
AM_VIS
100
AcDbCircle
 10
754.0879611274391
 20
186.9580895258894
 30
0.0
 40
5.7
  0
LINE
  5
3D0F
330
1F
100
AcDbEntity
  8
AM_VIS
100
AcDbLine
 10
705.5879611274392
 20
167.8580895258894
 30
0.0
 11
708.7092814709986
 21
170.9794098694491
 31
0.0
  0
LINE
  5
3D10
330
1F
100
AcDbEntity
  8
AM_VIS
100
AcDbLine
 10
710.8306018145582
 20
171.8580895258894
 30
0.0
 11
730.5879611274392
 21
171.8580895258894
 31
0.0
  0
LINE
  5
3D11
330
1F
100
AcDbEntity
  8
AM_VIS
100
AcDbLine
 10
730.5879611274392
 20
171.8580895258894
 30
0.0
 11
734.7092814709987
 21
175.9794098694491
 31
0.0
  0
LINE
  5
3D12
330
1F
100
AcDbEntity
  8
AM_VIS
100
AcDbLine
 10
736.8306018145582
 20
176.8580895258894
 30
0.0
 11
757.0879611274391
 21
176.8580895258894
 31
0.0
  0
LINE
  5
3D13
330
1F
100
AcDbEntity
  8
AM_VIS
100
AcDbLine
 10
760.0879611274391
 20
173.8580895258894
 30
0.0
 11
760.0879611274391
 21
167.8580895258894
 31
0.0
  0
LINE
  5
3D14
330
1F
100
AcDbEntity
  8
AM_VIS
100
AcDbLine
 10
764.0879611274391
 20
167.8580895258894
 30
0.0
 11
760.0879611274391
 21
167.8580895258894
 31
0.0
  0
LINE
  5
3D15
330
1F
100
AcDbEntity
  8
AM_VIS
100
AcDbLine
 10
764.0879611274391
 20
208.8580895258894
 30
0.0
 11
764.0879611274391
 21
167.8580895258894
 31
0.0
  0
LINE
  5
3D16
330
1F
100
AcDbEntity
  8
AM_VIS
100
AcDbLine
 10
702.5879611274391
 20
208.8580895258894
 30
0.0
 11
764.0879611274391
 21
208.8580895258894
 31
0.0
  0
LINE
  5
3D17
330
1F
100
AcDbEntity
  8
AM_VIS
100
AcDbLine
 10
702.5879611274391
 20
206.8580895258894
 30
0.0
 11
702.5879611274391
 21
208.8580895258894
 31
0.0
  0
LINE
  5
3D18
330
1F
100
AcDbEntity
  8
AM_VIS
100
AcDbLine
 10
691.0879611274391
 20
206.8580895258894
 30
0.0
 11
702.5879611274391
 21
206.8580895258894
 31
0.0
  0
LINE
  5
3D19
330
1F
100
AcDbEntity
  8
AM_VIS
100
AcDbLine
 10
691.0879611274391
 20
167.8580895258894
 30
0.0
 11
691.0879611274391
 21
206.8580895258894
 31
0.0
  0
LINE
  5
3D1A
330
1F
100
AcDbEntity
  8
AM_VIS
100
AcDbLine
 10
705.5879611274392
 20
167.8580895258894
 30
0.0
 11
691.0879611274391
 21
167.8580895258894
 31
0.0
  0
LINE
  5
413B
330
1F
100
AcDbEntity
  8
AM_7
100
AcDbLine
 10
595.0699718406704
 20
196.7580895258894
 30
0.0
 11
610.4335004121809
 21
196.7580895258894
 31
0.0
  0
LINE
  5
413C
330
1F
100
AcDbEntity
  8
AM_7
100
AcDbLine
 10
602.7924718406706
 20
189.0355895258894
 30
0.0
 11
602.7924718406706
 21
204.7322252420118
 31
0.0
  0
ARC
  5
413D
330
1F
100
AcDbEntity
  8
AM_4
  6
AM_ISO02W050x2
100
AcDbCircle
 10
602.7924718406706
 20
196.7580895258894
 30
0.0
 40
6.5785
100
AcDbArc
 50
254.9124830211938
 51
210.2768029625554
  0
LINE
  5
413E
330
1F
100
AcDbEntity
  8
AM_7
100
AcDbLine
 10
602.0699718406705
 20
177.2580895258894
 30
0.0
 11
617.4335004121809
 21
177.2580895258894
 31
0.0
  0
LINE
  5
413F
330
1F
100
AcDbEntity
  8
AM_7
100
AcDbLine
 10
609.7924718406706
 20
169.5355895258894
 30
0.0
 11
609.7924718406706
 21
185.2322252420118
 31
0.0
  0
ARC
  5
4140
330
1F
100
AcDbEntity
  8
AM_4
  6
AM_ISO02W050x2
100
AcDbCircle
 10
609.7924718406706
 20
177.2580895258894
 30
0.0
 40
6.5785
100
AcDbArc
 50
254.9124830211938
 51
210.2768029625554
  0
LINE
  5
4141
330
1F
100
AcDbEntity
  8
AM_7
100
AcDbLine
 10
614.0699718406705
 20
196.7580895258894
 30
0.0
 11
629.4335004121809
 21
196.7580895258894
 31
0.0
  0
LINE
  5
4142
330
1F
100
AcDbEntity
  8
AM_7
100
AcDbLine
 10
621.7924718406706
 20
189.0355895258894
 30
0.0
 11
621.7924718406706
 21
204.7322252420118
 31
0.0
  0
ARC
  5
4143
330
1F
100
AcDbEntity
  8
AM_4
  6
AM_ISO02W050x2
100
AcDbCircle
 10
621.7924718406706
 20
196.7580895258894
 30
0.0
 40
6.5785
100
AcDbArc
 50
254.9124830211938
 51
210.2768029625554
  0
LINE
  5
4147
330
1F
100
AcDbEntity
  8
AM_7
100
AcDbLine
 10
621.0699718406705
 20
177.2580895258894
 30
0.0
 11
636.4335004121809
 21
177.2580895258894
 31
0.0
  0
LINE
  5
4148
330
1F
100
AcDbEntity
  8
AM_7
100
AcDbLine
 10
628.7924718406705
 20
169.5355895258894
 30
0.0
 11
628.7924718406705
 21
185.2322252420118
 31
0.0
  0
ARC
  5
4149
330
1F
100
AcDbEntity
  8
AM_4
  6
AM_ISO02W050x2
100
AcDbCircle
 10
628.7924718406705
 20
177.2580895258894
 30
0.0
 40
6.5785
100
AcDbArc
 50
254.9124830211938
 51
210.2768029625554
  0
DIMENSION
  5
4192
330
1F
100
AcDbEntity
  8
AM_5
100
AcDbDimension
  2
*D27
 10
602.792471840671
 20
196.75808952589
 30
0.0
 11
582.0203563889536
 21
215.3929371326085
 31
0.0
 70
   164
  1
2×N-PT1/4
 71
     5
 42
6.578499999999621
  3
AM_ISO$4
100
AcDbRadialDimension
 15
600.0219848792667
 25
202.7247522653688
 35
0.0
 40
0.0
1001
ACAD
1000
DSTYLE
1002
{
1070
    40
1040
1.0
1070
   144
1040
1.0
1070
   272
1070
     8
1002
}
  0
ARC
  5
4247
330
1F
100
AcDbEntity
  8
AM_4
  6
AM_ISO02W050x2
100
AcDbCircle
 10
712.0879611274391
 20
186.9580895258894
 30
0.0
 40
6.5785
100
AcDbArc
 50
258.4816047092878
 51
199.9523797863535
  0
LINE
  5
4248
330
1F
100
AcDbEntity
  8
AM_7
100
AcDbLine
 10
704.3654611274391
 20
186.9580895258894
 30
0.0
 11
719.7289896989494
 21
186.9580895258894
 31
0.0
  0
LINE
  5
4249
330
1F
100
AcDbEntity
  8
AM_7
100
AcDbLine
 10
712.0879611274391
 20
179.2355895258893
 30
0.0
 11
712.0879611274391
 21
194.9322252420119
 31
0.0
  0
ARC
  5
424A
330
1F
100
AcDbEntity
  8
AM_4
  6
AM_ISO02W050x2
100
AcDbCircle
 10
733.0879611274391
 20
186.9580895258894
 30
0.0
 40
6.5785
100
AcDbArc
 50
258.4816047092878
 51
199.9523797863535
  0
LINE
  5
424B
330
1F
100
AcDbEntity
  8
AM_7
100
AcDbLine
 10
725.3654611274391
 20
186.9580895258894
 30
0.0
 11
740.7289896989494
 21
186.9580895258894
 31
0.0
  0
LINE
  5
424C
330
1F
100
AcDbEntity
  8
AM_7
100
AcDbLine
 10
733.0879611274391
 20
179.2355895258893
 30
0.0
 11
733.0879611274391
 21
194.9322252420119
 31
0.0
  0
ARC
  5
424D
330
1F
100
AcDbEntity
  8
AM_4
  6
AM_ISO02W050x2
100
AcDbCircle
 10
754.0879611274391
 20
186.9580895258894
 30
0.0
 40
6.5785
100
AcDbArc
 50
258.4816047092878
 51
199.9523797863535
  0
LINE
  5
424E
330
1F
100
AcDbEntity
  8
AM_7
100
AcDbLine
 10
746.3654611274391
 20
186.9580895258894
 30
0.0
 11
761.7289896989494
 21
186.9580895258894
 31
0.0
  0
LINE
  5
424F
330
1F
100
AcDbEntity
  8
AM_7
100
AcDbLine
 10
754.0879611274391
 20
179.2355895258893
 30
0.0
 11
754.0879611274391
 21
194.9322252420119
 31
0.0
  0
DIMENSION
  5
44B5
102
{ACAD_XDICTIONARY
360
44C2
102
}
102
{ACAD_REACTORS
330
44C3
102
}
330
1F
100
AcDbEntity
  8
AM_5
100
AcDbDimension
  2
*D29
 10
646.7924718406706
 20
239.1267439003129
 30
0.0
 11
616.2924718406705
 21
241.5767439003129
 31
0.0
 70
    32
  1
L
 71
     5
 42
61.0
  3
AM_ISO$0
100
AcDbAlignedDimension
 13
585.7924718406706
 23
259.1267439003116
 33
0.0
 14
646.7924718406706
 24
259.1267439003116
 34
0.0
 50
0.0000000000002036
100
AcDbRotatedDimension
1001
ACAD
1000
DSTYLE
1002
{
1070
    40
1040
1.0
1070
   144
1040
1.0
1070
   272
1070
     8
1002
}
  0
ARC
  5
44DC
330
1F
100
AcDbEntity
  8
AM_4
  6
AM_ISO02W050x2
100
AcDbCircle
 10
599.7924718406705
 20
279.7267439003116
 30
0.0
 40
2.1095
100
AcDbArc
 50
258.0733865607705
 51
200.216892210995
  0
LINE
  5
44DD
330
1F
100
AcDbEntity
  8
AM_7
100
AcDbLine
 10
615.0814718406706
 20
279.7267439003116
 30
0.0
 11
622.5034718406708
 21
279.7267439003116
 31
0.0
  0
LINE
  5
44DE
330
1F
100
AcDbEntity
  8
AM_7
100
AcDbLine
 10
618.7924718406706
 20
276.0157439003117
 30
0.0
 11
618.7924718406706
 21
283.4377439003116
 31
0.0
  0
ARC
  5
44DF
330
1F
100
AcDbEntity
  8
AM_4
  6
AM_ISO02W050x2
100
AcDbCircle
 10
618.7924718406706
 20
279.7267439003116
 30
0.0
 40
2.1095
100
AcDbArc
 50
258.0733865607705
 51
200.216892210995
  0
LINE
  5
44E3
330
1F
100
AcDbEntity
  8
AM_7
100
AcDbLine
 10
628.6814718406705
 20
321.7267439003116
 30
0.0
 11
636.1034718406707
 21
321.7267439003116
 31
0.0
  0
LINE
  5
44E4
330
1F
100
AcDbEntity
  8
AM_7
100
AcDbLine
 10
632.3924718406705
 20
318.0157439003118
 30
0.0
 11
632.3924718406705
 21
325.4377439003115
 31
0.0
  0
ARC
  5
44E5
330
1F
100
AcDbEntity
  8
AM_4
  6
AM_ISO02W050x2
100
AcDbCircle
 10
632.3924718406705
 20
321.7267439003116
 30
0.0
 40
2.1095
100
AcDbArc
 50
258.0733865607705
 51
200.216892210995
  0
LINE
  5
44E9
330
1F
100
AcDbEntity
  8
AM_7
100
AcDbLine
 10
609.6814718406704
 20
321.7267439003116
 30
0.0
 11
617.1034718406708
 21
321.7267439003116
 31
0.0
  0
LINE
  5
44EA
330
1F
100
AcDbEntity
  8
AM_7
100
AcDbLine
 10
613.3924718406705
 20
318.0157439003118
 30
0.0
 11
613.3924718406705
 21
325.4377439003115
 31
0.0
  0
ARC
  5
44EB
330
1F
100
AcDbEntity
  8
AM_4
  6
AM_ISO02W050x2
100
AcDbCircle
 10
613.3924718406705
 20
321.7267439003116
 30
0.0
 40
2.1095
100
AcDbArc
 50
258.0733865607705
 51
200.216892210995
  0
LINE
  5
45E3
330
1F
100
AcDbEntity
  8
SL
  6
ACISOTGB
 62
     4
100
AcDbLine
 10
610.9811030001607
 20
187.4997617682947
 30
0.0
 11
610.9811030001605
 21
217.9672285548026
 31
0.0
  0
LINE
  5
45E4
330
1F
100
AcDbEntity
  8
SL
  6
ACISOTGB
 62
     4
100
AcDbLine
 10
610.9811030001607
 20
187.4997617682947
 30
0.0
 11
618.602834967807
 21
187.499761768295
 31
0.0
  0
LINE
  5
45E5
330
1F
100
AcDbEntity
  8
SL
  6
ACISOTGB
 62
     4
100
AcDbLine
 10
618.602834967807
 20
187.4997617682952
 30
0.0
 11
618.602834967807
 21
165.4376167634409
 31
0.0
  0
INSERT
  5
45E6
330
1F
100
AcDbEntity
  8
0
100
AcDbBlockReference
  2
A$C0B032DDE
 10
610.9811030001605
 20
214.7368077220966
 30
0.0
  0
SPLINE
  5
4B27
330
1F
100
AcDbEntity
  8
AM_VIS
100
AcDbSpline
210
0.0
220
0.0
230
1.0
 70
     8
 71
     3
 72
     8
 73
     4
 74
     0
 42
0.0000000001
 43
0.0000000001
 40
0.0
 40
0.0
 40
0.0
 40
0.0
 40
80.0
 40
80.0
 40
80.0
 40
80.0
 10
592.4772544493662
 20
300.4120699872551
 30
0.0
 10
592.9283413644238
 20
300.4120700494512
 30
0.0
 10
593.1538848841488
 20
300.7259287451034
 30
0.0
 10
593.1538848841488
 20
301.3536460742116
 30
0.0
  0
SPLINE
  5
4B28
330
1F
100
AcDbEntity
  8
AM_VIS
100
AcDbSpline
210
0.0
220
0.0
230
1.0
 70
     8
 71
     3
 72
     8
 73
     4
 74
     0
 42
0.0000000001
 43
0.0000000001
 40
0.0
 40
0.0
 40
0.0
 40
0.0
 40
80.0
 40
80.0
 40
80.0
 40
80.0
 10
593.1538848841488
 20
301.3536460742116
 30
0.0
 10
593.1538848841488
 20
301.4324504635018
 30
0.0
 10
593.1457327102357
 20
301.4827221819002
 30
0.0
 10
593.1294283624096
 20
301.5044612916029
 30
0.0
  0
SPLINE
  5
4B29
330
1F
100
AcDbEntity
  8
AM_VIS
100
AcDbSpline
210
0.0
220
0.0
230
1.0
 70
     8
 71
     3
 72
     8
 73
     4
 74
     0
 42
0.0000000001
 43
0.0000000001
 40
0.0
 40
0.0
 40
0.0
 40
0.0
 40
80.0
 40
80.0
 40
80.0
 40
80.0
 10
593.1294283624096
 20
301.5044612916029
 30
0.0
 10
593.1022544286341
 20
301.5316352253784
 30
0.0
 10
593.0479066232792
 20
301.5452221611681
 30
0.0
 10
592.9663848841488
 20
301.5452221611681
 30
0.0
  0
LINE
  5
4B2A
330
1F
100
AcDbEntity
  8
AM_VIS
100
AcDbLine
 10
592.9663848841488
 20
301.5452221611681
 30
0.0
 11
591.780243579801
 21
301.5452221611681
 31
0.0
  0
SPLINE
  5
4B2B
330
1F
100
AcDbEntity
  8
AM_VIS
100
AcDbSpline
210
0.0
220
0.0
230
1.0
 70
     8
 71
     3
 72
     8
 73
     4
 74
     0
 42
0.0000000001
 43
0.0000000001
 40
0.0
 40
0.0
 40
0.0
 40
0.0
 40
80.0
 40
80.0
 40
80.0
 40
80.0
 10
591.780243579801
 20
301.5452221611681
 30
0.0
 10
591.7693739938515
 20
301.4555483103208
 30
0.0
 10
591.7639392319749
 20
301.348211312335
 30
0.0
 10
591.7639392319749
 20
301.2232112916029
 30
0.0
  0
SPLINE
  5
4B2C
330
1F
100
AcDbEntity
  8
AM_VIS
100
AcDbSpline
210
0.0
220
0.0
230
1.0
 70
     8
 71
     3
 72
     8
 73
     4
 74
     0
 42
0.0000000001
 43
0.0000000001
 40
0.0
 40
0.0
 40
0.0
 40
0.0
 40
80.0
 40
80.0
 40
80.0
 40
80.0
 10
591.7639392319749
 20
301.2232112916029
 30
0.0
 10
591.7639392319749
 20
300.6824504635018
 30
0.0
 10
592.0017109503732
 20
300.4120700494512
 30
0.0
 10
592.4772544493662
 20
300.4120699872551
 30
0.0
  0
SPLINE
  5
4B2D
330
1F
100
AcDbEntity
  8
AM_VIS
100
AcDbSpline
210
0.0
220
0.0
230
1.0
 70
     8
 71
     3
 72
     8
 73
     4
 74
     0
 42
0.0000000001
 43
0.0000000001
 40
0.0
 40
0.0
 40
0.0
 40
0.0
 40
80.0
 40
80.0
 40
80.0
 40
80.0
 10
592.4854066232792
 20
300.1267439002985
 30
0.0
 10
592.2435587557281
 20
300.1267439002985
 30
0.0
 10
592.0438304948586
 20
300.2028308775523
 30
0.0
 10
591.8862218406705
 20
300.3550047698638
 30
0.0
  0
SPLINE
  5
4B2E
330
1F
100
AcDbEntity
  8
AM_VIS
100
AcDbSpline
210
0.0
220
0.0
230
1.0
 70
     8
 71
     3
 72
     8
 73
     4
 74
     0
 42
0.0000000001
 43
0.0000000001
 40
0.0
 40
0.0
 40
0.0
 40
0.0
 40
80.0
 40
80.0
 40
80.0
 40
80.0
 10
591.8862218406705
 20
300.3550047698638
 30
0.0
 10
591.7123087764602
 20
300.5234830721974
 30
0.0
 10
591.6253522754532
 20
300.8033743972773
 30
0.0
 10
591.6253522754532
 20
301.1946786829073
 30
0.0
  0
LINE
  5
4B2F
330
1F
100
AcDbEntity
  8
AM_VIS
100
AcDbLine
 10
591.6242986013233
 20
301.1946991358911
 30
0.0
 11
591.63110354679
 21
301.5452687653509
 31
0.0
  0
LINE
  5
4B30
330
1F
100
AcDbEntity
  8
AM_VIS
100
AcDbLine
 10
591.6335044493662
 20
301.5452221611681
 30
0.0
 11
590.8264392319749
 21
301.5452221611681
 31
0.0
  0
SPLINE
  5
4B31
330
1F
100
AcDbEntity
  8
AM_VIS
100
AcDbSpline
210
0.0
220
0.0
230
1.0
 70
     8
 71
     3
 72
     8
 73
     4
 74
     0
 42
0.0000000001
 43
0.0000000001
 40
0.0
 40
0.0
 40
0.0
 40
0.0
 40
80.0
 40
80.0
 40
80.0
 40
80.0
 10
590.8264392319749
 20
301.5452221611681
 30
0.0
 10
590.6606783416776
 20
301.5452221611681
 30
0.0
 10
590.5438304948586
 20
301.5112547905959
 30
0.0
 10
590.4758957537139
 20
301.4433199872551
 30
0.0
  0
SPLINE
  5
4B32
330
1F
100
AcDbEntity
  8
AM_VIS
100
AcDbSpline
210
0.0
220
0.0
230
1.0
 70
     8
 71
     3
 72
     8
 73
     4
 74
     0
 42
0.0000000001
 43
0.0000000001
 40
0.0
 40
0.0
 40
0.0
 40
0.0
 40
80.0
 40
80.0
 40
80.0
 40
80.0
 10
590.4758957537139
 20
301.4433199872551
 30
0.0
 10
590.4188305985189
 20
301.3862547698638
 30
0.0
 10
590.3848631657504
 20
301.277559159154
 30
0.0
 10
590.3739935798009
 20
301.1172330307334
 30
0.0
  0
LINE
  5
4B33
330
1F
100
AcDbEntity
  8
AM_VIS
100
AcDbLine
 10
590.3739935798009
 20
301.1172330307334
 30
0.0
 11
590.2924718406706
 21
301.1172330307334
 31
0.0
  0
LINE
  5
4B34
330
1F
100
AcDbEntity
  8
AM_VIS
100
AcDbLine
 10
590.2924718406706
 20
301.1172330307334
 30
0.0
 11
590.2924718406706
 21
302.1892439002986
 31
0.0
  0
LINE
  5
4B35
330
1F
100
AcDbEntity
  8
AM_VIS
100
AcDbLine
 10
590.2924718406706
 20
302.1892439002986
 30
0.0
 11
590.3739935798009
 21
302.1892439002986
 31
0.0
  0
SPLINE
  5
4B36
330
1F
100
AcDbEntity
  8
AM_VIS
100
AcDbSpline
210
0.0
220
0.0
230
1.0
 70
     8
 71
     3
 72
     8
 73
     4
 74
     0
 42
0.0000000001
 43
0.0000000001
 40
0.0
 40
0.0
 40
0.0
 40
0.0
 40
80.0
 40
80.0
 40
80.0
 40
80.0
 10
590.3739935798009
 20
302.1892439002986
 30
0.0
 10
590.3902979276271
 20
302.0289178340741
 30
0.0
 10
590.436493621265
 20
301.9229395732045
 30
0.0
 10
590.5125805363227
 20
301.8713091176899
 30
0.0
  0
SPLINE
  5
4B37
330
1F
100
AcDbEntity
  8
AM_VIS
100
AcDbSpline
210
0.0
220
0.0
230
1.0
 70
     8
 71
     3
 72
     8
 73
     4
 74
     0
 42
0.0000000001
 43
0.0000000001
 40
0.0
 40
0.0
 40
0.0
 40
0.0
 40
80.0
 40
80.0
 40
80.0
 40
80.0
 10
590.5125805363227
 20
301.8713091176899
 30
0.0
 10
590.5777979276271
 20
301.825113486248
 30
0.0
 10
590.7014392112428
 20
301.802015639429
 30
0.0
 10
590.8835044493662
 20
301.802015639429
 30
0.0
  0
LINE
  5
4B38
330
1F
100
AcDbEntity
  8
AM_VIS
100
AcDbLine
 10
590.8835044493662
 20
301.802015639429
 30
0.0
 11
592.7870370580619
 21
301.802015639429
 31
0.0
  0
SPLINE
  5
4B39
330
1F
100
AcDbEntity
  8
AM_VIS
100
AcDbSpline
210
0.0
220
0.0
230
1.0
 70
     8
 71
     3
 72
     8
 73
     4
 74
     0
 42
0.0000000001
 43
0.0000000001
 40
0.0
 40
0.0
 40
0.0
 40
0.0
 40
80.0
 40
80.0
 40
80.0
 40
80.0
 10
592.7870370580619
 20
301.802015639429
 30
0.0
 10
592.9500805363227
 20
301.802015639429
 30
0.0
 10
593.0574174721124
 20
301.8278308982844
 30
0.0
 10
593.1090479276271
 20
301.8794612916029
 30
0.0
  0
SPLINE
  5
4B3A
330
1F
100
AcDbEntity
  8
AM_VIS
100
AcDbSpline
210
0.0
220
0.0
230
1.0
 70
     8
 71
     3
 72
     8
 73
     4
 74
     0
 42
0.0000000001
 43
0.0000000001
 40
0.0
 40
0.0
 40
0.0
 40
0.0
 40
80.0
 40
80.0
 40
80.0
 40
80.0
 10
593.1090479276271
 20
301.8794612916029
 30
0.0
 10
593.1579609711053
 20
301.9283743350812
 30
0.0
 10
593.1919283416776
 20
302.0316352461105
 30
0.0
 10
593.2109501015402
 20
302.1892439002986
 30
0.0
  0
LINE
  5
4B3B
330
1F
100
AcDbEntity
  8
AM_VIS
100
AcDbLine
 10
593.2109501015402
 20
302.1892439002986
 30
0.0
 11
593.2924718406706
 21
302.1892439002986
 31
0.0
  0
LINE
  5
4B3C
330
1F
100
AcDbEntity
  8
AM_VIS
100
AcDbLine
 10
593.2924718406706
 20
302.1892439002986
 30
0.0
 11
593.2924718406706
 21
301.153917813342
 31
0.0
  0
SPLINE
  5
4B3D
330
1F
100
AcDbEntity
  8
AM_VIS
100
AcDbSpline
210
0.0
220
0.0
230
1.0
 70
     8
 71
     3
 72
     8
 73
     4
 74
     0
 42
0.0000000001
 43
0.0000000001
 40
0.0
 40
0.0
 40
0.0
 40
0.0
 40
80.0
 40
80.0
 40
80.0
 40
80.0
 10
593.2924718406706
 20
301.153917813342
 30
0.0
 10
593.2924718406706
 20
300.8577222026322
 30
0.0
 10
593.2299717992065
 20
300.6185917471176
 30
0.0
 10
593.1049718406706
 20
300.4365265089942
 30
0.0
  0
SPLINE
  5
4B3E
330
1F
100
AcDbEntity
  8
AM_VIS
100
AcDbSpline
210
0.0
220
0.0
230
1.0
 70
     8
 71
     3
 72
     8
 73
     4
 74
     0
 42
0.0000000001
 43
0.0000000001
 40
0.0
 40
0.0
 40
0.0
 40
0.0
 40
80.0
 40
80.0
 40
80.0
 40
80.0
 10
593.1049718406706
 20
300.4365265089942
 30
0.0
 10
592.960950060076
 20
300.2300048113279
 30
0.0
 10
592.7544283624097
 20
300.1267439002985
 30
0.0
 10
592.4854066232792
 20
300.1267439002985
 30
0.0
  0
LINE
  5
4B3F
330
1F
100
AcDbEntity
  8
AM_VIS
100
AcDbLine
 10
590.2924718406706
 20
320.0980005848035
 30
0.0
 11
590.2924718406706
 21
321.1528134190281
 31
0.0
  0
LINE
  5
4B40
330
1F
100
AcDbEntity
  8
AM_VIS
100
AcDbLine
 10
590.2924718406706
 20
321.1528134190281
 30
0.0
 11
590.3726857444139
 21
321.1528134190281
 31
0.0
  0
SPLINE
  5
4B41
330
1F
100
AcDbEntity
  8
AM_VIS
100
AcDbSpline
210
0.0
220
0.0
230
1.0
 70
     8
 71
     3
 72
     8
 73
     4
 74
     0
 42
0.0000000001
 43
0.0000000001
 40
0.0
 40
0.0
 40
0.0
 40
0.0
 40
80.0
 40
80.0
 40
80.0
 40
80.0
 10
590.3726857444139
 20
321.1528134190281
 30
0.0
 10
590.3780333787956
 20
321.0111022094811
 30
0.0
 10
590.3994237327278
 20
320.9135086469928
 30
0.0
 10
590.4368568674085
 20
320.860032670365
 30
0.0
  0
SPLINE
  5
4B42
330
1F
100
AcDbEntity
  8
AM_VIS
100
AcDbSpline
210
0.0
220
0.0
230
1.0
 70
     8
 71
     3
 72
     8
 73
     4
 74
     0
 42
0.0000000001
 43
0.0000000001
 40
0.0
 40
0.0
 40
0.0
 40
0.0
 40
80.0
 40
80.0
 40
80.0
 40
80.0
 10
590.4368568674085
 20
320.860032670365
 30
0.0
 10
590.4930066612272
 20
320.7798187666217
 30
0.0
 10
590.5999584308877
 20
320.7397118147501
 30
0.0
 10
590.7577124823817
 20
320.7397118147501
 30
0.0
  0
LINE
  5
4B43
330
1F
100
AcDbEntity
  8
AM_VIS
100
AcDbLine
 10
590.7577124823817
 20
320.7397118147501
 30
0.0
 11
592.7470172952159
 21
320.7397118147501
 31
0.0
  0
SPLINE
  5
4B44
330
1F
100
AcDbEntity
  8
AM_VIS
100
AcDbSpline
210
0.0
220
0.0
230
1.0
 70
     8
 71
     3
 72
     8
 73
     4
 74
     0
 42
0.0000000001
 43
0.0000000001
 40
0.0
 40
0.0
 40
0.0
 40
0.0
 40
80.0
 40
80.0
 40
80.0
 40
80.0
 10
592.7470172952159
 20
320.7397118147501
 30
0.0
 10
592.8994237123283
 20
320.7397118147501
 30
0.0
 10
592.9756269208844
 20
320.7945246693741
 30
0.0
 10
592.9756269208844
 20
320.9041503174238
 30
0.0
  0
SPLINE
  5
4B45
330
1F
100
AcDbEntity
  8
AM_VIS
100
AcDbSpline
210
0.0
220
0.0
230
1.0
 70
     8
 71
     3
 72
     8
 73
     4
 74
     0
 42
0.0000000001
 43
0.0000000001
 40
0.0
 40
0.0
 40
0.0
 40
0.0
 40
80.0
 40
80.0
 40
80.0
 40
80.0
 10
592.9756269208844
 20
320.9041503174238
 30
0.0
 10
592.9756269208844
 20
320.9736690748003
 30
0.0
 10
592.9515627497615
 20
321.0699257592922
 30
0.0
 10
592.9034344075155
 20
321.1929203708998
 30
0.0
  0
LINE
  5
4B46
330
1F
100
AcDbEntity
  8
AM_VIS
100
AcDbLine
 10
592.9034344075155
 20
321.1929203708998
 30
0.0
 11
592.9676055305101
 21
321.1929203708998
 31
0.0
  0
LINE
  5
4B47
330
1F
100
AcDbEntity
  8
AM_VIS
100
AcDbLine
 10
592.9676055305101
 20
321.1929203708998
 30
0.0
 11
593.2924718406706
 21
320.5151128842688
 31
0.0
  0
LINE
  5
4B48
330
1F
100
AcDbEntity
  8
AM_VIS
100
AcDbLine
 10
593.2924718406706
 20
320.5151128842688
 30
0.0
 11
590.6815092738257
 21
320.5151128842688
 31
0.0
  0
SPLINE
  5
4B49
330
1F
100
AcDbEntity
  8
AM_VIS
100
AcDbSpline
210
0.0
220
0.0
230
1.0
 70
     8
 71
     3
 72
     8
 73
     4
 74
     0
 42
0.0000000001
 43
0.0000000001
 40
0.0
 40
0.0
 40
0.0
 40
0.0
 40
80.0
 40
80.0
 40
80.0
 40
80.0
 10
590.6815092738257
 20
320.5151128842688
 30
0.0
 10
590.5665359913942
 20
320.5151128842688
 30
0.0
 10
590.4849852708529
 20
320.4830273227714
 30
0.0
 10
590.4368568674085
 20
320.4188561997768
 30
0.0
  0
SPLINE
  5
4B4A
330
1F
100
AcDbEntity
  8
AM_VIS
100
AcDbSpline
210
0.0
220
0.0
230
1.0
 70
     8
 71
     3
 72
     8
 73
     4
 74
     0
 42
0.0000000001
 43
0.0000000001
 40
0.0
 40
0.0
 40
0.0
 40
0.0
 40
80.0
 40
80.0
 40
80.0
 40
80.0
 10
590.4368568674085
 20
320.4188561997768
 30
0.0
 10
590.3940761595443
 20
320.3546850767821
 30
0.0
 10
590.3726857444139
 20
320.2477332459233
 30
0.0
 10
590.3726857444139
 20
320.0980005848035
 30
0.0
  0
LINE
  5
4B4B
330
1F
100
AcDbEntity
  8
AM_VIS
100
AcDbLine
 10
590.3726857444139
 20
320.0980005848035
 30
0.0
 11
590.2924718406706
 21
320.0980005848035
 31
0.0
  0
SPLINE
  5
4B4C
330
1F
100
AcDbEntity
  8
AM_VIS
100
AcDbSpline
210
0.0
220
0.0
230
1.0
 70
     8
 71
     3
 72
     8
 73
     4
 74
     0
 42
0.0000000001
 43
0.0000000001
 40
0.0
 40
0.0
 40
0.0
 40
0.0
 40
80.0
 40
80.0
 40
80.0
 40
80.0
 10
592.4783007176759
 20
322.370059408333
 30
0.0
 10
592.7563755635866
 20
322.3700594695313
 30
0.0
 10
592.9422044201925
 20
322.4930540811388
 30
0.0
 10
593.035787348692
 20
322.7390433655522
 30
0.0
  0
SPLINE
  5
4B4D
330
1F
100
AcDbEntity
  8
AM_VIS
100
AcDbSpline
210
0.0
220
0.0
230
1.0
 70
     8
 71
     3
 72
     8
 73
     4
 74
     0
 42
0.0000000001
 43
0.0000000001
 40
0.0
 40
0.0
 40
0.0
 40
0.0
 40
80.0
 40
80.0
 40
80.0
 40
80.0
 10
593.035787348692
 20
322.7390433655522
 30
0.0
 10
593.0946108373047
 20
322.8780808191067
 30
0.0
 10
593.1186750084277
 20
323.0398455045896
 30
0.0
 10
593.107979862061
 20
323.2243374831992
 30
0.0
  0
SPLINE
  5
4B4E
330
1F
100
AcDbEntity
  8
AM_VIS
100
AcDbSpline
210
0.0
220
0.0
230
1.0
 70
     8
 71
     3
 72
     8
 73
     4
 74
     0
 42
0.0000000001
 43
0.0000000001
 40
0.0
 40
0.0
 40
0.0
 40
0.0
 40
80.0
 40
80.0
 40
80.0
 40
80.0
 10
593.107979862061
 20
323.2243374831992
 30
0.0
 10
593.1026322276791
 20
323.3312893752565
 30
0.0
 10
593.0932739593085
 20
323.398134315442
 30
0.0
 10
593.0799049957508
 20
323.4248722425575
 30
0.0
  0
SPLINE
  5
4B4F
330
1F
100
AcDbEntity
  8
AM_VIS
100
AcDbSpline
210
0.0
220
0.0
230
1.0
 70
     8
 71
     3
 72
     8
 73
     4
 74
     0
 42
0.0000000001
 43
0.0000000001
 40
0.0
 40
0.0
 40
0.0
 40
0.0
 40
80.0
 40
80.0
 40
80.0
 40
80.0
 10
593.0799049957508
 20
323.4248722425575
 30
0.0
 10
593.0531670074369
 20
323.4676530116201
 30
0.0
 10
592.9983541528129
 20
323.4890433655522
 30
0.0
 10
592.915466493077
 20
323.4890433655522
 30
0.0
  0
LINE
  5
4B50
330
1F
100
AcDbEntity
  8
AM_VIS
100
AcDbLine
 10
592.915466493077
 20
323.4890433655522
 30
0.0
 11
591.8165360117935
 21
323.4890433655522
 31
0.0
  0
SPLINE
  5
4B51
330
1F
100
AcDbEntity
  8
AM_VIS
100
AcDbSpline
210
0.0
220
0.0
230
1.0
 70
     8
 71
     3
 72
     8
 73
     4
 74
     0
 42
0.0000000001
 43
0.0000000001
 40
0.0
 40
0.0
 40
0.0
 40
0.0
 40
80.0
 40
80.0
 40
80.0
 40
80.0
 10
591.8165360117935
 20
323.4890433655522
 30
0.0
 10
591.819209767786
 20
323.1708615677698
 30
0.0
 10
591.8472846340962
 20
322.9382412469143
 30
0.0
 10
591.9007606107241
 20
322.7911824029853
 30
0.0
  0
SPLINE
  5
4B52
330
1F
100
AcDbEntity
  8
AM_VIS
100
AcDbSpline
210
0.0
220
0.0
230
1.0
 70
     8
 71
     3
 72
     8
 73
     4
 74
     0
 42
0.0000000001
 43
0.0000000001
 40
0.0
 40
0.0
 40
0.0
 40
0.0
 40
80.0
 40
80.0
 40
80.0
 40
80.0
 10
591.9007606107241
 20
322.7911824029853
 30
0.0
 10
591.9996910512086
 20
322.5104338010821
 30
0.0
 10
592.1922044201925
 20
322.3700594695313
 30
0.0
 10
592.4783007176759
 20
322.370059408333
 30
0.0
  0
LINE
  5
4B53
330
1F
100
AcDbEntity
  8
AM_VIS
100
AcDbLine
 10
590.2924718406706
 20
321.6481342746431
 30
0.0
 11
590.2924718406706
 21
322.201610210472
 31
0.0
  0
LINE
  5
4B54
330
1F
100
AcDbEntity
  8
AM_VIS
100
AcDbLine
 10
590.2924718406706
 20
322.201610210472
 30
0.0
 11
591.6922044609914
 21
323.1521449698302
 31
0.0
  0
LINE
  5
4B55
330
1F
100
AcDbEntity
  8
AM_VIS
100
AcDbLine
 10
591.6922044609914
 20
323.1521449698302
 30
0.0
 11
591.6761616802427
 21
323.4890433655522
 31
0.0
  0
LINE
  5
4B56
330
1F
100
AcDbEntity
  8
AM_VIS
100
AcDbLine
 10
591.6761616802427
 20
323.4890433655522
 30
0.0
 11
590.8178729101893
 21
323.4890433655522
 31
0.0
  0
SPLINE
  5
4B57
330
1F
100
AcDbEntity
  8
AM_VIS
100
AcDbSpline
210
0.0
220
0.0
230
1.0
 70
     8
 71
     3
 72
     8
 73
     4
 74
     0
 42
0.0000000001
 43
0.0000000001
 40
0.0
 40
0.0
 40
0.0
 40
0.0
 40
80.0
 40
80.0
 40
80.0
 40
80.0
 10
590.8178729101893
 20
323.4890433655522
 30
0.0
 10
590.6601188586952
 20
323.4890433655522
 30
0.0
 10
590.5491563326491
 20
323.4596316212458
 30
0.0
 10
590.4849852096544
 20
323.4008080714346
 30
0.0
  0
SPLINE
  5
4B58
330
1F
100
AcDbEntity
  8
AM_VIS
100
AcDbSpline
210
0.0
220
0.0
230
1.0
 70
     8
 71
     3
 72
     8
 73
     4
 74
     0
 42
0.0000000001
 43
0.0000000001
 40
0.0
 40
0.0
 40
0.0
 40
0.0
 40
80.0
 40
80.0
 40
80.0
 40
80.0
 10
590.4849852096544
 20
323.4008080714346
 30
0.0
 10
590.4234879038508
 20
323.3446584000126
 30
0.0
 10
590.3860547691699
 20
323.2390433859516
 30
0.0
 10
590.3726857444139
 20
323.0839631516484
 30
0.0
  0
LINE
  5
4B59
330
1F
100
AcDbEntity
  8
AM_VIS
100
AcDbLine
 10
590.3726857444139
 20
323.0839631516484
 30
0.0
 11
590.2924718406706
 21
323.0839631516484
 31
0.0
  0
LINE
  5
4B5A
330
1F
100
AcDbEntity
  8
AM_VIS
100
AcDbLine
 10
590.2924718406706
 20
323.0839631516484
 30
0.0
 11
590.2924718406706
 21
324.1267439003116
 31
0.0
  0
LINE
  5
4B5B
330
1F
100
AcDbEntity
  8
AM_VIS
100
AcDbLine
 10
590.2924718406706
 20
324.1267439003116
 30
0.0
 11
590.3726857444139
 21
324.1267439003116
 31
0.0
  0
SPLINE
  5
4B5C
330
1F
100
AcDbEntity
  8
AM_VIS
100
AcDbSpline
210
0.0
220
0.0
230
1.0
 70
     8
 71
     3
 72
     8
 73
     4
 74
     0
 42
0.0000000001
 43
0.0000000001
 40
0.0
 40
0.0
 40
0.0
 40
0.0
 40
80.0
 40
80.0
 40
80.0
 40
80.0
 10
590.3726857444139
 20
324.1267439003116
 30
0.0
 10
590.3887285251625
 20
323.9716637272067
 30
0.0
 10
590.4315092942251
 20
323.8687225303366
 30
0.0
 10
590.5010279904031
 20
323.8179203708998
 30
0.0
  0
SPLINE
  5
4B5D
330
1F
100
AcDbEntity
  8
AM_VIS
100
AcDbSpline
210
0.0
220
0.0
230
1.0
 70
     8
 71
     3
 72
     8
 73
     4
 74
     0
 42
0.0000000001
 43
0.0000000001
 40
0.0
 40
0.0
 40
0.0
 40
0.0
 40
80.0
 40
80.0
 40
80.0
 40
80.0
 10
590.5010279904031
 20
323.8179203708998
 30
0.0
 10
590.5678728693904
 20
323.7671182726613
 30
0.0
 10
590.6922044201925
 20
323.741717223542
 30
0.0
 10
590.8740226428096
 20
323.7417171623437
 30
0.0
  0
LINE
  5
4B5E
330
1F
100
AcDbEntity
  8
AM_VIS
100
AcDbLine
 10
590.8740226428096
 20
323.7417171623437
 30
0.0
 11
592.7109210385315
 21
323.7417171623437
 31
0.0
  0
SPLINE
  5
4B5F
330
1F
100
AcDbEntity
  8
AM_VIS
100
AcDbSpline
210
0.0
220
0.0
230
1.0
 70
     8
 71
     3
 72
     8
 73
     4
 74
     0
 42
0.0000000001
 43
0.0000000001
 40
0.0
 40
0.0
 40
0.0
 40
0.0
 40
80.0
 40
80.0
 40
80.0
 40
80.0
 10
592.7109210385315
 20
323.7417171623437
 30
0.0
 10
592.8793702363925
 20
323.741717223542
 30
0.0
 10
592.9956803968202
 20
323.7711289678484
 30
0.0
 10
593.0598515198149
 20
323.8299524564613
 30
0.0
  0
SPLINE
  5
4B60
330
1F
100
AcDbEntity
  8
AM_VIS
100
AcDbSpline
210
0.0
220
0.0
230
1.0
 70
     8
 71
     3
 72
     8
 73
     4
 74
     0
 42
0.0000000001
 43
0.0000000001
 40
0.0
 40
0.0
 40
0.0
 40
0.0
 40
80.0
 40
80.0
 40
80.0
 40
80.0
 10
593.0598515198149
 20
323.8299524564613
 30
0.0
 10
593.1133274352443
 20
323.8780807987073
 30
0.0
 10
593.1480868139326
 20
323.9770113003901
 30
0.0
 10
593.1641295946812
 20
324.1267439003116
 30
0.0
  0
LINE
  5
4B61
330
1F
100
AcDbEntity
  8
AM_VIS
100
AcDbLine
 10
593.1641295946812
 20
324.1267439003116
 30
0.0
 11
593.2443434984245
 21
324.1267439003116
 31
0.0
  0
LINE
  5
4B62
330
1F
100
AcDbEntity
  8
AM_VIS
100
AcDbLine
 10
593.2443434984245
 20
324.1267439003116
 30
0.0
 11
593.2443434984245
 21
323.0598989805254
 31
0.0
  0
SPLINE
  5
4B63
330
1F
100
AcDbEntity
  8
AM_VIS
100
AcDbSpline
210
0.0
220
0.0
230
1.0
 70
     8
 71
     3
 72
     8
 73
     4
 74
     0
 42
0.0000000001
 43
0.0000000001
 40
0.0
 40
0.0
 40
0.0
 40
0.0
 40
80.0
 40
80.0
 40
80.0
 40
80.0
 10
593.2443434984245
 20
323.0598989805254
 30
0.0
 10
593.2443434984245
 20
322.8112358789211
 30
0.0
 10
593.2015627293621
 20
322.6066904243757
 30
0.0
 10
593.1160012524353
 20
322.4462626168891
 30
0.0
  0
SPLINE
  5
4B64
330
1F
100
AcDbEntity
  8
AM_VIS
100
AcDbSpline
210
0.0
220
0.0
230
1.0
 70
     8
 71
     3
 72
     8
 73
     4
 74
     0
 42
0.0000000001
 43
0.0000000001
 40
0.0
 40
0.0
 40
0.0
 40
0.0
 40
80.0
 40
80.0
 40
80.0
 40
80.0
 10
593.1160012524353
 20
322.4462626168891
 30
0.0
 10
592.9876590064459
 20
322.20829472285
 30
0.0
 10
592.7724183443354
 20
322.0893107452313
 30
0.0
 10
592.4702793273016
 20
322.0893107452313
 30
0.0
  0
SPLINE
  5
4B65
330
1F
100
AcDbEntity
  8
AM_VIS
100
AcDbSpline
210
0.0
220
0.0
230
1.0
 70
     8
 71
     3
 72
     8
 73
     4
 74
     0
 42
0.0000000001
 43
0.0000000001
 40
0.0
 40
0.0
 40
0.0
 40
0.0
 40
80.0
 40
80.0
 40
80.0
 40
80.0
 10
592.4702793273016
 20
322.0893107452313
 30
0.0
 10
592.2162685913156
 20
322.0893107452313
 30
0.0
 10
592.0264290395225
 20
322.1842305517271
 30
0.0
 10
591.9007606107241
 20
322.3740701035201
 30
0.0
  0
SPLINE
  5
4B66
330
1F
100
AcDbEntity
  8
AM_VIS
100
AcDbSpline
210
0.0
220
0.0
230
1.0
 70
     8
 71
     3
 72
     8
 73
     4
 74
     0
 42
0.0000000001
 43
0.0000000001
 40
0.0
 40
0.0
 40
0.0
 40
0.0
 40
80.0
 40
80.0
 40
80.0
 40
80.0
 10
591.9007606107241
 20
322.3740701035201
 30
0.0
 10
591.828568097355
 20
322.4810219955773
 30
0.0
 10
591.773755242731
 20
322.6347652906859
 30
0.0
 10
591.7363221080502
 20
322.8353000500442
 30
0.0
  0
LINE
  5
4B67
330
1F
100
AcDbEntity
  8
AM_VIS
100
AcDbLine
 10
591.7363221080502
 20
322.8353000500442
 30
0.0
 11
590.5331135519005
 21
322.0251396222367
 31
0.0
  0
SPLINE
  5
4B68
330
1F
100
AcDbEntity
  8
AM_VIS
100
AcDbSpline
210
0.0
220
0.0
230
1.0
 70
     8
 71
     3
 72
     8
 73
     4
 74
     0
 42
0.0000000001
 43
0.0000000001
 40
0.0
 40
0.0
 40
0.0
 40
0.0
 40
80.0
 40
80.0
 40
80.0
 40
80.0
 10
590.5331135519005
 20
322.0251396222367
 30
0.0
 10
590.4502258921646
 20
321.9716637068072
 30
0.0
 10
590.3967499155369
 20
321.8459952780088
 30
0.0
 10
590.3726857444139
 20
321.6481342746431
 30
0.0
  0
LINE
  5
4B69
330
1F
100
AcDbEntity
  8
AM_VIS
100
AcDbLine
 10
590.3726857444139
 20
321.6481342746431
 30
0.0
 11
590.2924718406706
 21
321.6481342746431
 31
0.0
  0
LINE
  5
4B6A
330
1F
100
AcDbEntity
  8
AM_VIS
100
AcDbLine
 10
590.8756942108436
 20
277.9767439003411
 30
0.0
 11
590.2924718406706
 21
278.1844669362931
 31
0.0
  0
LINE
  5
4B6B
330
1F
100
AcDbEntity
  8
AM_VIS
100
AcDbLine
 10
590.2924718406706
 20
278.1844669362931
 30
0.0
 11
590.2924718406706
 21
279.6864642731772
 31
0.0
  0
LINE
  5
4B6C
330
1F
100
AcDbEntity
  8
AM_VIS
100
AcDbLine
 10
590.2924718406706
 20
279.6864642731772
 30
0.0
 11
590.3124452095121
 21
279.6864642731772
 31
0.0
  0
LINE
  5
4B6D
330
1F
100
AcDbEntity
  8
AM_VIS
100
AcDbLine
 10
590.3124452095121
 20
279.6864642731772
 30
0.0
 11
591.1593160483936
 21
278.9913910374915
 31
0.0
  0
SPLINE
  5
4B6E
330
1F
100
AcDbEntity
  8
AM_VIS
100
AcDbSpline
210
0.0
220
0.0
230
1.0
 70
     8
 71
     3
 72
     8
 73
     4
 74
     0
 42
0.0000000001
 43
0.0000000001
 40
0.0
 40
0.0
 40
0.0
 40
0.0
 40
80.0
 40
80.0
 40
80.0
 40
80.0
 10
591.1593160483936
 20
278.9913910374915
 30
0.0
 10
591.6093825856538
 20
278.6238810508071
 30
0.0
 10
592.0048552887164
 20
278.4294736347186
 30
0.0
 10
592.3457341575812
 20
278.4081686673184
 30
0.0
  0
SPLINE
  5
4B6F
330
1F
100
AcDbEntity
  8
AM_VIS
100
AcDbSpline
210
0.0
220
0.0
230
1.0
 70
     8
 71
     3
 72
     8
 73
     4
 74
     0
 42
0.0000000001
 43
0.0000000001
 40
0.0
 40
0.0
 40
0.0
 40
0.0
 40
80.0
 40
80.0
 40
80.0
 40
80.0
 10
592.3457341575812
 20
278.4081686673184
 30
0.0
 10
592.5135104558503
 20
278.3975162445722
 30
0.0
 10
592.6693027328144
 20
278.4414576560235
 30
0.0
 10
592.8131109884734
 20
278.5399929016726
 30
0.0
  0
SPLINE
  5
4B70
330
1F
100
AcDbEntity
  8
AM_VIS
100
AcDbSpline
210
0.0
220
0.0
230
1.0
 70
     8
 71
     3
 72
     8
 73
     4
 74
     0
 42
0.0000000001
 43
0.0000000001
 40
0.0
 40
0.0
 40
0.0
 40
0.0
 40
80.0
 40
80.0
 40
80.0
 40
80.0
 10
592.8131109884734
 20
278.5399929016726
 30
0.0
 10
592.9915397094887
 20
278.6571700395123
 30
0.0
 10
593.0807541309502
 20
278.8249463377812
 30
0.0
 10
593.0807541309502
 20
279.0433217964795
 30
0.0
  0
SPLINE
  5
4B71
330
1F
100
AcDbEntity
  8
AM_VIS
100
AcDbSpline
210
0.0
220
0.0
230
1.0
 70
     8
 71
     3
 72
     8
 73
     4
 74
     0
 42
0.0000000001
 43
0.0000000001
 40
0.0
 40
0.0
 40
0.0
 40
0.0
 40
80.0
 40
80.0
 40
80.0
 40
80.0
 10
593.0807541309502
 20
279.0433217964795
 30
0.0
 10
593.0807541309502
 20
279.1977825358388
 30
0.0
 10
593.0021921931889
 20
279.3229489602611
 30
0.0
 10
592.8450683786199
 20
279.4188211307006
 30
0.0
  0
SPLINE
  5
4B72
330
1F
100
AcDbEntity
  8
AM_VIS
100
AcDbSpline
210
0.0
220
0.0
230
1.0
 70
     8
 71
     3
 72
     8
 73
     4
 74
     0
 42
0.0000000001
 43
0.0000000001
 40
0.0
 40
0.0
 40
0.0
 40
0.0
 40
80.0
 40
80.0
 40
80.0
 40
80.0
 10
592.8450683786199
 20
279.4188211307006
 30
0.0
 10
592.7918060210733
 20
279.450778520847
 30
0.0
 10
592.6506609015777
 20
279.5093670897669
 30
0.0
 10
592.4216329591793
 20
279.5945867765062
 30
0.0
  0
LINE
  5
4B73
330
1F
100
AcDbEntity
  8
AM_VIS
100
AcDbLine
 10
592.4216329591793
 20
279.5945867765062
 30
0.0
 11
592.4336169804842
 21
279.6744802518723
 31
0.0
  0
SPLINE
  5
4B74
330
1F
100
AcDbEntity
  8
AM_VIS
100
AcDbSpline
210
0.0
220
0.0
230
1.0
 70
     8
 71
     3
 72
     8
 73
     4
 74
     0
 42
0.0000000001
 43
0.0000000001
 40
0.0
 40
0.0
 40
0.0
 40
0.0
 40
80.0
 40
80.0
 40
80.0
 40
80.0
 10
592.4336169804842
 20
279.6744802518723
 30
0.0
 10
592.7372121868756
 20
279.6212179552794
 30
0.0
 10
592.9622454555057
 20
279.5133617635352
 30
0.0
 10
593.1087168473283
 20
279.3509116766393
 30
0.0
  0
SPLINE
  5
4B75
330
1F
100
AcDbEntity
  8
AM_VIS
100
AcDbSpline
210
0.0
220
0.0
230
1.0
 70
     8
 71
     3
 72
     8
 73
     4
 74
     0
 42
0.0000000001
 43
0.0000000001
 40
0.0
 40
0.0
 40
0.0
 40
0.0
 40
80.0
 40
80.0
 40
80.0
 40
80.0
 10
593.1087168473283
 20
279.3509116766393
 30
0.0
 10
593.2312201355872
 20
279.2150927685168
 30
0.0
 10
593.2924718406706
 20
279.0553058177844
 30
0.0
 10
593.2924718406706
 20
278.8715508244422
 30
0.0
  0
SPLINE
  5
4B76
330
1F
100
AcDbEntity
  8
AM_VIS
100
AcDbSpline
210
0.0
220
0.0
230
1.0
 70
     8
 71
     3
 72
     8
 73
     4
 74
     0
 42
0.0000000001
 43
0.0000000001
 40
0.0
 40
0.0
 40
0.0
 40
0.0
 40
80.0
 40
80.0
 40
80.0
 40
80.0
 10
593.2924718406706
 20
278.8715508244422
 30
0.0
 10
593.2924718406706
 20
278.6824696197269
 30
0.0
 10
593.2232307880505
 20
278.5213511313898
 30
0.0
 10
593.0847488047184
 20
278.3881952984768
 30
0.0
  0
SPLINE
  5
4B77
330
1F
100
AcDbEntity
  8
AM_VIS
100
AcDbSpline
210
0.0
220
0.0
230
1.0
 70
     8
 71
     3
 72
     8
 73
     4
 74
     0
 42
0.0000000001
 43
0.0000000001
 40
0.0
 40
0.0
 40
0.0
 40
0.0
 40
80.0
 40
80.0
 40
80.0
 40
80.0
 10
593.0847488047184
 20
278.3881952984768
 30
0.0
 10
592.9302880653592
 20
278.2443870428177
 30
0.0
 10
592.7358805883169
 20
278.1724829149882
 30
0.0
 10
592.5015264345454
 20
278.1724829149882
 30
0.0
  0
SPLINE
  5
4B78
330
1F
100
AcDbEntity
  8
AM_VIS
100
AcDbSpline
210
0.0
220
0.0
230
1.0
 70
     8
 71
     3
 72
     8
 73
     4
 74
     0
 42
0.0000000001
 43
0.0000000001
 40
0.0
 40
0.0
 40
0.0
 40
0.0
 40
80.0
 40
80.0
 40
80.0
 40
80.0
 10
592.5015264345454
 20
278.1724829149882
 30
0.0
 10
592.1207008279973
 20
278.1724829149882
 30
0.0
 10
591.7611801888495
 20
278.3122964968789
 30
0.0
 10
591.4229645171019
 20
278.5919236606606
 30
0.0
  0
LINE
  5
4B79
330
1F
100
AcDbEntity
  8
AM_VIS
100
AcDbLine
 10
591.4229645171019
 20
278.5919236606606
 30
0.0
 11
590.5121788979275
 21
279.3389276553344
 31
0.0
  0
LINE
  5
4B7A
330
1F
100
AcDbEntity
  8
AM_VIS
100
AcDbLine
 10
590.5121788979275
 20
279.3389276553344
 30
0.0
 11
590.5121788979275
 21
278.4441207312332
 31
0.0
  0
SPLINE
  5
4B7B
330
1F
100
AcDbEntity
  8
AM_VIS
100
AcDbSpline
210
0.0
220
0.0
230
1.0
 70
     8
 71
     3
 72
     8
 73
     4
 74
     0
 42
0.0000000001
 43
0.0000000001
 40
0.0
 40
0.0
 40
0.0
 40
0.0
 40
80.0
 40
80.0
 40
80.0
 40
80.0
 10
590.5121788979275
 20
278.4441207312332
 30
0.0
 10
590.5121788979275
 20
278.3562379083304
 30
0.0
 10
590.5374784781422
 20
278.2883284542691
 30
0.0
 10
590.5880776995254
 20
278.2403923690494
 30
0.0
  0
SPLINE
  5
4B7C
330
1F
100
AcDbEntity
  8
AM_VIS
100
AcDbSpline
210
0.0
220
0.0
230
1.0
 70
     8
 71
     3
 72
     8
 73
     4
 74
     0
 42
0.0000000001
 43
0.0000000001
 40
0.0
 40
0.0
 40
0.0
 40
0.0
 40
80.0
 40
80.0
 40
80.0
 40
80.0
 10
590.5880776995254
 20
278.2403923690494
 30
0.0
 10
590.6280243762546
 20
278.1951194199932
 30
0.0
 10
590.7238966076479
 20
278.1338677758638
 30
0.0
 10
590.8756942108436
 20
278.0566373757072
 30
0.0
  0
LINE
  5
4B7D
330
1F
100
AcDbEntity
  8
AM_VIS
100
AcDbLine
 10
590.8756942108436
 20
278.0566373757072
 30
0.0
 11
590.8756942108436
 21
277.9767439003411
 31
0.0
  0
SPLINE
  5
4B7E
330
1F
100
AcDbEntity
  8
AM_VIS
100
AcDbSpline
210
0.0
220
0.0
230
1.0
 70
     8
 71
     3
 72
     8
 73
     4
 74
     0
 42
0.0000000001
 43
0.0000000001
 40
0.0
 40
0.0
 40
0.0
 40
0.0
 40
80.0
 40
80.0
 40
80.0
 40
80.0
 10
592.4695690443988
 20
280.5553058177844
 30
0.0
 10
592.7465330720171
 20
280.5553058787383
 30
0.0
 10
592.931619602964
 20
280.6778091669972
 30
0.0
 10
593.0248286981939
 20
280.9228158044689
 30
0.0
  0
SPLINE
  5
4B7F
330
1F
100
AcDbEntity
  8
AM_VIS
100
AcDbSpline
210
0.0
220
0.0
230
1.0
 70
     8
 71
     3
 72
     8
 73
     4
 74
     0
 42
0.0000000001
 43
0.0000000001
 40
0.0
 40
0.0
 40
0.0
 40
0.0
 40
80.0
 40
80.0
 40
80.0
 40
80.0
 10
593.0248286981939
 20
280.9228158044689
 30
0.0
 10
593.0834172061597
 20
281.0612978487549
 30
0.0
 10
593.1073852487696
 20
281.222416337092
 30
0.0
 10
593.0967328260235
 20
281.4061713304342
 30
0.0
  0
SPLINE
  5
4B80
330
1F
100
AcDbEntity
  8
AM_VIS
100
AcDbSpline
210
0.0
220
0.0
230
1.0
 70
     8
 71
     3
 72
     8
 73
     4
 74
     0
 42
0.0000000001
 43
0.0000000001
 40
0.0
 40
0.0
 40
0.0
 40
0.0
 40
80.0
 40
80.0
 40
80.0
 40
80.0
 10
593.0967328260235
 20
281.4061713304342
 30
0.0
 10
593.0914065536965
 20
281.5126959845738
 30
0.0
 10
593.0820856685549
 20
281.5792739010302
 30
0.0
 10
593.0687701096453
 20
281.6059050188497
 30
0.0
  0
SPLINE
  5
4B81
330
1F
100
AcDbEntity
  8
AM_VIS
100
AcDbSpline
210
0.0
220
0.0
230
1.0
 70
     8
 71
     3
 72
     8
 73
     4
 74
     0
 42
0.0000000001
 43
0.0000000001
 40
0.0
 40
0.0
 40
0.0
 40
0.0
 40
80.0
 40
80.0
 40
80.0
 40
80.0
 10
593.0687701096453
 20
281.6059050188497
 30
0.0
 10
593.0421389308719
 20
281.6485148926962
 30
0.0
 10
592.9875450357203
 20
281.6698197991426
 30
0.0
 10
592.9049884851446
 20
281.6698197991426
 30
0.0
  0
LINE
  5
4B82
330
1F
100
AcDbEntity
  8
AM_VIS
100
AcDbLine
 10
592.9049884851446
 20
281.6698197991426
 30
0.0
 11
591.8104478726279
 21
281.6698197991426
 31
0.0
  0
SPLINE
  5
4B83
330
1F
100
AcDbEntity
  8
AM_VIS
100
AcDbSpline
210
0.0
220
0.0
230
1.0
 70
     8
 71
     3
 72
     8
 73
     4
 74
     0
 42
0.0000000001
 43
0.0000000001
 40
0.0
 40
0.0
 40
0.0
 40
0.0
 40
80.0
 40
80.0
 40
80.0
 40
80.0
 10
591.8104478726279
 20
281.6698197991426
 30
0.0
 10
591.8131109478375
 20
281.3529090338414
 30
0.0
 10
591.8410736642157
 20
281.1212179552795
 30
0.0
 10
591.8943360217624
 20
280.9747465634568
 30
0.0
  0
SPLINE
  5
4B84
330
1F
100
AcDbEntity
  8
AM_VIS
100
AcDbSpline
210
0.0
220
0.0
230
1.0
 70
     8
 71
     3
 72
     8
 73
     4
 74
     0
 42
0.0000000001
 43
0.0000000001
 40
0.0
 40
0.0
 40
0.0
 40
0.0
 40
80.0
 40
80.0
 40
80.0
 40
80.0
 10
591.8943360217624
 20
280.9747465634568
 30
0.0
 10
591.9928712674114
 20
280.6951194606291
 30
0.0
 10
592.1846156082903
 20
280.5553058787383
 30
0.0
 10
592.4695690443988
 20
280.5553058177844
 30
0.0
  0
LINE
  5
4B85
330
1F
100
AcDbEntity
  8
AM_VIS
100
AcDbLine
 10
590.2924718406706
 20
279.8362645394888
 30
0.0
 11
590.2924718406706
 21
280.3875295195155
 31
0.0
  0
LINE
  5
4B86
330
1F
100
AcDbEntity
  8
AM_VIS
100
AcDbLine
 10
590.2924718406706
 20
280.3875295195155
 30
0.0
 11
591.6866129858103
 21
281.3342672026047
 31
0.0
  0
LINE
  5
4B87
330
1F
100
AcDbEntity
  8
AM_VIS
100
AcDbLine
 10
591.6866129858103
 20
281.3342672026047
 30
0.0
 11
591.6706342907371
 21
281.6698197991426
 31
0.0
  0
LINE
  5
4B88
330
1F
100
AcDbEntity
  8
AM_VIS
100
AcDbLine
 10
591.6706342907371
 20
281.6698197991426
 30
0.0
 11
590.815774104319
 21
281.6698197991426
 31
0.0
  0
SPLINE
  5
4B89
330
1F
100
AcDbEntity
  8
AM_VIS
100
AcDbSpline
210
0.0
220
0.0
230
1.0
 70
     8
 71
     3
 72
     8
 73
     4
 74
     0
 42
0.0000000001
 43
0.0000000001
 40
0.0
 40
0.0
 40
0.0
 40
0.0
 40
80.0
 40
80.0
 40
80.0
 40
80.0
 10
590.815774104319
 20
281.6698197991426
 30
0.0
 10
590.6586502287963
 20
281.6698197991426
 30
0.0
 10
590.5481309618424
 20
281.6405255451597
 30
0.0
 10
590.4842161815493
 20
281.5819369762398
 30
0.0
  0
SPLINE
  5
4B8A
330
1F
100
AcDbEntity
  8
AM_VIS
100
AcDbSpline
210
0.0
220
0.0
230
1.0
 70
     8
 71
     3
 72
     8
 73
     4
 74
     0
 42
0.0000000001
 43
0.0000000001
 40
0.0
 40
0.0
 40
0.0
 40
0.0
 40
80.0
 40
80.0
 40
80.0
 40
80.0
 10
590.4842161815493
 20
281.5819369762398
 30
0.0
 10
590.42296453742
 20
281.5260116044374
 30
0.0
 10
590.3856809359004
 20
281.4208184879027
 30
0.0
 10
590.3723653160368
 20
281.2663577485434
 30
0.0
  0
LINE
  5
4B8B
330
1F
100
AcDbEntity
  8
AM_VIS
100
AcDbLine
 10
590.3723653160368
 20
281.2663577485434
 30
0.0
 11
590.2924718406706
 21
281.2663577485434
 31
0.0
  0
LINE
  5
4B8C
330
1F
100
AcDbEntity
  8
AM_VIS
100
AcDbLine
 10
590.2924718406706
 20
281.2663577485434
 30
0.0
 11
590.2924718406706
 21
282.3049729283038
 31
0.0
  0
LINE
  5
4B8D
330
1F
100
AcDbEntity
  8
AM_VIS
100
AcDbLine
 10
590.2924718406706
 20
282.3049729283038
 30
0.0
 11
590.3723653160368
 21
282.3049729283038
 31
0.0
  0
SPLINE
  5
4B8E
330
1F
100
AcDbEntity
  8
AM_VIS
100
AcDbSpline
210
0.0
220
0.0
230
1.0
 70
     8
 71
     3
 72
     8
 73
     4
 74
     0
 42
0.0000000001
 43
0.0000000001
 40
0.0
 40
0.0
 40
0.0
 40
0.0
 40
80.0
 40
80.0
 40
80.0
 40
80.0
 10
590.3723653160368
 20
282.3049729283038
 30
0.0
 10
590.38834401111
 20
282.1505122498984
 30
0.0
 10
590.4309538849566
 20
282.0479822695272
 30
0.0
 10
590.5001948766225
 20
281.997383048144
 30
0.0
  0
SPLINE
  5
4B8F
330
1F
100
AcDbEntity
  8
AM_VIS
100
AcDbSpline
210
0.0
220
0.0
230
1.0
 70
     8
 71
     3
 72
     8
 73
     4
 74
     0
 42
0.0000000001
 43
0.0000000001
 40
0.0
 40
0.0
 40
0.0
 40
0.0
 40
80.0
 40
80.0
 40
80.0
 40
80.0
 10
590.5001948766225
 20
281.997383048144
 30
0.0
 10
590.5667727321251
 20
281.9467838877146
 30
0.0
 10
590.6906076189427
 20
281.9214843075
 30
0.0
 10
590.8716995370753
 20
281.9214842465461
 30
0.0
  0
LINE
  5
4B90
330
1F
100
AcDbEntity
  8
AM_VIS
100
AcDbLine
 10
590.8716995370753
 20
281.9214842465461
 30
0.0
 11
592.7012601229608
 21
281.9214842465461
 31
0.0
  0
SPLINE
  5
4B91
330
1F
100
AcDbEntity
  8
AM_VIS
100
AcDbSpline
210
0.0
220
0.0
230
1.0
 70
     8
 71
     3
 72
     8
 73
     4
 74
     0
 42
0.0000000001
 43
0.0000000001
 40
0.0
 40
0.0
 40
0.0
 40
0.0
 40
80.0
 40
80.0
 40
80.0
 40
80.0
 10
592.7012601229608
 20
281.9214842465461
 30
0.0
 10
592.8690364212298
 20
281.9214843075
 30
0.0
 10
592.9848819605108
 20
281.9507785614829
 30
0.0
 10
593.0487967408037
 20
282.0093670694489
 30
0.0
  0
SPLINE
  5
4B92
330
1F
100
AcDbEntity
  8
AM_VIS
100
AcDbSpline
210
0.0
220
0.0
230
1.0
 70
     8
 71
     3
 72
     8
 73
     4
 74
     0
 42
0.0000000001
 43
0.0000000001
 40
0.0
 40
0.0
 40
0.0
 40
0.0
 40
80.0
 40
80.0
 40
80.0
 40
80.0
 10
593.0487967408037
 20
282.0093670694489
 30
0.0
 10
593.1020590373966
 20
282.0573031546686
 30
0.0
 10
593.1366795637066
 20
282.1558384612715
 30
0.0
 10
593.1526582587797
 20
282.3049729283038
 30
0.0
  0
LINE
  5
4B93
330
1F
100
AcDbEntity
  8
AM_VIS
100
AcDbLine
 10
593.1526582587797
 20
282.3049729283038
 30
0.0
 11
593.2325517341459
 21
282.3049729283038
 31
0.0
  0
LINE
  5
4B94
330
1F
100
AcDbEntity
  8
AM_VIS
100
AcDbLine
 10
593.2325517341459
 20
282.3049729283038
 30
0.0
 11
593.2325517341459
 21
281.2423897059336
 31
0.0
  0
SPLINE
  5
4B95
330
1F
100
AcDbEntity
  8
AM_VIS
100
AcDbSpline
210
0.0
220
0.0
230
1.0
 70
     8
 71
     3
 72
     8
 73
     4
 74
     0
 42
0.0000000001
 43
0.0000000001
 40
0.0
 40
0.0
 40
0.0
 40
0.0
 40
80.0
 40
80.0
 40
80.0
 40
80.0
 10
593.2325517341459
 20
281.2423897059336
 30
0.0
 10
593.2325517341459
 20
280.9947199322984
 30
0.0
 10
593.1899418602993
 20
280.7909915701147
 30
0.0
 10
593.10472217356
 20
280.6312046193823
 30
0.0
  0
SPLINE
  5
4B96
330
1F
100
AcDbEntity
  8
AM_VIS
100
AcDbSpline
210
0.0
220
0.0
230
1.0
 70
     8
 71
     3
 72
     8
 73
     4
 74
     0
 42
0.0000000001
 43
0.0000000001
 40
0.0
 40
0.0
 40
0.0
 40
0.0
 40
80.0
 40
80.0
 40
80.0
 40
80.0
 10
593.10472217356
 20
280.6312046193823
 30
0.0
 10
592.9768926129741
 20
280.3941873294473
 30
0.0
 10
592.7625117670902
 20
280.2756786540028
 30
0.0
 10
592.4615796968623
 20
280.2756786540028
 30
0.0
  0
SPLINE
  5
4B97
330
1F
100
AcDbEntity
  8
AM_VIS
100
AcDbSpline
210
0.0
220
0.0
230
1.0
 70
     8
 71
     3
 72
     8
 73
     4
 74
     0
 42
0.0000000001
 43
0.0000000001
 40
0.0
 40
0.0
 40
0.0
 40
0.0
 40
80.0
 40
80.0
 40
80.0
 40
80.0
 10
592.4615796968623
 20
280.2756786540028
 30
0.0
 10
592.2085836509002
 20
280.2756786540028
 30
0.0
 10
592.0195024461848
 20
280.3702192868374
 30
0.0
 10
591.8943360217624
 20
280.5593004915527
 30
0.0
  0
SPLINE
  5
4B98
330
1F
100
AcDbEntity
  8
AM_VIS
100
AcDbSpline
210
0.0
220
0.0
230
1.0
 70
     8
 71
     3
 72
     8
 73
     4
 74
     0
 42
0.0000000001
 43
0.0000000001
 40
0.0
 40
0.0
 40
0.0
 40
0.0
 40
80.0
 40
80.0
 40
80.0
 40
80.0
 10
591.8943360217624
 20
280.5593004915527
 30
0.0
 10
591.8224318939328
 20
280.6658251456923
 30
0.0
 10
591.7678379987814
 20
280.8189542864928
 30
0.0
 10
591.7305543972617
 20
281.0186879749083
 30
0.0
  0
LINE
  5
4B99
330
1F
100
AcDbEntity
  8
AM_VIS
100
AcDbLine
 10
591.7305543972617
 20
281.0186879749083
 30
0.0
 11
590.5321522667691
 21
280.2117638737099
 31
0.0
  0
SPLINE
  5
4B9A
330
1F
100
AcDbEntity
  8
AM_VIS
100
AcDbSpline
210
0.0
220
0.0
230
1.0
 70
     8
 71
     3
 72
     8
 73
     4
 74
     0
 42
0.0000000001
 43
0.0000000001
 40
0.0
 40
0.0
 40
0.0
 40
0.0
 40
80.0
 40
80.0
 40
80.0
 40
80.0
 10
590.5321522667691
 20
280.2117638737099
 30
0.0
 10
590.4495957161933
 20
280.158501577117
 30
0.0
 10
590.3963333586466
 20
280.0333351526947
 30
0.0
 10
590.3723653160368
 20
279.8362645394888
 30
0.0
  0
LINE
  5
4B9B
330
1F
100
AcDbEntity
  8
AM_VIS
100
AcDbLine
 10
590.3723653160368
 20
279.8362645394888
 30
0.0
 11
590.2924718406706
 21
279.8362645394888
 31
0.0
  0
SPLINE
  5
4B9C
330
1F
100
AcDbEntity
  8
AM_VIS
100
AcDbSpline
210
0.0
220
0.0
230
1.0
 70
     8
 71
     3
 72
     8
 73
     4
 74
     0
 42
0.0000000001
 43
0.0000000001
 40
0.0
 40
0.0
 40
0.0
 40
0.0
 40
80.0
 40
80.0
 40
80.0
 40
80.0
 10
640.107689231975
 20
301.9039178133551
 30
0.0
 10
639.6566023169173
 20
301.9039177511589
 30
0.0
 10
639.4310587971922
 20
301.5900590555067
 30
0.0
 10
639.4310587971922
 20
300.9623417263985
 30
0.0
  0
SPLINE
  5
4B9D
330
1F
100
AcDbEntity
  8
AM_VIS
100
AcDbSpline
210
0.0
220
0.0
230
1.0
 70
     8
 71
     3
 72
     8
 73
     4
 74
     0
 42
0.0000000001
 43
0.0000000001
 40
0.0
 40
0.0
 40
0.0
 40
0.0
 40
80.0
 40
80.0
 40
80.0
 40
80.0
 10
639.4310587971922
 20
300.9623417263985
 30
0.0
 10
639.4310587971922
 20
300.8835373371084
 30
0.0
 10
639.4392109711053
 20
300.8332656187099
 30
0.0
 10
639.4555153189314
 20
300.8115265090072
 30
0.0
  0
SPLINE
  5
4B9E
330
1F
100
AcDbEntity
  8
AM_VIS
100
AcDbSpline
210
0.0
220
0.0
230
1.0
 70
     8
 71
     3
 72
     8
 73
     4
 74
     0
 42
0.0000000001
 43
0.0000000001
 40
0.0
 40
0.0
 40
0.0
 40
0.0
 40
80.0
 40
80.0
 40
80.0
 40
80.0
 10
639.4555153189314
 20
300.8115265090072
 30
0.0
 10
639.4826892527069
 20
300.7843525752317
 30
0.0
 10
639.537037058062
 20
300.770765639442
 30
0.0
 10
639.6185587971922
 20
300.770765639442
 30
0.0
  0
LINE
  5
4B9F
330
1F
100
AcDbEntity
  8
AM_VIS
100
AcDbLine
 10
639.6185587971922
 20
300.770765639442
 30
0.0
 11
640.8047001015402
 21
300.770765639442
 31
0.0
  0
SPLINE
  5
4BA0
330
1F
100
AcDbEntity
  8
AM_VIS
100
AcDbSpline
210
0.0
220
0.0
230
1.0
 70
     8
 71
     3
 72
     8
 73
     4
 74
     0
 42
0.0000000001
 43
0.0000000001
 40
0.0
 40
0.0
 40
0.0
 40
0.0
 40
80.0
 40
80.0
 40
80.0
 40
80.0
 10
640.8047001015402
 20
300.770765639442
 30
0.0
 10
640.8155696874896
 20
300.8604394902893
 30
0.0
 10
640.8210044493662
 20
300.9677764882752
 30
0.0
 10
640.8210044493662
 20
301.0927765090072
 30
0.0
  0
SPLINE
  5
4BA1
330
1F
100
AcDbEntity
  8
AM_VIS
100
AcDbSpline
210
0.0
220
0.0
230
1.0
 70
     8
 71
     3
 72
     8
 73
     4
 74
     0
 42
0.0000000001
 43
0.0000000001
 40
0.0
 40
0.0
 40
0.0
 40
0.0
 40
80.0
 40
80.0
 40
80.0
 40
80.0
 10
640.8210044493662
 20
301.0927765090072
 30
0.0
 10
640.8210044493662
 20
301.6335373371084
 30
0.0
 10
640.5832327309679
 20
301.9039177511589
 30
0.0
 10
640.107689231975
 20
301.9039178133551
 30
0.0
  0
SPLINE
  5
4BA2
330
1F
100
AcDbEntity
  8
AM_VIS
100
AcDbSpline
210
0.0
220
0.0
230
1.0
 70
     8
 71
     3
 72
     8
 73
     4
 74
     0
 42
0.0000000001
 43
0.0000000001
 40
0.0
 40
0.0
 40
0.0
 40
0.0
 40
80.0
 40
80.0
 40
80.0
 40
80.0
 10
640.0995370580619
 20
302.1892439003116
 30
0.0
 10
640.3413849256129
 20
302.1892439003116
 30
0.0
 10
640.5411131864825
 20
302.1131569230578
 30
0.0
 10
640.6987218406706
 20
301.9609830307463
 30
0.0
  0
SPLINE
  5
4BA3
330
1F
100
AcDbEntity
  8
AM_VIS
100
AcDbSpline
210
0.0
220
0.0
230
1.0
 70
     8
 71
     3
 72
     8
 73
     4
 74
     0
 42
0.0000000001
 43
0.0000000001
 40
0.0
 40
0.0
 40
0.0
 40
0.0
 40
80.0
 40
80.0
 40
80.0
 40
80.0
 10
640.6987218406706
 20
301.9609830307463
 30
0.0
 10
640.8726349048809
 20
301.7925047284127
 30
0.0
 10
640.9595914058879
 20
301.5126134033328
 30
0.0
 10
640.9595914058879
 20
301.1213091177029
 30
0.0
  0
LINE
  5
4BA4
330
1F
100
AcDbEntity
  8
AM_VIS
100
AcDbLine
 10
640.9538401345512
 20
300.7707190352592
 30
0.0
 11
640.9606450800179
 21
301.1212886647189
 31
0.0
  0
LINE
  5
4BA5
330
1F
100
AcDbEntity
  8
AM_VIS
100
AcDbLine
 10
640.9514392319749
 20
300.770765639442
 30
0.0
 11
641.7585044493662
 21
300.770765639442
 31
0.0
  0
SPLINE
  5
4BA6
330
1F
100
AcDbEntity
  8
AM_VIS
100
AcDbSpline
210
0.0
220
0.0
230
1.0
 70
     8
 71
     3
 72
     8
 73
     4
 74
     0
 42
0.0000000001
 43
0.0000000001
 40
0.0
 40
0.0
 40
0.0
 40
0.0
 40
80.0
 40
80.0
 40
80.0
 40
80.0
 10
641.7585044493662
 20
300.770765639442
 30
0.0
 10
641.9242653396635
 20
300.770765639442
 30
0.0
 10
642.0411131864825
 20
300.8047330100143
 30
0.0
 10
642.1090479276271
 20
300.8726678133551
 30
0.0
  0
SPLINE
  5
4BA7
330
1F
100
AcDbEntity
  8
AM_VIS
100
AcDbSpline
210
0.0
220
0.0
230
1.0
 70
     8
 71
     3
 72
     8
 73
     4
 74
     0
 42
0.0000000001
 43
0.0000000001
 40
0.0
 40
0.0
 40
0.0
 40
0.0
 40
80.0
 40
80.0
 40
80.0
 40
80.0
 10
642.1090479276271
 20
300.8726678133551
 30
0.0
 10
642.1661130828222
 20
300.9297330307463
 30
0.0
 10
642.2000805155907
 20
301.0384286414562
 30
0.0
 10
642.2109501015402
 20
301.1987547698768
 30
0.0
  0
LINE
  5
4BA8
330
1F
100
AcDbEntity
  8
AM_VIS
100
AcDbLine
 10
642.2109501015402
 20
301.1987547698768
 30
0.0
 11
642.2924718406705
 21
301.1987547698768
 31
0.0
  0
LINE
  5
4BA9
330
1F
100
AcDbEntity
  8
AM_VIS
100
AcDbLine
 10
642.2924718406705
 20
301.1987547698768
 30
0.0
 11
642.2924718406705
 21
300.1267439003115
 31
0.0
  0
LINE
  5
4BAA
330
1F
100
AcDbEntity
  8
AM_VIS
100
AcDbLine
 10
642.2924718406705
 20
300.1267439003115
 30
0.0
 11
642.2109501015402
 21
300.1267439003115
 31
0.0
  0
SPLINE
  5
4BAB
330
1F
100
AcDbEntity
  8
AM_VIS
100
AcDbSpline
210
0.0
220
0.0
230
1.0
 70
     8
 71
     3
 72
     8
 73
     4
 74
     0
 42
0.0000000001
 43
0.0000000001
 40
0.0
 40
0.0
 40
0.0
 40
0.0
 40
80.0
 40
80.0
 40
80.0
 40
80.0
 10
642.2109501015402
 20
300.1267439003115
 30
0.0
 10
642.1946457537139
 20
300.287069966536
 30
0.0
 10
642.1484500600761
 20
300.3930482274056
 30
0.0
 10
642.0723631450185
 20
300.4446786829202
 30
0.0
  0
SPLINE
  5
4BAC
330
1F
100
AcDbEntity
  8
AM_VIS
100
AcDbSpline
210
0.0
220
0.0
230
1.0
 70
     8
 71
     3
 72
     8
 73
     4
 74
     0
 42
0.0000000001
 43
0.0000000001
 40
0.0
 40
0.0
 40
0.0
 40
0.0
 40
80.0
 40
80.0
 40
80.0
 40
80.0
 10
642.0723631450185
 20
300.4446786829202
 30
0.0
 10
642.0071457537139
 20
300.4908743143622
 30
0.0
 10
641.8835044700982
 20
300.5139721611811
 30
0.0
 10
641.701439231975
 20
300.5139721611811
 30
0.0
  0
LINE
  5
4BAD
330
1F
100
AcDbEntity
  8
AM_VIS
100
AcDbLine
 10
641.701439231975
 20
300.5139721611811
 30
0.0
 11
639.7979066232792
 21
300.5139721611811
 31
0.0
  0
SPLINE
  5
4BAE
330
1F
100
AcDbEntity
  8
AM_VIS
100
AcDbSpline
210
0.0
220
0.0
230
1.0
 70
     8
 71
     3
 72
     8
 73
     4
 74
     0
 42
0.0000000001
 43
0.0000000001
 40
0.0
 40
0.0
 40
0.0
 40
0.0
 40
80.0
 40
80.0
 40
80.0
 40
80.0
 10
639.7979066232792
 20
300.5139721611811
 30
0.0
 10
639.6348631450185
 20
300.5139721611811
 30
0.0
 10
639.5275262092286
 20
300.4881569023257
 30
0.0
 10
639.4758957537139
 20
300.4365265090072
 30
0.0
  0
SPLINE
  5
4BAF
330
1F
100
AcDbEntity
  8
AM_VIS
100
AcDbSpline
210
0.0
220
0.0
230
1.0
 70
     8
 71
     3
 72
     8
 73
     4
 74
     0
 42
0.0000000001
 43
0.0000000001
 40
0.0
 40
0.0
 40
0.0
 40
0.0
 40
80.0
 40
80.0
 40
80.0
 40
80.0
 10
639.4758957537139
 20
300.4365265090072
 30
0.0
 10
639.4269827102357
 20
300.387613465529
 30
0.0
 10
639.3930153396635
 20
300.2843525544996
 30
0.0
 10
639.3739935798009
 20
300.1267439003115
 30
0.0
  0
LINE
  5
4BB0
330
1F
100
AcDbEntity
  8
AM_VIS
100
AcDbLine
 10
639.3739935798009
 20
300.1267439003115
 30
0.0
 11
639.2924718406706
 21
300.1267439003115
 31
0.0
  0
LINE
  5
4BB1
330
1F
100
AcDbEntity
  8
AM_VIS
100
AcDbLine
 10
639.2924718406706
 20
300.1267439003115
 30
0.0
 11
639.2924718406706
 21
301.1620699872681
 31
0.0
  0
SPLINE
  5
4BB2
330
1F
100
AcDbEntity
  8
AM_VIS
100
AcDbSpline
210
0.0
220
0.0
230
1.0
 70
     8
 71
     3
 72
     8
 73
     4
 74
     0
 42
0.0000000001
 43
0.0000000001
 40
0.0
 40
0.0
 40
0.0
 40
0.0
 40
80.0
 40
80.0
 40
80.0
 40
80.0
 10
639.2924718406706
 20
301.1620699872681
 30
0.0
 10
639.2924718406706
 20
301.4582655979779
 30
0.0
 10
639.3549718821347
 20
301.6973960534925
 30
0.0
 10
639.4799718406706
 20
301.8794612916159
 30
0.0
  0
SPLINE
  5
4BB3
330
1F
100
AcDbEntity
  8
AM_VIS
100
AcDbSpline
210
0.0
220
0.0
230
1.0
 70
     8
 71
     3
 72
     8
 73
     4
 74
     0
 42
0.0000000001
 43
0.0000000001
 40
0.0
 40
0.0
 40
0.0
 40
0.0
 40
80.0
 40
80.0
 40
80.0
 40
80.0
 10
639.4799718406706
 20
301.8794612916159
 30
0.0
 10
639.623993621265
 20
302.0859829892822
 30
0.0
 10
639.8305153189315
 20
302.1892439003116
 30
0.0
 10
640.0995370580619
 20
302.1892439003116
 30
0.0
  0
LINE
  5
4BB4
330
1F
100
AcDbEntity
  8
AM_VIS
100
AcDbLine
 10
641.7092494704975
 20
282.3049729282743
 30
0.0
 11
642.2924718406704
 21
282.0972498923222
 31
0.0
  0
LINE
  5
4BB5
330
1F
100
AcDbEntity
  8
AM_VIS
100
AcDbLine
 10
642.2924718406705
 20
282.0972498923222
 30
0.0
 11
642.2924718406705
 21
280.595252555438
 31
0.0
  0
LINE
  5
4BB6
330
1F
100
AcDbEntity
  8
AM_VIS
100
AcDbLine
 10
642.2924718406705
 20
280.595252555438
 30
0.0
 11
642.272498471829
 21
280.595252555438
 31
0.0
  0
LINE
  5
4BB7
330
1F
100
AcDbEntity
  8
AM_VIS
100
AcDbLine
 10
642.272498471829
 20
280.595252555438
 30
0.0
 11
641.4256276329475
 21
281.2903257911238
 31
0.0
  0
SPLINE
  5
4BB8
330
1F
100
AcDbEntity
  8
AM_VIS
100
AcDbSpline
210
0.0
220
0.0
230
1.0
 70
     8
 71
     3
 72
     8
 73
     4
 74
     0
 42
0.0000000001
 43
0.0000000001
 40
0.0
 40
0.0
 40
0.0
 40
0.0
 40
80.0
 40
80.0
 40
80.0
 40
80.0
 10
641.4256276329475
 20
281.2903257911238
 30
0.0
 10
640.9755610956873
 20
281.6578357778082
 30
0.0
 10
640.5800883926247
 20
281.8522431938967
 30
0.0
 10
640.2392095237599
 20
281.8735481612969
 30
0.0
  0
SPLINE
  5
4BB9
330
1F
100
AcDbEntity
  8
AM_VIS
100
AcDbSpline
210
0.0
220
0.0
230
1.0
 70
     8
 71
     3
 72
     8
 73
     4
 74
     0
 42
0.0000000001
 43
0.0000000001
 40
0.0
 40
0.0
 40
0.0
 40
0.0
 40
80.0
 40
80.0
 40
80.0
 40
80.0
 10
640.2392095237599
 20
281.8735481612969
 30
0.0
 10
640.0714332254908
 20
281.8842005840431
 30
0.0
 10
639.9156409485267
 20
281.8402591725917
 30
0.0
 10
639.7718326928677
 20
281.7417239269427
 30
0.0
  0
SPLINE
  5
4BBA
330
1F
100
AcDbEntity
  8
AM_VIS
100
AcDbSpline
210
0.0
220
0.0
230
1.0
 70
     8
 71
     3
 72
     8
 73
     4
 74
     0
 42
0.0000000001
 43
0.0000000001
 40
0.0
 40
0.0
 40
0.0
 40
0.0
 40
80.0
 40
80.0
 40
80.0
 40
80.0
 10
639.7718326928677
 20
281.7417239269427
 30
0.0
 10
639.5934039718524
 20
281.6245467891031
 30
0.0
 10
639.5041895503909
 20
281.4567704908341
 30
0.0
 10
639.5041895503909
 20
281.2383950321358
 30
0.0
  0
SPLINE
  5
4BBB
330
1F
100
AcDbEntity
  8
AM_VIS
100
AcDbSpline
210
0.0
220
0.0
230
1.0
 70
     8
 71
     3
 72
     8
 73
     4
 74
     0
 42
0.0000000001
 43
0.0000000001
 40
0.0
 40
0.0
 40
0.0
 40
0.0
 40
80.0
 40
80.0
 40
80.0
 40
80.0
 10
639.5041895503909
 20
281.2383950321358
 30
0.0
 10
639.5041895503909
 20
281.0839342927766
 30
0.0
 10
639.5827514881523
 20
280.9587678683541
 30
0.0
 10
639.7398753027212
 20
280.8628956979147
 30
0.0
  0
SPLINE
  5
4BBC
330
1F
100
AcDbEntity
  8
AM_VIS
100
AcDbSpline
210
0.0
220
0.0
230
1.0
 70
     8
 71
     3
 72
     8
 73
     4
 74
     0
 42
0.0000000001
 43
0.0000000001
 40
0.0
 40
0.0
 40
0.0
 40
0.0
 40
80.0
 40
80.0
 40
80.0
 40
80.0
 10
639.7398753027212
 20
280.8628956979147
 30
0.0
 10
639.7931376602677
 20
280.8309383077683
 30
0.0
 10
639.9342827797635
 20
280.7723497388484
 30
0.0
 10
640.1633107221619
 20
280.6871300521092
 30
0.0
  0
LINE
  5
4BBD
330
1F
100
AcDbEntity
  8
AM_VIS
100
AcDbLine
 10
640.1633107221619
 20
280.6871300521092
 30
0.0
 11
640.151326700857
 21
280.607236576743
 31
0.0
  0
SPLINE
  5
4BBE
330
1F
100
AcDbEntity
  8
AM_VIS
100
AcDbSpline
210
0.0
220
0.0
230
1.0
 70
     8
 71
     3
 72
     8
 73
     4
 74
     0
 42
0.0000000001
 43
0.0000000001
 40
0.0
 40
0.0
 40
0.0
 40
0.0
 40
80.0
 40
80.0
 40
80.0
 40
80.0
 10
640.151326700857
 20
280.607236576743
 30
0.0
 10
639.8477314944654
 20
280.6604988733358
 30
0.0
 10
639.6226982258354
 20
280.7683550650801
 30
0.0
 10
639.4762268340127
 20
280.930805151976
 30
0.0
  0
SPLINE
  5
4BBF
330
1F
100
AcDbEntity
  8
AM_VIS
100
AcDbSpline
210
0.0
220
0.0
230
1.0
 70
     8
 71
     3
 72
     8
 73
     4
 74
     0
 42
0.0000000001
 43
0.0000000001
 40
0.0
 40
0.0
 40
0.0
 40
0.0
 40
80.0
 40
80.0
 40
80.0
 40
80.0
 10
639.4762268340127
 20
280.930805151976
 30
0.0
 10
639.3537235457538
 20
281.0666240600985
 30
0.0
 10
639.2924718406706
 20
281.2264110108309
 30
0.0
 10
639.2924718406706
 20
281.410166004173
 30
0.0
  0
SPLINE
  5
4BC0
330
1F
100
AcDbEntity
  8
AM_VIS
100
AcDbSpline
210
0.0
220
0.0
230
1.0
 70
     8
 71
     3
 72
     8
 73
     4
 74
     0
 42
0.0000000001
 43
0.0000000001
 40
0.0
 40
0.0
 40
0.0
 40
0.0
 40
80.0
 40
80.0
 40
80.0
 40
80.0
 10
639.2924718406706
 20
281.410166004173
 30
0.0
 10
639.2924718406706
 20
281.5992472088884
 30
0.0
 10
639.3617128932906
 20
281.7603656972256
 30
0.0
 10
639.5001948766226
 20
281.8935215301384
 30
0.0
  0
SPLINE
  5
4BC1
330
1F
100
AcDbEntity
  8
AM_VIS
100
AcDbSpline
210
0.0
220
0.0
230
1.0
 70
     8
 71
     3
 72
     8
 73
     4
 74
     0
 42
0.0000000001
 43
0.0000000001
 40
0.0
 40
0.0
 40
0.0
 40
0.0
 40
80.0
 40
80.0
 40
80.0
 40
80.0
 10
639.5001948766226
 20
281.8935215301384
 30
0.0
 10
639.6546556159819
 20
282.0373297857976
 30
0.0
 10
639.8490630930241
 20
282.1092339136271
 30
0.0
 10
640.0834172467957
 20
282.1092339136271
 30
0.0
  0
SPLINE
  5
4BC2
330
1F
100
AcDbEntity
  8
AM_VIS
100
AcDbSpline
210
0.0
220
0.0
230
1.0
 70
     8
 71
     3
 72
     8
 73
     4
 74
     0
 42
0.0000000001
 43
0.0000000001
 40
0.0
 40
0.0
 40
0.0
 40
0.0
 40
80.0
 40
80.0
 40
80.0
 40
80.0
 10
640.0834172467957
 20
282.1092339136271
 30
0.0
 10
640.4642428533438
 20
282.1092339136271
 30
0.0
 10
640.8237634924915
 20
281.9694203317363
 30
0.0
 10
641.1619791642391
 20
281.6897931679547
 30
0.0
  0
LINE
  5
4BC3
330
1F
100
AcDbEntity
  8
AM_VIS
100
AcDbLine
 10
641.1619791642391
 20
281.6897931679547
 30
0.0
 11
642.0727647834135
 21
280.9427891732809
 31
0.0
  0
LINE
  5
4BC4
330
1F
100
AcDbEntity
  8
AM_VIS
100
AcDbLine
 10
642.0727647834135
 20
280.9427891732809
 30
0.0
 11
642.0727647834135
 21
281.8375960973821
 31
0.0
  0
SPLINE
  5
4BC5
330
1F
100
AcDbEntity
  8
AM_VIS
100
AcDbSpline
210
0.0
220
0.0
230
1.0
 70
     8
 71
     3
 72
     8
 73
     4
 74
     0
 42
0.0000000001
 43
0.0000000001
 40
0.0
 40
0.0
 40
0.0
 40
0.0
 40
80.0
 40
80.0
 40
80.0
 40
80.0
 10
642.0727647834135
 20
281.8375960973821
 30
0.0
 10
642.0727647834135
 20
281.925478920285
 30
0.0
 10
642.0474652031989
 20
281.9933883743462
 30
0.0
 10
641.9968659818157
 20
282.0413244595659
 30
0.0
  0
SPLINE
  5
4BC6
330
1F
100
AcDbEntity
  8
AM_VIS
100
AcDbSpline
210
0.0
220
0.0
230
1.0
 70
     8
 71
     3
 72
     8
 73
     4
 74
     0
 42
0.0000000001
 43
0.0000000001
 40
0.0
 40
0.0
 40
0.0
 40
0.0
 40
80.0
 40
80.0
 40
80.0
 40
80.0
 10
641.9968659818157
 20
282.0413244595659
 30
0.0
 10
641.9569193050866
 20
282.0865974086221
 30
0.0
 10
641.8610470736933
 20
282.1478490527515
 30
0.0
 10
641.7092494704975
 20
282.2250794529081
 30
0.0
  0
LINE
  5
4BC7
330
1F
100
AcDbEntity
  8
AM_VIS
100
AcDbLine
 10
641.7092494704975
 20
282.2250794529081
 30
0.0
 11
641.7092494704975
 21
282.3049729282743
 31
0.0
  0
SPLINE
  5
4BC8
330
1F
100
AcDbEntity
  8
AM_VIS
100
AcDbSpline
210
0.0
220
0.0
230
1.0
 70
     8
 71
     3
 72
     8
 73
     4
 74
     0
 42
0.0000000001
 43
0.0000000001
 40
0.0
 40
0.0
 40
0.0
 40
0.0
 40
80.0
 40
80.0
 40
80.0
 40
80.0
 10
640.1153746369423
 20
279.7264110108309
 30
0.0
 10
639.838410609324
 20
279.726410949877
 30
0.0
 10
639.653324078377
 20
279.6039076616181
 30
0.0
 10
639.5601149831472
 20
279.3589010241465
 30
0.0
  0
SPLINE
  5
4BC9
330
1F
100
AcDbEntity
  8
AM_VIS
100
AcDbSpline
210
0.0
220
0.0
230
1.0
 70
     8
 71
     3
 72
     8
 73
     4
 74
     0
 42
0.0000000001
 43
0.0000000001
 40
0.0
 40
0.0
 40
0.0
 40
0.0
 40
80.0
 40
80.0
 40
80.0
 40
80.0
 10
639.5601149831472
 20
279.3589010241465
 30
0.0
 10
639.5015264751813
 20
279.2204189798604
 30
0.0
 10
639.4775584325714
 20
279.0593004915233
 30
0.0
 10
639.4882108553177
 20
278.875545498181
 30
0.0
  0
SPLINE
  5
4BCA
330
1F
100
AcDbEntity
  8
AM_VIS
100
AcDbSpline
210
0.0
220
0.0
230
1.0
 70
     8
 71
     3
 72
     8
 73
     4
 74
     0
 42
0.0000000001
 43
0.0000000001
 40
0.0
 40
0.0
 40
0.0
 40
0.0
 40
80.0
 40
80.0
 40
80.0
 40
80.0
 10
639.4882108553177
 20
278.875545498181
 30
0.0
 10
639.4935371276447
 20
278.7690208440415
 30
0.0
 10
639.5028580127862
 20
278.7024429275851
 30
0.0
 10
639.5161735716958
 20
278.6758118097656
 30
0.0
  0
SPLINE
  5
4BCB
330
1F
100
AcDbEntity
  8
AM_VIS
100
AcDbSpline
210
0.0
220
0.0
230
1.0
 70
     8
 71
     3
 72
     8
 73
     4
 74
     0
 42
0.0000000001
 43
0.0000000001
 40
0.0
 40
0.0
 40
0.0
 40
0.0
 40
80.0
 40
80.0
 40
80.0
 40
80.0
 10
639.5161735716958
 20
278.6758118097656
 30
0.0
 10
639.5428047504692
 20
278.633201935919
 30
0.0
 10
639.5973986456208
 20
278.6118970294727
 30
0.0
 10
639.6799551961964
 20
278.6118970294727
 30
0.0
  0
LINE
  5
4BCC
330
1F
100
AcDbEntity
  8
AM_VIS
100
AcDbLine
 10
639.6799551961964
 20
278.6118970294727
 30
0.0
 11
640.7744958087132
 21
278.6118970294727
 31
0.0
  0
SPLINE
  5
4BCD
330
1F
100
AcDbEntity
  8
AM_VIS
100
AcDbSpline
210
0.0
220
0.0
230
1.0
 70
     8
 71
     3
 72
     8
 73
     4
 74
     0
 42
0.0000000001
 43
0.0000000001
 40
0.0
 40
0.0
 40
0.0
 40
0.0
 40
80.0
 40
80.0
 40
80.0
 40
80.0
 10
640.7744958087132
 20
278.6118970294727
 30
0.0
 10
640.7718327335035
 20
278.9288077947739
 30
0.0
 10
640.7438700171253
 20
279.1604988733358
 30
0.0
 10
640.6906076595787
 20
279.3069702651584
 30
0.0
  0
SPLINE
  5
4BCE
330
1F
100
AcDbEntity
  8
AM_VIS
100
AcDbSpline
210
0.0
220
0.0
230
1.0
 70
     8
 71
     3
 72
     8
 73
     4
 74
     0
 42
0.0000000001
 43
0.0000000001
 40
0.0
 40
0.0
 40
0.0
 40
0.0
 40
80.0
 40
80.0
 40
80.0
 40
80.0
 10
640.6906076595787
 20
279.3069702651584
 30
0.0
 10
640.5920724139296
 20
279.5865973679862
 30
0.0
 10
640.4003280730507
 20
279.726410949877
 30
0.0
 10
640.1153746369423
 20
279.7264110108309
 30
0.0
  0
LINE
  5
4BCF
330
1F
100
AcDbEntity
  8
AM_VIS
100
AcDbLine
 10
642.2924718406705
 20
280.4454522891265
 30
0.0
 11
642.2924718406705
 21
279.8941873090998
 31
0.0
  0
LINE
  5
4BD0
330
1F
100
AcDbEntity
  8
AM_VIS
100
AcDbLine
 10
642.2924718406705
 20
279.8941873090998
 30
0.0
 11
640.8983306955308
 21
278.9474496260106
 31
0.0
  0
LINE
  5
4BD1
330
1F
100
AcDbEntity
  8
AM_VIS
100
AcDbLine
 10
640.8983306955308
 20
278.9474496260106
 30
0.0
 11
640.9143093906041
 21
278.6118970294727
 31
0.0
  0
LINE
  5
4BD2
330
1F
100
AcDbEntity
  8
AM_VIS
100
AcDbLine
 10
640.9143093906039
 20
278.6118970294727
 30
0.0
 11
641.7691695770221
 21
278.6118970294727
 31
0.0
  0
SPLINE
  5
4BD3
330
1F
100
AcDbEntity
  8
AM_VIS
100
AcDbSpline
210
0.0
220
0.0
230
1.0
 70
     8
 71
     3
 72
     8
 73
     4
 74
     0
 42
0.0000000001
 43
0.0000000001
 40
0.0
 40
0.0
 40
0.0
 40
0.0
 40
80.0
 40
80.0
 40
80.0
 40
80.0
 10
641.7691695770221
 20
278.6118970294727
 30
0.0
 10
641.9262934525447
 20
278.6118970294727
 30
0.0
 10
642.0368127194988
 20
278.6411912834557
 30
0.0
 10
642.1007274997917
 20
278.6997798523755
 30
0.0
  0
SPLINE
  5
4BD4
330
1F
100
AcDbEntity
  8
AM_VIS
100
AcDbSpline
210
0.0
220
0.0
230
1.0
 70
     8
 71
     3
 72
     8
 73
     4
 74
     0
 42
0.0000000001
 43
0.0000000001
 40
0.0
 40
0.0
 40
0.0
 40
0.0
 40
80.0
 40
80.0
 40
80.0
 40
80.0
 10
642.1007274997917
 20
278.6997798523755
 30
0.0
 10
642.1619791439211
 20
278.7557052241779
 30
0.0
 10
642.1992627454407
 20
278.8608983407126
 30
0.0
 10
642.2125783653044
 20
279.0153590800719
 30
0.0
  0
LINE
  5
4BD5
330
1F
100
AcDbEntity
  8
AM_VIS
100
AcDbLine
 10
642.2125783653044
 20
279.0153590800719
 30
0.0
 11
642.2924718406705
 21
279.0153590800719
 31
0.0
  0
LINE
  5
4BD6
330
1F
100
AcDbEntity
  8
AM_VIS
100
AcDbLine
 10
642.2924718406705
 20
279.0153590800719
 30
0.0
 11
642.2924718406705
 21
277.9767439003116
 31
0.0
  0
LINE
  5
4BD7
330
1F
100
AcDbEntity
  8
AM_VIS
100
AcDbLine
 10
642.2924718406704
 20
277.9767439003115
 30
0.0
 11
642.2125783653044
 21
277.9767439003115
 31
0.0
  0
SPLINE
  5
4BD8
330
1F
100
AcDbEntity
  8
AM_VIS
100
AcDbSpline
210
0.0
220
0.0
230
1.0
 70
     8
 71
     3
 72
     8
 73
     4
 74
     0
 42
0.0000000001
 43
0.0000000001
 40
0.0
 40
0.0
 40
0.0
 40
0.0
 40
80.0
 40
80.0
 40
80.0
 40
80.0
 10
642.2125783653044
 20
277.9767439003115
 30
0.0
 10
642.1965996702311
 20
278.1312045787169
 30
0.0
 10
642.1539897963846
 20
278.2337345590881
 30
0.0
 10
642.0847488047185
 20
278.2843337804713
 30
0.0
  0
SPLINE
  5
4BD9
330
1F
100
AcDbEntity
  8
AM_VIS
100
AcDbSpline
210
0.0
220
0.0
230
1.0
 70
     8
 71
     3
 72
     8
 73
     4
 74
     0
 42
0.0000000001
 43
0.0000000001
 40
0.0
 40
0.0
 40
0.0
 40
0.0
 40
80.0
 40
80.0
 40
80.0
 40
80.0
 10
642.0847488047185
 20
278.2843337804713
 30
0.0
 10
642.018170949216
 20
278.3349329409007
 30
0.0
 10
641.8943360623984
 20
278.3602325211153
 30
0.0
 10
641.7132441442658
 20
278.3602325820692
 30
0.0
  0
LINE
  5
4BDA
330
1F
100
AcDbEntity
  8
AM_VIS
100
AcDbLine
 10
641.7132441442658
 20
278.3602325820692
 30
0.0
 11
639.8836835583803
 21
278.3602325820692
 31
0.0
  0
SPLINE
  5
4BDB
330
1F
100
AcDbEntity
  8
AM_VIS
100
AcDbSpline
210
0.0
220
0.0
230
1.0
 70
     8
 71
     3
 72
     8
 73
     4
 74
     0
 42
0.0000000001
 43
0.0000000001
 40
0.0
 40
0.0
 40
0.0
 40
0.0
 40
80.0
 40
80.0
 40
80.0
 40
80.0
 10
639.8836835583803
 20
278.3602325820692
 30
0.0
 10
639.7159072601113
 20
278.3602325211153
 30
0.0
 10
639.6000617208303
 20
278.3309382671323
 30
0.0
 10
639.5361469405375
 20
278.2723497591665
 30
0.0
  0
SPLINE
  5
4BDC
330
1F
100
AcDbEntity
  8
AM_VIS
100
AcDbSpline
210
0.0
220
0.0
230
1.0
 70
     8
 71
     3
 72
     8
 73
     4
 74
     0
 42
0.0000000001
 43
0.0000000001
 40
0.0
 40
0.0
 40
0.0
 40
0.0
 40
80.0
 40
80.0
 40
80.0
 40
80.0
 10
639.5361469405375
 20
278.2723497591665
 30
0.0
 10
639.4828846439445
 20
278.2244136739467
 30
0.0
 10
639.4482641176345
 20
278.1258783673438
 30
0.0
 10
639.4322854225613
 20
277.9767439003115
 30
0.0
  0
LINE
  5
4BDD
330
1F
100
AcDbEntity
  8
AM_VIS
100
AcDbLine
 10
639.4322854225613
 20
277.9767439003115
 30
0.0
 11
639.3523919471951
 21
277.9767439003115
 31
0.0
  0
LINE
  5
4BDE
330
1F
100
AcDbEntity
  8
AM_VIS
100
AcDbLine
 10
639.3523919471951
 20
277.9767439003115
 30
0.0
 11
639.3523919471951
 21
279.0393271226817
 31
0.0
  0
SPLINE
  5
4BDF
330
1F
100
AcDbEntity
  8
AM_VIS
100
AcDbSpline
210
0.0
220
0.0
230
1.0
 70
     8
 71
     3
 72
     8
 73
     4
 74
     0
 42
0.0000000001
 43
0.0000000001
 40
0.0
 40
0.0
 40
0.0
 40
0.0
 40
80.0
 40
80.0
 40
80.0
 40
80.0
 10
639.3523919471951
 20
279.0393271226817
 30
0.0
 10
639.3523919471951
 20
279.2869968963168
 30
0.0
 10
639.3950018210419
 20
279.4907252585006
 30
0.0
 10
639.4802215077811
 20
279.650512209233
 30
0.0
  0
SPLINE
  5
4BE0
330
1F
100
AcDbEntity
  8
AM_VIS
100
AcDbSpline
210
0.0
220
0.0
230
1.0
 70
     8
 71
     3
 72
     8
 73
     4
 74
     0
 42
0.0000000001
 43
0.0000000001
 40
0.0
 40
0.0
 40
0.0
 40
0.0
 40
80.0
 40
80.0
 40
80.0
 40
80.0
 10
639.4802215077811
 20
279.650512209233
 30
0.0
 10
639.608051068367
 20
279.887529499168
 30
0.0
 10
639.8224319142509
 20
280.0060381746125
 30
0.0
 10
640.1233639844788
 20
280.0060381746125
 30
0.0
  0
SPLINE
  5
4BE1
330
1F
100
AcDbEntity
  8
AM_VIS
100
AcDbSpline
210
0.0
220
0.0
230
1.0
 70
     8
 71
     3
 72
     8
 73
     4
 74
     0
 42
0.0000000001
 43
0.0000000001
 40
0.0
 40
0.0
 40
0.0
 40
0.0
 40
80.0
 40
80.0
 40
80.0
 40
80.0
 10
640.1233639844788
 20
280.0060381746125
 30
0.0
 10
640.376360030441
 20
280.0060381746125
 30
0.0
 10
640.5654412351564
 20
279.9114975417779
 30
0.0
 10
640.6906076595787
 20
279.7224163370625
 30
0.0
  0
SPLINE
  5
4BE2
330
1F
100
AcDbEntity
  8
AM_VIS
100
AcDbSpline
210
0.0
220
0.0
230
1.0
 70
     8
 71
     3
 72
     8
 73
     4
 74
     0
 42
0.0000000001
 43
0.0000000001
 40
0.0
 40
0.0
 40
0.0
 40
0.0
 40
80.0
 40
80.0
 40
80.0
 40
80.0
 10
640.6906076595787
 20
279.7224163370625
 30
0.0
 10
640.7625117874083
 20
279.615891682923
 30
0.0
 10
640.8171056825596
 20
279.4627625421225
 30
0.0
 10
640.8543892840794
 20
279.2630288537071
 30
0.0
  0
LINE
  5
4BE3
330
1F
100
AcDbEntity
  8
AM_VIS
100
AcDbLine
 10
640.8543892840794
 20
279.2630288537071
 30
0.0
 11
642.052791414572
 21
280.0699529549054
 31
0.0
  0
SPLINE
  5
4BE4
330
1F
100
AcDbEntity
  8
AM_VIS
100
AcDbSpline
210
0.0
220
0.0
230
1.0
 70
     8
 71
     3
 72
     8
 73
     4
 74
     0
 42
0.0000000001
 43
0.0000000001
 40
0.0
 40
0.0
 40
0.0
 40
0.0
 40
80.0
 40
80.0
 40
80.0
 40
80.0
 10
642.052791414572
 20
280.0699529549054
 30
0.0
 10
642.1353479651478
 20
280.1232152514982
 30
0.0
 10
642.1886103226945
 20
280.2483816759206
 30
0.0
 10
642.2125783653044
 20
280.4454522891265
 30
0.0
  0
LINE
  5
4BE5
330
1F
100
AcDbEntity
  8
AM_VIS
100
AcDbLine
 10
642.2125783653044
 20
280.4454522891265
 30
0.0
 11
642.2924718406705
 21
280.4454522891265
 31
0.0
  0
LINE
  5
4BE6
330
1F
100
AcDbEntity
  8
AM_VIS
100
AcDbLine
 10
642.2924718406705
 20
324.1267439003428
 30
0.0
 11
642.2924718406705
 21
323.0719310661183
 31
0.0
  0
LINE
  5
4BE7
330
1F
100
AcDbEntity
  8
AM_VIS
100
AcDbLine
 10
642.2924718406704
 20
323.0719310661183
 30
0.0
 11
642.2122579369272
 21
323.0719310661183
 31
0.0
  0
SPLINE
  5
4BE8
330
1F
100
AcDbEntity
  8
AM_VIS
100
AcDbSpline
210
0.0
220
0.0
230
1.0
 70
     8
 71
     3
 72
     8
 73
     4
 74
     0
 42
0.0000000001
 43
0.0000000001
 40
0.0
 40
0.0
 40
0.0
 40
0.0
 40
80.0
 40
80.0
 40
80.0
 40
80.0
 10
642.2122579369272
 20
323.0719310661183
 30
0.0
 10
642.2069103025456
 20
323.2136422756653
 30
0.0
 10
642.1855199486133
 20
323.3112358381536
 30
0.0
 10
642.1480868139326
 20
323.3647118147814
 30
0.0
  0
SPLINE
  5
4BE9
330
1F
100
AcDbEntity
  8
AM_VIS
100
AcDbSpline
210
0.0
220
0.0
230
1.0
 70
     8
 71
     3
 72
     8
 73
     4
 74
     0
 42
0.0000000001
 43
0.0000000001
 40
0.0
 40
0.0
 40
0.0
 40
0.0
 40
80.0
 40
80.0
 40
80.0
 40
80.0
 10
642.1480868139326
 20
323.3647118147814
 30
0.0
 10
642.0919370201139
 20
323.4449257185247
 30
0.0
 10
641.9849852504535
 20
323.4850326703963
 30
0.0
 10
641.8272311989593
 20
323.4850326703963
 30
0.0
  0
LINE
  5
4BEA
330
1F
100
AcDbEntity
  8
AM_VIS
100
AcDbLine
 10
641.8272311989593
 20
323.4850326703963
 30
0.0
 11
639.8379263861251
 21
323.4850326703963
 31
0.0
  0
SPLINE
  5
4BEB
330
1F
100
AcDbEntity
  8
AM_VIS
100
AcDbSpline
210
0.0
220
0.0
230
1.0
 70
     8
 71
     3
 72
     8
 73
     4
 74
     0
 42
0.0000000001
 43
0.0000000001
 40
0.0
 40
0.0
 40
0.0
 40
0.0
 40
80.0
 40
80.0
 40
80.0
 40
80.0
 10
639.8379263861252
 20
323.4850326703963
 30
0.0
 10
639.6855199690128
 20
323.4850326703963
 30
0.0
 10
639.6093167604568
 20
323.4302198157723
 30
0.0
 10
639.6093167604568
 20
323.3205941677226
 30
0.0
  0
SPLINE
  5
4BEC
330
1F
100
AcDbEntity
  8
AM_VIS
100
AcDbSpline
210
0.0
220
0.0
230
1.0
 70
     8
 71
     3
 72
     8
 73
     4
 74
     0
 42
0.0000000001
 43
0.0000000001
 40
0.0
 40
0.0
 40
0.0
 40
0.0
 40
80.0
 40
80.0
 40
80.0
 40
80.0
 10
639.6093167604568
 20
323.3205941677226
 30
0.0
 10
639.6093167604568
 20
323.2510754103461
 30
0.0
 10
639.6333809315797
 20
323.1548187258541
 30
0.0
 10
639.6815092738257
 20
323.0318241142466
 30
0.0
  0
LINE
  5
4BED
330
1F
100
AcDbEntity
  8
AM_VIS
100
AcDbLine
 10
639.6815092738257
 20
323.0318241142466
 30
0.0
 11
639.6173381508311
 21
323.0318241142466
 31
0.0
  0
LINE
  5
4BEE
330
1F
100
AcDbEntity
  8
AM_VIS
100
AcDbLine
 10
639.6173381508311
 20
323.0318241142466
 30
0.0
 11
639.2924718406706
 21
323.7096316008776
 31
0.0
  0
LINE
  5
4BEF
330
1F
100
AcDbEntity
  8
AM_VIS
100
AcDbLine
 10
639.2924718406706
 20
323.7096316008776
 30
0.0
 11
641.9034344075155
 21
323.7096316008776
 31
0.0
  0
SPLINE
  5
4BF0
330
1F
100
AcDbEntity
  8
AM_VIS
100
AcDbSpline
210
0.0
220
0.0
230
1.0
 70
     8
 71
     3
 72
     8
 73
     4
 74
     0
 42
0.0000000001
 43
0.0000000001
 40
0.0
 40
0.0
 40
0.0
 40
0.0
 40
80.0
 40
80.0
 40
80.0
 40
80.0
 10
641.9034344075155
 20
323.7096316008776
 30
0.0
 10
642.018407689947
 20
323.7096316008776
 30
0.0
 10
642.0999584104882
 20
323.7417171623749
 30
0.0
 10
642.1480868139326
 20
323.8058882853696
 30
0.0
  0
SPLINE
  5
4BF1
330
1F
100
AcDbEntity
  8
AM_VIS
100
AcDbSpline
210
0.0
220
0.0
230
1.0
 70
     8
 71
     3
 72
     8
 73
     4
 74
     0
 42
0.0000000001
 43
0.0000000001
 40
0.0
 40
0.0
 40
0.0
 40
0.0
 40
80.0
 40
80.0
 40
80.0
 40
80.0
 10
642.1480868139326
 20
323.8058882853696
 30
0.0
 10
642.1908675217967
 20
323.8700594083642
 30
0.0
 10
642.2122579369272
 20
323.9770112392231
 30
0.0
 10
642.2122579369272
 20
324.1267439003428
 30
0.0
  0
LINE
  5
4BF2
330
1F
100
AcDbEntity
  8
AM_VIS
100
AcDbLine
 10
642.2122579369272
 20
324.1267439003428
 30
0.0
 11
642.2924718406705
 21
324.1267439003428
 31
0.0
  0
SPLINE
  5
4BF3
330
1F
100
AcDbEntity
  8
AM_VIS
100
AcDbSpline
210
0.0
220
0.0
230
1.0
 70
     8
 71
     3
 72
     8
 73
     4
 74
     0
 42
0.0000000001
 43
0.0000000001
 40
0.0
 40
0.0
 40
0.0
 40
0.0
 40
80.0
 40
80.0
 40
80.0
 40
80.0
 10
640.1066429636653
 20
321.8546850768134
 30
0.0
 10
639.8285681177545
 20
321.8546850156151
 30
0.0
 10
639.6427392611485
 20
321.7316904040075
 30
0.0
 10
639.5491563326491
 20
321.4857011195942
 30
0.0
  0
SPLINE
  5
4BF4
330
1F
100
AcDbEntity
  8
AM_VIS
100
AcDbSpline
210
0.0
220
0.0
230
1.0
 70
     8
 71
     3
 72
     8
 73
     4
 74
     0
 42
0.0000000001
 43
0.0000000001
 40
0.0
 40
0.0
 40
0.0
 40
0.0
 40
80.0
 40
80.0
 40
80.0
 40
80.0
 10
639.5491563326491
 20
321.4857011195942
 30
0.0
 10
639.4903328440364
 20
321.3466636660397
 30
0.0
 10
639.4662686729133
 20
321.1848989805567
 30
0.0
 10
639.4769638192801
 20
321.0004070019471
 30
0.0
  0
SPLINE
  5
4BF5
330
1F
100
AcDbEntity
  8
AM_VIS
100
AcDbSpline
210
0.0
220
0.0
230
1.0
 70
     8
 71
     3
 72
     8
 73
     4
 74
     0
 42
0.0000000001
 43
0.0000000001
 40
0.0
 40
0.0
 40
0.0
 40
0.0
 40
80.0
 40
80.0
 40
80.0
 40
80.0
 10
639.4769638192801
 20
321.0004070019471
 30
0.0
 10
639.482311453662
 20
320.89345510989
 30
0.0
 10
639.4916697220326
 20
320.8266101697044
 30
0.0
 10
639.5050386855903
 20
320.7998722425888
 30
0.0
  0
SPLINE
  5
4BF6
330
1F
100
AcDbEntity
  8
AM_VIS
100
AcDbSpline
210
0.0
220
0.0
230
1.0
 70
     8
 71
     3
 72
     8
 73
     4
 74
     0
 42
0.0000000001
 43
0.0000000001
 40
0.0
 40
0.0
 40
0.0
 40
0.0
 40
80.0
 40
80.0
 40
80.0
 40
80.0
 10
639.5050386855903
 20
320.7998722425888
 30
0.0
 10
639.5317766739042
 20
320.7570914735263
 30
0.0
 10
639.5865895285282
 20
320.7357011195942
 30
0.0
 10
639.6694771882642
 20
320.7357011195942
 30
0.0
  0
LINE
  5
4BF7
330
1F
100
AcDbEntity
  8
AM_VIS
100
AcDbLine
 10
639.6694771882642
 20
320.7357011195942
 30
0.0
 11
640.7684076695475
 21
320.7357011195942
 31
0.0
  0
SPLINE
  5
4BF8
330
1F
100
AcDbEntity
  8
AM_VIS
100
AcDbSpline
210
0.0
220
0.0
230
1.0
 70
     8
 71
     3
 72
     8
 73
     4
 74
     0
 42
0.0000000001
 43
0.0000000001
 40
0.0
 40
0.0
 40
0.0
 40
0.0
 40
80.0
 40
80.0
 40
80.0
 40
80.0
 10
640.7684076695475
 20
320.7357011195942
 30
0.0
 10
640.7657339135551
 20
321.0538829173765
 30
0.0
 10
640.7376590472449
 20
321.2865032382322
 30
0.0
 10
640.6841830706171
 20
321.433562082161
 30
0.0
  0
SPLINE
  5
4BF9
330
1F
100
AcDbEntity
  8
AM_VIS
100
AcDbSpline
210
0.0
220
0.0
230
1.0
 70
     8
 71
     3
 72
     8
 73
     4
 74
     0
 42
0.0000000001
 43
0.0000000001
 40
0.0
 40
0.0
 40
0.0
 40
0.0
 40
80.0
 40
80.0
 40
80.0
 40
80.0
 10
640.6841830706171
 20
321.433562082161
 30
0.0
 10
640.5852526301325
 20
321.7143106840643
 30
0.0
 10
640.3927392611485
 20
321.8546850156151
 30
0.0
 10
640.1066429636653
 20
321.8546850768134
 30
0.0
  0
LINE
  5
4BFA
330
1F
100
AcDbEntity
  8
AM_VIS
100
AcDbLine
 10
642.2924718406705
 20
322.5766102105033
 30
0.0
 11
642.2924718406705
 21
322.0231342746743
 31
0.0
  0
LINE
  5
4BFB
330
1F
100
AcDbEntity
  8
AM_VIS
100
AcDbLine
 10
642.2924718406705
 20
322.0231342746744
 30
0.0
 11
640.8927392203497
 21
321.0725995153162
 31
0.0
  0
LINE
  5
4BFC
330
1F
100
AcDbEntity
  8
AM_VIS
100
AcDbLine
 10
640.8927392203497
 20
321.0725995153162
 30
0.0
 11
640.9087820010983
 21
320.7357011195942
 31
0.0
  0
LINE
  5
4BFD
330
1F
100
AcDbEntity
  8
AM_VIS
100
AcDbLine
 10
640.9087820010983
 20
320.7357011195942
 30
0.0
 11
641.7670707711518
 21
320.7357011195942
 31
0.0
  0
SPLINE
  5
4BFE
330
1F
100
AcDbEntity
  8
AM_VIS
100
AcDbSpline
210
0.0
220
0.0
230
1.0
 70
     8
 71
     3
 72
     8
 73
     4
 74
     0
 42
0.0000000001
 43
0.0000000001
 40
0.0
 40
0.0
 40
0.0
 40
0.0
 40
80.0
 40
80.0
 40
80.0
 40
80.0
 10
641.7670707711518
 20
320.7357011195942
 30
0.0
 10
641.9248248226459
 20
320.7357011195942
 30
0.0
 10
642.0357873486919
 20
320.7651128639006
 30
0.0
 10
642.0999584716867
 20
320.8239364137118
 30
0.0
  0
SPLINE
  5
4BFF
330
1F
100
AcDbEntity
  8
AM_VIS
100
AcDbSpline
210
0.0
220
0.0
230
1.0
 70
     8
 71
     3
 72
     8
 73
     4
 74
     0
 42
0.0000000001
 43
0.0000000001
 40
0.0
 40
0.0
 40
0.0
 40
0.0
 40
80.0
 40
80.0
 40
80.0
 40
80.0
 10
642.0999584716867
 20
320.8239364137118
 30
0.0
 10
642.1614557774903
 20
320.8800860851338
 30
0.0
 10
642.1988889121711
 20
320.9857010991947
 30
0.0
 10
642.2122579369272
 20
321.1407813334979
 30
0.0
  0
LINE
  5
4C00
330
1F
100
AcDbEntity
  8
AM_VIS
100
AcDbLine
 10
642.2122579369272
 20
321.1407813334979
 30
0.0
 11
642.2924718406705
 21
321.1407813334979
 31
0.0
  0
LINE
  5
4C01
330
1F
100
AcDbEntity
  8
AM_VIS
100
AcDbLine
 10
642.2924718406705
 20
321.1407813334979
 30
0.0
 11
642.2924718406705
 21
320.0980005848348
 31
0.0
  0
LINE
  5
4C02
330
1F
100
AcDbEntity
  8
AM_VIS
100
AcDbLine
 10
642.2924718406704
 20
320.0980005848348
 30
0.0
 11
642.2122579369272
 21
320.0980005848348
 31
0.0
  0
SPLINE
  5
4C03
330
1F
100
AcDbEntity
  8
AM_VIS
100
AcDbSpline
210
0.0
220
0.0
230
1.0
 70
     8
 71
     3
 72
     8
 73
     4
 74
     0
 42
0.0000000001
 43
0.0000000001
 40
0.0
 40
0.0
 40
0.0
 40
0.0
 40
80.0
 40
80.0
 40
80.0
 40
80.0
 10
642.2122579369272
 20
320.0980005848348
 30
0.0
 10
642.1962151561785
 20
320.2530807579397
 30
0.0
 10
642.153434387116
 20
320.3560219548097
 30
0.0
 10
642.083915690938
 20
320.4068241142466
 30
0.0
  0
SPLINE
  5
4C04
330
1F
100
AcDbEntity
  8
AM_VIS
100
AcDbSpline
210
0.0
220
0.0
230
1.0
 70
     8
 71
     3
 72
     8
 73
     4
 74
     0
 42
0.0000000001
 43
0.0000000001
 40
0.0
 40
0.0
 40
0.0
 40
0.0
 40
80.0
 40
80.0
 40
80.0
 40
80.0
 10
642.083915690938
 20
320.4068241142466
 30
0.0
 10
642.0170708119508
 20
320.4576262124851
 30
0.0
 10
641.8927392611485
 20
320.4830272616044
 30
0.0
 10
641.7109210385315
 20
320.4830273228028
 30
0.0
  0
LINE
  5
4C05
330
1F
100
AcDbEntity
  8
AM_VIS
100
AcDbLine
 10
641.7109210385315
 20
320.4830273228028
 30
0.0
 11
639.8740226428096
 21
320.4830273228028
 31
0.0
  0
SPLINE
  5
4C06
330
1F
100
AcDbEntity
  8
AM_VIS
100
AcDbSpline
210
0.0
220
0.0
230
1.0
 70
     8
 71
     3
 72
     8
 73
     4
 74
     0
 42
0.0000000001
 43
0.0000000001
 40
0.0
 40
0.0
 40
0.0
 40
0.0
 40
80.0
 40
80.0
 40
80.0
 40
80.0
 10
639.8740226428096
 20
320.4830273228028
 30
0.0
 10
639.7055734449486
 20
320.4830272616044
 30
0.0
 10
639.5892632845209
 20
320.453615517298
 30
0.0
 10
639.5250921615261
 20
320.3947920286851
 30
0.0
  0
SPLINE
  5
4C07
330
1F
100
AcDbEntity
  8
AM_VIS
100
AcDbSpline
210
0.0
220
0.0
230
1.0
 70
     8
 71
     3
 72
     8
 73
     4
 74
     0
 42
0.0000000001
 43
0.0000000001
 40
0.0
 40
0.0
 40
0.0
 40
0.0
 40
80.0
 40
80.0
 40
80.0
 40
80.0
 10
639.5250921615261
 20
320.3947920286851
 30
0.0
 10
639.4716162460968
 20
320.3466636864391
 30
0.0
 10
639.4368568674085
 20
320.2477331847562
 30
0.0
 10
639.4208140866599
 20
320.0980005848348
 30
0.0
  0
LINE
  5
4C08
330
1F
100
AcDbEntity
  8
AM_VIS
100
AcDbLine
 10
639.4208140866599
 20
320.0980005848348
 30
0.0
 11
639.3406001829165
 21
320.0980005848348
 31
0.0
  0
LINE
  5
4C09
330
1F
100
AcDbEntity
  8
AM_VIS
100
AcDbLine
 10
639.3406001829165
 20
320.0980005848348
 30
0.0
 11
639.3406001829165
 21
321.1648455046209
 31
0.0
  0
SPLINE
  5
4C0A
330
1F
100
AcDbEntity
  8
AM_VIS
100
AcDbSpline
210
0.0
220
0.0
230
1.0
 70
     8
 71
     3
 72
     8
 73
     4
 74
     0
 42
0.0000000001
 43
0.0000000001
 40
0.0
 40
0.0
 40
0.0
 40
0.0
 40
80.0
 40
80.0
 40
80.0
 40
80.0
 10
639.3406001829166
 20
321.1648455046209
 30
0.0
 10
639.3406001829166
 20
321.4135086062252
 30
0.0
 10
639.3833809519791
 20
321.6180540607707
 30
0.0
 10
639.4689424289058
 20
321.7784818682573
 30
0.0
  0
SPLINE
  5
4C0B
330
1F
100
AcDbEntity
  8
AM_VIS
100
AcDbSpline
210
0.0
220
0.0
230
1.0
 70
     8
 71
     3
 72
     8
 73
     4
 74
     0
 42
0.0000000001
 43
0.0000000001
 40
0.0
 40
0.0
 40
0.0
 40
0.0
 40
80.0
 40
80.0
 40
80.0
 40
80.0
 10
639.4689424289058
 20
321.7784818682573
 30
0.0
 10
639.5972846748953
 20
322.0164497622964
 30
0.0
 10
639.8125253370058
 20
322.135433739915
 30
0.0
 10
640.1146643540396
 20
322.135433739915
 30
0.0
  0
SPLINE
  5
4C0C
330
1F
100
AcDbEntity
  8
AM_VIS
100
AcDbSpline
210
0.0
220
0.0
230
1.0
 70
     8
 71
     3
 72
     8
 73
     4
 74
     0
 42
0.0000000001
 43
0.0000000001
 40
0.0
 40
0.0
 40
0.0
 40
0.0
 40
80.0
 40
80.0
 40
80.0
 40
80.0
 10
640.1146643540396
 20
322.135433739915
 30
0.0
 10
640.3686750900256
 20
322.135433739915
 30
0.0
 10
640.5585146418186
 20
322.0405139334193
 30
0.0
 10
640.6841830706171
 20
321.8506743816263
 30
0.0
  0
SPLINE
  5
4C0D
330
1F
100
AcDbEntity
  8
AM_VIS
100
AcDbSpline
210
0.0
220
0.0
230
1.0
 70
     8
 71
     3
 72
     8
 73
     4
 74
     0
 42
0.0000000001
 43
0.0000000001
 40
0.0
 40
0.0
 40
0.0
 40
0.0
 40
80.0
 40
80.0
 40
80.0
 40
80.0
 10
640.6841830706171
 20
321.8506743816263
 30
0.0
 10
640.756375583986
 20
321.743722489569
 30
0.0
 10
640.8111884386101
 20
321.5899791944605
 30
0.0
 10
640.8486215732909
 20
321.3894444351022
 30
0.0
  0
LINE
  5
4C0E
330
1F
100
AcDbEntity
  8
AM_VIS
100
AcDbLine
 10
640.8486215732909
 20
321.3894444351022
 30
0.0
 11
642.0518301294406
 21
322.1996048629097
 31
0.0
  0
SPLINE
  5
4C0F
330
1F
100
AcDbEntity
  8
AM_VIS
100
AcDbSpline
210
0.0
220
0.0
230
1.0
 70
     8
 71
     3
 72
     8
 73
     4
 74
     0
 42
0.0000000001
 43
0.0000000001
 40
0.0
 40
0.0
 40
0.0
 40
0.0
 40
80.0
 40
80.0
 40
80.0
 40
80.0
 10
642.0518301294406
 20
322.1996048629097
 30
0.0
 10
642.1347177891764
 20
322.2530807783392
 30
0.0
 10
642.1881937658042
 20
322.3787492071375
 30
0.0
 10
642.2122579369272
 20
322.5766102105033
 30
0.0
  0
LINE
  5
4C10
330
1F
100
AcDbEntity
  8
AM_VIS
100
AcDbLine
 10
642.2122579369272
 20
322.5766102105033
 30
0.0
 11
642.2924718406705
 21
322.5766102105033
 31
0.0
  0
ENDSEC
  0
SECTION
  2
OBJECTS
  0
DICTIONARY
  5
C
330
0
100
AcDbDictionary
281
     1
  3
ACAD_COLOR
350
BE
  3
ACAD_GROUP
350
D
  3
ACAD_LAYOUT
350
1A
  3
ACAD_MATERIAL
350
BD
  3
ACAD_MLINESTYLE
350
17
  3
ACAD_PLOTSETTINGS
350
19
  3
ACAD_PLOTSTYLENAME
350
E
  3
ACAD_TABLESTYLE
350
11A
  3
ACDBHEADERROUNDTRIPXREC
350
4C28
  3
AcDbVariableDictionary
350
94
  3
AcmDictionary
350
5B
  3
AMG
350
41
  3
AMGSNAPSETTINGS
350
1B8
  3
DWGPROPS
350
4C27
  0
DICTIONARY
  5
3F9
330
2
100
AcDbDictionary
280
     1
281
     1
  3
ACAD_LAYERFILTERS
360
EF7
  3
ACAD_LAYERSTATES
360
AC4
  3
ACLYDICTIONARY
360
EF6
  3
AMLAYER_GROUPCOLORS
360
EBF
  0
DICTIONARY
  5
8F
330
1F
100
AcDbDictionary
280
     1
281
     1
  3
ACAD_SORTENTS
360
EC5
  0
DICTIONARY
  5
2F1B
330
2F17
100
AcDbDictionary
280
     1
281
     1
  3
ACAD_SORTENTS
360
2F1C
  0
DICTIONARY
  5
33EC
330
33EB
100
AcDbDictionary
280
     1
281
     1
  3
ACAD_SORTENTS
360
33ED
  0
DICTIONARY
  5
44C2
330
44B5
100
AcDbDictionary
280
     1
281
     1
  3
ACAD_DIMASSOC
360
44C3
  0
DICTIONARY
  5
BE
102
{ACAD_REACTORS
330
C
102
}
330
C
100
AcDbDictionary
281
     1
  0
DICTIONARY
  5
D
102
{ACAD_REACTORS
330
C
102
}
330
C
100
AcDbDictionary
281
     1
  0
DICTIONARY
  5
1A
102
{ACAD_REACTORS
330
C
102
}
330
C
100
AcDbDictionary
281
     1
  3
Model
350
22
  3
配置1
350
1E
  3
配置2
350
26
  0
DICTIONARY
  5
BD
102
{ACAD_REACTORS
330
C
102
}
330
C
100
AcDbDictionary
281
     1
  0
DICTIONARY
  5
17
102
{ACAD_REACTORS
330
C
102
}
330
C
100
AcDbDictionary
281
     1
  3
Standard
350
18
  0
DICTIONARY
  5
19
102
{ACAD_REACTORS
330
C
102
}
330
C
100
AcDbDictionary
281
     1
  0
ACDBDICTIONARYWDFLT
  5
E
102
{ACAD_REACTORS
330
C
102
}
330
C
100
AcDbDictionary
281
     1
  3
Normal
350
F
100
AcDbDictionaryWithDefault
340
F
  0
DICTIONARY
  5
11A
102
{ACAD_REACTORS
330
C
102
}
330
C
100
AcDbDictionary
281
     1
  3
Standard
350
11B
  0
DICTIONARY
  5
4C28
102
{ACAD_REACTORS
330
C
102
}
330
C
100
AcDbDictionary
281
     1
  0
DICTIONARY
  5
94
102
{ACAD_REACTORS
330
C
102
}
330
C
100
AcDbDictionary
281
     1
  3
CTABLESTYLE
350
138
  3
DIMASSOC
350
96
  3
INDEXCTL
350
95
  3
PROJECTNAME
350
1689
  0
DICTIONARY
  5
5B
102
{ACAD_REACTORS
330
C
102
}
330
C
100
AcDbDictionary
281
     1
  3
AcmBOM
350
1B5
  3
AcmStdDictionary
350
61
  3
AMDTSECTSYM_ARROWCOLOR
350
123
  0
DICTIONARY
  5
41
102
{ACAD_REACTORS
330
C
102
}
330
C
100
AcDbDictionary
281
     1
  0
DICTIONARY
  5
1B8
102
{ACAD_REACTORS
330
C
102
}
330
C
100
AcDbDictionary
281
     1
  0
XRECORD
  5
4C27
102
{ACAD_REACTORS
330
C
102
}
330
C
100
AcDbXrecord
280
     1
  1
DWGPROPS COOKIE
  2

  3

  4

  6

  7

  8

  9

300
AmdtFileType=84
301
=
302
=
303
=
304
=
305
=
306
=
307
=
308
=
309
=
 40
0.1634909490740741
 41
2454013.612854456
 42
2455009.341631667
  1

 90
        1
  0
DICTIONARY
  5
EF7
102
{ACAD_REACTORS
330
3F9
102
}
330
3F9
100
AcDbDictionary
281
     1
  0
DICTIONARY
  5
AC4
102
{ACAD_REACTORS
330
3F9
102
}
330
3F9
100
AcDbDictionary
281
     1
  0
DICTIONARY
  5
EF6
102
{ACAD_REACTORS
330
3F9
102
}
330
3F9
100
AcDbDictionary
281
     1
1001
ACAD
1000
<All
  0
DICTIONARY
  5
EBF
102
{ACAD_REACTORS
330
3F9
102
}
330
3F9
100
AcDbDictionary
280
     1
281
     1
  0
SORTENTSTABLE
  5
EC5
102
{ACAD_REACTORS
330
8F
102
}
330
8F
100
AcDbSortentsTable
330
1F
331
4249
  5
424A
331
4143
  5
4144
331
3BE8
  5
3BE9
331
3A72
  5
3A7D
331
3B2E
  5
3B2F
331
3B4D
  5
3B4E
331
3B8B
  5
3B8C
331
3BAA
  5
3BAB
331
3BC9
  5
3BCA
331
CA7
  5
CA7
331
E1B
  5
E2D
331
E3A
  5
E96
331
424A
  5
424B
331
3B2F
  5
3B30
331
3B4E
  5
3B4F
331
3B8C
  5
3B8D
331
3BAB
  5
3BAC
331
3BCA
  5
3BCB
331
3BE9
  5
3BEA
331
CA8
  5
CA8
331
E1C
  5
E2E
331
E3B
  5
E97
331
424B
  5
424C
331
3B30
  5
3B31
331
3B4F
  5
3B50
331
3B8D
  5
3B8E
331
3BAC
  5
3BAD
331
3BCB
  5
3BCC
331
3BEA
  5
3BEB
331
3C01
  5
3C02
331
DE7
  5
E08
331
E1D
  5
E2F
331
E3C
  5
F08
331
CA9
  5
CA9
331
424C
  5
424D
331
3B31
  5
3B32
331
3B77
  5
3B7C
331
3B8E
  5
3B8F
331
3BAD
  5
3BAE
331
3BCC
  5
3BCD
331
3BEB
  5
3BEC
331
E1E
  5
E30
331
E3D
  5
1098
331
CAA
  5
CAA
331
DE8
  5
E09
331
DFF
  5
E14
331
4147
  5
4148
331
424D
  5
424E
331
3B8F
  5
3B90
331
3BAE
  5
3BAF
331
3BCD
  5
3BCE
331
3BEC
  5
3BED
331
3A0F
  5
3A0F
331
3B32
  5
3B33
331
CAB
  5
CAB
331
DCA
  5
DDC
331
E00
  5
E15
331
E1F
  5
E31
331
E3E
  5
1099
331
424E
  5
424F
331
4148
  5
4149
331
3B90
  5
3B91
331
3BAF
  5
3BB0
331
3BCE
  5
3BCF
331
3BED
  5
3BEE
331
3B33
  5
3B34
331
CAC
  5
CAC
331
DCB
  5
DDD
331
E01
  5
E16
331
E20
  5
E32
331
E3F
  5
109A
331
424F
  5
42D4
331
4149
  5
414A
331
3B91
  5
3B92
331
3BB0
  5
3BB1
331
3BCF
  5
3BD0
331
3BEE
  5
3BEF
331
3C05
  5
3C0C
331
3AD7
  5
3AE6
331
3B15
  5
3B16
331
3B34
  5
3B35
331
3B53
  5
3B54
331
CAD
  5
CAD
331
DCC
  5
DDE
331
E21
  5
E33
331
E40
  5
109B
331
3BB1
  5
3BB2
331
3BD0
  5
3BD1
331
3BEF
  5
3BF0
331
3B16
  5
3B17
331
3B35
  5
3B36
331
3B54
  5
3B55
331
3B92
  5
3B93
331
CAE
  5
CAE
331
DCD
  5
DDF
331
DEC
  5
E0A
331
E22
  5
E34
331
E41
  5
109C
331
3B17
  5
3B18
331
3B36
  5
3B37
331
3B55
  5
3B56
331
3B93
  5
3B94
331
3BB2
  5
3BB3
331
3BD1
  5
3BD2
331
CAF
  5
CAF
331
DCE
  5
DE3
331
DED
  5
E0B
331
E23
  5
E35
331
E42
  5
109D
331
2F3F
  5
315F
331
3B37
  5
3B38
331
3B56
  5
3B57
331
3B94
  5
3B95
331
3BB3
  5
3BB4
331
3BD2
  5
3BD3
331
CB0
  5
CB0
331
DCF
  5
DE7
331
DEE
  5
E0C
331
E05
  5
E17
331
E24
  5
E36
331
E43
  5
109E
331
2F40
  5
3160
331
3B95
  5
3B96
331
3BB4
  5
3BB5
331
3BD3
  5
3BD4
331
3C11
  5
3C12
331
DEF
  5
E0D
331
E06
  5
E18
331
E25
  5
E37
331
E44
  5
109F
331
2F41
  5
3161
331
C92
  5
C92
331
CB1
  5
CB1
331
DD0
  5
DE8
331
3B96
  5
3B97
331
3BB5
  5
3BB6
331
3BD4
  5
3BD5
331
3C12
  5
3C13
331
E26
  5
E38
331
E45
  5
10A0
331
2F42
  5
3162
331
C93
  5
C93
331
CB2
  5
CB2
331
DD1
  5
DEC
331
DF0
  5
E0E
331
E07
  5
E19
331
44B5
  5
44DC
331
3B97
  5
3B98
331
3BB6
  5
3BB7
331
3BD5
  5
3BD6
331
3C13
  5
3C16
331
3409
  5
3409
331
C94
  5
C94
331
CB3
  5
CB3
331
DD2
  5
DED
331
DF1
  5
E0F
331
E08
  5
E1A
331
E27
  5
E39
331
E46
  5
10A1
331
3BB7
  5
3BB8
331
3BD6
  5
3BD7
331
C95
  5
C95
331
CB4
  5
CB4
331
DD3
  5
DEE
331
DF2
  5
E10
331
E09
  5
E1B
331
E28
  5
E3A
331
E47
  5
10A2
331
3BD7
  5
3BD8
331
C96
  5
C96
331
CB5
  5
CB5
331
DD4
  5
DEF
331
DF3
  5
E11
331
E0A
  5
E1C
331
E29
  5
E3B
331
E48
  5
10A3
331
4192
  5
4209
331
C97
  5
C97
331
CB6
  5
CB6
331
DD5
  5
DF0
331
E0B
  5
E1D
331
E2A
  5
E3C
331
E49
  5
10A4
331
C98
  5
C98
331
CB7
  5
CB7
331
DD6
  5
DF1
331
E0C
  5
E1E
331
E2B
  5
E3D
331
E4A
  5
10A5
331
CB8
  5
CB8
331
DD7
  5
DF2
331
E0D
  5
E1F
331
E2C
  5
E3E
331
3010
  5
3165
331
C99
  5
C99
331
DF7
  5
E12
331
E0E
  5
E20
331
E2D
  5
E3F
331
C9A
  5
C9A
331
CB9
  5
CB9
331
DD8
  5
DF3
331
E2E
  5
E40
331
39D8
  5
39D8
331
C9B
  5
C9B
331
CBA
  5
CBA
331
DD9
  5
DF7
331
E0F
  5
E21
331
39D9
  5
39D9
331
C9C
  5
C9C
331
CBB
  5
CBB
331
DDA
  5
DFB
331
E10
  5
E22
331
E2F
  5
E41
331
39DA
  5
39DA
331
C9D
  5
C9D
331
CBC
  5
CBC
331
DDB
  5
DFF
331
E11
  5
E23
331
E30
  5
E42
331
39DB
  5
39DB
331
C9E
  5
C9E
331
CBD
  5
CBD
331
DDC
  5
E00
331
E12
  5
E24
331
E31
  5
E43
331
39DC
  5
39DC
331
C9F
  5
C9F
331
CBE
  5
CBE
331
DDD
  5
E01
331
E13
  5
E25
331
E32
  5
E44
331
39DD
  5
39DD
331
CBF
  5
CBF
331
DDE
  5
E05
331
E14
  5
E26
331
E33
  5
E45
331
39DE
  5
39DE
331
DDF
  5
E06
331
E15
  5
E27
331
E34
  5
E46
331
E16
  5
E28
331
E35
  5
E47
331
39DF
  5
39DF
331
44DC
  5
3A17
331
E36
  5
E48
331
E17
  5
E29
331
E37
  5
E49
331
4247
  5
4248
331
3D0F
  5
3D10
331
3D10
  5
3D11
331
3D11
  5
3D12
331
3D12
  5
3D13
331
3D13
  5
3D14
331
39E0
  5
39E0
331
39E1
  5
39E1
331
3D14
  5
3D15
331
39E2
  5
39E2
331
3D15
  5
3D16
331
39E3
  5
39E3
331
3A12
  5
3A12
331
3D16
  5
3D17
331
39E4
  5
39E4
331
3D17
  5
3D18
331
3B18
  5
3B19
331
39E5
  5
39E5
331
3D18
  5
3D19
331
39E6
  5
39E6
331
3A15
  5
3A15
331
3B38
  5
3B39
331
3D19
  5
3D1A
331
3B39
  5
3B3A
331
3A7D
  5
3A95
331
3D1A
  5
413B
331
39E7
  5
39E7
331
39E8
  5
39E8
331
3B3A
  5
3B3B
331
3B98
  5
3B99
331
3AE6
  5
3AE7
331
39E9
  5
39E9
331
3B3B
  5
3B3C
331
3B99
  5
3B9A
331
3BB8
  5
3BB9
331
3AE7
  5
3AE8
331
3AFE
  5
3AFF
331
39EA
  5
39EA
331
3B3C
  5
3B3D
331
3BD8
  5
3BD9
331
3AE8
  5
3AE9
331
3A5A
  5
3A69
331
3AFF
  5
3B00
331
39EB
  5
39EB
331
3B3D
  5
3B3E
331
3B9A
  5
3B9B
331
3BB9
  5
3BBA
331
3BF0
  5
3BF1
331
3AE9
  5
3AEA
331
3B00
  5
3B01
331
39EC
  5
39EC
331
3B3E
  5
3B3F
331
3B5D
  5
3B5E
331
3B7C
  5
3B7D
331
3B9B
  5
3B9C
331
3BBA
  5
3BBB
331
3BD9
  5
3BDA
331
3AEA
  5
3AEB
331
3B01
  5
3B02
331
39ED
  5
39ED
331
3B3F
  5
3B40
331
3B5E
  5
3B5F
331
3B7D
  5
3B7E
331
3B9C
  5
3B9D
331
3BBB
  5
3BBC
331
3BDA
  5
3BDB
331
3BF1
  5
3BF2
331
3B02
  5
3B03
331
3B40
  5
3B41
331
3B7E
  5
3B7F
331
3B9D
  5
3B9E
331
3BBC
  5
3BBD
331
3BDB
  5
3BDC
331
3BF2
  5
3BF3
331
39EE
  5
39EE
331
3AEB
  5
3AEC
331
3B41
  5
3B42
331
3B7F
  5
3B80
331
3B9E
  5
3B9F
331
3BBD
  5
3BBE
331
3BDC
  5
3BDD
331
3BF3
  5
3BF4
331
3C1A
  5
3C1C
331
3AEC
  5
3AED
331
3A9D
  5
3A9E
331
3B03
  5
3B04
331
39EF
  5
39EF
331
3B42
  5
3B43
331
3B80
  5
3B81
331
3B9F
  5
3BA0
331
3BBE
  5
3BBF
331
3BDD
  5
3BDE
331
3BF4
  5
3BF5
331
3AED
  5
3AEE
331
3A9E
  5
3A9F
331
3B81
  5
3B82
331
3BA0
  5
3BA1
331
3BBF
  5
3BC0
331
3BDE
  5
3BDF
331
3BF5
  5
3BF6
331
3C1C
  5
3C1E
331
3AEE
  5
3AEF
331
3A9F
  5
3AA0
331
3B43
  5
3B44
331
3BA1
  5
3BA2
331
3BC0
  5
3BC1
331
3BDF
  5
3BE0
331
3BF6
  5
3BF7
331
3AEF
  5
3AF0
331
3A69
  5
3A6A
331
3AA0
  5
3AA1
331
413B
  5
413C
331
3B25
  5
3B26
331
3B44
  5
3B45
331
3B82
  5
3B83
331
3BE0
  5
3BE1
331
3BF7
  5
3BF8
331
3C1E
  5
3C1F
331
3AF0
  5
3AF1
331
3A6A
  5
3A6B
331
413C
  5
413D
331
3B26
  5
3B27
331
3B45
  5
3B46
331
3B83
  5
3B84
331
3BA2
  5
3BA3
331
3BC1
  5
3BC2
331
3AF1
  5
3AF2
331
3A6B
  5
3A6C
331
413D
  5
413E
331
3B46
  5
3B47
331
3B6D
  5
3B6E
331
3B84
  5
3B85
331
3BA3
  5
3BA4
331
3BC2
  5
3BC3
331
3BE1
  5
3BE2
331
3BF8
  5
3BF9
331
CA0
  5
CA0
331
3AF2
  5
3AF3
331
3A6C
  5
3A6D
331
413E
  5
413F
331
3B47
  5
3B48
331
3B6E
  5
3B6F
331
3B85
  5
3B86
331
3BA4
  5
3BA5
331
3BC3
  5
3BC4
331
3BE2
  5
3BE3
331
3BF9
  5
3BFA
331
CA1
  5
CA1
331
CC0
  5
CC0
331
3B48
  5
3B49
331
3B86
  5
3B87
331
3BA5
  5
3BA6
331
3BC4
  5
3BC5
331
3BE3
  5
3BE4
331
3BFA
  5
3BFB
331
3AF3
  5
3AF4
331
413F
  5
4140
331
3A6D
  5
3A71
331
CA2
  5
CA2
331
CC1
  5
CC1
331
3B49
  5
3B4A
331
3B87
  5
3B88
331
3BA6
  5
3BA7
331
3BC5
  5
3BC6
331
3BE4
  5
3BE5
331
3BFB
  5
3BFC
331
3AF4
  5
3AF5
331
39FF
  5
39FF
331
CA3
  5
CA3
331
CC2
  5
CC2
331
4140
  5
4141
331
3B88
  5
3B89
331
3BA7
  5
3BA8
331
3BC6
  5
3BC7
331
3BE5
  5
3BE6
331
3BFC
  5
3C01
331
3AF5
  5
3AF6
331
CA4
  5
CA4
331
CC3
  5
CC3
331
E18
  5
E2A
331
4141
  5
4142
331
3B89
  5
3B8A
331
3BA8
  5
3BA9
331
3BC7
  5
3BC8
331
3BE6
  5
3BE7
331
3AF6
  5
3AF7
331
CA5
  5
CA5
331
DE3
  5
E07
331
E19
  5
E2B
331
E38
  5
E4A
331
4248
  5
4249
331
4142
  5
4143
331
3BA9
  5
3BAA
331
3BC8
  5
3BC9
331
3BE7
  5
3BE8
331
3AF7
  5
3AF8
331
3A71
  5
3A72
331
3B2D
  5
3B2E
331
3B4C
  5
3B4D
331
3B8A
  5
3B8B
331
CA6
  5
CA6
331
DFB
  5
E13
331
E1A
  5
E2C
331
E39
  5
E94
  0
SORTENTSTABLE
  5
2F1C
102
{ACAD_REACTORS
330
2F1B
102
}
330
2F1B
100
AcDbSortentsTable
330
2F17
  0
SORTENTSTABLE
  5
33ED
102
{ACAD_REACTORS
330
33EC
102
}
330
33EC
100
AcDbSortentsTable
330
33EB
  0
DIMASSOC
  5
44C3
102
{ACAD_REACTORS
330
44C2
102
}
330
44C2
100
AcDbDimAssoc
330
44B5
 90
        3
 70
     0
 71
     0
  1
AcDbOsnapPointRef
 72
    13
331
3B2D
 73
     0
 91
        0
 40
0.0
 10
0.0
 20
0.0
 30
2.000000000000000E+50
 75
     0
  1
AcDbOsnapPointRef
 72
     1
331
3B2D
 73
     0
 91
        0
 40
0.0
 10
0.0
 20
0.0
 30
2.000000000000000E+50
 75
     0
  0
LAYOUT
  5
22
102
{ACAD_XDICTIONARY
360
4C2B
102
}
102
{ACAD_REACTORS
330
1A
102
}
330
1A
100
AcDbPlotSettings
  1

  2
\\RD\EPSON Stylus C63 Series單色
  4
A4
  6

 40
3.757083177566528
 41
3.757076978683471
 42
3.757080078125
 43
3.757080078125
 44
209.9733276367187
 45
296.9683227539062
 46
0.0
 47
0.0
 48
0.0
 49
0.0
140
0.0
141
0.0
142
1.0
143
0.3405120737814363
 70
 11952
 72
     1
 73
     0
 74
     0
  7
單色出圖.ctb
 75
     0
147
2.936753428137963
148
-2047.07469463503
149
-1261.649717473083
100
AcDbLayout
  1
Model
 70
     1
 71
     0
 10
0.0
 20
0.0
 11
12.0
 21
9.0
 12
0.0
 22
0.0
 32
0.0
 14
0.0
 24
0.0
 34
0.0
 15
0.0
 25
0.0
 35
0.0
146
0.0
 13
0.0
 23
0.0
 33
0.0
 16
1.0
 26
0.0
 36
0.0
 17
0.0
 27
1.0
 37
0.0
 76
     0
330
1F
1001
ACAD_PSEXT
1000
\\RD\EPSON Stylus C63 Series單色
1000
EPSON Stylus C63 Series
1000
\\RD
1000

1070
     0
  0
LAYOUT
  5
1E
102
{ACAD_XDICTIONARY
360
4C29
102
}
102
{ACAD_REACTORS
330
1A
102
}
330
1A
100
AcDbPlotSettings
  1

  2

  4

  6

 40
0.0
 41
0.0
 42
0.0
 43
0.0
 44
0.0
 45
0.0
 46
0.0
 47
0.0
 48
0.0
 49
0.0
140
0.0
141
0.0
142
1.0
143
1.0
 70
   688
 72
     0
 73
     0
 74
     5
  7
單色出圖.ctb
 75
    16
147
1.0
148
0.0
149
0.0
100
AcDbLayout
  1
配置1
 70
     1
 71
     1
 10
0.0
 20
0.0
 11
420.0
 21
297.0
 12
0.0
 22
0.0
 32
0.0
 14
1.000000000000000E+20
 24
1.000000000000000E+20
 34
1.000000000000000E+20
 15
-1.000000000000000E+20
 25
-1.000000000000000E+20
 35
-1.000000000000000E+20
146
0.0
 13
0.0
 23
0.0
 33
0.0
 16
1.0
 26
0.0
 36
0.0
 17
0.0
 27
1.0
 37
0.0
 76
     0
330
1B
  0
LAYOUT
  5
26
102
{ACAD_XDICTIONARY
360
4C2D
102
}
102
{ACAD_REACTORS
330
1A
102
}
330
1A
100
AcDbPlotSettings
  1

  2

  4

  6

 40
0.0
 41
0.0
 42
0.0
 43
0.0
 44
0.0
 45
0.0
 46
0.0
 47
0.0
 48
0.0
 49
0.0
140
0.0
141
0.0
142
1.0
143
1.0
 70
   688
 72
     0
 73
     0
 74
     5
  7
單色出圖.ctb
 75
    16
147
1.0
148
0.0
149
0.0
100
AcDbLayout
  1
配置2
 70
     1
 71
     2
 10
0.0
 20
0.0
 11
12.0
 21
9.0
 12
0.0
 22
0.0
 32
0.0
 14
0.0
 24
0.0
 34
0.0
 15
0.0
 25
0.0
 35
0.0
146
0.0
 13
0.0
 23
0.0
 33
0.0
 16
1.0
 26
0.0
 36
0.0
 17
0.0
 27
1.0
 37
0.0
 76
     0
330
23
  0
MLINESTYLE
  5
18
102
{ACAD_REACTORS
330
17
102
}
330
17
100
AcDbMlineStyle
  2
STANDARD
 70
     0
  3

 62
   256
 51
90.0
 52
90.0
 71
     2
 49
0.5
 62
   256
  6
BYLAYER
 49
-0.5
 62
   256
  6
BYLAYER
  0
ACDBPLACEHOLDER
  5
F
102
{ACAD_REACTORS
330
E
102
}
330
E
  0
TABLESTYLE
  5
11B
102
{ACAD_REACTORS
330
11A
102
}
330
11A
100
AcDbTableStyle
  3
Standard
 70
     0
 71
     0
 40
1.5
 41
1.5
280
     0
281
     0
  7
STANDARD
140
4.5
170
     2
 62
     0
 63
     7
283
     0
274
    -2
284
     1
 64
     0
275
    -2
285
     1
 65
     0
276
    -2
286
     1
 66
     0
277
    -2
287
     1
 67
     0
278
    -2
288
     1
 68
     0
279
    -2
289
     1
 69
     0
  7
STANDARD
140
6.0
170
     5
 62
     0
 63
     7
283
     0
274
    -2
284
     1
 64
     0
275
    -2
285
     1
 65
     0
276
    -2
286
     1
 66
     0
277
    -2
287
     1
 67
     0
278
    -2
288
     1
 68
     0
279
    -2
289
     1
 69
     0
  7
STANDARD
140
4.5
170
     5
 62
     0
 63
     7
283
     0
274
    -2
284
     1
 64
     0
275
    -2
285
     1
 65
     0
276
    -2
286
     1
 66
     0
277
    -2
287
     1
 67
     0
278
    -2
288
     1
 68
     0
279
    -2
289
     1
 69
     0
  0
DICTIONARYVAR
  5
138
102
{ACAD_REACTORS
330
94
102
}
330
94
100
DictionaryVariables
280
     0
  1
STANDARD
  0
DICTIONARYVAR
  5
96
102
{ACAD_REACTORS
330
94
102
}
330
94
100
DictionaryVariables
280
     0
  1
2
  0
DICTIONARYVAR
  5
95
102
{ACAD_REACTORS
330
94
102
}
330
94
100
DictionaryVariables
280
     0
  1
0
  0
DICTIONARYVAR
  5
1689
102
{ACAD_REACTORS
330
94
102
}
330
94
100
DictionaryVariables
280
     0
  1

  0
DICTIONARY
  5
1B5
102
{ACAD_REACTORS
330
5B
102
}
330
5B
100
AcDbDictionary
281
     1
  0
DICTIONARY
  5
61
102
{ACAD_REACTORS
330
5B
102
}
330
5B
100
AcDbDictionary
281
     1
  0
XRECORD
  5
123
102
{ACAD_REACTORS
330
5B
102
}
330
5B
100
AcDbXrecord
280
     1
 90
-1023410169
  0
DICTIONARY
  5
4C2B
330
22
100
AcDbDictionary
280
     1
281
     1
  3
ACAD_XREC_ROUNDTRIP
360
4C2C
  0
DICTIONARY
  5
4C29
330
1E
100
AcDbDictionary
280
     1
281
     1
  3
ACAD_XREC_ROUNDTRIP
360
4C2A
  0
DICTIONARY
  5
4C2D
330
26
100
AcDbDictionary
280
     1
281
     1
  3
ACAD_XREC_ROUNDTRIP
360
4C2E
  0
XRECORD
  5
4C2C
102
{ACAD_REACTORS
330
4C2B
102
}
330
4C2B
100
AcDbXrecord
280
     1
102
SHADEPLOT
 70
     0
102
SHADEPLOTRESLEVEL
 70
     2
102
SHADEPLOTCUSTOMDPI
 70
   300
  0
XRECORD
  5
4C2A
102
{ACAD_REACTORS
330
4C29
102
}
330
4C29
100
AcDbXrecord
280
     1
102
SHADEPLOT
 70
     0
102
SHADEPLOTRESLEVEL
 70
     2
102
SHADEPLOTCUSTOMDPI
 70
   300
  0
XRECORD
  5
4C2E
102
{ACAD_REACTORS
330
4C2D
102
}
330
4C2D
100
AcDbXrecord
280
     1
102
SHADEPLOT
 70
     0
102
SHADEPLOTRESLEVEL
 70
     2
102
SHADEPLOTCUSTOMDPI
 70
   300
  0
ENDSEC
  0
EOF
