  0
SECTION
  2
HEADER
  9
$ACADVER
  1
AC1015
  9
$ACADMAINTVER
 70
    20
  9
$DWGCODEPAGE
  3
ANSI_950
  9
$INSBASE
 10
0.0
 20
0.0
 30
0.0
  9
$EXTMIN
 10
1.000000000000000E+20
 20
1.000000000000000E+20
 30
1.000000000000000E+20
  9
$EXTMAX
 10
-1.000000000000000E+20
 20
-1.000000000000000E+20
 30
-1.000000000000000E+20
  9
$LIMMIN
 10
15.89544252387165
 20
13.57193551649719
  9
$LIMMAX
 10
37.89544252387306
 20
30.57193551649828
  9
$ORTHOMODE
 70
     1
  9
$REGENMODE
 70
     1
  9
$FILLMODE
 70
     1
  9
$QTEXTMODE
 70
     0
  9
$MIRRTEXT
 70
     1
  9
$LTSCALE
 40
2.5
  9
$ATTMODE
 70
     1
  9
$TEXTSIZE
 40
3.0
  9
$TRACEWID
 40
0.05
  9
$TEXTSTYLE
  7
DAYUS
  9
$CLAYER
  8
AM_5
  9
$CELTYPE
  6
BYLAYER
  9
$CECOLOR
 62
   256
  9
$CELTSCALE
 40
1.0
  9
$DISPSILH
 70
     0
  9
$DIMSCALE
 40
0.8333333333333333
  9
$DIMASZ
 40
3.0
  9
$DIMEXO
 40
1.0
  9
$DIMDLI
 40
6.0
  9
$DIMRND
 40
0.0
  9
$DIMDLE
 40
0.0
  9
$DIMEXE
 40
1.5
  9
$DIMTP
 40
0.1
  9
$DIMTM
 40
0.1
  9
$DIMTXT
 40
3.5
  9
$DIMCEN
 40
0.0
  9
$DIMTSZ
 40
0.0
  9
$DIMTOL
 70
     0
  9
$DIMLIM
 70
     0
  9
$DIMTIH
 70
     0
  9
$DIMTOH
 70
     0
  9
$DIMSE1
 70
     0
  9
$DIMSE2
 70
     0
  9
$DIMTAD
 70
     1
  9
$DIMZIN
 70
     8
  9
$DIMBLK
  1

  9
$DIMASO
 70
     1
  9
$DIMSHO
 70
     1
  9
$DIMPOST
  1

  9
$DIMAPOST
  1
"
  9
$DIMALT
 70
     0
  9
$DIMALTD
 70
     2
  9
$DIMALTF
 40
0.0393701
  9
$DIMLFAC
 40
1.0
  9
$DIMTOFL
 70
     1
  9
$DIMTVP
 40
0.0
  9
$DIMTIX
 70
     0
  9
$DIMSOXD
 70
     0
  9
$DIMSAH
 70
     0
  9
$DIMBLK1
  1

  9
$DIMBLK2
  1

  9
$DIMSTYLE
  2
AM_ISO
  9
$DIMCLRD
 70
   256
  9
$DIMCLRE
 70
   256
  9
$DIMCLRT
 70
   256
  9
$DIMTFAC
 40
0.6
  9
$DIMGAP
 40
1.0
  9
$DIMJUST
 70
     0
  9
$DIMSD1
 70
     0
  9
$DIMSD2
 70
     0
  9
$DIMTOLJ
 70
     0
  9
$DIMTZIN
 70
     8
  9
$DIMALTZ
 70
     0
  9
$DIMALTTZ
 70
     0
  9
$DIMUPT
 70
     0
  9
$DIMDEC
 70
     2
  9
$DIMTDEC
 70
     8
  9
$DIMALTU
 70
     2
  9
$DIMALTTD
 70
     2
  9
$DIMTXSTY
  7
STANDARD
  9
$DIMAUNIT
 70
     0
  9
$DIMADEC
 70
     0
  9
$DIMALTRND
 40
0.0
  9
$DIMAZIN
 70
     2
  9
$DIMDSEP
 70
    46
  9
$DIMATFIT
 70
     3
  9
$DIMFRAC
 70
     0
  9
$DIMLDRBLK
  1

  9
$DIMLUNIT
 70
     2
  9
$DIMLWD
 70
    -1
  9
$DIMLWE
 70
    -1
  9
$DIMTMOVE
 70
     0
  9
$LUNITS
 70
     2
  9
$LUPREC
 70
     2
  9
$SKETCHINC
 40
0.1
  9
$FILLETRAD
 40
2.5
  9
$AUNITS
 70
     0
  9
$AUPREC
 70
     0
  9
$MENU
  1
acad
  9
$ELEVATION
 40
0.0
  9
$PELEVATION
 40
0.0
  9
$THICKNESS
 40
0.0
  9
$LIMCHECK
 70
     0
  9
$CHAMFERA
 40
2.5
  9
$CHAMFERB
 40
2.5
  9
$CHAMFERC
 40
0.0
  9
$CHAMFERD
 40
0.0
  9
$SKPOLY
 70
     0
  9
$TDCREATE
 40
2453568.378998276
  9
$TDUCREATE
 40
2453568.045664943
  9
$TDUPDATE
 40
2455118.485429248
  9
$TDUUPDATE
 40
2455118.152095915
  9
$TDINDWG
 40
8.4727027431
  9
$TDUSRTIMER
 40
8.4727027431
  9
$USRTIMER
 70
     1
  9
$ANGBASE
 50
0.0
  9
$ANGDIR
 70
     0
  9
$PDMODE
 70
     0
  9
$PDSIZE
 40
0.0
  9
$PLINEWID
 40
0.0
  9
$SPLFRAME
 70
     0
  9
$SPLINETYPE
 70
     6
  9
$SPLINESEGS
 70
     8
  9
$HANDSEED
  5
1A99
  9
$SURFTAB1
 70
     6
  9
$SURFTAB2
 70
     6
  9
$SURFTYPE
 70
     6
  9
$SURFU
 70
     6
  9
$SURFV
 70
     6
  9
$UCSBASE
  2

  9
$UCSNAME
  2

  9
$UCSORG
 10
0.0
 20
0.0
 30
0.0
  9
$UCSXDIR
 10
1.0
 20
0.0
 30
0.0
  9
$UCSYDIR
 10
0.0
 20
1.0
 30
0.0
  9
$UCSORTHOREF
  2

  9
$UCSORTHOVIEW
 70
     0
  9
$UCSORGTOP
 10
0.0
 20
0.0
 30
0.0
  9
$UCSORGBOTTOM
 10
0.0
 20
0.0
 30
0.0
  9
$UCSORGLEFT
 10
0.0
 20
0.0
 30
0.0
  9
$UCSORGRIGHT
 10
0.0
 20
0.0
 30
0.0
  9
$UCSORGFRONT
 10
0.0
 20
0.0
 30
0.0
  9
$UCSORGBACK
 10
0.0
 20
0.0
 30
0.0
  9
$PUCSBASE
  2

  9
$PUCSNAME
  2

  9
$PUCSORG
 10
0.0
 20
0.0
 30
0.0
  9
$PUCSXDIR
 10
1.0
 20
0.0
 30
0.0
  9
$PUCSYDIR
 10
0.0
 20
1.0
 30
0.0
  9
$PUCSORTHOREF
  2

  9
$PUCSORTHOVIEW
 70
     0
  9
$PUCSORGTOP
 10
0.0
 20
0.0
 30
0.0
  9
$PUCSORGBOTTOM
 10
0.0
 20
0.0
 30
0.0
  9
$PUCSORGLEFT
 10
0.0
 20
0.0
 30
0.0
  9
$PUCSORGRIGHT
 10
0.0
 20
0.0
 30
0.0
  9
$PUCSORGFRONT
 10
0.0
 20
0.0
 30
0.0
  9
$PUCSORGBACK
 10
0.0
 20
0.0
 30
0.0
  9
$USERI1
 70
     0
  9
$USERI2
 70
     0
  9
$USERI3
 70
     0
  9
$USERI4
 70
     0
  9
$USERI5
 70
     0
  9
$USERR1
 40
0.0
  9
$USERR2
 40
0.0
  9
$USERR3
 40
0.0
  9
$USERR4
 40
0.0
  9
$USERR5
 40
0.0
  9
$WORLDVIEW
 70
     1
  9
$SHADEDGE
 70
     3
  9
$SHADEDIF
 70
    70
  9
$TILEMODE
 70
     0
  9
$MAXACTVP
 70
    48
  9
$PINSBASE
 10
0.0
 20
0.0
 30
0.0
  9
$PLIMCHECK
 70
     0
  9
$PEXTMIN
 10
-46.10567262957033
 20
-131.5764706274002
 30
-0.0019983784608826
  9
$PEXTMAX
 10
187.6614754344714
 20
38.43736308994846
 30
111.3994672812402
  9
$PLIMMIN
 10
-96.77123534593777
 20
-161.7953456776746
  9
$PLIMMAX
 10
226.1324177750574
 20
66.54826762185155
  9
$UNITMODE
 70
     0
  9
$VISRETAIN
 70
     1
  9
$PLINEGEN
 70
     0
  9
$PSLTSCALE
 70
     1
  9
$TREEDEPTH
 70
  3020
  9
$CMLSTYLE
  2
STANDARD
  9
$CMLJUST
 70
     0
  9
$CMLSCALE
 40
1.0
  9
$PROXYGRAPHICS
 70
     1
  9
$MEASUREMENT
 70
     1
  9
$CELWEIGHT
370
    -1
  9
$ENDCAPS
280
     0
  9
$JOINSTYLE
280
     0
  9
$LWDISPLAY
290
     0
  9
$INSUNITS
 70
     4
  9
$HYPERLINKBASE
  1

  9
$STYLESHEET
  1

  9
$XEDIT
290
     1
  9
$CEPSNTYPE
380
     0
  9
$PSTYLEMODE
290
     1
  9
$FINGERPRINTGUID
  2
{BB13061C-39BD-4A19-B7D0-DE323C76362D}
  9
$VERSIONGUID
  2
{64318F90-DAAE-4E65-92B9-9FF3FB804E88}
  9
$EXTNAMES
290
     1
  9
$PSVPSCALE
 40
0.0
  9
$OLESTARTUP
290
     0
  0
ENDSEC
  0
SECTION
  2
CLASSES
  0
CLASS
  1
ACMESTATEMGR
  2
AcMeStateMgr
  3
AcMeServices
 90
        0
280
     0
281
     0
  0
CLASS
  1
ACMESCOPE
  2
AcMeScope
  3
AcMeServices
 90
        0
280
     0
281
     0
  0
CLASS
  1
ACMECOMMANDHISTORY
  2
AcMeCommandHistory
  3
AcMeServices
 90
        0
280
     0
281
     0
  0
CLASS
  1
ACRFINSADJUSTERMGR
  2
AcRfInsAdjusterMgr
  3
AcMeServices
 90
        0
280
     0
281
     0
  0
CLASS
  1
ACMEDRAWINGMAN
  2
AcMeDrawingMan
  3
AcMeServices
 90
        0
280
     0
281
     0
  0
CLASS
  1
AMATTR
  2
AcMeAttribute
  3
AcMeServices
 90
    32768
280
     0
281
     0
  0
CLASS
  1
ACMEBOMCOLUMN
  2
AcMeBOMColumn
  3
AcMeServices
 90
    32768
280
     0
281
     0
  0
CLASS
  1
ACMEBOMCONF
  2
AcMeBOMConf
  3
AcMeServices
 90
    32768
280
     0
281
     0
  0
CLASS
  1
ACMEBOMTABLE
  2
AcMeBOMTable
  3
AcMeServices
 90
    32768
280
     0
281
     0
  0
CLASS
  1
ACMEBOMENTRY
  2
AcMeBOMEntry
  3
AcMeServices
 90
    32768
280
     0
281
     0
  0
CLASS
  1
ACMEVIEW
  2
AcMeView
  3
AcMeServices
 90
        0
280
     0
281
     0
  0
CLASS
  1
ACGREFMASTER
  2
AcGrefMaster
  3
AcAttribServices
 90
        0
280
     0
281
     0
  0
CLASS
  1
AMIMASTER
  2
AmiMaster
  3
AmiServices
 90
        0
280
     0
281
     0
  0
CLASS
  1
ACASGREFMASTER
  2
AcAsGrefMaster
  3
AutoSurfResolverServices
 90
        0
280
     0
281
     0
  0
CLASS
  1
ADAPPL
  2
AcAdAppl
  3
DesignerServices
 90
        0
280
     0
281
     0
  0
CLASS
  1
DEPMGR
  2
AcAdDepMgr
  3
DesignerServices
 90
        0
280
     0
281
     0
  0
CLASS
  1
PARAMMGR
  2
AcAdParamMgr
  3
DesignerServices
 90
        0
280
     0
281
     0
  0
CLASS
  1
PARAMSCOPE
  2
AcAdParamScope
  3
DesignerServices
 90
        0
280
     0
281
     0
  0
CLASS
  1
ACIMSYSVARMAN
  2
AcImSysVarManager
  3
AcMeServices
 90
        0
280
     0
281
     0
  0
CLASS
  1
ACIMINTSYSVAR
  2
AcImIntSysVar
  3
AcMeServices
 90
        0
280
     0
281
     0
  0
CLASS
  1
ACIMREALSYSVAR
  2
AcImRealSysVar
  3
AcMeServices
 90
        0
280
     0
281
     0
  0
CLASS
  1
ACIMSTRSYSVAR
  2
AcImStrSysVar
  3
AcMeServices
 90
        0
280
     0
281
     0
  0
CLASS
  1
NAMEDAPPL
  2
AcAdNamedAppl
  3
DesignerServices
 90
        0
280
     0
281
     0
  0
CLASS
  1
ADHNTMPLT
  2
AdHoleNoteTemplateMgr
  3
DesignerServices
 90
    32768
280
     0
281
     0
  0
CLASS
  1
AM_HNTEMPLATE_MGR_NAME
  2
AdHoleNoteTemplateMgrName
  3
DesignerServices
 90
    32768
280
     0
281
     0
  0
CLASS
  1
ACADGREFMODULE
  2
AcAdGrefModule
  3
AdGrefServices
 90
        0
280
     0
281
     0
  0
CLASS
  1
AM_DRAWING_MGR
  2
AcDmDwgMgr
  3
AcMechDwgViewMgmt
 90
        0
280
     0
281
     0
  0
CLASS
  1
AM_DWG_DOCUMENT
  2
AcDmDwgDocument
  3
AcMechDwgViewMgmt
 90
        0
280
     0
281
     0
  0
CLASS
  1
AM_DWG_SHEET
  2
AcDmSheet
  3
AcMechDwgViewMgmt
 90
        0
280
     0
281
     0
  0
CLASS
  1
AM_VIEWDIMPARMAP
  2
AcDmViewDimParMap
  3
AcMechDwgViewMgmt
 90
        0
280
     0
281
     0
  0
CLASS
  1
AM_DWGMGR_NAME
  2
AcDmDwgMgrName
  3
AcMechDwgViewMgmt
 90
        0
280
     0
281
     0
  0
CLASS
  1
ACAMPROJECT
  2
AcAmProject
  3
DesignerAssemblies
 90
        0
280
     0
281
     0
  0
CLASS
  1
ACAMGRCOMPSET
  2
AcAmGrCompSet
  3
DesignerAssemblies
 90
    32768
280
     1
281
     0
  0
CLASS
  1
ACAMGRCOMPDEFSET
  2
AcAmGrCompDefSet
  3
DesignerAssemblies
 90
        0
280
     0
281
     0
  0
CLASS
  1
ACAMGRCOMPDEF
  2
AcAmGrCompDef
  3
DesignerAssemblies
 90
        0
280
     0
281
     0
  0
CLASS
  1
ACCMCONTEXT
  2
AcCmContext
  3
DesignerAssemblies
 90
        0
280
     0
281
     0
  0
CLASS
  1
ACAMCOMPDEF
  2
AcAmCompDef
  3
DesignerAssemblies
 90
        0
280
     0
281
     0
  0
CLASS
  1
ACAMCOMPDEFMGR
  2
AcAmCompDefMgr
  3
DesignerAssemblies
 90
        0
280
     0
281
     0
  0
CLASS
  1
AMCONTEXTMGR
  2
AcAmContextMgr
  3
DesignerAssemblies
 90
        0
280
     0
281
     0
  0
CLASS
  1
ACAMCONTEXTMODELER
  2
AcAmContextModeler
  3
DesignerAssemblies
 90
        0
280
     0
281
     0
  0
CLASS
  1
ACDMVIEWGEOM
  2
AcDmViewGeometry
  3
AcMechDwgViewMgmt
 90
    32768
280
     0
281
     1
  0
CLASS
  1
CBROWSERAPPOBJECT
  2
CBrowserAppObject
  3
McadcomServices
 90
        0
280
     0
281
     0
  0
CLASS
  1
IM_STATIC_MAN
  2
AcImStaticVarManager
  3
AcMeServices
 90
        0
280
     0
281
     0
  0
CLASS
  1
ASAPP
  2
AcAsAppObject
  3
AutoSurfServices
 90
        0
280
     0
281
     0
  0
CLASS
  1
ACIMDBLSTATICVAR
  2
AcImDblStaticVar
  3
AcMeServices
 90
        0
280
     0
281
     0
  0
CLASS
  1
ACIMSTRSTATICVAR
  2
AcImStrStaticVar
  3
AcMeServices
 90
        0
280
     0
281
     0
  0
CLASS
  1
ACIMINTSTATICVAR
  2
AcImIntStaticVar
  3
AcMeServices
 90
        0
280
     0
281
     0
  0
CLASS
  1
CATALOGSTATE
  2
AcAmCatalogState
  3
DesignerAssemblies
 90
        0
280
     0
281
     0
  0
CLASS
  1
DM_PLACEHOLDER
  2
AcDmSelsetPlaceholder
  3
AcMechDwgViewMgmt
 90
        0
280
     0
281
     0
  0
CLASS
  1
DICTIONARYVAR
  2
AcDbDictionaryVar
  3
ObjectDBX Classes
 90
        0
280
     0
281
     0
  0
CLASS
  1
LAYER_INDEX
  2
AcDbLayerIndex
  3
ObjectDBX Classes
 90
        0
280
     0
281
     0
  0
CLASS
  1
IDBUFFER
  2
AcDbIdBuffer
  3
ObjectDBX Classes
 90
        0
280
     0
281
     0
  0
CLASS
  1
ACDBDICTIONARYWDFLT
  2
AcDbDictionaryWithDefault
  3
ObjectDBX Classes
 90
        0
280
     0
281
     0
  0
CLASS
  1
ACDBPLACEHOLDER
  2
AcDbPlaceHolder
  3
ObjectDBX Classes
 90
        0
280
     0
281
     0
  0
CLASS
  1
LAYOUT
  2
AcDbLayout
  3
ObjectDBX Classes
 90
        0
280
     0
281
     0
  0
CLASS
  1
ACME_DOCUMENT
  2
AcMeDbDoc
  3
AcMeServices
 90
        0
280
     0
281
     0
  0
CLASS
  1
AMGSETTINGSOBJ
  2
AmgSettingsObj
  3
"AcadM|Product Description: AutoCAD Mechanical 2000|Company: Autodesk"
 90
        0
280
     0
281
     0
  0
CLASS
  1
AMGOBJPROPCFG
  2
AmgObjPropCfg
  3
"AmgLay|Product Description: AutoCAD Mechanical 2000|Company: Autodesk"
 90
        1
280
     0
281
     0
  0
CLASS
  1
ACDBENTITYCACHE
  2
AcMeEntityCache
  3
AcMeServices
 90
        0
280
     0
281
     0
  0
CLASS
  1
GSMANAGER
  2
AcMeGSManager
  3
AcMeServices
 90
        0
280
     0
281
     0
  0
CLASS
  1
AMDTINTERNALREACTOR
  2
AmdtInternalReactor
  3
AcMeServices
 90
        0
280
     0
281
     0
  0
CLASS
  1
ACME_DATABASE
  2
AcMeDbDatabase
  3
AcMeServices
 90
        0
280
     0
281
     0
  0
CLASS
  1
ACGREFACADMASTER
  2
AcGrefacadMaster
  3
AcGrefServices
 90
        0
280
     0
281
     0
  0
CLASS
  1
AMDTMENUSTATEMGR
  2
AmdtMenuStateMgr
  3
McadcomServices
 90
        0
280
     0
281
     0
  0
CLASS
  1
AMDTMCOMMENUSTATE
  2
AmdtMcomMenuState
  3
McadcomServices
 90
        0
280
     0
281
     0
  0
CLASS
  1
MAPIADMODULE
  2
MApiAdModule
  3
MApiAdServices
 90
        0
280
     0
281
     0
  0
CLASS
  1
AMDTDMMENUSTATE
  2
AmdtDmMenuState
  3
AcMechDwgViewMgmt
 90
        0
280
     0
281
     0
  0
CLASS
  1
AMDTADMENUSTATE
  2
AmdtAdMenuState
  3
DesignerServices
 90
        0
280
     0
281
     0
  0
CLASS
  1
AMDTAMMENUSTATE
  2
AmdtAmMenuState
  3
DesignerAssemblies
 90
        0
280
     0
281
     0
  0
CLASS
  1
ACMDATADICTIONARY
  2
AcmDataDictionary
  3
"AcmSymBB|Product Description: AutoCAD Mechanical 2004 DX|Company: Autodesk"
 90
        0
280
     0
281
     0
  0
CLASS
  1
ACMDATAENTRYBLOCK
  2
AcmDataEntryBlock
  3
"AcmSymBB|Product Description: AutoCAD Mechanical 2004 DX|Company: Autodesk"
 90
        0
280
     0
281
     0
  0
CLASS
  1
AMDTBROWSERDBTAB
  2
AmdtBrowserDbTab
  3
McadcomServices
 90
        0
280
     0
281
     0
  0
CLASS
  1
ACAMGFILTERDAT
  2
AcAmgFilterDat
  3
"AcadM|Product Description: AutoCAD Mechanical 2000|Company: Autodesk"
 90
    32768
280
     0
281
     0
  0
CLASS
  1
MAPIAMMOUDLE
  2
MApiAmModule
  3
MApiAmServices
 90
        0
280
     0
281
     0
  0
CLASS
  1
AMDTMAPISURFMOUDULE
  2
AmdtMApiSurfModule
  3
MApiSurfServices
 90
        0
280
     0
281
     0
  0
CLASS
  1
ACMSTANDARDANSI
  2
AcmStandardANSI
  3
"Amdt_StdImp|Product Description: AutoCAD Mechanical 2004 DX|Company: Autodesk"
 90
    32768
280
     0
281
     0
  0
CLASS
  1
ACMSURFSTANDARDANSI
  2
AcmSurfTextStdANSI
  3
"Amdt_StdImp|Product Description: AutoCAD Mechanical 2004 DX|Company: Autodesk"
 90
    32768
280
     0
281
     0
  0
CLASS
  1
ACMFCFSTANDARDANSI
  2
AcmFCFStdANSI
  3
"Amdt_StdImp|Product Description: AutoCAD Mechanical 2004 DX|Company: Autodesk"
 90
    32768
280
     0
281
     0
  0
CLASS
  1
ACMWELDSTANDARDANSI
  2
AcmWeldingStdANSI
  3
"Amdt_StdImp|Product Description: AutoCAD Mechanical 2004 DX|Company: Autodesk"
 90
    32768
280
     0
281
     0
  0
CLASS
  1
ACMIDSTANDARDANSI
  2
AcmIdStdANSI
  3
"Amdt_StdImp|Product Description: AutoCAD Mechanical 2004 DX|Company: Autodesk"
 90
    32768
280
     0
281
     0
  0
CLASS
  1
ACMDATUMSTANDARDANSI
  2
AcmDatumStdANSI
  3
"Amdt_StdImp|Product Description: AutoCAD Mechanical 2004 DX|Company: Autodesk"
 90
    32768
280
     0
281
     0
  0
CLASS
  1
ACMBOMSTANDARDANSI
  2
AcmBOMStdANSI
  3
"Amdt_StdImp|Product Description: AutoCAD Mechanical 2004 DX|Company: Autodesk"
 90
    32768
280
     0
281
     0
  0
CLASS
  1
ACAMGLAYSTD
  2
AcAmgLayStd
  3
"AcAmgLayStd|Product Description: AutoCAD Mechanical 2000|Company: Autodesk"
 90
        0
280
     0
281
     0
  0
CLASS
  1
ACAMGDIMSTD
  2
AcAmgDimStd
  3
"AcAmgDimStd|Product Description: AutoCAD Mechanical 2000|Company: Autodesk"
 90
        0
280
     0
281
     0
  0
CLASS
  1
ACAMGTITLESTD
  2
AcAmgTitleStd
  3
"TITLEAPP"
 90
        0
280
     0
281
     0
  0
CLASS
  1
ACMDETAILSTANDARDANSI
  2
AmdtDetailSymStdANSI
  3
"Amdt_StdImp|Product Description: AutoCAD Mechanical 2004 DX|Company: Autodesk"
 90
    32768
280
     0
281
     0
  0
CLASS
  1
ACMSECTIONSTANDARDANSI
  2
AmdtSectionSymStdANSI
  3
"Amdt_StdImp|Product Description: AutoCAD Mechanical 2004 DX|Company: Autodesk"
 90
    32768
280
     0
281
     0
  0
CLASS
  1
ACMCENTERLINESTANDARDANSI
  2
AmdtCenterLineStdANSI
  3
"Amdt_StdImp|Product Description: AutoCAD Mechanical 2004 DX|Company: Autodesk"
 90
    32768
280
     0
281
     0
  0
CLASS
  1
ACMTHREADLINESTANDARDANSI
  2
AmdtThreadLineStdANSI
  3
"Amdt_StdImp|Product Description: AutoCAD Mechanical 2004 DX|Company: Autodesk"
 90
    32768
280
     0
281
     0
  0
CLASS
  1
ACMSTANDARDBSI
  2
AcmStandardBSI
  3
"Amdt_StdImp|Product Description: AutoCAD Mechanical 2004 DX|Company: Autodesk"
 90
    32768
280
     0
281
     0
  0
CLASS
  1
ACMSURFSTANDARDBSI
  2
AcmSurfTextStdBSI
  3
"Amdt_StdImp|Product Description: AutoCAD Mechanical 2004 DX|Company: Autodesk"
 90
    32768
280
     0
281
     0
  0
CLASS
  1
ACMFCFSTANDARDBSI
  2
AcmFCFStdBSI
  3
"Amdt_StdImp|Product Description: AutoCAD Mechanical 2004 DX|Company: Autodesk"
 90
    32768
280
     0
281
     0
  0
CLASS
  1
ACMWELDSTANDARDBSI
  2
AcmWeldingStdBSI
  3
"Amdt_StdImp|Product Description: AutoCAD Mechanical 2004 DX|Company: Autodesk"
 90
    32768
280
     0
281
     0
  0
CLASS
  1
ACMIDSTANDARDBSI
  2
AcmIdStdBSI
  3
"Amdt_StdImp|Product Description: AutoCAD Mechanical 2004 DX|Company: Autodesk"
 90
    32768
280
     0
281
     0
  0
CLASS
  1
ACMDATUMSTANDARDBSI
  2
AcmDatumStdBSI
  3
"Amdt_StdImp|Product Description: AutoCAD Mechanical 2004 DX|Company: Autodesk"
 90
    32768
280
     0
281
     0
  0
CLASS
  1
ACMBOMSTANDARDBSI
  2
AcmBOMStdBSI
  3
"Amdt_StdImp|Product Description: AutoCAD Mechanical 2004 DX|Company: Autodesk"
 90
    32768
280
     0
281
     0
  0
CLASS
  1
ACMDETAILSTANDARDBSI
  2
AmdtDetailSymStdBSI
  3
"Amdt_StdImp|Product Description: AutoCAD Mechanical 2004 DX|Company: Autodesk"
 90
    32768
280
     0
281
     0
  0
CLASS
  1
ACMSECTIONSTANDARDBSI
  2
AmdtSectionSymStdBSI
  3
"Amdt_StdImp|Product Description: AutoCAD Mechanical 2004 DX|Company: Autodesk"
 90
    32768
280
     0
281
     0
  0
CLASS
  1
ACMCENTERLINESTANDARDBSI
  2
AmdtCenterLineStdBSI
  3
"Amdt_StdImp|Product Description: AutoCAD Mechanical 2004 DX|Company: Autodesk"
 90
    32768
280
     0
281
     0
  0
CLASS
  1
ACMTHREADLINESTANDARDBSI
  2
AmdtThreadLineStdBSI
  3
"Amdt_StdImp|Product Description: AutoCAD Mechanical 2004 DX|Company: Autodesk"
 90
    32768
280
     0
281
     0
  0
CLASS
  1
ACMSTANDARDDIN
  2
AcmStandardDIN
  3
"Amdt_StdImp|Product Description: AutoCAD Mechanical 2004 DX|Company: Autodesk"
 90
    32768
280
     0
281
     0
  0
CLASS
  1
AMDTEDGESTANDARDDIN
  2
AmdtEdgeStdDIN
  3
"Amdt_StdImp|Product Description: AutoCAD Mechanical 2004 DX|Company: Autodesk"
 90
    32768
280
     0
281
     0
  0
CLASS
  1
ACMSURFSTANDARDDIN
  2
AcmSurfTextStdDIN
  3
"Amdt_StdImp|Product Description: AutoCAD Mechanical 2004 DX|Company: Autodesk"
 90
    32768
280
     0
281
     0
  0
CLASS
  1
ACMFCFSTANDARDDIN
  2
AcmFCFStdDIN
  3
"Amdt_StdImp|Product Description: AutoCAD Mechanical 2004 DX|Company: Autodesk"
 90
    32768
280
     0
281
     0
  0
CLASS
  1
ACMWELDSTANDARDDIN
  2
AcmWeldingStdDIN
  3
"Amdt_StdImp|Product Description: AutoCAD Mechanical 2004 DX|Company: Autodesk"
 90
    32768
280
     0
281
     0
  0
CLASS
  1
ACMIDSTANDARDDIN
  2
AcmIdStdDIN
  3
"Amdt_StdImp|Product Description: AutoCAD Mechanical 2004 DX|Company: Autodesk"
 90
    32768
280
     0
281
     0
  0
CLASS
  1
ACMDATUMSTANDARDDIN
  2
AcmDatumStdDIN
  3
"Amdt_StdImp|Product Description: AutoCAD Mechanical 2004 DX|Company: Autodesk"
 90
    32768
280
     0
281
     0
  0
CLASS
  1
ACMBOMSTANDARDDIN
  2
AcmBOMStdDIN
  3
"Amdt_StdImp|Product Description: AutoCAD Mechanical 2004 DX|Company: Autodesk"
 90
    32768
280
     0
281
     0
  0
CLASS
  1
ACMDETAILSTANDARDDIN
  2
AmdtDetailSymStdDIN
  3
"Amdt_StdImp|Product Description: AutoCAD Mechanical 2004 DX|Company: Autodesk"
 90
    32768
280
     0
281
     0
  0
CLASS
  1
ACMSECTIONSTANDARDDIN
  2
AmdtSectionSymStdDIN
  3
"Amdt_StdImp|Product Description: AutoCAD Mechanical 2004 DX|Company: Autodesk"
 90
    32768
280
     0
281
     0
  0
CLASS
  1
ACMCENTERLINESTANDARDDIN
  2
AmdtCenterLineStdDIN
  3
"Amdt_StdImp|Product Description: AutoCAD Mechanical 2004 DX|Company: Autodesk"
 90
    32768
280
     0
281
     0
  0
CLASS
  1
ACMTHREADLINESTANDARDDIN
  2
AmdtThreadLineStdDIN
  3
"Amdt_StdImp|Product Description: AutoCAD Mechanical 2004 DX|Company: Autodesk"
 90
    32768
280
     0
281
     0
  0
CLASS
  1
ACMSTANDARDISO
  2
AcmStandardISO
  3
"Amdt_StdImp|Product Description: AutoCAD Mechanical 2004 DX|Company: Autodesk"
 90
        0
280
     0
281
     0
  0
CLASS
  1
ACMSURFSTANDARDISO
  2
AcmSurfTextStdISO
  3
"Amdt_StdImp|Product Description: AutoCAD Mechanical 2004 DX|Company: Autodesk"
 90
        0
280
     0
281
     0
  0
CLASS
  1
ACMFCFSTANDARDISO
  2
AcmFCFStdISO
  3
"Amdt_StdImp|Product Description: AutoCAD Mechanical 2004 DX|Company: Autodesk"
 90
        0
280
     0
281
     0
  0
CLASS
  1
ACMWELDSTANDARDISO
  2
AcmWeldingStdISO
  3
"Amdt_StdImp|Product Description: AutoCAD Mechanical 2004 DX|Company: Autodesk"
 90
        0
280
     0
281
     0
  0
CLASS
  1
ACMIDSTANDARDISO
  2
AcmIdStdISO
  3
"Amdt_StdImp|Product Description: AutoCAD Mechanical 2004 DX|Company: Autodesk"
 90
        0
280
     0
281
     0
  0
CLASS
  1
ACMDATUMSTANDARDISO
  2
AcmDatumStdISO
  3
"Amdt_StdImp|Product Description: AutoCAD Mechanical 2004 DX|Company: Autodesk"
 90
        0
280
     0
281
     0
  0
CLASS
  1
ACMBOMSTANDARDISO
  2
AcmBOMStdISO
  3
"Amdt_StdImp|Product Description: AutoCAD Mechanical 2004 DX|Company: Autodesk"
 90
        0
280
     0
281
     0
  0
CLASS
  1
AMDTEDGESTANDARDISO
  2
AmdtEdgeStdISO
  3
"Amdt_StdImp|Product Description: AutoCAD Mechanical 2004 DX|Company: Autodesk"
 90
    32768
280
     0
281
     0
  0
CLASS
  1
ACMDETAILSTANDARDISO
  2
AmdtDetailSymStdISO
  3
"Amdt_StdImp|Product Description: AutoCAD Mechanical 2004 DX|Company: Autodesk"
 90
        0
280
     0
281
     0
  0
CLASS
  1
ACMSECTIONSTANDARDISO
  2
AmdtSectionSymStdISO
  3
"Amdt_StdImp|Product Description: AutoCAD Mechanical 2004 DX|Company: Autodesk"
 90
        0
280
     0
281
     0
  0
CLASS
  1
ACMCENTERLINESTANDARDISO
  2
AmdtCenterLineStdISO
  3
"Amdt_StdImp|Product Description: AutoCAD Mechanical 2004 DX|Company: Autodesk"
 90
        0
280
     0
281
     0
  0
CLASS
  1
ACMTHREADLINESTANDARDISO
  2
AmdtThreadLineStdISO
  3
"Amdt_StdImp|Product Description: AutoCAD Mechanical 2004 DX|Company: Autodesk"
 90
        0
280
     0
281
     0
  0
CLASS
  1
ACMSTANDARDJIS
  2
AcmStandardJIS
  3
"Amdt_StdImp|Product Description: AutoCAD Mechanical 2004 DX|Company: Autodesk"
 90
    32768
280
     0
281
     0
  0
CLASS
  1
ACMSURFSTANDARDJIS
  2
AcmSurfTextStdJIS
  3
"Amdt_StdImp|Product Description: AutoCAD Mechanical 2004 DX|Company: Autodesk"
 90
    32768
280
     0
281
     0
  0
CLASS
  1
ACMFCFSTANDARDJIS
  2
AcmFCFStdJIS
  3
"Amdt_StdImp|Product Description: AutoCAD Mechanical 2004 DX|Company: Autodesk"
 90
    32768
280
     0
281
     0
  0
CLASS
  1
ACMWELDSTANDARDJIS
  2
AcmWeldingStdJIS
  3
"Amdt_StdImp|Product Description: AutoCAD Mechanical 2004 DX|Company: Autodesk"
 90
    32768
280
     0
281
     0
  0
CLASS
  1
ACMIDSTANDARDJIS
  2
AcmIdStdJIS
  3
"Amdt_StdImp|Product Description: AutoCAD Mechanical 2004 DX|Company: Autodesk"
 90
    32768
280
     0
281
     0
  0
CLASS
  1
ACMDATUMSTANDARDJIS
  2
AcmDatumStdJIS
  3
"Amdt_StdImp|Product Description: AutoCAD Mechanical 2004 DX|Company: Autodesk"
 90
    32768
280
     0
281
     0
  0
CLASS
  1
ACMBOMSTANDARDJIS
  2
AcmBOMStdJIS
  3
"Amdt_StdImp|Product Description: AutoCAD Mechanical 2004 DX|Company: Autodesk"
 90
    32768
280
     0
281
     0
  0
CLASS
  1
ACMDETAILSTANDARDJIS
  2
AmdtDetailSymStdJIS
  3
"Amdt_StdImp|Product Description: AutoCAD Mechanical 2004 DX|Company: Autodesk"
 90
    32768
280
     0
281
     0
  0
CLASS
  1
ACMSECTIONSTANDARDJIS
  2
AmdtSectionSymStdJIS
  3
"Amdt_StdImp|Product Description: AutoCAD Mechanical 2004 DX|Company: Autodesk"
 90
    32768
280
     0
281
     0
  0
CLASS
  1
ACMCENTERLINESTANDARDJIS
  2
AmdtCenterLineStdJIS
  3
"Amdt_StdImp|Product Description: AutoCAD Mechanical 2004 DX|Company: Autodesk"
 90
    32768
280
     0
281
     0
  0
CLASS
  1
ACMTHREADLINESTANDARDJIS
  2
AmdtThreadLineStdJIS
  3
"Amdt_StdImp|Product Description: AutoCAD Mechanical 2004 DX|Company: Autodesk"
 90
    32768
280
     0
281
     0
  0
CLASS
  1
ACMNOTESTANDARDANSI
  2
AmdtNoteStdANSI
  3
"Amdt_StdImp|Product Description: AutoCAD Mechanical 2004 DX|Company: Autodesk"
 90
    32768
280
     0
281
     0
  0
CLASS
  1
ACAMGHOLECHARTSTDANSI
  2
AcAmgHoleChartStdANSI
  3
ACMSYMBB_MODULE_NAME
 90
    32768
280
     0
281
     0
  0
CLASS
  1
TABLESTYLE
  2
AcDbTableStyle
  3
ObjectDBX Classes
 90
     2047
280
     0
281
     0
  0
CLASS
  1
AMDTNOTETEMPLATEDB
  2
AmdtNoteTemplateDB
  3
AMDT_STDIMP_MODULE_NAME
 90
        0
280
     0
281
     0
  0
CLASS
  1
ACMBOM
  2
AcmBom
  3
"AcmSymBB|Product Description: AutoCAD Mechanical 2004 DX|Company: Autodesk"
 90
    32768
280
     0
281
     0
  0
CLASS
  1
AMDTFORMULAUPDATEDISPATCHER
  2
AmdtFormulaUpdateDispatcher
  3
AcMeServices
 90
    32768
280
     0
281
     0
  0
CLASS
  1
ACMPARTLIST
  2
AcmPartList
  3
"AcmSymBB|Product Description: AutoCAD Mechanical 2004 DX|Company: Autodesk"
 90
    33791
280
     0
281
     1
  0
CLASS
  1
VAACXREFPANELOBJECT
  2
VaAcXREFPanelObject
  3
VAAC_ADDIN
 90
    32768
280
     1
281
     0
  0
CLASS
  1
VAACIMAGEINVENTORY
  2
VaAcImageInventory
  3
VAAC_ADDIN
 90
    32768
280
     1
281
     0
  0
CLASS
  1
ACAMEXTERNALCOMPDEF
  2
AcAmExternalCompDef
  3
DesignerAssemblies
 90
    32768
280
     0
281
     0
  0
CLASS
  1
ACCMBODY
  2
AcCmBody
  3
DesignerAssemblies
 90
    32768
280
     0
281
     0
  0
CLASS
  1
ACAMCOMPENT
  2
AcAmCompEnt
  3
DesignerAssemblies
 90
    32768
280
     0
281
     1
  0
CLASS
  1
ACAMCOMPFEEDBACK
  2
AcAmCompFeedback
  3
DesignerAssemblies
 90
    32768
280
     0
281
     0
  0
CLASS
  1
ACAMCOMP
  2
AcAmComp
  3
DesignerAssemblies
 90
    32768
280
     0
281
     0
  0
CLASS
  1
ACAMCOMPENTCLONE
  2
AcAmCompEntClone
  3
DesignerAssemblies
 90
    32768
280
     0
281
     1
  0
CLASS
  1
ACAMCLONEREACTOR
  2
AcAmGrCompCloneReactor
  3
DesignerAssemblies
 90
    32768
280
     0
281
     0
  0
CLASS
  1
EDGEID
  2
AcAdEdgeId
  3
DesignerServices
 90
    32768
280
     0
281
     0
  0
CLASS
  1
ACADPARTCIRCEDGRES
  2
AcAdPartCircEdgRes
  3
AdGrefServices
 90
    32768
280
     0
281
     0
  0
CLASS
  1
ACRFINSADJ
  2
AcRfInsAdjuster
  3
AcMeServices
 90
    32768
280
     0
281
     0
  0
CLASS
  1
FACEID
  2
AcAdFaceId
  3
DesignerServices
 90
    32768
280
     0
281
     0
  0
CLASS
  1
DEPEDGESECONDARYDEPID
  2
AcAdDepEdgeSecondaryDepId
  3
DesignerServices
 90
    32768
280
     0
281
     0
  0
CLASS
  1
ACADPARTPLANARFACERES
  2
AcAdPartPlanarFaceRes
  3
AdGrefServices
 90
    32768
280
     0
281
     0
  0
CLASS
  1
ACMELINEARARROW
  2
AcImLinearArrowDisplay
  3
AcMeServices
 90
    32768
280
     0
281
     1
  0
CLASS
  1
ACAMEXPR
  2
AcAmExpr
  3
DesignerAssemblies
 90
    32768
280
     0
281
     0
  0
CLASS
  1
ACCMINSERTPLPL
  2
AcCmInsertPlPl
  3
AcCmServices
 90
    32768
280
     0
281
     0
  0
CLASS
  1
ACCMCONSTREACTOR
  2
AcCmConstraintReactor
  3
DesignerAssemblies
 90
    32768
280
     0
281
     0
  0
CLASS
  1
ACAMVIEWREACTOR
  2
AcAmViewReactor
  3
DesignerAssemblies
 90
    32768
280
     0
281
     0
  0
CLASS
  1
AMVIEW
  2
AcAmView
  3
DesignerAssemblies
 90
    32768
280
     0
281
     0
  0
CLASS
  1
ACAMVIEWCONTEXT
  2
AcAmViewContext
  3
DesignerAssemblies
 90
    32768
280
     0
281
     0
  0
CLASS
  1
ACAMCOMPENTVIEW
  2
AcAmCompEntView
  3
DesignerAssemblies
 90
    32768
280
     0
281
     1
  0
CLASS
  1
ACAMCOMPVIEWREACTOR
  2
AcAmGrCompViewReactor
  3
DesignerAssemblies
 90
    32768
280
     0
281
     0
  0
CLASS
  1
ACAMVIEWENTITYFILTER
  2
AcAmViewEntityFilter
  3
DesignerAssemblies
 90
    32768
280
     0
281
     0
  0
CLASS
  1
DEPEDGEPATTERNINSTANCE
  2
AcAdDepEdgePatternInstance
  3
DesignerServices
 90
    32768
280
     0
281
     0
  0
CLASS
  1
AM_GREF_PLANE
  2
AcDmGrefPlnDef
  3
AcMechDwgViewMgmt
 90
    32768
280
     0
281
     0
  0
CLASS
  1
AM_ABS_AXIS
  2
AcDmAbsAxisDef
  3
AcMechDwgViewMgmt
 90
    32768
280
     0
281
     0
  0
CLASS
  1
AM_BASE_VIEW_ORIENT
  2
AcDmBaseViewOr
  3
AcMechDwgViewMgmt
 90
    32768
280
     0
281
     0
  0
CLASS
  1
AM_DWG_VIEWPORT
  2
AcDmViewport
  3
AcMechDwgViewMgmt
 90
    32768
280
     0
281
     0
  0
CLASS
  1
AM_VIEW_DISPLAY
  2
AcDmDwgViewDisplay
  3
AcMechDwgViewMgmt
 90
    32768
280
     0
281
     0
  0
CLASS
  1
AM_CLDFLTS
  2
AcDmClDflts
  3
AcMechDwgViewMgmt
 90
    32768
280
     0
281
     0
  0
CLASS
  1
AM_BASE_VIEW
  2
AcDmBaseView
  3
AcMechDwgViewMgmt
 90
    32768
280
     0
281
     0
  0
CLASS
  1
ACMEPLINE
  2
AcImPlineDisplay
  3
AcMeServices
 90
    32768
280
     0
281
     1
  0
CLASS
  1
ACDMPARTVIEWDATA
  2
AcDmPartViewData
  3
AcMechDwgViewMgmt
 90
    32768
280
     0
281
     0
  0
CLASS
  1
ACDMDISPLAYATTRIBS
  2
AcDmDisplayAttribs
  3
AcMechDwgViewMgmt
 90
    32768
280
     0
281
     0
  0
CLASS
  1
ACDMBODYINSTANCEDATA
  2
AcDmBodyInstanceData
  3
AcMechDwgViewMgmt
 90
    32768
280
     0
281
     0
  0
CLASS
  1
ACDMVWEDLINE
  2
AcDmViewEdgeLine
  3
AcMechDwgViewMgmt
 90
    32768
280
     0
281
     1
  0
CLASS
  1
ACDMVWEDSPLINE
  2
AcDmViewEdgeSpline
  3
AcMechDwgViewMgmt
 90
    32768
280
     0
281
     1
  0
CLASS
  1
ACDMVWEDARC
  2
AcDmViewEdgeArc
  3
AcMechDwgViewMgmt
 90
    32768
280
     0
281
     1
  0
CLASS
  1
ACDMVWEDCIRC
  2
AcDmViewEdgeCircle
  3
AcMechDwgViewMgmt
 90
    32768
280
     0
281
     1
  0
CLASS
  1
AM_ADLINCTRLINE
  2
AcAdLineCl
  3
DesignerServices
 90
    32768
280
     0
281
     0
  0
CLASS
  1
AM_ADCIRCTRLINE
  2
AcAdBullsEyeCl
  3
DesignerServices
 90
    32768
280
     0
281
     0
  0
CLASS
  1
AD_CIRCTAPH
  2
AcAdTapHoleCircDisp
  3
DesignerServices
 90
    32768
280
     0
281
     0
  0
CLASS
  1
AM_ORTHO_VIEW_ORIENT
  2
AcDmOrthoViewOr
  3
AcMechDwgViewMgmt
 90
    32768
280
     0
281
     0
  0
CLASS
  1
AM_ORTHO_VIEW
  2
AcDmOrthoView
  3
AcMechDwgViewMgmt
 90
    32768
280
     0
281
     0
  0
CLASS
  1
ACADPARTDATUMPLANERES
  2
AcAdPartDatumPlaneRes
  3
AdGrefServices
 90
    32768
280
     0
281
     0
  0
CLASS
  1
AM_FULLPLANESECTION
  2
AcDmFullPlaneSection
  3
AcMechDwgViewMgmt
 90
    32768
280
     0
281
     0
  0
CLASS
  1
AMDTSECTIONSYM
  2
AmdtSectionSym
  3
"AcmSymBB|Product Description: AutoCAD Mechanical 2004 DX|Company: Autodesk"
 90
    33791
280
     0
281
     1
  0
CLASS
  1
AM_VWNOTEADAPTER
  2
AcDmViewAnnotAdapter
  3
AcMechDwgViewMgmt
 90
    32768
280
     0
281
     0
  0
CLASS
  1
AMDTSECTIONSYMLABEL
  2
AmdtSectionSymLabel
  3
"AcmSymBB|Product Description: AutoCAD Mechanical 2004 DX|Company: Autodesk"
 90
    33791
280
     0
281
     1
  0
CLASS
  1
AD_LINETAPH
  2
AcAdTapHoleLineDisp
  3
DesignerServices
 90
    32768
280
     0
281
     0
  0
CLASS
  1
ACADPARTTORUSFACERES
  2
AcAdPartTorusFaceRes
  3
AdGrefServices
 90
    32768
280
     0
281
     0
  0
CLASS
  1
ACMEAXIS
  2
AcImAxisDisplay
  3
AcMeServices
 90
    32768
280
     0
281
     1
  0
CLASS
  1
ACADPARTCYLINDERFACERES
  2
AcAdPartCylinderFaceRes
  3
AdGrefServices
 90
    32768
280
     0
281
     0
  0
CLASS
  1
ACCMDISTLNLN
  2
AcCmDistLnLn
  3
DesignerAssemblies
 90
    32768
280
     0
281
     0
  0
CLASS
  1
ACMEPOINT
  2
AcImPointDisplay
  3
AcMeServices
 90
    32768
280
     0
281
     1
  0
CLASS
  1
FEEDBACK
  2
AcAmFeedback
  3
DesignerAssemblies
 90
    32768
280
     0
281
     1
  0
CLASS
  1
ACAMTRIAXISSYMBOL
  2
AcAmTriAxisSymbol
  3
DesignerAssemblies
 90
    32768
280
     0
281
     0
  0
CLASS
  1
ACAMTEXTCIRCLESYMBOL
  2
AcAmTextCircleSymbol
  3
DesignerAssemblies
 90
    32768
280
     0
281
     0
  0
CLASS
  1
ACAMROTAXISSYMBOL
  2
AcAmRotAxisSymbol
  3
DesignerAssemblies
 90
    32768
280
     0
281
     0
  0
CLASS
  1
CIRREFID
  2
AcAdCircleRefId
  3
DesignerServices
 90
    32768
280
     0
281
     0
  0
CLASS
  1
PARAM
  2
AcAdParam
  3
DesignerServices
 90
    32768
280
     0
281
     0
  0
CLASS
  1
ACCMDISTPTPL
  2
AcCmDistPtPl
  3
DesignerAssemblies
 90
    32768
280
     0
281
     0
  0
CLASS
  1
ACDMGREFEDIT
  2
AcDmViewEntityGeomrefEdit
  3
AcMechDwgViewMgmt
 90
    32768
280
     0
281
     0
  0
CLASS
  1
ACDMVIEWARCEDGERES
  2
AcDmViewArcEdgeRes
  3
AcMechDwgViewMgmt
 90
    32768
280
     0
281
     0
  0
CLASS
  1
ACDMVIEWLINEDGERES
  2
AcDmViewLinEdgeRes
  3
AcMechDwgViewMgmt
 90
    32768
280
     0
281
     0
  0
CLASS
  1
AM_VIEWDIMLINEAR
  2
AcDmViewDimLinear
  3
AcMechDwgViewMgmt
 90
    32768
280
     0
281
     0
  0
CLASS
  1
ACADPARTCONICALFACERES
  2
AcAdPartConicalFaceRes
  3
AdGrefServices
 90
    32768
280
     0
281
     0
  0
CLASS
  1
DIMASSOC
  2
AcDbDimAssoc
  3
"AcDbDimAssoc|Product Desc:     AcDim ARX App For Dimension|Company:          Autodesk, Inc.|WEB Address:      www.autodesk.com"
 90
        0
280
     0
281
     0
  0
CLASS
  1
SORTENTSTABLE
  2
AcDbSortentsTable
  3
ObjectDBX Classes
 90
    32768
280
     0
281
     0
  0
CLASS
  1
SILEDGEID
  2
AcAdSilhouetteEdgeId
  3
DesignerServices
 90
    32768
280
     0
281
     0
  0
CLASS
  1
ACDBLINERES
  2
AcDbLineRes
  3
AcGrefServices
 90
    32768
280
     0
281
     0
  0
CLASS
  1
ACRFDMINSADJ
  2
AcRfDMInsAdjuster
  3
AcMechDwgViewMgmt
 90
    32768
280
     0
281
     0
  0
CLASS
  1
CNRREFID
  2
AcAdCornerId
  3
DesignerServices
 90
    32768
280
     0
281
     0
  0
CLASS
  1
ACADPARTPOINTRES
  2
AcAdPartPointRes
  3
AdGrefServices
 90
    32768
280
     0
281
     0
  0
CLASS
  1
AM_GREF_POINT
  2
AcDmGrefPntDef
  3
AcMechDwgViewMgmt
 90
    32768
280
     0
281
     0
  0
CLASS
  1
AM_FULLPOINTSECTION
  2
AcDmFullPointSection
  3
AcMechDwgViewMgmt
 90
    32768
280
     0
281
     0
  0
CLASS
  1
AMDTEDGESTANDARDISO13715
  2
AmdtEdgeStdISO13715
  3
"Amdt_StdImp|Product Description: AutoCAD Mechanical 2004 DX|Company: Autodesk"
 90
        0
280
     0
281
     0
  0
CLASS
  1
ACMNOTESTANDARDISO
  2
AmdtNoteStdISO
  3
"Amdt_StdImp|Product Description: AutoCAD Mechanical 2004 DX|Company: Autodesk"
 90
        0
280
     0
281
     0
  0
CLASS
  1
ACAMGHOLECHARTSTDISO
  2
AcAmgHoleChartStdISO
  3
ACMSYMBB_MODULE_NAME
 90
        0
280
     0
281
     0
  0
CLASS
  1
ACADPARTLINEDGRES
  2
AcAdPartLinEdgRes
  3
AdGrefServices
 90
    32768
280
     0
281
     0
  0
CLASS
  1
ACCMDISTPLPL
  2
AcCmDistPlPl
  3
DesignerAssemblies
 90
    32768
280
     0
281
     0
  0
CLASS
  1
STREFID
  2
AcAdStraightRefId
  3
DesignerServices
 90
    32768
280
     0
281
     0
  0
CLASS
  1
ACCMANGVECVEC
  2
AcCmAngVecVec
  3
DesignerAssemblies
 90
    32768
280
     0
281
     0
  0
CLASS
  1
ADPART
  2
AcAdPart
  3
DesignerServices
 90
    32768
280
     0
281
     1
  0
CLASS
  1
ADBASE
  2
AcAdBase
  3
DesignerServices
 90
    32768
280
     0
281
     0
  0
CLASS
  1
BODYID
  2
AcAdBodyId
  3
DesignerServices
 90
    32768
280
     0
281
     0
  0
CLASS
  1
WORKPLANEDISPLAYMGR
  2
AcAdDisplayMgr
  3
DesignerServices
 90
    32768
280
     0
281
     0
  0
CLASS
  1
ACAMROTVECTORSYMBOL
  2
AcAmRotVectorSymbol
  3
DesignerAssemblies
 90
    32768
280
     0
281
     0
  0
CLASS
  1
ACAMVECTORSYMBOL
  2
AcAmVectorSymbol
  3
DesignerAssemblies
 90
    32768
280
     0
281
     0
  0
CLASS
  1
ACADPARTSPHEREFACERES
  2
AcAdPartSphereFaceRes
  3
AdGrefServices
 90
    32768
280
     0
281
     0
  0
CLASS
  1
AMIINSTATTCLASSRECORD
  2
AmiInstAttClassRecord
  3
AcAttribServices
 90
    32768
280
     0
281
     0
  0
CLASS
  1
AMIINSTATTIMP
  2
AmiInstAttImp
  3
AcAttribServices
 90
    32769
280
     0
281
     0
  0
CLASS
  1
ACRFATTGENMGR
  2
AcRfAttGeneralMgr
  3
AcAttribServices
 90
    32768
280
     0
281
     0
  0
CLASS
  1
ACRFGMATTMGR
  2
AcRfGeomAttGroupMgr
  3
AcAttribServices
 90
    32768
280
     0
281
     0
  0
CLASS
  1
ACRFOBJATTMGR
  2
AcRfObjAttGroupMgr
  3
AcAttribServices
 90
    32768
280
     0
281
     0
  0
CLASS
  1
ACRFMCADAPIATTHOLDER
  2
AcRfMCADAPIAttHolder
  3
AcAttribServices
 90
    32768
280
     0
281
     0
  0
CLASS
  1
NEWSTDPARTPARLIST
  2
AmgNewParListFiler
  3
"AmgParList|Product Description: AutoCAD Mechanical 2000|Company: Autodesk"
 90
    33791
280
     0
281
     0
  0
CLASS
  1
ADDATUMPLANEABS
  2
AcAdDatumPlaneAbs
  3
DesignerServices
 90
    32768
280
     0
281
     0
  0
CLASS
  1
ADDATUMAXISABS
  2
AcAdDatumAxisAbs
  3
DesignerServices
 90
    32768
280
     0
281
     0
  0
CLASS
  1
ADDATUMORIENTEDPLANE
  2
AcAdDatumOrientedPlane
  3
DesignerServices
 90
    32768
280
     0
281
     0
  0
CLASS
  1
AMDTSYSATTR
  2
AmdtSystemAttribute
  3
AcAttribServices
 90
    32768
280
     0
281
     0
  0
CLASS
  1
ACADPARTAXISRES
  2
AcAdPartAxisRes
  3
AdGrefServices
 90
    32768
280
     0
281
     0
  0
CLASS
  1
ACADPARTSPLINEEDGERES
  2
AcAdPartSplineEdgeRes
  3
AdGrefServices
 90
    32768
280
     0
281
     0
  0
CLASS
  1
AM_VIEWDIMDIAMETER
  2
AcDmViewDimDiameter
  3
AcMechDwgViewMgmt
 90
    32768
280
     0
281
     0
  0
CLASS
  1
ACDMVWEDELLIPSE
  2
AcDmViewEdgeEllipse
  3
AcMechDwgViewMgmt
 90
    32768
280
     0
281
     1
  0
CLASS
  1
AM_VIEWDIMPARALLEL
  2
AcDmViewDimParallel
  3
AcMechDwgViewMgmt
 90
    32768
280
     0
281
     0
  0
CLASS
  1
AM_VIEWDIMANGULAR
  2
AcDmViewDimAngular
  3
AcMechDwgViewMgmt
 90
    32768
280
     0
281
     0
  0
CLASS
  1
ACMETEXT
  2
AcImTextDisplay
  3
AcMeServices
 90
    32768
280
     0
281
     1
  0
CLASS
  1
ACAD_LINE
  2
AcAdLine
  3
DesignerServices
 90
    32768
280
     0
281
     1
  0
CLASS
  1
ACADLINEACAD
  2
AcAdVirtualBoundedLineAcad
  3
DesignerServices
 90
    32768
280
     0
281
     0
  0
CLASS
  1
ACAD_ELLIPSE
  2
AcAdEllipse
  3
DesignerServices
 90
    32768
280
     0
281
     1
  0
CLASS
  1
ACADELLIPSEACAD
  2
AcAdVirtualEllipseAcad
  3
DesignerServices
 90
    32768
280
     0
281
     0
  0
CLASS
  1
ACADREFLINEACAD
  2
AcAdVirtualReferenceLine
  3
DesignerServices
 90
    32768
280
     0
281
     0
  0
CLASS
  1
ACADCONSLINE
  2
AcAdConstrainedLine
  3
DesignerServices
 90
    32768
280
     0
281
     0
  0
CLASS
  1
ACADCONSGROUP
  2
AcAdConstraintGroup
  3
DesignerServices
 90
    32768
280
     0
281
     0
  0
CLASS
  1
ACADCONSELL
  2
AcAdConstrainedEllipse
  3
DesignerServices
 90
    32768
280
     0
281
     0
  0
CLASS
  1
ACADIMPPTACAD
  2
AcAdVirtualImplicitPoint
  3
DesignerServices
 90
    32768
280
     0
281
     0
  0
CLASS
  1
ACADCONSPOINT
  2
AcAdConstrainedPoint
  3
DesignerServices
 90
    32768
280
     0
281
     0
  0
CLASS
  1
ADPCURCNS
  2
AcAdPointCurveConstr
  3
DesignerServices
 90
    32768
280
     0
281
     0
  0
CLASS
  1
ADCTRPTCNS
  2
AcAdCenterPointConstr
  3
DesignerServices
 90
    32768
280
     0
281
     0
  0
CLASS
  1
ADVERCNS
  2
AcAdVerticalConstr
  3
DesignerServices
 90
    32768
280
     0
281
     0
  0
CLASS
  1
ADPARCNS
  2
AcAdParallelConstr
  3
DesignerServices
 90
    32768
280
     0
281
     0
  0
CLASS
  1
ADCLPROF2D
  2
AcAdClosedProfile2d
  3
DesignerServices
 90
    32768
280
     0
281
     0
  0
CLASS
  1
ACAD_FIXCONSTRAINT
  2
AcAdFixedConstraint
  3
DesignerServices
 90
    32768
280
     0
281
     0
  0
CLASS
  1
ADCONSDISP
  2
AcAdConstraintDisplay
  3
DesignerServices
 90
    32768
280
     0
281
     1
  0
CLASS
  1
ADCONSTDSP
  2
AcAdConstraintDisplayTag
  3
DesignerServices
 90
    32768
280
     0
281
     1
  0
CLASS
  1
AMDT_ALIGNED_DIM
  2
AmdtAlignedDimension
  3
AcMeServices
 90
    32768
280
     0
281
     1
  0
CLASS
  1
ADELLRADCNS
  2
AcAdAcadEllipseRadiusConstr
  3
DesignerServices
 90
    32768
280
     0
281
     0
  0
CLASS
  1
ADHDISTCNS
  2
AcAdHorizontalDistanceConstr
  3
DesignerServices
 90
    32768
280
     0
281
     0
  0
CLASS
  1
ADVDISTCNS
  2
AcAdVerticalDistanceConstr
  3
DesignerServices
 90
    32768
280
     0
281
     0
  0
CLASS
  1
ACMEROTATIONARROW
  2
AcImRotationArrowDisplay
  3
AcMeServices
 90
    32768
280
     0
281
     1
  0
CLASS
  1
ACADVOLFEATWITHTRIM
  2
AcAdVolFeatWithTrim
  3
DesignerServices
 90
    32768
280
     0
281
     0
  0
CLASS
  1
DEPEDGEFEATUREORDERING
  2
AcAdDepEdgeFeatureOrdering
  3
DesignerServices
 90
    32768
280
     0
281
     0
  0
CLASS
  1
ACADPARTSPLINEFACERES
  2
AcAdPartSplineFaceRes
  3
AdGrefServices
 90
    32768
280
     0
281
     0
  0
CLASS
  1
ACADPARTELLIPSEEDGERES
  2
AcAdPartEllipseEdgeRes
  3
AdGrefServices
 90
    32768
280
     0
281
     0
  0
CLASS
  1
AM_PERPCTRLINE
  2
AcDmLineCl
  3
AcMechDwgViewMgmt
 90
    32768
280
     0
281
     0
  0
CLASS
  1
AM_VIEWDIMRADIUS
  2
AcDmViewDimRadius
  3
AcMechDwgViewMgmt
 90
    32768
280
     0
281
     0
  0
CLASS
  1
AM_USERDEFNNOTE
  2
AcDmUserDefnNote
  3
AcMechDwgViewMgmt
 90
    32768
280
     0
281
     0
  0
CLASS
  1
AM_ABS_POINT
  2
AcDmAbsPntDef
  3
AcMechDwgViewMgmt
 90
    32768
280
     0
281
     0
  0
CLASS
  1
ACCMDISTPTLN
  2
AcCmDistPtLn
  3
DesignerAssemblies
 90
    32768
280
     0
281
     0
  0
CLASS
  1
ACMDIMBREAKPERSREACTOR
  2
AcmDimBreakPersReactor
  3
amgDimApp().moduleName()
 90
    33791
280
     0
281
     0
  0
CLASS
  1
AM_ABS_PLANE
  2
AcDmAbsPlnDef
  3
AcMechDwgViewMgmt
 90
    32768
280
     0
281
     0
  0
ENDSEC
  0
SECTION
  2
TABLES
  0
TABLE
  2
VPORT
  5
23
330
0
100
AcDbSymbolTable
 70
     1
  0
VPORT
  5
24
330
23
100
AcDbSymbolTableRecord
100
AcDbViewportTableRecord
  2
*Active
 70
     0
 10
0.0
 20
0.0
 11
1.0
 21
1.0
 12
0.0
 22
0.0
 13
0.0
 23
0.0
 14
0.125
 24
0.125
 15
1.0
 25
1.0
 16
0.0
 26
0.0
 36
1.0
 17
0.0
 27
0.0
 37
0.0
 40
2.000000000000000E+20
 41
1.0
 42
50.0
 43
0.0
 44
0.0
 50
0.0
 51
0.0
 71
     0
 72
   100
 73
     1
 74
     1
 75
     0
 76
     0
 77
     0
 78
     0
281
     0
 65
     0
110
0.0
120
0.0
130
0.0
111
1.0
121
0.0
131
0.0
112
0.0
122
1.0
132
0.0
 79
     0
146
0.0
  0
ENDTAB
  0
TABLE
  2
LTYPE
  5
1E
330
0
100
AcDbSymbolTable
 70
    17
  0
LTYPE
  5
1F
330
1E
100
AcDbSymbolTableRecord
100
AcDbLinetypeTableRecord
  2
BYBLOCK
 70
     0
  3

 72
    65
 73
     0
 40
0.0
  0
LTYPE
  5
20
330
1E
100
AcDbSymbolTableRecord
100
AcDbLinetypeTableRecord
  2
BYLAYER
 70
     0
  3

 72
    65
 73
     0
 40
0.0
  0
LTYPE
  5
9
330
1E
100
AcDbSymbolTableRecord
100
AcDbLinetypeTableRecord
  2
CONTINUOUS
 70
     0
  3
Solid line
 72
    65
 73
     0
 40
0.0
  0
LTYPE
  5
3E
330
1E
100
AcDbSymbolTableRecord
100
AcDbLinetypeTableRecord
  2
CENTER
 70
     0
  3
____ _ ____ _ ____ _ ____ _ ____ _ ____ _ ____ 
 72
    65
 73
     4
 40
2.0
 49
1.25
 74
     0
 49
-0.25
 74
     0
 49
0.25
 74
     0
 49
-0.25
 74
     0
  0
LTYPE
  5
36
330
1E
100
AcDbSymbolTableRecord
100
AcDbLinetypeTableRecord
  2
HIDDEN2
 70
     0
  3
Hidden (.5x) _ _ _ _ _ _ _ _ _ _ _ _ _ _ _ _ _
 72
    65
 73
     2
 40
0.1875
 49
0.125
 74
     0
 49
-0.0625
 74
     0
  0
LTYPE
  5
47A
330
1E
100
AcDbSymbolTableRecord
100
AcDbLinetypeTableRecord
  2
HIDDEN
 70
     0
  3
Hidden __ __ __ __ __ __ __ __ __ __ __ __ __ _
 72
    65
 73
     2
 40
9.524999999999998
 49
6.349999999999999
 74
     0
 49
-3.174999999999999
 74
     0
  0
LTYPE
  5
47B
330
1E
100
AcDbSymbolTableRecord
100
AcDbLinetypeTableRecord
  2
PHANTOM2
 70
     0
  3
Phantom (.5x) ___ _ _ ___ _ _ ___ _ _ ___ _ _
 72
    65
 73
     6
 40
31.75
 49
15.875
 74
     0
 49
-3.174999999999999
 74
     0
 49
3.174999999999999
 74
     0
 49
-3.174999999999999
 74
     0
 49
3.174999999999999
 74
     0
 49
-3.174999999999999
 74
     0
  0
LTYPE
  5
4AF
330
1E
100
AcDbSymbolTableRecord
100
AcDbLinetypeTableRecord
  2
AM_ISO02W050
 70
     0
  3
__ __ __ __ __ __ __ __ __ __ __ __ __ __ __
 72
    65
 73
     2
 40
7.5
 49
6.0
 74
     0
 49
-1.5
 74
     0
  0
LTYPE
  5
4B0
330
1E
100
AcDbSymbolTableRecord
100
AcDbLinetypeTableRecord
  2
AM_ISO08W050
 70
     0
  3
____ . ____ . ____ . ____ . ____ . ____ . ____
 72
    65
 73
     4
 40
18.0
 49
12.0
 74
     0
 49
-1.5
 74
     0
 49
3.0
 74
     0
 49
-1.5
 74
     0
  0
LTYPE
  5
4B1
330
1E
100
AcDbSymbolTableRecord
100
AcDbLinetypeTableRecord
  2
AM_ISO09W050
 70
     0
  3
_____ . . _____ . . _____ . . ____ .. ____
 72
    65
 73
     6
 40
22.5
 49
12.0
 74
     0
 49
-1.5
 74
     0
 49
3.0
 74
     0
 49
-1.5
 74
     0
 49
3.0
 74
     0
 49
-1.5
 74
     0
  0
LTYPE
  5
4B2
330
1E
100
AcDbSymbolTableRecord
100
AcDbLinetypeTableRecord
  2
Amconstr
 70
     0
  3
_______________________
 72
    65
 73
     2
 40
9999.0
 49
9999.0
 74
     0
 49
0.0
 74
     0
  0
LTYPE
  5
4B3
330
1E
100
AcDbSymbolTableRecord
100
AcDbLinetypeTableRecord
  2
AM_ISO08W050x2
 70
     0
  3
__ . __ . __ . __ . __ . __
 72
    65
 73
     4
 40
9.0
 49
6.0
 74
     0
 49
-0.75
 74
     0
 49
1.5
 74
     0
 49
-0.75
 74
     0
  0
LTYPE
  5
4B4
330
1E
100
AcDbSymbolTableRecord
100
AcDbLinetypeTableRecord
  2
AM_ISO02W050x2
 70
     0
  3
 _ _ _ _ _ _ _ _ _ _ _ _
 72
    65
 73
     2
 40
3.75
 49
3.0
 74
     0
 49
-0.75
 74
     0
  0
LTYPE
  5
4B7
330
1E
100
AcDbSymbolTableRecord
100
AcDbLinetypeTableRecord
  2
Amzigzag
 70
     0
  3
/\/-/\/-/\/-/\/-/\/-/\/
 72
    65
 73
     2
 40
11.0001
 49
0.0001
 74
     4
 75
   135
340
4B6
 46
0.04
 50
0.0
 44
0.0
 45
0.0
 49
-11.0
 74
     0
  0
LTYPE
  5
4C6
330
1E
100
AcDbSymbolTableRecord
100
AcDbLinetypeTableRecord
  2
ACISOWELD
 70
     0
  3
_ _ _ _ _
 72
    65
 73
     2
 40
2.0
 49
2.0
 74
     0
 49
-1.0
 74
     0
  0
LTYPE
  5
4C7
330
1E
100
AcDbSymbolTableRecord
100
AcDbLinetypeTableRecord
  2
ACISOTGB
 70
     0
  3
__ . . __ . .
 72
    65
 73
     6
 40
9.0
 49
4.0
 74
     0
 49
-1.0
 74
     0
 49
1.0
 74
     0
 49
-1.0
 74
     0
 49
1.0
 74
     0
 49
-1.0
 74
     0
  0
LTYPE
  5
4C8
330
1E
100
AcDbSymbolTableRecord
100
AcDbLinetypeTableRecord
  2
ACISOTGL
 70
     0
  3
_ _ _ _ _
 72
    65
 73
     2
 40
3.0
 49
2.0
 74
     0
 49
-1.0
 74
     0
  0
ENDTAB
  0
TABLE
  2
LAYER
  5
14
102
{ACAD_XDICTIONARY
360
16
102
}
330
0
100
AcDbSymbolTable
 70
     9
  0
LAYER
  5
15
330
14
100
AcDbSymbolTableRecord
100
AcDbLayerTableRecord
  2
0
 70
     0
 62
     7
  6
CONTINUOUS
370
    -3
390
6
  0
LAYER
  5
5
330
14
100
AcDbSymbolTableRecord
100
AcDbLayerTableRecord
  2
TB
 70
     0
 62
     7
  6
CONTINUOUS
370
    -3
390
6
  0
LAYER
  5
127
330
14
100
AcDbSymbolTableRecord
100
AcDbLayerTableRecord
  2
AM_VIS
 70
     0
 62
     7
  6
CONTINUOUS
370
    -3
390
6
  0
LAYER
  5
3D
330
14
100
AcDbSymbolTableRecord
100
AcDbLayerTableRecord
  2
AM_7
 70
     0
 62
     1
  6
AM_ISO08W050x2
370
    -3
390
6
  0
LAYER
  5
35
330
14
100
AcDbSymbolTableRecord
100
AcDbLayerTableRecord
  2
AM_4
 70
     0
 62
     3
  6
CONTINUOUS
370
    -3
390
6
  0
LAYER
  5
30
330
14
100
AcDbSymbolTableRecord
100
AcDbLayerTableRecord
  2
AM_5
 70
     0
 62
     5
  6
CONTINUOUS
370
    -3
390
6
  0
LAYER
  5
4E6
330
14
100
AcDbSymbolTableRecord
100
AcDbLayerTableRecord
  2
LOGO
 70
     0
 62
     7
  6
CONTINUOUS
370
    -3
390
6
  0
LAYER
  5
67A
330
14
100
AcDbSymbolTableRecord
100
AcDbLayerTableRecord
  2
Defpoints
 70
     0
 62
     7
  6
CONTINUOUS
290
     0
370
    -3
390
6
  0
LAYER
  5
13AE
330
14
100
AcDbSymbolTableRecord
100
AcDbLayerTableRecord
  2
AM_REFDIM
 70
     0
 62
     5
  6
CONTINUOUS
370
    25
390
6
  0
ENDTAB
  0
TABLE
  2
STYLE
  5
1B
330
0
100
AcDbSymbolTable
 70
     6
  0
STYLE
  5
1C
330
1B
100
AcDbSymbolTableRecord
100
AcDbTextStyleTableRecord
  2
STANDARD
 70
     0
 40
0.0
 41
1.0
 50
0.0
 71
     0
 42
0.2
  3
isocp.shx
  4
chineset.shx
  0
STYLE
  5
28
330
1B
100
AcDbSymbolTableRecord
100
AcDbTextStyleTableRecord
  2
DAYUS
 70
     0
 40
0.0
 41
1.0
 50
0.0
 71
     0
 42
3.0
  3
simplex.shx
  4
dayus.shx
  0
STYLE
  5
4B6
330
1B
100
AcDbSymbolTableRecord
100
AcDbTextStyleTableRecord
  2

 70
     1
 40
0.0
 41
1.0
 50
0.0
 71
     0
 42
3.0
  3
ltypeshp.shx
  4

  0
STYLE
  5
4B8
330
1B
100
AcDbSymbolTableRecord
100
AcDbTextStyleTableRecord
  2
ACISOTS
 70
     0
 40
1.0
 41
1.0
 50
0.0
 71
     0
 42
3.0
  3
isocp.shx
  4
chineset.shx
  0
STYLE
  5
4C5
330
1B
100
AcDbSymbolTableRecord
100
AcDbTextStyleTableRecord
  2
ACISOGDT
 70
     0
 40
0.0
 41
1.0
 50
0.0
 71
     0
 42
3.0
  3
amgdt.shx
  4

  0
STYLE
  5
4E7
330
1B
100
AcDbSymbolTableRecord
100
AcDbTextStyleTableRecord
  2
CHINESET
 70
     0
 40
0.0
 41
1.0
 50
0.0
 71
     0
 42
3.0
  3
simplex.shx
  4
CHINESET.SHX
  0
ENDTAB
  0
TABLE
  2
VIEW
  5
21
330
0
100
AcDbSymbolTable
 70
     0
  0
ENDTAB
  0
TABLE
  2
UCS
  5
22
330
0
100
AcDbSymbolTable
 70
     0
  0
ENDTAB
  0
TABLE
  2
APPID
  5
25
330
0
100
AcDbSymbolTable
 70
    24
  0
APPID
  5
1A
330
25
100
AcDbSymbolTableRecord
100
AcDbRegAppTableRecord
  2
ACAD
 70
     0
  0
APPID
  5
13
330
25
100
AcDbSymbolTableRecord
100
AcDbRegAppTableRecord
  2
ACAD_PSEXT
 70
     0
  0
APPID
  5
44D
330
25
100
AcDbSymbolTableRecord
100
AcDbRegAppTableRecord
  2
MCAD_NO_VIS
 70
     0
  0
APPID
  5
44E
330
25
100
AcDbSymbolTableRecord
100
AcDbRegAppTableRecord
  2
ACAD_TEMP_GRAPHIC
 70
     0
  0
APPID
  5
47D
330
25
100
AcDbSymbolTableRecord
100
AcDbRegAppTableRecord
  2
AD_DRAW
 70
     0
  0
APPID
  5
480
330
25
100
AcDbSymbolTableRecord
100
AcDbRegAppTableRecord
  2
ACATTRIBSERVICES
 70
     0
  0
APPID
  5
49E
330
25
100
AcDbSymbolTableRecord
100
AcDbRegAppTableRecord
  2
DESIGNERASSEMBLIES
 70
     0
  0
APPID
  5
4A4
330
25
100
AcDbSymbolTableRecord
100
AcDbRegAppTableRecord
  2
ACADM_DIM_EDIT
 70
     0
  0
APPID
  5
4A5
330
25
100
AcDbSymbolTableRecord
100
AcDbRegAppTableRecord
  2
AMDT_DM_ADJ
 70
     0
  0
APPID
  5
4E9
330
25
100
AcDbSymbolTableRecord
100
AcDbRegAppTableRecord
  2
GENIUS_GENOENT_13
 70
     0
  0
APPID
  5
4EA
330
25
100
AcDbSymbolTableRecord
100
AcDbRegAppTableRecord
  2
GENIUS_GENOBJ-N-CRS_13
 70
     0
  0
APPID
  5
4EB
330
25
100
AcDbSymbolTableRecord
100
AcDbRegAppTableRecord
  2
GENIUS_GENOLIS_13
 70
     0
  0
APPID
  5
4EC
330
25
100
AcDbSymbolTableRecord
100
AcDbRegAppTableRecord
  2
GENIUS_GENODEF_13
 70
     0
  0
APPID
  5
4ED
330
25
100
AcDbSymbolTableRecord
100
AcDbRegAppTableRecord
  2
GENIUS_GENOREF_13
 70
     0
  0
APPID
  5
4EE
330
25
100
AcDbSymbolTableRecord
100
AcDbRegAppTableRecord
  2
GENIUS_GENREC_14
 70
     0
  0
APPID
  5
4EF
330
25
100
AcDbSymbolTableRecord
100
AcDbRegAppTableRecord
  2
GENIUS_GENOBJ-N-REC_13
 70
     0
  0
APPID
  5
6C6
330
25
100
AcDbSymbolTableRecord
100
AcDbRegAppTableRecord
  2
ACAD_DSTYLE_DIMTEXT_FILL
 70
     0
  0
APPID
  5
85A
330
25
100
AcDbSymbolTableRecord
100
AcDbRegAppTableRecord
  2
GENIUS_GENOBJ-N-CEN_13
 70
     0
  0
APPID
  5
85B
330
25
100
AcDbSymbolTableRecord
100
AcDbRegAppTableRecord
  2
GENIUS_GENCEN_19
 70
     0
  0
APPID
  5
1038
330
25
100
AcDbSymbolTableRecord
100
AcDbRegAppTableRecord
  2
GENIUS_GENDTOL_13
 70
     0
  0
APPID
  5
11E6
330
25
100
AcDbSymbolTableRecord
100
AcDbRegAppTableRecord
  2
GENIUS_GENDIM_13
 70
     0
  0
APPID
  5
11E7
330
25
100
AcDbSymbolTableRecord
100
AcDbRegAppTableRecord
  2
GENIUS_GE3DTOL_13
 70
     0
  0
APPID
  5
1265
330
25
100
AcDbSymbolTableRecord
100
AcDbRegAppTableRecord
  2
ASURF_PCURVE_APPNAME
 70
     0
  0
APPID
  5
126A
330
25
100
AcDbSymbolTableRecord
100
AcDbRegAppTableRecord
  2
AMG_3D2D_5.0
 70
     0
  0
ENDTAB
  0
TABLE
  2
DIMSTYLE
  5
26
330
0
100
AcDbSymbolTable
 70
    11
100
AcDbDimStyleTable
 71
     2
340
4D1
340
27
  0
DIMSTYLE
105
27
330
26
100
AcDbSymbolTableRecord
100
AcDbDimStyleTableRecord
  2
AM_ANSI
 70
     0
  4
"
 40
0.8333333333333333
 41
3.0
 42
1.5
 43
5.299999999999999
 44
2.0
 47
0.1
 48
0.1
 73
     0
 74
     0
 77
     3
 78
     8
 79
     2
140
3.0
141
0.0
143
0.0393701
146
0.6
147
0.8
172
     1
176
   256
177
   256
178
   256
271
     2
272
     2
284
     8
340
28
371
    -1
372
    -1
  0
DIMSTYLE
105
4D1
102
{ACAD_REACTORS
330
169E
330
169F
330
16A0
330
16A1
330
16A2
330
16A4
330
16A5
330
16A6
330
16C7
330
16CA
330
16CB
330
16CC
330
16CD
330
16CE
330
16CF
102
}
330
26
100
AcDbSymbolTableRecord
100
AcDbDimStyleTableRecord
  2
AM_ISO
 70
     0
  4
"
 41
2.5
 42
1.0
 43
10.0
 44
1.0
 47
0.1
 48
0.1
 73
     0
 74
     0
 77
     1
 78
     8
 79
     2
140
3.5
141
0.0
143
0.0393701
146
0.71
147
1.5
172
     1
176
   256
177
   256
178
   256
271
     2
272
     2
283
     0
284
     8
340
1C
371
    -1
372
    -1
  0
DIMSTYLE
105
4D2
330
26
100
AcDbSymbolTableRecord
100
AcDbDimStyleTableRecord
  2
AM_ISO$3
 70
     0
  4
"
 41
2.5
 42
1.0
 43
10.0
 44
1.0
 47
0.1
 48
0.1
 73
     0
 77
     1
 78
     8
 79
     2
140
3.5
141
0.0
143
0.0393701
146
0.71
147
1.5
176
   256
177
   256
178
   256
271
     2
272
     2
283
     0
284
     8
288
     1
289
     0
340
1C
371
    -1
372
    -1
  0
DIMSTYLE
105
4D3
330
26
100
AcDbSymbolTableRecord
100
AcDbDimStyleTableRecord
  2
AM_ISO$4
 70
     0
  4
"
 41
2.5
 42
1.0
 43
10.0
 44
1.0
 47
0.1
 48
0.1
 73
     0
 77
     1
 78
     8
 79
     2
140
3.5
141
0.0
143
0.0393701
146
0.71
147
1.5
176
   256
177
   256
178
   256
271
     2
272
     2
283
     0
284
     8
288
     1
289
     0
340
1C
371
    -1
372
    -1
  0
DIMSTYLE
105
4D4
330
26
100
AcDbSymbolTableRecord
100
AcDbDimStyleTableRecord
  2
AM_ISO$6
 70
     0
  4
"
 41
2.5
 42
1.0
 43
10.0
 44
1.0
 47
0.1
 48
0.1
 73
     0
 74
     0
 78
     8
 79
     2
140
3.5
141
0.0
143
0.0393701
146
0.71
147
1.5
172
     1
176
   256
177
   256
178
   256
271
     2
272
     2
283
     0
284
     8
340
1C
371
    -1
372
    -1
  0
DIMSTYLE
105
4D5
102
{ACAD_REACTORS
330
C43
330
B3C
102
}
330
26
100
AcDbSymbolTableRecord
100
AcDbDimStyleTableRecord
  2
AM_ISO$7
 70
     0
  4
"
 41
2.5
 42
1.0
 43
10.0
 44
1.0
 47
0.1
 48
0.1
 73
     0
 74
     0
 77
     1
 78
     8
 79
     2
140
5.0
141
0.0
143
0.0393701
146
0.71
147
1.5
172
     1
176
   256
177
   256
178
   256
271
     2
272
     2
283
     0
284
     8
340
1C
371
    -1
372
    -1
  0
DIMSTYLE
105
4D6
330
26
100
AcDbSymbolTableRecord
100
AcDbDimStyleTableRecord
  2
AM_ISO$SF
 70
     0
  4
"
 41
2.5
 42
1.0
 43
10.0
 44
1.0
 47
0.1
 48
0.1
 73
     0
 74
     0
 75
     1
 76
     1
 77
     1
 78
     8
 79
     2
140
3.5
141
0.0
143
0.0393701
146
0.71
147
1.5
172
     1
176
   256
177
   256
178
     2
271
     2
272
     3
274
     4
283
     0
284
     8
340
1C
371
    -1
372
    -1
  0
DIMSTYLE
105
4DB
330
26
100
AcDbSymbolTableRecord
100
AcDbDimStyleTableRecord
  2
AM_ISO$SH
 70
     0
  4
"
 41
2.5
 42
1.0
 43
10.0
 44
1.0
 47
0.1
 48
0.1
 73
     0
 74
     0
 75
     1
 76
     1
 77
     1
 78
     8
 79
     2
140
3.5
141
0.0
143
0.0393701
144
2.0
146
0.71
147
1.5
172
     1
173
     1
176
   256
177
   256
178
     2
271
     2
272
     3
274
     4
283
     0
284
     8
340
1C
343
4D7
371
    -1
372
    -1
  0
DIMSTYLE
105
4E8
102
{ACAD_REACTORS
330
18E8
330
18EB
102
}
330
26
100
AcDbSymbolTableRecord
100
AcDbDimStyleTableRecord
  2
AM_ISO$0
 70
     0
  4
"
 41
3.0
 42
1.0
 43
6.0
 44
1.5
 47
0.1
 48
0.1
 73
     0
 74
     0
 77
     1
 78
     8
 79
     2
140
3.5
141
0.0
143
0.0393701
146
0.6
147
1.0
172
     1
176
   256
177
   256
178
   256
271
     2
272
     2
283
     0
284
     8
340
1C
371
    -1
372
    -1
  0
DIMSTYLE
105
13AF
102
{ACAD_REACTORS
330
1428
330
1427
330
13F6
330
1697
330
16C8
330
16C9
102
}
330
26
100
AcDbSymbolTableRecord
100
AcDbDimStyleTableRecord
  2
AM_ANSI$3
 70
     0
  4
"
 40
0.6666666666666666
 41
3.0
 42
1.5
 43
5.332999999999999
 44
2.0
 47
0.1
 48
0.1
 73
     0
 74
     0
 77
     3
 78
     8
 79
     2
140
3.0
141
0.0
143
0.0393701
146
0.6
147
0.8
172
     1
176
   256
177
   256
178
   256
271
     2
272
     2
284
     8
288
     1
289
     0
340
28
371
    -1
372
    -1
  0
ENDTAB
  0
TABLE
  2
BLOCK_RECORD
  5
1
330
0
100
AcDbSymbolTable
 70
    63
  0
BLOCK_RECORD
  5
2
102
{ACAD_XDICTIONARY
360
3
102
}
330
1
100
AcDbSymbolTableRecord
100
AcDbBlockTableRecord
  2
*MODEL_SPACE
340
B
  0
BLOCK_RECORD
  5
D
330
1
100
AcDbSymbolTableRecord
100
AcDbBlockTableRecord
  2
*PAPER_SPACE
340
10
  0
BLOCK_RECORD
  5
4D7
330
1
100
AcDbSymbolTableRecord
100
AcDbBlockTableRecord
  2
GENAXEH
340
0
  0
BLOCK_RECORD
  5
18EE
330
1
100
AcDbSymbolTableRecord
100
AcDbBlockTableRecord
  2
*D43
340
0
  0
BLOCK_RECORD
  5
18FA
330
1
100
AcDbSymbolTableRecord
100
AcDbBlockTableRecord
  2
*D44
340
0
  0
BLOCK_RECORD
  5
1906
330
1
100
AcDbSymbolTableRecord
100
AcDbBlockTableRecord
  2
*D45
340
0
  0
BLOCK_RECORD
  5
1912
330
1
100
AcDbSymbolTableRecord
100
AcDbBlockTableRecord
  2
*D46
340
0
  0
BLOCK_RECORD
  5
191E
330
1
100
AcDbSymbolTableRecord
100
AcDbBlockTableRecord
  2
*D47
340
0
  0
BLOCK_RECORD
  5
192A
330
1
100
AcDbSymbolTableRecord
100
AcDbBlockTableRecord
  2
*D48
340
0
  0
BLOCK_RECORD
  5
1936
330
1
100
AcDbSymbolTableRecord
100
AcDbBlockTableRecord
  2
*D49
340
0
  0
BLOCK_RECORD
  5
1942
330
1
100
AcDbSymbolTableRecord
100
AcDbBlockTableRecord
  2
*D50
340
0
  0
BLOCK_RECORD
  5
194E
330
1
100
AcDbSymbolTableRecord
100
AcDbBlockTableRecord
  2
*D51
340
0
  0
BLOCK_RECORD
  5
195A
330
1
100
AcDbSymbolTableRecord
100
AcDbBlockTableRecord
  2
*D52
340
0
  0
BLOCK_RECORD
  5
1966
330
1
100
AcDbSymbolTableRecord
100
AcDbBlockTableRecord
  2
*D53
340
0
  0
BLOCK_RECORD
  5
1972
330
1
100
AcDbSymbolTableRecord
100
AcDbBlockTableRecord
  2
*D54
340
0
  0
BLOCK_RECORD
  5
197E
330
1
100
AcDbSymbolTableRecord
100
AcDbBlockTableRecord
  2
*D55
340
0
  0
BLOCK_RECORD
  5
198C
330
1
100
AcDbSymbolTableRecord
100
AcDbBlockTableRecord
  2
*D56
340
0
  0
BLOCK_RECORD
  5
1998
330
1
100
AcDbSymbolTableRecord
100
AcDbBlockTableRecord
  2
*D57
340
0
  0
BLOCK_RECORD
  5
19A4
330
1
100
AcDbSymbolTableRecord
100
AcDbBlockTableRecord
  2
*D58
340
0
  0
BLOCK_RECORD
  5
19B0
330
1
100
AcDbSymbolTableRecord
100
AcDbBlockTableRecord
  2
*D59
340
0
  0
BLOCK_RECORD
  5
19BC
330
1
100
AcDbSymbolTableRecord
100
AcDbBlockTableRecord
  2
*D60
340
0
  0
BLOCK_RECORD
  5
1A6C
330
1
100
AcDbSymbolTableRecord
100
AcDbBlockTableRecord
  2
*D61
340
0
  0
BLOCK_RECORD
  5
1A78
330
1
100
AcDbSymbolTableRecord
100
AcDbBlockTableRecord
  2
*D62
340
0
  0
ENDTAB
  0
ENDSEC
  0
SECTION
  2
BLOCKS
  0
BLOCK
  5
4
330
2
100
AcDbEntity
  8
TB
100
AcDbBlockBegin
  2
*MODEL_SPACE
 70
     0
 10
0.0
 20
0.0
 30
0.0
  3
*MODEL_SPACE
  1

  0
ENDBLK
  5
A
330
2
100
AcDbEntity
  8
TB
100
AcDbBlockEnd
  0
BLOCK
  5
E
330
D
100
AcDbEntity
 67
     1
  8
TB
100
AcDbBlockBegin
  2
*PAPER_SPACE
 70
     0
 10
0.0
 20
0.0
 30
0.0
  3
*PAPER_SPACE
  1

  0
ENDBLK
  5
F
330
D
100
AcDbEntity
 67
     1
  8
TB
100
AcDbBlockEnd
  0
BLOCK
  5
4D9
330
4D7
100
AcDbEntity
  8
0
100
AcDbBlockBegin
  2
GENAXEH
 70
     0
 10
0.0
 20
0.0
 30
0.0
  3
GENAXEH
  1

  0
LINE
  5
4D8
330
4D7
100
AcDbEntity
  8
0
100
AcDbLine
 10
-1.0
 20
0.0
 30
0.0
 11
1.0
 21
0.0
 31
0.0
  0
ENDBLK
  5
4DA
330
4D7
100
AcDbEntity
  8
0
100
AcDbBlockEnd
  0
BLOCK
  5
18F8
330
18EE
100
AcDbEntity
  8
0
100
AcDbBlockBegin
  2
*D43
 70
     1
 10
0.0
 20
0.0
 30
0.0
  3
*D43
  1

  0
LINE
  5
19C8
330
18EE
100
AcDbEntity
  8
AM_REFDIM
100
AcDbLine
 10
40.24483214982996
 20
-73.9257719919332
 30
0.0
 11
58.11586389586199
 21
-73.9257719919332
 31
0.0
  0
LINE
  5
19C9
330
18EE
100
AcDbEntity
  8
AM_REFDIM
100
AcDbLine
 10
58.11586389586199
 20
-73.9257719919332
 30
0.0
 11
66.32454860139633
 21
-64.22816880191497
 31
0.0
  0
LINE
  5
19CA
330
18EE
100
AcDbEntity
  8
AM_REFDIM
100
AcDbLine
 10
71.40705066770602
 20
-58.22378563705925
 30
0.0
 11
72.91457246703515
 21
-56.44282452883934
 31
0.0
  0
MTEXT
  5
19CB
330
18EE
100
AcDbEntity
  8
AM_REFDIM
100
AcDbMText
 10
48.43530834030616
 20
-72.25910532526651
 30
0.0
 40
2.0
 41
0.0
 71
     5
 72
     1
  1
\A1;2-\U+22053.2thru
  7
DAYUS
 73
     1
 44
1.0
1001
ACAD
1000
MTEXTBEGIN
1070
    73
1070
     1
1070
    44
1040
1.0
1070
    74
1070
     0
1000
MTEXTEND
  0
LINE
  5
19CC
330
18EE
100
AcDbEntity
  8
AM_REFDIM
100
AcDbLine
 10
69.89952886837688
 20
-60.00474674527915
 30
0.0
 11
67.83207040072547
 21
-62.44720769369506
 31
0.0
  0
SOLID
  5
19CD
330
18EE
100
AcDbEntity
  8
AM_REFDIM
100
AcDbTrace
 10
71.11022381633603
 20
-57.97253200383772
 30
0.0
 11
71.70387751907599
 21
-58.47503927028076
 31
0.0
 12
69.89952886837688
 22
-60.00474674527915
 32
0.0
 13
69.89952886837688
 23
-60.00474674527915
 33
0.0
  0
SOLID
  5
19CE
330
18EE
100
AcDbEntity
  8
AM_REFDIM
100
AcDbTrace
 10
66.02772175002634
 20
-63.97691516869345
 30
0.0
 11
66.6213754527663
 21
-64.47942243513648
 31
0.0
 12
67.83207040072547
 22
-62.44720769369506
 32
0.0
 13
67.83207040072547
 23
-62.44720769369506
 33
0.0
  0
POINT
  5
19CF
330
18EE
100
AcDbEntity
  8
Defpoints
 62
     0
100
AcDbPoint
 10
67.83207040072547
 20
-62.44720769369506
 30
0.0
  0
POINT
  5
19D0
330
18EE
100
AcDbEntity
  8
Defpoints
 62
     0
100
AcDbPoint
 10
69.89952886837688
 20
-60.00474674527915
 30
0.0
  0
ENDBLK
  5
18F9
330
18EE
100
AcDbEntity
  8
0
100
AcDbBlockEnd
  0
BLOCK
  5
1904
330
18FA
100
AcDbEntity
  8
0
100
AcDbBlockBegin
  2
*D44
 70
     1
 10
0.0
 20
0.0
 30
0.0
  3
*D44
  1

  0
LINE
  5
19D1
330
18FA
100
AcDbEntity
  8
AM_REFDIM
100
AcDbLine
 10
60.9657996345511
 20
-8.908785091467262
 30
0.0
 11
60.9657996345511
 21
-18.60878509146728
 31
0.0
  0
LINE
  5
19D2
330
18FA
100
AcDbEntity
  8
AM_REFDIM
100
AcDbLine
 10
86.76579963455106
 20
-0.3087850914672685
 30
0.0
 11
86.76579963455106
 21
-18.60878509146728
 31
0.0
  0
LINE
  5
19D3
330
18FA
100
AcDbEntity
  8
AM_REFDIM
100
AcDbLine
 10
62.7157996345511
 20
-17.90878509146728
 30
0.0
 11
85.01579963455105
 21
-17.90878509146728
 31
0.0
  0
SOLID
  5
19D4
330
18FA
100
AcDbEntity
  8
AM_REFDIM
100
AcDbTrace
 10
62.7157996345511
 20
-17.61711842480061
 30
0.0
 11
62.7157996345511
 21
-18.20045175813395
 31
0.0
 12
60.9657996345511
 22
-17.90878509146728
 32
0.0
 13
60.9657996345511
 23
-17.90878509146728
 33
0.0
  0
SOLID
  5
19D5
330
18FA
100
AcDbEntity
  8
AM_REFDIM
100
AcDbTrace
 10
85.01579963455105
 20
-17.61711842480061
 30
0.0
 11
85.01579963455105
 21
-18.20045175813395
 31
0.0
 12
86.76579963455106
 22
-17.90878509146728
 32
0.0
 13
86.76579963455106
 23
-17.90878509146728
 33
0.0
  0
MTEXT
  5
19D6
330
18FA
100
AcDbEntity
  8
AM_REFDIM
100
AcDbMText
 10
73.86579963455108
 20
-15.63354394973499
 30
0.0
 40
2.449999999999999
 41
0.0
 71
     5
 72
     1
  1
25.8
 73
     1
 44
1.0
1001
ACAD
1000
MTEXTBEGIN
1070
    73
1070
     1
1070
    44
1040
1.0
1070
    74
1070
     0
1000
MTEXTEND
  0
POINT
  5
19D7
330
18FA
100
AcDbEntity
  8
Defpoints
 62
     0
100
AcDbPoint
 10
60.9657996345511
 20
-8.208785091467262
 30
0.0
  0
POINT
  5
19D8
330
18FA
100
AcDbEntity
  8
Defpoints
 62
     0
100
AcDbPoint
 10
86.76579963455106
 20
0.3912149085327314
 30
0.0
  0
POINT
  5
19D9
330
18FA
100
AcDbEntity
  8
Defpoints
 62
     0
100
AcDbPoint
 10
86.76579963455106
 20
-17.90878509146728
 30
0.0
  0
ENDBLK
  5
1905
330
18FA
100
AcDbEntity
  8
0
100
AcDbBlockEnd
  0
BLOCK
  5
1910
330
1906
100
AcDbEntity
  8
0
100
AcDbBlockBegin
  2
*D45
 70
     1
 10
0.0
 20
0.0
 30
0.0
  3
*D45
  1

  0
LINE
  5
19DA
330
1906
100
AcDbEntity
  8
AM_REFDIM
100
AcDbLine
 10
65.66579963455111
 20
-4.208785091467262
 30
0.0
 11
104.1657996345511
 21
-4.208785091467274
 31
0.0
  0
LINE
  5
19DB
330
1906
100
AcDbEntity
  8
AM_REFDIM
100
AcDbLine
 10
91.46579963455106
 20
4.391214908532731
 30
0.0
 11
104.1657996345511
 21
4.391214908532727
 31
0.0
  0
LINE
  5
19DC
330
1906
100
AcDbEntity
  8
AM_REFDIM
100
AcDbLine
 10
103.4657996345511
 20
-2.458785091467274
 30
0.0
 11
103.4657996345511
 21
2.641214908532727
 31
0.0
  0
SOLID
  5
19DD
330
1906
100
AcDbEntity
  8
AM_REFDIM
100
AcDbTrace
 10
103.1741329678844
 20
-2.458785091467274
 30
0.0
 11
103.7574663012178
 21
-2.458785091467274
 31
0.0
 12
103.4657996345511
 22
-4.208785091467274
 32
0.0
 13
103.4657996345511
 23
-4.208785091467274
 33
0.0
  0
SOLID
  5
19DE
330
1906
100
AcDbEntity
  8
AM_REFDIM
100
AcDbTrace
 10
103.1741329678844
 20
2.641214908532727
 30
0.0
 11
103.7574663012178
 21
2.641214908532727
 31
0.0
 12
103.4657996345511
 22
4.391214908532727
 32
0.0
 13
103.4657996345511
 23
4.391214908532727
 33
0.0
  0
MTEXT
  5
19DF
330
1906
100
AcDbEntity
  8
AM_REFDIM
100
AcDbMText
 10
101.1907996345511
 20
0.0912149085327438
 30
0.0
 40
2.449999999999999
 41
0.0
 71
     5
 72
     1
  1
8.6
 11
0.0000000000000001
 21
1.0
 31
0.0
 73
     1
 44
1.0
1001
ACAD
1000
MTEXTBEGIN
1070
    73
1070
     1
1070
    44
1040
1.0
1070
    74
1070
     0
1000
MTEXTEND
  0
POINT
  5
19E0
330
1906
100
AcDbEntity
  8
Defpoints
 62
     0
100
AcDbPoint
 10
64.9657996345511
 20
-4.208785091467262
 30
0.0
  0
POINT
  5
19E1
330
1906
100
AcDbEntity
  8
Defpoints
 62
     0
100
AcDbPoint
 10
90.76579963455106
 20
4.391214908532731
 30
0.0
  0
POINT
  5
19E2
330
1906
100
AcDbEntity
  8
Defpoints
 62
     0
100
AcDbPoint
 10
103.4657996345511
 20
4.391214908532727
 30
0.0
  0
ENDBLK
  5
1911
330
1906
100
AcDbEntity
  8
0
100
AcDbBlockEnd
  0
BLOCK
  5
191C
330
1912
100
AcDbEntity
  8
0
100
AcDbBlockBegin
  2
*D46
 70
     1
 10
0.0
 20
0.0
 30
0.0
  3
*D46
  1

  0
LINE
  5
19E3
330
1912
100
AcDbEntity
  8
AM_REFDIM
100
AcDbLine
 10
96.86579963455109
 20
-4.908785091467251
 30
0.0
 11
110.1657996345511
 21
-4.908785091467255
 31
0.0
  0
LINE
  5
19E4
330
1912
100
AcDbEntity
  8
AM_REFDIM
100
AcDbLine
 10
96.86579963455109
 20
5.091214908532748
 30
0.0
 11
110.1657996345511
 21
5.091214908532744
 31
0.0
  0
LINE
  5
19E5
330
1912
100
AcDbEntity
  8
AM_REFDIM
100
AcDbLine
 10
109.4657996345511
 20
-3.158785091467255
 30
0.0
 11
109.4657996345511
 21
3.341214908532744
 31
0.0
  0
SOLID
  5
19E6
330
1912
100
AcDbEntity
  8
AM_REFDIM
100
AcDbTrace
 10
109.1741329678844
 20
-3.158785091467255
 30
0.0
 11
109.7574663012178
 21
-3.158785091467255
 31
0.0
 12
109.4657996345511
 22
-4.908785091467255
 32
0.0
 13
109.4657996345511
 23
-4.908785091467255
 33
0.0
  0
SOLID
  5
19E7
330
1912
100
AcDbEntity
  8
AM_REFDIM
100
AcDbTrace
 10
109.1741329678844
 20
3.341214908532744
 30
0.0
 11
109.7574663012178
 21
3.341214908532744
 31
0.0
 12
109.4657996345511
 22
5.091214908532744
 32
0.0
 13
109.4657996345511
 23
5.091214908532744
 33
0.0
  0
MTEXT
  5
19E8
330
1912
100
AcDbEntity
  8
AM_REFDIM
100
AcDbMText
 10
107.1907996345511
 20
0.0912149085327625
 30
0.0
 40
2.449999999999999
 41
0.0
 71
     5
 72
     1
  1
10
 11
0.0000000000000001
 21
1.0
 31
0.0
 73
     1
 44
1.0
1001
ACAD
1000
MTEXTBEGIN
1070
    73
1070
     1
1070
    44
1040
1.0
1070
    74
1070
     0
1000
MTEXTEND
  0
POINT
  5
19E9
330
1912
100
AcDbEntity
  8
Defpoints
 62
     0
100
AcDbPoint
 10
96.16579963455109
 20
-4.908785091467251
 30
0.0
  0
POINT
  5
19EA
330
1912
100
AcDbEntity
  8
Defpoints
 62
     0
100
AcDbPoint
 10
96.16579963455109
 20
5.091214908532748
 30
0.0
  0
POINT
  5
19EB
330
1912
100
AcDbEntity
  8
Defpoints
 62
     0
100
AcDbPoint
 10
109.4657996345511
 20
5.091214908532744
 30
0.0
  0
ENDBLK
  5
191D
330
1912
100
AcDbEntity
  8
0
100
AcDbBlockEnd
  0
BLOCK
  5
1928
330
191E
100
AcDbEntity
  8
0
100
AcDbBlockBegin
  2
*D47
 70
     1
 10
0.0
 20
0.0
 30
0.0
  3
*D47
  1

  0
LINE
  5
19EC
330
191E
100
AcDbEntity
  8
AM_REFDIM
100
AcDbLine
 10
78.86579963455108
 20
-65.52597721948714
 30
0.0
 11
78.86579963455108
 21
-74.8259772194872
 31
0.0
  0
LINE
  5
19ED
330
191E
100
AcDbEntity
  8
AM_REFDIM
100
AcDbLine
 10
96.4657996345511
 20
-66.02597721948718
 30
0.0
 11
96.4657996345511
 21
-74.8259772194872
 31
0.0
  0
LINE
  5
19EE
330
191E
100
AcDbEntity
  8
AM_REFDIM
100
AcDbLine
 10
80.61579963455107
 20
-74.1259772194872
 30
0.0
 11
94.71579963455111
 21
-74.1259772194872
 31
0.0
  0
SOLID
  5
19EF
330
191E
100
AcDbEntity
  8
AM_REFDIM
100
AcDbTrace
 10
80.61579963455107
 20
-73.83431055282052
 30
0.0
 11
80.61579963455107
 21
-74.41764388615387
 31
0.0
 12
78.86579963455108
 22
-74.1259772194872
 32
0.0
 13
78.86579963455108
 23
-74.1259772194872
 33
0.0
  0
SOLID
  5
19F0
330
191E
100
AcDbEntity
  8
AM_REFDIM
100
AcDbTrace
 10
94.71579963455111
 20
-73.83431055282052
 30
0.0
 11
94.71579963455111
 21
-74.41764388615387
 31
0.0
 12
96.4657996345511
 22
-74.1259772194872
 32
0.0
 13
96.4657996345511
 23
-74.1259772194872
 33
0.0
  0
MTEXT
  5
19F1
330
191E
100
AcDbEntity
  8
AM_REFDIM
100
AcDbMText
 10
87.66579963455109
 20
-71.85097721948719
 30
0.0
 40
2.449999999999999
 41
0.0
 71
     5
 72
     1
  1
17.6
 73
     1
 44
1.0
1001
ACAD
1000
MTEXTBEGIN
1070
    73
1070
     1
1070
    44
1040
1.0
1070
    74
1070
     0
1000
MTEXTEND
  0
POINT
  5
19F2
330
191E
100
AcDbEntity
  8
Defpoints
 62
     0
100
AcDbPoint
 10
78.86579963455108
 20
-64.82597721948714
 30
0.0
  0
POINT
  5
19F3
330
191E
100
AcDbEntity
  8
Defpoints
 62
     0
100
AcDbPoint
 10
96.4657996345511
 20
-65.32597721948718
 30
0.0
  0
POINT
  5
19F4
330
191E
100
AcDbEntity
  8
Defpoints
 62
     0
100
AcDbPoint
 10
96.4657996345511
 20
-74.1259772194872
 30
0.0
  0
ENDBLK
  5
1929
330
191E
100
AcDbEntity
  8
0
100
AcDbBlockEnd
  0
BLOCK
  5
1934
330
192A
100
AcDbEntity
  8
0
100
AcDbBlockBegin
  2
*D48
 70
     1
 10
0.0
 20
0.0
 30
0.0
  3
*D48
  1

  0
LINE
  5
19F5
330
192A
100
AcDbEntity
  8
AM_REFDIM
100
AcDbLine
 10
68.86579963455108
 20
-65.52597721948714
 30
0.0
 11
68.86579963455108
 21
-74.82597721948732
 31
0.0
  0
LINE
  5
19F6
330
192A
100
AcDbEntity
  8
AM_REFDIM
100
AcDbLine
 10
78.86579963455108
 20
-65.52597721948714
 30
0.0
 11
78.86579963455108
 21
-74.82597721948732
 31
0.0
  0
LINE
  5
19F7
330
192A
100
AcDbEntity
  8
AM_REFDIM
100
AcDbLine
 10
70.61579963455108
 20
-74.12597721948731
 30
0.0
 11
77.11579963455108
 21
-74.12597721948731
 31
0.0
  0
SOLID
  5
19F8
330
192A
100
AcDbEntity
  8
AM_REFDIM
100
AcDbTrace
 10
70.61579963455108
 20
-73.83431055282064
 30
0.0
 11
70.61579963455108
 21
-74.41764388615398
 31
0.0
 12
68.86579963455108
 22
-74.12597721948731
 32
0.0
 13
68.86579963455108
 23
-74.12597721948731
 33
0.0
  0
SOLID
  5
19F9
330
192A
100
AcDbEntity
  8
AM_REFDIM
100
AcDbTrace
 10
77.11579963455108
 20
-73.83431055282064
 30
0.0
 11
77.11579963455108
 21
-74.41764388615398
 31
0.0
 12
78.86579963455108
 22
-74.12597721948731
 32
0.0
 13
78.86579963455108
 23
-74.12597721948731
 33
0.0
  0
MTEXT
  5
19FA
330
192A
100
AcDbEntity
  8
AM_REFDIM
100
AcDbMText
 10
73.86579963455108
 20
-71.8509772194873
 30
0.0
 40
2.449999999999999
 41
0.0
 71
     5
 72
     1
  1
10
 73
     1
 44
1.0
1001
ACAD
1000
MTEXTBEGIN
1070
    73
1070
     1
1070
    44
1040
1.0
1070
    74
1070
     0
1000
MTEXTEND
  0
POINT
  5
19FB
330
192A
100
AcDbEntity
  8
Defpoints
 62
     0
100
AcDbPoint
 10
68.86579963455108
 20
-64.82597721948714
 30
0.0
  0
POINT
  5
19FC
330
192A
100
AcDbEntity
  8
Defpoints
 62
     0
100
AcDbPoint
 10
78.86579963455108
 20
-64.82597721948714
 30
0.0
  0
POINT
  5
19FD
330
192A
100
AcDbEntity
  8
Defpoints
 62
     0
100
AcDbPoint
 10
78.86579963455108
 20
-74.12597721948731
 30
0.0
  0
ENDBLK
  5
1935
330
192A
100
AcDbEntity
  8
0
100
AcDbBlockEnd
  0
BLOCK
  5
1940
330
1936
100
AcDbEntity
  8
0
100
AcDbBlockBegin
  2
*D49
 70
     1
 10
0.0
 20
0.0
 30
0.0
  3
*D49
  1

  0
LINE
  5
19FE
330
1936
100
AcDbEntity
  8
AM_REFDIM
100
AcDbLine
 10
73.86579963455108
 20
7.091214908532731
 30
0.0
 11
73.86579963455108
 21
10.89121490853274
 31
0.0
  0
LINE
  5
19FF
330
1936
100
AcDbEntity
  8
AM_REFDIM
100
AcDbLine
 10
96.4657996345511
 20
5.491214908532765
 30
0.0
 11
96.4657996345511
 21
10.89121490853274
 31
0.0
  0
LINE
  5
1A00
330
1936
100
AcDbEntity
  8
AM_REFDIM
100
AcDbLine
 10
75.61579963455108
 20
10.19121490853274
 30
0.0
 11
94.71579963455111
 21
10.19121490853274
 31
0.0
  0
SOLID
  5
1A01
330
1936
100
AcDbEntity
  8
AM_REFDIM
100
AcDbTrace
 10
75.61579963455108
 20
10.48288157519941
 30
0.0
 11
75.61579963455108
 21
9.899548241866076
 31
0.0
 12
73.86579963455108
 22
10.19121490853274
 32
0.0
 13
73.86579963455108
 23
10.19121490853274
 33
0.0
  0
SOLID
  5
1A02
330
1936
100
AcDbEntity
  8
AM_REFDIM
100
AcDbTrace
 10
94.71579963455111
 20
10.48288157519941
 30
0.0
 11
94.71579963455111
 21
9.899548241866076
 31
0.0
 12
96.4657996345511
 22
10.19121490853274
 32
0.0
 13
96.4657996345511
 23
10.19121490853274
 33
0.0
  0
MTEXT
  5
1A03
330
1936
100
AcDbEntity
  8
AM_REFDIM
100
AcDbMText
 10
85.16579963455109
 20
12.46645605026502
 30
0.0
 40
2.449999999999999
 41
0.0
 71
     5
 72
     1
  1
22.6
 73
     1
 44
1.0
1001
ACAD
1000
MTEXTBEGIN
1070
    73
1070
     1
1070
    44
1040
1.0
1070
    74
1070
     0
1000
MTEXTEND
  0
POINT
  5
1A04
330
1936
100
AcDbEntity
  8
Defpoints
 62
     0
100
AcDbPoint
 10
73.86579963455108
 20
6.391214908532731
 30
0.0
  0
POINT
  5
1A05
330
1936
100
AcDbEntity
  8
Defpoints
 62
     0
100
AcDbPoint
 10
96.4657996345511
 20
4.791214908532765
 30
0.0
  0
POINT
  5
1A06
330
1936
100
AcDbEntity
  8
Defpoints
 62
     0
100
AcDbPoint
 10
96.4657996345511
 20
10.19121490853274
 30
0.0
  0
ENDBLK
  5
1941
330
1936
100
AcDbEntity
  8
0
100
AcDbBlockEnd
  0
BLOCK
  5
194C
330
1942
100
AcDbEntity
  8
0
100
AcDbBlockBegin
  2
*D50
 70
     1
 10
0.0
 20
0.0
 30
0.0
  3
*D50
  1

  0
LINE
  5
1A07
330
1942
100
AcDbEntity
  8
AM_REFDIM
100
AcDbLine
 10
62.8657996345511
 20
-5.708785091467262
 30
0.0
 11
116.1657996345511
 21
-5.708785091467277
 31
0.0
  0
LINE
  5
1A08
330
1942
100
AcDbEntity
  8
AM_REFDIM
100
AcDbLine
 10
88.66579963455111
 20
5.891214908532731
 30
0.0
 11
116.1657996345511
 21
5.891214908532723
 31
0.0
  0
LINE
  5
1A09
330
1942
100
AcDbEntity
  8
AM_REFDIM
100
AcDbLine
 10
115.4657996345511
 20
-3.958785091467277
 30
0.0
 11
115.4657996345511
 21
4.141214908532723
 31
0.0
  0
SOLID
  5
1A0A
330
1942
100
AcDbEntity
  8
AM_REFDIM
100
AcDbTrace
 10
115.1741329678844
 20
-3.958785091467277
 30
0.0
 11
115.7574663012177
 21
-3.958785091467277
 31
0.0
 12
115.4657996345511
 22
-5.708785091467277
 32
0.0
 13
115.4657996345511
 23
-5.708785091467277
 33
0.0
  0
SOLID
  5
1A0B
330
1942
100
AcDbEntity
  8
AM_REFDIM
100
AcDbTrace
 10
115.1741329678844
 20
4.141214908532723
 30
0.0
 11
115.7574663012177
 21
4.141214908532723
 31
0.0
 12
115.4657996345511
 22
5.891214908532723
 32
0.0
 13
115.4657996345511
 23
5.891214908532723
 33
0.0
  0
MTEXT
  5
1A0C
330
1942
100
AcDbEntity
  8
AM_REFDIM
100
AcDbMText
 10
113.1907996345511
 20
0.0912149085327417
 30
0.0
 40
2.449999999999999
 41
0.0
 71
     5
 72
     1
  1
11.6
 11
0.0000000000000001
 21
1.0
 31
0.0
 73
     1
 44
1.0
1001
ACAD
1000
MTEXTBEGIN
1070
    73
1070
     1
1070
    44
1040
1.0
1070
    74
1070
     0
1000
MTEXTEND
  0
POINT
  5
1A0D
330
1942
100
AcDbEntity
  8
Defpoints
 62
     0
100
AcDbPoint
 10
62.16579963455109
 20
-5.708785091467262
 30
0.0
  0
POINT
  5
1A0E
330
1942
100
AcDbEntity
  8
Defpoints
 62
     0
100
AcDbPoint
 10
87.9657996345511
 20
5.891214908532731
 30
0.0
  0
POINT
  5
1A0F
330
1942
100
AcDbEntity
  8
Defpoints
 62
     0
100
AcDbPoint
 10
115.4657996345511
 20
5.891214908532723
 30
0.0
  0
ENDBLK
  5
194D
330
1942
100
AcDbEntity
  8
0
100
AcDbBlockEnd
  0
BLOCK
  5
1958
330
194E
100
AcDbEntity
  8
0
100
AcDbBlockBegin
  2
*D51
 70
     1
 10
0.0
 20
0.0
 30
0.0
  3
*D51
  1

  0
LINE
  5
1A10
330
194E
100
AcDbEntity
  8
AM_REFDIM
100
AcDbLine
 10
22.26579963455109
 20
-3.758785091467257
 30
0.0
 11
22.26579963455109
 21
-24.60878509146728
 31
0.0
  0
LINE
  5
1A11
330
194E
100
AcDbEntity
  8
AM_REFDIM
100
AcDbLine
 10
96.4657996345511
 20
-5.308785091467268
 30
0.0
 11
96.4657996345511
 21
-24.60878509146728
 31
0.0
  0
LINE
  5
1A12
330
194E
100
AcDbEntity
  8
AM_REFDIM
100
AcDbLine
 10
24.01579963455109
 20
-23.90878509146728
 30
0.0
 11
94.71579963455111
 21
-23.90878509146728
 31
0.0
  0
SOLID
  5
1A13
330
194E
100
AcDbEntity
  8
AM_REFDIM
100
AcDbTrace
 10
24.01579963455109
 20
-23.61711842480061
 30
0.0
 11
24.01579963455109
 21
-24.20045175813395
 31
0.0
 12
22.26579963455109
 22
-23.90878509146728
 32
0.0
 13
22.26579963455109
 23
-23.90878509146728
 33
0.0
  0
SOLID
  5
1A14
330
194E
100
AcDbEntity
  8
AM_REFDIM
100
AcDbTrace
 10
94.71579963455111
 20
-23.61711842480061
 30
0.0
 11
94.71579963455111
 21
-24.20045175813395
 31
0.0
 12
96.4657996345511
 22
-23.90878509146728
 32
0.0
 13
96.4657996345511
 23
-23.90878509146728
 33
0.0
  0
MTEXT
  5
1A15
330
194E
100
AcDbEntity
  8
AM_REFDIM
100
AcDbMText
 10
59.36579963455109
 20
-21.633543949735
 30
0.0
 40
2.449999999999999
 41
0.0
 71
     5
 72
     1
  1
74.2
 73
     1
 44
1.0
1001
ACAD
1000
MTEXTBEGIN
1070
    73
1070
     1
1070
    44
1040
1.0
1070
    74
1070
     0
1000
MTEXTEND
  0
POINT
  5
1A16
330
194E
100
AcDbEntity
  8
Defpoints
 62
     0
100
AcDbPoint
 10
22.26579963455109
 20
-3.058785091467257
 30
0.0
  0
POINT
  5
1A17
330
194E
100
AcDbEntity
  8
Defpoints
 62
     0
100
AcDbPoint
 10
96.4657996345511
 20
-4.608785091467268
 30
0.0
  0
POINT
  5
1A18
330
194E
100
AcDbEntity
  8
Defpoints
 62
     0
100
AcDbPoint
 10
96.4657996345511
 20
-23.90878509146728
 30
0.0
  0
ENDBLK
  5
1959
330
194E
100
AcDbEntity
  8
0
100
AcDbBlockEnd
  0
BLOCK
  5
1964
330
195A
100
AcDbEntity
  8
0
100
AcDbBlockBegin
  2
*D52
 70
     1
 10
0.0
 20
0.0
 30
0.0
  3
*D52
  1

  0
LINE
  5
1A19
330
195A
100
AcDbEntity
  8
AM_REFDIM
100
AcDbLine
 10
67.86579963455108
 20
-4.758785091467257
 30
0.0
 11
67.86579963455108
 21
-12.60878509146728
 31
0.0
  0
LINE
  5
1A1A
330
195A
100
AcDbEntity
  8
AM_REFDIM
100
AcDbLine
 10
79.86579963455108
 20
-3.60878509146728
 30
0.0
 11
79.86579963455108
 21
-12.60878509146728
 31
0.0
  0
LINE
  5
1A1B
330
195A
100
AcDbEntity
  8
AM_REFDIM
100
AcDbLine
 10
69.61579963455108
 20
-11.90878509146728
 30
0.0
 11
78.11579963455108
 21
-11.90878509146728
 31
0.0
  0
SOLID
  5
1A1C
330
195A
100
AcDbEntity
  8
AM_REFDIM
100
AcDbTrace
 10
69.61579963455108
 20
-11.61711842480061
 30
0.0
 11
69.61579963455108
 21
-12.20045175813394
 31
0.0
 12
67.86579963455108
 22
-11.90878509146728
 32
0.0
 13
67.86579963455108
 23
-11.90878509146728
 33
0.0
  0
SOLID
  5
1A1D
330
195A
100
AcDbEntity
  8
AM_REFDIM
100
AcDbTrace
 10
78.11579963455108
 20
-11.61711842480061
 30
0.0
 11
78.11579963455108
 21
-12.20045175813394
 31
0.0
 12
79.86579963455108
 22
-11.90878509146728
 32
0.0
 13
79.86579963455108
 23
-11.90878509146728
 33
0.0
  0
MTEXT
  5
1A1E
330
195A
100
AcDbEntity
  8
AM_REFDIM
100
AcDbMText
 10
73.86579963455108
 20
-9.633543949734995
 30
0.0
 40
2.449999999999999
 41
0.0
 71
     5
 72
     1
  1
12
 73
     1
 44
1.0
1001
ACAD
1000
MTEXTBEGIN
1070
    73
1070
     1
1070
    44
1040
1.0
1070
    74
1070
     0
1000
MTEXTEND
  0
POINT
  5
1A1F
330
195A
100
AcDbEntity
  8
Defpoints
 62
     0
100
AcDbPoint
 10
67.86579963455108
 20
-4.058785091467257
 30
0.0
  0
POINT
  5
1A20
330
195A
100
AcDbEntity
  8
Defpoints
 62
     0
100
AcDbPoint
 10
79.86579963455108
 20
-2.908785091467279
 30
0.0
  0
POINT
  5
1A21
330
195A
100
AcDbEntity
  8
Defpoints
 62
     0
100
AcDbPoint
 10
79.86579963455108
 20
-11.90878509146728
 30
0.0
  0
ENDBLK
  5
1965
330
195A
100
AcDbEntity
  8
0
100
AcDbBlockEnd
  0
BLOCK
  5
1970
330
1966
100
AcDbEntity
  8
0
100
AcDbBlockBegin
  2
*D53
 70
     1
 10
0.0
 20
0.0
 30
0.0
  3
*D53
  1

  0
LINE
  5
1A22
330
1966
100
AcDbEntity
  8
AM_REFDIM
100
AcDbLine
 10
35.66586389586166
 20
-11.90878509146724
 30
0.0
 11
54.66586389586158
 21
-11.90878509146725
 31
0.0
  0
LINE
  5
1A23
330
1966
100
AcDbEntity
  8
AM_REFDIM
100
AcDbLine
 10
54.66586389586158
 20
-11.90878509146725
 30
0.0
 11
58.82335820137969
 21
-6.827351330819354
 31
0.0
  0
LINE
  5
1A24
330
1966
100
AcDbEntity
  8
AM_REFDIM
100
AcDbLine
 10
63.10824106772255
 20
-1.590218852115224
 30
0.0
 11
64.58578688370287
 21
0.2156888991620853
 31
0.0
  0
MTEXT
  5
1A25
330
1966
100
AcDbEntity
  8
AM_REFDIM
100
AcDbMText
 10
43.66586389586166
 20
-10.24211842480058
 30
0.0
 40
2.0
 41
0.0
 71
     5
 72
     1
  1
\A1;2-\U+22052.1thru
  7
DAYUS
 73
     1
 44
1.0
1001
ACAD
1000
MTEXTBEGIN
1070
    73
1070
     1
1070
    44
1040
1.0
1070
    74
1070
     0
1000
MTEXTEND
  0
LINE
  5
1A26
330
1966
100
AcDbEntity
  8
AM_REFDIM
100
AcDbLine
 10
61.63069525174223
 20
-3.396126603392541
 30
0.0
 11
60.30090401736001
 21
-5.02144357954204
 31
0.0
  0
SOLID
  5
1A27
330
1966
100
AcDbEntity
  8
AM_REFDIM
100
AcDbTrace
 10
62.80725644250967
 20
-1.343961216118504
 30
0.0
 11
63.40922569293543
 21
-1.836476488111941
 31
0.0
 12
61.63069525174223
 22
-3.396126603392541
 32
0.0
 13
61.63069525174223
 23
-3.396126603392541
 33
0.0
  0
SOLID
  5
1A28
330
1966
100
AcDbEntity
  8
AM_REFDIM
100
AcDbTrace
 10
58.52237357616681
 20
-6.581093694822634
 30
0.0
 11
59.12434282659258
 21
-7.07360896681607
 31
0.0
 12
60.30090401736001
 22
-5.02144357954204
 32
0.0
 13
60.30090401736001
 23
-5.02144357954204
 33
0.0
  0
POINT
  5
1A29
330
1966
100
AcDbEntity
  8
Defpoints
 62
     0
100
AcDbPoint
 10
60.30090401736001
 20
-5.02144357954204
 30
0.0
  0
POINT
  5
1A2A
330
1966
100
AcDbEntity
  8
Defpoints
 62
     0
100
AcDbPoint
 10
61.63069525174223
 20
-3.396126603392541
 30
0.0
  0
ENDBLK
  5
1971
330
1966
100
AcDbEntity
  8
0
100
AcDbBlockEnd
  0
BLOCK
  5
197C
330
1972
100
AcDbEntity
  8
0
100
AcDbBlockBegin
  2
*D54
 70
     1
 10
0.0
 20
0.0
 30
0.0
  3
*D54
  1

  0
LINE
  5
1A2B
330
1972
100
AcDbEntity
  8
AM_REFDIM
100
AcDbLine
 10
40.94954371470065
 20
10.8106873937978
 30
0.0
 11
58.28535720676429
 21
10.81068739379779
 31
0.0
  0
LINE
  5
1A2C
330
1972
100
AcDbEntity
  8
AM_REFDIM
100
AcDbLine
 10
58.28535720676429
 20
10.81068739379779
 30
0.0
 11
64.87818350545362
 21
3.434032229735763
 31
0.0
  0
LINE
  5
1A2D
330
1972
100
AcDbEntity
  8
AM_REFDIM
100
AcDbLine
 10
70.85341576364851
 20
-3.25160241267033
 30
0.0
 11
72.40830891633859
 21
-4.991358639318733
 31
0.0
  0
MTEXT
  5
1A2E
330
1972
100
AcDbEntity
  8
AM_REFDIM
100
AcDbMText
 10
48.64299609565303
 20
12.47735406046446
 30
0.0
 40
2.0
 41
0.0
 71
     5
 72
     1
  1
\A1;5-M5×0.8
  7
DAYUS
 73
     1
 44
1.0
1001
ACAD
1000
MTEXTBEGIN
1070
    73
1070
     1
1070
    44
1040
1.0
1070
    74
1070
     0
1000
MTEXTEND
  0
LINE
  5
1A2F
330
1972
100
AcDbEntity
  8
AM_REFDIM
100
AcDbLine
 10
69.29852261095842
 20
-1.511846186021926
 30
0.0
 11
66.43307665814373
 21
1.69427600308736
 31
0.0
  0
SOLID
  5
1A30
330
1972
100
AcDbEntity
  8
AM_REFDIM
100
AcDbTrace
 10
71.14337513475658
 20
-2.992453553888651
 30
0.0
 11
70.56345639254044
 21
-3.510751271452015
 31
0.0
 12
69.29852261095842
 22
-1.511846186021926
 32
0.0
 13
69.29852261095842
 23
-1.511846186021926
 33
0.0
  0
SOLID
  5
1A31
330
1972
100
AcDbEntity
  8
AM_REFDIM
100
AcDbTrace
 10
65.16814287656169
 20
3.693181088517441
 30
0.0
 11
64.58822413434555
 21
3.174883370954077
 31
0.0
 12
66.43307665814373
 22
1.69427600308736
 32
0.0
 13
66.43307665814373
 23
1.69427600308736
 33
0.0
  0
POINT
  5
1A32
330
1972
100
AcDbEntity
  8
Defpoints
 62
     0
100
AcDbPoint
 10
66.43307665814373
 20
1.69427600308736
 30
0.0
  0
POINT
  5
1A33
330
1972
100
AcDbEntity
  8
Defpoints
 62
     0
100
AcDbPoint
 10
69.29852261095842
 20
-1.511846186021926
 30
0.0
  0
ENDBLK
  5
197D
330
1972
100
AcDbEntity
  8
0
100
AcDbBlockEnd
  0
BLOCK
  5
198A
330
197E
100
AcDbEntity
  8
0
100
AcDbBlockBegin
  2
*D55
 70
     1
 10
0.0
 20
0.0
 30
0.0
  3
*D55
  1

  0
LINE
  5
1A34
330
197E
100
AcDbEntity
  8
AM_REFDIM
100
AcDbLine
 10
91.16579963455111
 20
-66.62597721948715
 30
0.0
 11
104.1657996345511
 21
-66.62597721948717
 31
0.0
  0
LINE
  5
1A35
330
197E
100
AcDbEntity
  8
AM_REFDIM
100
AcDbLine
 10
83.1657996345511
 20
-61.22597721948713
 30
0.0
 11
104.1657996345511
 21
-61.22597721948713
 31
0.0
  0
LINE
  5
1A36
330
197E
100
AcDbEntity
  8
AM_REFDIM
100
AcDbLine
 10
103.4657996345511
 20
-68.37597721948717
 30
0.0
 11
103.4657996345511
 21
-70.12597721948717
 31
0.0
  0
LINE
  5
1A37
330
197E
100
AcDbEntity
  8
AM_REFDIM
100
AcDbLine
 10
103.4657996345511
 20
-59.47597721948714
 30
0.0
 11
103.4657996345511
 21
-57.72597721948713
 31
0.0
  0
LINE
  5
1A38
330
197E
100
AcDbEntity
  8
AM_REFDIM
100
AcDbLine
 10
103.4657996345511
 20
-66.62597721948717
 30
0.0
 11
103.4657996345511
 21
-61.22597721948713
 31
0.0
  0
SOLID
  5
1A39
330
197E
100
AcDbEntity
  8
AM_REFDIM
100
AcDbTrace
 10
103.1741329678844
 20
-68.37597721948717
 30
0.0
 11
103.7574663012177
 21
-68.37597721948717
 31
0.0
 12
103.4657996345511
 22
-66.62597721948717
 32
0.0
 13
103.4657996345511
 23
-66.62597721948717
 33
0.0
  0
SOLID
  5
1A3A
330
197E
100
AcDbEntity
  8
AM_REFDIM
100
AcDbTrace
 10
103.1741329678844
 20
-59.47597721948714
 30
0.0
 11
103.7574663012177
 21
-59.47597721948714
 31
0.0
 12
103.4657996345511
 22
-61.22597721948713
 32
0.0
 13
103.4657996345511
 23
-61.22597721948713
 33
0.0
  0
MTEXT
  5
1A3B
330
197E
100
AcDbEntity
  8
AM_REFDIM
100
AcDbMText
 10
101.1907996345511
 20
-63.92597721948713
 30
0.0
 40
2.449999999999999
 41
0.0
 71
     5
 72
     1
  1
5.4
 11
0.0000000000000001
 21
1.0
 31
0.0
 73
     1
 44
1.0
1001
ACAD
1000
MTEXTBEGIN
1070
    73
1070
     1
1070
    44
1040
1.0
1070
    74
1070
     0
1000
MTEXTEND
  0
POINT
  5
1A3C
330
197E
100
AcDbEntity
  8
Defpoints
 62
     0
100
AcDbPoint
 10
90.4657996345511
 20
-66.62597721948715
 30
0.0
  0
POINT
  5
1A3D
330
197E
100
AcDbEntity
  8
Defpoints
 62
     0
100
AcDbPoint
 10
82.4657996345511
 20
-61.22597721948713
 30
0.0
  0
POINT
  5
1A3E
330
197E
100
AcDbEntity
  8
Defpoints
 62
     0
100
AcDbPoint
 10
103.4657996345511
 20
-61.22597721948713
 30
0.0
  0
ENDBLK
  5
198B
330
197E
100
AcDbEntity
  8
0
100
AcDbBlockEnd
  0
BLOCK
  5
1996
330
198C
100
AcDbEntity
  8
0
100
AcDbBlockBegin
  2
*D56
 70
     1
 10
0.0
 20
0.0
 30
0.0
  3
*D56
  1

  0
LINE
  5
1A3F
330
198C
100
AcDbEntity
  8
AM_REFDIM
100
AcDbLine
 10
91.16579963455111
 20
-66.62597721948715
 30
0.0
 11
110.1657996345511
 21
-66.62597721948717
 31
0.0
  0
LINE
  5
1A40
330
198C
100
AcDbEntity
  8
AM_REFDIM
100
AcDbLine
 10
96.86579963455109
 20
-45.62597721948719
 30
0.0
 11
110.1657996345511
 21
-45.62597721948719
 31
0.0
  0
LINE
  5
1A41
330
198C
100
AcDbEntity
  8
AM_REFDIM
100
AcDbLine
 10
109.4657996345511
 20
-64.87597721948716
 30
0.0
 11
109.4657996345511
 21
-47.37597721948719
 31
0.0
  0
SOLID
  5
1A42
330
198C
100
AcDbEntity
  8
AM_REFDIM
100
AcDbTrace
 10
109.1741329678844
 20
-64.87597721948716
 30
0.0
 11
109.7574663012178
 21
-64.87597721948716
 31
0.0
 12
109.4657996345511
 22
-66.62597721948717
 32
0.0
 13
109.4657996345511
 23
-66.62597721948717
 33
0.0
  0
SOLID
  5
1A43
330
198C
100
AcDbEntity
  8
AM_REFDIM
100
AcDbTrace
 10
109.1741329678844
 20
-47.37597721948719
 30
0.0
 11
109.7574663012178
 21
-47.37597721948719
 31
0.0
 12
109.4657996345511
 22
-45.62597721948719
 32
0.0
 13
109.4657996345511
 23
-45.62597721948719
 33
0.0
  0
MTEXT
  5
1A44
330
198C
100
AcDbEntity
  8
AM_REFDIM
100
AcDbMText
 10
107.1905584928188
 20
-56.12597721948716
 30
0.0
 40
2.449999999999999
 41
0.0
 71
     5
 72
     1
  1
21
 11
0.0000000000000001
 21
1.0
 31
0.0
 73
     1
 44
1.0
1001
ACAD
1000
MTEXTBEGIN
1070
    73
1070
     1
1070
    44
1040
1.0
1070
    74
1070
     0
1000
MTEXTEND
  0
POINT
  5
1A45
330
198C
100
AcDbEntity
  8
Defpoints
 62
     0
100
AcDbPoint
 10
90.4657996345511
 20
-66.62597721948715
 30
0.0
  0
POINT
  5
1A46
330
198C
100
AcDbEntity
  8
Defpoints
 62
     0
100
AcDbPoint
 10
96.16579963455109
 20
-45.62597721948719
 30
0.0
  0
POINT
  5
1A47
330
198C
100
AcDbEntity
  8
Defpoints
 62
     0
100
AcDbPoint
 10
109.4657996345511
 20
-45.62597721948719
 30
0.0
  0
ENDBLK
  5
1997
330
198C
100
AcDbEntity
  8
0
100
AcDbBlockEnd
  0
BLOCK
  5
19A2
330
1998
100
AcDbEntity
  8
0
100
AcDbBlockBegin
  2
*D57
 70
     1
 10
0.0
 20
0.0
 30
0.0
  3
*D57
  1

  0
LINE
  5
1A48
330
1998
100
AcDbEntity
  8
AM_REFDIM
100
AcDbLine
 10
91.16579963455111
 20
-66.62597721948715
 30
0.0
 11
116.1657996345511
 21
-66.62597721948717
 31
0.0
  0
LINE
  5
1A49
330
1998
100
AcDbEntity
  8
AM_REFDIM
100
AcDbLine
 10
87.56579963455108
 20
-40.92597721948715
 30
0.0
 11
116.1657996345511
 21
-40.92597721948716
 31
0.0
  0
LINE
  5
1A4A
330
1998
100
AcDbEntity
  8
AM_REFDIM
100
AcDbLine
 10
115.4657996345511
 20
-64.87597721948716
 30
0.0
 11
115.4657996345511
 21
-42.67597721948716
 31
0.0
  0
SOLID
  5
1A4B
330
1998
100
AcDbEntity
  8
AM_REFDIM
100
AcDbTrace
 10
115.1741329678844
 20
-64.87597721948716
 30
0.0
 11
115.7574663012177
 21
-64.87597721948716
 31
0.0
 12
115.4657996345511
 22
-66.62597721948717
 32
0.0
 13
115.4657996345511
 23
-66.62597721948717
 33
0.0
  0
SOLID
  5
1A4C
330
1998
100
AcDbEntity
  8
AM_REFDIM
100
AcDbTrace
 10
115.1741329678844
 20
-42.67597721948716
 30
0.0
 11
115.7574663012177
 21
-42.67597721948716
 31
0.0
 12
115.4657996345511
 22
-40.92597721948716
 32
0.0
 13
115.4657996345511
 23
-40.92597721948716
 33
0.0
  0
MTEXT
  5
1A4D
330
1998
100
AcDbEntity
  8
AM_REFDIM
100
AcDbMText
 10
113.1905584928188
 20
-53.77597721948713
 30
0.0
 40
2.449999999999999
 41
0.0
 71
     5
 72
     1
  1
25.7
 11
0.0000000000000001
 21
1.0
 31
0.0
 73
     1
 44
1.0
1001
ACAD
1000
MTEXTBEGIN
1070
    73
1070
     1
1070
    44
1040
1.0
1070
    74
1070
     0
1000
MTEXTEND
  0
POINT
  5
1A4E
330
1998
100
AcDbEntity
  8
Defpoints
 62
     0
100
AcDbPoint
 10
90.4657996345511
 20
-66.62597721948715
 30
0.0
  0
POINT
  5
1A4F
330
1998
100
AcDbEntity
  8
Defpoints
 62
     0
100
AcDbPoint
 10
86.86579963455107
 20
-40.92597721948715
 30
0.0
  0
POINT
  5
1A50
330
1998
100
AcDbEntity
  8
Defpoints
 62
     0
100
AcDbPoint
 10
115.4657996345511
 20
-40.92597721948716
 30
0.0
  0
ENDBLK
  5
19A3
330
1998
100
AcDbEntity
  8
0
100
AcDbBlockEnd
  0
BLOCK
  5
19AE
330
19A4
100
AcDbEntity
  8
0
100
AcDbBlockBegin
  2
*D58
 70
     1
 10
0.0
 20
0.0
 30
0.0
  3
*D58
  1

  0
LINE
  5
1A51
330
19A4
100
AcDbEntity
  8
AM_REFDIM
100
AcDbLine
 10
56.56579963455108
 20
-66.62597721948715
 30
0.0
 11
16.01586389586172
 21
-66.62597721948714
 31
0.0
  0
LINE
  5
1A52
330
19A4
100
AcDbEntity
  8
AM_REFDIM
100
AcDbLine
 10
46.46579963455109
 20
-36.02597721948717
 30
0.0
 11
16.01586389586173
 21
-36.02597721948717
 31
0.0
  0
LINE
  5
1A53
330
19A4
100
AcDbEntity
  8
AM_REFDIM
100
AcDbLine
 10
16.71586389586172
 20
-64.87597721948714
 30
0.0
 11
16.71586389586173
 21
-37.77597721948718
 31
0.0
  0
SOLID
  5
1A54
330
19A4
100
AcDbEntity
  8
AM_REFDIM
100
AcDbTrace
 10
16.42419722919505
 20
-64.87597721948714
 30
0.0
 11
17.00753056252839
 21
-64.87597721948714
 31
0.0
 12
16.71586389586172
 22
-66.62597721948714
 32
0.0
 13
16.71586389586172
 23
-66.62597721948714
 33
0.0
  0
SOLID
  5
1A55
330
19A4
100
AcDbEntity
  8
AM_REFDIM
100
AcDbTrace
 10
16.42419722919506
 20
-37.77597721948718
 30
0.0
 11
17.0075305625284
 21
-37.77597721948718
 31
0.0
 12
16.71586389586173
 22
-36.02597721948717
 32
0.0
 13
16.71586389586173
 23
-36.02597721948717
 33
0.0
  0
MTEXT
  5
1A56
330
19A4
100
AcDbEntity
  8
AM_REFDIM
100
AcDbMText
 10
14.31836389586173
 20
-51.32597721948716
 30
0.0
 40
2.449999999999999
 41
0.0
 71
     5
 72
     1
  1
(30.6)
 11
0.0000000000000001
 21
1.0
 31
0.0
 73
     1
 44
1.0
1001
ACAD
1000
MTEXTBEGIN
1070
    73
1070
     1
1070
    44
1040
1.0
1070
    74
1070
     0
1000
MTEXTEND
  0
POINT
  5
1A57
330
19A4
100
AcDbEntity
  8
Defpoints
 62
     0
100
AcDbPoint
 10
57.26579963455108
 20
-66.62597721948715
 30
0.0
  0
POINT
  5
1A58
330
19A4
100
AcDbEntity
  8
Defpoints
 62
     0
100
AcDbPoint
 10
47.16579963455109
 20
-36.02597721948717
 30
0.0
  0
POINT
  5
1A59
330
19A4
100
AcDbEntity
  8
Defpoints
 62
     0
100
AcDbPoint
 10
16.71586389586173
 20
-36.02597721948717
 30
0.0
  0
ENDBLK
  5
19AF
330
19A4
100
AcDbEntity
  8
0
100
AcDbBlockEnd
  0
BLOCK
  5
19BA
330
19B0
100
AcDbEntity
  8
0
100
AcDbBlockBegin
  2
*D59
 70
     1
 10
0.0
 20
0.0
 30
0.0
  3
*D59
  1

  0
LINE
  5
1A5A
330
19B0
100
AcDbEntity
  8
AM_REFDIM
100
AcDbLine
 10
73.86579963455108
 20
-101.8062672817923
 30
0.0
 11
73.86579963455108
 21
-109.079734542571
 31
0.0
  0
LINE
  5
1A5B
330
19B0
100
AcDbEntity
  8
AM_REFDIM
100
AcDbLine
 10
96.4657996345511
 20
-102.3562672817923
 30
0.0
 11
96.4657996345511
 21
-109.079734542571
 31
0.0
  0
LINE
  5
1A5C
330
19B0
100
AcDbEntity
  8
AM_REFDIM
100
AcDbLine
 10
75.61579963455108
 20
-108.379734542571
 30
0.0
 11
94.71579963455111
 21
-108.379734542571
 31
0.0
  0
SOLID
  5
1A5D
330
19B0
100
AcDbEntity
  8
AM_REFDIM
100
AcDbTrace
 10
75.61579963455108
 20
-108.0880678759043
 30
0.0
 11
75.61579963455108
 21
-108.6714012092376
 31
0.0
 12
73.86579963455108
 22
-108.379734542571
 32
0.0
 13
73.86579963455108
 23
-108.379734542571
 33
0.0
  0
SOLID
  5
1A5E
330
19B0
100
AcDbEntity
  8
AM_REFDIM
100
AcDbTrace
 10
94.71579963455111
 20
-108.0880678759043
 30
0.0
 11
94.71579963455111
 21
-108.6714012092376
 31
0.0
 12
96.4657996345511
 22
-108.379734542571
 32
0.0
 13
96.4657996345511
 23
-108.379734542571
 33
0.0
  0
MTEXT
  5
1A5F
330
19B0
100
AcDbEntity
  8
AM_REFDIM
100
AcDbMText
 10
85.16579963455109
 20
-106.1044934008387
 30
0.0
 40
2.449999999999999
 41
0.0
 71
     5
 72
     1
  1
22.6
 73
     1
 44
1.0
1001
ACAD
1000
MTEXTBEGIN
1070
    73
1070
     1
1070
    44
1040
1.0
1070
    74
1070
     0
1000
MTEXTEND
  0
POINT
  5
1A60
330
19B0
100
AcDbEntity
  8
Defpoints
 62
     0
100
AcDbPoint
 10
73.86579963455108
 20
-101.1062672817923
 30
0.0
  0
POINT
  5
1A61
330
19B0
100
AcDbEntity
  8
Defpoints
 62
     0
100
AcDbPoint
 10
96.4657996345511
 20
-101.6562672817923
 30
0.0
  0
POINT
  5
1A62
330
19B0
100
AcDbEntity
  8
Defpoints
 62
     0
100
AcDbPoint
 10
96.4657996345511
 20
-108.379734542571
 30
0.0
  0
ENDBLK
  5
19BB
330
19B0
100
AcDbEntity
  8
0
100
AcDbBlockEnd
  0
BLOCK
  5
19C6
330
19BC
100
AcDbEntity
  8
0
100
AcDbBlockBegin
  2
*D60
 70
     1
 10
0.0
 20
0.0
 30
0.0
  3
*D60
  1

  0
LINE
  5
1A63
330
19BC
100
AcDbEntity
  8
AM_REFDIM
100
AcDbLine
 10
56.56579963455108
 20
-66.62597721948715
 30
0.0
 11
51.86012600362531
 21
-66.62597721948715
 31
0.0
  0
LINE
  5
1A64
330
19BC
100
AcDbEntity
  8
AM_REFDIM
100
AcDbLine
 10
58.2657996345511
 20
-50.32597721948715
 30
0.0
 11
51.86012600362531
 21
-50.32597721948715
 31
0.0
  0
LINE
  5
1A65
330
19BC
100
AcDbEntity
  8
AM_REFDIM
100
AcDbLine
 10
52.56012600362532
 20
-64.87597721948715
 30
0.0
 11
52.56012600362532
 21
-52.07597721948715
 31
0.0
  0
SOLID
  5
1A66
330
19BC
100
AcDbEntity
  8
AM_REFDIM
100
AcDbTrace
 10
52.26845933695866
 20
-64.87597721948715
 30
0.0
 11
52.85179267029199
 21
-64.87597721948715
 31
0.0
 12
52.56012600362532
 22
-66.62597721948715
 32
0.0
 13
52.56012600362532
 23
-66.62597721948715
 33
0.0
  0
SOLID
  5
1A67
330
19BC
100
AcDbEntity
  8
AM_REFDIM
100
AcDbTrace
 10
52.26845933695866
 20
-52.07597721948715
 30
0.0
 11
52.85179267029199
 21
-52.07597721948715
 31
0.0
 12
52.56012600362532
 22
-50.32597721948715
 32
0.0
 13
52.56012600362532
 23
-50.32597721948715
 33
0.0
  0
MTEXT
  5
1A68
330
19BC
100
AcDbEntity
  8
AM_REFDIM
100
AcDbMText
 10
50.28512600362533
 20
-58.47597721948712
 30
0.0
 40
2.449999999999999
 41
0.0
 71
     5
 72
     1
  1
16.3
 11
0.0000000000000001
 21
1.0
 31
0.0
 73
     1
 44
1.0
1001
ACAD
1000
MTEXTBEGIN
1070
    73
1070
     1
1070
    44
1040
1.0
1070
    74
1070
     0
1000
MTEXTEND
  0
POINT
  5
1A69
330
19BC
100
AcDbEntity
  8
Defpoints
 62
     0
100
AcDbPoint
 10
57.26579963455108
 20
-66.62597721948715
 30
0.0
  0
POINT
  5
1A6A
330
19BC
100
AcDbEntity
  8
Defpoints
 62
     0
100
AcDbPoint
 10
58.9657996345511
 20
-50.32597721948715
 30
0.0
  0
POINT
  5
1A6B
330
19BC
100
AcDbEntity
  8
Defpoints
 62
     0
100
AcDbPoint
 10
52.56012600362532
 20
-50.32597721948715
 30
0.0
  0
ENDBLK
  5
19C7
330
19BC
100
AcDbEntity
  8
0
100
AcDbBlockEnd
  0
BLOCK
  5
1A76
330
1A6C
100
AcDbEntity
  8
0
100
AcDbBlockBegin
  2
*D61
 70
     1
 10
0.0
 20
0.0
 30
0.0
  3
*D61
  1

  0
LINE
  5
1A6D
330
1A6C
100
AcDbEntity
  8
AM_REFDIM
100
AcDbLine
 10
63.9657996345511
 20
-91.6562672817923
 30
0.0
 11
63.9657996345511
 21
-87.58057827557907
 31
0.0
  0
LINE
  5
1A6E
330
1A6C
100
AcDbEntity
  8
AM_REFDIM
100
AcDbLine
 10
73.86579963455108
 20
-92.10626728179228
 30
0.0
 11
73.86579963455108
 21
-87.58057827557907
 31
0.0
  0
LINE
  5
1A6F
330
1A6C
100
AcDbEntity
  8
AM_REFDIM
100
AcDbLine
 10
66.0657996345511
 20
-88.63057827557907
 30
0.0
 11
71.76579963455108
 21
-88.63057827557907
 31
0.0
  0
SOLID
  5
1A70
330
1A6C
100
AcDbEntity
  8
AM_REFDIM
100
AcDbTrace
 10
66.0657996345511
 20
-88.28057827557907
 30
0.0
 11
66.0657996345511
 21
-88.98057827557906
 31
0.0
 12
63.9657996345511
 22
-88.63057827557907
 32
0.0
 13
63.9657996345511
 23
-88.63057827557907
 33
0.0
  0
SOLID
  5
1A71
330
1A6C
100
AcDbEntity
  8
AM_REFDIM
100
AcDbTrace
 10
71.76579963455108
 20
-88.28057827557907
 30
0.0
 11
71.76579963455108
 21
-88.98057827557906
 31
0.0
 12
73.86579963455108
 22
-88.63057827557907
 32
0.0
 13
73.86579963455108
 23
-88.63057827557907
 33
0.0
  0
MTEXT
  5
1A72
330
1A6C
100
AcDbEntity
  8
AM_REFDIM
100
AcDbMText
 10
68.91579963455109
 20
-86.70557827557907
 30
0.0
 40
2.449999999999999
 41
0.0
 71
     5
 72
     1
  1
9.9
 73
     1
 44
1.0
1001
ACAD
1000
MTEXTBEGIN
1070
    73
1070
     1
1070
    44
1040
1.0
1070
    74
1070
     0
1000
MTEXTEND
  0
POINT
  5
1A73
330
1A6C
100
AcDbEntity
  8
Defpoints
 62
     0
100
AcDbPoint
 10
63.9657996345511
 20
-92.3562672817923
 30
0.0
  0
POINT
  5
1A74
330
1A6C
100
AcDbEntity
  8
Defpoints
 62
     0
100
AcDbPoint
 10
73.86579963455108
 20
-92.80626728179228
 30
0.0
  0
POINT
  5
1A75
330
1A6C
100
AcDbEntity
  8
Defpoints
 62
     0
100
AcDbPoint
 10
73.86579963455108
 20
-88.63057827557907
 30
0.0
  0
ENDBLK
  5
1A77
330
1A6C
100
AcDbEntity
  8
0
100
AcDbBlockEnd
  0
BLOCK
  5
1A82
330
1A78
100
AcDbEntity
  8
0
100
AcDbBlockBegin
  2
*D62
 70
     1
 10
0.0
 20
0.0
 30
0.0
  3
*D62
  1

  0
LINE
  5
1A79
330
1A78
100
AcDbEntity
  8
AM_REFDIM
100
AcDbLine
 10
73.86579963455108
 20
-92.10626728179228
 30
0.0
 11
73.86579963455108
 21
-87.58057827557907
 31
0.0
  0
LINE
  5
1A7A
330
1A78
100
AcDbEntity
  8
AM_REFDIM
100
AcDbLine
 10
83.76579963455112
 20
-91.6562672817923
 30
0.0
 11
83.76579963455112
 21
-87.58057827557907
 31
0.0
  0
LINE
  5
1A7B
330
1A78
100
AcDbEntity
  8
AM_REFDIM
100
AcDbLine
 10
75.96579963455107
 20
-88.63057827557907
 30
0.0
 11
81.66579963455111
 21
-88.63057827557907
 31
0.0
  0
SOLID
  5
1A7C
330
1A78
100
AcDbEntity
  8
AM_REFDIM
100
AcDbTrace
 10
75.96579963455107
 20
-88.28057827557907
 30
0.0
 11
75.96579963455107
 21
-88.98057827557906
 31
0.0
 12
73.86579963455108
 22
-88.63057827557907
 32
0.0
 13
73.86579963455108
 23
-88.63057827557907
 33
0.0
  0
SOLID
  5
1A7D
330
1A78
100
AcDbEntity
  8
AM_REFDIM
100
AcDbTrace
 10
81.66579963455111
 20
-88.28057827557907
 30
0.0
 11
81.66579963455111
 21
-88.98057827557906
 31
0.0
 12
83.76579963455112
 22
-88.63057827557907
 32
0.0
 13
83.76579963455112
 23
-88.63057827557907
 33
0.0
  0
MTEXT
  5
1A7E
330
1A78
100
AcDbEntity
  8
AM_REFDIM
100
AcDbMText
 10
78.81579963455109
 20
-86.70557827557907
 30
0.0
 40
2.449999999999999
 41
0.0
 71
     5
 72
     1
  1
9.9
 73
     1
 44
1.0
1001
ACAD
1000
MTEXTBEGIN
1070
    73
1070
     1
1070
    44
1040
1.0
1070
    74
1070
     0
1000
MTEXTEND
  0
POINT
  5
1A7F
330
1A78
100
AcDbEntity
  8
Defpoints
 62
     0
100
AcDbPoint
 10
73.86579963455108
 20
-92.80626728179228
 30
0.0
  0
POINT
  5
1A80
330
1A78
100
AcDbEntity
  8
Defpoints
 62
     0
100
AcDbPoint
 10
83.76579963455112
 20
-92.3562672817923
 30
0.0
  0
POINT
  5
1A81
330
1A78
100
AcDbEntity
  8
Defpoints
 62
     0
100
AcDbPoint
 10
83.76579963455112
 20
-88.63057827557907
 30
0.0
  0
ENDBLK
  5
1A83
330
1A78
100
AcDbEntity
  8
0
100
AcDbBlockEnd
  0
ENDSEC
  0
SECTION
  2
ENTITIES
  0
VIEWPORT
  5
446
102
{ACAD_XDICTIONARY
360
1A97
102
}
330
D
100
AcDbEntity
 67
     1
  8
0
100
AcDbViewport
 10
70.77790140245054
 20
-46.5695537687259
 30
0.0
 40
235.2461544090981
 41
175.3788648498662
 68
     1
 69
     1
 12
70.77790140245054
 22
-46.5695537687259
 13
0.0
 23
0.0
 14
1.0
 24
1.0
 15
0.0
 25
0.0
 16
0.0
 26
0.0
 36
1.0
 17
0.0
 27
0.0
 37
0.0
 42
50.0
 43
0.0
 44
0.0
 45
175.3788648498662
 50
0.0
 51
0.0
 72
  1000
 90
    32800
  1

281
     0
 71
     1
 74
     0
110
0.0
120
0.0
130
0.0
111
1.0
121
0.0
131
0.0
112
0.0
122
1.0
132
0.0
 79
     0
146
0.0
  0
LINE
  5
594
330
D
100
AcDbEntity
 67
     1
  8
LOGO
 62
     4
100
AcDbLine
 10
187.6557287173038
 20
-114.5696752031351
 30
0.0
 11
-46.09427128269612
 21
-114.5696752031351
 31
0.0
  0
LWPOLYLINE
  5
595
330
D
100
AcDbEntity
 67
     1
  8
LOGO
 62
     4
100
AcDbPolyline
 90
        4
 70
     1
 43
0.0
 10
-46.09427128269612
 20
-114.5696752031351
 10
187.6557287173038
 20
-114.5696752031351
 10
187.6557287173038
 20
38.43278633532598
 10
-46.09427128269612
 20
38.43278633532598
1001
GENIUS_GENREC_14
1002
{
1000
PYDIR
1011
-46.09427128269612
1021
38.43278633532598
1031
0.0
1002
}
1002
{
1000
PXDIR
1011
187.6557287173038
1021
-114.5696752031351
1031
0.0
1002
}
1002
{
1000
PORI
1011
-46.09427128269612
1021
-114.5696752031351
1031
0.0
1002
}
1002
{
1000
PINS
1011
-46.09427128269612
1021
-114.5696752031351
1031
0.0
1002
}
1002
{
1000
PINS2
1011
187.6557287173038
1021
38.43278633532598
1031
0.0
1002
}
1002
{
1000
C
1070
     1
1002
}
1001
GENIUS_GENODEF_13
1002
{
1000
HIER
1070
     0
1002
}
1002
{
1000
MANEDIT
1070
     0
1002
}
1002
{
1000
NOSEL
1070
     0
1002
}
1002
{
1000
BEHIND
1070
     0
1002
}
1002
{
1000
OTHER
1070
     0
1002
}
1002
{
1000
REACTOR
1002
}
1001
GENIUS_GENOBJ-N-REC_13
1002
{
1000
OWNER
1000
GEN
1002
}
  0
LWPOLYLINE
  5
596
330
D
100
AcDbEntity
 67
     1
  8
LOGO
 62
     4
100
AcDbPolyline
 90
        4
 70
     1
 43
0.0
 10
-46.09427128269612
 20
-114.5696752031351
 10
187.6557287173038
 20
-114.5696752031351
 10
187.6557287173038
 20
-131.5672136646739
 10
-46.09427128269612
 20
-131.5672136646739
1001
GENIUS_GENREC_14
1002
{
1000
PYDIR
1011
-46.09427128269612
1021
-131.5672136646739
1031
0.0
1002
}
1002
{
1000
PXDIR
1011
187.6557287173038
1021
-114.5696752031351
1031
0.0
1002
}
1002
{
1000
PORI
1011
-46.09427128269612
1021
-114.5696752031351
1031
0.0
1002
}
1002
{
1000
PINS
1011
-46.09427128269612
1021
-114.5696752031351
1031
0.0
1002
}
1002
{
1000
PINS2
1011
187.6557287173038
1021
-131.5672136646739
1031
0.0
1002
}
1002
{
1000
C
1070
     1
1002
}
1001
GENIUS_GENOBJ-N-REC_13
1002
{
1000
OWNER
1000
GEN
1002
}
1001
GENIUS_GENODEF_13
1002
{
1000
HIER
1070
     0
1002
}
1002
{
1000
MANEDIT
1070
     0
1002
}
1002
{
1000
NOSEL
1070
     0
1002
}
1002
{
1000
BEHIND
1070
     0
1002
}
1002
{
1000
OTHER
1070
     0
1002
}
1002
{
1000
REACTOR
1002
}
  0
TEXT
  5
597
330
D
100
AcDbEntity
 67
     1
  8
LOGO
 62
     7
100
AcDbText
 10
-7.714954918794887
 20
-122.0160075653029
 30
0.0
 40
2.266338461538461
  1
Order example:
 41
0.8
  7
CHINESET
100
AcDbText
  0
TEXT
  5
598
330
D
100
AcDbEntity
 67
     1
  8
LOGO
 62
     7
100
AcDbText
 10
-7.308355056938239
 20
-118.8254722628228
 30
0.0
 40
3.399507692307691
  1
訂購代號：
  7
CHINESET
100
AcDbText
  0
LINE
  5
599
330
D
100
AcDbEntity
 67
     1
  8
LOGO
 62
     4
100
AcDbLine
 10
-8.699686667311468
 20
-131.5672136646737
 30
0.0
 11
-8.699686667311468
 21
-114.5696752031351
 31
0.0
  0
TEXT
  5
59A
330
D
100
AcDbEntity
 67
     1
  8
LOGO
  6
Continuous
100
AcDbText
 10
-39.9886790618978
 20
-128.2280728854265
 30
0.0
 40
2.549630769230769
  1
金器工業股份有限公司
  7
CHINESET
100
AcDbText
  0
TEXT
  5
59B
330
D
100
AcDbEntity
 67
     1
  8
LOGO
  6
Continuous
100
AcDbText
 10
-44.67184636540234
 20
-130.7782031823893
 30
0.0
 40
1.699753846153845
  1
MINDMAN INDUSTRIAL CO., LTD.
 41
0.85
  7
CHINESET
100
AcDbText
  0
LINE
  5
59C
330
D
100
AcDbEntity
 67
     1
  8
LOGO
 62
     4
100
AcDbLine
 10
-8.699686667311468
 20
-117.9691828954428
 30
0.0
 11
-33.62940974423471
 21
-117.9691828954428
 31
0.0
  0
LINE
  5
59D
330
D
100
AcDbEntity
 67
     1
  8
LOGO
 62
     4
100
AcDbLine
 10
-8.699686667311468
 20
-121.3686905877505
 30
0.0
 11
-33.62940974423471
 21
-121.3686905877505
 31
0.0
  0
LINE
  5
59E
330
D
100
AcDbEntity
 67
     1
  8
LOGO
 62
     4
100
AcDbLine
 10
-8.699686667311468
 20
-124.7681982800581
 30
0.0
 11
-46.09427128269612
 21
-124.7681982800581
 31
0.0
  0
LINE
  5
59F
330
D
100
AcDbEntity
 67
     1
  8
LOGO
 62
     4
100
AcDbLine
 10
-33.62940974423471
 20
-124.7681982800581
 30
0.0
 11
-33.62940974423471
 21
-114.5696752031351
 31
0.0
  0
TEXT
  5
5A0
330
D
100
AcDbEntity
 67
     1
  8
LOGO
100
AcDbText
 10
-16.59112068616409
 20
-123.9183213569814
 30
0.0
 40
1.699753846153845
  1
mm
  7
CHINESET
 72
     1
 11
-14.48666354330694
 21
-123.0684444339045
 31
0.0
100
AcDbText
 73
     2
  0
TEXT
  5
5A1
330
D
100
AcDbEntity
 67
     1
  8
LOGO
100
AcDbText
 10
-17.48146793891134
 20
-117.119305972366
 30
0.0
 40
1.699753846153845
  1
1 : 1
  7
CHINESET
 72
     1
 11
-14.48666354330694
 21
-116.2694290492891
 31
0.0
100
AcDbText
 73
     2
  0
LINE
  5
5A2
330
D
100
AcDbEntity
 67
     1
  8
LOGO
 62
     4
100
AcDbLine
 10
-20.03137897500385
 20
-124.7681982800581
 30
0.0
 11
-20.03137897500385
 21
-114.5696752031351
 31
0.0
  0
TEXT
  5
5A3
330
D
100
AcDbEntity
 67
     1
  8
LOGO
100
AcDbText
 10
-32.22787163983905
 20
-117.1184694793315
 30
111.3990668960423
 40
1.699753846153845
  1
比例 Scale:
 41
0.9
  7
CHINESET
 72
     4
 11
-26.83039435961928
 21
-116.2694290492891
 31
111.3990668960423
100
AcDbText
  0
TEXT
  5
5A4
330
D
100
AcDbEntity
 67
     1
  8
LOGO
100
AcDbText
 10
-32.32575924972917
 20
-120.4949039054369
 30
111.3990668960423
 40
1.699753846153845
  1
投影  View:
 41
0.9
  7
CHINESET
 72
     4
 11
-26.83039435961928
 21
-119.6689367415968
 31
111.3990668960423
100
AcDbText
  0
TEXT
  5
5A5
330
D
100
AcDbEntity
 67
     1
  8
LOGO
100
AcDbText
 10
-32.15957795852038
 20
-123.9183213569814
 30
111.3990668960423
 40
1.699753846153845
  1
單位  Unit:
 41
0.9
  7
CHINESET
 72
     4
 11
-26.83039435961928
 21
-123.0684444339045
 31
111.3990668960423
100
AcDbText
  0
SOLID
  5
5A6
330
D
100
AcDbEntity
 67
     1
  8
LOGO
 62
     5
100
AcDbTrace
 10
-44.33074938833724
 20
-121.9425994517357
 30
0.0
 11
-43.59582042680126
 21
-121.9425994517359
 31
0.0
 12
-40.52939269073741
 22
-114.9734455061355
 32
0.0
 13
-39.79446372920104
 23
-114.9734455061359
 33
0.0
  0
SOLID
  5
5A7
330
D
100
AcDbEntity
 67
     1
  8
LOGO
 62
     5
100
AcDbTrace
 10
-43.29171189099247
 20
-121.9425994517357
 30
0.0
 11
-42.55678292945648
 21
-121.9425994517357
 31
0.0
 12
-39.79446372920104
 22
-115.5309778217838
 32
0.0
 13
-40.52939269073741
 23
-118.2257173474159
 33
0.0
  0
SOLID
  5
5A8
330
D
100
AcDbEntity
 67
     1
  8
LOGO
 62
     2
100
AcDbTrace
 10
-43.59582042680126
 20
-121.9425994517359
 30
0.0
 11
-43.29171189099247
 21
-121.9425994517357
 31
0.0
 12
-39.79446372920104
 22
-114.9734455061359
 32
0.0
 13
-39.49035519339263
 23
-114.9734455061359
 33
0.0
  0
SOLID
  5
5A9
330
D
100
AcDbEntity
 67
     1
  8
LOGO
 62
     5
100
AcDbTrace
 10
-45.50902074033736
 20
-124.4768372501355
 30
0.0
 11
-45.25559696049708
 21
-124.4768372501355
 31
0.0
 12
-44.54193587153702
 22
-123.2097183509357
 32
0.0
 13
-44.28851209169752
 23
-123.2097183509357
 33
0.0
  0
SOLID
  5
5AA
330
D
100
AcDbEntity
 67
     1
  8
LOGO
 62
     5
100
AcDbTrace
 10
-44.54193587153702
 20
-123.2097183509357
 30
0.0
 11
-44.28851209169752
 21
-123.2097183509357
 31
0.0
 12
-44.54193587153702
 22
-124.4768372501355
 32
0.0
 13
-44.28851209169752
 23
-124.4768372501355
 33
0.0
  0
SOLID
  5
5AB
330
D
100
AcDbEntity
 67
     1
  8
LOGO
 62
     5
100
AcDbTrace
 10
-44.54193587153702
 20
-124.4768372501355
 30
0.0
 11
-44.28851209169752
 21
-124.4768372501355
 31
0.0
 12
-43.57485100273629
 22
-123.2097183509357
 32
0.0
 13
-43.3214272228964
 23
-123.2097183509357
 33
0.0
  0
SOLID
  5
5AC
330
D
100
AcDbEntity
 67
     1
  8
LOGO
 62
     5
100
AcDbTrace
 10
-43.57485100273629
 20
-123.2097183509357
 30
0.0
 11
-43.3214272228964
 21
-123.2097183509357
 31
0.0
 12
-43.57485100273629
 22
-124.4768372501355
 32
0.0
 13
-43.3214272228964
 23
-124.4768372501355
 33
0.0
  0
POLYLINE
  5
5AD
330
D
100
AcDbEntity
 67
     1
  8
LOGO
 62
     5
100
AcDb2dPolyline
 66
     1
 10
0.0
 20
0.0
 30
0.0
 40
0.2538299076923076
 41
0.2538299076923076
  0
VERTEX
  5
5AE
330
5AD
100
AcDbEntity
 67
     1
  8
LOGO
 62
     5
100
AcDbVertex
100
AcDb2dVertex
 10
-35.08017223239824
 20
-123.7165659106157
 30
0.0
 42
1.0
  0
VERTEX
  5
5AF
330
5AD
100
AcDbEntity
 67
     1
  8
LOGO
 62
     5
100
AcDbVertex
100
AcDb2dVertex
 10
-35.84166195547532
 20
-123.7165659106157
 30
0.0
 42
1.0
  0
SEQEND
  5
5B0
330
5AD
100
AcDbEntity
 67
     1
  8
LOGO
 62
     5
  0
POLYLINE
  5
5B1
330
D
100
AcDbEntity
 67
     1
  8
LOGO
 62
     5
100
AcDb2dPolyline
 66
     1
 10
0.0
 20
0.0
 30
0.0
 70
     1
  0
VERTEX
  5
5B2
330
5B1
100
AcDbEntity
 67
     1
  8
LOGO
 62
     5
100
AcDbVertex
100
AcDb2dVertex
 10
-37.27710395453865
 20
-123.8432778005358
 30
0.0
 42
1.000000057330635
  0
VERTEX
  5
5B3
330
5B1
100
AcDbEntity
 67
     1
  8
LOGO
 62
     5
100
AcDbVertex
100
AcDb2dVertex
 10
-36.5168326150186
 20
-123.8432778005358
 30
0.0
 42
1.000000057330635
  0
SEQEND
  5
5B4
330
5B1
100
AcDbEntity
 67
     1
  8
LOGO
 62
     5
  0
CIRCLE
  5
5B5
330
D
100
AcDbEntity
 67
     1
  8
LOGO
 62
     5
100
AcDbCircle
 10
-36.89696828477804
 20
-123.8432778005358
 30
0.0
 40
0.38013566976
  0
POLYLINE
  5
5B6
330
D
100
AcDbEntity
 67
     1
  8
LOGO
 62
     5
100
AcDb2dPolyline
 66
     1
 10
0.0
 20
0.0
 30
0.0
 70
     1
 40
0.2538299076923076
 41
0.2538299076923076
  0
VERTEX
  5
5B7
330
5B6
100
AcDbEntity
 67
     1
  8
LOGO
 62
     5
100
AcDbVertex
100
AcDb2dVertex
 10
-37.40462810016302
 20
-123.8432778005358
 30
0.0
 42
1.0
  0
VERTEX
  5
5B8
330
5B6
100
AcDbEntity
 67
     1
  8
LOGO
 62
     5
100
AcDbVertex
100
AcDb2dVertex
 10
-36.38930846939384
 20
-123.8432778005358
 30
0.0
 42
1.0
  0
SEQEND
  5
5B9
330
5B6
100
AcDbEntity
 67
     1
  8
LOGO
 62
     5
  0
LINE
  5
5BA
330
D
100
AcDbEntity
 67
     1
  8
LOGO
100
AcDbLine
 10
-34.9540695342572
 20
-124.4768372501355
 30
0.0
 11
-34.9540695342572
 21
-123.7165659106157
 31
0.0
  0
SOLID
  5
5BB
330
D
100
AcDbEntity
 67
     1
  8
LOGO
 62
     5
100
AcDbTrace
 10
-36.51685795739544
 20
-123.2097183509357
 30
0.0
 11
-36.26343417755595
 21
-123.2097183509357
 31
0.0
 12
-36.51685795739544
 22
-124.4768372501355
 32
0.0
 13
-36.26343417755595
 23
-124.4768372501355
 33
0.0
  0
SOLID
  5
5BC
330
D
100
AcDbEntity
 67
     1
  8
LOGO
 62
     5
100
AcDbTrace
 10
-35.96776465361714
 20
-124.4768372501355
 30
0.0
 11
-35.71434087377686
 21
-124.4768372501355
 31
0.0
 12
-35.96776465361714
 22
-123.2097183509357
 32
0.0
 13
-35.71434087377686
 23
-123.2097183509357
 33
0.0
  0
SOLID
  5
5BD
330
D
100
AcDbEntity
 67
     1
  8
LOGO
 62
     5
100
AcDbTrace
 10
-35.2074933140967
 20
-123.7165659106157
 30
0.0
 11
-34.9540695342572
 21
-123.7165659106157
 31
0.0
 12
-35.2074933140967
 22
-124.4768372501355
 32
0.0
 13
-34.9540695342572
 23
-124.4768372501355
 33
0.0
  0
SOLID
  5
5BE
330
D
100
AcDbEntity
 67
     1
  8
LOGO
 62
     5
100
AcDbTrace
 10
-35.9931070316012
 20
-115.5309778217838
 30
0.0
 11
-36.72803599313679
 21
-118.2257173474159
 31
0.0
 12
-35.9931070316012
 22
-121.9425994517359
 32
0.0
 13
-36.72803599313679
 23
-121.9425994517359
 33
0.0
  0
SOLID
  5
5BF
330
D
100
AcDbEntity
 67
     1
  8
LOGO
 62
     5
100
AcDbTrace
 10
-35.68899849579279
 20
-121.9425994517359
 30
0.0
 11
-34.9540695342572
 21
-121.9425994517359
 31
0.0
 12
-35.68899849579279
 22
-114.9734455061359
 32
0.0
 13
-34.9540695342572
 23
-114.9734455061355
 33
0.0
  0
SOLID
  5
5C0
330
D
100
AcDbEntity
 67
     1
  8
LOGO
 62
     2
100
AcDbTrace
 10
-35.9931070316012
 20
-114.9734455061355
 30
0.0
 11
-35.68899849579279
 21
-114.9734455061359
 31
0.0
 12
-35.9931070316012
 22
-121.9425994517359
 32
0.0
 13
-35.68899849579279
 23
-121.9425994517359
 33
0.0
  0
POLYLINE
  5
5C1
330
D
100
AcDbEntity
 67
     1
  8
LOGO
 62
     5
100
AcDb2dPolyline
 66
     1
 10
0.0
 20
0.0
 30
0.0
 40
0.2538299076923076
 41
0.2538299076923076
  0
VERTEX
  5
5C2
330
5C1
100
AcDbEntity
 67
     1
  8
LOGO
 62
     5
100
AcDbVertex
100
AcDb2dVertex
 10
-38.71259663835683
 20
-123.7165659106157
 30
0.0
 42
1.0
  0
VERTEX
  5
5C3
330
5C1
100
AcDbEntity
 67
     1
  8
LOGO
 62
     5
100
AcDbVertex
100
AcDb2dVertex
 10
-39.47408636143391
 20
-123.7165659106157
 30
0.0
 42
1.0
  0
SEQEND
  5
5C4
330
5C1
100
AcDbEntity
 67
     1
  8
LOGO
 62
     5
  0
POLYLINE
  5
5C5
330
D
100
AcDbEntity
 67
     1
  8
LOGO
 62
     5
100
AcDb2dPolyline
 66
     1
 10
0.0
 20
0.0
 30
0.0
 40
0.2538299076923076
 41
0.2538299076923076
  0
VERTEX
  5
5C6
330
5C5
100
AcDbEntity
 67
     1
  8
LOGO
 62
     5
100
AcDbVertex
100
AcDb2dVertex
 10
-37.95232529883757
 20
-123.7165659106157
 30
0.0
 42
1.0
  0
VERTEX
  5
5C7
330
5C5
100
AcDbEntity
 67
     1
  8
LOGO
 62
     5
100
AcDbVertex
100
AcDb2dVertex
 10
-38.71381502191426
 20
-123.7165659106157
 30
0.0
 42
1.0
  0
SEQEND
  5
5C8
330
5C5
100
AcDbEntity
 67
     1
  8
LOGO
 62
     5
  0
POLYLINE
  5
5C9
330
D
100
AcDbEntity
 67
     1
  8
LOGO
 62
     5
100
AcDb2dPolyline
 66
     1
 10
0.0
 20
0.0
 30
0.0
 40
0.2538299076923076
 41
0.2538299076923076
  0
VERTEX
  5
5CA
330
5C9
100
AcDbEntity
 67
     1
  8
LOGO
 62
     5
100
AcDbVertex
100
AcDb2dVertex
 10
-41.58474970479615
 20
-123.7165659106157
 30
0.0
 42
1.0
  0
VERTEX
  5
5CB
330
5C9
100
AcDbEntity
 67
     1
  8
LOGO
 62
     5
100
AcDbVertex
100
AcDb2dVertex
 10
-42.34623942787284
 20
-123.7165659106157
 30
0.0
 42
1.0
  0
SEQEND
  5
5CC
330
5C9
100
AcDbEntity
 67
     1
  8
LOGO
 62
     5
  0
SOLID
  5
5CD
330
D
100
AcDbEntity
 67
     1
  8
LOGO
 62
     5
100
AcDbTrace
 10
-42.47234212601426
 20
-123.2097183509357
 30
0.0
 11
-42.21891834617477
 21
-123.2097183509357
 31
0.0
 12
-42.47234212601426
 22
-124.4768372501355
 32
0.0
 13
-42.21891834617477
 23
-124.4768372501355
 33
0.0
  0
SOLID
  5
5CE
330
D
100
AcDbEntity
 67
     1
  8
LOGO
 62
     5
100
AcDbTrace
 10
-41.71207078649422
 20
-123.7165659106157
 30
0.0
 11
-41.45864700665394
 21
-123.7165659106157
 31
0.0
 12
-41.71207078649422
 22
-124.4768372501355
 32
0.0
 13
-41.45864700665394
 23
-124.4768372501355
 33
0.0
  0
POLYLINE
  5
5CF
330
D
100
AcDbEntity
 67
     1
  8
LOGO
 62
     5
100
AcDb2dPolyline
 66
     1
 10
0.0
 20
0.0
 30
0.0
 70
     1
 40
0.2538299076923076
 41
0.2538299076923076
  0
VERTEX
  5
5D0
330
5CF
100
AcDbEntity
 67
     1
  8
LOGO
 62
     5
100
AcDbVertex
100
AcDb2dVertex
 10
-41.037052506122
 20
-123.8432778005358
 30
0.0
 42
1.0
  0
VERTEX
  5
5D1
330
5CF
100
AcDbEntity
 67
     1
  8
LOGO
 62
     5
100
AcDbVertex
100
AcDb2dVertex
 10
-40.02173287535242
 20
-123.8432778005358
 30
0.0
 42
1.0
  0
SEQEND
  5
5D2
330
5CF
100
AcDbEntity
 67
     1
  8
LOGO
 62
     5
  0
SOLID
  5
5D3
330
D
100
AcDbEntity
 67
     1
  8
LOGO
 62
     5
100
AcDbTrace
 10
-40.14928236335481
 20
-122.8295826811755
 30
0.0
 11
-39.89585858351492
 21
-122.8295826811755
 31
0.0
 12
-40.14928236335481
 22
-124.4768372501355
 32
0.0
 13
-39.89585858351492
 23
-124.4768372501355
 33
0.0
  0
SOLID
  5
5D4
330
D
100
AcDbEntity
 67
     1
  8
LOGO
 62
     5
100
AcDbTrace
 10
-39.60018905957495
 20
-123.2097183509357
 30
0.0
 11
-39.34676527973545
 21
-123.2097183509357
 31
0.0
 12
-39.60018905957495
 22
-124.4768372501355
 32
0.0
 13
-39.34676527973545
 23
-124.4768372501355
 33
0.0
  0
SOLID
  5
5D5
330
D
100
AcDbEntity
 67
     1
  8
LOGO
 62
     5
100
AcDbTrace
 10
-38.83991772005568
 20
-123.7165659106157
 30
0.0
 11
-38.5864939402154
 21
-123.7165659106157
 31
0.0
 12
-38.83991772005568
 22
-124.4768372501355
 32
0.0
 13
-38.5864939402154
 23
-124.4768372501355
 33
0.0
  0
SOLID
  5
5D6
330
D
100
AcDbEntity
 67
     1
  8
LOGO
 62
     5
100
AcDbTrace
 10
-38.07964638053564
 20
-123.7165659106157
 30
0.0
 11
-37.82622260069575
 21
-123.7165659106157
 31
0.0
 12
-38.07964638053564
 22
-124.4768372501359
 32
0.0
 13
-37.82622260069575
 23
-124.4768372501359
 33
0.0
  0
SOLID
  5
5D7
330
D
100
AcDbEntity
 67
     1
  8
LOGO
 62
     5
100
AcDbTrace
 10
-43.02143542979374
 20
-123.0323217050476
 30
0.0
 11
-42.76801164995307
 21
-123.0323217050476
 31
0.0
 12
-43.02143542979374
 22
-122.8295826811755
 32
0.0
 13
-42.76801164995307
 23
-122.8295826811755
 33
0.0
  0
SOLID
  5
5D8
330
D
100
AcDbEntity
 67
     1
  8
LOGO
 62
     5
100
AcDbTrace
 10
-43.02143542979374
 20
-123.2097183509357
 30
0.0
 11
-42.76801164995307
 21
-123.2097183509357
 31
0.0
 12
-43.02143542979374
 22
-124.4768372501359
 32
0.0
 13
-42.76801164995307
 23
-124.4768372501355
 33
0.0
  0
SOLID
  5
5D9
330
D
100
AcDbEntity
 67
     1
  8
LOGO
 62
     5
100
AcDbTrace
 10
-40.52939269073741
 20
-121.9425994517357
 30
0.0
 11
-39.79446372920104
 21
-121.9425994517357
 31
0.0
 12
-40.52939269073741
 22
-118.2257173474159
 32
0.0
 13
-39.79446372920104
 23
-115.5309778217838
 33
0.0
  0
SOLID
  5
5DA
330
D
100
AcDbEntity
 67
     1
  8
LOGO
 62
     5
100
AcDbTrace
 10
-39.49035519339263
 20
-114.9734455061359
 30
0.0
 11
-38.75542623185705
 21
-114.9734455061355
 31
0.0
 12
-39.49035519339263
 22
-121.3850671360878
 32
0.0
 13
-38.75542623185705
 23
-118.6903276104557
 33
0.0
  0
SOLID
  5
5DB
330
D
100
AcDbEntity
 67
     1
  8
LOGO
 62
     2
100
AcDbTrace
 10
-39.79446372920104
 20
-114.9734455061359
 30
0.0
 11
-39.49035519339263
 21
-114.9734455061359
 31
0.0
 12
-39.79446372920104
 22
-121.9425994517357
 32
0.0
 13
-39.49035519339263
 23
-121.9425994517357
 33
0.0
  0
SOLID
  5
5DC
330
D
100
AcDbEntity
 67
     1
  8
LOGO
 62
     5
100
AcDbTrace
 10
-39.49035519339263
 20
-121.3850671360878
 30
0.0
 11
-38.75542623185705
 21
-118.6903276104557
 31
0.0
 12
-35.9931070316012
 22
-114.9734455061355
 32
0.0
 13
-36.72803599313679
 23
-114.9734455061355
 33
0.0
  0
SOLID
  5
5DD
330
D
100
AcDbEntity
 67
     1
  8
LOGO
 62
     5
100
AcDbTrace
 10
-39.49035519339263
 20
-121.9425994517357
 30
0.0
 11
-38.75542623185705
 21
-121.9425994517357
 31
0.0
 12
-35.9931070316012
 22
-115.5309778217838
 32
0.0
 13
-36.72803599313679
 23
-118.2257173474159
 33
0.0
  0
SOLID
  5
5DE
330
D
100
AcDbEntity
 67
     1
  8
LOGO
 62
     2
100
AcDbTrace
 10
-39.79446372920104
 20
-121.9425994517357
 30
0.0
 11
-39.49035519339263
 21
-121.9425994517357
 31
0.0
 12
-35.9931070316012
 22
-114.9734455061355
 32
0.0
 13
-35.68899849579279
 23
-114.9734455061359
 33
0.0
  0
LINE
  5
5DF
330
D
100
AcDbEntity
 67
     1
  8
LOGO
 62
     4
100
AcDbLine
 10
22.74040369646557
 20
-123.9183213569811
 30
0.0
 11
22.74040369646557
 21
-130.1507521262122
 31
0.0
  0
LINE
  5
5E0
330
D
100
AcDbEntity
 67
     1
  8
LOGO
 62
     4
100
AcDbLine
 10
14.6796730974811
 20
-123.9183213569811
 30
0.0
 11
14.6796730974811
 21
-130.1507521262122
 31
0.0
  0
LINE
  5
5E1
330
D
100
AcDbEntity
 67
     1
  8
LOGO
 62
     4
100
AcDbLine
 10
22.74040369646557
 20
-130.1507521262122
 30
0.0
 11
14.6796730974811
 21
-130.1507521262122
 31
0.0
  0
LINE
  5
5E2
330
D
100
AcDbEntity
 67
     1
  8
LOGO
 62
     4
100
AcDbLine
 10
28.16543230023367
 20
-116.2694290492891
 30
0.0
 11
14.6796730974811
 21
-116.2694290492891
 31
0.0
  0
LINE
  5
5E3
330
D
100
AcDbEntity
 67
     1
  8
LOGO
 62
     4
100
AcDbLine
 10
28.16543230023367
 20
-121.3686905877505
 30
0.0
 11
14.6796730974811
 21
-121.3686905877505
 31
0.0
  0
LINE
  5
5E4
330
D
100
AcDbEntity
 67
     1
  8
LOGO
 62
     4
100
AcDbLine
 10
14.6796730974811
 20
-116.2694290492891
 30
0.0
 11
14.6796730974811
 21
-121.3686905877505
 31
0.0
  0
LINE
  5
5E5
330
D
100
AcDbEntity
 67
     1
  8
LOGO
 62
     4
100
AcDbLine
 10
28.16543230023367
 20
-116.2694290492891
 30
0.0
 11
28.16543230023367
 21
-121.3686905877505
 31
0.0
  0
LINE
  5
5E6
330
D
100
AcDbEntity
 67
     1
  8
LOGO
 62
     4
100
AcDbLine
 10
20.93674897282826
 20
-121.3686905877505
 30
0.0
 11
20.93674897282826
 21
-123.9183213569811
 31
0.0
  0
TEXT
  5
5E7
330
D
100
AcDbEntity
 67
     1
  8
LOGO
  6
Continuous
100
AcDbText
 10
15.58573201126908
 20
-120.3042271967163
 30
0.0
 40
2.975
  1
MVSZ
  7
CHINESET
100
AcDbText
  0
LINE
  5
5E8
330
D
100
AcDbEntity
 67
     1
  8
LOGO
 62
     4
100
AcDbLine
 10
22.74040369646557
 20
-123.9183213569811
 30
0.0
 11
14.6796730974811
 21
-123.9183213569811
 31
0.0
  0
TEXT
  5
5E9
330
D
100
AcDbEntity
 67
     1
  8
LOGO
  6
Continuous
100
AcDbText
 10
16.94335603008237
 20
-129.2710577393117
 30
111.3990668960423
 40
1.274999999999999
  1
Model
 41
0.8
  7
CHINESET
100
AcDbText
  0
TEXT
  5
5EA
330
D
100
AcDbEntity
 67
     1
  8
LOGO
100
AcDbText
 10
16.60399247778311
 20
-126.9074825214234
 30
111.3990668960423
 40
2.125
  1
型號
  7
CHINESET
100
AcDbText
  0
LINE
  5
5EB
330
D
100
AcDbEntity
 67
     1
  8
LOGO
  6
Continuous
100
AcDbLine
 10
28.70752594658852
 20
-118.8371222087628
 30
0.0
 11
30.95917377818715
 21
-118.8371222087628
 31
0.0
  0
LINE
  5
5EC
330
D
100
AcDbEntity
 67
     1
  8
LOGO
 62
     4
100
AcDbLine
 10
34.39296685983722
 20
-123.9183213569811
 30
0.0
 11
34.39296685983722
 21
-130.1507521262122
 31
0.0
  0
LINE
  5
5ED
330
D
100
AcDbEntity
 67
     1
  8
LOGO
 62
     4
100
AcDbLine
 10
24.06831685747481
 20
-123.9183213569811
 30
0.0
 11
24.06831685747481
 21
-130.1507521262122
 31
0.0
  0
LINE
  5
5EE
330
D
100
AcDbEntity
 67
     1
  8
LOGO
 62
     4
100
AcDbLine
 10
34.39296685983722
 20
-130.1507521262122
 30
0.0
 11
24.06831685747481
 21
-130.1507521262122
 31
0.0
  0
LINE
  5
5EF
330
D
100
AcDbEntity
 67
     1
  8
LOGO
 62
     4
100
AcDbLine
 10
40.64637390244556
 20
-116.2694290492891
 30
0.0
 11
31.66944997761607
 21
-116.2694290492891
 31
0.0
  0
LINE
  5
5F0
330
D
100
AcDbEntity
 67
     1
  8
LOGO
 62
     4
100
AcDbLine
 10
40.64637390244556
 20
-121.3686905877505
 30
0.0
 11
31.66944997761607
 21
-121.3686905877505
 31
0.0
  0
LINE
  5
5F1
330
D
100
AcDbEntity
 67
     1
  8
LOGO
 62
     4
100
AcDbLine
 10
31.66944997761607
 20
-116.2694290492891
 30
0.0
 11
31.66944997761607
 21
-121.3686905877505
 31
0.0
  0
LINE
  5
5F2
330
D
100
AcDbEntity
 67
     1
  8
LOGO
 62
     4
100
AcDbLine
 10
40.64637390244556
 20
-116.2694290492891
 30
0.0
 11
40.64637390244556
 21
-121.3686905877505
 31
0.0
  0
LINE
  5
5F3
330
D
100
AcDbEntity
 67
     1
  8
LOGO
 62
     4
100
AcDbLine
 10
34.727728818101
 20
-121.3686905877505
 30
0.0
 11
34.727728818101
 21
-122.6435059723658
 31
0.0
  0
TEXT
  5
5F4
330
D
100
AcDbEntity
 67
     1
  8
LOGO
  6
Continuous
100
AcDbText
 10
32.49836972200637
 20
-120.3042271967163
 30
0.0
 40
2.975
  1
100
  7
CHINESET
100
AcDbText
  0
LINE
  5
5F5
330
D
100
AcDbEntity
 67
     1
  8
LOGO
 62
     4
100
AcDbLine
 10
34.39296685983722
 20
-123.9183213569811
 30
0.0
 11
24.06831685747481
 21
-123.9183213569811
 31
0.0
  0
LINE
  5
5F6
330
D
100
AcDbEntity
 67
     1
  8
LOGO
  6
Continuous
100
AcDbLine
 10
41.28653028705028
 20
-118.8371222087628
 30
0.0
 11
42.78591925799666
 21
-118.8371222087628
 31
0.0
  0
LINE
  5
5F7
330
D
100
AcDbEntity
 67
     1
  8
LOGO
 62
     4
100
AcDbLine
 10
44.28769692957287
 20
-123.9183213569811
 30
0.0
 11
44.28769692957287
 21
-130.1507521262122
 31
0.0
  0
LINE
  5
5F8
330
D
100
AcDbEntity
 67
     1
  8
LOGO
 62
     4
100
AcDbLine
 10
35.77561651936994
 20
-123.9183213569811
 30
0.0
 11
35.77561651936994
 21
-130.1507521262122
 31
0.0
  0
LINE
  5
5F9
330
D
100
AcDbEntity
 67
     1
  8
LOGO
 62
     4
100
AcDbLine
 10
44.28769692957287
 20
-130.1507521262122
 30
0.0
 11
35.77561651936994
 21
-130.1507521262122
 31
0.0
  0
LINE
  5
5FA
330
D
100
AcDbEntity
 67
     1
  8
LOGO
 62
     4
100
AcDbLine
 10
47.11607553412092
 20
-116.2694290492891
 30
0.0
 11
43.49619545742558
 21
-116.2694290492891
 31
0.0
  0
LINE
  5
5FB
330
D
100
AcDbEntity
 67
     1
  8
LOGO
 62
     4
100
AcDbLine
 10
47.11607553412092
 20
-121.3686905877505
 30
0.0
 11
43.49619545742558
 21
-121.3686905877505
 31
0.0
  0
LINE
  5
5FC
330
D
100
AcDbEntity
 67
     1
  8
LOGO
 62
     4
100
AcDbLine
 10
43.49619545742558
 20
-116.2694290492891
 30
0.0
 11
43.49619545742558
 21
-121.3686905877505
 31
0.0
  0
LINE
  5
5FD
330
D
100
AcDbEntity
 67
     1
  8
LOGO
 62
     4
100
AcDbLine
 10
47.11607553412092
 20
-116.2694290492891
 30
0.0
 11
47.11607553412092
 21
-121.3686905877505
 31
0.0
  0
LINE
  5
5FE
330
D
100
AcDbEntity
 67
     1
  8
LOGO
 62
     4
100
AcDbLine
 10
45.30613549577326
 20
-121.3686905877505
 30
0.0
 11
45.30613549577326
 21
-122.6435059723658
 31
0.0
  0
TEXT
  5
5FF
330
D
100
AcDbEntity
 67
     1
  8
LOGO
  6
Continuous
100
AcDbText
 10
44.17489353277857
 20
-120.3042271967163
 30
0.0
 40
2.975
  1
4
  7
CHINESET
100
AcDbText
  0
LINE
  5
600
330
D
100
AcDbEntity
 67
     1
  8
LOGO
 62
     4
100
AcDbLine
 10
44.28769692957287
 20
-123.9183213569811
 30
0.0
 11
35.77561651936994
 21
-123.9183213569811
 31
0.0
  0
LINE
  5
601
330
D
100
AcDbEntity
 67
     1
  8
LOGO
 62
     4
100
AcDbLine
 10
62.98130235373197
 20
-123.9183213569811
 30
0.0
 11
62.98130235373197
 21
-130.1507521262122
 31
0.0
  0
LINE
  5
602
330
D
100
AcDbEntity
 67
     1
  8
LOGO
 62
     4
100
AcDbLine
 10
46.01397972827
 20
-123.9183213569811
 30
0.0
 11
46.01397972827
 21
-130.1507521262122
 31
0.0
  0
LINE
  5
603
330
D
100
AcDbEntity
 67
     1
  8
LOGO
 62
     4
100
AcDbLine
 10
62.98130235373197
 20
-130.1507521262122
 30
0.0
 11
46.01397972827
 21
-130.1507521262122
 31
0.0
  0
LINE
  5
604
330
D
100
AcDbEntity
 67
     1
  8
LOGO
 62
     4
100
AcDbLine
 10
58.15061793480074
 20
-116.2694290492891
 30
0.0
 11
48.35530210538184
 21
-116.2694290492891
 31
0.0
  0
LINE
  5
605
330
D
100
AcDbEntity
 67
     1
  8
LOGO
 62
     4
100
AcDbLine
 10
58.15061793480074
 20
-121.3686905877505
 30
0.0
 11
48.35530210538184
 21
-121.3686905877505
 31
0.0
  0
LINE
  5
606
330
D
100
AcDbEntity
 67
     1
  8
LOGO
 62
     4
100
AcDbLine
 10
48.35530210538184
 20
-116.2694290492891
 30
0.0
 11
48.35530210538184
 21
-121.3686905877505
 31
0.0
  0
LINE
  5
607
330
D
100
AcDbEntity
 67
     1
  8
LOGO
 62
     4
100
AcDbLine
 10
58.15061793480074
 20
-116.2694290492891
 30
0.0
 11
58.15061793480074
 21
-121.3686905877505
 31
0.0
  0
LINE
  5
608
330
D
100
AcDbEntity
 67
     1
  8
LOGO
 62
     4
100
AcDbLine
 10
53.55037077254987
 20
-121.3686905877505
 30
0.0
 11
53.55037077254987
 21
-123.9183213569811
 31
0.0
  0
TEXT
  5
609
330
D
100
AcDbEntity
 67
     1
  8
LOGO
  6
Continuous
100
AcDbText
 10
51.57438303958237
 20
-120.3042271967163
 30
0.0
 40
2.975
  1
E1
  7
CHINESET
100
AcDbText
  0
LINE
  5
60A
330
D
100
AcDbEntity
 67
     1
  8
LOGO
 62
     4
100
AcDbLine
 10
62.98130235373197
 20
-123.9183213569811
 30
0.0
 11
46.01397972827
 21
-123.9183213569811
 31
0.0
  0
TEXT
  5
60B
330
D
100
AcDbEntity
 67
     1
  8
LOGO
  6
Continuous
100
AcDbText
 10
24.87840795348223
 20
-129.2710577393117
 30
111.3990668960423
 40
1.274999999999999
  1
Body width
 41
0.8
  7
CHINESET
100
AcDbText
  0
TEXT
  5
60C
330
D
100
AcDbEntity
 67
     1
  8
LOGO
100
AcDbText
 10
24.8663970118881
 20
-126.9074825214234
 30
111.3990668960423
 40
2.125
  1
本體寬度
  7
CHINESET
100
AcDbText
  0
TEXT
  5
60D
330
D
100
AcDbEntity
 67
     1
  8
LOGO
  6
Continuous
100
AcDbText
 10
38.14914291925
 20
-129.2710577393117
 30
111.3990668960423
 40
1.274999999999999
  1
4 Way
 41
0.8
  7
CHINESET
100
AcDbText
  0
TEXT
  5
60E
330
D
100
AcDbEntity
 67
     1
  8
LOGO
100
AcDbText
 10
36.9055561993556
 20
-126.9074825214234
 30
111.3990668960423
 40
2.125
  1
4方向
  7
CHINESET
100
AcDbText
  0
TEXT
  5
60F
330
D
100
AcDbEntity
 67
     1
  8
LOGO
  6
Continuous
100
AcDbText
 10
48.95405607959514
 20
-129.2710577393117
 30
111.3990668960423
 40
1.274999999999999
  1
Single solenoid
 41
0.8
  7
CHINESET
100
AcDbText
  0
TEXT
  5
610
330
D
100
AcDbEntity
 67
     1
  8
LOGO
100
AcDbText
 10
50.97766900173422
 20
-126.9074825214234
 30
111.3990668960423
 40
2.125
  1
單線圈
  7
CHINESET
100
AcDbText
  0
LINE
  5
611
330
D
100
AcDbEntity
 67
     1
  8
LOGO
 62
     4
100
AcDbLine
 10
72.14758117564335
 20
-116.2694290492891
 30
0.0
 11
64.08591579272439
 21
-116.2694290492891
 31
0.0
  0
LINE
  5
612
330
D
100
AcDbEntity
 67
     1
  8
LOGO
 62
     4
100
AcDbLine
 10
72.14758117564335
 20
-121.3686905877505
 30
0.0
 11
64.08591579272439
 21
-121.3686905877505
 31
0.0
  0
LINE
  5
613
330
D
100
AcDbEntity
 67
     1
  8
LOGO
 62
     4
100
AcDbLine
 10
64.08591579272439
 20
-116.2694290492891
 30
0.0
 11
64.08591579272439
 21
-121.3686905877505
 31
0.0
  0
LINE
  5
614
330
D
100
AcDbEntity
 67
     1
  8
LOGO
 62
     4
100
AcDbLine
 10
72.14758117564335
 20
-116.2694290492891
 30
0.0
 11
72.14758117564335
 21
-121.3686905877505
 31
0.0
  0
TEXT
  5
615
330
D
100
AcDbEntity
 67
     1
  8
LOGO
  6
Continuous
100
AcDbText
 10
67.3222170806353
 20
-120.3042271967163
 30
0.0
 40
2.975
  1
?
  7
CHINESET
100
AcDbText
  0
LINE
  5
616
330
D
100
AcDbEntity
 67
     1
  8
LOGO
 62
     4
100
AcDbLine
 10
73.83692201344499
 20
-123.9183213569811
 30
0.0
 11
73.83692201344499
 21
-130.1507521262122
 31
0.0
  0
LINE
  5
617
330
D
100
AcDbEntity
 67
     1
  8
LOGO
 62
     4
100
AcDbLine
 10
64.605452117787
 20
-123.9183213569811
 30
0.0
 11
64.605452117787
 21
-130.1507521262122
 31
0.0
  0
LINE
  5
618
330
D
100
AcDbEntity
 67
     1
  8
LOGO
 62
     4
100
AcDbLine
 10
73.83692201344499
 20
-130.1507521262122
 30
0.0
 11
64.605452117787
 21
-130.1507521262122
 31
0.0
  0
LINE
  5
619
330
D
100
AcDbEntity
 67
     1
  8
LOGO
 62
     4
100
AcDbLine
 10
73.83692201344499
 20
-123.9183213569811
 30
0.0
 11
64.605452117787
 21
-123.9183213569811
 31
0.0
  0
TEXT
  5
61A
330
D
100
AcDbEntity
 67
     1
  8
LOGO
  6
Continuous
100
AcDbText
 10
66.61213609393318
 20
-129.2710577393117
 30
111.3990668960423
 40
1.274999999999999
  1
Voltage
 41
0.8
  7
CHINESET
100
AcDbText
  0
TEXT
  5
61B
330
D
100
AcDbEntity
 67
     1
  8
LOGO
100
AcDbText
 10
67.36062256456778
 20
-126.9074825214234
 30
111.3990668960423
 40
2.125
  1
電壓
  7
CHINESET
100
AcDbText
  0
LINE
  5
61C
330
D
100
AcDbEntity
 67
     1
  8
LOGO
 62
     4
100
AcDbLine
 10
68.57546281376084
 20
-121.3686905877505
 30
0.0
 11
68.57546281376084
 21
-123.918321356981
 31
0.0
  0
TEXT
  5
61D
330
D
100
AcDbEntity
 67
     1
  8
LOGO
100
AcDbText
 10
-7.912131414759453
 20
-130.6629513273406
 30
0.0
 40
1.7
  1
00910130
 41
0.7
  7
CHINESET
 72
     1
 11
-3.775464748092787
 21
-130.6629513273406
 31
0.0
100
AcDbText
  0
LINE
  5
61E
330
D
100
AcDbEntity
 67
     1
  8
LOGO
 62
     4
100
AcDbLine
 10
1.500313332687753
 20
-128.1677059723656
 30
0.0
 11
1.500313332688534
 21
-131.5672136646735
 31
0.0
  0
LINE
  5
61F
330
D
100
AcDbEntity
 67
     1
  8
LOGO
 62
     4
100
AcDbLine
 10
1.500313332687753
 20
-128.1677059723656
 30
0.0
 11
-8.699686667311468
 21
-128.1677059723656
 31
0.0
  0
CIRCLE
  5
620
330
D
100
AcDbEntity
 67
     1
  8
LOGO
  6
Continuous
100
AcDbCircle
 10
-16.88407212699978
 20
-119.6653009556812
 30
0.0
 40
0.9869170907725367
  0
CIRCLE
  5
621
330
D
100
AcDbEntity
 67
     1
  8
LOGO
  6
Continuous
100
AcDbCircle
 10
-16.88407212699978
 20
-119.6653009556812
 30
0.0
 40
0.5782460483657576
  0
LINE
  5
622
330
D
100
AcDbEntity
 67
     1
  8
LOGO
100
AcDbLine
 10
-10.68217061156875
 20
-120.652218046454
 30
0.0
 11
-10.68217061156875
 21
-118.6783838649085
 31
0.0
  0
LINE
  5
623
330
D
100
AcDbEntity
 67
     1
  8
LOGO
100
AcDbLine
 10
-13.77609903939635
 20
-120.2435470040469
 30
0.0
 11
-13.77609903939635
 21
-119.0870549073154
 31
0.0
  0
LINE
  5
624
330
D
100
AcDbEntity
 67
     1
  8
LOGO
  6
Continuous
100
AcDbLine
 10
-13.77609903939635
 20
-119.0870549073154
 30
0.0
 11
-10.68217061156875
 21
-118.6783838649085
 31
0.0
  0
LINE
  5
625
330
D
100
AcDbEntity
 67
     1
  8
LOGO
  6
Continuous
100
AcDbLine
 10
-13.77609903939635
 20
-120.2435470040469
 30
0.0
 11
-10.68217061156875
 21
-120.652218046454
 31
0.0
  0
LINE
  5
626
330
D
100
AcDbEntity
 67
     1
  8
LOGO
  6
AM_ISO08W050x2
 48
0.3
100
AcDbLine
 10
-18.24455211454946
 20
-119.6653009556812
 30
0.0
 11
-15.5235921394501
 21
-119.6653009556812
 31
0.0
1001
GENIUS_GENOREF_13
1005
630
  0
LINE
  5
627
330
D
100
AcDbEntity
 67
     1
  8
LOGO
  6
AM_ISO08W050x2
 48
0.3
100
AcDbLine
 10
-16.88407212699978
 20
-121.0257809432309
 30
0.0
 11
-16.88407212699978
 21
-118.3048209681315
 31
0.0
1001
GENIUS_GENOREF_13
1005
62F
  0
LINE
  5
628
330
D
100
AcDbEntity
 67
     1
  8
LOGO
  6
CENTER
 48
0.5
100
AcDbLine
 10
-14.02352731828428
 20
-119.6653009556812
 30
0.0
 11
-10.37062203444921
 21
-119.6653009556812
 31
0.0
1001
GENIUS_GENOREF_13
1005
62E
  0
LINE
  5
629
330
D
100
AcDbEntity
 67
     1
  8
LOGO
 62
     4
100
AcDbLine
 10
34.727728818101
 20
-122.6435059723658
 30
0.0
 11
29.23064185865582
 21
-122.6435059723658
 31
0.0
  0
LINE
  5
62A
330
D
100
AcDbEntity
 67
     1
  8
LOGO
 62
     4
100
AcDbLine
 10
29.23064185865582
 20
-123.9183213569811
 30
0.0
 11
29.23064185865582
 21
-122.6435059723658
 31
0.0
  0
LINE
  5
62B
330
D
100
AcDbEntity
 67
     1
  8
LOGO
 62
     4
100
AcDbLine
 10
45.30613549577326
 20
-122.6435059723658
 30
0.0
 11
40.0316567244716
 21
-122.6435059723658
 31
0.0
  0
LINE
  5
62C
330
D
100
AcDbEntity
 67
     1
  8
LOGO
 62
     4
100
AcDbLine
 10
40.0316567244716
 20
-123.9183213569811
 30
0.0
 11
40.0316567244716
 21
-122.6435059723658
 31
0.0
  0
POINT
  5
62E
330
D
100
AcDbEntity
 67
     1
  8
0
 60
     1
100
AcDbPoint
 10
-2465.653592394492
 20
-1053.654900400107
 30
0.0
1001
GENIUS_GENOBJ-N-CRS_13
1002
{
1000
OWNER
1000
GEN
1002
}
1001
GENIUS_GENOLIS_13
1002
{
1000
ENT
1005
0
1005
0
1005
0
1005
628
1002
}
1001
GENIUS_GENOENT_13
1002
{
1000
MYREF
1005
62E
1002
}
1002
{
1000
GRP
1005
0
1002
}
1001
GENIUS_GENODEF_13
1002
{
1000
HIER
1070
    10
1002
}
1002
{
1000
MANEDIT
1070
     1
1002
}
1002
{
1000
NOSEL
1070
     0
1002
}
1002
{
1000
BEHIND
1070
     0
1002
}
1002
{
1000
OTHER
1070
     0
1002
}
1002
{
1000
REACTOR
1002
}
  0
POINT
  5
62F
330
D
100
AcDbEntity
 67
     1
  8
0
 60
     1
100
AcDbPoint
 10
-2476.978177617347
 20
-1044.779313921471
 30
0.0
1001
GENIUS_GENOBJ-N-CRS_13
1002
{
1000
OWNER
1000
GEN
1002
}
1001
GENIUS_GENOLIS_13
1002
{
1000
ENT
1005
0
1005
0
1005
0
1005
627
1002
}
1001
GENIUS_GENOENT_13
1002
{
1000
MYREF
1005
62F
1002
}
1002
{
1000
GRP
1005
0
1002
}
1001
GENIUS_GENODEF_13
1002
{
1000
HIER
1070
    10
1002
}
1002
{
1000
MANEDIT
1070
     1
1002
}
1002
{
1000
NOSEL
1070
     0
1002
}
1002
{
1000
BEHIND
1070
     0
1002
}
1002
{
1000
OTHER
1070
     0
1002
}
1002
{
1000
REACTOR
1002
}
  0
POINT
  5
630
330
D
100
AcDbEntity
 67
     1
  8
0
 60
     1
100
AcDbPoint
 10
-2470.61950391951
 20
-1053.654900400107
 30
0.0
1001
GENIUS_GENOBJ-N-CRS_13
1002
{
1000
OWNER
1000
GEN
1002
}
1001
GENIUS_GENOLIS_13
1002
{
1000
ENT
1005
0
1005
0
1005
0
1005
626
1002
}
1001
GENIUS_GENOENT_13
1002
{
1000
MYREF
1005
630
1002
}
1002
{
1000
GRP
1005
0
1002
}
1001
GENIUS_GENODEF_13
1002
{
1000
HIER
1070
    10
1002
}
1002
{
1000
MANEDIT
1070
     1
1002
}
1002
{
1000
NOSEL
1070
     0
1002
}
1002
{
1000
BEHIND
1070
     0
1002
}
1002
{
1000
OTHER
1070
     0
1002
}
1002
{
1000
REACTOR
1002
}
  0
TEXT
  5
C42
330
D
100
AcDbEntity
 67
     1
  8
AM_5
100
AcDbText
 10
76.13704237976128
 20
3.871879686066051
 30
0.0
 40
3.0
  1

100
AcDbText
  0
LINE
  5
117F
330
D
100
AcDbEntity
 67
     1
  8
LOGO
  6
Continuous
100
AcDbLine
 10
58.8887142584952
 20
-118.8371222087628
 30
0.0
 11
63.62597671182631
 21
-118.8371222087628
 31
0.0
  0
LINE
  5
1652
330
D
100
AcDbEntity
 67
     1
  8
AM_7
100
AcDbLine
 10
58.26579963455109
 20
-55.62597721948717
 30
0.0
 11
52.26579963455108
 21
-55.62597721948717
 31
0.0
  0
LINE
  5
1653
330
D
100
AcDbEntity
 67
     1
  8
AM_7
100
AcDbLine
 10
45.51579963455108
 20
-55.02597721948716
 30
0.0
 11
47.01579963455109
 21
-55.02597721948716
 31
0.0
  0
LINE
  5
1654
330
D
100
AcDbEntity
 67
     1
  8
AM_7
100
AcDbLine
 10
46.26579963455109
 20
-55.77597721948716
 30
0.0
 11
46.26579963455109
 21
-54.27597721948716
 31
0.0
  0
LINE
  5
1655
330
D
100
AcDbEntity
 67
     1
  8
AM_7
100
AcDbLine
 10
43.76579963455109
 20
-55.02597721948716
 30
0.0
 11
44.7157996345511
 21
-55.02597721948716
 31
0.0
  0
LINE
  5
1656
330
D
100
AcDbEntity
 67
     1
  8
AM_7
100
AcDbLine
 10
47.81579963455107
 20
-55.02597721948716
 30
0.0
 11
48.76579963455109
 21
-55.02597721948716
 31
0.0
  0
LINE
  5
1657
330
D
100
AcDbEntity
 67
     1
  8
AM_7
100
AcDbLine
 10
46.26579963455109
 20
-57.52597721948716
 30
0.0
 11
46.26579963455109
 21
-56.57597721948715
 31
0.0
  0
LINE
  5
1658
330
D
100
AcDbEntity
 67
     1
  8
AM_7
100
AcDbLine
 10
46.26579963455109
 20
-53.47597721948716
 30
0.0
 11
46.26579963455109
 21
-52.52597721948716
 31
0.0
  0
LINE
  5
1659
330
D
100
AcDbEntity
 67
     1
  8
AM_7
100
AcDbLine
 10
48.76579963455109
 20
-34.52597721948718
 30
0.0
 11
48.76579963455109
 21
-42.32597721948716
 31
0.0
  0
LINE
  5
165A
330
D
100
AcDbEntity
 67
     1
  8
AM_7
100
AcDbLine
 10
51.76579963455108
 20
-39.52597721948718
 30
0.0
 11
51.76579963455108
 21
-34.52597721948718
 31
0.0
  0
LINE
  5
165B
330
D
100
AcDbEntity
 67
     1
  8
AM_7
100
AcDbLine
 10
38.26579963455109
 20
-65.42597721948711
 30
0.0
 11
38.26579963455109
 21
-57.5937474935631
 31
0.0
  0
LINE
  5
165C
330
D
100
AcDbEntity
 67
     1
  8
AM_7
100
AcDbLine
 10
60.2157996345511
 20
-4.208785091467262
 30
0.0
 11
61.7157996345511
 21
-4.208785091467262
 31
0.0
  0
LINE
  5
165D
330
D
100
AcDbEntity
 67
     1
  8
AM_7
100
AcDbLine
 10
60.9657996345511
 20
-4.958785091467262
 30
0.0
 11
60.9657996345511
 21
-3.458785091467262
 31
0.0
  0
LINE
  5
165E
330
D
100
AcDbEntity
 67
     1
  8
AM_7
100
AcDbLine
 10
56.96579963455111
 20
-4.208785091467262
 30
0.0
 11
59.41579963455109
 21
-4.208785091467262
 31
0.0
  0
LINE
  5
165F
330
D
100
AcDbEntity
 67
     1
  8
AM_7
100
AcDbLine
 10
62.51579963455109
 20
-4.208785091467262
 30
0.0
 11
64.9657996345511
 21
-4.208785091467262
 31
0.0
  0
LINE
  5
1660
330
D
100
AcDbEntity
 67
     1
  8
AM_7
100
AcDbLine
 10
60.9657996345511
 20
-8.208785091467262
 30
0.0
 11
60.9657996345511
 21
-5.758785091467245
 31
0.0
  0
LINE
  5
1661
330
D
100
AcDbEntity
 67
     1
  8
AM_7
100
AcDbLine
 10
60.9657996345511
 20
-2.658785091467279
 30
0.0
 11
60.9657996345511
 21
-0.2087850914672629
 31
0.0
  0
LINE
  5
1662
330
D
100
AcDbEntity
 67
     1
  8
AM_7
100
AcDbLine
 10
86.01579963455106
 20
4.391214908532731
 30
0.0
 11
87.51579963455105
 21
4.391214908532731
 31
0.0
  0
LINE
  5
1663
330
D
100
AcDbEntity
 67
     1
  8
AM_7
100
AcDbLine
 10
86.76579963455106
 20
3.641214908532731
 30
0.0
 11
86.76579963455106
 21
5.141214908532731
 31
0.0
  0
LINE
  5
1664
330
D
100
AcDbEntity
 67
     1
  8
AM_7
100
AcDbLine
 10
82.76579963455105
 20
4.391214908532731
 30
0.0
 11
85.21579963455108
 21
4.391214908532731
 31
0.0
  0
LINE
  5
1665
330
D
100
AcDbEntity
 67
     1
  8
AM_7
100
AcDbLine
 10
88.31579963455107
 20
4.391214908532731
 30
0.0
 11
90.76579963455106
 21
4.391214908532731
 31
0.0
  0
LINE
  5
1666
330
D
100
AcDbEntity
 67
     1
  8
AM_7
100
AcDbLine
 10
86.76579963455106
 20
0.3912149085327314
 30
0.0
 11
86.76579963455106
 21
2.84121490853272
 31
0.0
  0
LINE
  5
1667
330
D
100
AcDbEntity
 67
     1
  8
AM_7
100
AcDbLine
 10
86.76579963455106
 20
5.941214908532742
 30
0.0
 11
86.76579963455106
 21
8.391214908532731
 31
0.0
  0
LINE
  5
1668
330
D
100
AcDbEntity
 67
     1
  8
AM_7
100
AcDbLine
 10
89.46579963455111
 20
0.0912149085327201
 30
0.0
 11
95.4657996345511
 21
0.0912149085327201
 31
0.0
  0
LINE
  5
1669
330
D
100
AcDbEntity
 67
     1
  8
AM_7
100
AcDbLine
 10
93.21579963455111
 20
-0.9087850914672799
 30
0.0
 11
94.71579963455111
 21
-0.9087850914672799
 31
0.0
  0
LINE
  5
166A
330
D
100
AcDbEntity
 67
     1
  8
AM_7
100
AcDbLine
 10
93.9657996345511
 20
-1.658785091467279
 30
0.0
 11
93.9657996345511
 21
-0.1587850914672799
 31
0.0
  0
LINE
  5
166B
330
D
100
AcDbEntity
 67
     1
  8
AM_7
100
AcDbLine
 10
91.4657996345511
 20
-0.9087850914672799
 30
0.0
 11
92.41579963455109
 21
-0.9087850914672799
 31
0.0
  0
LINE
  5
166C
330
D
100
AcDbEntity
 67
     1
  8
AM_7
100
AcDbLine
 10
95.51579963455111
 20
-0.9087850914672799
 30
0.0
 11
96.4657996345511
 21
-0.9087850914672799
 31
0.0
  0
LINE
  5
166D
330
D
100
AcDbEntity
 67
     1
  8
AM_7
100
AcDbLine
 10
93.9657996345511
 20
-3.408785091467279
 30
0.0
 11
93.9657996345511
 21
-2.458785091467291
 31
0.0
  0
LINE
  5
166E
330
D
100
AcDbEntity
 67
     1
  8
AM_7
100
AcDbLine
 10
93.9657996345511
 20
0.6412149085327315
 30
0.0
 11
93.9657996345511
 21
1.59121490853272
 31
0.0
  0
LINE
  5
166F
330
D
100
AcDbEntity
 67
     1
  8
AM_7
100
AcDbLine
 10
58.26579963455109
 20
0.0912149085327769
 30
0.0
 11
52.26579963455108
 21
0.0912149085327769
 31
0.0
  0
LINE
  5
1670
330
D
100
AcDbEntity
 67
     1
  8
AM_7
100
AcDbLine
 10
48.01579963455108
 20
0.0912149085327769
 30
0.0
 11
49.51579963455109
 21
0.0912149085327769
 31
0.0
  0
LINE
  5
1671
330
D
100
AcDbEntity
 67
     1
  8
AM_7
100
AcDbLine
 10
48.76579963455109
 20
-0.6587850914672231
 30
0.0
 11
48.76579963455109
 21
0.8412149085327769
 31
0.0
  0
LINE
  5
1672
330
D
100
AcDbEntity
 67
     1
  8
AM_7
100
AcDbLine
 10
44.61579963455108
 20
0.0912149085327769
 30
0.0
 11
47.2157996345511
 21
0.0912149085327769
 31
0.0
  0
LINE
  5
1673
330
D
100
AcDbEntity
 67
     1
  8
AM_7
100
AcDbLine
 10
50.31579963455107
 20
0.0912149085327769
 30
0.0
 11
52.91579963455109
 21
0.0912149085327769
 31
0.0
  0
LINE
  5
1674
330
D
100
AcDbEntity
 67
     1
  8
AM_7
100
AcDbLine
 10
48.76579963455109
 20
-4.058785091467228
 30
0.0
 11
48.76579963455109
 21
-1.458785091467234
 31
0.0
  0
LINE
  5
1675
330
D
100
AcDbEntity
 67
     1
  8
AM_7
100
AcDbLine
 10
48.76579963455109
 20
1.641214908532759
 30
0.0
 11
48.76579963455109
 21
4.241214908532754
 31
0.0
  0
LINE
  5
1676
330
D
100
AcDbEntity
 67
     1
  8
AM_7
100
AcDbLine
 10
51.01579963455108
 20
-2.908785091467251
 30
0.0
 11
52.51579963455109
 21
-2.908785091467251
 31
0.0
  0
LINE
  5
1677
330
D
100
AcDbEntity
 67
     1
  8
AM_7
100
AcDbLine
 10
51.76579963455108
 20
-3.658785091467251
 30
0.0
 11
51.76579963455108
 21
-2.158785091467251
 31
0.0
  0
LINE
  5
1678
330
D
100
AcDbEntity
 67
     1
  8
AM_7
100
AcDbLine
 10
48.76579963455109
 20
-2.908785091467251
 30
0.0
 11
50.21579963455107
 21
-2.908785091467251
 31
0.0
  0
LINE
  5
1679
330
D
100
AcDbEntity
 67
     1
  8
AM_7
100
AcDbLine
 10
53.31579963455107
 20
-2.908785091467251
 30
0.0
 11
54.76579963455108
 21
-2.908785091467251
 31
0.0
  0
LINE
  5
167A
330
D
100
AcDbEntity
 67
     1
  8
AM_7
100
AcDbLine
 10
51.76579963455108
 20
-5.908785091467251
 30
0.0
 11
51.76579963455108
 21
-4.458785091467234
 31
0.0
  0
LINE
  5
167B
330
D
100
AcDbEntity
 67
     1
  8
AM_7
100
AcDbLine
 10
51.76579963455108
 20
-1.35878509146724
 30
0.0
 11
51.76579963455108
 21
0.0912149085327485
 31
0.0
  0
LINE
  5
167C
330
D
100
AcDbEntity
 67
     1
  8
AM_7
100
AcDbLine
 10
89.46579963455111
 20
-96.95626728179227
 30
0.0
 11
95.4657996345511
 21
-96.95626728179227
 31
0.0
  0
LINE
  5
167D
330
D
100
AcDbEntity
 67
     1
  8
AM_7
100
AcDbLine
 10
58.26579963455109
 20
-96.95626728179233
 30
0.0
 11
52.26579963455108
 21
-96.95626728179233
 31
0.0
  0
LINE
  5
167E
330
D
100
AcDbEntity
 67
     1
  8
AM_7
100
AcDbLine
 10
50.51579963455108
 20
-96.95626728179233
 30
0.0
 11
52.01579963455109
 21
-96.95626728179233
 31
0.0
  0
LINE
  5
167F
330
D
100
AcDbEntity
 67
     1
  8
AM_7
100
AcDbLine
 10
51.26579963455109
 20
-97.70626728179232
 30
0.0
 11
51.26579963455109
 21
-96.20626728179232
 31
0.0
  0
LINE
  5
1680
330
D
100
AcDbEntity
 67
     1
  8
AM_7
100
AcDbLine
 10
48.76579963455109
 20
-96.95626728179233
 30
0.0
 11
49.7157996345511
 21
-96.95626728179233
 31
0.0
  0
LINE
  5
1681
330
D
100
AcDbEntity
 67
     1
  8
AM_7
100
AcDbLine
 10
52.81579963455107
 20
-96.95626728179233
 30
0.0
 11
53.76579963455109
 21
-96.95626728179233
 31
0.0
  0
LINE
  5
1682
330
D
100
AcDbEntity
 67
     1
  8
AM_7
100
AcDbLine
 10
51.26579963455109
 20
-99.45626728179233
 30
0.0
 11
51.26579963455109
 21
-98.50626728179232
 31
0.0
  0
LINE
  5
1683
330
D
100
AcDbEntity
 67
     1
  8
AM_7
100
AcDbLine
 10
51.26579963455109
 20
-95.40626728179232
 30
0.0
 11
51.26579963455109
 21
-94.45626728179233
 31
0.0
  0
LINE
  5
1684
330
D
100
AcDbEntity
 67
     1
  8
AM_7
100
AcDbLine
 10
27.56579963455107
 20
-96.95626728179227
 30
0.0
 11
33.76579963455109
 21
-96.95626728179227
 31
0.0
  0
LINE
  5
1685
330
D
100
AcDbEntity
 67
     1
  8
AM_7
100
AcDbLine
 10
37.51579963455109
 20
-96.95626728179227
 30
0.0
 11
39.01579963455109
 21
-96.95626728179227
 31
0.0
  0
LINE
  5
1686
330
D
100
AcDbEntity
 67
     1
  8
AM_7
100
AcDbLine
 10
38.26579963455109
 20
-97.70626728179227
 30
0.0
 11
38.26579963455109
 21
-96.20626728179226
 31
0.0
  0
LINE
  5
1687
330
D
100
AcDbEntity
 67
     1
  8
AM_7
100
AcDbLine
 10
32.86579963455108
 20
-96.95626728179227
 30
0.0
 11
36.71579963455111
 21
-96.95626728179227
 31
0.0
  0
LINE
  5
1688
330
D
100
AcDbEntity
 67
     1
  8
AM_7
100
AcDbLine
 10
39.81579963455107
 20
-96.95626728179227
 30
0.0
 11
43.66579963455109
 21
-96.95626728179227
 31
0.0
  0
LINE
  5
1689
330
D
100
AcDbEntity
 67
     1
  8
AM_7
100
AcDbLine
 10
38.26579963455109
 20
-102.3562672817923
 30
0.0
 11
38.26579963455109
 21
-98.50626728179227
 31
0.0
  0
LINE
  5
168A
330
D
100
AcDbEntity
 67
     1
  8
AM_7
100
AcDbLine
 10
38.26579963455109
 20
-95.40626728179226
 30
0.0
 11
38.26579963455109
 21
-91.55626728179226
 31
0.0
  0
LINE
  5
168B
330
D
100
AcDbEntity
 67
     1
  8
AM_7
100
AcDbLine
 10
68.11579963455108
 20
-61.22597721948713
 30
0.0
 11
69.61579963455108
 21
-61.22597721948713
 31
0.0
  0
LINE
  5
168C
330
D
100
AcDbEntity
 67
     1
  8
AM_7
100
AcDbLine
 10
68.86579963455108
 20
-61.97597721948714
 30
0.0
 11
68.86579963455108
 21
-60.47597721948713
 31
0.0
  0
LINE
  5
168D
330
D
100
AcDbEntity
 67
     1
  8
AM_7
100
AcDbLine
 10
65.26579963455112
 20
-61.22597721948713
 30
0.0
 11
67.3157996345511
 21
-61.22597721948713
 31
0.0
  0
LINE
  5
168E
330
D
100
AcDbEntity
 67
     1
  8
AM_7
100
AcDbLine
 10
70.41579963455109
 20
-61.22597721948713
 30
0.0
 11
72.4657996345511
 21
-61.22597721948713
 31
0.0
  0
LINE
  5
168F
330
D
100
AcDbEntity
 67
     1
  8
AM_7
100
AcDbLine
 10
68.86579963455108
 20
-64.82597721948714
 30
0.0
 11
68.86579963455108
 21
-62.77597721948715
 31
0.0
  0
LINE
  5
1690
330
D
100
AcDbEntity
 67
     1
  8
AM_7
100
AcDbLine
 10
68.86579963455108
 20
-59.67597721948715
 30
0.0
 11
68.86579963455108
 21
-57.62597721948714
 31
0.0
  0
LINE
  5
1691
330
D
100
AcDbEntity
 67
     1
  8
AM_7
100
AcDbLine
 10
78.11579963455108
 20
-61.22597721948713
 30
0.0
 11
79.61579963455108
 21
-61.22597721948713
 31
0.0
  0
LINE
  5
1692
330
D
100
AcDbEntity
 67
     1
  8
AM_7
100
AcDbLine
 10
78.86579963455108
 20
-61.97597721948714
 30
0.0
 11
78.86579963455108
 21
-60.47597721948713
 31
0.0
  0
LINE
  5
1693
330
D
100
AcDbEntity
 67
     1
  8
AM_7
100
AcDbLine
 10
75.26579963455112
 20
-61.22597721948713
 30
0.0
 11
77.3157996345511
 21
-61.22597721948713
 31
0.0
  0
LINE
  5
1694
330
D
100
AcDbEntity
 67
     1
  8
AM_7
100
AcDbLine
 10
80.41579963455109
 20
-61.22597721948713
 30
0.0
 11
82.4657996345511
 21
-61.22597721948713
 31
0.0
  0
LINE
  5
1695
330
D
100
AcDbEntity
 67
     1
  8
AM_7
100
AcDbLine
 10
78.86579963455108
 20
-64.82597721948714
 30
0.0
 11
78.86579963455108
 21
-62.77597721948715
 31
0.0
  0
LINE
  5
1696
330
D
100
AcDbEntity
 67
     1
  8
AM_7
100
AcDbLine
 10
78.86579963455108
 20
-59.67597721948715
 30
0.0
 11
78.86579963455108
 21
-57.62597721948714
 31
0.0
  0
DIMENSION
  5
1697
330
D
100
AcDbEntity
 67
     1
  8
AM_REFDIM
100
AcDbDimension
  2
*D43
 10
69.89952886837688
 20
-60.00474674527915
 30
0.0
 11
48.43530834030616
 21
-73.92577199193318
 31
0.0
 70
   163
  1
2-<>thru
 71
     5
 42
3.200000000000045
  3
AM_ANSI$3
100
AcDbDiametricDimension
 15
67.83207040072547
 25
-62.44720769369506
 35
0.0
 40
0.0
1001
ACAD
1000
DSTYLE
1002
{
1070
    41
1040
3.5
1070
    74
1070
     1
1070
   147
1040
1.0
1070
   271
1070
     1
1070
   289
1070
     3
1002
}
  0
LINE
  5
1698
330
D
100
AcDbEntity
 67
     1
  8
AM_7
100
AcDbLine
 10
79.11579963455108
 20
0.0912149085327201
 30
0.0
 11
80.61579963455107
 21
0.0912149085327201
 31
0.0
  0
LINE
  5
1699
330
D
100
AcDbEntity
 67
     1
  8
AM_7
100
AcDbLine
 10
79.86579963455108
 20
-0.65878509146728
 30
0.0
 11
79.86579963455108
 21
0.84121490853272
 31
0.0
  0
LINE
  5
169A
330
D
100
AcDbEntity
 67
     1
  8
AM_7
100
AcDbLine
 10
76.86579963455108
 20
0.0912149085327201
 30
0.0
 11
78.31579963455109
 21
0.0912149085327201
 31
0.0
  0
LINE
  5
169B
330
D
100
AcDbEntity
 67
     1
  8
AM_7
100
AcDbLine
 10
81.41579963455109
 20
0.0912149085327201
 30
0.0
 11
82.86579963455109
 21
0.0912149085327201
 31
0.0
  0
LINE
  5
169C
330
D
100
AcDbEntity
 67
     1
  8
AM_7
100
AcDbLine
 10
79.86579963455108
 20
-2.908785091467279
 30
0.0
 11
79.86579963455108
 21
-1.458785091467262
 31
0.0
  0
LINE
  5
169D
330
D
100
AcDbEntity
 67
     1
  8
AM_7
100
AcDbLine
 10
79.86579963455108
 20
1.641214908532731
 30
0.0
 11
79.86579963455108
 21
3.09121490853272
 31
0.0
  0
DIMENSION
  5
169E
330
D
100
AcDbEntity
 67
     1
  8
AM_REFDIM
100
AcDbDimension
  2
*D44
 10
86.76579963455106
 20
-17.90878509146728
 30
0.0
 11
73.86579963455108
 21
-15.63354394973499
 31
0.0
 70
    32
 71
     5
 42
25.79999999999996
  3
AM_ISO
100
AcDbAlignedDimension
 13
60.9657996345511
 23
-8.208785091467262
 33
0.0
 14
86.76579963455106
 24
0.3912149085327314
 34
0.0
100
AcDbRotatedDimension
1001
ACAD
1000
DSTYLE
1002
{
1070
    40
1040
0.7
1002
}
  0
DIMENSION
  5
169F
330
D
100
AcDbEntity
 67
     1
  8
AM_REFDIM
100
AcDbDimension
  2
*D45
 10
103.4657996345511
 20
4.391214908532727
 30
0.0
 11
101.1907996345511
 21
0.0912149085327438
 31
0.0
 70
    32
 71
     5
 42
8.600000000000001
  3
AM_ISO
100
AcDbAlignedDimension
 13
64.9657996345511
 23
-4.208785091467262
 33
0.0
 14
90.76579963455106
 24
4.391214908532731
 34
0.0
 50
90.0
100
AcDbRotatedDimension
1001
ACAD
1000
DSTYLE
1002
{
1070
    40
1040
0.7
1002
}
  0
DIMENSION
  5
16A0
330
D
100
AcDbEntity
 67
     1
  8
AM_REFDIM
100
AcDbDimension
  2
*D46
 10
109.4657996345511
 20
5.091214908532744
 30
0.0
 11
107.1907996345511
 21
0.0912149085327625
 31
0.0
 70
    32
 71
     5
 42
10.0
  3
AM_ISO
100
AcDbAlignedDimension
 13
96.16579963455109
 23
-4.908785091467251
 33
0.0
 14
96.16579963455109
 24
5.091214908532748
 34
0.0
 50
90.0
100
AcDbRotatedDimension
1001
ACAD
1000
DSTYLE
1002
{
1070
    40
1040
0.7
1002
}
  0
DIMENSION
  5
16A1
330
D
100
AcDbEntity
 67
     1
  8
AM_REFDIM
100
AcDbDimension
  2
*D47
 10
96.4657996345511
 20
-74.1259772194872
 30
0.0
 11
87.66579963455109
 21
-71.85097721948719
 31
0.0
 70
    32
 71
     5
 42
17.60000000000002
  3
AM_ISO
100
AcDbAlignedDimension
 13
78.86579963455108
 23
-64.82597721948714
 33
0.0
 14
96.4657996345511
 24
-65.32597721948718
 34
0.0
100
AcDbRotatedDimension
1001
ACAD
1000
DSTYLE
1002
{
1070
    40
1040
0.7
1002
}
  0
DIMENSION
  5
16A2
330
D
100
AcDbEntity
 67
     1
  8
AM_REFDIM
100
AcDbDimension
  2
*D48
 10
78.86579963455108
 20
-74.12597721948731
 30
0.0
 11
73.86579963455108
 21
-71.8509772194873
 31
0.0
 70
    32
 71
     5
 42
10.0
  3
AM_ISO
100
AcDbAlignedDimension
 13
68.86579963455108
 23
-64.82597721948714
 33
0.0
 14
78.86579963455108
 24
-64.82597721948714
 34
0.0
100
AcDbRotatedDimension
1001
ACAD
1000
DSTYLE
1002
{
1070
    40
1040
0.7
1002
}
  0
LINE
  5
16A3
330
D
100
AcDbEntity
 67
     1
  8
AM_7
100
AcDbLine
 10
73.86579963455108
 20
-6.058785091467257
 30
0.0
 11
73.86579963455108
 21
6.391214908532731
 31
0.0
  0
DIMENSION
  5
16A4
330
D
100
AcDbEntity
 67
     1
  8
AM_REFDIM
100
AcDbDimension
  2
*D49
 10
96.4657996345511
 20
10.19121490853274
 30
0.0
 11
85.16579963455109
 21
12.46645605026502
 31
0.0
 70
    32
 71
     5
 42
22.60000000000002
  3
AM_ISO
100
AcDbAlignedDimension
 13
73.86579963455108
 23
6.391214908532731
 33
0.0
 14
96.4657996345511
 24
4.791214908532765
 34
0.0
100
AcDbRotatedDimension
1001
ACAD
1000
DSTYLE
1002
{
1070
    40
1040
0.7
1002
}
  0
DIMENSION
  5
16A5
330
D
100
AcDbEntity
 67
     1
  8
AM_REFDIM
100
AcDbDimension
  2
*D50
 10
115.4657996345511
 20
5.891214908532723
 30
0.0
 11
113.1907996345511
 21
0.0912149085327417
 31
0.0
 70
    32
 71
     5
 42
11.6
  3
AM_ISO
100
AcDbAlignedDimension
 13
62.16579963455109
 23
-5.708785091467262
 33
0.0
 14
87.9657996345511
 24
5.891214908532731
 34
0.0
 50
90.0
100
AcDbRotatedDimension
1001
ACAD
1000
DSTYLE
1002
{
1070
    40
1040
0.7
1002
}
  0
DIMENSION
  5
16A6
330
D
100
AcDbEntity
 67
     1
  8
AM_REFDIM
100
AcDbDimension
  2
*D51
 10
96.4657996345511
 20
-23.90878509146728
 30
0.0
 11
59.36579963455109
 21
-21.633543949735
 31
0.0
 70
    32
 71
     5
 42
74.20000000000001
  3
AM_ISO
100
AcDbAlignedDimension
 13
22.26579963455109
 23
-3.058785091467257
 33
0.0
 14
96.4657996345511
 24
-4.608785091467268
 34
0.0
100
AcDbRotatedDimension
1001
ACAD
1000
DSTYLE
1002
{
1070
    40
1040
0.7
1002
}
  0
LINE
  5
16A7
330
D
100
AcDbEntity
 67
     1
  8
AM_4
  6
HIDDEN2
100
AcDbLine
 10
56.66579963455109
 20
-50.19998177220549
 30
0.0
 11
59.44593121919405
 21
-50.19998177220549
 31
0.0
  0
LINE
  5
16A8
330
D
100
AcDbEntity
 67
     1
  8
AM_4
  6
HIDDEN2
100
AcDbLine
 10
56.66579963455109
 20
-48.0519817722055
 30
0.0
 11
59.44593121919405
 21
-48.0519817722055
 31
0.0
  0
LINE
  5
16A9
330
D
100
AcDbEntity
 67
     1
  8
AM_4
  6
HIDDEN2
100
AcDbLine
 10
59.44593121919405
 20
-50.19998177220549
 30
0.0
 11
59.44593121919405
 21
-48.0519817722055
 31
0.0
  0
LINE
  5
16AA
330
D
100
AcDbEntity
 67
     1
  8
AM_4
  6
HIDDEN2
100
AcDbLine
 10
56.56579963455107
 20
-50.19997721948715
 30
0.0
 11
59.44593121919402
 21
-50.19997721948715
 31
0.0
  0
LINE
  5
16AB
330
D
100
AcDbEntity
 67
     1
  8
AM_4
  6
HIDDEN2
100
AcDbLine
 10
56.56579963455107
 20
-48.05197721948714
 30
0.0
 11
59.44593121919402
 21
-48.05197721948714
 31
0.0
  0
LINE
  5
16AC
330
D
100
AcDbEntity
 67
     1
  8
AM_4
  6
HIDDEN2
100
AcDbLine
 10
59.44593121919402
 20
-50.19997721948715
 30
0.0
 11
59.44593121919402
 21
-48.05197721948714
 31
0.0
  0
LINE
  5
16AD
330
D
100
AcDbEntity
 67
     1
  8
AM_7
100
AcDbLine
 10
67.11579963455108
 20
0.0912149085327201
 30
0.0
 11
68.61579963455108
 21
0.0912149085327201
 31
0.0
  0
LINE
  5
16AE
330
D
100
AcDbEntity
 67
     1
  8
AM_7
100
AcDbLine
 10
67.86579963455108
 20
-0.65878509146728
 30
0.0
 11
67.86579963455108
 21
0.84121490853272
 31
0.0
  0
LINE
  5
16AF
330
D
100
AcDbEntity
 67
     1
  8
AM_7
100
AcDbLine
 10
63.71579963455108
 20
0.0912149085327201
 30
0.0
 11
66.31579963455107
 21
0.0912149085327201
 31
0.0
  0
LINE
  5
16B0
330
D
100
AcDbEntity
 67
     1
  8
AM_7
100
AcDbLine
 10
69.41579963455109
 20
0.0912149085327201
 30
0.0
 11
72.01579963455109
 21
0.0912149085327201
 31
0.0
  0
LINE
  5
16B1
330
D
100
AcDbEntity
 67
     1
  8
AM_7
100
AcDbLine
 10
67.86579963455108
 20
-4.058785091467257
 30
0.0
 11
67.86579963455108
 21
-1.458785091467262
 31
0.0
  0
LINE
  5
16B2
330
D
100
AcDbEntity
 67
     1
  8
AM_7
100
AcDbLine
 10
67.86579963455108
 20
1.641214908532731
 30
0.0
 11
67.86579963455108
 21
4.241214908532754
 31
0.0
  0
LINE
  5
16B3
330
D
100
AcDbEntity
 67
     1
  8
AM_7
100
AcDbLine
 10
72.8157996345511
 20
0.0912149085327201
 30
0.0
 11
64.21579963455108
 21
0.0912149085327201
 31
0.0
  0
LINE
  5
16B4
330
D
100
AcDbEntity
 67
     1
  8
AM_7
100
AcDbLine
 10
72.91579963455109
 20
0.0912149085327201
 30
0.0
 11
82.01579963455111
 21
0.0912149085327201
 31
0.0
  0
LINE
  5
16B5
330
D
100
AcDbEntity
 67
     1
  8
AM_7
100
AcDbLine
 10
73.11579963455108
 20
-96.95626728179229
 30
0.0
 11
74.61579963455108
 21
-96.95626728179229
 31
0.0
  0
LINE
  5
16B6
330
D
100
AcDbEntity
 67
     1
  8
AM_7
100
AcDbLine
 10
73.86579963455108
 20
-97.7062672817923
 30
0.0
 11
73.86579963455108
 21
-96.2062672817923
 31
0.0
  0
LINE
  5
16B7
330
D
100
AcDbEntity
 67
     1
  8
AM_7
100
AcDbLine
 10
69.71579963455107
 20
-96.95626728179229
 30
0.0
 11
72.31579963455107
 21
-96.95626728179229
 31
0.0
  0
LINE
  5
16B8
330
D
100
AcDbEntity
 67
     1
  8
AM_7
100
AcDbLine
 10
75.41579963455109
 20
-96.95626728179229
 30
0.0
 11
78.01579963455108
 21
-96.95626728179229
 31
0.0
  0
LINE
  5
16B9
330
D
100
AcDbEntity
 67
     1
  8
AM_7
100
AcDbLine
 10
73.86579963455108
 20
-101.1062672817923
 30
0.0
 11
73.86579963455108
 21
-98.50626728179229
 31
0.0
  0
LINE
  5
16BA
102
{ACAD_REACTORS
330
18ED
330
18EA
102
}
330
D
100
AcDbEntity
 67
     1
  8
AM_7
100
AcDbLine
 10
73.86579963455108
 20
-95.4062672817923
 30
0.0
 11
73.86579963455108
 21
-92.80626728179228
 31
0.0
  0
LINE
  5
16BB
330
D
100
AcDbEntity
 67
     1
  8
AM_7
100
AcDbLine
 10
83.01579963455111
 20
-96.95626728179229
 30
0.0
 11
84.51579963455111
 21
-96.95626728179229
 31
0.0
  0
LINE
  5
16BC
330
D
100
AcDbEntity
 67
     1
  8
AM_7
100
AcDbLine
 10
83.76579963455112
 20
-97.7062672817923
 30
0.0
 11
83.76579963455112
 21
-96.2062672817923
 31
0.0
  0
LINE
  5
16BD
330
D
100
AcDbEntity
 67
     1
  8
AM_7
100
AcDbLine
 10
79.16579963455109
 20
-96.95626728179229
 30
0.0
 11
82.21579963455111
 21
-96.95626728179229
 31
0.0
  0
LINE
  5
16BE
330
D
100
AcDbEntity
 67
     1
  8
AM_7
100
AcDbLine
 10
85.3157996345511
 20
-96.95626728179229
 30
0.0
 11
88.36579963455108
 21
-96.95626728179229
 31
0.0
  0
LINE
  5
16BF
330
D
100
AcDbEntity
 67
     1
  8
AM_7
100
AcDbLine
 10
83.76579963455112
 20
-101.5562672817923
 30
0.0
 11
83.76579963455112
 21
-98.50626728179229
 31
0.0
  0
LINE
  5
16C0
102
{ACAD_REACTORS
330
18ED
102
}
330
D
100
AcDbEntity
 67
     1
  8
AM_7
100
AcDbLine
 10
83.76579963455112
 20
-95.4062672817923
 30
0.0
 11
83.76579963455112
 21
-92.3562672817923
 31
0.0
  0
LINE
  5
16C1
330
D
100
AcDbEntity
 67
     1
  8
AM_7
100
AcDbLine
 10
63.21579963455111
 20
-96.95626728179229
 30
0.0
 11
64.7157996345511
 21
-96.95626728179229
 31
0.0
  0
LINE
  5
16C2
330
D
100
AcDbEntity
 67
     1
  8
AM_7
100
AcDbLine
 10
63.9657996345511
 20
-97.7062672817923
 30
0.0
 11
63.9657996345511
 21
-96.2062672817923
 31
0.0
  0
LINE
  5
16C3
330
D
100
AcDbEntity
 67
     1
  8
AM_7
100
AcDbLine
 10
59.36579963455108
 20
-96.95626728179229
 30
0.0
 11
62.41579963455109
 21
-96.95626728179229
 31
0.0
  0
LINE
  5
16C4
330
D
100
AcDbEntity
 67
     1
  8
AM_7
100
AcDbLine
 10
65.51579963455108
 20
-96.95626728179229
 30
0.0
 11
68.56579963455107
 21
-96.95626728179229
 31
0.0
  0
LINE
  5
16C5
330
D
100
AcDbEntity
 67
     1
  8
AM_7
100
AcDbLine
 10
63.9657996345511
 20
-101.5562672817923
 30
0.0
 11
63.9657996345511
 21
-98.50626728179229
 31
0.0
  0
LINE
  5
16C6
102
{ACAD_REACTORS
330
18EA
102
}
330
D
100
AcDbEntity
 67
     1
  8
AM_7
100
AcDbLine
 10
63.9657996345511
 20
-95.4062672817923
 30
0.0
 11
63.9657996345511
 21
-92.3562672817923
 31
0.0
  0
DIMENSION
  5
16C7
330
D
100
AcDbEntity
 67
     1
  8
AM_REFDIM
100
AcDbDimension
  2
*D52
 10
79.86579963455108
 20
-11.90878509146728
 30
0.0
 11
73.86579963455108
 21
-9.633543949734995
 31
0.0
 70
    32
 71
     5
 42
12.0
  3
AM_ISO
100
AcDbAlignedDimension
 13
67.86579963455108
 23
-4.058785091467257
 33
0.0
 14
79.86579963455108
 24
-2.908785091467279
 34
0.0
100
AcDbRotatedDimension
1001
ACAD
1000
DSTYLE
1002
{
1070
    40
1040
0.7
1002
}
  0
DIMENSION
  5
16C8
330
D
100
AcDbEntity
 67
     1
  8
AM_REFDIM
100
AcDbDimension
  2
*D53
 10
61.63069525174223
 20
-3.396126603392541
 30
0.0
 11
43.66586389586166
 21
-11.90878509146725
 31
0.0
 70
   163
  1
2-<>thru
 71
     5
 42
2.099999999999887
  3
AM_ANSI$3
100
AcDbDiametricDimension
 15
60.30090401736001
 25
-5.02144357954204
 35
0.0
 40
0.0
1001
ACAD
1000
DSTYLE
1002
{
1070
    41
1040
3.5
1070
    74
1070
     1
1070
   147
1040
1.0
1070
   271
1070
     1
1070
   289
1070
     3
1002
}
  0
DIMENSION
  5
16C9
330
D
100
AcDbEntity
 67
     1
  8
AM_REFDIM
100
AcDbDimension
  2
*D54
 10
69.29852261095842
 20
-1.511846186021926
 30
0.0
 11
48.64299609565303
 21
10.81068739379779
 31
0.0
 70
   163
  1
5-M5×0.8
 71
     5
 42
4.30000000000011
  3
AM_ANSI$3
100
AcDbDiametricDimension
 15
66.43307665814373
 25
1.69427600308736
 35
0.0
 40
0.0
1001
ACAD
1000
DSTYLE
1002
{
1070
   147
1040
1.0
1070
   140
1040
3.0
1070
    41
1040
3.5
1070
    74
1070
     1
1070
   144
1040
1.0
1070
   271
1070
     1
1070
   289
1070
     3
1002
}
  0
DIMENSION
  5
16CA
330
D
100
AcDbEntity
 67
     1
  8
AM_REFDIM
100
AcDbDimension
  2
*D55
 10
103.4657996345511
 20
-61.22597721948713
 30
0.0
 11
103.4657996345511
 21
-63.92597721948713
 31
0.0
 70
   160
 71
     5
 42
5.400000000000027
  3
AM_ISO
100
AcDbAlignedDimension
 13
90.4657996345511
 23
-66.62597721948715
 33
0.0
 14
82.4657996345511
 24
-61.22597721948713
 34
0.0
 50
90.0
100
AcDbRotatedDimension
1001
ACAD
1000
DSTYLE
1002
{
1070
    40
1040
0.7
1002
}
  0
DIMENSION
  5
16CB
330
D
100
AcDbEntity
 67
     1
  8
AM_REFDIM
100
AcDbDimension
  2
*D56
 10
109.4657996345511
 20
-45.62597721948719
 30
0.0
 11
107.1905584928188
 21
-56.12597721948716
 31
0.0
 70
    32
 71
     5
 42
20.99999999999996
  3
AM_ISO
100
AcDbAlignedDimension
 13
90.4657996345511
 23
-66.62597721948715
 33
0.0
 14
96.16579963455109
 24
-45.62597721948719
 34
0.0
 50
90.0
100
AcDbRotatedDimension
1001
ACAD
1000
DSTYLE
1002
{
1070
    40
1040
0.7
1002
}
  0
DIMENSION
  5
16CC
330
D
100
AcDbEntity
 67
     1
  8
AM_REFDIM
100
AcDbDimension
  2
*D57
 10
115.4657996345511
 20
-40.92597721948716
 30
0.0
 11
113.1905584928188
 21
-53.77597721948713
 31
0.0
 70
    32
 71
     5
 42
25.70000000000001
  3
AM_ISO
100
AcDbAlignedDimension
 13
90.4657996345511
 23
-66.62597721948715
 33
0.0
 14
86.86579963455107
 24
-40.92597721948715
 34
0.0
 50
90.0
100
AcDbRotatedDimension
1001
ACAD
1000
DSTYLE
1002
{
1070
    40
1040
0.7
1002
}
  0
DIMENSION
  5
16CD
330
D
100
AcDbEntity
 67
     1
  8
AM_REFDIM
100
AcDbDimension
  2
*D58
 10
16.71586389586173
 20
-36.02597721948717
 30
0.0
 11
14.31836389586173
 21
-51.32597721948716
 31
0.0
 70
    32
  1
(<>)
 71
     5
 42
30.59999999999997
  3
AM_ISO
100
AcDbAlignedDimension
 13
57.26579963455108
 23
-66.62597721948715
 33
0.0
 14
47.16579963455109
 24
-36.02597721948717
 34
0.0
 50
90.0
100
AcDbRotatedDimension
1001
ACAD
1000
DSTYLE
1002
{
1070
    40
1040
0.7
1002
}
  0
DIMENSION
  5
16CE
330
D
100
AcDbEntity
 67
     1
  8
AM_REFDIM
100
AcDbDimension
  2
*D59
 10
96.4657996345511
 20
-108.379734542571
 30
0.0
 11
85.16579963455109
 21
-108.379734542571
 31
0.0
 70
   160
 71
     5
 42
22.60000000000002
  3
AM_ISO
100
AcDbAlignedDimension
 13
73.86579963455108
 23
-101.1062672817923
 33
0.0
 14
96.4657996345511
 24
-101.6562672817923
 34
0.0
100
AcDbRotatedDimension
1001
ACAD
1000
DSTYLE
1002
{
1070
    40
1040
0.7
1002
}
  0
DIMENSION
  5
16CF
330
D
100
AcDbEntity
 67
     1
  8
AM_REFDIM
100
AcDbDimension
  2
*D60
 10
52.56012600362532
 20
-50.32597721948715
 30
0.0
 11
52.56012600362533
 21
-58.47597721948712
 31
0.0
 70
   160
 71
     5
 42
16.3
  3
AM_ISO
100
AcDbAlignedDimension
 13
57.26579963455108
 23
-66.62597721948715
 33
0.0
 14
58.9657996345511
 24
-50.32597721948715
 34
0.0
 50
90.0
100
AcDbRotatedDimension
1001
ACAD
1000
DSTYLE
1002
{
1070
    40
1040
0.7
1002
}
  0
LINE
  5
16D0
330
D
100
AcDbEntity
 67
     1
  8
AM_7
100
AcDbLine
 10
54.56579963455107
 20
-49.12597721948714
 30
0.0
 11
63.76579963455054
 21
-49.12597721948714
 31
0.0
  0
LINE
  5
16D1
330
D
100
AcDbEntity
 67
     1
  8
AM_7
100
AcDbLine
 10
76.91579963455109
 20
-96.95626728179227
 30
0.0
 11
57.86579963455108
 21
-96.95626728179227
 31
0.0
  0
LINE
  5
16D2
330
D
100
AcDbEntity
 67
     1
  8
AM_7
100
AcDbLine
 10
79.51579963455111
 20
-96.95626728179227
 30
0.0
 11
87.86579963455109
 21
-96.95626728179227
 31
0.0
  0
LINE
  5
16D3
330
D
100
AcDbEntity
 67
     1
  8
AM_VIS
100
AcDbLine
 10
88.76579963455112
 20
-45.62597721948714
 30
0.0
 11
88.76579963455112
 21
-66.62597721948715
 31
0.0
  0
LINE
  5
16D4
330
D
100
AcDbEntity
 67
     1
  8
AM_VIS
100
AcDbLine
 10
91.4657996345511
 20
-65.62597721948714
 30
0.0
 11
90.4657996345511
 21
-66.62597721948715
 31
0.0
  0
LINE
  5
16D5
330
D
100
AcDbEntity
 67
     1
  8
AM_VIS
100
AcDbLine
 10
91.4657996345511
 20
-45.62597721948714
 30
0.0
 11
88.76579963455112
 21
-45.62597721948714
 31
0.0
  0
LINE
  5
16D6
330
D
100
AcDbEntity
 67
     1
  8
AM_VIS
100
AcDbLine
 10
88.76579963455105
 20
-45.62597721948714
 30
0.0
 11
88.26579963455106
 21
-45.62597721948714
 31
0.0
  0
LINE
  5
16D7
330
D
100
AcDbEntity
 67
     1
  8
AM_VIS
100
AcDbLine
 10
86.86579963455107
 20
-40.92597721948713
 30
0.0
 11
85.26579963455105
 21
-40.92597721948713
 31
0.0
  0
LINE
  5
16D8
330
D
100
AcDbEntity
 67
     1
  8
AM_VIS
100
AcDbLine
 10
86.86579963455107
 20
-45.62597721948714
 30
0.0
 11
86.86579963455107
 21
-40.92597721948715
 31
0.0
  0
LINE
  5
16D9
330
D
100
AcDbEntity
 67
     1
  8
AM_VIS
100
AcDbLine
 10
88.26579963455111
 20
-45.62597721948714
 30
0.0
 11
86.86579963455107
 21
-45.62597721948714
 31
0.0
  0
LINE
  5
16DA
330
D
100
AcDbEntity
 67
     1
  8
AM_VIS
100
AcDbLine
 10
88.26579963455106
 20
-45.62597721948714
 30
0.0
 11
88.26579963455111
 21
-66.62597721948715
 31
0.0
  0
LINE
  5
16DB
330
D
100
AcDbEntity
 67
     1
  8
AM_VIS
100
AcDbLine
 10
85.26579963455109
 20
-40.92597721948713
 30
0.0
 11
84.76579963455108
 21
-40.92597721948713
 31
0.0
  0
LINE
  5
16DC
330
D
100
AcDbEntity
 67
     1
  8
AM_VIS
100
AcDbLine
 10
85.26579963455105
 20
-40.92597721948715
 30
0.0
 11
85.26579963455109
 21
-66.62597721948715
 31
0.0
  0
LINE
  5
16DD
330
D
100
AcDbEntity
 67
     1
  8
AM_VIS
100
AcDbLine
 10
84.76579963455108
 20
-40.92597721948715
 30
0.0
 11
63.16579963455109
 21
-40.92597721948715
 31
0.0
  0
LINE
  5
16DE
330
D
100
AcDbEntity
 67
     1
  8
AM_VIS
100
AcDbLine
 10
84.76579963455112
 20
-66.62597721948715
 30
0.0
 11
84.76579963455112
 21
-40.92597721948715
 31
0.0
  0
LINE
  5
16DF
330
D
100
AcDbEntity
 67
     1
  8
AM_VIS
100
AcDbLine
 10
62.9657996345511
 20
-50.32597721948715
 30
0.0
 11
62.9657996345511
 21
-66.62597721948715
 31
0.0
  0
LINE
  5
16E0
330
D
100
AcDbEntity
 67
     1
  8
AM_VIS
100
AcDbLine
 10
62.16579963455109
 20
-50.52597721948714
 30
0.0
 11
62.16579963455109
 21
-66.62597721948715
 31
0.0
  0
LINE
  5
16E1
330
D
100
AcDbEntity
 67
     1
  8
AM_VIS
100
AcDbLine
 10
59.76579963455108
 20
-50.52597721948714
 30
0.0
 11
59.76579963455108
 21
-66.62597721948715
 31
0.0
  0
LINE
  5
16E2
330
D
100
AcDbEntity
 67
     1
  8
AM_VIS
100
AcDbLine
 10
88.76579963455112
 20
-66.62597721948715
 30
0.0
 11
90.4657996345511
 21
-66.62597721948715
 31
0.0
  0
LINE
  5
16E3
330
D
100
AcDbEntity
 67
     1
  8
AM_VIS
100
AcDbLine
 10
58.9657996345511
 20
-66.62597721948715
 30
0.0
 11
59.76579963455108
 21
-66.62597721948715
 31
0.0
  0
LINE
  5
16E4
330
D
100
AcDbEntity
 67
     1
  8
AM_VIS
100
AcDbLine
 10
59.76579963455108
 20
-66.62597721948715
 30
0.0
 11
62.16579963455109
 21
-66.62597721948715
 31
0.0
  0
LINE
  5
16E5
330
D
100
AcDbEntity
 67
     1
  8
AM_VIS
100
AcDbLine
 10
62.16579963455109
 20
-66.62597721948715
 30
0.0
 11
62.9657996345511
 21
-66.62597721948715
 31
0.0
  0
LINE
  5
16E6
330
D
100
AcDbEntity
 67
     1
  8
AM_VIS
100
AcDbLine
 10
62.9657996345511
 20
-66.62597721948715
 30
0.0
 11
84.76579963455112
 21
-66.62597721948715
 31
0.0
  0
LINE
  5
16E7
330
D
100
AcDbEntity
 67
     1
  8
AM_VIS
100
AcDbLine
 10
84.76579963455112
 20
-66.62597721948715
 30
0.0
 11
85.26579963455109
 21
-66.62597721948715
 31
0.0
  0
LINE
  5
16E8
330
D
100
AcDbEntity
 67
     1
  8
AM_VIS
100
AcDbLine
 10
85.26579963455111
 20
-66.62597721948715
 30
0.0
 11
88.26579963455111
 21
-66.62597721948715
 31
0.0
  0
LINE
  5
16E9
330
D
100
AcDbEntity
 67
     1
  8
AM_VIS
100
AcDbLine
 10
88.26579963455106
 20
-66.62597721948715
 30
0.0
 11
88.76579963455105
 21
-66.62597721948715
 31
0.0
  0
LINE
  5
16EA
330
D
100
AcDbEntity
 67
     1
  8
AM_VIS
100
AcDbLine
 10
61.76573512992764
 20
-48.5389380635243
 30
0.0
 11
61.76581253241138
 21
-48.54418297509233
 31
0.0
  0
LINE
  5
16EB
330
D
100
AcDbEntity
 67
     1
  8
AM_VIS
100
AcDbLine
 10
61.76573513611254
 20
-49.71301637551171
 30
0.0
 11
61.76581252628435
 21
-49.70777146376128
 31
0.0
  0
ARC
  5
16EC
330
D
100
AcDbEntity
 67
     1
  8
AM_VIS
100
AcDbCircle
 10
62.37989695409345
 20
-48.54946674368
 30
0.0
 40
0.6142646364072282
100
AcDbArc
 50
161.9266238358511
 51
179.0179023706954
  0
ARC
  5
16ED
330
D
100
AcDbEntity
 67
     1
  8
AM_VIS
100
AcDbCircle
 10
62.37989695408373
 20
-49.70248769529593
 30
0.0
 40
0.6142646363974702
100
AcDbArc
 50
180.9820976291677
 51
198.0733761642859
  0
LINE
  5
16EE
330
D
100
AcDbEntity
 67
     1
  8
AM_VIS
100
AcDbLine
 10
58.9657996345511
 20
-66.62597721948715
 30
0.0
 11
58.9657996345511
 21
-50.32597721948715
 31
0.0
  0
LINE
  5
16EF
330
D
100
AcDbEntity
 67
     1
  8
AM_VIS
100
AcDbLine
 10
57.26579963455108
 20
-66.62597721948715
 30
0.0
 11
58.9657996345511
 21
-66.62597721948715
 31
0.0
  0
LINE
  5
16F0
330
D
100
AcDbEntity
 67
     1
  8
AM_VIS
100
AcDbLine
 10
57.26579963455108
 20
-66.62597721948715
 30
0.0
 11
56.26579963455109
 21
-65.62597721948716
 31
0.0
  0
LINE
  5
16F1
330
D
100
AcDbEntity
 67
     1
  8
AM_VIS
100
AcDbLine
 10
58.76579963455109
 20
-45.62597721948717
 30
0.0
 11
56.26579963455109
 21
-45.62597721948717
 31
0.0
  0
LINE
  5
16F2
330
D
100
AcDbEntity
 67
     1
  8
AM_VIS
100
AcDbLine
 10
58.9657996345511
 20
-50.32597721948715
 30
0.0
 11
58.9657996345511
 21
-45.82597721948715
 31
0.0
  0
LINE
  5
16F3
330
D
100
AcDbEntity
 67
     1
  8
AM_VIS
100
AcDbLine
 10
60.86579963455108
 20
-40.92597721948715
 30
0.0
 11
60.86579963455108
 21
-45.62597721948717
 31
0.0
  0
LINE
  5
16F4
330
D
100
AcDbEntity
 67
     1
  8
AM_VIS
100
AcDbLine
 10
60.8660536840427
 20
-40.92573515953397
 30
0.0
 11
61.05678045712267
 21
-41.12590887310804
 31
0.0
  0
LINE
  5
16F5
330
D
100
AcDbEntity
 67
     1
  8
AM_VIS
100
AcDbLine
 10
60.8660536840427
 20
-45.62573515953397
 30
0.0
 11
61.05678045712267
 21
-45.82590887310804
 31
0.0
  0
LINE
  5
16F6
330
D
100
AcDbEntity
 67
     1
  8
AM_VIS
100
AcDbLine
 10
62.76579963455109
 20
-50.52597721948716
 30
0.0
 11
62.16579963455109
 21
-50.52597721948716
 31
0.0
  0
LINE
  5
16F7
330
D
100
AcDbEntity
 67
     1
  8
AM_VIS
100
AcDbLine
 10
62.16579963455109
 20
-50.52597721948716
 30
0.0
 11
59.76579963455108
 21
-50.52597721948716
 31
0.0
  0
LINE
  5
16F8
330
D
100
AcDbEntity
 67
     1
  8
AM_VIS
100
AcDbLine
 10
59.76579963455108
 20
-50.52597721948716
 30
0.0
 11
59.16579963455109
 21
-50.52597721948716
 31
0.0
  0
LINE
  5
16F9
330
D
100
AcDbEntity
 67
     1
  8
AM_VIS
100
AcDbLine
 10
62.96579963455108
 20
-41.12597721948714
 30
0.0
 11
62.9657996345511
 21
-50.32597721948715
 31
0.0
  0
ARC
  5
16FA
330
D
100
AcDbEntity
 67
     1
  8
AM_VIS
100
AcDbCircle
 10
59.16579963455109
 20
-50.32597721948715
 30
0.0
 40
0.2
100
AcDbArc
 50
180.0
 51
270.0
  0
ARC
  5
16FB
330
D
100
AcDbEntity
 67
     1
  8
AM_VIS
100
AcDbCircle
 10
62.76579963455109
 20
-50.32597721948715
 30
0.0
 40
0.2
100
AcDbArc
 50
270.0
 51
0.0
  0
LINE
  5
16FC
330
D
100
AcDbEntity
 67
     1
  8
AM_VIS
100
AcDbLine
 10
56.26579963455109
 20
-45.62597721948717
 30
0.0
 11
56.26579963455109
 21
-54.62098965737507
 31
0.0
  0
LINE
  5
16FD
330
D
100
AcDbEntity
 67
     1
  8
AM_VIS
100
AcDbLine
 10
56.26579963455109
 20
-56.63096478159923
 30
0.0
 11
56.26579963455109
 21
-65.62597721948716
 31
0.0
  0
LINE
  5
16FE
330
D
100
AcDbEntity
 67
     1
  8
AM_VIS
100
AcDbLine
 10
91.4657996345511
 20
-65.62597721948714
 30
0.0
 11
91.4657996345511
 21
-56.63096478159925
 31
0.0
  0
LINE
  5
16FF
330
D
100
AcDbEntity
 67
     1
  8
AM_VIS
100
AcDbLine
 10
91.4657996345511
 20
-54.62098965737506
 30
0.0
 11
91.4657996345511
 21
-45.62597721948714
 31
0.0
  0
SPLINE
  5
1700
330
D
100
AcDbEntity
 67
     1
  8
AM_VIS
100
AcDbSpline
210
0.0
220
0.0
230
1.0
 70
     8
 71
     1
 72
    16
 73
    14
 74
     0
 42
0.0000000001
 43
0.0000000001
 40
0.0
 40
0.0
 40
0.2671054724056144
 40
0.5582786702565445
 40
0.7193146927553784
 40
0.9152500106553269
 40
1.12546502609211
 40
1.378786869133514
 40
1.672382230870607
 40
1.985659869048474
 40
2.282343883615687
 40
2.524549546565578
 40
2.719094391250397
 40
2.992432055620506
 40
3.108767117719573
 40
3.108767117719573
 10
59.19097569962122
 20
-48.28647721948714
 30
0.0
 10
59.1146195979482
 20
-48.29937737096125
 30
0.0
 10
59.07221240033982
 20
-48.34151699096754
 30
0.0
 10
59.0433369111879
 20
-48.4070668493236
 30
0.0
 10
59.01371155070496
 20
-48.53399175455177
 30
0.0
 10
58.99397386110917
 20
-48.70917473173697
 30
0.0
 10
58.98316840084942
 20
-48.94992434901886
 30
0.0
 10
58.98210017945771
 20
-49.24338543813402
 30
0.0
 10
58.99406265355096
 20
-49.54396845497299
 30
0.0
 10
59.02583608590521
 20
-49.78093113244785
 30
0.0
 10
59.06778196496398
 20
-49.90273862768574
 30
0.0
 10
59.09772650236362
 20
-49.94181841713677
 30
0.0
 10
59.1486057166012
 20
-49.96241143552928
 30
0.0
 10
59.19097569962113
 20
-49.96547721948714
 30
0.0
  0
CIRCLE
  5
1701
330
D
100
AcDbEntity
 67
     1
  8
AM_VIS
100
AcDbCircle
 10
68.86579963455108
 20
-61.22597721948714
 30
0.0
 40
1.6
  0
CIRCLE
  5
1702
330
D
100
AcDbEntity
 67
     1
  8
AM_VIS
100
AcDbCircle
 10
78.86579963455108
 20
-61.22597721948714
 30
0.0
 40
1.6
  0
LINE
  5
1703
330
D
100
AcDbEntity
 67
     1
  8
AM_VIS
100
AcDbLine
 10
61.76579963455108
 20
-49.70777127332765
 30
0.0
 11
61.76579963455108
 21
-48.5441831660587
 31
0.0
  0
ARC
  5
1704
330
D
100
AcDbEntity
 67
     1
  8
AM_VIS
100
AcDbCircle
 10
58.76579963455109
 20
-45.82597721948715
 30
0.0
 40
0.2
100
AcDbArc
 50
0.0
 51
90.0
  0
ARC
  5
1705
330
D
100
AcDbEntity
 67
     1
  8
AM_VIS
100
AcDbCircle
 10
63.16579963455109
 20
-41.12597721948714
 30
0.0
 40
0.2
100
AcDbArc
 50
90.0
 51
180.0
  0
LINE
  5
1706
330
D
100
AcDbEntity
 67
     1
  8
AM_VIS
100
AcDbLine
 10
63.16579963455109
 20
-40.92597721948715
 30
0.0
 11
60.86579963455108
 21
-40.92597721948715
 31
0.0
  0
LINE
  5
1707
330
D
100
AcDbEntity
 67
     1
  8
AM_VIS
100
AcDbLine
 10
60.86579963455108
 20
-45.62597721948715
 30
0.0
 11
58.76579963455109
 21
-45.62597721948715
 31
0.0
  0
LINE
  5
1708
330
D
100
AcDbEntity
 67
     1
  8
AM_VIS
100
AcDbLine
 10
91.4657996345511
 20
-65.62597721948716
 30
0.0
 11
96.16579963455109
 21
-65.62597721948716
 31
0.0
  0
LINE
  5
1709
330
D
100
AcDbEntity
 67
     1
  8
AM_VIS
100
AcDbLine
 10
96.16579963455109
 20
-45.62597721948715
 30
0.0
 11
91.4657996345511
 21
-45.62597721948715
 31
0.0
  0
LINE
  5
170A
330
D
100
AcDbEntity
 67
     1
  8
AM_VIS
100
AcDbLine
 10
96.4657996345511
 20
-65.32597721948715
 30
0.0
 11
96.4657996345511
 21
-63.54130841263305
 31
0.0
  0
LINE
  5
170B
330
D
100
AcDbEntity
 67
     1
  8
AM_VIS
100
AcDbLine
 10
96.4657996345511
 20
-62.71064602634125
 30
0.0
 11
96.4657996345511
 21
-45.92597721948715
 31
0.0
  0
ARC
  5
170C
330
D
100
AcDbEntity
 67
     1
  8
AM_VIS
100
AcDbCircle
 10
117.0189392550007
 20
-63.1259772194868
 30
0.0
 40
20.55733563129466
100
AcDbArc
 50
178.8423429914903
 51
181.1576570085121
  0
LINE
  5
170D
330
D
100
AcDbEntity
 67
     1
  8
AM_VIS
100
AcDbLine
 10
91.4657996345511
 20
-45.92597721948715
 30
0.0
 11
91.4657996345511
 21
-54.62098965737506
 31
0.0
  0
LINE
  5
170E
330
D
100
AcDbEntity
 67
     1
  8
AM_VIS
100
AcDbLine
 10
91.4657996345511
 20
-56.63096478159923
 30
0.0
 11
91.4657996345511
 21
-65.32597721948715
 31
0.0
  0
LINE
  5
170F
330
D
100
AcDbEntity
 67
     1
  8
AM_VIS
100
AcDbLine
 10
93.46579963455111
 20
-56.63096478159923
 30
0.0
 11
91.4657996345511
 21
-56.63096478159923
 31
0.0
  0
LINE
  5
1710
330
D
100
AcDbEntity
 67
     1
  8
AM_VIS
100
AcDbLine
 10
91.4657996345511
 20
-54.62098965737506
 30
0.0
 11
93.46579963455111
 21
-54.62098965737506
 31
0.0
  0
LINE
  5
1711
330
D
100
AcDbEntity
 67
     1
  8
AM_VIS
100
AcDbLine
 10
93.46579963455111
 20
-54.62098965737507
 30
0.0
 11
93.46579963455111
 21
-56.63096478159923
 31
0.0
  0
ELLIPSE
  5
1712
330
D
100
AcDbEntity
 67
     1
  8
AM_VIS
100
AcDbEllipse
 10
102.1260536723954
 20
-55.62597721948716
 30
0.0
 11
8.833459118601258
 21
-0.0000000000000011
 31
0.0
210
0.0
220
0.0
230
1.0
 40
0.5773502691896267
 41
2.943238131430989
 42
3.339947175748599
  0
LINE
  5
1713
330
D
100
AcDbEntity
 67
     1
  8
AM_VIS
100
AcDbLine
 10
96.4657996345511
 20
-62.71064602634125
 30
0.0
 11
96.4657996345511
 21
-63.54130841263305
 31
0.0
  0
ARC
  5
1714
330
D
100
AcDbEntity
 67
     1
  8
AM_VIS
100
AcDbCircle
 10
96.16579963455109
 20
-45.92597721948715
 30
0.0
 40
0.3000000000000007
100
AcDbArc
 50
0.0
 51
90.0
  0
ARC
  5
1715
330
D
100
AcDbEntity
 67
     1
  8
AM_VIS
100
AcDbCircle
 10
96.16579963455109
 20
-65.32597721948715
 30
0.0
 40
0.2999999999999998
100
AcDbArc
 50
270.0
 51
0.0
  0
LINE
  5
1716
330
D
100
AcDbEntity
 67
     1
  8
AM_VIS
100
AcDbLine
 10
91.4657996345511
 20
-56.63096478159923
 30
0.0
 11
91.4657996345511
 21
-54.62098965737507
 31
0.0
  0
LINE
  5
1717
330
D
100
AcDbEntity
 67
     1
  8
AM_VIS
100
AcDbLine
 10
56.26579963455109
 20
-65.62597721948716
 30
0.0
 11
56.26579963455109
 21
-56.63096478159925
 31
0.0
  0
LINE
  5
1718
330
D
100
AcDbEntity
 67
     1
  8
AM_VIS
100
AcDbLine
 10
56.26579963455109
 20
-65.62597721948716
 30
0.0
 11
44.26579963455108
 21
-65.62597721948716
 31
0.0
  0
LINE
  5
1719
330
D
100
AcDbEntity
 67
     1
  8
AM_VIS
100
AcDbLine
 10
44.26579963455108
 20
-65.62597721948716
 30
0.0
 11
43.76579963455109
 21
-64.62597721948715
 31
0.0
  0
LINE
  5
171A
330
D
100
AcDbEntity
 67
     1
  8
AM_VIS
100
AcDbLine
 10
43.76579963455109
 20
-64.32597721948716
 30
0.0
 11
43.76579963455109
 21
-64.62597721948715
 31
0.0
  0
LINE
  5
171B
330
D
100
AcDbEntity
 67
     1
  8
AM_VIS
100
AcDbLine
 10
44.76579963455108
 20
-64.32597721948716
 30
0.0
 11
43.76579963455109
 21
-64.32597721948716
 31
0.0
  0
LINE
  5
171C
330
D
100
AcDbEntity
 67
     1
  8
AM_VIS
100
AcDbLine
 10
44.76579963455108
 20
-39.62597721948716
 30
0.0
 11
44.76579963455108
 21
-64.32597721948716
 31
0.0
  0
LINE
  5
171D
330
D
100
AcDbEntity
 67
     1
  8
AM_VIS
100
AcDbLine
 10
55.06579963455109
 20
-45.62597721948715
 30
0.0
 11
52.26579963455108
 21
-39.62597721948716
 31
0.0
  0
LINE
  5
171E
330
D
100
AcDbEntity
 67
     1
  8
AM_VIS
100
AcDbLine
 10
56.26579963455109
 20
-45.62597721948715
 30
0.0
 11
55.06579963455107
 21
-45.62597721948715
 31
0.0
  0
LINE
  5
171F
330
D
100
AcDbEntity
 67
     1
  8
AM_VIS
100
AcDbLine
 10
56.26579963455109
 20
-54.62098965737506
 30
0.0
 11
56.26579963455109
 21
-45.62597721948715
 31
0.0
  0
LINE
  5
1720
330
D
100
AcDbEntity
 67
     1
  8
AM_VIS
100
AcDbLine
 10
54.26579963455108
 20
-54.62098965737507
 30
0.0
 11
56.26579963455109
 21
-54.62098965737507
 31
0.0
  0
LINE
  5
1721
330
D
100
AcDbEntity
 67
     1
  8
AM_VIS
100
AcDbLine
 10
56.26579963455109
 20
-56.63096478159925
 30
0.0
 11
54.26579963455108
 21
-56.63096478159925
 31
0.0
  0
LINE
  5
1722
330
D
100
AcDbEntity
 67
     1
  8
AM_VIS
100
AcDbLine
 10
54.26579963455108
 20
-56.63096478159925
 30
0.0
 11
54.26579963455108
 21
-54.62098965737506
 31
0.0
  0
ELLIPSE
  5
1723
330
D
100
AcDbEntity
 67
     1
  8
AM_VIS
100
AcDbEllipse
 10
45.60554559670672
 20
-55.62597721948716
 30
0.0
 11
-8.833459118601258
 21
0.0000000000000028
 31
0.0
210
0.0
220
0.0
230
1.0
 40
0.5773502691896267
 41
2.943238131430987
 42
3.339947175748599
  0
LINE
  5
1724
330
D
100
AcDbEntity
 67
     1
  8
AM_VIS
100
AcDbLine
 10
52.26579963455108
 20
-39.62597721948716
 30
0.0
 11
44.76579963455108
 21
-39.62597721948716
 31
0.0
  0
CIRCLE
  5
1725
330
D
100
AcDbEntity
 67
     1
  8
AM_VIS
100
AcDbCircle
 10
46.26579963455109
 20
-55.02597721948714
 30
0.0
 40
0.5
  0
LINE
  5
1726
330
D
100
AcDbEntity
 67
     1
  8
AM_VIS
100
AcDbLine
 10
56.26579963455109
 20
-54.62098965737506
 30
0.0
 11
56.26579963455109
 21
-56.63096478159925
 31
0.0
  0
LINE
  5
1727
330
D
100
AcDbEntity
 67
     1
  8
AM_VIS
100
AcDbLine
 10
51.26620625959947
 20
-37.52597721948716
 30
0.0
 11
47.71665354715273
 21
-37.52597721948716
 31
0.0
  0
LINE
  5
1728
330
D
100
AcDbEntity
 67
     1
  8
AM_VIS
100
AcDbLine
 10
51.51600294707529
 20
-36.02597721948716
 30
0.0
 11
47.96645023462852
 21
-36.02597721948716
 31
0.0
  0
LINE
  5
1729
330
D
100
AcDbEntity
 67
     1
  8
AM_VIS
100
AcDbLine
 10
51.77079988459485
 20
-36.02597721948716
 30
0.0
 11
52.26577463142541
 21
-36.02597721948716
 31
0.0
  0
SPLINE
  5
172A
330
D
100
AcDbEntity
 67
     1
  8
AM_VIS
100
AcDbSpline
210
0.0
220
0.0
230
1.0
 70
     8
 71
     3
 72
    22
 73
    18
 74
     0
 42
0.0000000001
 43
0.0000000001
 40
0.3363921212459848
 40
0.3363921212459848
 40
0.3363921212459848
 40
0.3363921212459848
 40
0.4322261816678647
 40
0.4322261816678647
 40
0.5211736396794337
 40
0.5211736396794337
 40
0.6051083555088156
 40
0.6051083555088156
 40
0.6890430713381974
 40
0.6890430713381974
 40
0.8054264725371288
 40
0.8054264725371288
 40
0.9218098737360604
 40
0.9218098737360604
 40
1.032290155253813
 40
1.032290155253813
 40
1.142770436771566
 40
1.142770436771566
 40
1.142770436771566
 40
1.142770436771566
 10
52.26577463142541
 20
-36.02597721948716
 30
0.0
 10
52.29038283213146
 20
-36.02597721948716
 30
0.0
 10
52.31584580132315
 20
-36.02808232187442
 30
0.0
 10
52.35906227249373
 20
-36.03572917094729
 30
0.0
 10
52.3837636418082
 20
-36.04247815263752
 30
0.0
 10
52.42306783203407
 20
-36.05768596270841
 30
0.0
 10
52.44360286464612
 20
-36.06772854516548
 30
0.0
 10
52.48314211107157
 20
-36.09261162643695
 30
0.0
 10
52.50214111030292
 20
-36.10746869390131
 30
0.0
 10
52.5415653140434
 20
-36.14421183669239
 30
0.0
 10
52.5647289457736
 20
-36.17127247757925
 30
0.0
 10
52.60517453717614
 20
-36.23302498824762
 30
0.0
 10
52.62244857703393
 20
-36.26772723145197
 30
0.0
 10
52.64784185538491
 20
-36.33427745976647
 30
0.0
 10
52.65847957825525
 20
-36.37167955575824
 30
0.0
 10
52.67239448263151
 20
-36.44911558976243
 30
0.0
 10
52.67566907294096
 20
-36.48915045898124
 30
0.0
 10
52.67566907294096
 20
-36.52597721948716
 30
0.0
  0
SPLINE
  5
172B
330
D
100
AcDbEntity
 67
     1
  8
AM_VIS
100
AcDbSpline
210
0.0
220
0.0
230
1.0
 70
     8
 71
     3
 72
    22
 73
    18
 74
     0
 42
0.0000000001
 43
0.0000000001
 40
-1.142770436771567
 40
-1.142770436771567
 40
-1.142770436771567
 40
-1.142770436771567
 40
-1.032290155253814
 40
-1.032290155253814
 40
-0.9218098737360612
 40
-0.9218098737360612
 40
-0.80542647253713
 40
-0.80542647253713
 40
-0.6890430713381983
 40
-0.6890430713381983
 40
-0.6051083555088162
 40
-0.6051083555088162
 40
-0.521173639679434
 40
-0.521173639679434
 40
-0.4322261816678648
 40
-0.4322261816678648
 40
-0.3363921212459852
 40
-0.3363921212459852
 40
-0.3363921212459852
 40
-0.3363921212459852
 10
52.18069432611037
 20
-36.52597721948716
 30
0.0
 10
52.18069432611037
 20
-36.48915045898124
 30
0.0
 10
52.17741973580093
 20
-36.44911558976243
 30
0.0
 10
52.16350483142466
 20
-36.37167955575824
 30
0.0
 10
52.15286710855432
 20
-36.33427745976647
 30
0.0
 10
52.12747383020337
 20
-36.26772723145197
 30
0.0
 10
52.11019979034557
 20
-36.23302498824762
 30
0.0
 10
52.069754198943
 20
-36.17127247757925
 30
0.0
 10
52.04659056721283
 20
-36.14421183669239
 30
0.0
 10
52.00716636347232
 20
-36.10746869390131
 30
0.0
 10
51.98816736424098
 20
-36.09261162643695
 30
0.0
 10
51.94862811781553
 20
-36.06772854516548
 30
0.0
 10
51.9280930852035
 20
-36.05768596270841
 30
0.0
 10
51.88878889497761
 20
-36.04247815263752
 30
0.0
 10
51.86408752566314
 20
-36.03572917094729
 30
0.0
 10
51.82087105449255
 20
-36.02808232187442
 30
0.0
 10
51.79540808530089
 20
-36.02597721948716
 30
0.0
 10
51.77079988459485
 20
-36.02597721948716
 30
0.0
  0
LINE
  5
172C
330
D
100
AcDbEntity
 67
     1
  8
AM_VIS
100
AcDbLine
 10
46.66579963455109
 20
-36.52597721948716
 30
0.0
 11
46.66579963455109
 21
-39.62597721948716
 31
0.0
  0
LINE
  5
172D
330
D
100
AcDbEntity
 67
     1
  8
AM_VIS
100
AcDbLine
 10
50.86579963455108
 20
-37.52597721948716
 30
0.0
 11
50.86579963455108
 21
-39.62597721948716
 31
0.0
  0
LINE
  5
172E
330
D
100
AcDbEntity
 67
     1
  8
AM_VIS
100
AcDbLine
 10
52.76579963455109
 20
-37.52597721948716
 30
0.0
 11
52.76579963455109
 21
-36.52597721948716
 31
0.0
  0
LINE
  5
172F
330
D
100
AcDbEntity
 67
     1
  8
AM_VIS
100
AcDbLine
 10
51.26620625959947
 20
-37.52597721948716
 30
0.0
 11
52.76579963455109
 21
-37.52597721948716
 31
0.0
  0
LINE
  5
1730
330
D
100
AcDbEntity
 67
     1
  8
AM_VIS
100
AcDbLine
 10
47.16579963455109
 20
-36.02597721948716
 30
0.0
 11
47.96645023462852
 21
-36.02597721948716
 31
0.0
  0
LINE
  5
1731
330
D
100
AcDbEntity
 67
     1
  8
AM_VIS
100
AcDbLine
 10
51.51600294707529
 20
-36.02597721948716
 30
0.0
 11
51.77079988459485
 21
-36.02597721948716
 31
0.0
  0
LINE
  5
1732
330
D
100
AcDbEntity
 67
     1
  8
AM_VIS
100
AcDbLine
 10
52.67566907294096
 20
-36.52597721948716
 30
0.0
 11
52.18069432611037
 21
-36.52597721948716
 31
0.0
  0
ARC
  5
1733
330
D
100
AcDbEntity
 67
     1
  8
AM_VIS
100
AcDbCircle
 10
52.26579963455108
 20
-36.52597721948716
 30
0.0
 40
0.5
100
AcDbArc
 50
0.0
 51
90.0
  0
ARC
  5
1734
330
D
100
AcDbEntity
 67
     1
  8
AM_VIS
100
AcDbCircle
 10
47.16579963455109
 20
-36.52597721948716
 30
0.0
 40
0.5
100
AcDbArc
 50
90.0
 51
180.0
  0
LINE
  5
1735
330
D
100
AcDbEntity
 67
     1
  8
AM_VIS
100
AcDbLine
 10
29.76579963455109
 20
-56.52600663150625
 30
0.0
 11
29.76579963455109
 21
-56.02597721948711
 31
0.0
  0
LINE
  5
1736
330
D
100
AcDbEntity
 67
     1
  8
AM_VIS
100
AcDbLine
 10
34.46579963455111
 20
-63.42597721948711
 30
0.0
 11
34.46579963455111
 21
-62.32597721948711
 31
0.0
  0
LINE
  5
1737
330
D
100
AcDbEntity
 67
     1
  8
AM_VIS
100
AcDbLine
 10
42.16579963455109
 20
-63.42597721948711
 30
0.0
 11
34.46579963455111
 21
-63.42597721948711
 31
0.0
  0
LINE
  5
1738
330
D
100
AcDbEntity
 67
     1
  8
AM_VIS
100
AcDbLine
 10
42.16579963455109
 20
-62.3259772194871
 30
0.0
 11
42.16579963455109
 21
-63.42597721948711
 31
0.0
  0
LINE
  5
1739
330
D
100
AcDbEntity
 67
     1
  8
AM_VIS
100
AcDbLine
 10
34.46579963455111
 20
-62.3259772194871
 30
0.0
 11
42.16579963455109
 21
-62.3259772194871
 31
0.0
  0
LINE
  5
173A
330
D
100
AcDbEntity
 67
     1
  8
AM_VIS
100
AcDbLine
 10
44.76579963455108
 20
-56.52597721948712
 30
0.0
 11
33.26579963455109
 21
-56.52597721948712
 31
0.0
  0
LINE
  5
173B
330
D
100
AcDbEntity
 67
     1
  8
AM_VIS
100
AcDbLine
 10
44.76579963455108
 20
-64.3259772194871
 30
0.0
 11
44.76579963455108
 21
-56.52597721948712
 31
0.0
  0
LINE
  5
173C
330
D
100
AcDbEntity
 67
     1
  8
AM_VIS
100
AcDbLine
 10
44.76579963455108
 20
-64.3259772194871
 30
0.0
 11
31.76579963455109
 21
-64.3259772194871
 31
0.0
  0
LINE
  5
173D
330
D
100
AcDbEntity
 67
     1
  8
AM_VIS
100
AcDbLine
 10
33.26579963455109
 20
-56.52597721948712
 30
0.0
 11
33.26579963455109
 21
-60.04597721948711
 31
0.0
  0
LINE
  5
173E
330
D
100
AcDbEntity
 67
     1
  8
AM_VIS
100
AcDbLine
 10
29.76441921441185
 20
-58.81294089830678
 30
0.0
 11
31.7646930982358
 21
-59.26558740333198
 31
0.0
  0
LINE
  5
173F
330
D
100
AcDbEntity
 67
     1
  8
AM_VIS
100
AcDbLine
 10
29.76579963455109
 20
-56.52600663150625
 30
0.0
 11
33.26579963455109
 21
-56.52600663150625
 31
0.0
  0
LINE
  5
1740
330
D
100
AcDbEntity
 67
     1
  8
AM_VIS
100
AcDbLine
 10
33.26579963455109
 20
-60.0459772194871
 30
0.0
 11
31.76579963455109
 21
-60.0459772194871
 31
0.0
  0
LINE
  5
1741
330
D
100
AcDbEntity
 67
     1
  8
AM_VIS
100
AcDbLine
 10
31.76579963455109
 20
-60.04597721948711
 30
0.0
 11
31.76579963455109
 21
-64.32597721948711
 31
0.0
  0
LINE
  5
1742
330
D
100
AcDbEntity
 67
     1
  8
AM_VIS
100
AcDbLine
 10
29.76579963455109
 20
-57.12597721948711
 30
0.0
 11
29.56579963455107
 21
-57.12597721948711
 31
0.0
  0
LINE
  5
1743
330
D
100
AcDbEntity
 67
     1
  8
AM_VIS
100
AcDbLine
 10
29.56579963455107
 20
-56.52597721948712
 30
0.0
 11
29.76579963455109
 21
-56.52597721948712
 31
0.0
  0
LINE
  5
1744
330
D
100
AcDbEntity
 67
     1
  8
AM_VIS
100
AcDbLine
 10
41.66579963455109
 20
-63.42597721948711
 30
0.0
 11
41.66579963455109
 21
-62.3259772194871
 31
0.0
  0
LINE
  5
1745
330
D
100
AcDbEntity
 67
     1
  8
AM_VIS
100
AcDbLine
 10
34.86579963455108
 20
-63.42597721948711
 30
0.0
 11
34.86579963455108
 21
-62.3259772194871
 31
0.0
  0
LINE
  5
1746
330
D
100
AcDbEntity
 67
     1
  8
AM_VIS
100
AcDbLine
 10
29.76579963455109
 20
-59.3259772194871
 30
0.0
 11
31.76579963455109
 21
-59.8259772194871
 31
0.0
  0
LINE
  5
1747
330
D
100
AcDbEntity
 67
     1
  8
AM_VIS
100
AcDbLine
 10
29.76579963455109
 20
-55.3259772194871
 30
0.0
 11
29.5657996345511
 21
-55.3259772194871
 31
0.0
  0
LINE
  5
1748
330
D
100
AcDbEntity
 67
     1
  8
AM_VIS
100
AcDbLine
 10
29.76579963455109
 20
-58.3259772194871
 30
0.0
 11
29.5657996345511
 21
-58.3259772194871
 31
0.0
  0
LINE
  5
1749
330
D
100
AcDbEntity
 67
     1
  8
AM_VIS
100
AcDbLine
 10
29.76579963455109
 20
-59.3259772194871
 30
0.0
 11
29.76579963455109
 21
-58.80684073333793
 31
0.0
  0
LINE
  5
174A
330
D
100
AcDbEntity
 67
     1
  8
AM_VIS
100
AcDbLine
 10
29.76579963455109
 20
-58.80684073333793
 30
0.0
 11
29.76579963455109
 21
-56.52600663150625
 31
0.0
  0
LINE
  5
174B
330
D
100
AcDbEntity
 67
     1
  8
AM_VIS
100
AcDbLine
 10
31.76579963455109
 20
-60.0459772194871
 30
0.0
 11
31.76579963455109
 21
-59.26069754851496
 31
0.0
  0
LINE
  5
174C
330
D
100
AcDbEntity
 67
     1
  8
AM_VIS
100
AcDbLine
 10
29.5657996345511
 20
-56.52597721948712
 30
0.0
 11
29.5657996345511
 21
-55.3259772194871
 31
0.0
  0
LINE
  5
174D
330
D
100
AcDbEntity
 67
     1
  8
AM_VIS
100
AcDbLine
 10
29.5657996345511
 20
-58.3259772194871
 30
0.0
 11
29.5657996345511
 21
-57.12597721948711
 31
0.0
  0
LINE
  5
174E
330
D
100
AcDbEntity
 67
     1
  8
AM_VIS
100
AcDbLine
 10
44.76579963455108
 20
-36.8259772194871
 30
0.0
 11
31.76579963455106
 21
-36.8259772194871
 31
0.0
  0
LINE
  5
174F
330
D
100
AcDbEntity
 67
     1
  8
AM_VIS
100
AcDbLine
 10
44.76579963455108
 20
-56.52597721948712
 30
0.0
 11
31.26579963455109
 21
-56.52597721948712
 31
0.0
  0
LINE
  5
1750
330
D
100
AcDbEntity
 67
     1
  8
AM_VIS
100
AcDbLine
 10
44.76579963455106
 20
-56.52597721948712
 30
0.0
 11
44.76579963455106
 21
-36.82597721948712
 31
0.0
  0
LINE
  5
1751
330
D
100
AcDbEntity
 67
     1
  8
AM_VIS
100
AcDbLine
 10
31.76579963455106
 20
-36.82597721948712
 30
0.0
 11
31.76579963455106
 21
-53.8259772194871
 31
0.0
  0
LINE
  5
1752
330
D
100
AcDbEntity
 67
     1
  8
AM_VIS
100
AcDbLine
 10
31.76579963455106
 20
-53.8259772194871
 30
0.0
 11
29.76579963455109
 21
-53.8259772194871
 31
0.0
  0
LINE
  5
1753
330
D
100
AcDbEntity
 67
     1
  8
AM_VIS
100
AcDbLine
 10
29.76579963455109
 20
-56.02597721948711
 30
0.0
 11
29.76579963455109
 21
-53.8259772194871
 31
0.0
  0
LINE
  5
1754
330
D
100
AcDbEntity
 67
     1
  8
AM_VIS
100
AcDbLine
 10
31.26579963455109
 20
-56.52597721948712
 30
0.0
 11
29.76579963455109
 21
-56.02597721948711
 31
0.0
  0
LINE
  5
1755
330
D
100
AcDbEntity
 67
     1
  8
AM_VIS
100
AcDbLine
 10
31.76579963455106
 20
-53.82597721948711
 30
0.0
 11
31.76579963455106
 21
-36.82597721948712
 31
0.0
  0
LINE
  5
1756
330
D
100
AcDbEntity
 67
     1
  8
AM_VIS
100
AcDbLine
 10
31.76579963455106
 20
-53.82597721948711
 30
0.0
 11
28.26579963455106
 21
-53.82597721948711
 31
0.0
  0
LINE
  5
1757
330
D
100
AcDbEntity
 67
     1
  8
AM_VIS
100
AcDbLine
 10
28.26579963455106
 20
-53.82597721948711
 30
0.0
 11
28.26579963455106
 21
-36.82597721948712
 31
0.0
  0
LINE
  5
1758
330
D
100
AcDbEntity
 67
     1
  8
AM_VIS
100
AcDbLine
 10
26.76579963455109
 20
-52.3259772194871
 30
0.0
 11
28.26579963455109
 21
-53.8259772194871
 31
0.0
  0
LINE
  5
1759
330
D
100
AcDbEntity
 67
     1
  8
AM_VIS
100
AcDbLine
 10
23.26579963455106
 20
-46.2259772194871
 30
0.0
 11
23.26579963455106
 21
-40.82597721948711
 31
0.0
  0
LINE
  5
175A
330
D
100
AcDbEntity
 67
     1
  8
AM_VIS
100
AcDbLine
 10
22.26579963455106
 20
-40.82597721948711
 30
0.0
 11
22.26579963455106
 21
-45.92597721948712
 31
0.0
  0
LINE
  5
175B
330
D
100
AcDbEntity
 67
     1
  8
AM_VIS
100
AcDbLine
 10
26.76579963455106
 20
-46.2259772194871
 30
0.0
 11
23.26579963455106
 21
-46.2259772194871
 31
0.0
  0
LINE
  5
175C
330
D
100
AcDbEntity
 67
     1
  8
AM_VIS
100
AcDbLine
 10
23.26579963455106
 20
-46.2259772194871
 30
0.0
 11
22.26579963455106
 21
-45.92597721948711
 31
0.0
  0
LINE
  5
175D
330
D
100
AcDbEntity
 67
     1
  8
AM_VIS
100
AcDbLine
 10
26.76579963455106
 20
-40.82597721948711
 30
0.0
 11
23.26579963455106
 21
-40.82597721948711
 31
0.0
  0
LINE
  5
175E
330
D
100
AcDbEntity
 67
     1
  8
AM_VIS
100
AcDbLine
 10
23.26579963455106
 20
-40.82597721948711
 30
0.0
 11
22.26579963455106
 21
-40.82597721948711
 31
0.0
  0
LINE
  5
175F
330
D
100
AcDbEntity
 67
     1
  8
AM_VIS
100
AcDbLine
 10
22.26579963455106
 20
-40.8259772194871
 30
0.0
 11
22.26579963455106
 21
-39.3259772194871
 31
0.0
  0
LINE
  5
1760
330
D
100
AcDbEntity
 67
     1
  8
AM_VIS
100
AcDbLine
 10
26.76579963455106
 20
-39.3259772194871
 30
0.0
 11
22.26579963455106
 21
-39.3259772194871
 31
0.0
  0
LINE
  5
1761
330
D
100
AcDbEntity
 67
     1
  8
AM_VIS
100
AcDbLine
 10
26.76579963455106
 20
-38.32597721948712
 30
0.0
 11
26.76579963455106
 21
-52.32597721948711
 31
0.0
  0
LINE
  5
1762
330
D
100
AcDbEntity
 67
     1
  8
AM_VIS
100
AcDbLine
 10
28.26579963455106
 20
-36.82597721948712
 30
0.0
 11
26.76579963455106
 21
-38.32597721948712
 31
0.0
  0
LINE
  5
1763
330
D
100
AcDbEntity
 67
     1
  8
AM_VIS
100
AcDbLine
 10
31.76579963455106
 20
-36.82597721948712
 30
0.0
 11
28.26579963455106
 21
-36.82597721948712
 31
0.0
  0
LINE
  5
1764
330
D
100
AcDbEntity
 67
     1
  8
AM_VIS
100
AcDbLine
 10
32.02349890317504
 20
-57.89417486276909
 30
0.0
 11
32.11715378471655
 21
-57.90597124493082
 31
0.0
  0
LINE
  5
1765
330
D
100
AcDbEntity
 67
     1
  8
AM_VIS
100
AcDbLine
 10
32.02349885279574
 20
-58.12560254963852
 30
0.0
 11
32.11615367467721
 21
-58.11393339545549
 31
0.0
  0
LINE
  5
1766
330
D
100
AcDbEntity
 67
     1
  8
AM_VIS
100
AcDbLine
 10
32.02349813597454
 20
-58.75045837845681
 30
0.0
 11
32.04501780616275
 21
-58.73949457123086
 31
0.0
  0
LINE
  5
1767
330
D
100
AcDbEntity
 67
     1
  8
AM_VIS
100
AcDbLine
 10
32.79414754694418
 20
-59.78471300869323
 30
0.0
 11
33.26579963455106
 21
-59.82597721948714
 31
0.0
  0
LINE
  5
1768
330
D
100
AcDbEntity
 67
     1
  8
AM_VIS
100
AcDbLine
 10
32.79414754694418
 20
-56.66724143028098
 30
0.0
 11
33.26579963455109
 21
-56.62597721948706
 31
0.0
  0
ELLIPSE
  5
1769
330
D
100
AcDbEntity
 67
     1
  8
AM_VIS
100
AcDbEllipse
 10
34.46579963455111
 20
-58.1729480723906
 30
0.0
 11
2.490079065009783
 21
0.0
 31
0.0
210
0.0
220
0.0
230
1.0
 40
0.9711834348606759
 41
2.796097310854495
 42
2.945387502112649
  0
ELLIPSE
  5
176A
330
D
100
AcDbEntity
 67
     1
  8
AM_VIS
100
AcDbEllipse
 10
33.9314378245424
 20
-58.85533669178535
 30
0.0
 11
-1.794957342537175
 21
1.524020367793824
 31
0.0
210
0.0
220
0.0
230
1.0
 40
0.1838809272074934
 41
0.0602411001503924
 42
0.0739494530813172
  0
ELLIPSE
  5
176B
330
D
100
AcDbEntity
 67
     1
  8
AM_VIS
100
AcDbEllipse
 10
34.46579963455111
 20
-58.27900636658362
 30
0.0
 11
-2.490079065009783
 21
0.0
 31
0.0
210
0.0
220
0.0
230
1.0
 40
0.9711834348606759
 41
0.1962051514771559
 42
0.3428970250348935
  0
ELLIPSE
  5
176C
330
D
100
AcDbEntity
 67
     1
  8
AM_VIS
100
AcDbEllipse
 10
33.9314378245424
 20
-57.59661774718883
 30
0.0
 11
1.79495734253718
 21
1.524020367793817
 31
0.0
210
0.0
220
0.0
230
1.0
 40
0.1838809272074937
 41
2.892083703874943
 42
3.074813238430942
  0
ELLIPSE
  5
176D
330
D
100
AcDbEntity
 67
     1
  8
AM_VIS
100
AcDbEllipse
 10
33.93143782454243
 20
-58.38042516429116
 30
0.0
 11
-0.6538164905628941
 21
2.262086191913685
 31
0.0
210
0.0
220
0.0
230
1.0
 40
0.7492958450165216
 41
1.108010235747698
 42
1.297278085312153
  0
ELLIPSE
  5
176E
330
D
100
AcDbEntity
 67
     1
  8
AM_VIS
100
AcDbEllipse
 10
34.46579963455107
 20
-58.00988890523254
 30
0.0
 11
-2.490079065009962
 21
0.0
 31
0.0
210
0.0
220
0.0
230
1.0
 40
0.2383332453776004
 41
0.1962051514773837
 42
0.3428970250351784
  0
ELLIPSE
  5
176F
330
D
100
AcDbEntity
 67
     1
  8
AM_VIS
100
AcDbEllipse
 10
34.46579963455107
 20
-58.00988890523254
 30
0.0
 11
-2.490079065009962
 21
0.0
 31
0.0
210
0.0
220
0.0
230
1.0
 40
0.2383332453776004
 41
5.937689964444129
 42
6.086980155701941
  0
ELLIPSE
  5
1770
330
D
100
AcDbEntity
 67
     1
  8
AM_VIS
100
AcDbEllipse
 10
33.93143782454243
 20
-58.07152927468305
 30
0.0
 11
0.6538164905629007
 21
2.262086191913683
 31
0.0
210
0.0
220
0.0
230
1.0
 40
0.7492958450165208
 41
1.850852883286945
 42
1.858022921210155
  0
ELLIPSE
  5
1771
330
D
100
AcDbEntity
 67
     1
  8
AM_VIS
100
AcDbEllipse
 10
34.46579963455111
 20
-58.44206553374553
 30
0.0
 11
2.490079065009606
 21
0.0
 31
0.0
210
0.0
220
0.0
230
1.0
 40
0.2383332453776004
 41
2.796097310854388
 42
2.945387502112875
  0
ELLIPSE
  5
1772
330
D
100
AcDbEntity
 67
     1
  8
AM_VIS
100
AcDbEllipse
 10
34.46579963455111
 20
-58.1729480723906
 30
0.0
 11
2.490079065009783
 21
0.0
 31
0.0
210
0.0
220
0.0
230
1.0
 40
0.9711834348606759
 41
3.337797805066949
 42
3.487087996325082
  0
LINE
  5
1773
330
D
100
AcDbEntity
 67
     1
  8
AM_VIS
100
AcDbLine
 10
32.02349662304744
 20
-58.64439711470282
 30
0.0
 11
32.02349662304744
 21
-58.32636959387365
 31
0.0
  0
LINE
  5
1774
330
D
100
AcDbEntity
 67
     1
  8
AM_VIS
100
AcDbLine
 10
32.02349662304744
 20
-57.89419296536021
 30
0.0
 11
32.02349662304744
 21
-57.7014990300784
 31
0.0
  0
LINE
  5
1775
330
D
100
AcDbEntity
 67
     1
  8
AM_VIS
100
AcDbLine
 10
32.02349662304744
 20
-58.12558484510486
 30
0.0
 11
32.02349662304744
 21
-57.89419296536019
 31
0.0
  0
LINE
  5
1776
330
D
100
AcDbEntity
 67
     1
  8
AM_VIS
100
AcDbLine
 10
32.02349662304744
 20
-58.75045540889584
 30
0.0
 11
32.02349662304744
 21
-58.64439711470284
 31
0.0
  0
ARC
  5
1777
330
D
100
AcDbEntity
 67
     1
  8
AM_VIS
100
AcDbCircle
 10
32.84992722230266
 20
-59.1471484019145
 30
0.0
 40
0.6400000000000002
100
AcDbArc
 50
209.6864561869215
 51
265.0000000000002
  0
ARC
  5
1778
330
D
100
AcDbEntity
 67
     1
  8
AM_VIS
100
AcDbCircle
 10
32.84992722230266
 20
-57.3048060370597
 30
0.0
 40
0.6400000000000002
100
AcDbArc
 50
94.99999999999982
 51
150.3135438130757
  0
ARC
  5
1779
330
D
100
AcDbEntity
 67
     1
  8
AM_VIS
100
AcDbCircle
 10
34.46579963455111
 20
-58.2259772194871
 30
0.0
 40
2.5
100
AcDbArc
 50
200.3464384717925
 51
209.6864561869206
  0
ARC
  5
177A
330
D
100
AcDbEntity
 67
     1
  8
AM_VIS
100
AcDbCircle
 10
34.46579963455111
 20
-58.2259772194871
 30
0.0
 40
2.5
100
AcDbArc
 50
150.3135438130793
 51
159.6535615282066
  0
LINE
  5
177B
330
D
100
AcDbEntity
 67
     1
  8
AM_VIS
100
AcDbLine
 10
85.56579963455106
 20
5.891214908532731
 30
0.0
 11
87.9657996345511
 21
5.891214908532731
 31
0.0
  0
LINE
  5
177C
330
D
100
AcDbEntity
 67
     1
  8
AM_VIS
100
AcDbLine
 10
87.9657996345511
 20
5.891214908532731
 30
0.0
 11
88.76579963455112
 21
5.091214908532748
 31
0.0
  0
LINE
  5
177D
330
D
100
AcDbEntity
 67
     1
  8
AM_VIS
100
AcDbLine
 10
84.76579963455108
 20
5.091214908532748
 30
0.0
 11
85.56579963455106
 21
5.891214908532731
 31
0.0
  0
LINE
  5
177E
330
D
100
AcDbEntity
 67
     1
  8
AM_VIS
100
AcDbLine
 10
68.16579963455109
 20
1.391214908532731
 30
0.0
 11
69.57825401350547
 21
1.391214908532731
 31
0.0
  0
LINE
  5
177F
330
D
100
AcDbEntity
 67
     1
  8
AM_VIS
100
AcDbLine
 10
79.56579963455107
 20
-1.208785091467262
 30
0.0
 11
78.15334525559672
 21
-1.208785091467262
 31
0.0
  0
LINE
  5
1780
330
D
100
AcDbEntity
 67
     1
  8
AM_VIS
100
AcDbLine
 10
68.16579963455109
 20
-2.03775197707165
 30
0.0
 11
68.16579963455109
 21
1.391214908532731
 31
0.0
  0
LINE
  5
1781
330
D
100
AcDbEntity
 67
     1
  8
AM_VIS
100
AcDbLine
 10
79.56579963455107
 20
2.220181794137118
 30
0.0
 11
79.56579963455107
 21
-1.208785091467262
 31
0.0
  0
LINE
  5
1782
330
D
100
AcDbEntity
 67
     1
  8
AM_VIS
100
AcDbLine
 10
91.4657996345511
 20
-4.908785091467279
 30
0.0
 11
88.76579963455112
 21
-4.908785091467279
 31
0.0
  0
LINE
  5
1783
330
D
100
AcDbEntity
 67
     1
  8
AM_VIS
100
AcDbLine
 10
88.76579963455105
 20
-4.908785091467279
 30
0.0
 11
88.26579963455106
 21
-4.408785091467279
 31
0.0
  0
LINE
  5
1784
330
D
100
AcDbEntity
 67
     1
  8
AM_VIS
100
AcDbLine
 10
88.76579963455112
 20
4.391214908532731
 30
0.0
 11
88.76579963455112
 21
5.09121490853272
 31
0.0
  0
LINE
  5
1785
330
D
100
AcDbEntity
 67
     1
  8
AM_VIS
100
AcDbLine
 10
88.76579963455105
 20
5.09121490853272
 30
0.0
 11
91.4657996345511
 21
5.09121490853272
 31
0.0
  0
LINE
  5
1786
330
D
100
AcDbEntity
 67
     1
  8
AM_VIS
100
AcDbLine
 10
59.46579963455107
 20
4.591214908532748
 30
0.0
 11
60.86579963455108
 21
4.591214908532748
 31
0.0
  0
LINE
  5
1787
330
D
100
AcDbEntity
 67
     1
  8
AM_VIS
100
AcDbLine
 10
62.16140549340593
 20
2.591214909065342
 30
0.0
 11
62.16140549340593
 21
2.94407775859932
 31
0.0
  0
LINE
  5
1788
330
D
100
AcDbEntity
 67
     1
  8
AM_VIS
100
AcDbLine
 10
62.16140549340593
 20
2.94407775859932
 30
0.0
 11
63.86579963455108
 21
2.942413311195849
 31
0.0
  0
LINE
  5
1789
330
D
100
AcDbEntity
 67
     1
  8
AM_VIS
100
AcDbLine
 10
63.86579963455108
 20
2.942413311195849
 30
0.0
 11
63.86579963455108
 21
3.009615375110627
 31
0.0
  0
LINE
  5
178A
330
D
100
AcDbEntity
 67
     1
  8
AM_VIS
100
AcDbLine
 10
63.86579963455108
 20
3.009615375110627
 30
0.0
 11
62.16806328301979
 21
4.065915308532737
 31
0.0
  0
LINE
  5
178B
330
D
100
AcDbEntity
 67
     1
  8
AM_VIS
100
AcDbLine
 10
62.16806328301979
 20
4.065915308532737
 30
0.0
 11
62.03157859593591
 21
4.065915308532737
 31
0.0
  0
LINE
  5
178C
330
D
100
AcDbEntity
 67
     1
  8
AM_VIS
100
AcDbLine
 10
62.03157859593591
 20
4.065915308532737
 30
0.0
 11
62.03157859593591
 21
3.117180288559382
 31
0.0
  0
LINE
  5
178D
330
D
100
AcDbEntity
 67
     1
  8
AM_VIS
100
AcDbLine
 10
62.03157859593591
 20
3.117180288559382
 30
0.0
 11
61.36579963455108
 21
3.117180288559382
 31
0.0
  0
LINE
  5
178E
330
D
100
AcDbEntity
 67
     1
  8
AM_VIS
100
AcDbLine
 10
61.36579963455108
 20
3.117180288559382
 30
0.0
 11
61.36579963455108
 21
2.94407775859932
 31
0.0
  0
LINE
  5
178F
330
D
100
AcDbEntity
 67
     1
  8
AM_VIS
100
AcDbLine
 10
61.36579963455108
 20
2.94407775859932
 30
0.0
 11
62.03157859593591
 21
2.94407775859932
 31
0.0
  0
LINE
  5
1790
330
D
100
AcDbEntity
 67
     1
  8
AM_VIS
100
AcDbLine
 10
62.03157859593591
 20
2.94407775859932
 30
0.0
 11
62.03157859593591
 21
2.591214909065342
 31
0.0
  0
LINE
  5
1791
330
D
100
AcDbEntity
 67
     1
  8
AM_VIS
100
AcDbLine
 10
62.03157859593591
 20
2.591214909065342
 30
0.0
 11
62.16140549340593
 21
2.591214909065342
 31
0.0
  0
ARC
  5
1792
330
D
100
AcDbEntity
 67
     1
  8
AM_VIS
100
AcDbCircle
 10
85.46972832402406
 20
-3.381325124869135
 30
0.0
 40
0.9944398325182397
100
AcDbArc
 50
49.20413891183298
 51
65.64774681902661
  0
ARC
  5
1793
330
D
100
AcDbEntity
 67
     1
  8
AM_VIS
100
AcDbCircle
 10
85.95874413610891
 20
-2.785035711770944
 30
0.0
 40
0.2243567054356643
100
AcDbArc
 50
356.6193680193519
 51
44.24628933944538
  0
LINE
  5
1794
330
D
100
AcDbEntity
 67
     1
  8
AM_VIS
100
AcDbLine
 10
86.18271042017026
 20
-2.798265786513866
 30
0.0
 11
86.18271042017026
 21
-3.543938223264859
 31
0.0
  0
LINE
  5
1795
330
D
100
AcDbEntity
 67
     1
  8
AM_VIS
100
AcDbLine
 10
86.18271042017026
 20
-3.543938223264859
 30
0.0
 11
85.42372240419155
 21
-2.921434894370065
 31
0.0
  0
ARC
  5
1796
330
D
100
AcDbEntity
 67
     1
  8
AM_VIS
100
AcDbCircle
 10
84.5009338218407
 20
-3.963950788647935
 30
0.0
 40
1.392256498472551
100
AcDbArc
 50
48.48617847052624
 51
89.01281051520632
  0
ARC
  5
1797
330
D
100
AcDbEntity
 67
     1
  8
AM_VIS
100
AcDbCircle
 10
84.50241479804674
 20
-3.257956722467042
 30
0.0
 40
0.68642483751301
100
AcDbArc
 50
88.1210900803178
 51
132.4740494641399
  0
ARC
  5
1798
330
D
100
AcDbEntity
 67
     1
  8
AM_VIS
100
AcDbCircle
 10
84.40399110335755
 20
-3.14715270577119
 30
0.0
 40
0.5382410403950916
100
AcDbArc
 50
132.7109474130657
 51
180.7776227849013
  0
ARC
  5
1799
330
D
100
AcDbEntity
 67
     1
  8
AM_VIS
100
AcDbCircle
 10
84.44283289861932
 20
-3.162344890591754
 30
0.0
 40
0.5770871669729677
100
AcDbArc
 50
179.2168834776868
 51
222.7301033649514
  0
ARC
  5
179A
330
D
100
AcDbEntity
 67
     1
  8
AM_VIS
100
AcDbCircle
 10
84.69634490948203
 20
-2.86226316040279
 30
0.0
 40
0.9681366452661228
100
AcDbArc
 50
225.5961569040913
 51
263.1879801174719
  0
LINE
  5
179B
330
D
100
AcDbEntity
 67
     1
  8
AM_VIS
100
AcDbLine
 10
84.58151201803977
 20
-3.823565387046471
 30
0.0
 11
84.59149870246054
 21
-3.756987490907988
 31
0.0
  0
ARC
  5
179C
330
D
100
AcDbEntity
 67
     1
  8
AM_VIS
100
AcDbCircle
 10
85.66751040013844
 20
-0.6665024647202813
 30
0.0
 40
3.27244539612661
100
AcDbArc
 50
244.1104213570372
 51
250.8034566428472
  0
ARC
  5
179D
330
D
100
AcDbEntity
 67
     1
  8
AM_VIS
100
AcDbCircle
 10
84.40096435002988
 20
-3.290533353472113
 30
0.0
 40
0.3588028866450506
100
AcDbArc
 50
181.1285183302308
 51
243.1011428703649
  0
ARC
  5
179E
330
D
100
AcDbEntity
 67
     1
  8
AM_VIS
100
AcDbCircle
 10
84.51416238930613
 20
-3.279528005470695
 30
0.0
 40
0.4722772252433484
100
AcDbArc
 50
121.803733861969
 51
182.1929965127617
  0
ARC
  5
179F
330
D
100
AcDbEntity
 67
     1
  8
AM_VIS
100
AcDbCircle
 10
84.6146328470299
 20
-3.371450141954085
 30
0.0
 40
0.6044769470229614
100
AcDbArc
 50
86.19488815819488
 51
125.3074591687092
  0
ARC
  5
17A0
330
D
100
AcDbEntity
 67
     1
  8
AM_VIS
100
AcDbCircle
 10
84.33703825747135
 20
-4.663225647096965
 30
0.0
 40
1.921369504330018
100
AcDbArc
 50
47.16205299612201
 51
80.48210015802352
  0
LINE
  5
17A1
330
D
100
AcDbEntity
 67
     1
  8
AM_VIS
100
AcDbLine
 10
85.64342946144853
 20
-3.254324375062481
 30
0.0
 11
86.34915516051647
 21
-3.833552071467266
 31
0.0
  0
LINE
  5
17A2
330
D
100
AcDbEntity
 67
     1
  8
AM_VIS
100
AcDbLine
 10
86.34915516051643
 20
-3.833552071467266
 30
0.0
 11
86.36579963455108
 21
-3.833552071467266
 31
0.0
  0
LINE
  5
17A3
330
D
100
AcDbEntity
 67
     1
  8
AM_VIS
100
AcDbLine
 10
86.36579963455108
 20
-3.833552071467266
 30
0.0
 11
86.36579963455108
 21
-2.581887624063796
 31
0.0
  0
LINE
  5
17A4
330
D
100
AcDbEntity
 67
     1
  8
AM_VIS
100
AcDbLine
 10
86.36579963455108
 20
-2.581887624063796
 30
0.0
 11
85.87978099274016
 21
-2.408785094103734
 31
0.0
  0
LINE
  5
17A5
330
D
100
AcDbEntity
 67
     1
  8
AM_VIS
100
AcDbLine
 10
85.87978099274016
 20
-2.408785094103734
 30
0.0
 11
85.87978099274016
 21
-2.475362990242217
 31
0.0
  0
LINE
  5
17A6
330
D
100
AcDbEntity
 67
     1
  8
AM_VIS
100
AcDbLine
 10
60.86579963455108
 20
-2.011058993883665
 30
0.0
 11
60.86579963455108
 21
4.591214908532748
 31
0.0
  0
LINE
  5
17A7
330
D
100
AcDbEntity
 67
     1
  8
AM_VIS
100
AcDbLine
 10
60.86579963455108
 20
4.591214908532748
 30
0.0
 11
62.46579963455108
 21
4.591214908532748
 31
0.0
  0
LINE
  5
17A8
330
D
100
AcDbEntity
 67
     1
  8
AM_VIS
100
AcDbLine
 10
62.4657996345511
 20
4.59121490853272
 30
0.0
 11
62.96579963455108
 21
5.09121490853272
 31
0.0
  0
LINE
  5
17A9
330
D
100
AcDbEntity
 67
     1
  8
AM_VIS
100
AcDbLine
 10
62.9657996345511
 20
5.09121490853272
 30
0.0
 11
84.76579963455106
 21
5.09121490853272
 31
0.0
  0
LINE
  5
17AA
330
D
100
AcDbEntity
 67
     1
  8
AM_VIS
100
AcDbLine
 10
84.76579963455106
 20
5.09121490853272
 30
0.0
 11
84.76579963455106
 21
4.391214908532731
 31
0.0
  0
LINE
  5
17AB
330
D
100
AcDbEntity
 67
     1
  8
AM_VIS
100
AcDbLine
 10
86.86579963455107
 20
2.393716472988927
 30
0.0
 11
86.86579963455107
 21
-4.408785091467279
 31
0.0
  0
LINE
  5
17AC
330
D
100
AcDbEntity
 67
     1
  8
AM_VIS
100
AcDbLine
 10
62.16140549340593
 20
3.924437279238475
 30
0.0
 11
63.46966115252712
 21
3.118844735962852
 31
0.0
  0
LINE
  5
17AD
330
D
100
AcDbEntity
 67
     1
  8
AM_VIS
100
AcDbLine
 10
63.46966115252712
 20
3.118844735962852
 30
0.0
 11
62.16140549340593
 21
3.118844735962852
 31
0.0
  0
LINE
  5
17AE
330
D
100
AcDbEntity
 67
     1
  8
AM_VIS
100
AcDbLine
 10
62.16140549340593
 20
3.118844735962852
 30
0.0
 11
62.16140549340593
 21
3.924437279238475
 31
0.0
  0
LINE
  5
17AF
330
D
100
AcDbEntity
 67
     1
  8
AM_VIS
100
AcDbLine
 10
86.86579963455107
 20
-4.408785091467279
 30
0.0
 11
85.26579963455105
 21
-4.408785091467279
 31
0.0
  0
LINE
  5
17B0
330
D
100
AcDbEntity
 67
     1
  8
AM_VIS
100
AcDbLine
 10
88.26579963455111
 20
-4.408785091467279
 30
0.0
 11
86.86579963455107
 21
-4.408785091467279
 31
0.0
  0
LINE
  5
17B1
330
D
100
AcDbEntity
 67
     1
  8
AM_VIS
100
AcDbLine
 10
85.26579963455109
 20
-4.408785091467279
 30
0.0
 11
84.76579963455108
 21
-4.908785091467279
 31
0.0
  0
LINE
  5
17B2
330
D
100
AcDbEntity
 67
     1
  8
AM_VIS
100
AcDbLine
 10
84.76579963455108
 20
-4.908785091467279
 30
0.0
 11
63.16579963455109
 21
-4.908785091467279
 31
0.0
  0
LINE
  5
17B3
330
D
100
AcDbEntity
 67
     1
  8
AM_VIS
100
AcDbLine
 10
56.26579963455109
 20
5.09121490853272
 30
0.0
 11
58.9657996345511
 21
5.09121490853272
 31
0.0
  0
LINE
  5
17B4
330
D
100
AcDbEntity
 67
     1
  8
AM_VIS
100
AcDbLine
 10
58.96579963455107
 20
5.09121490853272
 30
0.0
 11
59.46579963455107
 21
4.591214908532748
 31
0.0
  0
LINE
  5
17B5
330
D
100
AcDbEntity
 67
     1
  8
AM_VIS
100
AcDbLine
 10
58.76579963455109
 20
-4.908785091467279
 30
0.0
 11
56.26579963455109
 21
-4.908785091467279
 31
0.0
  0
LINE
  5
17B6
330
D
100
AcDbEntity
 67
     1
  8
AM_VIS
100
AcDbLine
 10
58.96579963455107
 20
-4.908785091467279
 30
0.0
 11
58.96579963455107
 21
-4.208785091467262
 31
0.0
  0
ARC
  5
17B7
330
D
100
AcDbEntity
 67
     1
  8
AM_VIS
100
AcDbCircle
 10
61.0657981034372
 20
-2.011060456913639
 30
0.0
 40
0.1999984688914511
100
AcDbArc
 50
179.9995808695728
 51
267.3951678653707
  0
LINE
  5
17B8
330
D
100
AcDbEntity
 67
     1
  8
AM_VIS
100
AcDbLine
 10
62.76579963455109
 20
-5.108785091467268
 30
0.0
 11
62.16579963455109
 21
-5.708785091467262
 31
0.0
  0
LINE
  5
17B9
330
D
100
AcDbEntity
 67
     1
  8
AM_VIS
100
AcDbLine
 10
62.16579963455109
 20
-5.708785091467262
 30
0.0
 11
59.76579963455108
 21
-5.708785091467262
 31
0.0
  0
LINE
  5
17BA
330
D
100
AcDbEntity
 67
     1
  8
AM_VIS
100
AcDbLine
 10
59.76579963455108
 20
-5.708785091467262
 30
0.0
 11
59.16579963455109
 21
-5.108785091467268
 31
0.0
  0
LINE
  5
17BB
330
D
100
AcDbEntity
 67
     1
  8
AM_VIS
100
AcDbLine
 10
62.9657996345511
 20
-4.208785091467262
 30
0.0
 11
62.9657996345511
 21
-4.908785091467279
 31
0.0
  0
LINE
  5
17BC
330
D
100
AcDbEntity
 67
     1
  8
AM_VIS
100
AcDbLine
 10
58.96579963455107
 20
-4.908785091467251
 30
0.0
 11
59.16579963455109
 21
-5.108785091467268
 31
0.0
  0
LINE
  5
17BD
330
D
100
AcDbEntity
 67
     1
  8
AM_VIS
100
AcDbLine
 10
62.76579963455109
 20
-5.108785091467268
 30
0.0
 11
62.9657996345511
 21
-4.908785091467279
 31
0.0
  0
LINE
  5
17BE
330
D
100
AcDbEntity
 67
     1
  8
AM_VIS
100
AcDbLine
 10
56.26579963455109
 20
5.09121490853272
 30
0.0
 11
56.26579963455109
 21
-4.908785091467279
 31
0.0
  0
LINE
  5
17BF
330
D
100
AcDbEntity
 67
     1
  8
AM_VIS
100
AcDbLine
 10
91.4657996345511
 20
-4.908785091467279
 30
0.0
 11
91.4657996345511
 21
5.09121490853272
 31
0.0
  0
CIRCLE
  5
17C0
330
D
100
AcDbEntity
 67
     1
  8
AM_VIS
100
AcDbCircle
 10
86.76579963455106
 20
4.391214908532731
 30
0.0
 40
1.05
  0
ARC
  5
17C1
330
D
100
AcDbEntity
 67
     1
  8
AM_VIS
100
AcDbCircle
 10
86.76579963455106
 20
4.391214908532731
 30
0.0
 40
2.0
100
AcDbArc
 50
272.8659839825995
 51
0.0
  0
CIRCLE
  5
17C2
330
D
100
AcDbEntity
 67
     1
  8
AM_VIS
100
AcDbCircle
 10
67.86579963455108
 20
0.0912149085327201
 30
0.0
 40
2.600000000000009
  0
CIRCLE
  5
17C3
330
D
100
AcDbEntity
 67
     1
  8
AM_VIS
100
AcDbCircle
 10
79.86579963455108
 20
0.0912149085327201
 30
0.0
 40
2.600000000000009
  0
ARC
  5
17C4
330
D
100
AcDbEntity
 67
     1
  8
AM_VIS
100
AcDbCircle
 10
86.76579963455106
 20
4.391214908532731
 30
0.0
 40
2.0
100
AcDbArc
 50
180.0
 51
272.8659839825995
  0
CIRCLE
  5
17C5
330
D
100
AcDbEntity
 67
     1
  8
AM_VIS
100
AcDbCircle
 10
67.86579963455108
 20
0.0912149085327201
 30
0.0
 40
2.149999999999999
  0
CIRCLE
  5
17C6
330
D
100
AcDbEntity
 67
     1
  8
AM_VIS
100
AcDbCircle
 10
79.86579963455108
 20
0.0912149085327201
 30
0.0
 40
2.149999999999999
  0
LINE
  5
17C7
330
D
100
AcDbEntity
 67
     1
  8
AM_VIS
100
AcDbLine
 10
58.9657996345511
 20
-4.908785091467279
 30
0.0
 11
58.76579963455109
 21
-4.908785091467279
 31
0.0
  0
LINE
  5
17C8
330
D
100
AcDbEntity
 67
     1
  8
AM_VIS
100
AcDbLine
 10
63.16579963455109
 20
-4.908785091467279
 30
0.0
 11
62.96579963455108
 21
-4.908785091467279
 31
0.0
  0
ARC
  5
17C9
330
D
100
AcDbEntity
 67
     1
  8
AM_VIS
100
AcDbCircle
 10
60.9657996345511
 20
-4.208785091467262
 30
0.0
 40
2.0
100
AcDbArc
 50
0.0
 51
87.39474873494346
  0
ARC
  5
17CA
330
D
100
AcDbEntity
 67
     1
  8
AM_VIS
100
AcDbCircle
 10
60.9657996345511
 20
-4.208785091467262
 30
0.0
 40
2.0
100
AcDbArc
 50
87.39474873494346
 51
180.0
  0
CIRCLE
  5
17CB
330
D
100
AcDbEntity
 67
     1
  8
AM_VIS
100
AcDbCircle
 10
60.9657996345511
 20
-4.208785091467262
 30
0.0
 40
1.05
  0
LINE
  5
17CC
330
D
100
AcDbEntity
 67
     1
  8
AM_VIS
100
AcDbLine
 10
91.4657996345511
 20
4.791214908532708
 30
0.0
 11
91.4657996345511
 21
-4.608785091467268
 31
0.0
  0
LINE
  5
17CD
330
D
100
AcDbEntity
 67
     1
  8
AM_VIS
100
AcDbLine
 10
96.4657996345511
 20
-4.608785091467268
 30
0.0
 11
96.4657996345511
 21
4.791214908532708
 31
0.0
  0
LINE
  5
17CE
330
D
100
AcDbEntity
 67
     1
  8
AM_VIS
100
AcDbLine
 10
91.4657996345511
 20
-4.908785091467279
 30
0.0
 11
96.16579963455109
 21
-4.908785091467279
 31
0.0
  0
LINE
  5
17CF
330
D
100
AcDbEntity
 67
     1
  8
AM_VIS
100
AcDbLine
 10
93.46579963455111
 20
-4.908785091467279
 30
0.0
 11
93.29259455379423
 21
-5.008785091467274
 31
0.0
  0
LINE
  5
17D0
330
D
100
AcDbEntity
 67
     1
  8
AM_VIS
100
AcDbLine
 10
96.16579963455109
 20
5.09121490853272
 30
0.0
 11
91.4657996345511
 21
5.09121490853272
 31
0.0
  0
LINE
  5
17D1
330
D
100
AcDbEntity
 67
     1
  8
AM_VIS
100
AcDbLine
 10
93.29259455379423
 20
5.191214908532714
 30
0.0
 11
93.46579963455111
 21
5.09121490853272
 31
0.0
  0
LINE
  5
17D2
330
D
100
AcDbEntity
 67
     1
  8
AM_VIS
100
AcDbLine
 10
91.4657996345511
 20
-5.008785091467274
 30
0.0
 11
93.29259455379423
 21
-5.008785091467274
 31
0.0
  0
LINE
  5
17D3
330
D
100
AcDbEntity
 67
     1
  8
AM_VIS
100
AcDbLine
 10
91.4657996345511
 20
5.191214908532714
 30
0.0
 11
93.29259455379423
 21
5.191214908532714
 31
0.0
  0
CIRCLE
  5
17D4
330
D
100
AcDbEntity
 67
     1
  8
AM_VIS
100
AcDbCircle
 10
93.9657996345511
 20
-0.9087850914672799
 30
0.0
 40
0.5
  0
ARC
  5
17D5
330
D
100
AcDbEntity
 67
     1
  8
AM_VIS
100
AcDbCircle
 10
96.16579963455109
 20
4.791214908532708
 30
0.0
 40
0.2999999999999998
100
AcDbArc
 50
0.0
 51
90.0
  0
ARC
  5
17D6
330
D
100
AcDbEntity
 67
     1
  8
AM_VIS
100
AcDbCircle
 10
96.16579963455109
 20
-4.608785091467268
 30
0.0
 40
0.2999999999999998
100
AcDbArc
 50
270.0
 51
0.0
  0
LINE
  5
17D7
330
D
100
AcDbEntity
 67
     1
  8
AM_VIS
100
AcDbLine
 10
91.4657996345511
 20
-5.008785091467274
 30
0.0
 11
91.4657996345511
 21
-4.908785091467279
 31
0.0
  0
LINE
  5
17D8
330
D
100
AcDbEntity
 67
     1
  8
AM_VIS
100
AcDbLine
 10
91.4657996345511
 20
5.09121490853272
 30
0.0
 11
91.4657996345511
 21
5.191214908532714
 31
0.0
  0
LINE
  5
17D9
330
D
100
AcDbEntity
 67
     1
  8
AM_VIS
100
AcDbLine
 10
55.06579963455109
 20
5.091214908532748
 30
0.0
 11
55.06579963455109
 21
-4.908785091467251
 31
0.0
  0
LINE
  5
17DA
330
D
100
AcDbEntity
 67
     1
  8
AM_VIS
100
AcDbLine
 10
56.26579963455109
 20
5.091214908532748
 30
0.0
 11
56.26579963455109
 21
-4.908785091467251
 31
0.0
  0
LINE
  5
17DB
330
D
100
AcDbEntity
 67
     1
  8
AM_VIS
100
AcDbLine
 10
55.06579963455109
 20
5.091214908532748
 30
0.0
 11
56.26579963455109
 21
5.091214908532748
 31
0.0
  0
LINE
  5
17DC
330
D
100
AcDbEntity
 67
     1
  8
AM_VIS
100
AcDbLine
 10
52.26579963455108
 20
5.091214908532748
 30
0.0
 11
55.06579963455107
 21
5.091214908532748
 31
0.0
  0
LINE
  5
17DD
330
D
100
AcDbEntity
 67
     1
  8
AM_VIS
100
AcDbLine
 10
54.26579963455108
 20
5.091214908532748
 30
0.0
 11
54.43900471530799
 21
5.191214908532742
 31
0.0
  0
LINE
  5
17DE
330
D
100
AcDbEntity
 67
     1
  8
AM_VIS
100
AcDbLine
 10
55.06579963455109
 20
-4.908785091467251
 30
0.0
 11
52.26579963455108
 21
-4.908785091467251
 31
0.0
  0
LINE
  5
17DF
330
D
100
AcDbEntity
 67
     1
  8
AM_VIS
100
AcDbLine
 10
56.26579963455109
 20
-4.908785091467251
 30
0.0
 11
55.06579963455107
 21
-4.908785091467251
 31
0.0
  0
LINE
  5
17E0
330
D
100
AcDbEntity
 67
     1
  8
AM_VIS
100
AcDbLine
 10
54.43900471530799
 20
-5.008785091467245
 30
0.0
 11
54.26579963455108
 21
-4.908785091467251
 31
0.0
  0
LINE
  5
17E1
330
D
100
AcDbEntity
 67
     1
  8
AM_VIS
100
AcDbLine
 10
52.26579963455108
 20
-4.908785091467251
 30
0.0
 11
44.76579963455108
 21
-4.908785091467251
 31
0.0
  0
LINE
  5
17E2
330
D
100
AcDbEntity
 67
     1
  8
AM_VIS
100
AcDbLine
 10
52.26579963455108
 20
5.091214908532748
 30
0.0
 11
44.76579963455108
 21
5.091214908532748
 31
0.0
  0
LINE
  5
17E3
330
D
100
AcDbEntity
 67
     1
  8
AM_VIS
100
AcDbLine
 10
52.26579963455108
 20
-4.908785091467251
 30
0.0
 11
52.26579963455108
 21
-3.774810495251699
 31
0.0
  0
LINE
  5
17E4
330
D
100
AcDbEntity
 67
     1
  8
AM_VIS
100
AcDbLine
 10
52.26579963455108
 20
-1.774122368516259
 30
0.0
 11
52.26579963455108
 21
5.091214908532748
 31
0.0
  0
LINE
  5
17E5
330
D
100
AcDbEntity
 67
     1
  8
AM_VIS
100
AcDbLine
 10
56.26579963455109
 20
5.191214908532742
 30
0.0
 11
54.43900471530799
 21
5.191214908532742
 31
0.0
  0
LINE
  5
17E6
330
D
100
AcDbEntity
 67
     1
  8
AM_VIS
100
AcDbLine
 10
56.26579963455109
 20
-5.008785091467245
 30
0.0
 11
54.43900471530799
 21
-5.008785091467245
 31
0.0
  0
LINE
  5
17E7
330
D
100
AcDbEntity
 67
     1
  8
AM_VIS
100
AcDbLine
 10
56.26579963455109
 20
5.191214908532742
 30
0.0
 11
56.26579963455109
 21
5.091214908532748
 31
0.0
  0
LINE
  5
17E8
330
D
100
AcDbEntity
 67
     1
  8
AM_VIS
100
AcDbLine
 10
56.26579963455109
 20
-4.908785091467251
 30
0.0
 11
56.26579963455109
 21
-5.008785091467245
 31
0.0
  0
ARC
  5
17E9
330
D
100
AcDbEntity
 67
     1
  8
AM_VIS
100
AcDbCircle
 10
48.76579963455109
 20
0.0912149085327485
 30
0.0
 40
2.149999999999999
100
AcDbArc
 50
17.59230263058099
 51
252.407697369419
  0
LINE
  5
17EA
330
D
100
AcDbEntity
 67
     1
  8
AM_VIS
100
AcDbLine
 10
48.56579963455107
 20
2.231892371393513
 30
0.0
 11
48.56579963455107
 21
2.181669404569447
 31
0.0
  0
LINE
  5
17EB
330
D
100
AcDbEntity
 67
     1
  8
AM_VIS
100
AcDbLine
 10
47.71665354715273
 20
-1.727931178865617
 30
0.0
 11
51.26620625959947
 21
-3.775045133085512
 31
0.0
  0
LINE
  5
17EC
330
D
100
AcDbEntity
 67
     1
  8
AM_VIS
100
AcDbLine
 10
52.63205967616935
 20
-2.409191716515636
 30
0.0
 11
50.58494572194942
 21
1.140360995931104
 31
0.0
  0
LINE
  5
17ED
330
D
100
AcDbEntity
 67
     1
  8
AM_VIS
100
AcDbLine
 10
47.54913196153174
 20
1.802857328382685
 30
0.0
 11
47.90931689967538
 21
1.44267239023901
 31
0.0
  0
LINE
  5
17EE
330
D
100
AcDbEntity
 67
     1
  8
AM_VIS
100
AcDbLine
 10
47.90931689967538
 20
1.44267239023901
 30
0.0
 11
52.26577463142541
 21
-2.913785341511015
 31
0.0
  0
LINE
  5
17EF
330
D
100
AcDbEntity
 67
     1
  8
AM_VIS
100
AcDbLine
 10
52.26577463142541
 20
-2.913785341511015
 30
0.0
 11
52.67566907294096
 21
-3.323679783026534
 31
0.0
  0
LINE
  5
17F0
330
D
100
AcDbEntity
 67
     1
  8
AM_VIS
100
AcDbLine
 10
51.77079988459485
 20
-3.40876008834158
 30
0.0
 11
47.41434215284482
 21
0.9476976434084463
 31
0.0
  0
LINE
  5
17F1
330
D
100
AcDbEntity
 67
     1
  8
AM_VIS
100
AcDbLine
 10
47.05415721470115
 20
1.307882581552092
 30
0.0
 11
47.41434215284482
 21
0.9476976434084463
 31
0.0
  0
LINE
  5
17F2
330
D
100
AcDbEntity
 67
     1
  8
AM_VIS
100
AcDbLine
 10
51.77079988459485
 20
-3.40876008834158
 30
0.0
 11
52.18069432611037
 21
-3.818654529857127
 31
0.0
  0
ARC
  5
17F3
330
D
100
AcDbEntity
 67
     1
  8
AM_VIS
100
AcDbCircle
 10
48.76579963455109
 20
0.0912149085327485
 30
0.0
 40
2.1
100
AcDbArc
 50
29.97310154772532
 51
125.4059317731392
  0
ARC
  5
17F4
330
D
100
AcDbEntity
 67
     1
  8
AM_VIS
100
AcDbCircle
 10
51.76579963455108
 20
-2.908785091467251
 30
0.0
 40
1.0
100
AcDbArc
 50
335.4873151147227
 51
29.97310154772532
  0
ARC
  5
17F5
330
D
100
AcDbEntity
 67
     1
  8
AM_VIS
100
AcDbCircle
 10
48.76579963455109
 20
0.0912149085327485
 30
0.0
 40
2.1
100
AcDbArc
 50
144.5940682268608
 51
240.0268984522755
  0
ARC
  5
17F6
330
D
100
AcDbEntity
 67
     1
  8
AM_VIS
100
AcDbCircle
 10
51.76579963455108
 20
-2.908785091467251
 30
0.0
 40
1.0
100
AcDbArc
 50
240.0268984522755
 51
294.5126848852782
  0
ARC
  5
17F7
330
D
100
AcDbEntity
 67
     1
  8
AM_VIS
100
AcDbCircle
 10
48.76579963455109
 20
0.0912149085327485
 30
0.0
 40
2.1
100
AcDbArc
 50
125.4059317731392
 51
144.5940682268608
  0
ARC
  5
17F8
330
D
100
AcDbEntity
 67
     1
  8
AM_VIS
100
AcDbCircle
 10
51.76579963455108
 20
-2.908785091467251
 30
0.0
 40
1.0
100
AcDbArc
 50
294.5126848852782
 51
335.4873151147227
  0
LINE
  5
17F9
330
D
100
AcDbEntity
 67
     1
  8
AM_VIS
100
AcDbLine
 10
31.76579963455106
 20
5.09121490853272
 30
0.0
 11
44.76579963455106
 21
5.09121490853272
 31
0.0
  0
LINE
  5
17FA
330
D
100
AcDbEntity
 67
     1
  8
AM_VIS
100
AcDbLine
 10
44.76579963455108
 20
-4.908785091467279
 30
0.0
 11
31.76579963455106
 21
-4.908785091467279
 31
0.0
  0
LINE
  5
17FB
330
D
100
AcDbEntity
 67
     1
  8
AM_VIS
100
AcDbLine
 10
44.76579963455106
 20
5.09121490853272
 30
0.0
 11
44.76579963455106
 21
-4.908785091467279
 31
0.0
  0
LINE
  5
17FC
330
D
100
AcDbEntity
 67
     1
  8
AM_VIS
100
AcDbLine
 10
31.76579963455106
 20
5.09121490853272
 30
0.0
 11
31.76579963455106
 21
-4.908785091467279
 31
0.0
  0
LINE
  5
17FD
330
D
100
AcDbEntity
 67
     1
  8
AM_VIS
100
AcDbLine
 10
26.76579963455106
 20
4.09121490853272
 30
0.0
 11
28.26579963455106
 21
5.09121490853272
 31
0.0
  0
LINE
  5
17FE
330
D
100
AcDbEntity
 67
     1
  8
AM_VIS
100
AcDbLine
 10
26.76579963455106
 20
-3.658785091467251
 30
0.0
 11
23.26579963455106
 21
-3.658785091467251
 31
0.0
  0
LINE
  5
17FF
330
D
100
AcDbEntity
 67
     1
  8
AM_VIS
100
AcDbLine
 10
23.26579963455106
 20
-3.658785091467251
 30
0.0
 11
22.26579963455106
 21
-3.058785091467257
 31
0.0
  0
LINE
  5
1800
330
D
100
AcDbEntity
 67
     1
  8
AM_VIS
100
AcDbLine
 10
22.26579963455106
 20
-2.908785091467251
 30
0.0
 11
22.26579963455106
 21
-3.058785091467257
 31
0.0
  0
LINE
  5
1801
330
D
100
AcDbEntity
 67
     1
  8
AM_VIS
100
AcDbLine
 10
22.26579963455106
 20
-2.908785091467251
 30
0.0
 11
22.26579963455106
 21
-2.008785091467245
 31
0.0
  0
LINE
  5
1802
330
D
100
AcDbEntity
 67
     1
  8
AM_VIS
100
AcDbLine
 10
26.76579963455106
 20
-2.908785091467251
 30
0.0
 11
22.26579963455106
 21
-2.908785091467251
 31
0.0
  0
LINE
  5
1803
330
D
100
AcDbEntity
 67
     1
  8
AM_VIS
100
AcDbLine
 10
22.26579963455106
 20
-2.008785091467245
 30
0.0
 11
26.76579963455106
 21
-2.008785091467245
 31
0.0
  0
LINE
  5
1804
330
D
100
AcDbEntity
 67
     1
  8
AM_VIS
100
AcDbLine
 10
22.26579963455106
 20
2.191214908532742
 30
0.0
 11
22.26579963455106
 21
-2.008785091467245
 31
0.0
  0
LINE
  5
1805
330
D
100
AcDbEntity
 67
     1
  8
AM_VIS
100
AcDbLine
 10
22.26579963455106
 20
3.241214908532754
 30
0.0
 11
22.26579963455106
 21
3.091214908532748
 31
0.0
  0
LINE
  5
1806
330
D
100
AcDbEntity
 67
     1
  8
AM_VIS
100
AcDbLine
 10
22.26579963455106
 20
3.241214908532754
 30
0.0
 11
23.26579963455106
 21
3.841214908532748
 31
0.0
  0
LINE
  5
1807
330
D
100
AcDbEntity
 67
     1
  8
AM_VIS
100
AcDbLine
 10
26.76579963455106
 20
3.841214908532748
 30
0.0
 11
23.26579963455106
 21
3.841214908532748
 31
0.0
  0
LINE
  5
1808
330
D
100
AcDbEntity
 67
     1
  8
AM_VIS
100
AcDbLine
 10
22.26579963455106
 20
2.191214908532742
 30
0.0
 11
22.26579963455106
 21
3.091214908532748
 31
0.0
  0
LINE
  5
1809
330
D
100
AcDbEntity
 67
     1
  8
AM_VIS
100
AcDbLine
 10
26.76579963455106
 20
2.191214908532742
 30
0.0
 11
22.26579963455106
 21
2.191214908532742
 31
0.0
  0
LINE
  5
180A
330
D
100
AcDbEntity
 67
     1
  8
AM_VIS
100
AcDbLine
 10
22.26579963455106
 20
3.091214908532748
 30
0.0
 11
26.76579963455106
 21
3.091214908532748
 31
0.0
  0
LINE
  5
180B
330
D
100
AcDbEntity
 67
     1
  8
AM_VIS
100
AcDbLine
 10
23.76579963455106
 20
-0.4087850914672515
 30
0.0
 11
24.96579963455108
 21
-0.4087850914672515
 31
0.0
  0
LINE
  5
180C
330
D
100
AcDbEntity
 67
     1
  8
AM_VIS
100
AcDbLine
 10
23.76579963455106
 20
-0.4087850914672515
 30
0.0
 11
23.76579963455106
 21
0.5912149085327485
 31
0.0
  0
LINE
  5
180D
330
D
100
AcDbEntity
 67
     1
  8
AM_VIS
100
AcDbLine
 10
24.96579963455108
 20
0.5912149085327485
 30
0.0
 11
23.76579963455106
 21
0.5912149085327485
 31
0.0
  0
LINE
  5
180E
330
D
100
AcDbEntity
 67
     1
  8
AM_VIS
100
AcDbLine
 10
24.96579963455108
 20
-0.4087850914672515
 30
0.0
 11
24.96579963455108
 21
0.5912149085327485
 31
0.0
  0
LINE
  5
180F
330
D
100
AcDbEntity
 67
     1
  8
AM_VIS
100
AcDbLine
 10
26.76579963455106
 20
4.091214908532748
 30
0.0
 11
26.76579963455106
 21
2.091214908532748
 31
0.0
  0
LINE
  5
1810
330
D
100
AcDbEntity
 67
     1
  8
AM_VIS
100
AcDbLine
 10
28.26579963455106
 20
-4.908785091467279
 30
0.0
 11
26.76579963455106
 21
-3.908785091467251
 31
0.0
  0
LINE
  5
1811
330
D
100
AcDbEntity
 67
     1
  8
AM_VIS
100
AcDbLine
 10
26.76579963455106
 20
-1.908785091467251
 30
0.0
 11
26.76579963455106
 21
-3.908785091467251
 31
0.0
  0
LINE
  5
1812
330
D
100
AcDbEntity
 67
     1
  8
AM_VIS
100
AcDbLine
 10
28.26579963455106
 20
2.091214908532748
 30
0.0
 11
28.26579963455106
 21
5.091214908532748
 31
0.0
  0
LINE
  5
1813
330
D
100
AcDbEntity
 67
     1
  8
AM_VIS
100
AcDbLine
 10
31.76579963455106
 20
5.091214908532748
 30
0.0
 11
28.26579963455106
 21
5.091214908532748
 31
0.0
  0
LINE
  5
1814
330
D
100
AcDbEntity
 67
     1
  8
AM_VIS
100
AcDbLine
 10
31.76579963455106
 20
-4.908785091467251
 30
0.0
 11
31.76579963455106
 21
5.091214908532748
 31
0.0
  0
LINE
  5
1815
330
D
100
AcDbEntity
 67
     1
  8
AM_VIS
100
AcDbLine
 10
31.76579963455106
 20
-4.908785091467251
 30
0.0
 11
28.26579963455106
 21
-4.908785091467279
 31
0.0
  0
LINE
  5
1816
330
D
100
AcDbEntity
 67
     1
  8
AM_VIS
100
AcDbLine
 10
28.26579963455106
 20
-4.908785091467251
 30
0.0
 11
28.26579963455106
 21
-1.908785091467251
 31
0.0
  0
LINE
  5
1817
330
D
100
AcDbEntity
 67
     1
  8
AM_VIS
100
AcDbLine
 10
26.76579963455106
 20
2.09121490853272
 30
0.0
 11
28.26579963455106
 21
2.09121490853272
 31
0.0
  0
LINE
  5
1818
330
D
100
AcDbEntity
 67
     1
  8
AM_VIS
100
AcDbLine
 10
28.26579963455106
 20
2.09121490853272
 30
0.0
 11
29.06579963455107
 21
2.09121490853272
 31
0.0
  0
LINE
  5
1819
330
D
100
AcDbEntity
 67
     1
  8
AM_VIS
100
AcDbLine
 10
29.06579963455107
 20
-1.908785091467279
 30
0.0
 11
28.26579963455106
 21
-1.908785091467279
 31
0.0
  0
LINE
  5
181A
330
D
100
AcDbEntity
 67
     1
  8
AM_VIS
100
AcDbLine
 10
28.26579963455106
 20
-1.908785091467251
 30
0.0
 11
26.76579963455106
 21
-1.908785091467251
 31
0.0
  0
LINE
  5
181B
330
D
100
AcDbEntity
 67
     1
  8
AM_VIS
100
AcDbLine
 10
29.06579963455107
 20
2.09121490853272
 30
0.0
 11
29.06579963455107
 21
-1.908785091467279
 31
0.0
  0
LINE
  5
181C
330
D
100
AcDbEntity
 67
     1
  8
AM_VIS
100
AcDbLine
 10
28.3486423470257
 20
2.09121490853272
 30
0.0
 11
28.3486423470257
 21
-1.908785091467279
 31
0.0
  0
LINE
  5
181D
330
D
100
AcDbEntity
 67
     1
  8
AM_VIS
100
AcDbLine
 10
26.76579963455106
 20
-1.908785091467251
 30
0.0
 11
26.76579963455106
 21
2.09121490853272
 31
0.0
  0
LINE
  5
181E
330
D
100
AcDbEntity
 67
     1
  8
AM_VIS
100
AcDbLine
 10
69.40609181462599
 20
-1.408785091467279
 30
0.0
 11
68.16579963455109
 21
-1.408785091467279
 31
0.0
  0
LINE
  5
181F
330
D
100
AcDbEntity
 67
     1
  8
AM_VIS
100
AcDbLine
 10
78.32550745447614
 20
1.59121490853272
 30
0.0
 11
79.51579963455111
 21
1.59121490853272
 31
0.0
  0
LINE
  5
1820
330
D
100
AcDbEntity
 67
     1
  8
AM_VIS
100
AcDbLine
 10
79.51579963455111
 20
1.59121490853272
 30
0.0
 11
79.56579963455107
 21
1.691214908532685
 31
0.0
  0
LINE
  5
1821
330
D
100
AcDbEntity
 67
     1
  8
AM_VIS
100
AcDbLine
 10
79.51579963455111
 20
-1.208785091467262
 30
0.0
 11
79.51579963455111
 21
1.59121490853272
 31
0.0
  0
LINE
  5
1822
330
D
100
AcDbEntity
 67
     1
  8
AM_VIS
100
AcDbLine
 10
74.86579963455108
 20
-95.05298065072485
 30
0.0
 11
74.86579963455108
 21
-98.85955391285973
 31
0.0
  0
LINE
  5
1823
330
D
100
AcDbEntity
 67
     1
  8
AM_VIS
100
AcDbLine
 10
84.76579963455108
 20
-95.05298065072485
 30
0.0
 11
84.76579963455108
 21
-98.85955391285973
 31
0.0
  0
LINE
  5
1824
330
D
100
AcDbEntity
 67
     1
  8
AM_VIS
100
AcDbLine
 10
91.4657996345511
 20
-91.95626728179229
 30
0.0
 11
90.4657996345511
 21
-91.95626728179229
 31
0.0
  0
LINE
  5
1825
330
D
100
AcDbEntity
 67
     1
  8
AM_VIS
100
AcDbLine
 10
90.4657996345511
 20
-101.9562672817923
 30
0.0
 11
91.4657996345511
 21
-101.9562672817923
 31
0.0
  0
LINE
  5
1826
330
D
100
AcDbEntity
 67
     1
  8
AM_VIS
100
AcDbLine
 10
56.26579963455109
 20
-101.9562672817923
 30
0.0
 11
57.26579963455108
 21
-101.9562672817923
 31
0.0
  0
LINE
  5
1827
330
D
100
AcDbEntity
 67
     1
  8
AM_VIS
100
AcDbLine
 10
64.9657996345511
 20
-98.85955391285973
 30
0.0
 11
64.9657996345511
 21
-99.35626728179229
 31
0.0
  0
LINE
  5
1828
330
D
100
AcDbEntity
 67
     1
  8
AM_VIS
100
AcDbLine
 10
64.9657996345511
 20
-94.55626728179231
 30
0.0
 11
64.9657996345511
 21
-95.05298065072487
 31
0.0
  0
LINE
  5
1829
330
D
100
AcDbEntity
 67
     1
  8
AM_VIS
100
AcDbLine
 10
84.76579963455112
 20
-98.85955391285973
 30
0.0
 11
84.76579963455112
 21
-99.35626728179229
 31
0.0
  0
LINE
  5
182A
330
D
100
AcDbEntity
 67
     1
  8
AM_VIS
100
AcDbLine
 10
84.76579963455112
 20
-94.55626728179231
 30
0.0
 11
84.76579963455112
 21
-95.05298065072487
 31
0.0
  0
LINE
  5
182B
330
D
100
AcDbEntity
 67
     1
  8
AM_VIS
100
AcDbLine
 10
88.76579963455112
 20
-91.95626728179229
 30
0.0
 11
90.4657996345511
 21
-91.95626728179229
 31
0.0
  0
LINE
  5
182C
330
D
100
AcDbEntity
 67
     1
  8
AM_VIS
100
AcDbLine
 10
90.4657996345511
 20
-91.95626728179229
 30
0.0
 11
90.4657996345511
 21
-101.9562672817923
 31
0.0
  0
LINE
  5
182D
330
D
100
AcDbEntity
 67
     1
  8
AM_VIS
100
AcDbLine
 10
90.4657996345511
 20
-101.9562672817923
 30
0.0
 11
88.76579963455112
 21
-101.9562672817923
 31
0.0
  0
LINE
  5
182E
330
D
100
AcDbEntity
 67
     1
  8
AM_VIS
100
AcDbLine
 10
88.76579963455105
 20
-101.9562672817923
 30
0.0
 11
87.9657996345511
 21
-102.7562672817923
 31
0.0
  0
LINE
  5
182F
330
D
100
AcDbEntity
 67
     1
  8
AM_VIS
100
AcDbLine
 10
87.9657996345511
 20
-102.7562672817923
 30
0.0
 11
85.56579963455106
 21
-102.7562672817923
 31
0.0
  0
LINE
  5
1830
330
D
100
AcDbEntity
 67
     1
  8
AM_VIS
100
AcDbLine
 10
85.5657996345511
 20
-102.7562672817923
 30
0.0
 11
84.76579963455108
 21
-101.9562672817923
 31
0.0
  0
LINE
  5
1831
330
D
100
AcDbEntity
 67
     1
  8
AM_VIS
100
AcDbLine
 10
84.76579963455108
 20
-101.9562672817923
 30
0.0
 11
62.9657996345511
 21
-101.9562672817923
 31
0.0
  0
LINE
  5
1832
330
D
100
AcDbEntity
 67
     1
  8
AM_VIS
100
AcDbLine
 10
62.9657996345511
 20
-101.9562672817923
 30
0.0
 11
62.4657996345511
 21
-101.4562672817923
 31
0.0
  0
LINE
  5
1833
330
D
100
AcDbEntity
 67
     1
  8
AM_VIS
100
AcDbLine
 10
62.4657996345511
 20
-101.4562672817923
 30
0.0
 11
59.46579963455111
 21
-101.4562672817923
 31
0.0
  0
LINE
  5
1834
330
D
100
AcDbEntity
 67
     1
  8
AM_VIS
100
AcDbLine
 10
59.46579963455111
 20
-101.4562672817923
 30
0.0
 11
58.9657996345511
 21
-101.9562672817923
 31
0.0
  0
LINE
  5
1835
330
D
100
AcDbEntity
 67
     1
  8
AM_VIS
100
AcDbLine
 10
58.9657996345511
 20
-101.9562672817923
 30
0.0
 11
57.26579963455108
 21
-101.9562672817923
 31
0.0
  0
LINE
  5
1836
330
D
100
AcDbEntity
 67
     1
  8
AM_VIS
100
AcDbLine
 10
57.26579963455108
 20
-101.9562672817923
 30
0.0
 11
57.26579963455108
 21
-91.95626728179229
 31
0.0
  0
LINE
  5
1837
330
D
100
AcDbEntity
 67
     1
  8
AM_VIS
100
AcDbLine
 10
58.9657996345511
 20
-91.95626728179229
 30
0.0
 11
59.76579963455108
 21
-91.15626728179229
 31
0.0
  0
LINE
  5
1838
330
D
100
AcDbEntity
 67
     1
  8
AM_VIS
100
AcDbLine
 10
59.76579963455108
 20
-91.15626728179229
 30
0.0
 11
62.16579963455109
 21
-91.15626728179229
 31
0.0
  0
LINE
  5
1839
330
D
100
AcDbEntity
 67
     1
  8
AM_VIS
100
AcDbLine
 10
62.16579963455109
 20
-91.15626728179229
 30
0.0
 11
62.9657996345511
 21
-91.95626728179229
 31
0.0
  0
LINE
  5
183A
330
D
100
AcDbEntity
 67
     1
  8
AM_VIS
100
AcDbLine
 10
62.9657996345511
 20
-91.95626728179229
 30
0.0
 11
84.76579963455112
 21
-91.95626728179229
 31
0.0
  0
LINE
  5
183B
330
D
100
AcDbEntity
 67
     1
  8
AM_VIS
100
AcDbLine
 10
84.76579963455112
 20
-91.95626728179231
 30
0.0
 11
85.26579963455109
 21
-92.4562672817923
 31
0.0
  0
LINE
  5
183C
330
D
100
AcDbEntity
 67
     1
  8
AM_VIS
100
AcDbLine
 10
85.26579963455111
 20
-92.4562672817923
 30
0.0
 11
88.26579963455111
 21
-92.4562672817923
 31
0.0
  0
LINE
  5
183D
330
D
100
AcDbEntity
 67
     1
  8
AM_VIS
100
AcDbLine
 10
88.26579963455106
 20
-92.4562672817923
 30
0.0
 11
88.76579963455105
 21
-91.95626728179229
 31
0.0
  0
ARC
  5
183E
330
D
100
AcDbEntity
 67
     1
  8
AM_VIS
100
AcDbCircle
 10
59.23046631537835
 20
-93.84248316653026
 30
0.0
 40
0.2039231031340084
100
AcDbArc
 50
273.003889787064
 51
323.8819674616613
  0
LINE
  5
183F
330
D
100
AcDbEntity
 67
     1
  8
AM_VIS
100
AcDbLine
 10
59.24115265123941
 20
-94.04612607511699
 30
0.0
 11
58.65386125200962
 21
-94.04612607511699
 31
0.0
  0
LINE
  5
1840
330
D
100
AcDbEntity
 67
     1
  8
AM_VIS
100
AcDbLine
 10
58.65386125200962
 20
-94.04612607511699
 30
0.0
 11
58.31689077704169
 21
-94.89657536908362
 31
0.0
  0
SPLINE
  5
1841
330
D
100
AcDbEntity
 67
     1
  8
AM_VIS
100
AcDbSpline
210
0.0
220
0.0
230
1.0
 70
     8
 71
     3
 72
    18
 73
    14
 74
     0
 42
0.0000000001
 43
0.0000000001
 40
-0.0182163666448748
 40
-0.0182163666448748
 40
-0.0182163666448748
 40
-0.0182163666448748
 40
-0.0087709405400666
 40
-0.0087709405400666
 40
-0.0050477827599795
 40
-0.0050477827599795
 40
-0.0033399019584654
 40
-0.0033399019584654
 40
-0.0022582794860562
 40
-0.0022582794860562
 40
-0.001249573148543
 40
-0.001249573148543
 40
0.0
 40
0.0
 40
0.0
 40
0.0
 10
58.31689077704169
 20
-94.89657536908362
 30
0.0
 10
58.31555611594649
 20
-94.90057933709541
 30
0.0
 10
58.3143139129395
 20
-94.90492194904089
 30
0.0
 10
58.31368301541317
 20
-94.90986552475463
 30
0.0
 10
58.31360645665217
 20
-94.91130025785563
 30
0.0
 10
58.31385391577078
 20
-94.9130911698276
 30
0.0
 10
58.31399241461878
 20
-94.9136739937394
 30
0.0
 10
58.31439119662147
 20
-94.91451414382865
 30
0.0
 10
58.31458987616696
 20
-94.91481619716921
 30
0.0
 10
58.31508525144352
 20
-94.9153065779024
 30
0.0
 10
58.31536082240393
 20
-94.91548774769448
 30
0.0
 10
58.31605896724624
 20
-94.91577001742587
 30
0.0
 10
58.31647425265888
 20
-94.91583082956278
 30
0.0
 10
58.31689077704169
 20
-94.91583082479607
 30
0.0
  0
ARC
  5
1842
330
D
100
AcDbEntity
 67
     1
  8
AM_VIS
100
AcDbCircle
 10
58.32109744288752
 20
-96.16032589666108
 30
0.0
 40
1.244502181570526
100
AcDbArc
 50
60.88398151093791
 51
90.19367154300011
  0
ARC
  5
1843
330
D
100
AcDbEntity
 67
     1
  8
AM_VIS
100
AcDbCircle
 10
58.59761106420478
 20
-95.65388081730123
 30
0.0
 40
0.6675251611407383
100
AcDbArc
 50
356.1341293285769
 51
60.46738220343516
  0
ARC
  5
1844
330
D
100
AcDbEntity
 67
     1
  8
AM_VIS
100
AcDbCircle
 10
58.55719296653489
 20
-95.72721906344714
 30
0.0
 40
0.7069923408953852
100
AcDbArc
 50
320.1471640620709
 51
2.296769493039333
  0
ARC
  5
1845
330
D
100
AcDbEntity
 67
     1
  8
AM_VIS
100
AcDbCircle
 10
58.78036410570939
 20
-95.87923132574186
 30
0.0
 40
0.4390424924778255
100
AcDbArc
 50
270.2436279182406
 51
316.7111718659452
  0
ARC
  5
1846
330
D
100
AcDbEntity
 67
     1
  8
AM_VIS
100
AcDbCircle
 10
58.83484265092665
 20
-95.68085748060756
 30
0.0
 40
0.6395799543296791
100
AcDbArc
 50
243.6702467574798
 51
265.2815312490107
  0
ARC
  5
1847
330
D
100
AcDbEntity
 67
     1
  8
AM_VIS
100
AcDbCircle
 10
58.26870816420265
 20
-96.83376328088888
 30
0.0
 40
0.6448325774309464
100
AcDbArc
 50
64.02161571463768
 51
86.85783304664685
  0
SPLINE
  5
1848
330
D
100
AcDbEntity
 67
     1
  8
AM_VIS
100
AcDbSpline
210
0.0
220
0.0
230
1.0
 70
     8
 71
     3
 72
    16
 73
    12
 74
     0
 42
0.0000000001
 43
0.0000000001
 40
-0.1430393854485956
 40
-0.1430393854485956
 40
-0.1430393854485956
 40
-0.1430393854485956
 40
-0.1178396359711252
 40
-0.1178396359711252
 40
-0.0958624159353105
 40
-0.0958624159353105
 40
-0.0708915679570684
 40
-0.0708915679570684
 40
-0.0430203371006723
 40
-0.0430203371006723
 40
0.0
 40
0.0
 40
0.0
 40
0.0
 10
58.30405380656674
 20
-96.18990014443664
 30
0.0
 10
58.29564420125274
 20
-96.18990014443664
 30
0.0
 10
58.28710680575778
 20
-96.19053494924258
 30
0.0
 10
58.27164756058152
 20
-96.19354119536787
 30
0.0
 10
58.26458428443726
 20
-96.19569433755728
 30
0.0
 10
58.25044565112927
 20
-96.20246232820178
 30
0.0
 10
58.24377209663001
 20
-96.20724181869553
 30
0.0
 10
58.23180883186205
 20
-96.22020949221131
 30
0.0
 10
58.22723874919933
 20
-96.22822123795595
 30
0.0
 10
58.21905928673334
 20
-96.25043010096971
 30
0.0
 10
58.2174042441386
 20
-96.26541882539454
 30
0.0
 10
58.21740425586071
 20
-96.27975893776142
 30
0.0
  0
ARC
  5
1849
330
D
100
AcDbEntity
 67
     1
  8
AM_VIS
100
AcDbCircle
 10
58.27598826961275
 20
-96.28285137372088
 30
0.0
 40
0.0586655761709104
100
AcDbArc
 50
176.9783696236656
 51
199.2818350846964
  0
SPLINE
  5
184A
330
D
100
AcDbEntity
 67
     1
  8
AM_VIS
100
AcDbSpline
210
0.0
220
0.0
230
1.0
 70
     8
 71
     3
 72
    14
 73
    10
 74
     0
 42
0.0000000001
 43
0.0000000001
 40
-0.5010995635611439
 40
-0.5010995635611439
 40
-0.5010995635611439
 40
-0.5010995635611439
 40
-0.4485947153531609
 40
-0.4485947153531609
 40
-0.3956408612674252
 40
-0.3956408612674252
 40
-0.2789809604120522
 40
-0.2789809604120522
 40
0.0
 40
0.0
 40
0.0
 40
0.0
 10
58.22061349847945
 20
-96.30222363609261
 30
0.0
 10
58.22565521043097
 20
-96.31496059675725
 30
0.0
 10
58.23200372764071
 20
-96.32700809326797
 30
0.0
 10
58.24749927004387
 20
-96.34974391079452
 30
0.0
 10
58.25648524272222
 20
-96.36014897958631
 30
0.0
 10
58.28870959701612
 20
-96.39047778228068
 30
0.0
 10
58.31529144329005
 20
-96.40603784990505
 30
0.0
 10
58.41050705590373
 20
-96.44578002548684
 30
0.0
 10
58.49668274616409
 20
-96.45626728179223
 30
0.0
 10
58.58967639963478
 20
-96.45626728179223
 30
0.0
  0
ARC
  5
184B
330
D
100
AcDbEntity
 67
     1
  8
AM_VIS
100
AcDbCircle
 10
58.61553545227718
 20
-95.67465501524873
 30
0.0
 40
0.7820399131852708
100
AcDbArc
 50
268.1051034878692
 51
316.5616733876564
  0
ARC
  5
184C
330
D
100
AcDbEntity
 67
     1
  8
AM_VIS
100
AcDbCircle
 10
58.53741272626914
 20
-95.60968595433392
 30
0.0
 40
0.8834611932525595
100
AcDbArc
 50
316.9858275819078
 51
359.8345890426644
  0
ARC
  5
184D
330
D
100
AcDbEntity
 67
     1
  8
AM_VIS
100
AcDbCircle
 10
58.50053773500068
 20
-95.57775429932794
 30
0.0
 40
0.9209782495684098
100
AcDbArc
 50
357.8542979641821
 51
37.13721779019111
  0
ARC
  5
184E
330
D
100
AcDbEntity
 67
     1
  8
AM_VIS
100
AcDbCircle
 10
58.53212132372158
 20
-95.56626335062247
 30
0.0
 40
0.8889178958316456
100
AcDbArc
 50
37.77581506786535
 51
64.34216038009428
  0
ARC
  5
184F
330
D
100
AcDbEntity
 67
     1
  8
AM_VIS
100
AcDbCircle
 10
58.15361955603782
 20
-96.49410907662515
 30
0.0
 40
1.89013478579275
100
AcDbArc
 50
66.17864271099769
 51
77.85849789507359
  0
LINE
  5
1850
330
D
100
AcDbEntity
 67
     1
  8
AM_VIS
100
AcDbLine
 10
58.55116548820987
 20
-94.64625444482175
 30
0.0
 11
58.72446458962193
 21
-94.23547138962277
 31
0.0
  0
LINE
  5
1851
330
D
100
AcDbEntity
 67
     1
  8
AM_VIS
100
AcDbLine
 10
58.72446458962196
 20
-94.23547138962277
 30
0.0
 11
59.30854674623299
 21
-94.23547138962277
 31
0.0
  0
SPLINE
  5
1852
330
D
100
AcDbEntity
 67
     1
  8
AM_VIS
100
AcDbSpline
210
0.0
220
0.0
230
1.0
 70
     8
 71
     3
 72
    14
 73
    10
 74
     0
 42
0.0000000001
 43
0.0000000001
 40
-0.0594862535895929
 40
-0.0594862535895929
 40
-0.0594862535895929
 40
-0.0594862535895929
 40
-0.0340114732085149
 40
-0.0340114732085149
 40
-0.0192389895703763
 40
-0.0192389895703763
 40
-0.0094497900256477
 40
-0.0094497900256477
 40
0.0
 40
0.0
 40
0.0
 40
0.0
 10
59.30854674623299
 20
-94.23547138962277
 30
0.0
 10
59.31700318409247
 20
-94.23547138962277
 30
0.0
 10
59.32620999731731
 20
-94.23487452597134
 30
0.0
 10
59.33924582879299
 20
-94.23178465166211
 30
0.0
 10
59.34410365562417
 20
-94.23010173253704
 30
0.0
 10
59.35110990728538
 20
-94.22586819618445
 30
0.0
 10
59.35362535292989
 20
-94.22379908185256
 30
0.0
 10
59.35762975102088
 20
-94.21878995127958
 30
0.0
 10
59.35902927057623
 20
-94.21603542293338
 30
0.0
 10
59.35989462813285
 20
-94.21300669129157
 30
0.0
  0
LINE
  5
1853
330
D
100
AcDbEntity
 67
     1
  8
AM_VIS
100
AcDbLine
 10
59.35989462813285
 20
-94.21300669129157
 30
0.0
 11
59.46579963455133
 21
-93.95626728179221
 31
0.0
  0
LINE
  5
1854
330
D
100
AcDbEntity
 67
     1
  8
AM_VIS
100
AcDbLine
 10
59.46579963455133
 20
-93.95626728179221
 30
0.0
 11
59.39519629693902
 21
-93.9626857670297
 31
0.0
  0
ARC
  5
1855
330
D
100
AcDbEntity
 67
     1
  8
AM_VIS
100
AcDbCircle
 10
69.33080033150713
 20
-100.869231711476
 30
0.0
 40
0.5213667270864848
100
AcDbArc
 50
243.5309796675971
 51
273.8491553843646
  0
SPLINE
  5
1856
330
D
100
AcDbEntity
 67
     1
  8
AM_VIS
100
AcDbSpline
210
0.0
220
0.0
230
1.0
 70
     8
 71
     3
 72
    12
 73
     8
 74
     0
 42
0.0000000001
 43
0.0000000001
 40
-0.2262159621420452
 40
-0.2262159621420452
 40
-0.2262159621420452
 40
-0.2262159621420452
 40
-0.1760070611846241
 40
-0.1760070611846241
 40
-0.1235913730003457
 40
-0.1235913730003457
 40
0.0
 40
0.0
 40
0.0
 40
0.0
 10
69.09841995541182
 20
-101.3359464261773
 30
0.0
 10
69.08500651350525
 20
-101.3258863319553
 30
0.0
 10
69.07331971141715
 20
-101.3141071830806
 30
0.0
 10
69.05289380528308
 20
-101.2865889462633
 30
0.0
 10
69.04466775803718
 20
-101.2711845297962
 30
0.0
 10
69.02314950949466
 20
-101.2164923284316
 30
0.0
 10
69.0182060516685
 20
-101.1732665451631
 30
0.0
 10
69.0182060516685
 20
-101.1320694208297
 30
0.0
  0
LINE
  5
1857
330
D
100
AcDbEntity
 67
     1
  8
AM_VIS
100
AcDbLine
 10
69.0182060516685
 20
-101.1320694208297
 30
0.0
 11
69.0182060516685
 21
-98.95626728179228
 31
0.0
  0
LINE
  5
1858
330
D
100
AcDbEntity
 67
     1
  8
AM_VIS
100
AcDbLine
 10
69.0182060516685
 20
-98.95626728179227
 30
0.0
 11
68.45336647947599
 21
-99.22698920692596
 31
0.0
  0
LINE
  5
1859
330
D
100
AcDbEntity
 67
     1
  8
AM_VIS
100
AcDbLine
 10
68.45336647947599
 20
-99.22698920692596
 30
0.0
 11
68.45336647947599
 21
-99.28046514275486
 31
0.0
  0
ARC
  5
185A
330
D
100
AcDbEntity
 67
     1
  8
AM_VIS
100
AcDbCircle
 10
68.75401221553943
 20
-99.97168445064495
 30
0.0
 40
0.7537718422793476
100
AcDbArc
 50
94.56586281335505
 51
113.5066241224972
  0
SPLINE
  5
185B
330
D
100
AcDbEntity
 67
     1
  8
AM_VIS
100
AcDbSpline
210
0.0
220
0.0
230
1.0
 70
     8
 71
     3
 72
    16
 73
    12
 74
     0
 42
0.0000000001
 43
0.0000000001
 40
-0.2645889009278576
 40
-0.2645889009278576
 40
-0.2645889009278576
 40
-0.2645889009278576
 40
-0.230246100346845
 40
-0.230246100346845
 40
-0.1990711712402633
 40
-0.1990711712402633
 40
-0.1559204052958695
 40
-0.1559204052958695
 40
-0.1003392874665309
 40
-0.1003392874665309
 40
0.0
 40
0.0
 40
0.0
 40
0.0
 10
68.69400819070595
 20
-99.22030471494736
 30
0.0
 10
68.70549588372123
 20
-99.22030471494736
 30
0.0
 10
68.71703746150434
 20
-99.22130885848893
 30
0.0
 10
68.73846654357397
 20
-99.22591828912985
 30
0.0
 10
68.74831605731134
 20
-99.22925497981113
 30
0.0
 10
68.77047782684991
 20
-99.24053418916212
 30
0.0
 10
68.78153816013244
 20
-99.24937457164096
 30
0.0
 10
68.80291686568515
 20
-99.27455576118221
 30
0.0
 10
68.81132526024356
 20
-99.29141111876315
 30
0.0
 10
68.82787248413762
 20
-99.34085498919362
 30
0.0
 10
68.83104027626743
 20
-99.37736630718221
 30
0.0
 10
68.83104027626743
 20
-99.41081273633772
 30
0.0
  0
LINE
  5
185C
330
D
100
AcDbEntity
 67
     1
  8
AM_VIS
100
AcDbLine
 10
68.83104027626743
 20
-99.41081273633772
 30
0.0
 11
68.83104027626743
 21
-101.0685667470329
 31
0.0
  0
SPLINE
  5
185D
330
D
100
AcDbEntity
 67
     1
  8
AM_VIS
100
AcDbSpline
210
0.0
220
0.0
230
1.0
 70
     8
 71
     3
 72
    12
 73
     8
 74
     0
 42
0.0000000001
 43
0.0000000001
 40
-0.2959021592091053
 40
-0.2959021592091053
 40
-0.2959021592091053
 40
-0.2959021592091053
 40
-0.165499440234348
 40
-0.165499440234348
 40
-0.0740473284717134
 40
-0.0740473284717134
 40
0.0
 40
0.0
 40
0.0
 40
0.0
 10
68.83104027626743
 20
-101.0685667470329
 30
0.0
 10
68.83104027626743
 20
-101.1119536473122
 30
0.0
 10
68.82739980920018
 20
-101.1574766638132
 30
0.0
 10
68.80918286676962
 20
-101.2291103573666
 30
0.0
 10
68.79794052336027
 20
-101.2579938184244
 30
0.0
 10
68.76766315083378
 20
-101.3041083224039
 30
0.0
 10
68.75099353437838
 20
-101.3217919642971
 30
0.0
 10
68.73077289658829
 20
-101.3359464261773
 30
0.0
  0
ARC
  5
185E
330
D
100
AcDbEntity
 67
     1
  8
AM_VIS
100
AcDbCircle
 10
68.50281031092859
 20
-100.8791934994258
 30
0.0
 40
0.5104803390500923
100
AcDbArc
 50
268.2014826650704
 51
296.5235021663596
  0
LINE
  5
185F
330
D
100
AcDbEntity
 67
     1
  8
AM_VIS
100
AcDbLine
 10
68.48678893936903
 20
-101.3894223620061
 30
0.0
 11
68.48678893936903
 21
-101.4562672817922
 31
0.0
  0
LINE
  5
1860
330
D
100
AcDbEntity
 67
     1
  8
AM_VIS
100
AcDbLine
 10
68.48678893936903
 20
-101.4562672817922
 30
0.0
 11
69.3657996345562
 21
-101.4562672817922
 31
0.0
  0
LINE
  5
1861
330
D
100
AcDbEntity
 67
     1
  8
AM_VIS
100
AcDbLine
 10
69.3657996345562
 20
-101.4562672817922
 30
0.0
 11
69.3657996345562
 21
-101.3894223620061
 31
0.0
  0
ARC
  5
1862
330
D
100
AcDbEntity
 67
     1
  8
AM_VIS
100
AcDbCircle
 10
88.54701155730447
 20
-99.47859952949157
 30
0.0
 40
1.142179206889131
100
AcDbArc
 50
46.21247042199082
 51
62.57846161714684
  0
ARC
  5
1863
330
D
100
AcDbEntity
 67
     1
  8
AM_VIS
100
AcDbCircle
 10
88.71341027871592
 20
-97.91117516809771
 30
0.0
 40
0.6601286868873832
100
AcDbArc
 50
303.0084049862245
 51
358.4088706718087
  0
ARC
  5
1864
330
D
100
AcDbEntity
 67
     1
  8
AM_VIS
100
AcDbCircle
 10
88.87829711255079
 20
-97.92562126039515
 30
0.0
 40
0.4950025595681908
100
AcDbArc
 50
359.5504724689635
 51
35.37738131472418
  0
ARC
  5
1865
330
D
100
AcDbEntity
 67
     1
  8
AM_VIS
100
AcDbCircle
 10
88.91663358730255
 20
-97.91024645620948
 30
0.0
 40
0.4549458363076779
100
AcDbArc
 50
36.59396473751967
 51
93.73570015194978
  0
SPLINE
  5
1866
330
D
100
AcDbEntity
 67
     1
  8
AM_VIS
100
AcDbSpline
210
0.0
220
0.0
230
1.0
 70
     8
 71
     3
 72
    14
 73
    10
 74
     0
 42
0.0000000001
 43
0.0000000001
 40
-0.8958312655610528
 40
-0.8958312655610528
 40
-0.8958312655610528
 40
-0.8958312655610528
 40
-0.7306493014372613
 40
-0.7306493014372613
 40
-0.5756111067181134
 40
-0.5756111067181134
 40
-0.3506029614621955
 40
-0.3506029614621955
 40
0.0
 40
0.0
 40
0.0
 40
0.0
 10
88.8869920089175
 20
-97.45626728179226
 30
0.0
 10
88.83184363448918
 20
-97.45626728179226
 30
0.0
 10
88.77694550141359
 20
-97.46236483220803
 30
0.0
 10
88.67365822581366
 20
-97.49000054475732
 30
0.0
 10
88.62656718641876
 20
-97.51016768160926
 30
0.0
 10
88.51907535117659
 20
-97.57760827504879
 30
0.0
 10
88.4665076628948
 20
-97.63034438185739
 30
0.0
 10
88.35512933783968
 20
-97.78695387654867
 30
0.0
 10
88.31030121235432
 20
-97.90150565616912
 30
0.0
 10
88.2799424005624
 20
-98.01436127657034
 30
0.0
  0
LINE
  5
1867
330
D
100
AcDbEntity
 67
     1
  8
AM_VIS
100
AcDbLine
 10
88.2799424005624
 20
-98.01436127657034
 30
0.0
 11
88.33868913685478
 21
-98.02741610685753
 31
0.0
  0
SPLINE
  5
1868
330
D
100
AcDbEntity
 67
     1
  8
AM_VIS
100
AcDbSpline
210
0.0
220
0.0
230
1.0
 70
     8
 71
     3
 72
    14
 73
    10
 74
     0
 42
0.0000000001
 43
0.0000000001
 40
-0.6497531687123905
 40
-0.6497531687123905
 40
-0.6497531687123905
 40
-0.6497531687123905
 40
-0.3870135519764515
 40
-0.3870135519764515
 40
-0.1763908621623662
 40
-0.1763908621623662
 40
-0.0731298580597444
 40
-0.0731298580597444
 40
0.0
 40
0.0
 40
0.0
 40
0.0
 10
88.33868913685483
 20
-98.02741610685755
 30
0.0
 10
88.37891428479236
 20
-97.95027197560422
 30
0.0
 10
88.42519205683288
 20
-97.8698166051417
 30
0.0
 10
88.51568917929757
 20
-97.7415157386428
 30
0.0
 10
88.5649805654636
 20
-97.68115538643389
 30
0.0
 10
88.64630395647123
 20
-97.61549518390273
 30
0.0
 10
88.67623293638848
 20
-97.59625182628548
 30
0.0
 10
88.73122990226789
 20
-97.57547083693319
 30
0.0
 10
88.75491303969477
 20
-97.57049704680532
 30
0.0
 10
88.779289659048
 20
-97.57049704680532
 30
0.0
  0
ARC
  5
1869
330
D
100
AcDbEntity
 67
     1
  8
AM_VIS
100
AcDbCircle
 10
88.77254641334735
 20
-97.97059086350069
 30
0.0
 40
0.4001506385356022
100
AcDbArc
 50
36.88453306605933
 51
89.03441911488899
  0
ARC
  5
186A
330
D
100
AcDbEntity
 67
     1
  8
AM_VIS
100
AcDbCircle
 10
88.7341080928653
 20
-98.04868972983335
 30
0.0
 40
0.4793922085592067
100
AcDbArc
 50
1.372491489550587
 51
41.59839514457227
  0
ARC
  5
186B
330
D
100
AcDbEntity
 67
     1
  8
AM_VIS
100
AcDbCircle
 10
88.71684751713065
 20
-98.00124141788465
 30
0.0
 40
0.4978161629227604
100
AcDbArc
 50
308.1072807198443
 51
355.8569321872505
  0
ARC
  5
186C
330
D
100
AcDbEntity
 67
     1
  8
AM_VIS
100
AcDbCircle
 10
88.2317092427221
 20
-97.50444375734222
 30
0.0
 40
1.190494736829182
100
AcDbArc
 50
288.3404335849166
 51
311.7261272870735
  0
LINE
  5
186D
330
D
100
AcDbEntity
 67
     1
  8
AM_VIS
100
AcDbLine
 10
88.60631315774254
 20
-98.63446571521265
 30
0.0
 11
88.60631315774254
 21
-98.64425683792804
 31
0.0
  0
ARC
  5
186E
330
D
100
AcDbEntity
 67
     1
  8
AM_VIS
100
AcDbCircle
 10
88.65317930846265
 20
-99.50698103813493
 30
0.0
 40
0.86399622783084
100
AcDbArc
 50
59.17784915908795
 51
93.10944783751599
  0
SPLINE
  5
186F
330
D
100
AcDbEntity
 67
     1
  8
AM_VIS
100
AcDbSpline
210
0.0
220
0.0
230
1.0
 70
     8
 71
     3
 72
    12
 73
     8
 74
     0
 42
0.0000000001
 43
0.0000000001
 40
-0.5853511574208602
 40
-0.5853511574208602
 40
-0.5853511574208602
 40
-0.5853511574208602
 40
-0.4430754532649464
 40
-0.4430754532649464
 40
-0.2970511539328341
 40
-0.2970511539328341
 40
0.0
 40
0.0
 40
0.0
 40
0.0
 10
89.09586929351281
 20
-98.7650140180847
 30
0.0
 10
89.1367599721072
 20
-98.78920287281021
 30
0.0
 10
89.17278537226634
 20
-98.81920301649389
 30
0.0
 10
89.23502552714086
 20
-98.89264846371979
 30
0.0
 10
89.25936429781012
 20
-98.93454876940131
 30
0.0
 10
89.31528364532534
 20
-99.07152125861133
 30
0.0
 10
89.32759253111072
 20
-99.1751353479748
 30
0.0
 10
89.32759253111072
 20
-99.27415239928576
 30
0.0
  0
ARC
  5
1870
330
D
100
AcDbEntity
 67
     1
  8
AM_VIS
100
AcDbCircle
 10
88.81340304693594
 20
-99.28302955079685
 30
0.0
 40
0.5142661076279751
100
AcDbArc
 50
315.5830532269922
 51
0.9890766094533768
  0
ARC
  5
1871
330
D
100
AcDbEntity
 67
     1
  8
AM_VIS
100
AcDbCircle
 10
88.79541381584431
 20
-99.29424474060269
 30
0.0
 40
0.5196744591685846
100
AcDbArc
 50
273.982814668232
 51
317.8549564738596
  0
ARC
  5
1872
330
D
100
AcDbEntity
 67
     1
  8
AM_VIS
100
AcDbCircle
 10
88.79711718843351
 20
-99.18215331430387
 30
0.0
 40
0.6314481036056262
100
AcDbArc
 50
248.6421176007415
 51
273.1221568916668
  0
LINE
  5
1873
330
D
100
AcDbEntity
 67
     1
  8
AM_VIS
100
AcDbLine
 10
88.37785019831983
 20
-99.68865117947876
 30
0.0
 11
88.56700385162019
 21
-99.77057033275272
 31
0.0
  0
ARC
  5
1874
330
D
100
AcDbEntity
 67
     1
  8
AM_VIS
100
AcDbCircle
 10
88.3562615369666
 20
-99.75819520685837
 30
0.0
 40
0.0728264482788482
100
AcDbArc
 50
72.75327780187345
 51
90.98651748979827
  0
SPLINE
  5
1875
330
D
100
AcDbEntity
 67
     1
  8
AM_VIS
100
AcDbSpline
210
0.0
220
0.0
230
1.0
 70
     8
 71
     3
 72
    16
 73
    12
 74
     0
 42
0.0000000001
 43
0.0000000001
 40
-0.1610883844919828
 40
-0.1610883844919828
 40
-0.1610883844919828
 40
-0.1610883844919828
 40
-0.1345742561726799
 40
-0.1345742561726799
 40
-0.1113364780356736
 40
-0.1113364780356736
 40
-0.0854324424411456
 40
-0.0854324424411456
 40
-0.0534624650482234
 40
-0.0534624650482234
 40
0.0
 40
0.0
 40
0.0
 40
0.0
 10
88.35500767471382
 20
-99.68537955333275
 30
0.0
 10
88.34614883206404
 20
-99.68537955333275
 30
0.0
 10
88.33716297471722
 20
-99.68616166078277
 30
0.0
 10
88.32096234126471
 20
-99.68991179867543
 30
0.0
 10
88.31367202916476
 20
-99.69259590544847
 30
0.0
 10
88.29947322065043
 20
-99.70085665518087
 30
0.0
 10
88.29311977599388
 20
-99.70648795932698
 30
0.0
 10
88.28144623134908
 20
-99.72191504403836
 30
0.0
 10
88.27716545108506
 20
-99.73178589479511
 30
0.0
 10
88.26973663357064
 20
-99.75934983894882
 30
0.0
 10
88.26910479544251
 20
-99.77855554163348
 30
0.0
 10
88.27015127784699
 20
-99.79634561077402
 30
0.0
  0
SPLINE
  5
1876
330
D
100
AcDbEntity
 67
     1
  8
AM_VIS
100
AcDbSpline
210
0.0
220
0.0
230
1.0
 70
     8
 71
     3
 72
    14
 73
    10
 74
     0
 42
0.0000000001
 43
0.0000000001
 40
-0.2092241674753646
 40
-0.2092241674753646
 40
-0.2092241674753646
 40
-0.2092241674753646
 40
-0.1834955982971062
 40
-0.1834955982971062
 40
-0.1581000249574888
 40
-0.1581000249574888
 40
-0.1038793703751054
 40
-0.1038793703751054
 40
0.0
 40
0.0
 40
0.0
 40
0.0
 10
88.27015127784699
 20
-99.79634561077402
 30
0.0
 10
88.27074258783751
 20
-99.80403266771849
 30
0.0
 10
88.27206761239869
 20
-99.81159597431462
 30
0.0
 10
88.27631201333071
 20
-99.82631608029695
 30
0.0
 10
88.27916695777958
 20
-99.83332576562142
 30
0.0
 10
88.29039991600074
 20
-99.85437359479185
 30
0.0
 10
88.30099793632683
 20
-99.86666193354347
 30
0.0
 10
88.33694104751804
 20
-99.89751213383605
 30
0.0
 10
88.36793727501236
 20
-99.91242204678162
 30
0.0
 10
88.40069958071905
 20
-99.92363020607427
 30
0.0
  0
ARC
  5
1877
330
D
100
AcDbEntity
 67
     1
  8
AM_VIS
100
AcDbCircle
 10
88.598740037575
 20
-99.33938250672682
 30
0.0
 40
0.6168998271555024
100
AcDbArc
 50
251.2750575193616
 51
270.4002483891959
  0
ARC
  5
1878
330
D
100
AcDbEntity
 67
     1
  8
AM_VIS
100
AcDbCircle
 10
88.63374454072271
 20
-99.04972892364948
 30
0.0
 40
0.9070578721163455
100
AcDbArc
 50
268.0607246415259
 51
311.6206715264126
  0
ARC
  5
1879
330
D
100
AcDbEntity
 67
     1
  8
AM_VIS
100
AcDbCircle
 10
88.7239804098341
 20
-99.1607804711862
 30
0.0
 40
0.7641320420814541
100
AcDbArc
 50
312.0933152450027
 51
2.267373359030782
  0
ARC
  5
187A
330
D
100
AcDbEntity
 67
     1
  8
AM_VIS
100
AcDbCircle
 10
88.78510276526316
 20
-99.08995562355524
 30
0.0
 40
0.7035834495332322
100
AcDbArc
 50
356.6924510481562
 51
38.28354370413984
  0
LINE
  5
187B
330
D
100
AcDbEntity
 67
     1
  8
AM_VIS
100
AcDbLine
 10
72.86579963455108
 20
-98.85955391285973
 30
0.0
 11
72.86579963455108
 21
-95.05298065072487
 31
0.0
  0
LINE
  5
187C
330
D
100
AcDbEntity
 67
     1
  8
AM_VIS
100
AcDbLine
 10
62.9657996345511
 20
-98.85955391285973
 30
0.0
 11
62.9657996345511
 21
-99.35626728179229
 31
0.0
  0
LINE
  5
187D
330
D
100
AcDbEntity
 67
     1
  8
AM_VIS
100
AcDbLine
 10
62.9657996345511
 20
-98.85955391285973
 30
0.0
 11
62.9657996345511
 21
-95.05298065072487
 31
0.0
  0
LINE
  5
187E
330
D
100
AcDbEntity
 67
     1
  8
AM_VIS
100
AcDbLine
 10
62.9657996345511
 20
-94.55626728179229
 30
0.0
 11
62.9657996345511
 21
-95.05298065072485
 31
0.0
  0
LINE
  5
187F
330
D
100
AcDbEntity
 67
     1
  8
AM_VIS
100
AcDbLine
 10
82.76579963455111
 20
-94.55626728179229
 30
0.0
 11
82.76579963455111
 21
-95.05298065072485
 31
0.0
  0
LINE
  5
1880
330
D
100
AcDbEntity
 67
     1
  8
AM_VIS
100
AcDbLine
 10
82.76579963455111
 20
-98.85955391285973
 30
0.0
 11
82.76579963455111
 21
-99.35626728179229
 31
0.0
  0
LINE
  5
1881
330
D
100
AcDbEntity
 67
     1
  8
AM_VIS
100
AcDbLine
 10
57.26579963455108
 20
-91.95626728179229
 30
0.0
 11
58.9657996345511
 21
-91.95626728179229
 31
0.0
  0
LINE
  5
1882
330
D
100
AcDbEntity
 67
     1
  8
AM_VIS
100
AcDbLine
 10
57.26579963455108
 20
-91.95626728179229
 30
0.0
 11
56.26579963455109
 21
-91.95626728179229
 31
0.0
  0
LINE
  5
1883
330
D
100
AcDbEntity
 67
     1
  8
AM_VIS
100
AcDbLine
 10
56.26579963455109
 20
-91.95626728179229
 30
0.0
 11
56.26579963455109
 21
-101.9562672817923
 31
0.0
  0
LINE
  5
1884
330
D
100
AcDbEntity
 67
     1
  8
AM_VIS
100
AcDbLine
 10
91.4657996345511
 20
-101.9562672817923
 30
0.0
 11
91.4657996345511
 21
-91.95626728179229
 31
0.0
  0
CIRCLE
  5
1885
330
D
100
AcDbEntity
 67
     1
  8
AM_VIS
100
AcDbCircle
 10
73.86579963455108
 20
-96.95626728179229
 30
0.0
 40
2.149999999999999
  0
ARC
  5
1886
330
D
100
AcDbEntity
 67
     1
  8
AM_VIS
100
AcDbCircle
 10
63.9657996345511
 20
-96.95626728179229
 30
0.0
 40
2.149999999999999
100
AcDbArc
 50
117.7177476896101
 51
242.2822523103899
  0
ARC
  5
1887
330
D
100
AcDbEntity
 67
     1
  8
AM_VIS
100
AcDbCircle
 10
63.9657996345511
 20
-96.95626728179229
 30
0.0
 40
2.149999999999999
100
AcDbArc
 50
297.71774768961
 51
62.28225231038989
  0
ARC
  5
1888
330
D
100
AcDbEntity
 67
     1
  8
AM_VIS
100
AcDbCircle
 10
83.76579963455112
 20
-96.95626728179229
 30
0.0
 40
2.149999999999999
100
AcDbArc
 50
297.71774768961
 51
62.28225231038989
  0
CIRCLE
  5
1889
330
D
100
AcDbEntity
 67
     1
  8
AM_VIS
100
AcDbCircle
 10
86.76579963455111
 20
-101.2562672817923
 30
0.0
 40
1.05
  0
CIRCLE
  5
188A
330
D
100
AcDbEntity
 67
     1
  8
AM_VIS
100
AcDbCircle
 10
60.9657996345511
 20
-92.65626728179229
 30
0.0
 40
1.05
  0
CIRCLE
  5
188B
330
D
100
AcDbEntity
 67
     1
  8
AM_VIS
100
AcDbCircle
 10
73.86579963455108
 20
-96.95626728179229
 30
0.0
 40
2.600000000000011
  0
ARC
  5
188C
330
D
100
AcDbEntity
 67
     1
  8
AM_VIS
100
AcDbCircle
 10
63.9657996345511
 20
-96.95626728179229
 30
0.0
 40
2.600000000000011
100
AcDbArc
 50
292.6198649480406
 51
67.3801350519594
  0
ARC
  5
188D
330
D
100
AcDbEntity
 67
     1
  8
AM_VIS
100
AcDbCircle
 10
63.9657996345511
 20
-96.95626728179229
 30
0.0
 40
2.600000000000011
100
AcDbArc
 50
112.6198649480406
 51
247.3801350519594
  0
ARC
  5
188E
330
D
100
AcDbEntity
 67
     1
  8
AM_VIS
100
AcDbCircle
 10
83.76579963455112
 20
-96.95626728179229
 30
0.0
 40
2.600000000000011
100
AcDbArc
 50
292.6198649480406
 51
67.3801350519594
  0
ARC
  5
188F
330
D
100
AcDbEntity
 67
     1
  8
AM_VIS
100
AcDbCircle
 10
83.76579963455112
 20
-96.95626728179229
 30
0.0
 40
2.6
100
AcDbArc
 50
67.3801350519594
 51
112.6198649480406
  0
ARC
  5
1890
330
D
100
AcDbEntity
 67
     1
  8
AM_VIS
100
AcDbCircle
 10
83.76579963455112
 20
-96.95626728179229
 30
0.0
 40
2.600000000000011
100
AcDbArc
 50
112.6198649480406
 51
247.3801350519594
  0
ARC
  5
1891
330
D
100
AcDbEntity
 67
     1
  8
AM_VIS
100
AcDbCircle
 10
83.76579963455112
 20
-96.95626728179229
 30
0.0
 40
2.6
100
AcDbArc
 50
247.3801350519594
 51
292.6198649480406
  0
ARC
  5
1892
330
D
100
AcDbEntity
 67
     1
  8
AM_VIS
100
AcDbCircle
 10
63.9657996345511
 20
-96.95626728179229
 30
0.0
 40
2.6
100
AcDbArc
 50
67.3801350519594
 51
112.6198649480406
  0
ARC
  5
1893
330
D
100
AcDbEntity
 67
     1
  8
AM_VIS
100
AcDbCircle
 10
63.9657996345511
 20
-96.95626728179229
 30
0.0
 40
2.6
100
AcDbArc
 50
247.3801350519594
 51
292.6198649480406
  0
ARC
  5
1894
330
D
100
AcDbEntity
 67
     1
  8
AM_VIS
100
AcDbCircle
 10
83.76579963455112
 20
-96.95626728179229
 30
0.0
 40
2.149999999999999
100
AcDbArc
 50
117.7177476896101
 51
242.2822523103899
  0
LINE
  5
1895
330
D
100
AcDbEntity
 67
     1
  8
AM_VIS
100
AcDbLine
 10
91.4657996345511
 20
-92.25626728179227
 30
0.0
 11
91.4657996345511
 21
-101.6562672817923
 31
0.0
  0
LINE
  5
1896
330
D
100
AcDbEntity
 67
     1
  8
AM_VIS
100
AcDbLine
 10
96.4657996345511
 20
-101.6562672817923
 30
0.0
 11
96.4657996345511
 21
-92.25626728179227
 31
0.0
  0
LINE
  5
1897
330
D
100
AcDbEntity
 67
     1
  8
AM_VIS
100
AcDbLine
 10
96.16579963455109
 20
-91.95626728179227
 30
0.0
 11
91.4657996345511
 21
-91.95626728179227
 31
0.0
  0
LINE
  5
1898
330
D
100
AcDbEntity
 67
     1
  8
AM_VIS
100
AcDbLine
 10
93.29259455379423
 20
-91.85626728179228
 30
0.0
 11
93.46579963455111
 21
-91.95626728179226
 31
0.0
  0
LINE
  5
1899
330
D
100
AcDbEntity
 67
     1
  8
AM_VIS
100
AcDbLine
 10
91.4657996345511
 20
-101.9562672817923
 30
0.0
 11
96.16579963455109
 21
-101.9562672817923
 31
0.0
  0
LINE
  5
189A
330
D
100
AcDbEntity
 67
     1
  8
AM_VIS
100
AcDbLine
 10
93.46579963455111
 20
-101.9562672817923
 30
0.0
 11
93.29259455379423
 21
-102.0562672817922
 31
0.0
  0
LINE
  5
189B
330
D
100
AcDbEntity
 67
     1
  8
AM_VIS
100
AcDbLine
 10
91.4657996345511
 20
-91.85626728179228
 30
0.0
 11
93.29259455379423
 21
-91.85626728179228
 31
0.0
  0
LINE
  5
189C
330
D
100
AcDbEntity
 67
     1
  8
AM_VIS
100
AcDbLine
 10
91.4657996345511
 20
-102.0562672817922
 30
0.0
 11
93.29259455379423
 21
-102.0562672817922
 31
0.0
  0
ARC
  5
189D
330
D
100
AcDbEntity
 67
     1
  8
AM_VIS
100
AcDbCircle
 10
96.16579963455109
 20
-101.6562672817923
 30
0.0
 40
0.2999999999999998
100
AcDbArc
 50
270.0
 51
0.0
  0
ARC
  5
189E
330
D
100
AcDbEntity
 67
     1
  8
AM_VIS
100
AcDbCircle
 10
96.16579963455109
 20
-92.25626728179227
 30
0.0
 40
0.2999999999999998
100
AcDbArc
 50
0.0
 51
90.0
  0
LINE
  5
189F
330
D
100
AcDbEntity
 67
     1
  8
AM_VIS
100
AcDbLine
 10
91.4657996345511
 20
-91.95626728179227
 30
0.0
 11
91.4657996345511
 21
-91.85626728179228
 31
0.0
  0
LINE
  5
18A0
330
D
100
AcDbEntity
 67
     1
  8
AM_VIS
100
AcDbLine
 10
91.4657996345511
 20
-102.0562672817922
 30
0.0
 11
91.4657996345511
 21
-101.9562672817923
 31
0.0
  0
LINE
  5
18A1
330
D
100
AcDbEntity
 67
     1
  8
AM_VIS
100
AcDbLine
 10
43.76579963455109
 20
-91.95626728179231
 30
0.0
 11
43.76579963455109
 21
-99.0548794629263
 31
0.0
  0
LINE
  5
18A2
330
D
100
AcDbEntity
 67
     1
  8
AM_VIS
100
AcDbLine
 10
44.26579963455108
 20
-101.9562672817923
 30
0.0
 11
44.26579963455108
 21
-91.95626728179231
 31
0.0
  0
LINE
  5
18A3
330
D
100
AcDbEntity
 67
     1
  8
AM_VIS
100
AcDbLine
 10
43.76579963455109
 20
-100.8576551006583
 30
0.0
 11
43.76579963455109
 21
-101.9562672817923
 31
0.0
  0
LINE
  5
18A4
330
D
100
AcDbEntity
 67
     1
  8
AM_VIS
100
AcDbLine
 10
56.26579963455109
 20
-101.9562672817923
 30
0.0
 11
56.26579963455109
 21
-91.95626728179231
 31
0.0
  0
ELLIPSE
  5
18A5
330
D
100
AcDbEntity
 67
     1
  8
AM_VIS
100
AcDbEllipse
 10
43.01579963455108
 20
-99.95626728179232
 30
0.0
 11
0.0000000000000002
 21
1.749999999999999
 31
0.0
210
0.0
220
0.0
230
1.0
 40
0.5
 41
4.171289454427544
 42
5.253488506341836
  0
LINE
  5
18A6
330
D
100
AcDbEntity
 67
     1
  8
AM_VIS
100
AcDbLine
 10
43.76579963455109
 20
-101.9562672817923
 30
0.0
 11
44.26579963455108
 21
-101.9562672817923
 31
0.0
  0
LINE
  5
18A7
330
D
100
AcDbEntity
 67
     1
  8
AM_VIS
100
AcDbLine
 10
56.26579963455109
 20
-101.9562672817923
 30
0.0
 11
44.26579963455108
 21
-101.9562672817923
 31
0.0
  0
LINE
  5
18A8
330
D
100
AcDbEntity
 67
     1
  8
AM_VIS
100
AcDbLine
 10
54.43900471530799
 20
-102.0562672817923
 30
0.0
 11
54.26579963455108
 21
-101.9562672817923
 31
0.0
  0
LINE
  5
18A9
330
D
100
AcDbEntity
 67
     1
  8
AM_VIS
100
AcDbLine
 10
56.26579963455109
 20
-91.95626728179231
 30
0.0
 11
44.26579963455108
 21
-91.95626728179231
 31
0.0
  0
LINE
  5
18AA
330
D
100
AcDbEntity
 67
     1
  8
AM_VIS
100
AcDbLine
 10
44.26579963455108
 20
-91.95626728179231
 30
0.0
 11
43.76579963455109
 21
-91.95626728179231
 31
0.0
  0
LINE
  5
18AB
330
D
100
AcDbEntity
 67
     1
  8
AM_VIS
100
AcDbLine
 10
54.26579963455108
 20
-91.95626728179231
 30
0.0
 11
54.43900471530799
 21
-91.85626728179231
 31
0.0
  0
LINE
  5
18AC
330
D
100
AcDbEntity
 67
     1
  8
AM_VIS
100
AcDbLine
 10
56.26579963455109
 20
-102.0562672817923
 30
0.0
 11
54.43900471530799
 21
-102.0562672817923
 31
0.0
  0
LINE
  5
18AD
330
D
100
AcDbEntity
 67
     1
  8
AM_VIS
100
AcDbLine
 10
56.26579963455109
 20
-91.85626728179229
 30
0.0
 11
54.43900471530799
 21
-91.85626728179229
 31
0.0
  0
LINE
  5
18AE
330
D
100
AcDbEntity
 67
     1
  8
AM_VIS
100
AcDbLine
 10
56.26579963455109
 20
-101.9562672817923
 30
0.0
 11
56.26579963455109
 21
-102.0562672817923
 31
0.0
  0
LINE
  5
18AF
330
D
100
AcDbEntity
 67
     1
  8
AM_VIS
100
AcDbLine
 10
56.26579963455109
 20
-91.85626728179229
 30
0.0
 11
56.26579963455109
 21
-91.95626728179229
 31
0.0
  0
CIRCLE
  5
18B0
330
D
100
AcDbEntity
 67
     1
  8
AM_VIS
100
AcDbCircle
 10
51.26579963455109
 20
-96.95626728179231
 30
0.0
 40
0.5
  0
LINE
  5
18B1
330
D
100
AcDbEntity
 67
     1
  8
AM_VIS
100
AcDbLine
 10
43.76579963455109
 20
-91.95626728179229
 30
0.0
 11
31.76579963455109
 21
-91.95626728179229
 31
0.0
  0
LINE
  5
18B2
330
D
100
AcDbEntity
 67
     1
  8
AM_VIS
100
AcDbLine
 10
29.76672814526364
 20
-95.43919468854968
 30
0.0
 11
31.76656650257638
 21
-95.21021358768878
 31
0.0
  0
LINE
  5
18B3
330
D
100
AcDbEntity
 67
     1
  8
AM_VIS
100
AcDbLine
 10
29.76579963455109
 20
-94.35626728179228
 30
0.0
 11
31.76579963455109
 21
-94.35626728179228
 31
0.0
  0
LINE
  5
18B4
330
D
100
AcDbEntity
 67
     1
  8
AM_VIS
100
AcDbLine
 10
31.76579963455109
 20
-91.95626728179229
 30
0.0
 11
31.76579963455109
 21
-101.9562672817923
 31
0.0
  0
LINE
  5
18B5
330
D
100
AcDbEntity
 67
     1
  8
AM_VIS
100
AcDbLine
 10
43.76579963455109
 20
-101.9562672817923
 30
0.0
 11
31.76579963455109
 21
-101.9562672817923
 31
0.0
  0
LINE
  5
18B6
330
D
100
AcDbEntity
 67
     1
  8
AM_VIS
100
AcDbLine
 10
31.76579963455109
 20
-99.55626728179229
 30
0.0
 11
29.76579963455109
 21
-99.55626728179229
 31
0.0
  0
LINE
  5
18B7
330
D
100
AcDbEntity
 67
     1
  8
AM_VIS
100
AcDbLine
 10
29.76672814526364
 20
-98.47333987503491
 30
0.0
 11
31.76656650257638
 21
-98.7023209758958
 31
0.0
  0
LINE
  5
18B8
330
D
100
AcDbEntity
 67
     1
  8
AM_VIS
100
AcDbLine
 10
29.76579963455109
 20
-95.48657343612239
 30
0.0
 11
29.56579963455107
 21
-95.48657343612239
 31
0.0
  0
LINE
  5
18B9
330
D
100
AcDbEntity
 67
     1
  8
AM_VIS
100
AcDbLine
 10
29.56579963455107
 20
-98.42596112746221
 30
0.0
 11
29.76579963455109
 21
-98.42596112746221
 31
0.0
  0
CIRCLE
  5
18BA
330
D
100
AcDbEntity
 67
     1
  8
AM_VIS
100
AcDbCircle
 10
38.26579963455109
 20
-96.95626728179229
 30
0.0
 40
3.399999999999999
  0
CIRCLE
  5
18BB
330
D
100
AcDbEntity
 67
     1
  8
AM_VIS
100
AcDbCircle
 10
38.26579963455109
 20
-96.95626728179229
 30
0.0
 40
2.7
  0
CIRCLE
  5
18BC
330
D
100
AcDbEntity
 67
     1
  8
AM_VIS
100
AcDbCircle
 10
38.26579963455109
 20
-96.95626728179229
 30
0.0
 40
2.5
  0
CIRCLE
  5
18BD
330
D
100
AcDbEntity
 67
     1
  8
AM_VIS
100
AcDbCircle
 10
38.26579963455109
 20
-96.95626728179229
 30
0.0
 40
2.399999999999999
  0
LINE
  5
18BE
330
D
100
AcDbEntity
 67
     1
  8
AM_VIS
100
AcDbLine
 10
29.76579963455109
 20
-98.48144915274886
 30
0.0
 11
29.76579963455109
 21
-95.43108541083574
 31
0.0
  0
LINE
  5
18BF
330
D
100
AcDbEntity
 67
     1
  8
AM_VIS
100
AcDbLine
 10
29.76579963455109
 20
-95.43108541083572
 30
0.0
 11
29.76579963455109
 21
-94.35626728179228
 31
0.0
  0
LINE
  5
18C0
330
D
100
AcDbEntity
 67
     1
  8
AM_VIS
100
AcDbLine
 10
29.76579963455109
 20
-99.55626728179229
 30
0.0
 11
29.76579963455109
 21
-98.48144915274886
 31
0.0
  0
LINE
  5
18C1
330
D
100
AcDbEntity
 67
     1
  8
AM_VIS
100
AcDbLine
 10
29.5657996345511
 20
-98.42596112746221
 30
0.0
 11
29.5657996345511
 21
-95.48657343612239
 31
0.0
  0
LINE
  5
18C2
330
D
100
AcDbEntity
 67
     1
  8
AM_VIS
100
AcDbLine
 10
31.76579963455109
 20
-91.95626728179229
 30
0.0
 11
31.26579963455109
 21
-91.95626728179229
 31
0.0
  0
LINE
  5
18C3
330
D
100
AcDbEntity
 67
     1
  8
AM_VIS
100
AcDbLine
 10
31.26579963455106
 20
-101.9562672817923
 30
0.0
 11
31.76579963455109
 21
-101.9562672817923
 31
0.0
  0
LINE
  5
18C4
330
D
100
AcDbEntity
 67
     1
  8
AM_VIS
100
AcDbLine
 10
29.76579963455106
 20
-99.55626728179229
 30
0.0
 11
29.76579963455106
 21
-101.9562672817923
 31
0.0
  0
LINE
  5
18C5
330
D
100
AcDbEntity
 67
     1
  8
AM_VIS
100
AcDbLine
 10
31.26579963455106
 20
-101.9562672817923
 30
0.0
 11
31.26579963455109
 21
-99.55626728179229
 31
0.0
  0
LINE
  5
18C6
330
D
100
AcDbEntity
 67
     1
  8
AM_VIS
100
AcDbLine
 10
29.76579963455106
 20
-101.9562672817923
 30
0.0
 11
31.26579963455106
 21
-101.9562672817923
 31
0.0
  0
LINE
  5
18C7
330
D
100
AcDbEntity
 67
     1
  8
AM_VIS
100
AcDbLine
 10
29.76579963455109
 20
-91.95626728179229
 30
0.0
 11
29.76579963455109
 21
-94.35626728179229
 31
0.0
  0
LINE
  5
18C8
330
D
100
AcDbEntity
 67
     1
  8
AM_VIS
100
AcDbLine
 10
31.26579963455109
 20
-91.95626728179229
 30
0.0
 11
29.76579963455109
 21
-91.95626728179229
 31
0.0
  0
LINE
  5
18C9
330
D
100
AcDbEntity
 67
     1
  8
AM_VIS
100
AcDbLine
 10
31.26579963455109
 20
-94.35626728179229
 30
0.0
 11
31.26579963455109
 21
-91.95626728179229
 31
0.0
  0
LINE
  5
18CA
330
D
100
AcDbEntity
 67
     1
  8
AM_VIS
100
AcDbLine
 10
29.76579963455106
 20
-101.9562672817923
 30
0.0
 11
28.26579963455106
 21
-101.9562672817923
 31
0.0
  0
LINE
  5
18CB
330
D
100
AcDbEntity
 67
     1
  8
AM_VIS
100
AcDbLine
 10
28.26579963455106
 20
-101.9562672817923
 30
0.0
 11
28.26579963455106
 21
-91.95626728179231
 31
0.0
  0
LINE
  5
18CC
330
D
100
AcDbEntity
 67
     1
  8
AM_VIS
100
AcDbLine
 10
29.76579963455106
 20
-91.95626728179231
 30
0.0
 11
28.26579963455106
 21
-91.95626728179231
 31
0.0
  0
LINE
  5
18CD
330
D
100
AcDbEntity
 67
     1
  8
AM_VIS
100
AcDbLine
 10
26.76579963455109
 20
-92.95626728179231
 30
0.0
 11
28.26579963455109
 21
-91.95626728179231
 31
0.0
  0
LINE
  5
18CE
330
D
100
AcDbEntity
 67
     1
  8
AM_VIS
100
AcDbLine
 10
28.26579963455106
 20
-101.9562672817923
 30
0.0
 11
26.76579963455106
 21
-100.9562672817923
 31
0.0
  0
LINE
  5
18CF
330
D
100
AcDbEntity
 67
     1
  8
AM_VIS
100
AcDbLine
 10
26.76579963455106
 20
-93.20626728179231
 30
0.0
 11
23.26579963455106
 21
-93.20626728179231
 31
0.0
  0
LINE
  5
18D0
330
D
100
AcDbEntity
 67
     1
  8
AM_VIS
100
AcDbLine
 10
26.76579963455106
 20
-100.7062672817923
 30
0.0
 11
23.26579963455106
 21
-100.7062672817923
 31
0.0
  0
LINE
  5
18D1
330
D
100
AcDbEntity
 67
     1
  8
AM_VIS
100
AcDbLine
 10
22.26579963455106
 20
-93.8062672817923
 30
0.0
 11
22.26579963455106
 21
-100.1062672817923
 31
0.0
  0
LINE
  5
18D2
330
D
100
AcDbEntity
 67
     1
  8
AM_VIS
100
AcDbLine
 10
23.26579963455106
 20
-93.20626728179231
 30
0.0
 11
22.26579963455106
 21
-93.8062672817923
 31
0.0
  0
LINE
  5
18D3
330
D
100
AcDbEntity
 67
     1
  8
AM_VIS
100
AcDbLine
 10
23.26579963455106
 20
-100.7062672817923
 30
0.0
 11
23.26579963455106
 21
-93.20626728179229
 31
0.0
  0
LINE
  5
18D4
330
D
100
AcDbEntity
 67
     1
  8
AM_VIS
100
AcDbLine
 10
22.26579963455106
 20
-100.1062672817923
 30
0.0
 11
23.26579963455106
 21
-100.7062672817923
 31
0.0
  0
LINE
  5
18D5
330
D
100
AcDbEntity
 67
     1
  8
AM_VIS
100
AcDbLine
 10
26.76579963455106
 20
-92.95626728179231
 30
0.0
 11
26.76579963455106
 21
-100.9562672817923
 31
0.0
  0
LINE
  5
18D6
330
D
100
AcDbEntity
 67
     1
  8
AM_VIS
100
AcDbLine
 10
64.2157996345511
 20
-98.45626728179228
 30
0.0
 11
64.71122531961322
 21
-99.44711865191651
 31
0.0
  0
LINE
  5
18D7
330
D
100
AcDbEntity
 67
     1
  8
AM_VIS
100
AcDbLine
 10
64.2157996345511
 20
-95.45626728179227
 30
0.0
 11
64.71122531961319
 21
-94.46541591166807
 31
0.0
  0
LINE
  5
18D8
330
D
100
AcDbEntity
 67
     1
  8
AM_VIS
100
AcDbLine
 10
64.2157996345511
 20
-95.45626728179227
 30
0.0
 11
62.9657996345511
 21
-95.45626728179227
 31
0.0
  0
LINE
  5
18D9
330
D
100
AcDbEntity
 67
     1
  8
AM_VIS
100
AcDbLine
 10
64.2157996345511
 20
-98.45626728179228
 30
0.0
 11
62.9657996345511
 21
-98.45626728179228
 31
0.0
  0
LINE
  5
18DA
330
D
100
AcDbEntity
 67
     1
  8
AM_VIS
100
AcDbLine
 10
74.86579963455108
 20
-95.35626728179227
 30
0.0
 11
74.6685398758969
 21
-94.96174776448391
 31
0.0
  0
LINE
  5
18DB
330
D
100
AcDbEntity
 67
     1
  8
AM_VIS
100
AcDbLine
 10
74.86579963455108
 20
-98.55626728179229
 30
0.0
 11
74.6685398758969
 21
-98.95078679910069
 31
0.0
  0
LINE
  5
18DC
330
D
100
AcDbEntity
 67
     1
  8
AM_VIS
100
AcDbLine
 10
82.22550745447614
 20
-98.45626728179228
 30
0.0
 11
84.76579963455108
 21
-98.45626728179228
 31
0.0
  0
LINE
  5
18DD
330
D
100
AcDbEntity
 67
     1
  8
AM_VIS
100
AcDbLine
 10
82.22550745447618
 20
-95.45626728179227
 30
0.0
 11
84.76579963455108
 21
-95.45626728179227
 31
0.0
  0
LINE
  5
18DE
330
D
100
AcDbEntity
 67
     1
  8
AM_VIS
100
AcDbLine
 10
65.51579963455108
 20
-98.44623372436743
 30
0.0
 11
65.51579963455108
 21
-95.46630083921717
 31
0.0
  0
LINE
  5
18DF
330
D
100
AcDbEntity
 67
     1
  8
AM_VIS
100
AcDbLine
 10
64.91579963455109
 20
-94.5360400197361
 30
0.0
 11
64.91579963455109
 21
-99.37649454384848
 31
0.0
  0
LINE
  5
18E0
330
D
100
AcDbEntity
 67
     1
  8
AM_VIS
100
AcDbLine
 10
64.7157996345511
 20
-99.44574513869321
 30
0.0
 11
64.7157996345511
 21
-94.46678942489137
 31
0.0
  0
LINE
  5
18E1
330
D
100
AcDbEntity
 67
     1
  8
AM_VIS
100
AcDbLine
 10
64.2157996345511
 20
-95.45626728179227
 30
0.0
 11
64.2157996345511
 21
-98.45626728179228
 31
0.0
  0
LINE
  5
18E2
330
D
100
AcDbEntity
 67
     1
  8
AM_VIS
100
AcDbLine
 10
65.71579963455111
 20
-95.70726768211262
 30
0.0
 11
65.71579963455111
 21
-98.20526688147197
 31
0.0
  0
LINE
  5
18E3
330
D
100
AcDbEntity
 67
     1
  8
AM_VIS
100
AcDbLine
 10
74.41579963455109
 20
-94.87780631270963
 30
0.0
 11
74.41579963455109
 21
-99.03472825087495
 31
0.0
  0
LINE
  5
18E4
330
D
100
AcDbEntity
 67
     1
  8
AM_VIS
100
AcDbLine
 10
74.2157996345511
 20
-99.07758762535195
 30
0.0
 11
74.2157996345511
 21
-94.83494693823265
 31
0.0
  0
LINE
  5
18E5
330
D
100
AcDbEntity
 67
     1
  8
AM_VIS
100
AcDbLine
 10
73.61579963455108
 20
-94.82085163138604
 30
0.0
 11
73.61579963455108
 21
-99.09168293219856
 31
0.0
  0
ARC
  5
18E6
330
D
100
AcDbEntity
 67
     1
  8
AM_VIS
100
AcDbCircle
 10
65.2157996345511
 20
-94.65626728179229
 30
0.0
 40
0.3
100
AcDbArc
 50
158.1494316952461
 51
180.0
  0
ARC
  5
18E7
330
D
100
AcDbEntity
 67
     1
  8
AM_VIS
100
AcDbCircle
 10
65.2157996345511
 20
-99.2562672817923
 30
0.0
 40
0.3
100
AcDbArc
 50
180.0
 51
201.8505683047556
  0
DIMENSION
  5
18E8
102
{ACAD_XDICTIONARY
360
18E9
102
}
102
{ACAD_REACTORS
330
18EA
102
}
330
D
100
AcDbEntity
 67
     1
  8
AM_REFDIM
100
AcDbDimension
  2
*D61
 10
73.86579963455108
 20
-88.63057827557907
 30
0.0
 11
68.91579963455109
 21
-86.70557827557907
 31
0.0
 70
    32
 71
     5
 42
9.899999999999977
  3
AM_ISO$0
100
AcDbAlignedDimension
 13
63.9657996345511
 23
-92.3562672817923
 33
0.0
 14
73.86579963455108
 24
-92.80626728179228
 34
0.0
100
AcDbRotatedDimension
1001
ACAD
1000
DSTYLE
1002
{
1070
    40
1040
0.7
1002
}
  0
DIMENSION
  5
18EB
102
{ACAD_XDICTIONARY
360
18EC
102
}
102
{ACAD_REACTORS
330
18ED
102
}
330
D
100
AcDbEntity
 67
     1
  8
AM_REFDIM
100
AcDbDimension
  2
*D62
 10
83.76579963455112
 20
-88.63057827557907
 30
0.0
 11
78.81579963455109
 21
-86.70557827557907
 31
0.0
 70
    32
 71
     5
 42
9.900000000000034
  3
AM_ISO$0
100
AcDbAlignedDimension
 13
73.86579963455108
 23
-92.80626728179228
 33
0.0
 14
83.76579963455112
 24
-92.3562672817923
 34
0.0
100
AcDbRotatedDimension
1001
ACAD
1000
DSTYLE
1002
{
1070
    40
1040
0.7
1002
}
  0
ENDSEC
  0
SECTION
  2
OBJECTS
  0
DICTIONARY
  5
8
330
0
100
AcDbDictionary
281
     1
  3
ACAD_COLOR
350
2E
  3
ACAD_GROUP
350
2A
  3
ACAD_LAYOUT
350
C
  3
ACAD_MATERIAL
350
2D
  3
ACAD_MLINESTYLE
350
2B
  3
ACAD_PLOTSETTINGS
350
2C
  3
ACAD_PLOTSTYLENAME
350
7
  3
ACAD_TABLESTYLE
350
2F
  3
AcadDim
350
C40
  3
ACDBHEADERROUNDTRIPXREC
350
1A93
  3
AcDbVariableDictionary
350
43B
  3
AcmDictionary
350
49F
  3
AMG
350
448
  3
AMGSNAPSETTINGS
350
4DE
  3
DWGPROPS
350
1A92
  3
MAPISURF_MODULE
350
1268
  0
DICTIONARY
  5
16
330
14
100
AcDbDictionary
280
     1
281
     1
  3
ACAD_LAYERFILTERS
360
1A85
  3
ACAD_LAYERSTATES
360
18
  3
ACLYDICTIONARY
360
1A84
  0
DICTIONARY
  5
3
330
2
100
AcDbDictionary
280
     1
281
     1
  3
ACAD_INDEX
360
1A86
  0
DICTIONARY
  5
1A97
330
446
100
AcDbDictionary
280
     1
281
     1
  3
ACAD_XREC_ROUNDTRIP
360
1A98
  0
DICTIONARY
  5
18E9
330
18E8
100
AcDbDictionary
280
     1
281
     1
  3
ACAD_DIMASSOC
360
18EA
  0
DICTIONARY
  5
18EC
330
18EB
100
AcDbDictionary
280
     1
281
     1
  3
ACAD_DIMASSOC
360
18ED
  0
DICTIONARY
  5
2E
102
{ACAD_REACTORS
330
8
102
}
330
8
100
AcDbDictionary
281
     1
  0
DICTIONARY
  5
2A
102
{ACAD_REACTORS
330
8
102
}
330
8
100
AcDbDictionary
281
     1
  0
DICTIONARY
  5
C
102
{ACAD_REACTORS
330
8
102
}
330
8
100
AcDbDictionary
281
     1
  3
Model
350
B
  3
配置1
350
10
  0
DICTIONARY
  5
2D
102
{ACAD_REACTORS
330
8
102
}
330
8
100
AcDbDictionary
281
     1
  0
DICTIONARY
  5
2B
102
{ACAD_REACTORS
330
8
102
}
330
8
100
AcDbDictionary
281
     1
  3
STANDARD
350
31
  0
DICTIONARY
  5
2C
102
{ACAD_REACTORS
330
8
102
}
330
8
100
AcDbDictionary
281
     1
  0
ACDBDICTIONARYWDFLT
  5
7
102
{ACAD_REACTORS
330
8
102
}
330
8
100
AcDbDictionary
281
     1
  3
Normal
350
6
100
AcDbDictionaryWithDefault
340
6
  0
DICTIONARY
  5
2F
102
{ACAD_REACTORS
330
8
102
}
330
8
100
AcDbDictionary
281
     1
  3
Standard
350
32
  0
XRECORD
  5
C40
102
{ACAD_REACTORS
330
8
102
}
330
8
100
AcDbXrecord
280
     1
 90
   990106
  3

 60
     0
 61
     0
 62
     1
 63
     3
 64
     0
 65
     0
 66
     0
 67
     3
 68
     1
 69
     0
 70
     0
 71
     0
 72
     0
 40
0.0
170
     0
  0
DICTIONARY
  5
1A93
102
{ACAD_REACTORS
330
8
102
}
330
8
100
AcDbDictionary
281
     1
  0
DICTIONARY
  5
43B
102
{ACAD_REACTORS
330
8
102
}
330
8
100
AcDbDictionary
281
     1
  3
CTABLESTYLE
350
43C
  3
DIMASSOC
350
43E
  3
HIDETEXT
350
43D
  3
INDEXCTL
350
1A91
  3
PROJECTNAME
350
43F
  0
DICTIONARY
  5
49F
102
{ACAD_REACTORS
330
8
102
}
330
8
100
AcDbDictionary
281
     1
  3
AcmStdDictionary
350
4AC
  3
AMDTSECTSYM_ARROWCOLOR
350
4C9
  0
DICTIONARY
  5
448
102
{ACAD_REACTORS
330
8
102
}
330
8
100
AcDbDictionary
281
     1
  3
AcMgSettings
350
11E4
  0
DICTIONARY
  5
4DE
102
{ACAD_REACTORS
330
8
102
}
330
8
100
AcDbDictionary
281
     1
  0
XRECORD
  5
1A92
102
{ACAD_REACTORS
330
8
102
}
330
8
100
AcDbXrecord
280
     1
  1
DWGPROPS COOKIE
  2

  3

  4

  6

  7

  8

  9

300
AmdtFileType=84
301
=
302
=
303
=
304
=
305
=
306
=
307
=
308
=
309
=
 40
8.472701655092592
 41
2453568.378998276
 42
2455118.485429248
  1

 90
        1
  0
DICTIONARY
  5
1A85
102
{ACAD_REACTORS
330
16
102
}
330
16
100
AcDbDictionary
281
     1
  0
DICTIONARY
  5
18
102
{ACAD_REACTORS
330
16
102
}
330
16
100
AcDbDictionary
281
     1
  0
DICTIONARY
  5
1A84
102
{ACAD_REACTORS
330
16
102
}
330
16
100
AcDbDictionary
281
     1
1001
ACAD
1000
<All
  0
DICTIONARY
  5
1A86
102
{ACAD_REACTORS
330
3
102
}
330
3
100
AcDbDictionary
281
     1
  3
*A1
350
1A87
  0
XRECORD
  5
1A98
102
{ACAD_REACTORS
330
1A97
102
}
330
1A97
100
AcDbXrecord
280
     1
102
SHADEPLOT
 70
     0
  0
DIMASSOC
  5
18EA
102
{ACAD_REACTORS
330
18E9
102
}
330
18E9
100
AcDbDimAssoc
330
18E8
 90
        3
 70
     0
 71
     0
  1
AcDbOsnapPointRef
 72
     1
331
16C6
 73
     0
 91
        0
 40
0.0
 10
0.0
 20
0.0
 30
2.000000000000000E+50
 75
     0
  1
AcDbOsnapPointRef
 72
     1
331
16BA
 73
     0
 91
        0
 40
0.0
 10
0.0
 20
0.0
 30
2.000000000000000E+50
 75
     0
  0
DIMASSOC
  5
18ED
102
{ACAD_REACTORS
330
18EC
102
}
330
18EC
100
AcDbDimAssoc
330
18EB
 90
        3
 70
     0
 71
     0
  1
AcDbOsnapPointRef
 72
     1
331
16BA
 73
     0
 91
        0
 40
0.0
 10
0.0
 20
0.0
 30
2.000000000000000E+50
 75
     0
  1
AcDbOsnapPointRef
 72
     1
331
16C0
 73
     0
 91
        0
 40
0.0
 10
0.0
 20
0.0
 30
2.000000000000000E+50
 75
     0
  0
LAYOUT
  5
B
102
{ACAD_XDICTIONARY
360
1A94
102
}
102
{ACAD_REACTORS
330
C
102
}
330
C
100
AcDbPlotSettings
  1

  2
\\NOVIBDC\HPLJ4-TPUB
  4

  6

 40
0.0
 41
0.0
 42
0.0
 43
0.0
 44
0.0
 45
0.0
 46
0.0
 47
0.0
 48
0.0
 49
0.0
140
0.0
141
0.0
142
1.0
143
1.0
 70
  1712
 72
     0
 73
     0
 74
     0
  7

 75
     0
147
1.0
148
0.0
149
0.0
100
AcDbLayout
  1
Model
 70
     1
 71
     0
 10
0.0
 20
0.0
 11
12.0
 21
9.0
 12
0.0
 22
0.0
 32
0.0
 14
0.0
 24
0.0
 34
0.0
 15
0.0
 25
0.0
 35
0.0
146
0.0
 13
0.0
 23
0.0
 33
0.0
 16
1.0
 26
0.0
 36
0.0
 17
0.0
 27
1.0
 37
0.0
 76
     0
330
2
  0
LAYOUT
  5
10
102
{ACAD_XDICTIONARY
360
11
102
}
102
{ACAD_REACTORS
330
C
102
}
330
C
100
AcDbPlotSettings
  1

  2
iR3300影印機.pc3
  4
A4
  6

 40
6.805083274841308
 41
5.619736671447753
 42
6.974411010742187
 43
5.027069091796875
 44
209.9733276367187
 45
296.9259948730469
 46
6.141935057014791
 47
0.0
 48
0.0
 49
0.0
140
0.0
141
0.0
142
1.0
143
1.087488662820024
 70
   692
 72
     1
 73
     1
 74
     1
  7
單色出圖.ctb
 75
     0
147
0.9195498161855288
148
91.30435470139572
149
147.715610024458
100
AcDbLayout
  1
配置1
 70
     1
 71
     1
 10
-96.77123534593777
 20
-161.7953456776746
 11
226.1324177750574
 21
66.54826762185155
 12
0.0
 22
0.0
 32
0.0
 14
-46.10567262957033
 24
-131.5764706274002
 34
-0.0019983784608826
 15
187.6614754344714
 25
38.43736308994846
 35
111.3994672812402
146
0.0
 13
0.0
 23
0.0
 33
0.0
 16
1.0
 26
0.0
 36
0.0
 17
0.0
 27
1.0
 37
0.0
 76
     0
330
D
331
446
1001
ACAD_PSEXT
1000
iR3300影印機.pc3
1000
Canon iR2200-3300 PCL5e
1000
\\RDs1
1000

1070
     0
  0
MLINESTYLE
  5
31
102
{ACAD_REACTORS
330
2B
102
}
330
2B
100
AcDbMlineStyle
  2
STANDARD
 70
     0
  3

 62
     0
 51
90.0
 52
90.0
 71
     2
 49
0.5
 62
   256
  6
BYLAYER
 49
-0.5
 62
   256
  6
BYLAYER
  0
ACDBPLACEHOLDER
  5
6
102
{ACAD_REACTORS
330
7
102
}
330
7
  0
TABLESTYLE
  5
32
102
{ACAD_REACTORS
330
2F
102
}
330
2F
100
AcDbTableStyle
  3
Standard
 70
     0
 71
     0
 40
0.06
 41
0.06
280
     0
281
     0
  7
STANDARD
140
0.18
170
     2
 62
     0
 63
     7
283
     0
274
    -2
284
     1
 64
     0
275
    -2
285
     1
 65
     0
276
    -2
286
     1
 66
     0
277
    -2
287
     1
 67
     0
278
    -2
288
     1
 68
     0
279
    -2
289
     1
 69
     0
  7
STANDARD
140
0.25
170
     5
 62
     0
 63
     7
283
     0
274
    -2
284
     1
 64
     0
275
    -2
285
     1
 65
     0
276
    -2
286
     1
 66
     0
277
    -2
287
     1
 67
     0
278
    -2
288
     1
 68
     0
279
    -2
289
     1
 69
     0
  7
STANDARD
140
0.18
170
     5
 62
     0
 63
     7
283
     0
274
    -2
284
     1
 64
     0
275
    -2
285
     1
 65
     0
276
    -2
286
     1
 66
     0
277
    -2
287
     1
 67
     0
278
    -2
288
     1
 68
     0
279
    -2
289
     1
 69
     0
  0
DICTIONARYVAR
  5
43C
102
{ACAD_REACTORS
330
43B
102
}
330
43B
100
DictionaryVariables
280
     0
  1
STANDARD
  0
DICTIONARYVAR
  5
43E
102
{ACAD_REACTORS
330
43B
102
}
330
43B
100
DictionaryVariables
280
     0
  1
2
  0
DICTIONARYVAR
  5
43D
102
{ACAD_REACTORS
330
43B
102
}
330
43B
100
DictionaryVariables
280
     0
  1
1
  0
DICTIONARYVAR
  5
1A91
102
{ACAD_REACTORS
330
43B
102
}
330
43B
100
DictionaryVariables
280
     0
  1
1
  0
DICTIONARYVAR
  5
43F
102
{ACAD_REACTORS
330
43B
102
}
330
43B
100
DictionaryVariables
280
     0
  1

  0
DICTIONARY
  5
4AC
102
{ACAD_REACTORS
330
49F
102
}
330
49F
100
AcDbDictionary
281
     1
  0
XRECORD
  5
4C9
102
{ACAD_REACTORS
330
49F
102
}
330
49F
100
AcDbXrecord
280
     1
 90
-1023410169
  0
DICTIONARY
  5
11E4
102
{ACAD_REACTORS
330
448
102
}
330
448
100
AcDbDictionary
281
     1
  3
DWGSETTINGS
350
11E5
  3
TRANSSETTINGS
350
11E8
  0
LAYER_INDEX
  5
1A87
102
{ACAD_REACTORS
330
1A86
102
}
330
1A86
100
AcDbIndex
 40
2455118.485429248
100
AcDbLayerIndex
  8
0
360
1A88
 90
        0
  8
TB
360
1A89
 90
        0
  8
AM_VIS
360
1A8A
 90
        0
  8
AM_7
360
1A8B
 90
        0
  8
AM_4
360
1A8C
 90
        0
  8
AM_5
360
1A8D
 90
        0
  8
LOGO
360
1A8E
 90
        0
  8
Defpoints
360
1A8F
 90
        0
  8
AM_REFDIM
360
1A90
 90
        0
  0
DICTIONARY
  5
1A94
330
B
100
AcDbDictionary
280
     1
281
     1
  3
ACAD_XREC_ROUNDTRIP
360
1A95
  0
DICTIONARY
  5
11
330
10
100
AcDbDictionary
280
     1
281
     1
  3
ACAD_XREC_ROUNDTRIP
360
1A96
  3
ADSK_XREC_LAYOUTTHUMBNAIL
360
12
  0
IDBUFFER
  5
1A88
330
0
100
AcDbIdBuffer
  0
IDBUFFER
  5
1A89
330
0
100
AcDbIdBuffer
  0
IDBUFFER
  5
1A8A
330
0
100
AcDbIdBuffer
  0
IDBUFFER
  5
1A8B
330
0
100
AcDbIdBuffer
  0
IDBUFFER
  5
1A8C
330
0
100
AcDbIdBuffer
  0
IDBUFFER
  5
1A8D
330
0
100
AcDbIdBuffer
  0
IDBUFFER
  5
1A8E
330
0
100
AcDbIdBuffer
  0
IDBUFFER
  5
1A8F
330
0
100
AcDbIdBuffer
  0
IDBUFFER
  5
1A90
330
0
100
AcDbIdBuffer
  0
XRECORD
  5
1A95
102
{ACAD_REACTORS
330
1A94
102
}
330
1A94
100
AcDbXrecord
280
     1
102
SHADEPLOT
 70
     0
102
SHADEPLOTRESLEVEL
 70
     2
102
SHADEPLOTCUSTOMDPI
 70
   300
  0
XRECORD
  5
1A96
102
{ACAD_REACTORS
330
11
102
}
330
11
100
AcDbXrecord
280
     1
102
SHADEPLOT
 70
     0
102
SHADEPLOTRESLEVEL
 70
     2
102
SHADEPLOTCUSTOMDPI
 70
   300
  0
XRECORD
  5
12
102
{ACAD_REACTORS
330
11
102
}
330
11
100
AcDbXrecord
280
     1
310
28000000B40000007F00000001000800000000004C59000000000000000000000001000000000000FFFFFF0000000000FFFFFF000000000000000000000000000000000000000000000000000000000000000000330000006600000099000000CC000000FF00000000330000333300006633000099330000CC330000FF3300
310
0000660000336600006666000099660000CC660000FF66000000990000339900006699000099990000CC990000FF99000000CC000033CC000066CC000099CC0000CCCC0000FFCC000000FF000033FF000066FF000099FF0000CCFF0000FFFF000000003300330033006600330099003300CC003300FF003300003333003333
310
33006633330099333300CC333300FF33330000663300336633006666330099663300CC663300FF66330000993300339933006699330099993300CC993300FF99330000CC330033CC330066CC330099CC3300CCCC3300FFCC330000FF330033FF330066FF330099FF3300CCFF3300FFFF330000006600330066006600660099
310
006600CC006600FF00660000336600333366006633660099336600CC336600FF33660000666600336666006666660099666600CC666600FF66660000996600339966006699660099996600CC996600FF99660000CC660033CC660066CC660099CC6600CCCC6600FFCC660000FF660033FF660066FF660099FF6600CCFF6600
310
FFFF660000009900330099006600990099009900CC009900FF00990000339900333399006633990099339900CC339900FF33990000669900336699006666990099669900CC669900FF66990000999900339999006699990099999900CC999900FF99990000CC990033CC990066CC990099CC9900CCCC9900FFCC990000FF99
310
0033FF990066FF990099FF9900CCFF9900FFFF99000000CC003300CC006600CC009900CC00CC00CC00FF00CC000033CC003333CC006633CC009933CC00CC33CC00FF33CC000066CC003366CC006666CC009966CC00CC66CC00FF66CC000099CC003399CC006699CC009999CC00CC99CC00FF99CC0000CCCC0033CCCC0066CC
310
CC0099CCCC00CCCCCC00FFCCCC0000FFCC0033FFCC0066FFCC0099FFCC00CCFFCC00FFFFCC000000FF003300FF006600FF009900FF00CC00FF00FF00FF000033FF003333FF006633FF009933FF00CC33FF00FF33FF000066FF003366FF006666FF009966FF00CC66FF00FF66FF000099FF003399FF006699FF009999FF00CC
310
99FF00FF99FF0000CCFF0033CCFF0066CCFF0099CCFF00CCCCFF00FFCCFF0000FFFF0033FFFF0066FFFF0099FFFF00CCFFFF00FFFFFF00000000000D0D0D001A1A1A00282828003535350043434300505050005D5D5D006B6B6B00787878008686860093939300A1A1A100AEAEAE00BBBBBB00C9C9C900D6D6D600E4E4E400
310
F1F1F100FFFFFF0000000000000000000000000000000000000000000000000000000000000000000000000000000000E2E2E2E2E2E2E2E2E2E2E2E2E2E2E2E2E2E2E2E2E2E2E2E2E2E2E2E2E2E2E2E2E2E2E2E2E2E2E2E2E2E2E2E2E2E2E2E2E2E2E2E2E2E2E2E2E2E2E2E2E2E2E2E2E2E2E2E2E2E2E2E2E2E2E2E2E2E2E2
310
E2E2E2E2E2E2E2E2E2E2E2E2E2E2E2E2E2E2E2E2E2E2E2E2E2E2E2E2E2E2E2E2E2E2E2E2E2E2E2E2E2E2E2E2E2E2E2E2E2E2E2E2E2E2E2E2E2E2E2E2E2E2E2E2E2E2E2E2E2E2E2E2E2E2E2E2E2E2E2E2E2E2E2E2E2E2E2E2E2E2E2E2E2E2E2E2E2E2E2E2E2E2F5F5F5F5F5F5F5F5F5F5F5F5F5F5F5F5F5F5F5F5F5F5F5F5F5
310
F5F5F5F5F5F5F5F5F5F5F5F5F5F5F5F5F5F5F5F5F5F5F5F5F5F5F5F5F5F5F5F5F5F5F5F5F5F5F5F5F5F5F5F5F5F5F5F5F5F5F5F5F5F5F5F5F5F5F5F5F5F5F5F5F5F5F5F5F5F5F5F5F5F5F5F5F5F5F5F5F5F5F5F5F5F5F5F5F5F5F5F5F5F5F5F5F5F5F5F5F5F5F5F5F5F5F5F5F5F5F5F5F5F5F5F5F5F5F5F5F5F5F5F5F5F5F5
310
F5F5F5F5F5F5F5F5F5F5F5F5F5F5F5F5F5F5F5F5F5F5F5F5F5F5E2E2F5F5F5F5F5F5F5F5F5F5F5F5F5F5F5F5F5F5F5F5F5F5F5F5F5F5F5F5F5F5F5F5F5F5F5F5F5F5F5F5F5F5F5F5F5F5F5F5F5F5F5F5F5F5F5F5F5F5F5F5F5F5F5F5F5F5F5F5F5F5F5F5F5F5F5F5F5F5F5F5F5F5F5F5F5F5F5F5F5F5F5F5F5F5F5F5F5F5F5
310
F5F5F5F5F5F5F5F5F5F5F5F5F5F5F5F5F5F5F5F5F5F5F5F5F5F5F5F5F5F5F5F5F5F5F5F5F5F5F5F5F5F5F5F5F5F5F5F5F5F5F5F5F5F5F5F5F5F5F5F5F5F5F5F5F5F5F5F5F5F5F5F5F5F5F5F5F5F5F5E2E2F5F5F5F5F5F5F5F5F5F5F5F5F5F5F5F5F5F5F5F5F5F5F5F5F5F5F5F5F5F5F5F5F5F5F5F5F5F5F5F5F5F5F5F5F5F5
310
F5F5F5F5F5F5F5F5F5F5F5F5F5F5F5F5F5F5F5F5F5F5F5F5F5F5F5F5F5F5F5F5F5F5F5F5F5F5F5F5F5F5F5F5F5F5F5F5F5F5F5F5F5F5F5F5F5F5F5F5F5F5F5F5F5F5F5F5F5F5F5F5F5F5F5F5F5F5F5F5F5F5F5F5F5F5F5F5F5F5F5F5F5F5F5F5F5F5F5F5F5F5F5F5F5F5F5F5F5F5F5F5F5F5F5F5F5F5F5F5F5F5F5F5F5F5F5
310
F5F5F5F5F5E2E2F5F5E2E2E2E2E2E2E2E2F5F5F5F5F5F5F5F5F5E2E2E2E2E2E2E2E2E2E2E2E2E2E2E2E2F5F5F5F5F5F5F5F5F5E2E2E2E2E2E2E2E2E2E2E2E2E2E2E2E2F5F5F5F5F5F5F5F5E2E2E2E2E2E2E2E2E2E2E2E2E2E2E2E2F5F5F5F5F5F5F5F5F5E2E2E2E2E2E2E2E2E2E2E2E2E2E2E2E2F5F5F5F5F5F5F5F5E2E2E2
310
E2E2E2E2E2E2E2E2E2E2E2E2E2F5F5F5F5F5F5F5F5F5E2E2E2E2E2E2E2E2E2E2E2E2E2E2E2E2F5F5F5F5F5F5F5F5F5E2E2E2E2E2E2E2E2F5F5F5E2E2F5F5E2F5F5F5F5F5F5F5F5F5F5F5F5F5F5F5F5F5F5F5F5F5F5F5F5F5F5F5F5F5F5F5F5F5F5F5F5F5F5F5F5F5F5F5F5F5F5F5F5F5F5F5F5F5F5F5F5F5F5F5F5F5F5F5F5
310
F5F5F5F5F5F5F5F5F5F5F5F5F5F5F5F5F5F5F5F5F5F5F5F5F5F5F5F5F5F5F5F5F5F5F5F5F5F5F5F5F5F5F5F5F5F5F5F5F5F5F5F5F5F5F5F5F5F5F5F5F5F5F5F5F5F5F5F5F5F5F5F5F5F5F5F5F5F5F5F5F5F5F5F5F5F5F5F5F5F5F5F5F5F5F5F5F5F5F5F5F5F5F5F5F5F5F5E2F5F5F5E2E2F5F5E2F5F5F5F5F5F5F5F5F5F5F5
310
F5F5F5F5F5F5F5F5F5F5F5F5F5F5F5F5F5F5F5F5F5F5F5F5F5F5F5F5F5F5F5F5F5F5F5F5F5F5F5F5F5F5F5F5F5F5F5F5F5F5F5F5F5F5F5F5F5F5F5F5F5F5F5F5F5F5F5F5F5F5F5F5F5F5F5F5F5F5F5F5F5F5F5F5F5F5F5F5F5F5F5F5F5F5F5F5F5F5F5F5F5F5F5F5F5F5F5F5F5F5F5F5F5F5F5F5F5F5F5F5F5F5F5F5F5F5F5
310
F5F5F5F5F5F5F5F5F5F5F5F5F5F5F5F5F5F5F5F5F5F5F5F5F5F5F5F5F5F5F5F5F5E2F5F5F5E2E2F5F5E2F5F5F5F5F5F5F5F5F5F5F5F5F5F5F5F5F5F5F5F5F5F5F5F5F5F5F5F5F5F5F5F5F5F5F5F5F5F5F5F5F5F5F5F5F5F5F5F5F5F5F5F5F5F5F5F5F5F5F5F5F5F5F5F5F5F5F5F5F5F5F5F5F5F5F5F5F5F5F5F5F5F5F5F5F5
310
F5F5F5F5F5F5F5F5F5F5F5F5F5F5F5F5F5F5F5F5F5F5F5F5F5F5F5F5F5F5F5F5F5F5F5F5F5F5F5F5F5F5F5F5F5F5F5F5F5F5F5F5F5F5F5F5F5F5F5F5F5F5F5F5F5F5F5F5F5F5F5F5F5F5F5F5F5F5F5F5F5F5F5F5F5F5E2F5F5F5E2E2F5F5E2F5F5F5F5F5F5F5F5F5F5F5F5F5F5F5F5F5F5F5F5E2E2E2E2E2E2E22DE2E2E2E2
310
E2E2E2E22DE2E2E2E2E2E2E2E2E2E2E2E2E22D2D2D2D2D2D2D2D2D2D2D2D2D2D2D2D2D2D2D2D2D2D2D2D2D2D2D2D2D2D2D2D2D2D2D2D2D2D2D2D2D2D2D2D2D2D2D2D2D2D2D2D2D2D2D2D2D2D2D2D2D2D2D2D2D2D2D2D2D2D2D2D2D2D2D2D2D2D2D2D2D2D2D2D2D2D2D2D2D2D2D2D2D2D2D2D2D2D2D2D2D2D2D2D2D2D2D2D2D
310
2D2D2D2D2D2D2D2D2D2D2D2D2DF5F5F5E2E2F5F5E2F5F5F5F5F5F5F5F5F5F5F5F5F5F5F5F5F5F5F5F5E2E2E2E2E2E2E2F5E2E2E2E2E2E2E2E2F5E2E2F5E2E2E2F5E2E2E2E2E2E22DF5F5F5F5F5F5F5F52DE2E2E2E22D2DE2E2E2E2E2E22D2DE22DE2E22D2D2DE2E2E2E2E2E2E2E2E22D2D2DE2E2E2E22DF5F5F5F5F5F5F5F5
310
F5F5F5F5F5F5F5F5F5F5F5F5F5F5F5F5F5F5F5F5F5F5F5F5F5F5F5F5F5F5F5F5F5F5F5F5F5F5F5F5F5F5F5F5F5F5F5F5F5F5F5F5F5F5F5F5F5F5F5F5F5F5F5F5F52DF5F5F5E2E2F5F5E2F5F5F5F5F5F5F5F5F5F5F5F5F5F5F5F5F5F5F5F52DF5F5F5E2E2E2E2E2E2E2E2E2E2E2E2E2E2E2E2E2F5F5F52D2D2D2D2D2D2DF5F5
310
F5F5F5F5F5F52DE2E2E2E22D2DE2E2E2E2E2E22D2DE2E2E2E22D2DF5E2E2E2E2E2E2E2E2E22D2DE2E2E2E2E22DF5F5F5F5F5F5F5F5F5F5F5F5F5F5F5F5F5F5F5F5F5F5F5F5F5F5F5F5F5F5F5F5F5F5F5F5F5F5F5F5F5F5F5F5F5F5F5F5F5F5F5F5F5F5F5F5F5F5F5F5F5F5F5F5F5F5F5F5F5F5F5F5F52DF5F5F5E2E2F5F5E2
310
F5F5F5F5F5F5F5F5F5F5F5F5F5F5F5F5F5F5F5F52DF5F5F5E2E2E2E2E2E2E2E2E2E2E2E2E2E2E2E2E2F5F5F52DF5F5F5F5F5F5F5F5F5F5F5F5F5F52DE2E2E2E22D2DE2E2E2E2E2E22DE2E2E2E2E22D2DF5F5F5E2E2E2E2F5F5F52D2DF5E2E2E2E22DF5F5F5F5F5F5F5F5F5F5F5F5F5F5F5F5F5F5F5F5F5F5F5F5F5F5F5F5F5
310
F5F5F5F5F5F5F5F5F5F5F5F5F5F5F5F5F5F5F5F5F5F5F5F5F5F5F5F5F5F5F5F5F5F5F5F5F5F5F5F5F5F5F5F52DF5F5F5E2E2F5F5F5F5F5F5F5F5F5F5F5F5F5F5F5F5F5F5F5F5F5F5F50F0F0F0F0F0F0F0F2D2D2D2D2D2D2D2D2D2D2D2D2D2D2D2D2DF5F5F5F5F5F5F5F5F5F5F5F5F5F52DE2E2E2E22D2DE2E2E2E2E2E22D2D
310
E2E2E2E22D2DF5F5F5E2E2E2E2F5F5F52D2DF5E2E2E2E22DF5F5F5F5F5F5F5F5F5F5F5F5F5F5F5F5F5F5F5F5F5F5F5F5F5F5F5F5F5F5F5F5F5F5F5F5F5F5F5F5F5F5F5F5F5F5F5F5F5F5F5F5F5F5F5F5F5F5F5F5F5F5F5F5F5F5F5F5F5F5F5F5F52DF5F5F5E2E2F5F5F5F5F5F5F5F5F5F5F5F5F5F5F5F5F5F5F5F5F5F5F52D
310
0F0F0F0F0F0F0F2DE2E2F5E2E2E2E22DF5F5E2E2E2F5F52DF5F5F5F5F5F5F5F5F5F5E2F5F5F52D2D2D2D2D2D2D2D2D2D2D2D2D2D2D2D2D2D2D2D2D2D2D2D2D2D2D2D2D2D2D2D2D2D2D2D2D2D2DF5F5F5F5F5F5F5F5F5F5F5F5F5F5F5F5F5F5F5F5F5F5F5F5F5F5F5F5F5F5F5F5F5F5F5F5F5F5F5F5F5F5F5F5F5F5F5F5F5F5
310
F5F5F5F5F5F5F5F5F5F5F5F5F5F5F5F5F5F5F5F5F5F5F52DF5F5F5E2E2F5F5F5F5F5F5F5F5F5F5F5F5F5F5F5F5F5F5F5F5F5F5F52DDC0F0FDCF5DC0F2DE2E22DE2E2E2E22D2D2D2D2D2D2D2D2DE2E2E2E2F5E2E2E2E2E2E2E2E2E22D2D2D2D2D2D2D2D2D2D2D2D2D2D2D2D2D2D2D2D2D2D2D2D2D2D2D2D2DF5F52D2D2D2D2D
310
2DF5F5F5F5F5F5F5F5F5F5F5F5F5F5F5F5F5F5F5F5F5F5F5F5F5F5F5F5F5F5F5F5F5F5F5F5F5F5F5F5F5F5F5F5F5F5F5F5F5F5F5F5F5F5F5F5F5F5F5F5F5F5F5F5F5F5F5F5F5F5F5F5F5F5F52DF5F5F5E2E2F5F5F5F5F5F5F5F5F5F5F5F5F5F5F5F5F5F5F5F5F5F5F52D0FDC0FDC0FDC0FE2E2E2F5F5E2E2E2E2F5E2E2E2E2
310
E2F52DE2E2E2E2E2E2E2E2E2E2E2E2E2E22DE2E2E2F5E2E2E2F52DF52DE2E2E2E2E2F5F52DE22D2DE2E2E2E2E22DF5F52DF5E2F5F52DF5F5F5F5F5F5F5F5F5F5F5F5F5F5F5F5F5F5F5F5F5F5F5F5F5F5F5F5F5F5F5F5F5F5F5F5F5F5F5F5F5F5F5F5F5F5F5F5F5F5F5F5F5F5F5F5F5F5F5F5F5F5F5F5F5F5F5F5F5F5F5F5F5
310
F5F52DF5F5F5E2E2F5F5F5F5F5F5F5F5F5F5F5F5F5F5F5F5F5F5F5F5F5F5F52DF5DC0F0FDC0F0FE2E2E2F5E2E2E2E2E2F5E2E2E2E2E2E22DE2E2E2E2E2E2E2E2E2F5F5F5F5F52DE2E2E2E2E2E2E2F5E2E22DE2E2E2E2E2E2E2E2E22D2DE2F5E2E2F5E2E2E22DF5E2E2F52DF5F5F5F5F5F5F5F5F5F5F5F5F5F5F5F5F5F5F5F5
310
F5F5F5F5F5F5F5F5F5F5F5F5F5F5F5F5F5F5F5F5F5F5F5F5F5F5F5F5F5F5F5F5F5F5F5F5F5F5F5F5F5F5F5F5F5F5F5F5F5F5F5F5F5F5F52DF5F5F5E2E2F5F5F5F5F5F5F5F5F5F5F5F5F5F5F5F5F5F5F5F5F5F5F52DF50FDCDCDC0F0F2DE2E2E2E2E2E2E22D2DE22DE22DE22D2DE2E2E2E2E2E2E2E2E2F5E2F5F5F52DE2E2E2
310
E2E2E2F5E22DF52DE2E2E2E2E2F5F52DE22D2DE2E2E2E2E2E2F5F52DF5E2E2F52DF5F5F5F5F5F5F5F5F5F5F5F5F5F5F5F5F5F5F5F5F5F5F5F5F5F5F5F5F5F5F5F5F5F5F5F5F5F5F5F5F5F5F5F5F5F5F5F5F5F5F5F5F5F5F5F5F5F5F5F5F5F5F5F5F5F5F5F5F5F5F5F5F5F5F52DF5F5F5E2E2F5F5F5F5F5F5F5F5F5F5F5F5F5
310
F5F5F5F5F5F5F5F5F5F52DF5F5DCDC0FDC0F2DE2E2E2E2E2E2E22DF5E2F5E2F5E2F52DE2E2E2E2E2E2E2E2E2F5E2F5F5F52D2D2D2D2D2D2D2D2D2DF52D2D2D2D2D2DF5F52D2D2D2D2D2D2D2D2D2DF5F52D2D2D2D2D2DF5F5F5F5F5F5F5F5F5F5F5F5F5F5F5F5F5F5F5F5F5F5F5F5F5F5F5F5F5F5F5F5F5F5F5F5F5F5F5F5F5
310
F5F5F5F5F5F5F5F5F5F5F5F5F5F5F5F5F5F5F5F5F5F5F5F5F5F5F5F5F5F5F5F5F5F52DF5F5F5E2E2F5F5F5F5F5F5F5F5F5F5F5F5F5F5F5F5F5F5F5F5F5F5F52D2D2D0FDC2DDC0F2D2D2D2D2D2D2D2D2D2D2D2D2D2D2D2D2D2D2D2D2D2D2D2D2D2D2D2D2D2D2D2D2D2D2D2D2D2D2D2D2D2D2D2D2D2D2D2D2D2D2D2D2D2D2D2D
310
2D2D2D2D2D2D2D2D2D2D2D2D2D2D2D2D2D2D2D2D2D2D2D2D2D2D2D2D2D2D2D2D2D2D2D2D2D2D2D2D2D2D2D2D2D2D2D2D2D2D2D2D2D2D2D2D2D2D2D2D2D2D2D2D2D2D2D2D2D2D2D2D2D2D2D2D2D2D2D2D2D2D2D2D2D2D2D2DF5F5F5E2E2F5F5F5F5F5F5F5F5F5F5F5F5F5F5F5F5F5F5F5F5F5F5F52DF5F5F5F5F5F5F5F5F5F5
310
F5F5F5F5F5F5F5F5F5F5F5F5F5F5F5F5F5F5F5F5F5F5F5F5F5F5F5F5F5F5F5F5F5F5F5F5F5F5F5F5F5F5F5F5F5F5F5F5F5F5F5F5F5F5F5F5F5F5F5F5F5F5F5F5F5F5F5F5F5F5F5F5F5F5F5F5F5F5F5F5F5F5F5F5F5F5F5F5F5F5F5F5F5F5F5F5F5F5F5F5F5F5F5F5F5F5F5F5F5F5F5F5F5F5F5F5F5F5F5F5F5F5F5F5F5F5F5
310
F5F5F5F5F5F5F5F5F5F5F5F5F52DF5F5F5E2E2F5F5E2F5F5F5F5F5F5F5F5F5F5F5F5F5F5F5F5F5F5F5F52DF5F5F5F5F5F5F5F5F5F5F5F5F5F5F5F5F5F5F5F5F5F5F5F5F5F5F5F5F5F5F5F5F5F5F5F5F5F5F5F5F5F5F5F5F5F5F5F5F5F5F5F5F5F5F5F5F5F5F5F5F5F5F5F5F5F5F5F5F5F5F5F5F5F5F5F5F5F5F5F5F5F5F5F5
310
F5F5F5F5F5F5F5F5F5F5F5F5F5F5F5F5F5F5F5F5F5F5F5F5F5F5F5F5F5F5F5F5F5F5F5F5F5F5F5F5F5F5F5F5F5F5F5F5F5F5F5F5F5F5F5F5F5F5F5F5F5F5F5F5F5F52DF5F5F5E2E2F5F5E2F5F5F5F5F5F5F5F5F5F5F5F5F5F5F5F5F5F5F5F52DF5F5F5F5F5F5F5F5F5F5F5F5F5F5F5F5F5F5F5F5F5F5F5F5F5F5F5F5F5F5F5
310
F5F5F5F5F5F5F5F5F5F5F5F5F5F5F5F5F5F5F5F5F5F5F5F5F5F5F5F5F5F5F5F5F5F5F5F5F5F5F5F5F5F5F5F5F5F5F5F5F5F5F5F5F5F5F5F5F5F5F5F5F5F5F5F5F5F5F5F5F5F5F5F5F5F5F5F5F5F5F5F5F5F5F5F5F5F5F5F5F5F5F5F5F5F5F5F5F5F5F5F5F5F5F5F5F5F5F5F5F5F5F5F5F5F5F5F5F5F5F52DF5F5F5E2E2F5F5
310
E2F5F5F5F5F5F5F5F5F5F5F5F5F5F5F5F5F5F5F5F52DF5F5F5F5F5F5F5F5F5F5F5F5F5F5F5F5F5F5F5F5F5F5F5F5F5F5F5F5F5F5F5F5F5F5F5F5F5F5F5F5F5F5F5F5F5F5F5F5F5F5F5F5F5F5F5F5F5F5F5F5F5F5F5F5F5F5F5F5F5F5F5F5F5F5F5F5F5F5F5F5F5F5F5F5F5F5F5F5F5F5F5F5F5F5F5F5F5F5F5F5F5F5F5F5F5
310
F5F5F5F5F5F5F5F5F5F5F5F5F5F5F5F5F5F5F5F5F5F5F5F5F5F5F5F5F5F5F5F5F5F5F5F5F5F5F5F5F5F5F5F5F52DF5F5F5E2E2F5F5E2F5F5F5F5F5F5F5F5F5F5F5F5F5F5F5F5F5F5F5F52DF5F5F5F5F5F5F5F5F5F5F5F5F5F5F5F5F5F5F5F5F5F5F5F5F5F5F5F5F5F5F5F5F5F5F5F5F5F5F5F5F5F5F5F5F5F5F5F5F5F5F5F5
310
F5F5F5F5F5F5F5F5F5F5F5F5F5F5F5F5F5F5F5F5F5F5F5F5F5F5F5F5F5F5F5F5F5F5F5F5F5F5F5F5F5F5F5F5F5F5F5F5F5F5F5F5F5F5F5F5F5F5F5F5F5F5F5F5F5F5F5F5F5F5F5F5F5F5F5F5F5F5F5F5F5F5F5F5F5F5F5F5F5F5F5F5F5F5F5F5F5F52DF5F5F5E2E2F5F5E2F5F5F5F5F5F5F5F5F5F5F5F5F5F5F5F5F5F5F5F5
310
2DF5F5F5F5F5F5F5F5F5F5F5F5F5F5F5F5F5F5F5F5F5F5F5F5F5F5F5F5F5F5F5F5F5F5F5F5F5F5F5F5F5F5F5F5F5F5F5F5F5F5F5F5F5F5F5F5F5F5F5F5F5F5F5F5F5F5F5F5F5F5F5F5F5F5F5F5F5F5F5F5F5F5F5F5F5F5F5F5F5F5F5F5F5F5F5F5F5F5F5F5F5F5F5F5F5F5F5F5F5F5F5F5F5F5F5F5F5F5F5F5F5F5F5F5F5F5
310
F5F5F5F5F5F5F5F5F5F5F5F5F5F5F5F5F5F5F5F5F5F5F5F52DF5F5F5E2E2F5F5E2F5F5F5F5F5F5F5F5F5F5F5F5F5F5F5F5F5F5F5F52DF5F5F5F5F5F5F5F5F5F5F5F5F5F5F5F5F5F5F5F5F5F5F5F5F5F5F5F5F5F5F5F5F5F5F5F5F5F5F5F5F5F5F5F5F5F5F5F5F5F5F5F5F5F5F5F5F5F5F5F5F5F5F5F5F5F5F5F5F5F5F5F5F5
310
F5F5F5F5F5F5F5F5F5F5F5F5F5F5F5F5F5F5F5F5F5F5F5F5F5F5F5F5F5F5F5F5F5F5F5F5F5F5F5F5F5F5F5F5F5F5F5F5F5F5F5F5F5F5F5F5F5F5F5F5F5F5F5F5F5F5F5F5F5F5F5F5F5F5F5F5F52DF5F5F5E2E2F5F5E2F5F5F5F5F5F5F5F5F5F5F5F5F5F5F5F5F5F5F5F52DF5F5F5F5F5F5F5F5F5F5F5F5F5F5F5F5F5F5F5F5
310
F5F5F5F5F5F5F5F5F5F5F5F5F5F5F5F5F5F5F5F5F5F5F5F5F5F5F5F5F5F5F5F5F5F5F5F5F5F5F5F5F5F5F5F5F5F5F5F5F5F5F5F5F5F5F5F5F5F5F5F5F5F5F5F5F5F5F5F5F5F5F5F5F5F5F5F5F5F5F5F5F5F5F5F5F5F5F5F5F5F5F5F5F5F5F5F5F5F5F5F5F5F5F5F5F5F5F5F5F5F5F5F5F5F5F5F5F5F5F5F5F5F5F5F5F5F5F5
310
F5F5F52DF5F5F5E2E2F5F5E2F5F5F5F5F5F5F5F5F5F5F5F5F5F5F5F5F5F5F5F52DF5F5F5F5F5F5F5F5F5F5F5F5F5F5F5F5F5F5F5F5F5F5F5F5F5F5F5F5F5F5F5F5F5F5F5F5F5F5F5F5F5F5F5F5F5F5F5F5F5F5F5F5F5F5F5F5F5F5F5F5F5F5F5F5F5F5F5F5F5F5F5F5F5F5F5F5F5F5F5F5F5F5F5F5F5F5F5F5F5F5F5F5F5F5
310
F5F5F5F5F5F5F5F5F5F5F5F5F5F5F5F5F5F5F5F5F5F5F5F5F5F5F5F5F5F5F5F5F5F5F5F5F5F5F5F5F5F5F5F5F5F5F5F5F5F5F5F5F5F5F5F52DF5F5F5E2E2F5F5E2F5F5F5F5F5F5F5F5F5F5F5F5F5F5F5F5F5F5F5F52DF5F5F5F5F5F5F5F5F5F5F5F5F5F5F5F5F5F5F5F5F5F5F5F5F5F5F5F5F5F5F5F5F5F5F5F5F5F5F5F5F5
310
F5F5F5F5F5F5F5F5F5F5F5F5F5F5F5F5F5F5F5F5F5F5F5F5F5F5F5F5F5F5F5F5F5F5F5F5F5F5F5F5F5F5F5F5F5F5F5F5F5F5F5F5F5F5F5F5F5F5F5F5F5F5F5F5F5F5F5F5F5F5F5F5F5F5F5F5F5F5F5F5F5F5F5F5F5F5F5F5F5F5F5F5F5F5F5F5F5F5F5F5F5F5F5F5F5F5F5F5F52DF5F5F5E2E2F5F5E2F5F5F5F5F5F5F5F5F5
310
F5F5F5F5F5F5F5F5F5F5F52DF5F5F5F5F5F5F5F5F5F5F5F5F5F5F5F5F5F5F5F5F5F5F5F5F5F5F5F5F5F5F5F5F5F5F5F5F5F5F5F5F5F5F5F5F5F5F5F5F5F5F5F5F5F5F5F5F5F5F5F5F5F5F5F5F5F5F5F5F5F5F5F5F5F5F5F5F5F5F5F5F5F5F5F5F5F5F5F5F5F5F5F5F5F5F5F5F5F5F5F5F5F5F5F5F5F5F5F5F5F5F5F5F5F5F5
310
F5F5F5F5F5F5F5F5F5F5F5F5F5F5F5F5F5F5F5F5F5F5F5F5F5F5F5F5F5F5F5F5F5F5F52DF5F5F5E2E2F5F5E2F5F5F5F5F5F5F5F5F5F5F5F5F5F5F5F5F5F5F5F52DF5F5F5F5F5F5F5F5F5F5F5F5F5F5F5F5F5F5F5F5F5F5F5F5F5F5F5F5F5F5F5F5F5F5F5F5F5F5F5F5F5F5F5F5F5F5F5F5F5F5F5F5F5F5F5F5F5F5F5F5F5F5
310
F5F5F5F5F5F5F5F5F5F5F5F5F5F5F5F5F5F5F5F5F5F5F5F5F5F5F5F5F5F5F5F5F5F5F5F5F5F5F5F5F5F5F5F5F5F5F5F5F5F5F5F5F5F5F5F5F5F5F5F5F5F5F5F5F5F5F5F5F5F5F5F5F5F5F5F5F5F5F5F5F5F5F5F5F5F5F5F52DF5F5F5E2E2F5F5E2F5F5F5F5F5F5F5F5F5F5F5F5F5F5F5F5F5F5F5F52DF5F5F5F5F5F5F5F5F5
310
F5F5F5F5F5F5F5F5F5F5F5F5F5F5F5F5F5F5F5F5F5F5F5F5F5F5F5F5F5F5F5F5F5F5F5F5F5F5F5F5F5F5F5F5F5F5F5F5F5F5F5F5F5F50F0F0F0F0F0F0F0F0F0F0FF5F5F5F5F5F5F5F5F5F5F5F5F5F5F5F5F5F5F5F5F5F5F5F5F5F5F5F5F5F5F5F5F5F5F5F5F5F5F5F5F5F5F5F5F5F5F5F5F5F5F5F5F5F5F5F5F5F5F5F5F5F5
310
F5F5F5F5F5F5F5F5F5F5F5F5F5F52DF5F5F5E2E2F5F5E2F5F5F5F5F5F5F5F5F5F5F5F5F5F5F5F5F5F5F5F52DF5F5F5F5F5F5F5F5F5F5F5F5F5F5F5F5F5F5F5F5F5F5F5F5F5F5F5F5F5F5F5F5F5F5F5F5F5F5F5F5F5F5F5F5F5F5F5F5F5F5F5F5F5F5F5F5F5F5F5F5F5F5F50F0F0F0F0F0F0F0F0F0F0FF5F5F5F5F5F5F5F5F5
310
F5F5F5F5F5F5F5F5F5F5F5F5F5F5F5F5F5F5F5F5F5F5F5F5F5F5F5F5F5F5F5F5F5F5F5F5F5F5F5F5F5F5F5F5F5F5F5F5F5F5F5F5F5F5F5F5F5F5F5F5F5F5F5F5F5F5F52DF5F5F5E2E2F5F5E2F5F5F5F5F5F5F5F5F5F5F5F5F5F5F5F5F5F5F5F52DF5F5F5F5F5F5F5F5F5F5F5F5F5F5F5F5F5F5F5F5F5F5F5F5F5F5F5F5F5F5
310
F5F5F5F5F5F5F5F5F5F5F5F5F5F5F5F5F5F5F5F5F5F5F5F5F5F5F5F5F5F5F5F5F50F0F0F0FF50F0F0F0F0F0FF5F5F5F5F5F5F5F5F5F5F5F5F5F5F5F5F5F5F5F5F5F5F5F5F5F5F5F5F5F5F5F5F5F5F5F5F5F5F5F5F5F5F5F5F5F5F5F5F5F5F5F5F5F5F5F5F5F5F5F5F5F5F5F5F5F5F5F5F5F5F5F5F5F5F5F52DF5F5F5E2E2F5
310
F5E2F5F5F5F5F5F5F5F5F5F5F5F5F5F5F5F5F5F5F5F52DF5F5F5F5F5F5F5F5F5F5F5F5F5F5F5F5F5F5F5F5F5F5F5F5F5F5F5F5F5F5F5F5F5F5F5F5F5F5F5F5F5F5F5F5F5F5F5F5F5F5F5F5F5F5F5F5F5F5F5F5F5F5F50FF5F5F5F50FF5F5F5F50FF5F5F5F5F5F5F5F5F5F5F5F5F5F5F5F5F5F5F5F5F5F5F5F5F5F5F5F5F5F5
310
F5F5F5F5F5F5F5F5F5F5F5F5F5F5F5F5F5F5F5F5F5F5F5F5F5F5F5F5F5F5F5F5F5F5F5F5F5F5F5F5F5F5F5F5F5F52DF5F5F5E2E2F5F5F5F5F5F5F5F5F5F5F5F5F5F5F5F5F5F5F5F5F5F5F52DF5F5F5F5F5F5F5F5F5F5F5F5F5F5F5F5F5F5F5F5F5F5F5F5F5F5F5F5F5F5F5F5F5F5F5F5F5F5F5F5F5F5F5F5F5F5F5F5F5F5F5
310
F5F5F5F5F5F5F5F5F5F5F5F50FF5F5F5F50FF5F5F5F50FF5F5F5F5F5F5F5F5F5F5F5F5F5F5F5F5F5F5F5F5F5F5F5F5F5F5F5F5F5F5F5F5F5F5F5F5F5F5F5F5F5F5F5F5F5F5F5F5F5F5F5F5F5F5F5F5F5F5F5F5F5F5F5F5F5F5F5F5F5F5F5F5F5F5F5F52DF5F5F5E2E2F5F5F5F5F5F5F5F5F5F5F5F5F5F5F5F5F5F5F5F5F5F5
310
F52DF5F5F5F5F5F5F5F5F5F5F5F5F5F5F5F5F5F5F5F5F5F5F5F5F5F5F5F5F5F5F5F5F5F5F5F5F5F5F5F5F5F5F5F5F5F5F5F5F5F5F5F5F5F5F5F5F5F5F5F5F5F5F50FF5F5F5F50FF5F5F5F50FF5F5F5F5F5F5F5F5F5F5F5F5F5F5F5F5F5F5F5F5F5F5F5F5F5F5F5F5F5F5F5F5F5F5F5F5F5F5F5F5F5F5F5F5F5F5F5F5F5F5F5
310
F5F5F5F5F5F5F5F5F5F5F5F5F5F5F5F5F5F5F5F5F5F5F5F5F52DF5F5F5E2E2F5F5F5F5F5F5F5F5F5F5F5F5F5F5F5F5F5F5F5F5F5F5F52DF5F5F5F5F5F5F5F5F5F5F5F5F5F5F5F5F5F5F5F5F5F5F5F5F5F5F5F5F5F5F5F5F5F5F5F5F5F5F5F5F5F5F5F5F5F5F5F5F5F5F5F5F5F5F5F5F50FF5F5F5F5F50FF5F5F5F50FF5F5F5
310
F50FF5F5F5F5F5F5F5F5F5F5F5F5F5F5F5F5F5F5F5F5F5F5F5F5F5F5F5F5F5F5F5F5F5F5F5F5F5F5F5F5F5F5F5F5F5F5F5F5F5F5F5F5F5F5F5F5F5F5F5F5F5F5F5F5F5F5F5F5F5F5F5F5F5F5F5F52DF5F5F5E2E2F5F5F5F5F5F5F5F5F5F5F5F5F5F5F5F5F5F5F5F5F5F5F52DF5F5F5F5F5F5F5F5F5F5F5F5F5F5F5F5F5F5F5
310
F5F5F5F5F5F5F5F5F5F5F5F5F5F5F5F5F5F5F5F5F5F5F5F5F5F5F5F5F5F5F5F5F5F5F5F50F0F0FF5F5F5F5F50FF5F5F5F50FF5F5F5F50FF5F5F5F5F5F5F5F5F5F5F5F5F5F5F5F5F5F5F5F5F5F5F5F5F5F5F5F5F5F5F5F5F5F5F5F5F5F5F5F5F5F5F5F5F5F5F5F5F5F5F5F5F5F5F5F5F5F5F5F5F5F5F5F5F5F5F5F5F5F5F5F5
310
F5F5F5F52DF5F5F5E2E2F5F5F5F5F5F5F5F5F5F5F5F5F5F5F5F5F5F5F5F5F5F5F52DF5F5F5F5F5F5F5F5F5F5F5F5F5F5F5F5F5F5F5F5F5F5F5F5F5F5F5F5F5F5F5F5F5F5F5F5F5F5F5E2E2E2E2E2E2E2E2E2E2E2E2E2E2E2E2E2E20FE2E2E2E2E20FE2E2E2E20FE2E2E2E20FF5E2E2E2E2E2E2E2E2E2E2E2E2E2E2E2E2E2E2
310
F5F5F5F5F5F5F5F5F5F5F5F5F5F5F5F5F5F5F5F5F5F5F5F5F5F5F5F5F5F5F5F5F5F5F5F5F5F5F5F5F5F5F5F5F5F5F5F5F5F5F5F5F5F5F5F5F52DF5F5F5E2E2F5F5F5F5F5F5F5F5F5F5F5F5F5F5F5F5F5F5F5F5F5F5F52DF5F5F5F5F5F5F5F5F5F5F5F5F5F5F5F5F5F5F5F5F5F5F5F5F5F5F5F5F5F5F5F5F5F5F5E2E2E2E2E2
310
E2E2BEF5E2E2F5E2F5F5F5F5F5F5E2F5F50FF5E2E2E2E20FF5F5E2F5BEF5F5F5E20FE2E2E2F5F5F5F5F5F5E2F5F5E2E2F5BEE2E2E2E2E2E2F5F5F5F5F5F5F5F5F5F5F5F5F5F5F5F5F5F5F5F5F5F5F5F5F5F5F5F5F5F5F5F5F5F5F5F5F5F5F5F5F5F5F5F5F5F5F5F5F5F5F5F5F5F52DF5F5F5E2E2F5F5F5F5F5F5F5F5F5F5F5
310
F5F5F5F5F5F5F5F5F5F5F5F52DF5F5F5F5F5F5F5F5F5F5F5F5F5F5F5F5F5F5F5F5F5F5F5F5F5F5F5F5F5F5F5F5F5F5F5E2E2F5E2E2E2E2F5E2E2E2E2E2BEBEF5BEF5F5E2F5F50FF5E2E2E2E20FF5F5E2E2E2E2F5F5E2E2E2E2E2F5F5BEF5F5F5E2F5E2E2E2E2F5E2E2E2E2F5E2F5F5F5F5F5F5F5F5F5F5F5F5F5F5F5F5F5F5
310
F5F5F5F5F5F5F5F5F5F5F5F5F5F5F5F5F5F5F5F5F5F5F5F5F5F5F5F5F5F5F5F5F5F5F5F52DF5F5F5E2E2F5F5F5F5F5F5F5F5F5F5F5F5F5F5F5F5F5F5F5F5F5F5F52DF5F5F5F5F5F5F5F5F5F5F5F5F5F5F5F5F5F5F5F5F5F5F5F5F5F5F5F5F5F5F5F5F5F5F5E2E2BEE2E2BEE2E2E2BEE2E2E2BEBEF5E2E2BEE2BE0F0F0F0F0F
310
0F0F0F0F0F0F0F0F0F0F0FE2E2E2E2E2BEBEE2BEF5BEE2E2E2BEBEE2BEE2E2E2E2BEE2BEF5F5F5F5F5F5F5F5F5F5F5F5F5F5F5F5F5F5F5F5F5F5F5F5F5F5F5F5F5F5F5F5F5F5F5F5F5F5F5F5F5F5F5F5F5F5F5F5F5F5F5F5F52DF5F5F5E2E2F5F5E2F5F5F5F5F5F5F5F5F5F5F5F5F5F5F5F5F5F5F5F52DF5F5F5F5F5F5F5F5
310
F5F5F5F5F5F5F5F5F5F5F5F5F5F5F5F5F5F5F5F5F5F5F5F5F5F5F5E2E2F5E2E2E2E2E2E2E2E2E2E2F5F5F5BEF5F5E2F50F0F0F0F0F0FE2E2E2F5F5E2E2E2F5F5E2E2E2E2E2F5F5BEF5F5F5E2F5E2E2E2E2F5E2E2E2E2F5E2F5F5F5F5F5F5F5F5F5F5F5F5F5F5F5F5F5F5F5F5F5F5F5F5F5F5F5F5F5F5F5F5F5F5F5F5F5F5F5
310
F5F5F5F5F5F5F5F5F5F5F5F5F5F5F52DF5F5F5E2E2F5F5E2F5F5F5F5F5F5F5F5F5F5F5F5F5F5F5F5F5F5F5F52DF5F5F5F5F5F5F5F5F5F5F5F5F5F5F5F5F5F5F5F5F5F5F5F5F5F5F5F5F5F5F5F5F5F5F5E2E2E2E2E2E2E2BEE2E2E2F5E2F5F5F5F5F5F5E2F5F50FF5E2E2E2E2E2E2F5F5F5E2F5F5F5F5E2E2E2E2F5F5F5F5BE
310
BEE2BEE2E2E2E2BEE2E2E2E2E2E2F5F5F5F5F5F5F5F5F5F5F5F5F5F5F5F5F5F5F5F5F5F5F5F5F5F5F5F5F5F5F5F5F5F5F5F5F5F5F5F5F5F5F5F5F5F5F5F5F5F5F5F5F5F52DF5F5F5E2E2F5F5E2F5F5F5F5F5F5F5F5F5F5F5F5F5F5F5F5F5F5F5F52DF5F5F5F5F5F5F5F5F5F5F5F5F5F5F5F5F5F5F5F5F5F5F5F5F5F5F5F5F5
310
F5F5F5F5F5F5F5F5F5F5E2E2E2E2E2E2E2E2E2E2E2E2E2E2E2E2E2E20FE2E2E2E2E2E2E2E2E2E2E2E2E2E2E2E2E2E2E2E2E2E2E2E2E2E2E2E2E2E2E2E2E2E2E2F5F5F5F5F5F5F5F5F5F5F5F5F5F5F5F5F5F5F5F5F5F5F5F5F5F5F5F5F5F5F5F5F5F5F5F5F5F5F5F5F5F5F5F5F5F5F5F5F5F5F5F5F5F5F5F5F52DF5F5F5E2E2
310
F5F5E2F5F5F5F5F5F5F5F5F5F5F5F5F5F5F5F5F5F5F5F52DF5F5F5F5F5F5F5F5F5F5F5F5F5F5F5F5F5F5F5F5F5F5F5F5F5F5F5F5F5F5F5F5F5F5F5F5F5F5F5F5F5F5F5F5F5F5F5F5F5F5F5F5F5F5F5F5F5F5F5F5F5F5F5F5F5F5F5F5F5F5F5F5F5F5BEF5F5F5F5F5F5F5F5F5F5F5F5F5F5F5F5F5F5F5F5F5F5F5F5F5F5F5F5
310
F5F5F5F5F5F5F5F5F5F5F5F5F5F5F5F5F5F5F5F5F5F5F5F5F5F5F5F5F5F5F5F5F5F5F5F5F5F5F5F5F5F5F5F5F5F5F52DF5F5F5E2E2F5F5E2F5F5F5F5F5F5F5F5F5F5F5F5F5F5F5F5F5F5F5F52DF5F5F5F5F5F5F5F5F5F5F5F5F5F5F5F5F5F5F5F5F5F5F5F5F5F5F5F5F5F5F5F5F5F5F5F5F5F5F5F5F5F5F5F5F5F5F5F5F5F5
310
F5F5F5F5F5F5F5F5F5F5F5F5F5F5F5F5F5F5F5F5F5F5F5F5F5F5F5F5F5F5F5F5F5F5F5F5F5F5F5F5F5F5F5F5F5F5F5F5F5F5F5F5F5F5F5F5F5F5F5F5F5F5F5F5F5F5F5F5F5F5F5F5F5F5F5F5F5F5F5F5F5F5F5F5F5F5F5F5F5F5F5F5F5F5F5F5F5F5F5F52DF5F5F5E2E2F5F5E2F5F5F5F5F5F5F5F5F5F5F5F5F5F5F5F5F5F5
310
F5F52DF5F5F5F5F5F5F5F5F5F5F5F5F5F5F5F5F5F5F5F5F5F5F5F5F5F5F5F5F5F5F5F5F5F5F5F5F5F5F5F5F5F5F5F5F5F5F5F5F5F5F5F5F5F5F5F5F5F5F5F5F5F5F5F5F5F5F5F5F5F5F5F5F5F5F5F5F5F5F5F5F5F5F5F5F5F5F5F5F5F5F5F5F5F5F5F5F5F5F5F5F5F5F5F5F5F5F5F5F5F5F5F5F5F5F5F5F5F5F5F5F5F5F5F5
310
F5F5F5F5F5F5F5F5F5F5F5F5F5F5F5F5F5F5F5F5F5F5F5F5F5F52DF5F5F5E2E2F5F5E2F5F5F5F5F5F5F5F5F5F5F5F5F5F5F5F5F5F5F5F52DF5F5F5F5F5F5F5F5F5F5F5F5F5F5F5F5F5F5F5F5F5F5F5F5F5F5F5F5F5F5F5F5F5F5F5F5F5F5F5F5F5F5F5F5F5F5F5F5F5F5F5F5F5F5F5F5F5F5F5F5F5F5F5F5F5F5F5F5F5F5F5
310
F5F5F5F5F5F5F5F5F5F5F5F5F5F5F5F5F5F5F5F5F5F5F5F5F5F5F5F5F5F5F5F5F5F5F5F5F5F5F5F5F5F5F5F5F5F5F5F5F5F5F5F5F5F5F5F5F5F5F5F5F5F5F5F5F5F5F5F5F5F5F5F5F5F5F5F5F5F5F52DF5F5F5E2E2F5F5E2F5F5F5F5F5F5F5F5F5F5F5F5F5F5F5F5F5F5F5F52DF5F5F5F5F5F5F5F5F5F5F5F5F5F5F5F5F5F5
310
F5F5F5F5F5F5F5F5F5F5F5F5F5F5F5F5F5F5F5F5F5F5F5F5F5F5F5F5F5F5F5F5F5F5F5F5F5F5F5F5F5F5F5F5F5F5F5F5F5F5F5F5F5F5F5F5F5F5F5F5F5F5F5F5F5F5F5F5F5F5F5F5F5F5F5F5F5F5F5F5F5F5F5F5F5F5F5F5F5F5F5F5F5F5F5F5F5F5F5F5F5F5F5F5F5F5F5F5F5F5F5F5F5F5F5F5F5F5F5F5F5F5F5F5F5F5F5
310
F5F5F5F5F52DF5F5F5E2E2F5F5E2F5F5F5F5F5F5F5F5F5F5F5F5F5F5F5F5F5F5F5F52DF5F5F5F5F5F5F5F5F5F5F5F5F5F5F5F5F5F5F5F5F5F5F5F5F5F5F5F5F5F5F5F5F5F5F5F5F5F5F5F5F5F5F5F5F5F5F5F5F5F5F5F5F5F5F5F5F5F5F5F5F5F5F5F5F5F5F5F5F5F5F5F5F5F5F5F5F5F5F5F5F5F5F5F5F5F5F5F5F5F5F5F5
310
F5F5F5F5F5F5F5F5F5F5F5F5F5F5F5F5F5F5F5F5F5F5F5F5F5F5F5F5F5F5F5F5F5F5F5F5F5F5F5F5F5F5F5F5F5F5F5F5F5F5F5F5F5F5F5F5F5F52DF5F5F5E2E2F5F5E2F5F5F5F5F5F5F5F5F5F5F5F5F5F5F5F5F5F5F5F52DF5F5F5F5F5F5F5F5F5F5F5F5F5F5F5F5F5F5F5F5F5F5F5F5F5F5F5F5F5F5F5F5F5F5F5F5F5F5F5
310
F5F5F5F5F5F5F5F5F5F5F5F5F5F5F5F5F5F5F5F5F5F5F5F5F5F5F5F5F5F5F5F5F5F5F5F5F5F5F5F5F5F5F5F5F5F5F5F5F5F5F5F5F5F5F5F5F5F5F5F5F5F5F5F5F5F5F5F5F5F5F5F5F5F5F5F5F5F5F5F5F5F5F5F5F5F5F5F5F5F5F5F5F5F5F5F5F5F5F5F5F5F5F5F5F5F5F5F5F5F5F52DF5F5F5E2E2F5F5E2F5F5F5F5F5F5F5
310
F5F5F5F5F5F5F5F5F5F5F5F5F52DF5F5F5F5F5F5F5F5F5F5F5F5F5F5F5F5F5F5F5F5F5F5F5F5F5F5F5F5F5F5F5F5F5F5F5F5F5F5F5F5F5F5F5F5F5F5F5F5F5F5F5F5F5F5F5F5F5F5F5F5F5F5F5F5F50FF5F5F5F50FF5F5F5F5F5F5F5F5F5F5F5F5F5F5F5F5F5F5F5F5F5F5F5F5F5F5F5F5F5F5F5F5F5F5F5F5F5F5F5F5F5F5
310
F5F5F5F5F5F5F5F5F5F5F5F5F5F5F5F5F5F5F5F5F5F5F5F5F5F5F5F5F5F5F5F5F5F5F5F5F52DF5F5F5E2E2F5F5E2F5F5F5F5F5F5F5F5F5F5F5F5F5F5F5F5F5F5F5F52DF5F5F5F5F5F5F5F5F5F5F5F5F5F5F5F5F5F5F5F5F5F5F5F5F5F5F5F5F5F5F5F5F5F5F5F5F5F5F5F5F5F5F5F5F5F5F5F5F5F5F5F5F5F5F5F5F5F5F5F5
310
F5F5F5F5F50F0F0F0F0F0FF5F5F5F5F5F5F5F5F5F5F5F5F5F5F5F5F5F5F5F5F5F5F5F5F5F5F5F5F5F5F5F5F5F5F5F5F5F5F5F5F5F5F5F5F5F5F5F5F5F5F5F5F5F5F5F5F5F5F5F5F5F5F5F5F5F5F5F5F5F5F5F5F5F5F5F5F5F5F52DF5F5F5E2E2F5F5E2F5F5F5F5F5F5F5F5F5F5F5F5F5F5F5F5F5F5F5F52DF5F5F5F5F5F5F5
310
F5F5F5F5F5F5F5F5F5F5F5F5F5F5F5F5F5F5F5F5F5F5F5F5F5F5F5F5F5F5F5F5F5F5F5F5F5F5F5F5F5F5F5F5F5F5F5F5F5F5F5F5F5F5F5F5F5F50FF5F50FF50FF5F5F5F5F5F5F5F5F5F5F5F5F5F5F5F5F5F5F5F5F5F5F5F5F5F5F5F5F5F5F5F5F5F5F5F5F5F5F5F5F5F5F5F5F5F5F5F5F5F5F5F5F5F5F5F5F5F5F5F5F5F5F5
310
F5F5F5F5F5F5F5F5F5F5F5F5F5F5F5F52DF5F5F5E2E2F5F5E2F5F5F5F5F5F5F5F5F5F5F5F5F5F5F5F5F5F5F5F52DF5F5F5F5F5F5F5F5F5F5F5F5F5F5F5F5F5F5F5F5F5F5F5F5F5F5F5F5F5F5F5F5F5F5F5F5F5F5F5F5F5F5F5F5F5F5F5F5F5F5F5F5F5F5F5F5F5F5F5F5F5F5F5F5F50FF5F50FF50FF5F5F5F50F0F0F0F0F0F
310
0F0F0F0F0F0F0F0F0F0F0F0F0FF5F5F5F5F5F5F5F5F5F5F5F5F5F5F5F5F5F5F5F5F5F5F5F5F5F5F5F5F5F5F5F5F5F5F5F5F5F5F5F5F5F5F5F5F5F5F5F5F5F5F5F5F5F5F5F52DF5F5F5E2E2F5F5E2F5F5F5F5F5F5F5F5F5F5F5F5F5F5F5F5F5F5F5F52DF5F5F5F5F5F5F5F5F5F5F5F5F5F5F5F5F5F5F5F5F5F5F5F5F5F5F5F5
310
F5F5F5F5F5F5F5F50FF5F5F5F5F5F5F5F5F5F5F5F5F5F5F5F5F5F5F5F5F5F5F5F5F5F5F5F50FF5F5F5F50FF5F5F50FF50F0F0F0F0F0F0F0F0F0F0F0F0F0F0F0F0FF5F5F5F5F5F5F5F5F5F5F5F5F5F5F5F5F5F5F5F5F5F5F5F5F5F5F5F5F5F5F5F5F5F5F5F5F5F5F5F5F5F5F5F5F5F5F5F5F5F5F5F5F5F5F5F5F52DF5F5F5E2
310
E2F5F5F5F5F5F5F5F5F5F5F5F5F5F5F5F5F5F5F5F5F5F5F52DF5F5F5F5F5F5F5F5F5F5F5F5F5F5F5F5F5F5F5F5F5F5F5F5F5F5F5F5F5F5F5F5F5F5F5F50FF5F5F5F5F5F5F5F5F5F5F5F5F5F5F5F5F5F5F5F5F5F5F5F5F5F5F5F50FF5F5F5F50FF5F5F50FF50FF50F0F0FF50F0F0FF50F0F0F0F0F0F0FF5F5F5F5F5F5F5F5F5
310
F5F5F5F5F5F5F5F5F5F5F5F5F5F5F5F5F5F5F5F5F5F5F5F5F5F5F5F5F5F5F5F5F5F5F5F5F5F5F5F5F5F5F5F5F5F5F5F52DF5F5F5E2E2F5F5F5F5F5F5F5F5F5F5F5F5F5F5F5F5F5F5F5F5F5F5F52DF5F5F5F5F5F5F5F5F5F5F5F5F5F5F5F5F5F5F5F5F5F5F5F5F5F5F5F5F5F5F5F5F5F5F5F50F0FF5F5F5F5F5F5F5F5F5F5F5
310
F5F5F5F5F5F5F5F5F5F5F5F5F5F5F5F50FF5F5F5F50FF5F50FF5F5F5F5F5F5F5F5F5F5F5F5F5F5F5F5F5F5F5F5F5F5F5F5F5F5F5F5F5F5F5F5F5F5F5F5F5F5F5F5F5F5BEF5F5F5F5F5F5F5F5F5F5F5F5F5F5F5F5F5F5F5F5F5F5F5F5F5F5F5F5F5F5F5F5F52DF5F5F5E2E2F5F5F5F5F5F5F5F5F5F5F5F5F5F5F5F5F5F5F5F5
310
F5F5F52DF5F5F5F5F5F5F5F5F5F5F5F5F5F5F5F5F5F5F5F5F5F5F5F5F5F5F5F5F50F0F0F0F0F0F0F0F0F0F0F0F0F0F0F0F0F0F0FE2E2E2E2E2E2E2E2E2E2E2E2E2E2E2E2E20FE2E2E2E20FE20FE2E2E2E2E2E2E2E2E2E20F0F0F0F0F0F0F0F0F0F0F0F0F0F0F0F0F0F0F0F0FF5F5F5F5F5F5F5F5F5E2E2E2BEE2E2E2F5F5F5
310
F5F5F5F5F5F5F5F5F5F5F5F5F5F5F5F5F5F5F5F5F5F5F5F5F5F5F52DF5F5F5E2E2F5F5F5F5F5F5F5F5F5F5F5F5F5F5F5F5F5F5F5F5F5F5F52DF5F5F5F5F5F5F5F5F5F5F5F5F5F5F5F5F5F5F5F5F5F5F5F5F5F5F5F5F50F0FF5F50F0F0F0FF5F5F5F5E2E2E2E2E2E2E2E2F5F5F5F5F5E2F5F5F5F5E2F5E2F5E2F50FE2F5F5F5
310
0FE20FE2E2E2E2F5F5F5F5F5F5E2E2E2E2E2E2E2E2F5F5F5F5F5F5F5F5F5F5F50F0FF5F5F5F5F5F5F5F5F5E2E2E2BEE2E2E2F5F5F5F5F5F5F5F5F5F5F5F5F5F5F5F5F5F5F5F5F5F5F5F5F5F5F5F5F5F52DF5F5F5E2E2F5F5F5F5F5F5F5F5F5F5F5F5F5F5F5F5F5F5F5F5F5F5F52DF5F5F5F5F5F5F5F5F5F5F5F5F5F5F5F5F5
310
F5F5F5F5F5F5F5F5F5F5F5F50FF5F5F50FF5F50F0F0F0F0F0F0F0F0F0F0F0F0F0F0F0F0F0F0F0F0F0F0F0F0F0F0F0F0FE2E2BEF5E2E20FBEE2E2E2E2F5F5F5F5F5F5E2E2E2E2E2E2F5E2F5F5F5F5F5F5F5F5F5F5F50FF5F5F5F5F5F5F5F5F5F5E2E2E2BEE2E2E2F5F5F5F5F5F5F5F5F5F5F5F5F5F5F5F5F5F5F5F5F5F5F5F5
310
F5F5F5F5F5F52DF5F5F5E2E2F5F5F5F5F5F5F5F5F5F5F5F5F5F5F5F5F5F5F5F5F5F5F52DF5F5F5F5F5F5F5F5F5F5F5F5F5F5F5F5F5F5F5F5F5F5F5F5F5F5F5F5F50FF5F5F50FF5F50F0FF5F5F5E2F5F5BEF5F5F5E2F5F5F5F5F5E2F5F5F5F5E2F5E2F5E2F5E2E2F5F5E2E2E2F5E2E2E2E2F5F5F5F5F5F5E2F5F5BEF5F5E2E2
310
F5F5F5F5F5F5F5F5F5F5F50FF5F5F5F5F5F5F5F5F5F5E2E2E2BEE2E2E2F5F5F5F5F5F5F5F5F5F5F5F5F5F5F5F5F5F5F5F5F5F5F5F5F5F5F5F5F5F52DF5F5F5E2E2F5F5F5F5F5F5F5F5F5F5F5F5F5F5F5F5F5F5F5F5F5F5F52DF5F5F5F5F5F5F5F5F5F5F5F5F5F5F5F5F5F5F5F5F5F5F5F5F5F5F5F5F50FF5F5F50FF5F50F0F
310
F5E2E2E2BEF5BEF5F5F5E2F5F5F5F5F5E2F5F5F5F5E2F5E2F5E2F5BEF5F5F5F5BEF5F5E2E2E2E2F5F5F5F5F5F5E2F5F5BEF5F5E2E2E2BEF5F5F5F5F5F5F5F5F50FF5F5F5F5F5F5F5F5F5F5E2E2E2BEE2E2E2F5F5F5F5F5F5F5F5F5F5F5F5F5F5F5F5F5F5F5F5F5F5F5F5F5F5F5F5F5F52DF5F5F5E2E2F5F5F5F5F5F5F5F5F5
310
F5F5F5F5F5F5F5F5F5F5F5F5F5F52DF5F5F5F5F5F5F5F5F5F5F5F5F5F5F5F5F5F5F5F5F5F5F5F5F5F5F5F5F50FF50F0F0FF5F50FF5F5E2E2E2E2E2E2E2E2E2E2BEF5F5F5E2E2F5F5F5F5E2F5E2F5E2F5F5F5F5F5F5F5F5F5E2E2E2E2E2E2F5F5F5F5E2E2E2E2E2E2E2E2E2BEF5F5F5F5F5F5F5F5F50FF5F5F5F5F5F5F5F5F5
310
F5E2E2E2BEE2E2E2F5F5F5F5F5F5F5F5F5F5F5F5F5F5F5F5F5F5F5F5F5F5F5F5F5F5F5F5F5F52DF5F5F5E2E2F5F5F5F5F5F5F5F5F5F5F5F5F5F5F5F5F5F5F5F5F5F5F52DF5F5F5F5F5F5F5F5F5F5F5F5F5F5F5F5F5F5F5F5F5F5F5F5F5F5F50F0F0FF50F0F0FF5F5F5F5F5E2F5F5F5F5F5F5F5F5E2E2F5F5BEE2E2BEF5F5F5
310
E2F5E2F5E2F5F5F5F5F5F5F50FF5E2E2E2E2E2E2F5F5F5F5E2F5F5F5F5F5F5F5E2F5F5F5F5F5F5F5F5F50F0FF5F5F5F5F5F5F5F5F5F5E2E2E2BEE2F5E2F5F5F5F5F5F5F5F5F5F5F5F5F5F5F5F5F5F5F5F5F5F5F5F5F5F5F5F5F5F52DF5F5F5E2E2F5F5E2F5F5F5F5F5F5F5F5F5F5F5F5F5F5F5F5F5F5F5F52DF5F5F5F5F5F5
310
F5F5F5F5F5F5F5F5F5F5F5F5F5F5F5F5F5F5F5F5F50F0F0FF5F5F50FF5F5F5F5E2E2E2E2F5F5F5F5F5F5E2BEF5F5F5F5E2F5F5F5F5E2F5E2F5E2F5F5F5F5F5F5F50FF5E2E2E2E2F5F5F5F5F5F5E2F5F5F5F5F5F5E2E2E2E2F5F5F5F5F5F5F50F0FF5F5F5F5F5F5F5F5F5F5E2E2E2BEE2E2E2F5F5F5F5F5F5F5F5F5F5F5F5F5
310
F5F5F5F5F5F5F5F5F5F5F5F5F5F5F5F5F52DF5F5F5E2E2F5F5E2F5F5F5F5F5F5F5F5F5F5F5F5F5F5F5F5F5F5F5F52DF5F5F5F5F5F5F5F5F5F5F5F5F5F5F5F5F5F5F5F5F5F5F5F5F5F5F50F0F0FF5F5F50FF5F5F5F5E2E2F5E2F5F5F5F5F5F5E2F5F5F5F5F5E2F5F5F5F5E2F5E2F5E2F5F5F5BEE2BEF50FF5E2E2E2E2F5F5F5
310
F5F5F5E2F5F5F5F5F5F5E2F5E2E2F5F5F5F5F5F5F50F0FF5F5F5F5F5F5F5F5F5F5E2E2F5BEF5E2E2F5F5F5F5F5F5F5F5F5F5F5F5F5F5F5F5F5F5F5F5F5F5F5F5F5F5F5F5F5F52DF5F5F5E2E2F5F5E2F5F5F5F5F5F5F5F5F5F5F5F5F5F5F5F5F5F5F5F52DF5F5F5F5F5F5F5F5F5F5F5F5F5F5F5F5F5F5F5F5F5F5F5F5F5F5F5
310
F5F50FF5F5F50FF5F5F5F5E2E2F5E2F5F5F5F5F5F5E2F5F5F5F5F5E2F5F5F5F5E2F5E2F5E2F5F5F5F5E2F50F0F0F0FE2E2E2F5F5F5F5F5F5E2F5F5F5F5F5F5E2F5E2E2F5F5F5F5F5F5F50F0FF5F5F5F5F5F5F5F5F5F5E2E2F5BEF5E2E2F5F5F5F5F5F5F5F5F5F5F5F5F5F5F5F5F5F5F5F5F5F5F5F5F5F5F5F5F5F52DF5F5F5
310
E2E2F5F5E2F5F5F5F5F5F5F5F5F5F5F5F5F5F5F5F5F5F5F5F52DF5F5F5F5F5F5F5F5F5F5F5F5F5F5F5F5F5F5F5F5F5F5F5F5F5F5F5F5F50FF5F5F50FF5F5F5F5E2E2F5E2F5F5F5F5F5F5E2F5F5F5F5F5E2F5F5F5F5E2F5E2F5E2F5F5F5F5F5F5F50FF5E2BEE2E2F5F5F5F5F5F5E2F5F5F5F5F5F5E2F5E2E2F5F5F5F5F5F5F5
310
0F0FF5F5F5F5F5F5F5F5F5F5E2E2F5BEF5E2E2F5F5F5F5F5F5F5F5F5F5F5F5F5F5F5F5F5F5F5F5F5F5F5F5F5F5F5F5F5F52DF5F5F5E2E2F5F5E2F5F5F5F5F5F5F5F5F5F5F5F5F5F5F5F5F5F5F5F52DF5F5F5F5F5F5F5F5F5F5F5F5F5F5F5F5F5F5F5F5F5F5F5F5F5F5F5F5F50FF5F50F0F0F0F0F0F0F0F0F0F0F0F0F0F0F0F
310
0F0F0F0F0F0FE2E2E2E2E20FE2E2E2E2E2E2E2E2E2E20F0F0F0FE2E20FE2F5F5F5F5F5E2F5F5F5F5F5F5E2F5E2E2E2E2F5F5F5F5F5F50FF5F5F5F5F5F5F5F5F5F5E2E2E2BEE2E2E2F5F5F5F5F5F5F5F5F5F5F5F5F5F5F5F5F5F5F5F5F5F5F5F5F5F5F5F5F5F52DF5F5F5E2E2F5F5E2F5F5F5F5F5F5F5F5F5F5F5F5F5F5F5F5
310
F5F5F5F52DF5F5F5F5F5F5F5F5F5F5F5F5F5F5F5F5F5F5F5F5F5F5F5F5F5F5F5F5F50FF5F5F5F5F5E2E2F5E2E2F5E2F5F5F5F5F5F5E2F5F5F5F5E2F5F5F5F5F50FF5F5F5F5F5F5F5F5F5F5F50FF5F5BEF50FF5E2F5F5F5F5E2F5F5F5F5F5F5E2F5E2E2F5E2F5F5F5F5F5F50FF5F5F5F5F5F5F5F5F5F5E2E2E2BEE2E2E2F5F5
310
F5F5F5F5F5F5F5F5F5F5F5F5F5F5F5F5F5F5F5F5F5F5F5F5F5F5F5F52DF5F5F5E2E2F5F5E2F5F5F5F5F5F5F5F5F5F5F5F5F5F5F5F5F5F5F5F52DF5F5F5F5F5F5F5F5F5F5F5F5F5F5F5F5F5F5F5F5F5F5F5F5F5F5F5F5F50F0FF5F5F5F5E2E2F5E2E2F5E2F5F5F5F5F5F5E2F5BEF5E2F5F5F5F5F5F50FF5F5F5F5F5F5F5F5F5
310
F5F50FF5F5F5F50FF5E2F5F5BEF5E2F5F5F5F5F5F5E2F5E2E2F5E2F5F5F5F5F5F50FF5F5F5F5F5F5F5F5F5F5E2E2E2BEE2E2E2F5F5F5F5F5F5F5F5F5F5F5F5F5F5F5F5F5F5F5F5F5F5F5F5F5F5F5F5F5F52DF5F5F5E2E2F5F5E2F5F5F5F5F5F5F5F5F5F5F5F5F5F5F5F5F5F5F5F52DF5F5F5F5F5F5F5F5F5F5F5F5F5F5F5F5
310
F5F5F5F5F5F5F5F5F5F5F5F5F50F0F0F0F0F0F0F0F0F0F0F0F0F0F0F0F0F0F0F0FE2E2E2E2F5F5F5F5F5F50FF5F5F5F5F5F5F5F5F5F5F50FF5F5F5F50FF5F5E2E2E2E2E2F5F5F5F5F5F5E2F5E2E2E2E2F5F5F5F5F5F50FF5F5F5F5F5F5F5F5F5F5E2E2E2BEE2E2E2F5F5F5F5F5F5F5F5F5F5F5F5F5F5F5F5F5F5F5F5F5F5F5
310
F5F5F5F5F5F5F52DF5F5F5E2E2F5F5E2F5F5F5F5F5F5F5F5F5F5F5F5F5F5F5F5F5F5F5F52DF5F5F5F5F5F5F5F5F5F5F5F5F5F5F5F5F5F5F5F5F5F5F5F5F5F5F5F5F5F5F5F5F5F5F5E2E2E2E2E2F5E2F5F5F5F5F5F5E2E2BEE2BEF5F5F5F5F5F50FF5F5F5F5F5F5F5F5F5F5F50FF5F5F5F50FF5F5E2F5BEE2E2F5F5F5F5F5F5
310
E2F5E2E2E2E2F5F5F5F5F5F50F0FF5F5F5F5F5F5F5F5F5E2E2E2BEE2E2E2F5F5F5F5F5F5F5F5F5F5F5F5F5F5F5F5F5F5F5F5F5F5F5F5F5F5F5F5F5F52DF5F5F5E2E2F5F5E2F5F5F5F5F5F5F5F5F5F5F5F5F5F5F5F5F5F5F5F52DF5F5F5F5F5F5F5F5F5F5F5F5F5F5F5F5F5F5F5F5F5F5F5F5F5F5F5F5F5F5F5F5F5F5F5F5F5
310
F5F5E2E2E2E2E2E2E2E2E2E2E2E2E2E2F5F5F5F5F5F50FF5F5F5F5F5F5F5F5F50F0F0FF5F5F5F50FF5E2E2E20F0F0F0F0F0F0F0F0F0F0F0F0F0F0F0F0F0F0F0F0F0F0FF5F5F5F5F5F5F5F5F5E2E2E2BEE2E2E2F5F5F5F5F5F5F5F5F5F5F5F5F5F5F5F5F5F5F5F5F5F5F5F5F5F5F5F5F5F52DF5F5F5E2E2F5F5E2F5F5F5F5F5
310
F5F5F5F5F5F5F5F5F5F5F5F5F5F5F52DF5F5F5F5F5F5F5F5F5F5F5F5F5F5F5F5F5F5F5F5F5F5F5F5F5F5F5F5F5F5F5F5F5F5F5F5F5F5F5F5F5F5F5F5F5F5F5F5F5F5BEF5BEF5F5F5F5F5F50FF5F5F5F5F5F5F5F5F50F0F0FF5F5F5F50FF5F5BEF5BEF5F5F5F5F5F5F5F5F5F5F5F5F5F5F5F5F5F5F5F5F5F5F5F5F5F5F5F5F5
310
F5F5F5F5F5BEF5F5F5F5F5F5F5F5F5F5F5F5F5F5F5F5F5F5F5F5F5F5F5F5F5F5F5F5F5F5F5F5F52DF5F5F5E2E2F5F5E2F5F5F5F5F5F5F5F5F5F5F5F5F5F5F5F5F5F5F5F52DF5F5F5F5F5F5F5F5F5F5F5F5F5F5F5F5F5F5F5F5F5F5F5F5F5F5F5F5F5F5F5F5F5F5F5F5F5F5F5F5F5F5F5F5F5F5F5F5F5F5F5F5F5F5F5F5F5F5
310
F50FF5F5F5F5F5F5F5F5F50F0F0FF5F5F5F50FF5F5F5F5F5F5F5F5F5F5F5F5F5F5F5F5F5F5F5F5F5F5F5F5F5F5F5F5F5F5F5F5F5F5F5F5F5F5F5F5F5F5F5F5F5F5F5F5F5F5F5F5F5F5F5F5F5F5F5F5F5F5F5F5F5F5F5F5F5F5F5F5F52DF5F5F5E2E2F5F5E2F5F5F5F5F5F5F5F5F5F5F5F5F5F5F5F5F5F5F5F52DF5F5F5F5F5
310
F5F5F5F5F5F5F5F5F5F5F5F5F5F5F5F5F5F5F5F5F5F5F5F5F5F5F5F5F5F5F5F5F5F5F5F5F5F5F5F5F5F5F5F5F5F5F5F5F5F5F5F5F5F50FF5F5F5F5F5F5F5F5F5F5F5F5F5F5F5F50FF5F5F5F5F5F5F5F5F5F5F5F5F5F5F5F5F5F5F5F5F5F5F5F5F5F5F5F5F5F5F5F5F5F5F5F5F5F5F5F5F5F5F5F5F5F5F5F5F5F5F5F5F5F5F5
310
F5F5F5F5F5F5F5F5F5F5F5F5F5F5F5F5F5F52DF5F5F5E2E2F5F5E2F5F5F5F5F5F5F5F5F5F5F5F5F5F5F5F5F5F5F5F52DF5F5F5F5F5F5F5F5F5F5F5F5F5F5F5F5F5F5F5F5F5F5F5F5F5F5F5F5F5F5F5F5F5F5F5F5F5F5F5F5F5F5F5F5F5F5F5F5F5F5F5F5F5F5F5F5F5F5F50F0F0F0F0F0F0F0F0F0F0F0F0F0F0F0F0F0FF5F5
310
F5F5F5F5F5F5F5F5F5F5F5F5F5F5F5F5F5F5F5F5F5F5F5F5F5F5F5F5F5F5F5F5F5F5F5F5F5F5F5F5F5F5F5F5F5F5F5F5F5F5F5F5F5F5F5F5F5F5F5F5F5F5F5F5F5F5F5F5F5F5F52DF5F5F5E2E2F5F5E2F5F5F5F5F5F5F5F5F5F5F5F5F5F5F5F5F5F5F5F52DF5F5F5F5F5F5F5F5F5F5F5F5F5F5F5F5F5F5F5F5F5F5F5F5F5F5
310
F5F5F5F5F5F5F5F5F5F5F5F5F5F5F5F5F5F5F5F5F5F5F5F5F5F5F5F5F5F5F5F5F50FF5F5F5F5F5F5F50F0F0FF5F5F5F5F5F50FF5F5F5F5F5F5F5F5F5F5F5F5F5F5F5F5F5F5F5F5F5F5F5F5F5F5F5F5F5F5F5F5F5F5F5F5F5F5F5F5F5F5F5F5F5F5F5F5F5F5F5F5F5F5F5F5F5F5F5F5F5F5F5F5F5F5F5F5F5F5F5F5F52DF5F5
310
F5E2E2F5F5F5F5F5F5F5F5F5F5F5F5F5F5F5F5F5F5F5F5F5F5F52DF5F5F5F5F5F5F5F5F5F5F5F5F5F5F5F5F5F5F5F5F5F5F5F5F5F5F5F5F5F5F5F5F5F5F5F5F5F5F5F5F5F5F5F5F5F5F5F5F5F5F5F5F5F5F5F5F5F5F5F5F5F5F5F5F5F5F50F0F0FF5F5F5F5F5F5F5F5F5F5F5F5F5F5F5F5F5F5F5F5F5F5F5F5F5F5F5F5F5F5
310
F5F5F5F5F5F5F5F5F5F5F5F5F5F5F5F5F5F5F5F5F5F5F5F5F5F5F5F5F5F5F5F5F5F5F5F5F5F5F5F5F5F5F5F5F5F5F5F5F5F52DF5F5F5E2E2F5F5F5F5F5F5F5F5F5F5F5F5F5F5F5F5F5F5F5F5F5F5F52DF5F5F5F5F5F5F5F5F5F5F5F5F5F5F5F5F5F5F5F5F5F5F5F5F5F5F5F5F5F5F5F5F5F5F5F5F5F5F5F5F5F5F5F5F5F5F5
310
F5F5F5F5F5F5F5F5F5F5F5F5F5F5F5F5F5F5F5F5F5F5F5F5F5F5F5F5F5F5F5F5F5F5F5F5F5F5F5F5F5F5F5F5F5F5F5F5F5F5F5F5F5F5F5F5F5F5F5F5F5F5F5F5F5F5F5F5F5F5F5F5F5F5F5F5F5F5F5F5F5F5F5F5F5F5F5F5F5F5F5F5F5F5F5F5F5F5F5F5F5F5F52DF5F5F5E2E2F5F5F5F5F5F5F5F5F5F5F5F5F5F5F5F5F5F5
310
F5F5F5F5F52DF5F5F5F5F5F5F5F5F5F5F5F5F5F5F5F5F5F5F5F5F5F5F5F5F5F5F5F5F5F5F5F5F5F5F50F0F0F0F0F0F0F0F0F0F0F0F0F0F0F0F0F0F0F0F0F0F0F0F0F0F0F0F0F0F0F0F0F0F0F0F0F0F0F0F0F0F0F0F0F0F0F0F0F0F0F0F0F0F0F0F0F0F0F0F0FF5F5F5F5F5F5F5F5F5F5F5F5F5F5F5F5F5F5F5F5F5F5F5F5F5
310
F5F5F5F5F5F5F5F5F5F5F5F5F5F5F5F5F5F5F5F5F5F5F5F5F5F5F5F5F52DF5F5F5E2E2F5F5F5F5F5F5F5F5F5F5F5F5F5F5F5F5F5F5F5F5F5F5F52DF5F5F5F5F5F5F5F5F5F5F5F5F5F5F5F5F5F5F5F5F5F5F5F5F5F5F5F5F5F5F5F5F5F5F50F0F0FF5F5F5F5F5F5F5F5F5F5F5F5F5F5F5F5F5F5F5F5F5F5F5F5F50F0F0F0F0F
310
F5F5F5F5F5F5F5F5F5F5F5F5F5F5F5F5F5F5F5F5F5F5F5F5F5F50F0FF5F5F5F5F5F5F5F5F5F5F5F5F5F5F5F5F5F5F5F5F5F5F5F5F5F5F5F5F5F5F5F5F5F5F5F5F5F5F5F5F5F5F5F5F5F5F5F5F5F5F5F5F5F52DF5F5F5E2E2F5F5F5F5F5F5F5F5F5F5F5F5F5F5F5F5F5F5F5F5F5F5F52DF5F5F5F5F5F5F5F5F5F5F5F5F5F5F5
310
F5F5F5F5F5F5F5F5F5F5F5F5F5F5F5F5F5F5F5F50FF5F5F5F5F5F5F5F5F5F5F5F5F5F5F5F5F5F5F5F5F5F5F5F5F5F5F50F0F0F0F0FF5F5F5F5F5F5F5F5F5F5F5F5F5F5F5F5F5F5F5F5F5F5F5F5F5F5F50FF5F5F5F5F5F5F5F5F5F5F5F5F5F5F5F5F5F5F5F5F5F5F5F5F5F5F5F5F5F5F5F5F5F5F5F5F5F5F5F5F5F5F5F5F5F5
310
F5F5F5F5F5F5F5F52DF5F5F5E2E2F5F5F5F5F5F5F5F5F5F5F5F5F5F5F5F5F5F5F5F5F5F5F52DF5F5F5F5F5F5F5F5F5F5F5F5F5F5F5F5F5F5F5F5F5F5F5F5F5F5F5F5F5F5F5F5F5F5F50FF5F5F5F5F5F5F5F5F5F5F5F5F5F5F5F5F5F5F5F5F5F5F5F5F5F5F5F5F5F5F5F5F5F5F5F5F5F5F5F5F5F5F5F5F5F5F5F5F5F5F5F5F5
310
F5F5F5F5F5F50FF5F5F5F5F5F5F5F5F5F5F5F5F5F5F5F5F5F5F5F5F5F5F5F5F5F5F5F5F5F5F5F5F5F5F5F5F5F5F5F5F5F5F5F5F5F5F5F5F5F5F5F5F5F52DF5F5F5E2E2F5F5F5F5F5F5F5F5F5F5F5F5F5F5F5F5F5F5F5F5F5F5F52DF5F5F5F5F5F5F5F5F5F5F5F5F5F5F5F5F5F5F5F5F5F5F5F5F5F5F5F5F5F5F5F5F5F5F50F
310
F5F5F5F5F5F5F5F5F5F5F5F5F5F5F5F5F5F5F5F5F5F5F5F5F5F5F5F5F50F0F0F0F0F0F0FF5F5F5F5F5F5F5F5F5F5F5F5F5F5F5F5F5F5F5F5F5F5F50FF5F5F5F5F5F5F5F5F5F5F5F5F5F5F5F5F5F5F5F5F5F5F5F5F5F5F5F5F5F5F5F5F5F5F5F5F5F5F5F5F5F5F5F5F5F5F5F5F5F5F5F5F5F52DF5F5F5E2E2F5F5F5F5F5F5F5
310
F5F5F5F5F5F5F5F5F5F5F5F5F5F5F5F52DF5F5F5F5F5F5F5F5F5F5F5F5F5F5F5F5F5F5F5F5F5F5F5F5F5F5F5F5F5F5F5F5F5F5F50FF5F5F5F5F5F5F5F5F5F5F5F5F5F5F5F5F5F5F5F5F5F5F5F5F5F5F5F5F50F0FF50FF50F0FF5F5F5F5F5F5F5F5F5F5F5F5F5F5F5F5F5F5F5F5F5F5F50FF5F5F5F5F5F5F5F5F5F5F5F5F5F5
310
F5F5F5F5F5F5F5F5F5F5F5F5F5F5F5F5F5F5F5F5F5F5F5F5F5F5F5F5F5F5F5F5F5F5F5F5F5F5F5F52DF5F5F5E2E2F5F5E2F5F5F5F5F5F5F5F5F5F5F5F5F5F5F5F5F5F5F5F52DF5F5F5F5F5F5F5F5F5F5F5F5F5F5F5F5F5F5F5F5F5F5F5F5F5F5F5F5F5F5F5F5F5F5F50FF5F5F5F5F5F5F5F5F5F5F5F5F5F5F5F5F5F5F5F5F5
310
F5F5F5F5F5F5F5F50FF50F0FF5F50FF5F5F5F5F50F0F0F0F0F0F0F0F0F0F0FF5F5F5F5F5F5F50FF5F5F5F5F5F5F5F5F5F5F5F5F5F5F5F5F5F5F5F5F5F5F5F5F5F5F5F5F5F5F5F5F5F5F5F5F5F5F5F5F5F5F5F5F5F5F5F5F5F5F5F5F5F52DF5F5F5E2E2F5F5E2F5F5F5F5F5F5F5F5F5F5F5F5F5F5F5F5F5F5F5F52DF5F5F5F5
310
F5F5F5F5F5F5F5F5F5F5F5F5F5F5F5F5F5F5F5F5F5F5F5F5F5F5F5F5F5F5F50FF5F5F5F5F5F5F5F5F5F5F5F5F5F5F5F5F5F5F5F5F5F5F5F5F5F5F5F5F50FF5F5F5F5F50FF5F5BE0F0F0F0F0F0F0F0F0F0F0F0F0FF5F5F5F5F5F5F50FF5F5F5F5F5F5F5F5F5F5F5F5F5F5F5F5F5F5F5F5F5F5F5F5F5F5F5F5F5F5F5F5F5F5F5
310
F5F5F5F5F5F5F5F5F5F5F5F5F5F5F5F5F5F5F52DF5F5F5E2E2F5F5E2F5F5F5F5F5F5F5F5F5F5F5F5F5F5F5F5F5F5F5F52DF5F5F5F5F5F5F5F5F5F5F5F5F5F5F5F5F5F5F5F5F5F5F50F0F0F0F0F0F0F0F0F0F0F0F0F0F0F0F0F0F0F0F0F0F0F0F0F0F0F0F0F0F0F0F0F0F0F0F0F0F0F0F0F0F0F0F0F0F0F0F0F0F0FE20FF50F
310
0FF50F0F0F0F0FF5F5F5F5F5F5F5F5F5F50FF5F5F5F5F5F5F5F5F5F5F5F5F5F5F5F5F5F5F5F5F5F5F5F5F5F5F5F5F5F5F5F5F5F5F5F5F5F5F5F5F5F5F5F5F5F5F5F5F5F5F5F5F5F52DF5F5F5E2E2F5F5E2F5F5F5F5F5F5F5F5F5F5F5F5F5F5F5F5F5F5F5F52DF5F5F5F5F5F5F5F5F5F5F5F5F5F5F5F5F5F5F5F5F5F5F50F0F
310
F5F50F0F0F0F0F0F0F0F0F0F0F0F0F0F0F0F0F0F0F0F0F0F0F0F0F0F0F0F0F0F0F0F0F0F0F0F0F0F0F0F0F0F0F0F0F0FE20FE2E2E2E2E2E2E2E2E2E2E2E2E2E2E2E2E20F0F0F0F0F0F0F0F0F0F0F0FF5F5F5F5F5F5F5F5F5F5F5F5F5F5F5F5F5F5F5F5F5F5F5F5F5F5F5F5F5F5F5F5F5F5F5F5F5F5F5F5F5F5F5F5F5F52DF5
310
F5F5E2E2F5F5E2F5F5F5F5F5F5F5F5F5F5F5F5F5F5F5F5F5F5F5F52DF5F5F5F5F5F5F5F5F5F5F5F5F5F5F5F5F5F5F5F5F50F0F0F0F0F0F0F0FF5F5F50FF5F50FE2E2E2E2F5E2F5F5F5F5F5F5E2E2E2E2E2E2E2F5F5F5F5E2F5F5E2E2E2E2E2F5F5F5F50FF5E20FE2E2E2F5E2E2E2F5E2F5F5F5F5F5F5E2E2E2E2E20F0FF50F
310
0FF5F50F0FF5F5F5F5F5F5F5F5F5F5F5F5F5F5F5F5F5F5F5F5F5F5F5F5F5F5F5F5F5F5F5F5F5F5F5F5F5F5F5F5F5F5F5F5F5F52DF5F5F5E2E2F5F5E2F5F5F5F5F5F5F5F5F5F5F5F5F5F5F5F5F5F5F5F52DF5F5F5F5F5F5F5F5F5F5F5F5F5F5F5F5F5F5F5F5F50F0F0FF50F0F0FF5F5F50F0F0F0F0F0F0F0F0F0F0F0F0F0F0F
310
0F0F0F0F0F0F0F0F0F0F0F0F0F0F0F0F0F0FE2E2E2BEF5BEE2E2E2F50FF5E2E2BEE2E2E2E2E2F5F5F5F5F5F5E2E2E2E2E2E20F0F0F0F0F0F0FF5F5F5F5F5F5F5F5F5F5F5F5F5F5F5F5F5F5F5F5F5F5F5F5F5F5F5F5F5F5F5F5F5F5F5F5F5F5F5F5F5F5F5F5F5F5F52DF5F5F5E2E2F5F5E2F5F5F5F5F5F5F5F5F5F5F5F5F5F5
310
F5F5F5F5F5F52DF5F5F5F5F5F5F5F5F5F5F5F5F5F5F5F5F5F5F5F5F5F50F0FF50F0F0F0FF5F50F0F0F0F0F0F0F0F0F0F0F0F0F0F0F0F0F0F0F0F0F0F0F0F0F0F0F0F0F0F0F0F0F0F0F0F0F0F0FE2E2E2E20FF5E2E2F5E2E2E2E2E2F5F5F5F5F5F5E2E2E2E2E2E20F0F0F0F0F0F0FF5F5F5F5F5F5F5F5F5F5F5F5F5F5F5F5F5
310
F5F5F5F5F5F5F5F5F5F5F5F5F5F5F5F5F5F5F5F5F5F5F5F5F5F5F5F5F5F52DF5F5F5E2E2F5F5E2F5F5F5F5F5F5F5F5F5F5F5F5F5F5F5F5F5F5F5F52DF5F5F5F5F5F5F5F5F5F5F5F5F5F5F5F5F5F5F5F5F50F0F0F0FF5F50F0FF5F5F50FF5F5E2E2E2E2E2F5E2F5F5F5F5F5F5E2F5E2F5E2E2E2F5F5F5F5E2F5E2E2E2F5F5F5
310
F5F5F5E2E20FE20FF5E2E2E2E2E2E2F5E2F5F5F5F5F5F5E2F5E2E2E20F0F0F0F0FF5F50F0FF5F5F5F5F5F5F5F5F5F5F5F5F5F5F5F5F5F5F5F5F5F5F5F5F5F5F5F5F5F5F5F5F5F5F5F5F5F5F5F5F5F5F5F5F5F52DF5F5F5E2E2F5F5E2F5F5F5F5F5F5F5F5F5F5F5F5F5F5F5F5F5F5F5F52DF5F5F5F5F5F5F5F5F5F5F5F5F5F5
310
F5F5F5F5F5F5F5F5F50F0FF5F50F0F0F0F0F0F0F0F0F0F0F0F0F0F0F0F0F0F0F0F0F0F0F0F0F0F0F0F0F0F0F0F0F0FE20FE2E2E2E2E2E2E2E2E20F0F0FE2E2E2E2E2E2E2E2E2E2E2E2E2E2E2E2E20F0F0F0F0F0F0F0F0F0F0F0FF5F5F5F5F5F5F5F5F5F5F5F5F5F5F5F5F5F5F5F5F5F5F5F5F5F5F5F5F5F5F5F5F5F5F5F5F5
310
F5F5F5F5F5F5F5F5F52DF5F5F5E2E2F5F5E2F5F5F5F5F5F5F5F5F5F5F5F5F5F5F5F5F5F5F5F52DF5F5F5F5F5F5F5F5F5F5F5F5F5F5F5F5F5F5F5F5F5F5F50F0F0F0F0F0F0F0F0F0F0F0F0F0F0F0F0F0F0F0F0F0F0F0F0F0F0F0F0F0F0F0F0F0F0F0F0F0F0F0FF5F5F5F5F5F5F5F5F50FF50FF5F5F5F5F5F5F5F5F5F5F5F5F5
310
F5F5F5F5F5F5F5F5F5F5F5F5F5F5F5F5F5F5F5F5F5F5F5F5F5F5F5F5F5F5F5F5F5F5F5F5F5F5F5F5F5F5F5F5F5F5F5F5F5F5F5F5F5F5F5F5F5F5F5F5F5F52DF5F5F5E2E2F5F5E2F5F5F5F5F5F5F5F5F5F5F5F5F5F5F5F5F5F5F5F52DF5F5F5F5F5F5F5F5F5F5F5F5F5F5F5F5F5F5F5F5F5F5F5F5F5F5F5F5F5F50F0F0FF5F5
310
F5F5F5F5F5F5F5F5F5F5F5F5F5F5F5F5F5F5F5F5F5F5F5F5F5F5F50FF5F5F5F5F5F5F5F5F5F5F50FF5F5F5F5F5F5F5F5F5F5F5F5F5F5F5F5F5F5F5F5F5F5F5F5F5F5F5F5F5F5F5F5F5F5F5F5F5F5F5F5F5F5F5F5F5F5F5F5F5F5F5F5F5F5F5F5F5F5F5F5F5F5F5F5F5F5F5F5F5F5F5F5F5F5F52DF5F5F5E2E2F5F5E2F5F5F5
310
F5F5F5F5F5F5F5F5F5F5F5F5F5F5F5F5F52DF5F5F5F5F5F5F5F5F5F5F5F5F5F5F5F5F5F5F5F5F5F5F5F5F5F5F5F5F5F50F0F0FF5F5F5F5F5F5F5F5F5F5F5F5F5F5F5F5F5F5F5F5F5F5F5F5F5F5F5F5F50FF5F5F5F5F5F5F5F5F5F5F50F0FF5F5F5F5F5F5F5F5F5F5F5F5F5F5F5F5F5F5F5F5F5F5F5F5F5F5F5F5F5F5F5F5F5
310
F5F5F5F5F5F5F5F5F5F5F5F5F5F5F5F5F5F5F5F5F5F5F5F5F5F5F5F5F5F5F5F5F5F5F5F5F5F5F5F5F52DF5F5F5E2E2F5F5E2F5F5F5F5F5F5F5F5F5F5F5F5F5F5F5F5F5F5F5F52DF5F5F5F5F5F5F5F5F5F5F5F5F5F5F5F5F5F5F5F5F5F5F5F5F5F5F5F5F5F50F0F0FF5F5F5F5F5F5F5F5F5F5F5F5F5F5F5F5F5F5F5F5F5F5F5
310
F5F5F5F5F5F50FF5F5F5F5F5F5F5F5F5F5F50F0FF5F5F5F5F5F5F5F5F5F5F5F5F5F5F5F5F5F5F5F5F5F5F5F5F5F5F5F5F5F5F5F5F5F5F5F5F5F5F5F5F5F5F5F5F5F5F5F5F5F5F5F5F5F5F5F5F5F5F5F5F5F5F5F5F5F5F5F5F5F5F5F5F5F52DF5F5F5E2E2F5F5E2F5F5F5F5F5F5F5F5F5F5F5F5F5F5F5F5F5F5F5F52DF5F5F5
310
F5F5F5F5F5F5F5F5F5F5F5F5F5F5F5F5F5F5F5F5F5F5F5F5F5F5F5F5F5F5F5F5F5F5F5F5F5F5F5F5F5F5F5F5F5F5F5F5F5F5F5F5F5F5F5F5F5F5F50FF5F5F5F5F5F5F5F5F5F5F50FF50F0F0F0F0F0F0F0F0F0F0FF5F5F5F5F5F5F5F5F5F5F5F5F5F5F5F5F5F5F5F5F5F5F5F5F5F5F5F5F5F5F5F5F5F5F5F5F5F5F5F5F5F5F5
310
F5F5F5F5F5F5F5F5F5F5F5F5F5F5F5F5F5F5F5F52DF5F5F5E2E2F5F5E2F5F5F5F5F5F5F5F5F5F5F5F5F5F5F5F5F5F5F5F52DF5F5F5F5F5F5F5F5F5F5F5F5F5F5F5F5F5F5F5F5F5F5F5F5F5F5F5F5F5F5F5F5F5F5F5F5F5F5F5F5F5F5F5F5F5F5F5F5F5F5F5F5F5F5F5F5F5F5F5F5F5F50FF5F5F5F5F5F5F5F5F5F5F50FF5F5
310
0F0F0F0F0F0F0F0F0FF5F5F5F5F5F5F5F5F5F5F5F5F5F5F5F5F5F5F5F5F5F5F5F5F5F5F5F5F5F5F5F5F5F5F5F5F5F5F5F5F5F5F5F5F5F5F5F5F5F5F5F5F5F5F5F5F5F5F5F5F5F5F5F52DF5F5F5E2E2F5F5F5F5F5F5F5F5F5F5F5F5F5F5F5F5F5F5F5F5F5F5F52DF5F5F5F5F5F5F5F5F5F5F5F5F5F5F5F5F5F5F5F5F5F5F5F5
310
F5F5F5F5F5F5F5F5F5F5F5F5F5F5F5F5F5F5F5F5F5F5F5F5F5F5F5F5F5F5F5F5F5F5F5F5F5F50F0F0F0F0F0F0F0F0F0F0F0F0FF5F50FF50F0F0F0F0F0F0FF5F5F5F5F5F5F5F5F5F5F5F5F5F5F5F5F5F5F5F5F5F5F5F5F5F5F5F5F5F5F5F5F5F5F5F5F5F5F5F5F5F5F5F5F5F5F5F5F5F5F5F5F5F5F5F5F5F5F5F5F5F5F5F52D
310
F5F5F5E2E2F5F5F5F5F5F5F5F5F5F5F5F5F5F5F5F5F5F5F5F5F5F5F52DF5F5F5F5F5F5F5F5F5F5F5F5F5F5F5F5F5F5F5F5F5F5F5F5F5F5F5F5F5F5F5F5F5F5F5F5F5F5F5F5F5F5F5F5F5F5F5F5F5F5F5F5F5F5F5F5F5F5F5F5F5F50FF5F5F5F50F0F0F0FF5F5F50FF5F5F5F5F5F5F5F5F5F5F5F5F5F5F5F5F5F5F5F5F5F5F5
310
F5F5F5F5F5F5F5F5F5F5F5F5F5F5F5F5F5F5F5F5F5F5F5F5F5F5F5F5F5F5F5F5F5F5F5F5F5F5F5F5F5F5F5F5F5F5F5F5F5F5F5F52DF5F5F5E2E2F5F5F5F5F5F5F5F5F5F5F5F5F5F5F5F5F5F5F5F5F5F5F52DF5F5F5F5F5F5F5F5F5F5F5F5F5F5F5F5F5F5F5F5F5F5F5F5F5F5F5F5F5F5F5F5F5F5F5F5F5F5F5F5F5F5F5F5F5
310
F5F5F5F5F5F5F5F5F5F5F5F5F5F5F5F5F5F5F5F5F50F0F0F0FF5F5F5F5F5F5F5F5F5F5F5F5F5F5F5F5F5F5F5F5F5F5F5F5F5F5F5F5F5F5F5F5F5F5F5F5F5F5F5F5F5F5F5F5F5F5F5F5F5F5F5F5F5F5F5F5F5F5F5F5F5F5F5F5F5F5F5F5F5F5F5F5F5F5F5F5F5F5F5F52DF5F5F5E2E2F5F5F5F5F5F5F5F5F5F5F5F5F5F5F5F5
310
F5F5F5F5F5F5F52DF5F5F5F5F5F5F5F5F5F5F5F5F5F5F5F5F5F5F5F5F5F5F5F5F5F5F5F5F5F5F5F5F5F5F5F5F5F5F5F5F5F5F5F5F5F5F5F5F5F5F5F5F5F5F5F5F5F5F5F5F5F5F5F5F5F5F5F5F5F5F5F5F5F5F5F5F5F5F5F5F5F5F5F5F5F5F5F5F5F5F5F5F5F5F5F5F5F5F5F5F5F5F5F5F5F5F5F5F5F5F5F5F5F5F5F5F5F5F5
310
F5F5F5F5F5F5F5F5F5F5F5F5F5F5F5F5F5F5F5F5F5F5F5F5F5F5F5F5F5F5F52DF5F5F5E2E2F5F5F5F5F5F5F5F5F5F5F5F5F5F5F5F5F5F5F5F5F5F5F52DF5F5F5F5F5F5F5F5F5F5F5F5F5F5F5F5F5F5F5F5F5F5F5F5F5F5F5F5F5F5F5F5F5F5F5F5F5F5F5F5F5F5F5F5F5F5F5F5F5F5F5F5F5F5F5F5F5F5F5F5F5F5F5F5F5F5
310
F5F5F5F5F5F5F5F5F5F5F5F5F5F5F5F5F5F5F5F5F5F5F5F5F5F5F5F5F5F5F5F5F5F5F5F5F5F5F5F5F5F5F5F5F5F5F5F5F5F5F5F5F5F5F5F5F5F5F5F5F5F5F5F5F5F5F5F5F5F5F5F5F5F5F5F5F5F5F5F5F5F5F5F52DF5F5F5E2E2F5F5F5F5F5F5F5F5F5F5F5F5F5F5F5F5F5F5F5F5F5F5F52DF5F5F5F5F5F5F5F5F5F5F5F5F5
310
F5F5F5F5F5F5F5F5F5F5F5F5F5F5F5F5F5F5F5F5F5F5F5F5F5F5F5F5F5F5F5F5F5F5F5F5F5F5F5F5F5F5F5F5F5F5F5F5F5F5F5F5F5F5F5F5F5F5F5F5F5F5F5F5F5F5F5F5F5F5F5F5F5F5F5F5F5F5F5F5F5F5F5F5F5F5F5F5F5F5F5F5F5F5F5F5F5F5F5F5F5F5F5F5F5F5F5F5F5F5F5F5F5F5F5F5F5F5F5F5F5F5F5F5F5F5F5
310
F5F5F5F5F5F5F5F5F5F52DF5F5F5E2E2F5F5F5F5F5F5F5F5F5F5F5F5F5F5F5F5F5F5F5F5F5F5F52DF5F5F5F5F5F5F5F5F5F5F5F5F5F5F5F5F5F5F5F5F5F5F5F5F5F5F5F5F5F5F5F5F5F5F5F5F5F5F5F5F5F5F5F5F5F5F5F5F5F5F5F5F5F5F5F5F5F5F5F5F5F5F5F5F5F5F5F5F5F5F5F5F5F5F5F5F5F5F5F5F5F5F5F5F5F5F5
310
F5F5F5F5F5F5F5F5F5F5F5F5F5F5F5F5F5F5F5F5F5F5F5F5F5F5F5F5F5F5F5F5F5F5F5F5F5F5F5F5F5F5F5F5F5F5F5F5F5F5F5F5F5F5F5F5F5F5F5F5F5F5F52DF5F5F5E2E2F5F5F5F5F5F5F5F5F5F5F5F5F5F5F5F5F5F5F5F5F5F5F52DF5F5F5F5F5F5F5F5F5F5F5F5F5F5F5F5F5F5F5F5F5F5F5F5F5F5F5F5F5F5F5F5F5F5
310
F5F5F5F5F5F5F5F5F5F5F5F5F5F5F5F5F5F5F5F5F5F5F5F5F5F5F5F5F5F5F5F5F5F5F5F5F5F5F5F5F5F5F5F5F5F5F5F5F5F5F5F5F5F5F5F5F5F5F5F5F5F5F5F5F5F5F5F5F5F5F5F5F5F5F5F5F5F5F5F5F5F5F5F5F5F5F5F5F5F5F5F5F5F5F5F5F5F5F5F5F5F5F5F5F5F5F5F5F5F5F5F5F5F5F5F52DF5F5F5E2E2F5F5F5F5F5
310
F5F5F5F5F5F5F5F5F5F5F5F5F5F5F5F5F5F52DF5F5F5F5F5F5F5F5F5F5F5F5F5F5F5F5F5F5F5F5F5F5F5F5F5F5F5F5F5F5F5F5F5F5F5F5F5F5F5F5F5F5F5F5F5F5F5F5F5F5F5F5F5F5F5F5F5F5F5F5F5F5F5F5F5F5F5F5F5F5F5F5F5F5F5F5F5F5F5F5F5F5F5F5F5F5F5F5F5F5F5F5F5F5F5F5F5F5F5F5F5F5F5F5F5F5F5F5
310
F5F5F5F5F5F5F5F5F5F5F5F5F5F5F5F5F5F5F5F5F5F5F5F5F5F5F5F5F5F5F5F5F5F5F5F5F5F5F5F5F5F52DF5F5F5E2E2F5F5E2F5F5F5F5F5F5F5F5F5F5F5F5F5F5F5F5F5F5F5F52DF5F5F5F5F5F5F5F5F5F5F5F5F5F5F5F5F5F5F5F5F5F5F5F5F5F5F5F5F5F5F5F5F5F5F5F5F5F5F5F5F5F5F5F5F5F5F5F5F5F5F5F5F5F5F5
310
F5F5F5F5F5F5F5F5F5F5F5F5F5F5F5F5F5F5F5F5F5F5F5F5F5F5F5F5F5F5F5F5F5F5F5F5F5F5F5F5F5F5F5F5F5F5F5F5F5F5F5F5F5F5F5F5F5F5F5F5F5F5F5F5F5F5F5F5F5F5F5F5F5F5F5F5F5F5F5F5F5F5F5F5F5F5F5F5F5F5F5F5F5F5F52DF5F5F5E2E2F5F5E2F5F5F5F5F5F5F5F5F5F5F5F5F5F5F5F5F5F5F5F52DF5F5
310
F5F5F5F5F5F5F5F5F5F5F5F5F5F5F5F5F5F5F5F5F5F5F5F5F5F5F5F5F5F5F5F5F5F5F5F5F5F5F5F5F5F5F5F5F5F5F5F5F5F5F5F5F5F5F5F5F5F5F5F5F5F5F5F5F5F5F5F5F5F5F5F5F5F5F5F5F5F5F5F5F5F5F5F5F5F5F5F5F5F5F5F5F5F5F5F5F5F5F5F5F5F5F5F5F5F5F5F5F5F5F5F5F5F5F5F5F5F5F5F5F5F5F5F5F5F5F5
310
F5F5F5F5F5F5F5F5F5F5F5F5F5F5F5F5F5F5F5F5F52DF5F5F5E2E2F5F5E2F5F5F5F5F5F5F5F5F5F5F5F5F5F5F5F5F5F5F5F52DF5F5F5F5F5F5F5F5F5F5F5F5F5F5F5F5F5F5F5F5F5F5F5F5F5F5F5F5F5F5F5F5F5F5F5F5F5F5F5F5F5F5F5F5F5F5F5F5F5F5F5F5F5F5F5F5F5F5F5F5F5F5F5F5F5F5F5F5F5F5F5F5F5F5F5F5
310
F5F5F5F5F5F5F5F5F5F5F5F5F5F5F5F5F5F5F5F5F5F5F5F5F5F5F5F5F5F5F5F5F5F5F5F5F5F5F5F5F5F5F5F5F5F5F5F5F5F5F5F5F5F5F5F5F5F5F5F5F5F5F5F5F5F5F5F5F5F5F5F5F5F52DF5F5F5E2E2F5F5E2F5F5F5F5F5F5F5F5F5F5F5F5F5F5F5F5F5F5F5F52D2D2D2D2D2D2D2D2D2D2D2D2D2D2D2D2D2D2D2D2D2D2D2D
310
2D2D2D2D2D2D2D2D2D2D2D2D2D2D2D2D2D2D2D2D2D2D2D2D2D2D2D2D2D2D2D2D2D2D2D2D2D2D2D2D2D2D2D2D2D2D2D2D2D2D2D2D2D2D2D2D2D2D2D2D2D2D2D2D2D2D2D2D2D2D2D2D2D2D2D2D2D2D2D2D2D2D2D2D2D2D2D2D2D2D2D2D2D2D2D2D2D2D2D2D2D2D2D2D2D2D2D2D2D2D2D2D2D2D2D2D2D2D2D2D2D2D2D2D2D2D2D
310
2DF5F5F5E2E2F5F5E2F5F5F5F5F5F5F5F5F5F5F5F5F5F5F5F5F5F5F5F5F5F5F5F5F5F5F5F5F5F5F5F5F5F5F5F5F5F5F5F5F5F5F5F5F5F5F5F5F5F5F5F5F5F5F5F5F5F5F5F5F5F5F5F5F5F5F5F5F5F5F5F5F5F5F5F5F5F5F5F5F5F5F5F5F5F5F5F5F5F5F5F5F5F5F5F5F5F5F5F5F5F5F5F5F5F5F5F5F5F5F5F5F5F5F5F5F5F5
310
F5F5F5F5F5F5F5F5F5F5F5F5F5F5F5F5F5F5F5F5F5F5F5F5F5F5F5F5F5F5F5F5F5F5F5F5F5F5F5F5F5F5F5F5F5F5F5F5F5F5F5F5F5E2F5F5F5E2E2F5F5E2F5F5F5F5F5F5F5F5F5F5F5F5F5F5F5F5F5F5F5F5F5F5F5F5F5F5F5F5F5F5F5F5F5F5F5F5F5F5F5F5F5F5F5F5F5F5F5F5F5F5F5F5F5F5F5F5F5F5F5F5F5F5F5F5F5
310
F5F5F5F5F5F5F5F5F5F5F5F5F5F5F5F5F5F5F5F5F5F5F5F5F5F5F5F5F5F5F5F5F5F5F5F5F5F5F5F5F5F5F5F5F5F5F5F5F5F5F5F5F5F5F5F5F5F5F5F5F5F5F5F5F5F5F5F5F5F5F5F5F5F5F5F5F5F5F5F5F5F5F5F5F5F5F5F5F5F5F5F5F5F5F5F5F5F5F5F5F5F5F5F5F5F5E2F5F5F5E2E2F5F5E2F5F5F5F5F5F5F5F5F5F5F5F5
310
F5F5F5F5F5F5F5F5F5F5F5F5F5F5F5F5F5F5F5F5F5F5F5F5F5F5F5F5F5F5F5F5F5F5F5F5F5F5F5F5F5F5F5F5F5F5F5F5F5F5F5F5F5F5F5F5F5F5F5F5F5F5F5F5F5F5F5F5F5F5F5F5F5F5F5F5F5F5F5F5F5F5F5F5F5F5F5F5F5F5F5F5F5F5F5F5F5F5F5F5F5F5F5F5F5F5F5F5F5F5F5F5F5F5F5F5F5F5F5F5F5F5F5F5F5F5F5
310
F5F5F5F5F5F5F5F5F5F5F5F5F5F5F5F5F5F5F5F5F5F5F5F5F5F5F5F5F5F5F5F5E2F5F5F5E2E2F5F5E2E2E2E2E2E2E2E2F5F5F5F5F5F5F5F5F5E2E2E2E2E2E2E2E2E2E2E2E2E2E2E2E2F5F5F5F5F5F5F5F5F5E2E2E2E2E2E2E2E2E2E2E2E2E2E2E2E2F5F5F5F5F5F5F5F5E2E2E2E2E2E2E2E2E2E2E2E2E2E2E2E2F5F5F5F5F5
310
F5F5F5F5E2E2E2E2E2E2E2E2E2E2E2E2E2E2E2E2F5F5F5F5F5F5F5F5E2E2E2E2E2E2E2E2E2E2E2E2E2E2E2E2F5F5F5F5F5F5F5F5F5E2E2E2E2E2E2E2E2E2E2E2E2E2E2E2E2F5F5F5F5F5F5F5F5F5E2E2E2E2E2E2E2E2F5F5F5E2E2F5F5F5F5F5F5F5F5F5F5F5F5F5F5F5F5F5F5F5F5F5F5F5F5F5F5F5F5F5F5F5F5F5F5F5F5
310
F5F5F5F5F5F5F5F5F5F5F5F5F5F5F5F5F5F5F5F5F5F5F5F5F5F5F5F5F5F5F5F5F5F5F5F5F5F5F5F5F5F5F5F5F5F5F5F5F5F5F5F5F5F5F5F5F5F5F5F5F5F5F5F5F5F5F5F5F5F5F5F5F5F5F5F5F5F5F5F5F5F5F5F5F5F5F5F5F5F5F5F5F5F5F5F5F5F5F5F5F5F5F5F5F5F5F5F5F5F5F5F5F5F5F5F5F5F5F5F5F5F5F5F5F5F5F5
310
F5F5F5F5F5F5F5F5F5F5F5F5F5F5F5E2E2F5F5F5F5F5F5F5F5F5F5F5F5F5F5F5F5F5F5F5F5F5F5F5F5F5F5F5F5F5F5F5F5F5F5F5F5F5F5F5F5F5F5F5F5F5F5F5F5F5F5F5F5F5F5F5F5F5F5F5F5F5F5F5F5F5F5F5F5F5F5F5F5F5F5F5F5F5F5F5F5F5F5F5F5F5F5F5F5F5F5F5F5F5F5F5F5F5F5F5F5F5F5F5F5F5F5F5F5F5F5
310
F5F5F5F5F5F5F5F5F5F5F5F5F5F5F5F5F5F5F5F5F5F5F5F5F5F5F5F5F5F5F5F5F5F5F5F5F5F5F5F5F5F5F5F5F5F5F5F5F5F5F5F5F5F5F5F5F5F5F5F5F5F5F5F5F5F5F5F5E2E2F5F5F5F5F5F5F5F5F5F5F5F5F5F5F5F5F5F5F5F5F5F5F5F5F5F5F5F5F5F5F5F5F5F5F5F5F5F5F5F5F5F5F5F5F5F5F5F5F5F5F5F5F5F5F5F5F5
310
F5F5F5F5F5F5F5F5F5F5F5F5F5F5F5F5F5F5F5F5F5F5F5F5F5F5F5F5F5F5F5F5F5F5F5F5F5F5F5F5F5F5F5F5F5F5F5F5F5F5F5F5F5F5F5F5F5F5F5F5F5F5F5F5F5F5F5F5F5F5F5F5F5F5F5F5F5F5F5F5F5F5F5F5F5F5F5F5F5F5F5F5F5F5F5F5F5F5F5F5F5F5F5F5F5F5F5F5F5F5F5F5F5F5F5F5F5F5F5F5F5E2E2E2E2E2E2
310
E2E2E2E2E2E2E2E2E2E2E2E2E2E2E2E2E2E2E2E2E2E2E2E2E2E2E2E2E2E2E2E2E2E2E2E2E2E2E2E2E2E2E2E2E2E2E2E2E2E2E2E2E2E2E2E2E2E2E2E2E2E2E2E2E2E2E2E2E2E2E2E2E2E2E2E2E2E2E2E2E2E2E2E2E2E2E2E2E2E2E2E2E2E2E2E2E2E2E2E2E2E2E2E2E2E2E2E2E2E2E2E2E2E2E2E2E2E2E2E2E2E2E2E2E2E2E2
310
E2E2E2E2E2E2E2E2E2E2E2E2E2E2E2E2E2E2E2E2E2E2E2E2E2E2E2E2E2E2E2E2E2E2E2E2E2E2E2E2E2E2E2E2E2E2E2E2
  0
ENDSEC
  0
EOF
