  0
SECTION
  2
HEADER
  9
$ACADVER
  1
AC1015
  9
$ACADMAINTVER
 70
    20
  9
$DWGCODEPAGE
  3
ANSI_950
  9
$INSBASE
 10
0.0
 20
0.0
 30
0.0
  9
$EXTMIN
 10
1277.938434613672
 20
621.0558875255373
 30
-0.0084589793934811
  9
$EXTMAX
 10
1460.270864174901
 20
863.1863427001844
 30
138.6067233396099
  9
$LIMMIN
 10
0.0
 20
0.0
  9
$LIMMAX
 10
420.0
 20
297.0
  9
$ORTHOMODE
 70
     0
  9
$REGENMODE
 70
     1
  9
$FILLMODE
 70
     1
  9
$QTEXTMODE
 70
     0
  9
$MIRRTEXT
 70
     1
  9
$LTSCALE
 40
1.0
  9
$ATTMODE
 70
     1
  9
$TEXTSIZE
 40
1.0
  9
$TRACEWID
 40
1.0
  9
$TEXTSTYLE
  7
STANDARD
  9
$CLAYER
  8
0
  9
$CELTYPE
  6
ByLayer
  9
$CECOLOR
 62
   256
  9
$CELTSCALE
 40
1.0
  9
$DISPSILH
 70
     0
  9
$DIMSCALE
 40
1.0
  9
$DIMASZ
 40
2.5
  9
$DIMEXO
 40
1.0
  9
$DIMDLI
 40
10.0
  9
$DIMRND
 40
0.0
  9
$DIMDLE
 40
0.0
  9
$DIMEXE
 40
1.0
  9
$DIMTP
 40
0.1
  9
$DIMTM
 40
0.1
  9
$DIMTXT
 40
3.5
  9
$DIMCEN
 40
0.0
  9
$DIMTSZ
 40
0.0
  9
$DIMTOL
 70
     0
  9
$DIMLIM
 70
     0
  9
$DIMTIH
 70
     0
  9
$DIMTOH
 70
     0
  9
$DIMSE1
 70
     0
  9
$DIMSE2
 70
     0
  9
$DIMTAD
 70
     1
  9
$DIMZIN
 70
     8
  9
$DIMBLK
  1

  9
$DIMASO
 70
     1
  9
$DIMSHO
 70
     1
  9
$DIMPOST
  1

  9
$DIMAPOST
  1
"
  9
$DIMALT
 70
     0
  9
$DIMALTD
 70
     2
  9
$DIMALTF
 40
0.0393701
  9
$DIMLFAC
 40
1.0
  9
$DIMTOFL
 70
     1
  9
$DIMTVP
 40
0.0
  9
$DIMTIX
 70
     0
  9
$DIMSOXD
 70
     0
  9
$DIMSAH
 70
     0
  9
$DIMBLK1
  1

  9
$DIMBLK2
  1

  9
$DIMSTYLE
  2
AM_ISO
  9
$DIMCLRD
 70
   256
  9
$DIMCLRE
 70
   256
  9
$DIMCLRT
 70
     2
  9
$DIMTFAC
 40
0.71
  9
$DIMGAP
 40
1.5
  9
$DIMJUST
 70
     0
  9
$DIMSD1
 70
     0
  9
$DIMSD2
 70
     0
  9
$DIMTOLJ
 70
     0
  9
$DIMTZIN
 70
     8
  9
$DIMALTZ
 70
     0
  9
$DIMALTTZ
 70
     0
  9
$DIMUPT
 70
     0
  9
$DIMDEC
 70
     2
  9
$DIMTDEC
 70
     3
  9
$DIMALTU
 70
     2
  9
$DIMALTTD
 70
     4
  9
$DIMTXSTY
  7
STANDARD
  9
$DIMAUNIT
 70
     0
  9
$DIMADEC
 70
     0
  9
$DIMALTRND
 40
0.0
  9
$DIMAZIN
 70
     2
  9
$DIMDSEP
 70
    46
  9
$DIMATFIT
 70
     3
  9
$DIMFRAC
 70
     0
  9
$DIMLDRBLK
  1

  9
$DIMLUNIT
 70
     2
  9
$DIMLWD
 70
    -1
  9
$DIMLWE
 70
    -1
  9
$DIMTMOVE
 70
     0
  9
$LUNITS
 70
     2
  9
$LUPREC
 70
     2
  9
$SKETCHINC
 40
1.0
  9
$FILLETRAD
 40
2.5
  9
$AUNITS
 70
     0
  9
$AUPREC
 70
     0
  9
$MENU
  1
.
  9
$ELEVATION
 40
0.0
  9
$PELEVATION
 40
0.0
  9
$THICKNESS
 40
0.0
  9
$LIMCHECK
 70
     0
  9
$CHAMFERA
 40
2.5
  9
$CHAMFERB
 40
2.5
  9
$CHAMFERC
 40
20.0
  9
$CHAMFERD
 40
0.0
  9
$SKPOLY
 70
     0
  9
$TDCREATE
 40
2455118.495988414
  9
$TDUCREATE
 40
2455118.162655081
  9
$TDUPDATE
 40
2455118.576062246
  9
$TDUUPDATE
 40
2455118.242728912
  9
$TDINDWG
 40
0.0800758218
  9
$TDUSRTIMER
 40
0.0800758218
  9
$USRTIMER
 70
     1
  9
$ANGBASE
 50
0.0
  9
$ANGDIR
 70
     0
  9
$PDMODE
 70
     0
  9
$PDSIZE
 40
0.0
  9
$PLINEWID
 40
0.0
  9
$SPLFRAME
 70
     0
  9
$SPLINETYPE
 70
     6
  9
$SPLINESEGS
 70
     8
  9
$HANDSEED
  5
CD1
  9
$SURFTAB1
 70
     6
  9
$SURFTAB2
 70
     6
  9
$SURFTYPE
 70
     6
  9
$SURFU
 70
     6
  9
$SURFV
 70
     6
  9
$UCSBASE
  2

  9
$UCSNAME
  2

  9
$UCSORG
 10
0.0
 20
0.0
 30
0.0
  9
$UCSXDIR
 10
1.0
 20
0.0
 30
0.0
  9
$UCSYDIR
 10
0.0
 20
1.0
 30
0.0
  9
$UCSORTHOREF
  2

  9
$UCSORTHOVIEW
 70
     0
  9
$UCSORGTOP
 10
0.0
 20
0.0
 30
0.0
  9
$UCSORGBOTTOM
 10
0.0
 20
0.0
 30
0.0
  9
$UCSORGLEFT
 10
0.0
 20
0.0
 30
0.0
  9
$UCSORGRIGHT
 10
0.0
 20
0.0
 30
0.0
  9
$UCSORGFRONT
 10
0.0
 20
0.0
 30
0.0
  9
$UCSORGBACK
 10
0.0
 20
0.0
 30
0.0
  9
$PUCSBASE
  2

  9
$PUCSNAME
  2

  9
$PUCSORG
 10
0.0
 20
0.0
 30
0.0
  9
$PUCSXDIR
 10
1.0
 20
0.0
 30
0.0
  9
$PUCSYDIR
 10
0.0
 20
1.0
 30
0.0
  9
$PUCSORTHOREF
  2

  9
$PUCSORTHOVIEW
 70
     0
  9
$PUCSORGTOP
 10
0.0
 20
0.0
 30
0.0
  9
$PUCSORGBOTTOM
 10
0.0
 20
0.0
 30
0.0
  9
$PUCSORGLEFT
 10
0.0
 20
0.0
 30
0.0
  9
$PUCSORGRIGHT
 10
0.0
 20
0.0
 30
0.0
  9
$PUCSORGFRONT
 10
0.0
 20
0.0
 30
0.0
  9
$PUCSORGBACK
 10
0.0
 20
0.0
 30
0.0
  9
$USERI1
 70
     0
  9
$USERI2
 70
     0
  9
$USERI3
 70
     0
  9
$USERI4
 70
     0
  9
$USERI5
 70
     0
  9
$USERR1
 40
0.0
  9
$USERR2
 40
0.0
  9
$USERR3
 40
0.0
  9
$USERR4
 40
0.0
  9
$USERR5
 40
0.0
  9
$WORLDVIEW
 70
     1
  9
$SHADEDGE
 70
     3
  9
$SHADEDIF
 70
    70
  9
$TILEMODE
 70
     1
  9
$MAXACTVP
 70
    64
  9
$PINSBASE
 10
0.0
 20
0.0
 30
0.0
  9
$PLIMCHECK
 70
     0
  9
$PEXTMIN
 10
1.000000000000000E+20
 20
1.000000000000000E+20
 30
1.000000000000000E+20
  9
$PEXTMAX
 10
-1.000000000000000E+20
 20
-1.000000000000000E+20
 30
-1.000000000000000E+20
  9
$PLIMMIN
 10
0.0
 20
0.0
  9
$PLIMMAX
 10
420.0
 20
297.0
  9
$UNITMODE
 70
     0
  9
$VISRETAIN
 70
     1
  9
$PLINEGEN
 70
     0
  9
$PSLTSCALE
 70
     1
  9
$TREEDEPTH
 70
  3020
  9
$CMLSTYLE
  2
Standard
  9
$CMLJUST
 70
     0
  9
$CMLSCALE
 40
20.0
  9
$PROXYGRAPHICS
 70
     1
  9
$MEASUREMENT
 70
     1
  9
$CELWEIGHT
370
    -1
  9
$ENDCAPS
280
     0
  9
$JOINSTYLE
280
     0
  9
$LWDISPLAY
290
     0
  9
$INSUNITS
 70
     4
  9
$HYPERLINKBASE
  1

  9
$STYLESHEET
  1

  9
$XEDIT
290
     1
  9
$CEPSNTYPE
380
     0
  9
$PSTYLEMODE
290
     1
  9
$FINGERPRINTGUID
  2
{23B9DF4E-9397-4415-9C6D-D3BF41BCF9E6}
  9
$VERSIONGUID
  2
{86F14BFE-5CB5-49E4-8B5E-538196E34B6E}
  9
$EXTNAMES
290
     1
  9
$PSVPSCALE
 40
0.0
  9
$OLESTARTUP
290
     0
  0
ENDSEC
  0
SECTION
  2
CLASSES
  0
CLASS
  1
ACDBDICTIONARYWDFLT
  2
AcDbDictionaryWithDefault
  3
ObjectDBX Classes
 90
        0
280
     0
281
     0
  0
CLASS
  1
ACDBPLACEHOLDER
  2
AcDbPlaceHolder
  3
ObjectDBX Classes
 90
        0
280
     0
281
     0
  0
CLASS
  1
LAYOUT
  2
AcDbLayout
  3
ObjectDBX Classes
 90
        0
280
     0
281
     0
  0
CLASS
  1
ACME_DOCUMENT
  2
AcMeDbDoc
  3
AcMeServices
 90
        0
280
     0
281
     0
  0
CLASS
  1
AMGSETTINGSOBJ
  2
AmgSettingsObj
  3
"AcadM|Product Description: AutoCAD Mechanical 2000|Company: Autodesk"
 90
        0
280
     0
281
     0
  0
CLASS
  1
ACMESCOPE
  2
AcMeScope
  3
AcMeServices
 90
        0
280
     0
281
     0
  0
CLASS
  1
ACMECOMMANDHISTORY
  2
AcMeCommandHistory
  3
AcMeServices
 90
        0
280
     0
281
     0
  0
CLASS
  1
ACIMSYSVARMAN
  2
AcImSysVarManager
  3
AcMeServices
 90
        0
280
     0
281
     0
  0
CLASS
  1
ACIMREALSYSVAR
  2
AcImRealSysVar
  3
AcMeServices
 90
        0
280
     0
281
     0
  0
CLASS
  1
ACIMINTSYSVAR
  2
AcImIntSysVar
  3
AcMeServices
 90
        0
280
     0
281
     0
  0
CLASS
  1
ACMEDRAWINGMAN
  2
AcMeDrawingMan
  3
AcMeServices
 90
        0
280
     0
281
     0
  0
CLASS
  1
ACMEVIEW
  2
AcMeView
  3
AcMeServices
 90
        0
280
     0
281
     0
  0
CLASS
  1
ACDBENTITYCACHE
  2
AcMeEntityCache
  3
AcMeServices
 90
        0
280
     0
281
     0
  0
CLASS
  1
GSMANAGER
  2
AcMeGSManager
  3
AcMeServices
 90
        0
280
     0
281
     0
  0
CLASS
  1
AMDTINTERNALREACTOR
  2
AmdtInternalReactor
  3
AcMeServices
 90
        0
280
     0
281
     0
  0
CLASS
  1
ACMESTATEMGR
  2
AcMeStateMgr
  3
AcMeServices
 90
        0
280
     0
281
     0
  0
CLASS
  1
ACGREFMASTER
  2
AcGrefMaster
  3
AcAttribServices
 90
        0
280
     0
281
     0
  0
CLASS
  1
ACME_DATABASE
  2
AcMeDbDatabase
  3
AcMeServices
 90
        0
280
     0
281
     0
  0
CLASS
  1
ACRFINSADJUSTERMGR
  2
AcRfInsAdjusterMgr
  3
AcMeServices
 90
        0
280
     0
281
     0
  0
CLASS
  1
ACGREFACADMASTER
  2
AcGrefacadMaster
  3
AcGrefServices
 90
        0
280
     0
281
     0
  0
CLASS
  1
AMIMASTER
  2
AmiMaster
  3
AmiServices
 90
        0
280
     0
281
     0
  0
CLASS
  1
ACMDATADICTIONARY
  2
AcmDataDictionary
  3
"AcmSymBB|Product Description: AutoCAD Mechanical 2004 DX|Company: Autodesk"
 90
        0
280
     0
281
     0
  0
CLASS
  1
ACMDATAENTRYBLOCK
  2
AcmDataEntryBlock
  3
"AcmSymBB|Product Description: AutoCAD Mechanical 2004 DX|Company: Autodesk"
 90
        0
280
     0
281
     0
  0
CLASS
  1
ACIMSTRSYSVAR
  2
AcImStrSysVar
  3
AcMeServices
 90
        0
280
     0
281
     0
  0
CLASS
  1
ACMSTANDARDISO
  2
AcmStandardISO
  3
"Amdt_StdImp|Product Description: AutoCAD Mechanical 2004 DX|Company: Autodesk"
 90
        0
280
     0
281
     0
  0
CLASS
  1
AMGOBJPROPCFG
  2
AmgObjPropCfg
  3
"AmgLay|Product Description: AutoCAD Mechanical 2000|Company: Autodesk"
 90
        1
280
     0
281
     0
  0
CLASS
  1
AMDTEDGESTANDARDISO
  2
AmdtEdgeStdISO
  3
"Amdt_StdImp|Product Description: AutoCAD Mechanical 2004 DX|Company: Autodesk"
 90
        0
280
     0
281
     0
  0
CLASS
  1
ACMSURFSTANDARDISO
  2
AcmSurfTextStdISO
  3
"Amdt_StdImp|Product Description: AutoCAD Mechanical 2004 DX|Company: Autodesk"
 90
        0
280
     0
281
     0
  0
CLASS
  1
ACMFCFSTANDARDISO
  2
AcmFCFStdISO
  3
"Amdt_StdImp|Product Description: AutoCAD Mechanical 2004 DX|Company: Autodesk"
 90
        0
280
     0
281
     0
  0
CLASS
  1
ACMWELDSTANDARDISO
  2
AcmWeldingStdISO
  3
"Amdt_StdImp|Product Description: AutoCAD Mechanical 2004 DX|Company: Autodesk"
 90
        0
280
     0
281
     0
  0
CLASS
  1
ACMIDSTANDARDISO
  2
AcmIdStdISO
  3
"Amdt_StdImp|Product Description: AutoCAD Mechanical 2004 DX|Company: Autodesk"
 90
        0
280
     0
281
     0
  0
CLASS
  1
ACMDATUMSTANDARDISO
  2
AcmDatumStdISO
  3
"Amdt_StdImp|Product Description: AutoCAD Mechanical 2004 DX|Company: Autodesk"
 90
        0
280
     0
281
     0
  0
CLASS
  1
ACMBOMSTANDARDISO
  2
AcmBOMStdISO
  3
"Amdt_StdImp|Product Description: AutoCAD Mechanical 2004 DX|Company: Autodesk"
 90
        0
280
     0
281
     0
  0
CLASS
  1
ACMDETAILSTANDARDISO
  2
AmdtDetailSymStdISO
  3
"Amdt_StdImp|Product Description: AutoCAD Mechanical 2004 DX|Company: Autodesk"
 90
        0
280
     0
281
     0
  0
CLASS
  1
ACMSECTIONSTANDARDISO
  2
AmdtSectionSymStdISO
  3
"Amdt_StdImp|Product Description: AutoCAD Mechanical 2004 DX|Company: Autodesk"
 90
        0
280
     0
281
     0
  0
CLASS
  1
ACMCENTERLINESTANDARDISO
  2
AmdtCenterLineStdISO
  3
"Amdt_StdImp|Product Description: AutoCAD Mechanical 2004 DX|Company: Autodesk"
 90
        0
280
     0
281
     0
  0
CLASS
  1
ACMNOTESTANDARDISO
  2
AmdtNoteStdISO
  3
"Amdt_StdImp|Product Description: AutoCAD Mechanical 2004 DX|Company: Autodesk"
 90
        0
280
     0
281
     0
  0
CLASS
  1
ACAMGLAYSTD
  2
AcAmgLayStd
  3
"AcAmgLayStd|Product Description: AutoCAD Mechanical 2000|Company: Autodesk"
 90
        0
280
     0
281
     0
  0
CLASS
  1
ACAMGDIMSTD
  2
AcAmgDimStd
  3
"AcAmgDimStd|Product Description: AutoCAD Mechanical 2000|Company: Autodesk"
 90
        0
280
     0
281
     0
  0
CLASS
  1
ACAMGHOLECHARTSTDISO
  2
AcAmgHoleChartStdISO
  3
ACMSYMBB_MODULE_NAME
 90
        0
280
     0
281
     0
  0
CLASS
  1
ACAMGTITLESTD
  2
AcAmgTitleStd
  3
"TITLEAPP"
 90
        0
280
     0
281
     0
  0
CLASS
  1
LAYER_INDEX
  2
AcDbLayerIndex
  3
ObjectDBX Classes
 90
    32768
280
     0
281
     0
  0
CLASS
  1
IDBUFFER
  2
AcDbIdBuffer
  3
ObjectDBX Classes
 90
    32768
280
     0
281
     0
  0
CLASS
  1
DICTIONARYVAR
  2
AcDbDictionaryVar
  3
ObjectDBX Classes
 90
        0
280
     0
281
     0
  0
CLASS
  1
AM_DRAWING_MGR
  2
AcDmDwgMgr
  3
AcMechDwgViewMgmt
 90
        0
280
     0
281
     0
  0
CLASS
  1
AM_DWG_DOCUMENT
  2
AcDmDwgDocument
  3
AcMechDwgViewMgmt
 90
        0
280
     0
281
     0
  0
CLASS
  1
AM_DWG_SHEET
  2
AcDmSheet
  3
AcMechDwgViewMgmt
 90
        0
280
     0
281
     0
  0
CLASS
  1
AM_VIEWDIMPARMAP
  2
AcDmViewDimParMap
  3
AcMechDwgViewMgmt
 90
        0
280
     0
281
     0
  0
CLASS
  1
AM_DWGMGR_NAME
  2
AcDmDwgMgrName
  3
AcMechDwgViewMgmt
 90
        0
280
     0
281
     0
  0
CLASS
  1
AMDTMENUSTATEMGR
  2
AmdtMenuStateMgr
  3
McadcomServices
 90
        0
280
     0
281
     0
  0
CLASS
  1
AMDTMCOMMENUSTATE
  2
AmdtMcomMenuState
  3
McadcomServices
 90
        0
280
     0
281
     0
  0
CLASS
  1
MAPIAMMOUDLE
  2
MApiAmModule
  3
MApiAmServices
 90
        0
280
     0
281
     0
  0
CLASS
  1
AMDTADMENUSTATE
  2
AmdtAdMenuState
  3
DesignerServices
 90
        0
280
     0
281
     0
  0
CLASS
  1
ADAPPL
  2
AcAdAppl
  3
DesignerServices
 90
        0
280
     0
281
     0
  0
CLASS
  1
DEPMGR
  2
AcAdDepMgr
  3
DesignerServices
 90
        0
280
     0
281
     0
  0
CLASS
  1
PARAMMGR
  2
AcAdParamMgr
  3
DesignerServices
 90
        0
280
     0
281
     0
  0
CLASS
  1
PARAMSCOPE
  2
AcAdParamScope
  3
DesignerServices
 90
        0
280
     0
281
     0
  0
CLASS
  1
NAMEDAPPL
  2
AcAdNamedAppl
  3
DesignerServices
 90
        0
280
     0
281
     0
  0
CLASS
  1
AMDTDMMENUSTATE
  2
AmdtDmMenuState
  3
AcMechDwgViewMgmt
 90
        0
280
     0
281
     0
  0
CLASS
  1
AMDTAMMENUSTATE
  2
AmdtAmMenuState
  3
DesignerAssemblies
 90
        0
280
     0
281
     0
  0
CLASS
  1
ACAMPROJECT
  2
AcAmProject
  3
DesignerAssemblies
 90
        0
280
     0
281
     0
  0
CLASS
  1
ACAMGRCOMPDEF
  2
AcAmGrCompDef
  3
DesignerAssemblies
 90
        0
280
     0
281
     0
  0
CLASS
  1
ACCMCONTEXT
  2
AcCmContext
  3
DesignerAssemblies
 90
        0
280
     0
281
     0
  0
CLASS
  1
ACAMCOMPDEF
  2
AcAmCompDef
  3
DesignerAssemblies
 90
        0
280
     0
281
     0
  0
CLASS
  1
ACAMCOMPDEFMGR
  2
AcAmCompDefMgr
  3
DesignerAssemblies
 90
        0
280
     0
281
     0
  0
CLASS
  1
AMCONTEXTMGR
  2
AcAmContextMgr
  3
DesignerAssemblies
 90
        0
280
     0
281
     0
  0
CLASS
  1
ACAMCONTEXTMODELER
  2
AcAmContextModeler
  3
DesignerAssemblies
 90
        0
280
     0
281
     0
  0
CLASS
  1
ACMTHREADLINESTANDARDISO
  2
AmdtThreadLineStdISO
  3
"Amdt_StdImp|Product Description: AutoCAD Mechanical 2004 DX|Company: Autodesk"
 90
        0
280
     0
281
     0
  0
CLASS
  1
CATALOGSTATE
  2
AcAmCatalogState
  3
DesignerAssemblies
 90
        0
280
     0
281
     0
  0
CLASS
  1
ACAMGRCOMPDEFSET
  2
AcAmGrCompDefSet
  3
DesignerAssemblies
 90
        0
280
     0
281
     0
  0
CLASS
  1
AMDTBROWSERDBTAB
  2
AmdtBrowserDbTab
  3
McadcomServices
 90
        0
280
     0
281
     0
  0
CLASS
  1
CBROWSERAPPOBJECT
  2
CBrowserAppObject
  3
McadcomServices
 90
        0
280
     0
281
     0
  0
CLASS
  1
DM_PLACEHOLDER
  2
AcDmSelsetPlaceholder
  3
AcMechDwgViewMgmt
 90
        0
280
     0
281
     0
  0
CLASS
  1
TABLESTYLE
  2
AcDbTableStyle
  3
ObjectDBX Classes
 90
     2047
280
     0
281
     0
  0
CLASS
  1
VAACXREFPANELOBJECT
  2
VaAcXREFPanelObject
  3
VAAC_ADDIN
 90
    32768
280
     0
281
     0
  0
CLASS
  1
VAACIMAGEINVENTORY
  2
VaAcImageInventory
  3
VAAC_ADDIN
 90
    32768
280
     0
281
     0
  0
CLASS
  1
AMDTNOTETEMPLATEDB
  2
AmdtNoteTemplateDB
  3
AMDT_STDIMP_MODULE_NAME
 90
        0
280
     0
281
     0
  0
CLASS
  1
ACMBOM
  2
AcmBom
  3
"AcmSymBB|Product Description: AutoCAD Mechanical 2004 DX|Company: Autodesk"
 90
    32768
280
     0
281
     0
  0
CLASS
  1
AMDTFORMULAUPDATEDISPATCHER
  2
AmdtFormulaUpdateDispatcher
  3
AcMeServices
 90
    32768
280
     0
281
     0
  0
CLASS
  1
ACMPARTLIST
  2
AcmPartList
  3
"AcmSymBB|Product Description: AutoCAD Mechanical 2004 DX|Company: Autodesk"
 90
    33791
280
     0
281
     1
  0
CLASS
  1
ACAMGFILTERDAT
  2
AcAmgFilterDat
  3
"AcadM|Product Description: AutoCAD Mechanical 2000|Company: Autodesk"
 90
        0
280
     0
281
     0
  0
CLASS
  1
SORTENTSTABLE
  2
AcDbSortentsTable
  3
ObjectDBX Classes
 90
        0
280
     0
281
     0
  0
CLASS
  1
ACRFATTGENMGR
  2
AcRfAttGeneralMgr
  3
AcAttribServices
 90
        0
280
     0
281
     0
  0
CLASS
  1
DIMASSOC
  2
AcDbDimAssoc
  3
"AcDbDimAssoc|Product Desc:     AcDim ARX App For Dimension|Company:          Autodesk, Inc.|WEB Address:      www.autodesk.com"
 90
        0
280
     0
281
     0
  0
CLASS
  1
ACMDIMBREAKPERSREACTOR
  2
AcmDimBreakPersReactor
  3
amgDimApp().moduleName()
 90
     1023
280
     0
281
     0
  0
ENDSEC
  0
SECTION
  2
TABLES
  0
TABLE
  2
VPORT
  5
8
330
0
100
AcDbSymbolTable
 70
   187
  0
VPORT
  5
CC8
330
8
100
AcDbSymbolTableRecord
100
AcDbViewportTableRecord
  2
*Active
 70
     0
 10
0.0
 20
0.0
 11
1.0
 21
1.0
 12
1369.104649394287
 22
742.1211151128609
 13
0.0
 23
0.0
 14
2.5
 24
2.5
 15
10.0
 25
10.0
 16
0.0
 26
0.0
 36
1.0
 17
0.0
 27
0.0
 37
0.0
 40
244.0369941917702
 41
0.9093298291721419
 42
50.0
 43
0.0
 44
0.0
 50
0.0
 51
0.0
 71
     0
 72
   100
 73
     1
 74
     3
 75
     0
 76
     0
 77
     0
 78
     0
281
     0
 65
     1
110
0.0
120
0.0
130
0.0
111
1.0
121
0.0
131
0.0
112
0.0
122
1.0
132
0.0
 79
     0
146
0.0
  0
ENDTAB
  0
TABLE
  2
LTYPE
  5
5
330
0
100
AcDbSymbolTable
 70
    15
  0
LTYPE
  5
14
330
5
100
AcDbSymbolTableRecord
100
AcDbLinetypeTableRecord
  2
ByBlock
 70
     0
  3

 72
    65
 73
     0
 40
0.0
  0
LTYPE
  5
15
330
5
100
AcDbSymbolTableRecord
100
AcDbLinetypeTableRecord
  2
ByLayer
 70
     0
  3

 72
    65
 73
     0
 40
0.0
  0
LTYPE
  5
16
330
5
100
AcDbSymbolTableRecord
100
AcDbLinetypeTableRecord
  2
Continuous
 70
     0
  3
Solid line
 72
    65
 73
     0
 40
0.0
  0
LTYPE
  5
64
330
5
100
AcDbSymbolTableRecord
100
AcDbLinetypeTableRecord
  2
AM_ISO02W050
 70
     0
  3
__ __ __ __ __ __ __ __ __ __ __ __ __ __ __
 72
    65
 73
     2
 40
7.5
 49
6.0
 74
     0
 49
-1.5
 74
     0
  0
LTYPE
  5
65
330
5
100
AcDbSymbolTableRecord
100
AcDbLinetypeTableRecord
  2
AM_ISO08W050
 70
     0
  3
____ . ____ . ____ . ____ . ____ . ____ . ____
 72
    65
 73
     4
 40
18.0
 49
12.0
 74
     0
 49
-1.5
 74
     0
 49
3.0
 74
     0
 49
-1.5
 74
     0
  0
LTYPE
  5
66
330
5
100
AcDbSymbolTableRecord
100
AcDbLinetypeTableRecord
  2
AM_ISO09W050
 70
     0
  3
_____ . . _____ . . _____ . . ____ .. ____
 72
    65
 73
     6
 40
22.5
 49
12.0
 74
     0
 49
-1.5
 74
     0
 49
3.0
 74
     0
 49
-1.5
 74
     0
 49
3.0
 74
     0
 49
-1.5
 74
     0
  0
LTYPE
  5
67
330
5
100
AcDbSymbolTableRecord
100
AcDbLinetypeTableRecord
  2
Amconstr
 70
     0
  3
_______________________
 72
    65
 73
     2
 40
9999.0
 49
9999.0
 74
     0
 49
0.0
 74
     0
  0
LTYPE
  5
68
330
5
100
AcDbSymbolTableRecord
100
AcDbLinetypeTableRecord
  2
AM_ISO08W050x2
 70
     0
  3
__ . __ . __ . __ . __ . __
 72
    65
 73
     4
 40
9.0
 49
6.0
 74
     0
 49
-0.75
 74
     0
 49
1.5
 74
     0
 49
-0.75
 74
     0
  0
LTYPE
  5
69
330
5
100
AcDbSymbolTableRecord
100
AcDbLinetypeTableRecord
  2
AM_ISO02W050x2
 70
     0
  3
 _ _ _ _ _ _ _ _ _ _ _ _
 72
    65
 73
     2
 40
3.75
 49
3.0
 74
     0
 49
-0.75
 74
     0
  0
LTYPE
  5
6C
330
5
100
AcDbSymbolTableRecord
100
AcDbLinetypeTableRecord
  2
Amzigzag
 70
     0
  3
/\/-/\/-/\/-/\/-/\/-/\/
 72
    65
 73
     2
 40
11.0001
 49
0.0001
 74
     4
 75
   135
340
6B
 46
0.04
 50
0.0
 44
0.0
 45
0.0
 49
-11.0
 74
     0
  0
LTYPE
  5
7A
330
5
100
AcDbSymbolTableRecord
100
AcDbLinetypeTableRecord
  2
ACISOWELD
 70
     0
  3
_ _ _ _ _
 72
    65
 73
     2
 40
2.0
 49
2.0
 74
     0
 49
-1.0
 74
     0
  0
LTYPE
  5
7B
330
5
100
AcDbSymbolTableRecord
100
AcDbLinetypeTableRecord
  2
ACISOTGB
 70
     0
  3
__ . . __ . .
 72
    65
 73
     6
 40
9.0
 49
4.0
 74
     0
 49
-1.0
 74
     0
 49
1.0
 74
     0
 49
-1.0
 74
     0
 49
1.0
 74
     0
 49
-1.0
 74
     0
  0
LTYPE
  5
7C
330
5
100
AcDbSymbolTableRecord
100
AcDbLinetypeTableRecord
  2
ACISOTGL
 70
     0
  3
_ _ _ _ _
 72
    65
 73
     2
 40
3.0
 49
2.0
 74
     0
 49
-1.0
 74
     0
  0
LTYPE
  5
7E
330
5
100
AcDbSymbolTableRecord
100
AcDbLinetypeTableRecord
  2
CENTER
 70
     0
  3
__ . __
 72
    65
 73
     4
 40
7.0
 49
4.0
 74
     0
 49
-1.0
 74
     0
 49
1.0
 74
     0
 49
-1.0
 74
     0
  0
LTYPE
  5
D8
330
5
100
AcDbSymbolTableRecord
100
AcDbLinetypeTableRecord
  2
HIDDEN
 70
     0
  3
Hidden __ __ __ __ __ __ __ __ __ __ __ __ __ _
 72
    65
 73
     2
 40
9.524999999999998
 49
6.349999999999999
 74
     0
 49
-3.174999999999999
 74
     0
  0
LTYPE
  5
D9
330
5
100
AcDbSymbolTableRecord
100
AcDbLinetypeTableRecord
  2
PHANTOM2
 70
     0
  3
Phantom (.5x) ___ _ _ ___ _ _ ___ _ _ ___ _ _
 72
    65
 73
     6
 40
31.75
 49
15.875
 74
     0
 49
-3.174999999999999
 74
     0
 49
3.174999999999999
 74
     0
 49
-3.174999999999999
 74
     0
 49
3.174999999999999
 74
     0
 49
-3.174999999999999
 74
     0
  0
LTYPE
  5
31C
330
5
100
AcDbSymbolTableRecord
100
AcDbLinetypeTableRecord
  2
HIDDEN2
 70
     0
  3
Hidden (.5x) _ _ _ _ _ _ _ _ _ _ _ _ _ _ _ _ _
 72
    65
 73
     2
 40
0.1875
 49
0.125
 74
     0
 49
-0.0625
 74
     0
  0
ENDTAB
  0
TABLE
  2
LAYER
  5
2
102
{ACAD_XDICTIONARY
360
32C
102
}
330
0
100
AcDbSymbolTable
 70
    11
  0
LAYER
  5
10
330
2
100
AcDbSymbolTableRecord
100
AcDbLayerTableRecord
  2
0
 70
     0
 62
     7
  6
Continuous
370
    -3
390
F
  0
LAYER
  5
31E
330
2
100
AcDbSymbolTableRecord
100
AcDbLayerTableRecord
  2
Defpoints
 70
     0
 62
     7
  6
Continuous
290
     0
370
    -3
390
F
  0
LAYER
  5
31F
330
2
100
AcDbSymbolTableRecord
100
AcDbLayerTableRecord
  2
AM_4
 70
     0
 62
     3
  6
Continuous
370
    25
390
F
  0
LAYER
  5
320
330
2
100
AcDbSymbolTableRecord
100
AcDbLayerTableRecord
  2
AM_VIS
 70
     0
 62
     7
  6
Continuous
370
    50
390
F
  0
LAYER
  5
321
330
2
100
AcDbSymbolTableRecord
100
AcDbLayerTableRecord
  2
AM_HID
 70
     0
 62
     7
  6
AM_ISO02W050
370
    25
390
F
  0
LAYER
  5
322
330
2
100
AcDbSymbolTableRecord
100
AcDbLayerTableRecord
  2
AM_7
 70
     0
 62
     1
  6
AM_ISO08W050
370
    25
390
F
  0
LAYER
  5
323
330
2
100
AcDbSymbolTableRecord
100
AcDbLayerTableRecord
  2
AM_REFDIM
 70
     0
 62
     5
  6
Continuous
370
    25
390
F
  0
LAYER
  5
6F5
330
2
100
AcDbSymbolTableRecord
100
AcDbLayerTableRecord
  2
LOGO
 70
     0
 62
     7
  6
Continuous
370
    -3
390
F
  0
LAYER
  5
A09
330
2
100
AcDbSymbolTableRecord
100
AcDbLayerTableRecord
  2
SL
 70
     0
 62
     4
  6
Continuous
370
    -3
390
F
1001
AcAecLayerStandard
1000

1000

  0
ENDTAB
  0
TABLE
  2
STYLE
  5
3
330
0
100
AcDbSymbolTable
 70
     9
  0
STYLE
  5
11
330
3
100
AcDbSymbolTableRecord
100
AcDbTextStyleTableRecord
  2
STANDARD
 70
     0
 40
0.0
 41
1.0
 50
0.0
 71
     0
 42
1.0
  3
ISOCP.SHX
  4
CHINESET.SHX
  0
STYLE
  5
6B
330
3
100
AcDbSymbolTableRecord
100
AcDbTextStyleTableRecord
  2

 70
     1
 40
0.0
 41
1.0
 50
0.0
 71
     0
 42
2.5
  3
ltypeshp.shx
  4

  0
STYLE
  5
6D
330
3
100
AcDbSymbolTableRecord
100
AcDbTextStyleTableRecord
  2
ACISOTS
 70
     0
 40
1.0
 41
1.0
 50
0.0
 71
     0
 42
1.0
  3
isocp.shx
  4
chineset.shx
  0
STYLE
  5
79
330
3
100
AcDbSymbolTableRecord
100
AcDbTextStyleTableRecord
  2
ACISOGDT
 70
     0
 40
0.0
 41
1.0
 50
0.0
 71
     0
 42
2.5
  3
amgdt.shx
  4
chineset.shx
  0
STYLE
  5
324
330
3
100
AcDbSymbolTableRecord
100
AcDbTextStyleTableRecord
  2
DAYUS
 70
     0
 40
0.0
 41
1.0
 50
0.0
 71
     0
 42
2.0
  3
simplex.shx
  4
dayus.shx
  0
STYLE
  5
6F6
330
3
100
AcDbSymbolTableRecord
100
AcDbTextStyleTableRecord
  2
CHINESET
 70
     0
 40
0.0
 41
0.75
 50
0.0
 71
     0
 42
3.0
  3
simplex.shx
  4
CHINESET.SHX
  0
ENDTAB
  0
TABLE
  2
VIEW
  5
6
330
0
100
AcDbSymbolTable
 70
     0
  0
ENDTAB
  0
TABLE
  2
UCS
  5
7
330
0
100
AcDbSymbolTable
 70
     0
  0
ENDTAB
  0
TABLE
  2
APPID
  5
9
330
0
100
AcDbSymbolTable
 70
    19
  0
APPID
  5
12
330
9
100
AcDbSymbolTableRecord
100
AcDbRegAppTableRecord
  2
ACAD
 70
     0
  0
APPID
  5
46
330
9
100
AcDbSymbolTableRecord
100
AcDbRegAppTableRecord
  2
MCAD_NO_VIS
 70
     0
  0
APPID
  5
47
330
9
100
AcDbSymbolTableRecord
100
AcDbRegAppTableRecord
  2
ACAD_TEMP_GRAPHIC
 70
     0
  0
APPID
  5
58
330
9
100
AcDbSymbolTableRecord
100
AcDbRegAppTableRecord
  2
ACATTRIBSERVICES
 70
     0
  0
APPID
  5
EE
330
9
100
AcDbSymbolTableRecord
100
AcDbRegAppTableRecord
  2
AD_DRAW
 70
     0
  0
APPID
  5
10C
330
9
100
AcDbSymbolTableRecord
100
AcDbRegAppTableRecord
  2
DESIGNERASSEMBLIES
 70
     0
  0
APPID
  5
111
330
9
100
AcDbSymbolTableRecord
100
AcDbRegAppTableRecord
  2
ACADM_DIM_EDIT
 70
     0
  0
APPID
  5
112
330
9
100
AcDbSymbolTableRecord
100
AcDbRegAppTableRecord
  2
AMDT_DM_ADJ
 70
     0
  0
APPID
  5
32A
330
9
100
AcDbSymbolTableRecord
100
AcDbRegAppTableRecord
  2
GENIUS_GENDTOL_13
 70
     0
  0
APPID
  5
32B
330
9
100
AcDbSymbolTableRecord
100
AcDbRegAppTableRecord
  2
ACAD_PSEXT
 70
     0
  0
APPID
  5
6F8
330
9
100
AcDbSymbolTableRecord
100
AcDbRegAppTableRecord
  2
GENIUS_GENOENT_13
 70
     0
  0
APPID
  5
6F9
330
9
100
AcDbSymbolTableRecord
100
AcDbRegAppTableRecord
  2
GENIUS_GENOBJ-N-CRS_13
 70
     0
  0
APPID
  5
6FA
330
9
100
AcDbSymbolTableRecord
100
AcDbRegAppTableRecord
  2
GENIUS_GENOLIS_13
 70
     0
  0
APPID
  5
6FB
330
9
100
AcDbSymbolTableRecord
100
AcDbRegAppTableRecord
  2
GENIUS_GENODEF_13
 70
     0
  0
APPID
  5
6FC
330
9
100
AcDbSymbolTableRecord
100
AcDbRegAppTableRecord
  2
GENIUS_GENOREF_13
 70
     0
  0
APPID
  5
6FD
330
9
100
AcDbSymbolTableRecord
100
AcDbRegAppTableRecord
  2
GENIUS_GENREC_14
 70
     0
  0
APPID
  5
6FE
330
9
100
AcDbSymbolTableRecord
100
AcDbRegAppTableRecord
  2
GENIUS_GENOBJ-N-REC_13
 70
     0
  0
APPID
  5
A0A
330
9
100
AcDbSymbolTableRecord
100
AcDbRegAppTableRecord
  2
AcAecLayerStandard
 70
     0
  0
APPID
  5
BB7
330
9
100
AcDbSymbolTableRecord
100
AcDbRegAppTableRecord
  2
GENIUS_GENDIMSH_14
 70
     0
  0
ENDTAB
  0
TABLE
  2
DIMSTYLE
  5
A
330
0
100
AcDbSymbolTable
 70
    14
100
AcDbDimStyleTable
 71
     2
340
81
340
325
  0
DIMSTYLE
105
81
330
A
100
AcDbSymbolTableRecord
100
AcDbDimStyleTableRecord
  2
AM_ISO
 70
     0
  4
"
 41
2.5
 42
1.0
 43
10.0
 44
1.0
 47
0.1
 48
0.1
 73
     0
 74
     0
 77
     1
 78
     8
 79
     2
140
3.5
141
0.0
143
0.0393701
146
0.71
147
1.5
172
     1
176
   256
177
   256
178
     2
271
     2
272
     3
274
     4
283
     0
284
     8
340
11
371
    -1
372
    -1
  0
DIMSTYLE
105
82
330
A
100
AcDbSymbolTableRecord
100
AcDbDimStyleTableRecord
  2
AM_ISO$3
 70
     0
  4
"
 41
2.5
 42
1.0
 43
10.0
 44
1.0
 47
0.1
 48
0.1
 73
     0
 77
     1
 78
     8
 79
     2
140
3.5
141
0.0
143
0.0393701
146
0.71
147
1.5
176
   256
177
   256
178
     2
271
     2
272
     3
274
     4
283
     0
284
     8
288
     1
289
     0
340
11
371
    -1
372
    -1
  0
DIMSTYLE
105
83
330
A
100
AcDbSymbolTableRecord
100
AcDbDimStyleTableRecord
  2
AM_ISO$4
 70
     0
  4
"
 41
2.5
 42
1.0
 43
10.0
 44
1.0
 47
0.1
 48
0.1
 73
     0
 77
     1
 78
     8
 79
     2
140
3.5
141
0.0
143
0.0393701
146
0.71
147
1.5
176
   256
177
   256
178
     2
271
     2
272
     3
274
     4
283
     0
284
     8
288
     1
289
     0
340
11
371
    -1
372
    -1
  0
DIMSTYLE
105
84
330
A
100
AcDbSymbolTableRecord
100
AcDbDimStyleTableRecord
  2
AM_ISO$6
 70
     0
  4
"
 41
2.5
 42
1.0
 43
10.0
 44
1.0
 47
0.1
 48
0.1
 73
     0
 74
     0
 78
     8
 79
     2
140
3.5
141
0.0
143
0.0393701
146
0.71
147
1.5
172
     1
176
   256
177
   256
178
     2
271
     2
272
     3
274
     4
283
     0
284
     8
340
11
371
    -1
372
    -1
  0
DIMSTYLE
105
85
330
A
100
AcDbSymbolTableRecord
100
AcDbDimStyleTableRecord
  2
AM_ISO$7
 70
     0
  4
"
 41
2.5
 42
1.0
 43
10.0
 44
1.0
 47
0.1
 48
0.1
 73
     0
 74
     0
 77
     1
 78
     8
 79
     2
140
5.0
141
0.0
143
0.0393701
146
0.71
147
1.5
172
     1
176
   256
177
   256
178
     2
271
     2
272
     3
274
     4
283
     0
284
     8
340
11
371
    -1
372
    -1
  0
DIMSTYLE
105
86
330
A
100
AcDbSymbolTableRecord
100
AcDbDimStyleTableRecord
  2
AM_ISO$SF
 70
     0
  4
"
 41
2.5
 42
1.0
 43
10.0
 44
1.0
 47
0.1
 48
0.1
 73
     0
 74
     0
 75
     1
 76
     1
 77
     1
 78
     8
 79
     2
140
3.5
141
0.0
143
0.0393701
146
0.71
147
1.5
172
     1
176
   256
177
   256
178
     2
271
     2
272
     3
274
     4
283
     0
284
     8
340
11
371
    -1
372
    -1
  0
DIMSTYLE
105
8B
330
A
100
AcDbSymbolTableRecord
100
AcDbDimStyleTableRecord
  2
AM_ISO$SH
 70
     0
  4
"
 41
2.5
 42
1.0
 43
10.0
 44
1.0
 47
0.1
 48
0.1
 73
     0
 74
     0
 75
     1
 76
     1
 77
     1
 78
     8
 79
     2
140
3.5
141
0.0
143
0.0393701
144
2.0
146
0.71
147
1.5
172
     1
173
     1
176
   256
177
   256
178
     2
271
     2
272
     3
274
     4
283
     0
284
     8
340
11
343
87
371
    -1
372
    -1
  0
DIMSTYLE
105
325
330
A
100
AcDbSymbolTableRecord
100
AcDbDimStyleTableRecord
  2
AM_ANSI
 70
     0
  4
"
 40
0.6666666666666666
 41
3.0
 42
1.5
 43
5.299999999999999
 44
2.0
 47
0.1
 48
0.1
 73
     0
 74
     0
 77
     3
 78
     8
 79
     2
140
3.0
141
0.0
143
0.0393701
146
0.6
147
0.8
172
     1
176
   256
177
   256
178
   256
271
     2
272
     2
284
     8
340
324
371
    -1
372
    -1
  0
DIMSTYLE
105
326
102
{ACAD_REACTORS
330
3A3
330
3BD
330
3C6
330
3C7
330
4A6
330
4C0
330
4C9
330
4CA
102
}
330
A
100
AcDbSymbolTableRecord
100
AcDbDimStyleTableRecord
  2
AM_ANSI$3
 70
     0
  4
"
 40
0.6666666666666666
 41
3.0
 42
1.5
 43
5.299999999999999
 44
2.0
 47
0.1
 48
0.1
 73
     0
 74
     0
 77
     3
 78
     8
 79
     2
140
3.0
141
0.0
143
0.0393701
146
0.6
147
0.8
172
     1
176
   256
177
   256
178
   256
271
     2
272
     2
284
     8
288
     1
289
     0
340
324
371
    -1
372
    -1
  0
DIMSTYLE
105
328
102
{ACAD_REACTORS
330
3A4
330
3A5
330
3A6
330
37B
330
37C
330
34B
330
34C
330
34D
330
384
330
39F
330
3A0
330
3BE
330
3C1
330
3C2
330
3CA
330
3C8
330
450
330
47E
330
47F
330
4A2
330
4A3
330
4A7
330
4A8
330
4A9
330
4C4
330
4CD
330
487
330
4C5
330
961
330
4CB
330
4C1
330
44E
102
}
330
A
100
AcDbSymbolTableRecord
100
AcDbDimStyleTableRecord
  2
AM_ANSI$0
 70
     0
  4
"
 40
0.6666666666666666
 41
3.0
 42
1.5
 43
5.299999999999999
 44
2.0
 47
0.1
 48
0.1
 73
     0
 74
     0
 77
     3
 78
     8
 79
     2
140
3.0
141
0.0
143
0.0393701
146
0.6
147
0.8
172
     1
176
   256
177
   256
178
   256
271
     2
272
     2
284
     8
340
324
371
    -1
372
    -1
  0
DIMSTYLE
105
329
102
{ACAD_REACTORS
330
3C0
330
4C3
102
}
330
A
100
AcDbSymbolTableRecord
100
AcDbDimStyleTableRecord
  2
AM_ANSI$2
 70
     0
  4
"
 40
0.6666666666666666
 41
3.0
 42
1.5
 43
5.299999999999999
 44
2.0
 47
0.1
 48
0.1
 73
     0
 74
     0
 77
     3
 78
     8
 79
     2
140
3.0
141
0.0
143
0.0393701
146
0.6
147
0.8
172
     1
176
   256
177
   256
178
   256
271
     2
272
     2
284
     8
340
324
371
    -1
372
    -1
  0
ENDTAB
  0
TABLE
  2
BLOCK_RECORD
  5
1
330
0
100
AcDbSymbolTable
 70
    67
  0
BLOCK_RECORD
  5
1F
102
{ACAD_XDICTIONARY
360
8F
102
}
330
1
100
AcDbSymbolTableRecord
100
AcDbBlockTableRecord
  2
*Model_Space
340
22
  0
BLOCK_RECORD
  5
1B
330
1
100
AcDbSymbolTableRecord
100
AcDbBlockTableRecord
  2
*Paper_Space
340
1E
  0
BLOCK_RECORD
  5
23
330
1
100
AcDbSymbolTableRecord
100
AcDbBlockTableRecord
  2
*Paper_Space0
340
26
  0
BLOCK_RECORD
  5
87
330
1
100
AcDbSymbolTableRecord
100
AcDbBlockTableRecord
  2
GENAXEH
340
0
  0
BLOCK_RECORD
  5
52D
330
1
100
AcDbSymbolTableRecord
100
AcDbBlockTableRecord
  2
*D28
340
0
  0
BLOCK_RECORD
  5
545
330
1
100
AcDbSymbolTableRecord
100
AcDbBlockTableRecord
  2
*D30
340
0
  0
BLOCK_RECORD
  5
553
330
1
100
AcDbSymbolTableRecord
100
AcDbBlockTableRecord
  2
*D31
340
0
  0
BLOCK_RECORD
  5
55F
330
1
100
AcDbSymbolTableRecord
100
AcDbBlockTableRecord
  2
*D32
340
0
  0
BLOCK_RECORD
  5
56B
330
1
100
AcDbSymbolTableRecord
100
AcDbBlockTableRecord
  2
*D33
340
0
  0
BLOCK_RECORD
  5
577
330
1
100
AcDbSymbolTableRecord
100
AcDbBlockTableRecord
  2
*D34
340
0
  0
BLOCK_RECORD
  5
583
330
1
100
AcDbSymbolTableRecord
100
AcDbBlockTableRecord
  2
*D35
340
0
  0
BLOCK_RECORD
  5
58F
330
1
100
AcDbSymbolTableRecord
100
AcDbBlockTableRecord
  2
*D36
340
0
  0
BLOCK_RECORD
  5
59B
330
1
100
AcDbSymbolTableRecord
100
AcDbBlockTableRecord
  2
*D37
340
0
  0
BLOCK_RECORD
  5
5A7
330
1
100
AcDbSymbolTableRecord
100
AcDbBlockTableRecord
  2
*D38
340
0
  0
BLOCK_RECORD
  5
5B4
330
1
100
AcDbSymbolTableRecord
100
AcDbBlockTableRecord
  2
*D39
340
0
  0
BLOCK_RECORD
  5
5C1
330
1
100
AcDbSymbolTableRecord
100
AcDbBlockTableRecord
  2
*D40
340
0
  0
BLOCK_RECORD
  5
5CD
330
1
100
AcDbSymbolTableRecord
100
AcDbBlockTableRecord
  2
*D41
340
0
  0
BLOCK_RECORD
  5
5D9
330
1
100
AcDbSymbolTableRecord
100
AcDbBlockTableRecord
  2
*D42
340
0
  0
BLOCK_RECORD
  5
5E6
330
1
100
AcDbSymbolTableRecord
100
AcDbBlockTableRecord
  2
*D43
340
0
  0
BLOCK_RECORD
  5
5F4
330
1
100
AcDbSymbolTableRecord
100
AcDbBlockTableRecord
  2
*D44
340
0
  0
BLOCK_RECORD
  5
600
330
1
100
AcDbSymbolTableRecord
100
AcDbBlockTableRecord
  2
*D45
340
0
  0
BLOCK_RECORD
  5
60C
330
1
100
AcDbSymbolTableRecord
100
AcDbBlockTableRecord
  2
*D46
340
0
  0
BLOCK_RECORD
  5
618
330
1
100
AcDbSymbolTableRecord
100
AcDbBlockTableRecord
  2
*D47
340
0
  0
BLOCK_RECORD
  5
624
330
1
100
AcDbSymbolTableRecord
100
AcDbBlockTableRecord
  2
*D48
340
0
  0
BLOCK_RECORD
  5
962
330
1
100
AcDbSymbolTableRecord
100
AcDbBlockTableRecord
  2
*D52
340
0
  0
BLOCK_RECORD
  5
9EA
102
{ACAD_XDICTIONARY
360
9EB
102
}
330
1
100
AcDbSymbolTableRecord
100
AcDbBlockTableRecord
  2
A$C3CA723EF
340
0
102
{BLKREFS
331
A0D
331
A16
102
}
  0
BLOCK_RECORD
  5
C78
102
{ACAD_XDICTIONARY
360
C8B
102
}
330
1
100
AcDbSymbolTableRecord
100
AcDbBlockTableRecord
  2
A$C68053E03
340
0
102
{BLKREFS
331
C90
102
}
  0
ENDTAB
  0
ENDSEC
  0
SECTION
  2
BLOCKS
  0
BLOCK
  5
20
330
1F
100
AcDbEntity
  8
0
100
AcDbBlockBegin
  2
*Model_Space
 70
     0
 10
0.0
 20
0.0
 30
0.0
  3
*Model_Space
  1

  0
ENDBLK
  5
21
330
1F
100
AcDbEntity
  8
0
100
AcDbBlockEnd
  0
BLOCK
  5
1C
330
1B
100
AcDbEntity
 67
     1
  8
0
100
AcDbBlockBegin
  2
*Paper_Space
 70
     0
 10
0.0
 20
0.0
 30
0.0
  3
*Paper_Space
  1

  0
ENDBLK
  5
1D
330
1B
100
AcDbEntity
 67
     1
  8
0
100
AcDbBlockEnd
  0
BLOCK
  5
24
330
23
100
AcDbEntity
  8
0
100
AcDbBlockBegin
  2
*Paper_Space0
 70
     0
 10
0.0
 20
0.0
 30
0.0
  3
*Paper_Space0
  1

  0
ENDBLK
  5
25
330
23
100
AcDbEntity
  8
0
100
AcDbBlockEnd
  0
BLOCK
  5
89
330
87
100
AcDbEntity
  8
0
100
AcDbBlockBegin
  2
GENAXEH
 70
     0
 10
0.0
 20
0.0
 30
0.0
  3
GENAXEH
  1

  0
LINE
  5
88
330
87
100
AcDbEntity
  8
0
100
AcDbLine
 10
-1.0
 20
0.0
 30
0.0
 11
1.0
 21
0.0
 31
0.0
  0
ENDBLK
  5
8A
330
87
100
AcDbEntity
  8
0
100
AcDbBlockEnd
  0
BLOCK
  5
537
330
52D
100
AcDbEntity
  8
0
100
AcDbBlockBegin
  2
*D28
 70
     1
 10
0.0
 20
0.0
 30
0.0
  3
*D28
  1

  0
LINE
  5
9CE
330
52D
100
AcDbEntity
  8
AM_REFDIM
100
AcDbLine
 10
1323.670401865298
 20
755.5788640682494
 30
0.0
 11
1323.670401865298
 21
734.6799925627427
 31
0.0
  0
LINE
  5
9CF
330
52D
100
AcDbEntity
  8
AM_REFDIM
100
AcDbLine
 10
1349.470401865298
 20
764.1788640682493
 30
0.0
 11
1349.470401865298
 21
734.6799925627427
 31
0.0
  0
LINE
  5
9D0
330
52D
100
AcDbEntity
  8
AM_REFDIM
100
AcDbLine
 10
1325.670401865298
 20
736.0133258960761
 30
0.0
 11
1347.470401865298
 21
736.0133258960761
 31
0.0
  0
SOLID
  5
9D1
330
52D
100
AcDbEntity
  8
AM_REFDIM
100
AcDbTrace
 10
1325.670401865298
 20
736.3466592294095
 30
0.0
 11
1325.670401865298
 21
735.6799925627427
 31
0.0
 12
1323.670401865298
 22
736.0133258960761
 32
0.0
 13
1323.670401865298
 23
736.0133258960761
 33
0.0
  0
SOLID
  5
9D2
330
52D
100
AcDbEntity
  8
AM_REFDIM
100
AcDbTrace
 10
1347.470401865298
 20
736.3466592294095
 30
0.0
 11
1347.470401865298
 21
735.6799925627427
 31
0.0
 12
1349.470401865298
 22
736.0133258960761
 32
0.0
 13
1349.470401865298
 23
736.0133258960761
 33
0.0
  0
MTEXT
  5
9D3
330
52D
100
AcDbEntity
  8
AM_REFDIM
100
AcDbMText
 10
1336.570401865298
 20
737.5466592294094
 30
0.0
 40
2.0
 41
0.0
 71
     5
 72
     1
  1
\A1;25.8
  7
DAYUS
 73
     1
 44
1.0
1001
ACAD
1000
MTEXTBEGIN
1070
    73
1070
     1
1070
    44
1040
1.0
1070
    74
1070
     0
1000
MTEXTEND
  0
POINT
  5
9D4
330
52D
100
AcDbEntity
  8
Defpoints
 62
     0
100
AcDbPoint
 10
1323.670401865298
 20
756.5788640682495
 30
0.0
  0
POINT
  5
9D5
330
52D
100
AcDbEntity
  8
Defpoints
 62
     0
100
AcDbPoint
 10
1349.470401865298
 20
765.1788640682493
 30
0.0
  0
POINT
  5
9D6
330
52D
100
AcDbEntity
  8
Defpoints
 62
     0
100
AcDbPoint
 10
1349.470401865298
 20
736.0133258960761
 30
0.0
  0
ENDBLK
  5
538
330
52D
100
AcDbEntity
  8
0
100
AcDbBlockEnd
  0
BLOCK
  5
551
330
545
100
AcDbEntity
  8
0
100
AcDbBlockBegin
  2
*D30
 70
     1
 10
0.0
 20
0.0
 30
0.0
  3
*D30
  1

  0
LINE
  5
642
330
545
100
AcDbEntity
  8
AM_REFDIM
100
AcDbLine
 10
1324.30417405897
 20
716.4221267797728
 30
0.0
 11
1328.200421796367
 21
724.7776570166408
 31
0.0
  0
LINE
  5
643
330
545
100
AcDbEntity
  8
AM_REFDIM
100
AcDbLine
 10
1329.821063653783
 20
716.4221267797727
 30
0.0
 11
1332.731960731551
 21
722.6645657079373
 31
0.0
  0
LINE
  5
644
330
545
100
AcDbEntity
  8
AM_REFDIM
100
AcDbLine
 10
1325.82431520664
 20
724.4144831574065
 30
0.0
 11
1324.011699632567
 21
725.259719680888
 31
0.0
  0
LINE
  5
645
330
545
100
AcDbEntity
  8
AM_REFDIM
100
AcDbLine
 10
1333.98108528997
 20
720.6109188017403
 30
0.0
 11
1335.793700864043
 21
719.7656822782589
 31
0.0
  0
LINE
  5
646
330
545
100
AcDbEntity
  8
AM_REFDIM
100
AcDbLine
 10
1327.636930780713
 20
723.5692466339251
 30
0.0
 11
1332.168469715896
 21
721.4561553252217
 31
0.0
  0
SOLID
  5
647
330
545
100
AcDbEntity
  8
AM_REFDIM
100
AcDbTrace
 10
1325.965187960554
 20
724.7165857530855
 30
0.0
 11
1325.683442452727
 21
724.1123805617277
 31
0.0
 12
1327.636930780713
 22
723.5692466339251
 32
0.0
 13
1327.636930780713
 23
723.5692466339251
 33
0.0
  0
SOLID
  5
648
330
545
100
AcDbEntity
  8
AM_REFDIM
100
AcDbTrace
 10
1334.121958043884
 20
720.9130213974192
 30
0.0
 11
1333.840212536056
 21
720.3088162060614
 31
0.0
 12
1332.168469715896
 22
721.4561553252217
 32
0.0
 13
1332.168469715896
 23
721.4561553252217
 33
0.0
  0
MTEXT
  5
649
330
545
100
AcDbEntity
  8
AM_REFDIM
100
AcDbMText
 10
1330.550714916308
 20
723.9023729196962
 30
0.0
 40
2.0
 41
0.0
 71
     5
 72
     1
  1
\A1;2×N-%%c5×14L
  7
DAYUS
 11
0.9063077870366546
 21
-0.4226182617406894
 31
0.0
 73
     1
 44
1.0
1001
ACAD
1000
MTEXTBEGIN
1070
    73
1070
     1
1070
    44
1040
1.0
1070
    74
1070
     0
1000
MTEXTEND
  0
POINT
  5
64A
330
545
100
AcDbEntity
  8
Defpoints
 62
     0
100
AcDbPoint
 10
1323.88155579723
 20
715.5158189927361
 30
0.0
  0
POINT
  5
64B
330
545
100
AcDbEntity
  8
Defpoints
 62
     0
100
AcDbPoint
 10
1329.398445392042
 20
715.5158189927361
 30
0.0
  0
POINT
  5
64C
330
545
100
AcDbEntity
  8
Defpoints
 62
     0
100
AcDbPoint
 10
1332.168469715896
 20
721.4561553252217
 30
0.0
  0
ENDBLK
  5
552
330
545
100
AcDbEntity
  8
0
100
AcDbBlockEnd
  0
BLOCK
  5
55D
330
553
100
AcDbEntity
  8
0
100
AcDbBlockBegin
  2
*D31
 70
     1
 10
0.0
 20
0.0
 30
0.0
  3
*D31
  1

  0
LINE
  5
64D
330
553
100
AcDbEntity
  8
AM_REFDIM
100
AcDbLine
 10
1313.070401865298
 20
694.5158189927359
 30
0.0
 11
1313.070401865298
 21
681.9045695903006
 31
0.0
  0
LINE
  5
64E
330
553
100
AcDbEntity
  8
AM_REFDIM
100
AcDbLine
 10
1360.070401865298
 20
694.5158189927359
 30
0.0
 11
1360.070401865298
 21
681.9045695903006
 31
0.0
  0
LINE
  5
64F
330
553
100
AcDbEntity
  8
AM_REFDIM
100
AcDbLine
 10
1315.070401865298
 20
683.2379029236339
 30
0.0
 11
1358.070401865298
 21
683.2379029236339
 31
0.0
  0
SOLID
  5
650
330
553
100
AcDbEntity
  8
AM_REFDIM
100
AcDbTrace
 10
1315.070401865298
 20
683.5712362569673
 30
0.0
 11
1315.070401865298
 21
682.9045695903006
 31
0.0
 12
1313.070401865298
 22
683.2379029236339
 32
0.0
 13
1313.070401865298
 23
683.2379029236339
 33
0.0
  0
SOLID
  5
651
330
553
100
AcDbEntity
  8
AM_REFDIM
100
AcDbTrace
 10
1358.070401865298
 20
683.5712362569673
 30
0.0
 11
1358.070401865298
 21
682.9045695903006
 31
0.0
 12
1360.070401865298
 22
683.2379029236339
 32
0.0
 13
1360.070401865298
 23
683.2379029236339
 33
0.0
  0
MTEXT
  5
652
330
553
100
AcDbEntity
  8
AM_REFDIM
100
AcDbMText
 10
1336.246896119609
 20
684.7712362569673
 30
0.0
 40
2.0
 41
0.0
 71
     5
 72
     1
  1
\A1;47
  7
DAYUS
 73
     1
 44
1.0
1001
ACAD
1000
MTEXTBEGIN
1070
    73
1070
     1
1070
    44
1040
1.0
1070
    74
1070
     0
1000
MTEXTEND
  0
POINT
  5
653
330
553
100
AcDbEntity
  8
Defpoints
 62
     0
100
AcDbPoint
 10
1313.070401865298
 20
695.515818992736
 30
0.0
  0
POINT
  5
654
330
553
100
AcDbEntity
  8
Defpoints
 62
     0
100
AcDbPoint
 10
1360.070401865298
 20
695.515818992736
 30
0.0
  0
POINT
  5
655
330
553
100
AcDbEntity
  8
Defpoints
 62
     0
100
AcDbPoint
 10
1360.070401865298
 20
683.2379029236339
 30
0.0
  0
ENDBLK
  5
55E
330
553
100
AcDbEntity
  8
0
100
AcDbBlockEnd
  0
BLOCK
  5
569
330
55F
100
AcDbEntity
  8
0
100
AcDbBlockBegin
  2
*D32
 70
     1
 10
0.0
 20
0.0
 30
0.0
  3
*D32
  1

  0
LINE
  5
656
330
55F
100
AcDbEntity
  8
AM_REFDIM
100
AcDbLine
 10
1312.126401865298
 20
704.0158189927359
 30
0.0
 11
1306.332834775776
 21
704.0158189927359
 31
0.0
  0
LINE
  5
657
330
55F
100
AcDbEntity
  8
AM_REFDIM
100
AcDbLine
 10
1312.070401865298
 20
695.515818992736
 30
0.0
 11
1306.332834775776
 21
695.515818992736
 31
0.0
  0
LINE
  5
658
330
55F
100
AcDbEntity
  8
AM_REFDIM
100
AcDbLine
 10
1307.666168109109
 20
702.0158189927359
 30
0.0
 11
1307.666168109109
 21
697.5158189927359
 31
0.0
  0
SOLID
  5
659
330
55F
100
AcDbEntity
  8
AM_REFDIM
100
AcDbTrace
 10
1307.332834775776
 20
702.0158189927359
 30
0.0
 11
1307.999501442443
 21
702.0158189927359
 31
0.0
 12
1307.666168109109
 22
704.0158189927359
 32
0.0
 13
1307.666168109109
 23
704.0158189927359
 33
0.0
  0
SOLID
  5
65A
330
55F
100
AcDbEntity
  8
AM_REFDIM
100
AcDbTrace
 10
1307.332834775776
 20
697.5158189927359
 30
0.0
 11
1307.999501442443
 21
697.5158189927359
 31
0.0
 12
1307.666168109109
 22
695.515818992736
 32
0.0
 13
1307.666168109109
 23
695.515818992736
 33
0.0
  0
MTEXT
  5
65B
330
55F
100
AcDbEntity
  8
AM_REFDIM
100
AcDbMText
 10
1306.132834775776
 20
699.7658189927362
 30
0.0
 40
2.0
 41
0.0
 71
     5
 72
     1
  1
\A1;8.5
  7
DAYUS
 11
0.0000000000000001
 21
1.0
 31
0.0
 73
     1
 44
1.0
1001
ACAD
1000
MTEXTBEGIN
1070
    73
1070
     1
1070
    44
1040
1.0
1070
    74
1070
     0
1000
MTEXTEND
  0
POINT
  5
65C
330
55F
100
AcDbEntity
  8
Defpoints
 62
     0
100
AcDbPoint
 10
1313.126401865298
 20
704.0158189927359
 30
0.0
  0
POINT
  5
65D
330
55F
100
AcDbEntity
  8
Defpoints
 62
     0
100
AcDbPoint
 10
1313.070401865298
 20
695.515818992736
 30
0.0
  0
POINT
  5
65E
330
55F
100
AcDbEntity
  8
Defpoints
 62
     0
100
AcDbPoint
 10
1307.666168109109
 20
695.515818992736
 30
0.0
  0
ENDBLK
  5
56A
330
55F
100
AcDbEntity
  8
0
100
AcDbBlockEnd
  0
BLOCK
  5
575
330
56B
100
AcDbEntity
  8
0
100
AcDbBlockBegin
  2
*D33
 70
     1
 10
0.0
 20
0.0
 30
0.0
  3
*D33
  1

  0
LINE
  5
822
330
56B
100
AcDbEntity
  8
AM_REFDIM
100
AcDbLine
 10
1312.070401865298
 20
695.515818992736
 30
0.0
 11
1301.032834775776
 21
695.515818992736
 31
0.0
  0
LINE
  5
823
330
56B
100
AcDbEntity
  8
AM_REFDIM
100
AcDbLine
 10
1328.626401865298
 20
708.5158189927359
 30
0.0
 11
1301.032834775776
 21
708.5158189927359
 31
0.0
  0
LINE
  5
824
330
56B
100
AcDbEntity
  8
AM_REFDIM
100
AcDbLine
 10
1302.366168109109
 20
697.5158189927359
 30
0.0
 11
1302.366168109109
 21
706.5158189927359
 31
0.0
  0
SOLID
  5
825
330
56B
100
AcDbEntity
  8
AM_REFDIM
100
AcDbTrace
 10
1302.032834775776
 20
697.5158189927359
 30
0.0
 11
1302.699501442442
 21
697.5158189927359
 31
0.0
 12
1302.366168109109
 22
695.515818992736
 32
0.0
 13
1302.366168109109
 23
695.515818992736
 33
0.0
  0
SOLID
  5
826
330
56B
100
AcDbEntity
  8
AM_REFDIM
100
AcDbTrace
 10
1302.032834775776
 20
706.5158189927359
 30
0.0
 11
1302.699501442442
 21
706.5158189927359
 31
0.0
 12
1302.366168109109
 22
708.5158189927359
 32
0.0
 13
1302.366168109109
 23
708.5158189927359
 33
0.0
  0
MTEXT
  5
827
330
56B
100
AcDbEntity
  8
AM_REFDIM
100
AcDbMText
 10
1300.832834775776
 20
702.0158189927362
 30
0.0
 40
2.0
 41
0.0
 71
     5
 72
     1
  1
\A1;13
  7
DAYUS
 11
0.0000000000000001
 21
1.0
 31
0.0
 73
     1
 44
1.0
1001
ACAD
1000
MTEXTBEGIN
1070
    73
1070
     1
1070
    44
1040
1.0
1070
    74
1070
     0
1000
MTEXTEND
  0
POINT
  5
828
330
56B
100
AcDbEntity
  8
Defpoints
 62
     0
100
AcDbPoint
 10
1313.070401865298
 20
695.515818992736
 30
0.0
  0
POINT
  5
829
330
56B
100
AcDbEntity
  8
Defpoints
 62
     0
100
AcDbPoint
 10
1329.626401865298
 20
708.5158189927359
 30
0.0
  0
POINT
  5
82A
330
56B
100
AcDbEntity
  8
Defpoints
 62
     0
100
AcDbPoint
 10
1302.366168109109
 20
708.5158189927359
 30
0.0
  0
ENDBLK
  5
576
330
56B
100
AcDbEntity
  8
0
100
AcDbBlockEnd
  0
BLOCK
  5
581
330
577
100
AcDbEntity
  8
0
100
AcDbBlockBegin
  2
*D34
 70
     1
 10
0.0
 20
0.0
 30
0.0
  3
*D34
  1

  0
LINE
  5
668
330
577
100
AcDbEntity
  8
AM_REFDIM
100
AcDbLine
 10
1336.570401865298
 20
700.5718189927359
 30
0.0
 11
1336.570401865298
 21
687.2045695903006
 31
0.0
  0
LINE
  5
669
330
577
100
AcDbEntity
  8
AM_REFDIM
100
AcDbLine
 10
1320.070401865298
 20
696.071818992736
 30
0.0
 11
1320.070401865298
 21
687.2045695903006
 31
0.0
  0
LINE
  5
66A
330
577
100
AcDbEntity
  8
AM_REFDIM
100
AcDbLine
 10
1334.570401865298
 20
688.5379029236339
 30
0.0
 11
1322.070401865298
 21
688.5379029236339
 31
0.0
  0
SOLID
  5
66B
330
577
100
AcDbEntity
  8
AM_REFDIM
100
AcDbTrace
 10
1334.570401865298
 20
688.8712362569673
 30
0.0
 11
1334.570401865298
 21
688.2045695903006
 31
0.0
 12
1336.570401865298
 22
688.5379029236339
 32
0.0
 13
1336.570401865298
 23
688.5379029236339
 33
0.0
  0
SOLID
  5
66C
330
577
100
AcDbEntity
  8
AM_REFDIM
100
AcDbTrace
 10
1322.070401865298
 20
688.8712362569673
 30
0.0
 11
1322.070401865298
 21
688.2045695903006
 31
0.0
 12
1320.070401865298
 22
688.5379029236339
 32
0.0
 13
1320.070401865298
 23
688.5379029236339
 33
0.0
  0
MTEXT
  5
66D
330
577
100
AcDbEntity
  8
AM_REFDIM
100
AcDbMText
 10
1328.320401865298
 20
690.0712362569672
 30
0.0
 40
2.0
 41
0.0
 71
     5
 72
     1
  1
\A1;16.5
  7
DAYUS
 73
     1
 44
1.0
1001
ACAD
1000
MTEXTBEGIN
1070
    73
1070
     1
1070
    44
1040
1.0
1070
    74
1070
     0
1000
MTEXTEND
  0
POINT
  5
66E
330
577
100
AcDbEntity
  8
Defpoints
 62
     0
100
AcDbPoint
 10
1336.570401865298
 20
701.5718189927359
 30
0.0
  0
POINT
  5
66F
330
577
100
AcDbEntity
  8
Defpoints
 62
     0
100
AcDbPoint
 10
1320.070401865298
 20
697.0718189927359
 30
0.0
  0
POINT
  5
670
330
577
100
AcDbEntity
  8
Defpoints
 62
     0
100
AcDbPoint
 10
1320.070401865298
 20
688.5379029236339
 30
0.0
  0
ENDBLK
  5
582
330
577
100
AcDbEntity
  8
0
100
AcDbBlockEnd
  0
BLOCK
  5
58D
330
583
100
AcDbEntity
  8
0
100
AcDbBlockBegin
  2
*D35
 70
     1
 10
0.0
 20
0.0
 30
0.0
  3
*D35
  1

  0
LINE
  5
671
330
583
100
AcDbEntity
  8
AM_REFDIM
100
AcDbLine
 10
1336.570401865298
 20
700.5718189927359
 30
0.0
 11
1336.570401865298
 21
687.2045695903006
 31
0.0
  0
LINE
  5
672
330
583
100
AcDbEntity
  8
AM_REFDIM
100
AcDbLine
 10
1353.070401865298
 20
696.071818992736
 30
0.0
 11
1353.070401865298
 21
687.2045695903006
 31
0.0
  0
LINE
  5
673
330
583
100
AcDbEntity
  8
AM_REFDIM
100
AcDbLine
 10
1338.570401865298
 20
688.5379029236339
 30
0.0
 11
1351.070401865298
 21
688.5379029236339
 31
0.0
  0
SOLID
  5
674
330
583
100
AcDbEntity
  8
AM_REFDIM
100
AcDbTrace
 10
1338.570401865298
 20
688.8712362569673
 30
0.0
 11
1338.570401865298
 21
688.2045695903006
 31
0.0
 12
1336.570401865298
 22
688.5379029236339
 32
0.0
 13
1336.570401865298
 23
688.5379029236339
 33
0.0
  0
SOLID
  5
675
330
583
100
AcDbEntity
  8
AM_REFDIM
100
AcDbTrace
 10
1351.070401865298
 20
688.8712362569673
 30
0.0
 11
1351.070401865298
 21
688.2045695903006
 31
0.0
 12
1353.070401865298
 22
688.5379029236339
 32
0.0
 13
1353.070401865298
 23
688.5379029236339
 33
0.0
  0
MTEXT
  5
676
330
583
100
AcDbEntity
  8
AM_REFDIM
100
AcDbMText
 10
1344.820401865298
 20
690.0712362569672
 30
0.0
 40
2.0
 41
0.0
 71
     5
 72
     1
  1
\A1;16.5
  7
DAYUS
 73
     1
 44
1.0
1001
ACAD
1000
MTEXTBEGIN
1070
    73
1070
     1
1070
    44
1040
1.0
1070
    74
1070
     0
1000
MTEXTEND
  0
POINT
  5
677
330
583
100
AcDbEntity
  8
Defpoints
 62
     0
100
AcDbPoint
 10
1336.570401865298
 20
701.5718189927359
 30
0.0
  0
POINT
  5
678
330
583
100
AcDbEntity
  8
Defpoints
 62
     0
100
AcDbPoint
 10
1353.070401865298
 20
697.0718189927359
 30
0.0
  0
POINT
  5
679
330
583
100
AcDbEntity
  8
Defpoints
 62
     0
100
AcDbPoint
 10
1353.070401865298
 20
688.5379029236339
 30
0.0
  0
ENDBLK
  5
58E
330
583
100
AcDbEntity
  8
0
100
AcDbBlockEnd
  0
BLOCK
  5
599
330
58F
100
AcDbEntity
  8
0
100
AcDbBlockBegin
  2
*D36
 70
     1
 10
0.0
 20
0.0
 30
0.0
  3
*D36
  1

  0
LINE
  5
67A
330
58F
100
AcDbEntity
  8
AM_REFDIM
100
AcDbLine
 10
1369.528400425528
 20
739.7515859402599
 30
0.0
 11
1355.036733758861
 21
739.7515859402599
 31
0.0
  0
LINE
  5
67B
330
58F
100
AcDbEntity
  8
AM_REFDIM
100
AcDbLine
 10
1355.036733758861
 20
739.7515859402599
 30
0.0
 11
1339.406897540012
 21
759.0014914313642
 31
0.0
  0
LINE
  5
67C
330
58F
100
AcDbEntity
  8
AM_REFDIM
100
AcDbLine
 10
1333.733906190585
 20
765.9884198802127
 30
0.0
 11
1332.473241446268
 21
767.5410706466236
 31
0.0
  0
MTEXT
  5
67D
330
58F
100
AcDbEntity
  8
AM_REFDIM
100
AcDbMText
 10
1362.549233758861
 20
741.2849192735932
 30
0.0
 40
2.0
 41
0.0
 71
     5
 72
     1
  1
\A1;N-\U+22055×4L
  7
DAYUS
 73
     1
 44
1.0
1001
ACAD
1000
MTEXTBEGIN
1070
    73
1070
     1
1070
    44
1040
1.0
1070
    74
1070
     0
1000
MTEXTEND
  0
LINE
  5
67E
330
58F
100
AcDbEntity
  8
AM_REFDIM
100
AcDbLine
 10
1334.994570934902
 20
764.435769113802
 30
0.0
 11
1338.146232795695
 21
760.554142197775
 31
0.0
  0
SOLID
  5
67F
330
58F
100
AcDbEntity
  8
AM_REFDIM
100
AcDbTrace
 10
1333.99268131832
 20
766.1985306709322
 30
0.0
 11
1333.47513106285
 21
765.7783090894932
 31
0.0
 12
1334.994570934902
 22
764.435769113802
 32
0.0
 13
1334.994570934902
 23
764.435769113802
 33
0.0
  0
SOLID
  5
680
330
58F
100
AcDbEntity
  8
AM_REFDIM
100
AcDbTrace
 10
1339.665672667747
 20
759.2116022220836
 30
0.0
 11
1339.148122412277
 21
758.7913806406447
 31
0.0
 12
1338.146232795695
 22
760.554142197775
 32
0.0
 13
1338.146232795695
 23
760.554142197775
 33
0.0
  0
POINT
  5
681
330
58F
100
AcDbEntity
  8
Defpoints
 62
     0
100
AcDbPoint
 10
1338.146232795695
 20
760.554142197775
 30
0.0
  0
POINT
  5
682
330
58F
100
AcDbEntity
  8
Defpoints
 62
     0
100
AcDbPoint
 10
1334.994570934902
 20
764.435769113802
 30
0.0
  0
ENDBLK
  5
59A
330
58F
100
AcDbEntity
  8
0
100
AcDbBlockEnd
  0
BLOCK
  5
5A5
330
59B
100
AcDbEntity
  8
0
100
AcDbBlockBegin
  2
*D37
 70
     1
 10
0.0
 20
0.0
 30
0.0
  3
*D37
  1

  0
LINE
  5
683
330
59B
100
AcDbEntity
  8
AM_REFDIM
100
AcDbLine
 10
1312.070401865298
 20
748.4949556557883
 30
0.0
 11
1301.032834775776
 21
748.4949556557883
 31
0.0
  0
LINE
  5
684
330
59B
100
AcDbEntity
  8
AM_REFDIM
100
AcDbLine
 10
1322.415858012709
 20
762.4949556557883
 30
0.0
 11
1301.032834775776
 21
762.4949556557883
 31
0.0
  0
LINE
  5
685
330
59B
100
AcDbEntity
  8
AM_REFDIM
100
AcDbLine
 10
1302.366168109109
 20
750.4949556557883
 30
0.0
 11
1302.366168109109
 21
760.4949556557883
 31
0.0
  0
SOLID
  5
686
330
59B
100
AcDbEntity
  8
AM_REFDIM
100
AcDbTrace
 10
1302.032834775776
 20
750.4949556557883
 30
0.0
 11
1302.699501442442
 21
750.4949556557883
 31
0.0
 12
1302.366168109109
 22
748.4949556557883
 32
0.0
 13
1302.366168109109
 23
748.4949556557883
 33
0.0
  0
SOLID
  5
687
330
59B
100
AcDbEntity
  8
AM_REFDIM
100
AcDbTrace
 10
1302.032834775776
 20
760.4949556557883
 30
0.0
 11
1302.699501442442
 21
760.4949556557883
 31
0.0
 12
1302.366168109109
 22
762.4949556557883
 32
0.0
 13
1302.366168109109
 23
762.4949556557883
 33
0.0
  0
MTEXT
  5
688
330
59B
100
AcDbEntity
  8
AM_REFDIM
100
AcDbMText
 10
1300.832834775776
 20
755.4949556557885
 30
0.0
 40
2.0
 41
0.0
 71
     5
 72
     1
  1
\A1;14{\H1.200000;±0.1}
  7
DAYUS
 11
0.0000000000000001
 21
1.0
 31
0.0
 73
     1
 44
1.0
1001
ACAD
1000
MTEXTBEGIN
1070
    73
1070
     1
1070
    44
1040
1.0
1070
    74
1070
     0
1000
MTEXTEND
  0
POINT
  5
689
330
59B
100
AcDbEntity
  8
Defpoints
 62
     0
100
AcDbPoint
 10
1313.070401865298
 20
748.4949556557883
 30
0.0
  0
POINT
  5
68A
330
59B
100
AcDbEntity
  8
Defpoints
 62
     0
100
AcDbPoint
 10
1323.415858012709
 20
762.4949556557883
 30
0.0
  0
POINT
  5
68B
330
59B
100
AcDbEntity
  8
Defpoints
 62
     0
100
AcDbPoint
 10
1302.366168109109
 20
762.4949556557883
 30
0.0
  0
ENDBLK
  5
5A6
330
59B
100
AcDbEntity
  8
0
100
AcDbBlockEnd
  0
BLOCK
  5
5B2
330
5A7
100
AcDbEntity
  8
0
100
AcDbBlockBegin
  2
*D38
 70
     1
 10
0.0
 20
0.0
 30
0.0
  3
*D38
  1

  0
LINE
  5
9E0
330
5A7
100
AcDbEntity
  8
AM_REFDIM
100
AcDbLine
 10
1320.693711586814
 20
758.1949556557884
 30
0.0
 11
1306.332834775776
 21
758.1949556557884
 31
0.0
  0
LINE
  5
9E1
330
5A7
100
AcDbEntity
  8
AM_REFDIM
100
AcDbLine
 10
1346.493711586814
 20
766.7949556557882
 30
0.0
 11
1306.332834775776
 21
766.7949556557882
 31
0.0
  0
LINE
  5
9E2
330
5A7
100
AcDbEntity
  8
AM_REFDIM
100
AcDbLine
 10
1307.666168109109
 20
760.1949556557883
 30
0.0
 11
1307.666168109109
 21
764.7949556557882
 31
0.0
  0
SOLID
  5
9E3
330
5A7
100
AcDbEntity
  8
AM_REFDIM
100
AcDbTrace
 10
1307.332834775776
 20
760.1949556557883
 30
0.0
 11
1307.999501442443
 21
760.1949556557883
 31
0.0
 12
1307.666168109109
 22
758.1949556557884
 32
0.0
 13
1307.666168109109
 23
758.1949556557884
 33
0.0
  0
SOLID
  5
9E4
330
5A7
100
AcDbEntity
  8
AM_REFDIM
100
AcDbTrace
 10
1307.332834775776
 20
764.7949556557882
 30
0.0
 11
1307.999501442443
 21
764.7949556557882
 31
0.0
 12
1307.666168109109
 22
766.7949556557882
 32
0.0
 13
1307.666168109109
 23
766.7949556557882
 33
0.0
  0
MTEXT
  5
9E5
330
5A7
100
AcDbEntity
  8
AM_REFDIM
100
AcDbMText
 10
1306.132834775776
 20
762.4949556557885
 30
0.0
 40
2.0
 41
0.0
 71
     5
 72
     1
  1
\A1;8.6
  7
DAYUS
 11
0.0000000000000001
 21
1.0
 31
0.0
 73
     1
 44
1.0
1001
ACAD
1000
MTEXTBEGIN
1070
    73
1070
     1
1070
    44
1040
1.0
1070
    74
1070
     0
1000
MTEXTEND
  0
POINT
  5
9E6
330
5A7
100
AcDbEntity
  8
Defpoints
 62
     0
100
AcDbPoint
 10
1321.693711586814
 20
758.1949556557884
 30
0.0
  0
POINT
  5
9E7
330
5A7
100
AcDbEntity
  8
Defpoints
 62
     0
100
AcDbPoint
 10
1347.493711586814
 20
766.7949556557882
 30
0.0
  0
POINT
  5
9E8
330
5A7
100
AcDbEntity
  8
Defpoints
 62
     0
100
AcDbPoint
 10
1307.666168109109
 20
766.7949556557882
 30
0.0
  0
ENDBLK
  5
5B3
330
5A7
100
AcDbEntity
  8
0
100
AcDbBlockEnd
  0
BLOCK
  5
5BF
330
5B4
100
AcDbEntity
  8
0
100
AcDbBlockBegin
  2
*D39
 70
     1
 10
0.0
 20
0.0
 30
0.0
  3
*D39
  1

  0
LINE
  5
999
330
5B4
100
AcDbEntity
  8
AM_REFDIM
100
AcDbLine
 10
1322.415858012709
 20
762.4949556557883
 30
0.0
 11
1301.032834775776
 21
762.4949556557883
 31
0.0
  0
LINE
  5
99A
330
5B4
100
AcDbEntity
  8
AM_REFDIM
100
AcDbLine
 10
1322.415858012709
 20
772.9949556557883
 30
0.0
 11
1301.032834775776
 21
772.9949556557883
 31
0.0
  0
LINE
  5
99B
330
5B4
100
AcDbEntity
  8
AM_REFDIM
100
AcDbLine
 10
1302.366168109109
 20
764.4949556557882
 30
0.0
 11
1302.366168109109
 21
770.9949556557883
 31
0.0
  0
LINE
  5
99C
330
5B4
100
AcDbEntity
  8
AM_REFDIM
100
AcDbLine
 10
1302.366168109109
 20
772.9949556557883
 30
0.0
 11
1302.366168109109
 21
786.2520985129312
 31
0.0
  0
SOLID
  5
99D
330
5B4
100
AcDbEntity
  8
AM_REFDIM
100
AcDbTrace
 10
1302.032834775776
 20
764.4949556557882
 30
0.0
 11
1302.699501442442
 21
764.4949556557882
 31
0.0
 12
1302.366168109109
 22
762.4949556557883
 32
0.0
 13
1302.366168109109
 23
762.4949556557883
 33
0.0
  0
SOLID
  5
99E
330
5B4
100
AcDbEntity
  8
AM_REFDIM
100
AcDbTrace
 10
1302.032834775776
 20
770.9949556557883
 30
0.0
 11
1302.699501442442
 21
770.9949556557883
 31
0.0
 12
1302.366168109109
 22
772.9949556557883
 32
0.0
 13
1302.366168109109
 23
772.9949556557883
 33
0.0
  0
MTEXT
  5
99F
330
5B4
100
AcDbEntity
  8
AM_REFDIM
100
AcDbMText
 10
1300.832834775776
 20
780.6235270843599
 30
0.0
 40
2.0
 41
0.0
 71
     5
 72
     1
  1
\A1;P=10.5
  7
DAYUS
 11
0.0000000000000001
 21
1.0
 31
0.0
 73
     1
 44
1.0
1001
ACAD
1000
MTEXTBEGIN
1070
    73
1070
     1
1070
    44
1040
1.0
1070
    74
1070
     0
1000
MTEXTEND
  0
POINT
  5
9A0
330
5B4
100
AcDbEntity
  8
Defpoints
 62
     0
100
AcDbPoint
 10
1323.415858012709
 20
762.4949556557883
 30
0.0
  0
POINT
  5
9A1
330
5B4
100
AcDbEntity
  8
Defpoints
 62
     0
100
AcDbPoint
 10
1323.415858012709
 20
772.9949556557883
 30
0.0
  0
POINT
  5
9A2
330
5B4
100
AcDbEntity
  8
Defpoints
 62
     0
100
AcDbPoint
 10
1302.366168109109
 20
772.9949556557883
 30
0.0
  0
ENDBLK
  5
5C0
330
5B4
100
AcDbEntity
  8
0
100
AcDbBlockEnd
  0
BLOCK
  5
5CB
330
5C1
100
AcDbEntity
  8
0
100
AcDbBlockBegin
  2
*D40
 70
     1
 10
0.0
 20
0.0
 30
0.0
  3
*D40
  1

  0
LINE
  5
6A0
330
5C1
100
AcDbEntity
  8
AM_REFDIM
100
AcDbLine
 10
1378.611054154481
 20
716.6329484898781
 30
0.0
 11
1360.30986367829
 21
716.6329484898783
 31
0.0
  0
LINE
  5
6A1
330
5C1
100
AcDbEntity
  8
AM_REFDIM
100
AcDbLine
 10
1360.30986367829
 20
716.6329484898783
 30
0.0
 11
1356.479482008772
 21
709.9572559044075
 31
0.0
  0
LINE
  5
6A2
330
5C1
100
AcDbEntity
  8
AM_REFDIM
100
AcDbLine
 10
1349.661321721824
 20
698.0743820810644
 30
0.0
 11
1348.665969855116
 21
696.3396559754666
 31
0.0
  0
MTEXT
  5
6A3
330
5C1
100
AcDbEntity
  8
AM_REFDIM
100
AcDbMText
 10
1369.727125583052
 20
718.6900913470212
 30
0.0
 40
2.0
 41
0.0
 71
     5
 72
     1
  1
\A1;2×N-PT1/8
  7
DAYUS
 73
     1
 44
1.0
1001
ACAD
1000
MTEXTBEGIN
1070
    73
1070
     1
1070
    44
1040
1.0
1070
    74
1070
     0
1000
MTEXTEND
  0
LINE
  5
6A4
330
5C1
100
AcDbEntity
  8
AM_REFDIM
100
AcDbLine
 10
1350.656673588532
 20
699.8091081866618
 30
0.0
 11
1355.484130142064
 21
708.22252979881
 31
0.0
  0
SOLID
  5
6A5
330
5C1
100
AcDbEntity
  8
AM_REFDIM
100
AcDbTrace
 10
1349.372200704225
 20
698.2402740588489
 30
0.0
 11
1349.950442739424
 21
697.9084901032797
 31
0.0
 12
1350.656673588532
 22
699.8091081866618
 32
0.0
 13
1350.656673588532
 23
699.8091081866618
 33
0.0
  0
SOLID
  5
6A6
330
5C1
100
AcDbEntity
  8
AM_REFDIM
100
AcDbTrace
 10
1356.190360991172
 20
710.1231478821921
 30
0.0
 11
1356.768603026371
 21
709.7913639266228
 31
0.0
 12
1355.484130142064
 22
708.22252979881
 32
0.0
 13
1355.484130142064
 23
708.22252979881
 33
0.0
  0
POINT
  5
6A7
330
5C1
100
AcDbEntity
  8
Defpoints
 62
     0
100
AcDbPoint
 10
1355.484130142064
 20
708.22252979881
 30
0.0
  0
POINT
  5
6A8
330
5C1
100
AcDbEntity
  8
Defpoints
 62
     0
100
AcDbPoint
 10
1350.656673588532
 20
699.8091081866618
 30
0.0
  0
ENDBLK
  5
5CC
330
5C1
100
AcDbEntity
  8
0
100
AcDbBlockEnd
  0
BLOCK
  5
5D7
330
5CD
100
AcDbEntity
  8
0
100
AcDbBlockBegin
  2
*D41
 70
     1
 10
0.0
 20
0.0
 30
0.0
  3
*D41
  1

  0
LINE
  5
9AD
330
5CD
100
AcDbEntity
  8
AM_REFDIM
100
AcDbLine
 10
1326.640000594636
 20
758.9949556557883
 30
0.0
 11
1326.640000594636
 21
739.9799925627426
 31
0.0
  0
LINE
  5
9AE
330
5CD
100
AcDbEntity
  8
AM_REFDIM
100
AcDbLine
 10
1346.500803135961
 20
758.9949556557883
 30
0.0
 11
1346.500803135961
 21
739.9799925627426
 31
0.0
  0
LINE
  5
9AF
330
5CD
100
AcDbEntity
  8
AM_REFDIM
100
AcDbLine
 10
1328.640000594636
 20
741.3133258960761
 30
0.0
 11
1344.500803135961
 21
741.3133258960761
 31
0.0
  0
SOLID
  5
9B0
330
5CD
100
AcDbEntity
  8
AM_REFDIM
100
AcDbTrace
 10
1328.640000594636
 20
741.6466592294094
 30
0.0
 11
1328.640000594636
 21
740.9799925627427
 31
0.0
 12
1326.640000594636
 22
741.3133258960761
 32
0.0
 13
1326.640000594636
 23
741.3133258960761
 33
0.0
  0
SOLID
  5
9B1
330
5CD
100
AcDbEntity
  8
AM_REFDIM
100
AcDbTrace
 10
1344.500803135961
 20
741.6466592294094
 30
0.0
 11
1344.500803135961
 21
740.9799925627427
 31
0.0
 12
1346.500803135961
 22
741.3133258960761
 32
0.0
 13
1346.500803135961
 23
741.3133258960761
 33
0.0
  0
MTEXT
  5
9B2
330
5CD
100
AcDbEntity
  8
AM_REFDIM
100
AcDbMText
 10
1336.570401865298
 20
742.8466592294094
 30
0.0
 40
2.0
 41
0.0
 71
     5
 72
     1
  1
\A1;19.9
  7
DAYUS
 73
     1
 44
1.0
1001
ACAD
1000
MTEXTBEGIN
1070
    73
1070
     1
1070
    44
1040
1.0
1070
    74
1070
     0
1000
MTEXTEND
  0
POINT
  5
9B3
330
5CD
100
AcDbEntity
  8
Defpoints
 62
     0
100
AcDbPoint
 10
1326.640000594636
 20
759.9949556557882
 30
0.0
  0
POINT
  5
9B4
330
5CD
100
AcDbEntity
  8
Defpoints
 62
     0
100
AcDbPoint
 10
1346.500803135961
 20
759.9949556557882
 30
0.0
  0
POINT
  5
9B5
330
5CD
100
AcDbEntity
  8
Defpoints
 62
     0
100
AcDbPoint
 10
1346.500803135961
 20
741.3133258960761
 30
0.0
  0
ENDBLK
  5
5D8
330
5CD
100
AcDbEntity
  8
0
100
AcDbBlockEnd
  0
BLOCK
  5
5E4
330
5D9
100
AcDbEntity
  8
0
100
AcDbBlockBegin
  2
*D42
 70
     1
 10
0.0
 20
0.0
 30
0.0
  3
*D42
  1

  0
LINE
  5
CB0
330
5D9
100
AcDbEntity
  8
AM_REFDIM
100
AcDbLine
 10
1327.459952449006
 20
717.2742114189165
 30
0.0
 11
1329.163118290259
 21
720.9266623522593
 31
0.0
  0
ARC
  5
CB1
330
5D9
100
AcDbEntity
  8
AM_REFDIM
100
AcDbCircle
 10
1326.640000594636
 20
715.5158189927358
 30
0.0
 40
15.36446874505832
100
AcDbArc
 50
7.463493782196842
 51
57.53650621780236
  0
SOLID
  5
CB2
330
5D9
100
AcDbEntity
  8
AM_REFDIM
100
AcDbTrace
 10
1342.206925446872
 20
717.5332734868391
 30
0.0
 11
1341.541672307856
 21
717.4898833327291
 31
0.0
 12
1342.004469339694
 22
715.5158189927359
 32
0.0
 13
1342.004469339694
 23
715.5158189927359
 33
0.0
  0
SOLID
  5
CB3
330
5D9
100
AcDbEntity
  8
AM_REFDIM
100
AcDbTrace
 10
1334.726829074555
 20
728.1870444663588
 30
0.0
 11
1335.047302034334
 21
728.7716310950931
 31
0.0
 12
1333.133305668242
 22
729.4407566600633
 32
0.0
 13
1333.133305668242
 23
729.4407566600633
 33
0.0
  0
MTEXT
  5
CB4
330
5D9
100
AcDbEntity
  8
AM_REFDIM
100
AcDbMText
 10
1340.891462320591
 20
724.5950014313775
 30
0.0
 40
2.0
 41
0.0
 71
     5
 72
     1
  1
\A1;65°
  7
DAYUS
 11
0.5372996083468237
 21
-0.8433914458128858
 31
0.0
 73
     1
 44
1.0
1001
ACAD
1000
MTEXTBEGIN
1070
    73
1070
     1
1070
    44
1040
1.0
1070
    74
1070
     0
1000
MTEXTEND
  0
POINT
  5
CB5
330
5D9
100
AcDbEntity
  8
Defpoints
 62
     0
100
AcDbPoint
 10
1340.918931583916
 20
721.1884753036049
 30
0.0
  0
POINT
  5
CB6
330
5D9
100
AcDbEntity
  8
Defpoints
 62
     0
100
AcDbPoint
 10
1319.570401865298
 20
715.5158189927358
 30
0.0
  0
POINT
  5
CB7
330
5D9
100
AcDbEntity
  8
Defpoints
 62
     0
100
AcDbPoint
 10
1327.037334187265
 20
716.3679036318799
 30
0.0
  0
POINT
  5
CB8
330
5D9
100
AcDbEntity
  8
Defpoints
 62
     0
100
AcDbPoint
 10
1321.754901777531
 20
705.0396907720823
 30
0.0
  0
POINT
  5
CB9
330
5D9
100
AcDbEntity
  8
Defpoints
 62
     0
100
AcDbPoint
 10
1353.570401865298
 20
715.5158189927359
 30
0.0
  0
LINE
  5
CBA
330
5D9
100
AcDbEntity
  8
AM_REFDIM
100
AcDbLine
 10
1331.712915136094
 20
726.394719334047
 30
0.0
 11
1333.696796683896
 21
730.6491670427789
 31
0.0
  0
ENDBLK
  5
5E5
330
5D9
100
AcDbEntity
  8
0
100
AcDbBlockEnd
  0
BLOCK
  5
5F2
330
5E6
100
AcDbEntity
  8
0
100
AcDbBlockBegin
  2
*D43
 70
     1
 10
0.0
 20
0.0
 30
0.0
  3
*D43
  1

  0
LINE
  5
A37
330
5E6
100
AcDbEntity
  8
AM_REFDIM
100
AcDbLine
 10
1350.864401865298
 20
752.4949556557883
 30
0.0
 11
1374.298325477237
 21
752.4949556557883
 31
0.0
  0
LINE
  5
A38
330
5E6
100
AcDbEntity
  8
AM_REFDIM
100
AcDbLine
 10
1361.011718800464
 20
748.4949556557883
 30
0.0
 11
1374.298325477237
 21
748.4949556557883
 31
0.0
  0
LINE
  5
A39
330
5E6
100
AcDbEntity
  8
AM_REFDIM
100
AcDbLine
 10
1372.964992143904
 20
754.4949556557883
 30
0.0
 11
1372.964992143904
 21
756.4949556557883
 31
0.0
  0
LINE
  5
A3A
330
5E6
100
AcDbEntity
  8
AM_REFDIM
100
AcDbLine
 10
1372.964992143904
 20
746.4949556557883
 30
0.0
 11
1372.964992143904
 21
744.4949556557883
 31
0.0
  0
LINE
  5
A3B
330
5E6
100
AcDbEntity
  8
AM_REFDIM
100
AcDbLine
 10
1372.964992143904
 20
752.4949556557883
 30
0.0
 11
1372.964992143904
 21
748.4949556557883
 31
0.0
  0
SOLID
  5
A3C
330
5E6
100
AcDbEntity
  8
AM_REFDIM
100
AcDbTrace
 10
1372.631658810571
 20
754.4949556557883
 30
0.0
 11
1373.298325477237
 21
754.4949556557883
 31
0.0
 12
1372.964992143904
 22
752.4949556557883
 32
0.0
 13
1372.964992143904
 23
752.4949556557883
 33
0.0
  0
SOLID
  5
A3D
330
5E6
100
AcDbEntity
  8
AM_REFDIM
100
AcDbTrace
 10
1372.631658810571
 20
746.4949556557883
 30
0.0
 11
1373.298325477237
 21
746.4949556557883
 31
0.0
 12
1372.964992143904
 22
748.4949556557883
 32
0.0
 13
1372.964992143904
 23
748.4949556557883
 33
0.0
  0
MTEXT
  5
A3E
330
5E6
100
AcDbEntity
  8
AM_REFDIM
100
AcDbMText
 10
1371.431658810571
 20
750.4949556557885
 30
0.0
 40
2.0
 41
0.0
 71
     5
 72
     1
  1
\A1;4
  7
DAYUS
 11
0.0000000000000001
 21
1.0
 31
0.0
 73
     1
 44
1.0
1001
ACAD
1000
MTEXTBEGIN
1070
    73
1070
     1
1070
    44
1040
1.0
1070
    74
1070
     0
1000
MTEXTEND
  0
POINT
  5
A3F
330
5E6
100
AcDbEntity
  8
Defpoints
 62
     0
100
AcDbPoint
 10
1349.864401865298
 20
752.4949556557883
 30
0.0
  0
POINT
  5
A40
330
5E6
100
AcDbEntity
  8
Defpoints
 62
     0
100
AcDbPoint
 10
1360.011718800464
 20
748.4949556557883
 30
0.0
  0
POINT
  5
A41
330
5E6
100
AcDbEntity
  8
Defpoints
 62
     0
100
AcDbPoint
 10
1372.964992143904
 20
748.4949556557883
 30
0.0
  0
ENDBLK
  5
5F3
330
5E6
100
AcDbEntity
  8
0
100
AcDbBlockEnd
  0
BLOCK
  5
5FE
330
5F4
100
AcDbEntity
  8
0
100
AcDbBlockBegin
  2
*D44
 70
     1
 10
0.0
 20
0.0
 30
0.0
  3
*D44
  1

  0
LINE
  5
A21
330
5F4
100
AcDbEntity
  8
AM_REFDIM
100
AcDbLine
 10
1350.864401865298
 20
752.4949556557883
 30
0.0
 11
1374.298325477237
 21
752.4949556557883
 31
0.0
  0
LINE
  5
A22
330
5F4
100
AcDbEntity
  8
AM_REFDIM
100
AcDbLine
 10
1350.864401865298
 20
782.9949556557883
 30
0.0
 11
1374.298325477237
 21
782.9949556557883
 31
0.0
  0
LINE
  5
A23
330
5F4
100
AcDbEntity
  8
AM_REFDIM
100
AcDbLine
 10
1372.964992143904
 20
754.4949556557883
 30
0.0
 11
1372.964992143904
 21
780.9949556557882
 31
0.0
  0
SOLID
  5
A24
330
5F4
100
AcDbEntity
  8
AM_REFDIM
100
AcDbTrace
 10
1372.631658810571
 20
754.4949556557883
 30
0.0
 11
1373.298325477237
 21
754.4949556557883
 31
0.0
 12
1372.964992143904
 22
752.4949556557883
 32
0.0
 13
1372.964992143904
 23
752.4949556557883
 33
0.0
  0
SOLID
  5
A25
330
5F4
100
AcDbEntity
  8
AM_REFDIM
100
AcDbTrace
 10
1372.631658810571
 20
780.9949556557882
 30
0.0
 11
1373.298325477237
 21
780.9949556557882
 31
0.0
 12
1372.964992143904
 22
782.9949556557883
 32
0.0
 13
1372.964992143904
 23
782.9949556557883
 33
0.0
  0
MTEXT
  5
A26
330
5F4
100
AcDbEntity
  8
AM_REFDIM
100
AcDbMText
 10
1371.431658810571
 20
767.7449556557885
 30
0.0
 40
2.0
 41
0.0
 71
     5
 72
     1
  1
\A1;30.5
  7
DAYUS
 11
0.0000000000000001
 21
1.0
 31
0.0
 73
     1
 44
1.0
1001
ACAD
1000
MTEXTBEGIN
1070
    73
1070
     1
1070
    44
1040
1.0
1070
    74
1070
     0
1000
MTEXTEND
  0
POINT
  5
A27
330
5F4
100
AcDbEntity
  8
Defpoints
 62
     0
100
AcDbPoint
 10
1349.864401865298
 20
752.4949556557883
 30
0.0
  0
POINT
  5
A28
330
5F4
100
AcDbEntity
  8
Defpoints
 62
     0
100
AcDbPoint
 10
1349.864401865298
 20
782.9949556557883
 30
0.0
  0
POINT
  5
A29
330
5F4
100
AcDbEntity
  8
Defpoints
 62
     0
100
AcDbPoint
 10
1372.964992143904
 20
782.9949556557883
 30
0.0
  0
ENDBLK
  5
5FF
330
5F4
100
AcDbEntity
  8
0
100
AcDbBlockEnd
  0
BLOCK
  5
60A
330
600
100
AcDbEntity
  8
0
100
AcDbBlockBegin
  2
*D45
 70
     1
 10
0.0
 20
0.0
 30
0.0
  3
*D45
  1

  0
LINE
  5
C97
330
600
100
AcDbEntity
  8
AM_REFDIM
100
AcDbLine
 10
1286.829313987499
 20
740.3454829502086
 30
0.0
 11
1316.570980654166
 21
740.3454829502085
 31
0.0
  0
LINE
  5
C98
330
600
100
AcDbEntity
  8
AM_REFDIM
100
AcDbLine
 10
1316.570980654166
 20
740.3454829502085
 30
0.0
 11
1322.534317946826
 21
755.3385962018349
 31
0.0
  0
LINE
  5
C99
330
600
100
AcDbEntity
  8
AM_REFDIM
100
AcDbLine
 10
1324.806485783771
 20
761.0513151097418
 30
0.0
 11
1325.545642529686
 21
762.9097142339794
 31
0.0
  0
MTEXT
  5
C9A
330
600
100
AcDbEntity
  8
AM_REFDIM
100
AcDbMText
 10
1301.433480654166
 20
741.8788162835417
 30
0.0
 40
2.0
 41
0.0
 71
     5
 72
     1
  1
\A1;2×N-M2×0.4×4.5L
  7
DAYUS
 73
     1
 44
1.0
1001
ACAD
1000
MTEXTBEGIN
1070
    73
1070
     1
1070
    44
1040
1.0
1070
    74
1070
     0
1000
MTEXTEND
  0
LINE
  5
C9B
330
600
100
AcDbEntity
  8
AM_REFDIM
100
AcDbLine
 10
1324.067329037855
 20
759.1929159855039
 30
0.0
 11
1323.273474692742
 21
757.1969953260726
 31
0.0
  0
SOLID
  5
C9C
330
600
100
AcDbEntity
  8
AM_REFDIM
100
AcDbTrace
 10
1324.496752596397
 20
761.1745079007277
 30
0.0
 11
1325.116218971144
 21
760.9281223187558
 31
0.0
 12
1324.067329037855
 22
759.1929159855039
 32
0.0
 13
1324.067329037855
 23
759.1929159855039
 33
0.0
  0
SOLID
  5
C9D
330
600
100
AcDbEntity
  8
AM_REFDIM
100
AcDbTrace
 10
1322.224584759453
 20
755.4617889928208
 30
0.0
 11
1322.8440511342
 21
755.2154034108491
 31
0.0
 12
1323.273474692742
 22
757.1969953260726
 32
0.0
 13
1323.273474692742
 23
757.1969953260726
 33
0.0
  0
POINT
  5
C9E
330
600
100
AcDbEntity
  8
Defpoints
 62
     0
100
AcDbPoint
 10
1323.273474692742
 20
757.1969953260726
 30
0.0
  0
POINT
  5
C9F
330
600
100
AcDbEntity
  8
Defpoints
 62
     0
100
AcDbPoint
 10
1324.067329037855
 20
759.1929159855039
 30
0.0
  0
ENDBLK
  5
60B
330
600
100
AcDbEntity
  8
0
100
AcDbBlockEnd
  0
BLOCK
  5
616
330
60C
100
AcDbEntity
  8
0
100
AcDbBlockBegin
  2
*D46
 70
     1
 10
0.0
 20
0.0
 30
0.0
  3
*D46
  1

  0
LINE
  5
93F
330
60C
100
AcDbEntity
  8
AM_REFDIM
100
AcDbLine
 10
1375.004671182197
 20
793.6567044616711
 30
0.0
 11
1354.66181403934
 21
793.6567044616713
 31
0.0
  0
LINE
  5
940
330
60C
100
AcDbEntity
  8
AM_REFDIM
100
AcDbLine
 10
1354.66181403934
 20
793.6567044616713
 30
0.0
 11
1347.703060337675
 21
786.1178998006033
 31
0.0
  0
LINE
  5
941
330
60C
100
AcDbEntity
  8
AM_REFDIM
100
AcDbLine
 10
1341.937743392921
 20
779.8720115109736
 30
0.0
 11
1340.581198229449
 21
778.402390736943
 31
0.0
  0
MTEXT
  5
942
330
60C
100
AcDbEntity
  8
AM_REFDIM
100
AcDbMText
 10
1365.099909277435
 20
795.1900377950045
 30
0.0
 40
2.0
 41
0.0
 71
     5
 72
     1
  1
\A1;2*2-\U+22054.5thru
  7
DAYUS
 73
     1
 44
1.0
1001
ACAD
1000
MTEXTBEGIN
1070
    73
1070
     1
1070
    44
1040
1.0
1070
    74
1070
     0
1000
MTEXTEND
  0
LINE
  5
943
330
60C
100
AcDbEntity
  8
AM_REFDIM
100
AcDbLine
 10
1343.294288556393
 20
781.3416322850041
 30
0.0
 11
1346.346515174204
 21
784.6482790265727
 31
0.0
  0
SOLID
  5
944
330
60C
100
AcDbEntity
  8
AM_REFDIM
100
AcDbTrace
 10
1341.692806597249
 20
780.0981023715522
 30
0.0
 11
1342.182680188593
 21
779.6459206503949
 31
0.0
 12
1343.294288556393
 22
781.3416322850041
 32
0.0
 13
1343.294288556393
 23
781.3416322850041
 33
0.0
  0
SOLID
  5
945
330
60C
100
AcDbEntity
  8
AM_REFDIM
100
AcDbTrace
 10
1347.458123542003
 20
786.3439906611818
 30
0.0
 11
1347.947997133347
 21
785.8918089400246
 31
0.0
 12
1346.346515174204
 22
784.6482790265727
 32
0.0
 13
1346.346515174204
 23
784.6482790265727
 33
0.0
  0
POINT
  5
946
330
60C
100
AcDbEntity
  8
Defpoints
 62
     0
100
AcDbPoint
 10
1346.346515174204
 20
784.6482790265727
 30
0.0
  0
POINT
  5
947
330
60C
100
AcDbEntity
  8
Defpoints
 62
     0
100
AcDbPoint
 10
1343.294288556393
 20
781.3416322850041
 30
0.0
  0
ENDBLK
  5
617
330
60C
100
AcDbEntity
  8
0
100
AcDbBlockEnd
  0
BLOCK
  5
622
330
618
100
AcDbEntity
  8
0
100
AcDbBlockBegin
  2
*D47
 70
     1
 10
0.0
 20
0.0
 30
0.0
  3
*D47
  1

  0
LINE
  5
9A4
330
618
100
AcDbEntity
  8
AM_REFDIM
100
AcDbLine
 10
1328.320401865298
 20
789.0389556557883
 30
0.0
 11
1328.320401865298
 21
795.5157419832224
 31
0.0
  0
LINE
  5
9A5
330
618
100
AcDbEntity
  8
AM_REFDIM
100
AcDbLine
 10
1344.820401865298
 20
789.0389556557883
 30
0.0
 11
1344.820401865298
 21
795.5157419832224
 31
0.0
  0
LINE
  5
9A6
330
618
100
AcDbEntity
  8
AM_REFDIM
100
AcDbLine
 10
1330.320401865298
 20
794.1824086498891
 30
0.0
 11
1342.820401865298
 21
794.1824086498891
 31
0.0
  0
SOLID
  5
9A7
330
618
100
AcDbEntity
  8
AM_REFDIM
100
AcDbTrace
 10
1330.320401865298
 20
794.5157419832225
 30
0.0
 11
1330.320401865298
 21
793.8490753165557
 31
0.0
 12
1328.320401865298
 22
794.1824086498891
 32
0.0
 13
1328.320401865298
 23
794.1824086498891
 33
0.0
  0
SOLID
  5
9A8
330
618
100
AcDbEntity
  8
AM_REFDIM
100
AcDbTrace
 10
1342.820401865298
 20
794.5157419832225
 30
0.0
 11
1342.820401865298
 21
793.8490753165557
 31
0.0
 12
1344.820401865298
 22
794.1824086498891
 32
0.0
 13
1344.820401865298
 23
794.1824086498891
 33
0.0
  0
MTEXT
  5
9A9
330
618
100
AcDbEntity
  8
AM_REFDIM
100
AcDbMText
 10
1336.570401865298
 20
795.7157419832224
 30
0.0
 40
2.0
 41
0.0
 71
     5
 72
     1
  1
\A1;16.5
  7
DAYUS
 73
     1
 44
1.0
1001
ACAD
1000
MTEXTBEGIN
1070
    73
1070
     1
1070
    44
1040
1.0
1070
    74
1070
     0
1000
MTEXTEND
  0
POINT
  5
9AA
330
618
100
AcDbEntity
  8
Defpoints
 62
     0
100
AcDbPoint
 10
1328.320401865298
 20
788.0389556557883
 30
0.0
  0
POINT
  5
9AB
330
618
100
AcDbEntity
  8
Defpoints
 62
     0
100
AcDbPoint
 10
1344.820401865298
 20
788.0389556557883
 30
0.0
  0
POINT
  5
9AC
330
618
100
AcDbEntity
  8
Defpoints
 62
     0
100
AcDbPoint
 10
1344.820401865298
 20
794.1824086498891
 30
0.0
  0
ENDBLK
  5
623
330
618
100
AcDbEntity
  8
0
100
AcDbBlockEnd
  0
BLOCK
  5
62E
330
624
100
AcDbEntity
  8
0
100
AcDbBlockBegin
  2
*D48
 70
     1
 10
0.0
 20
0.0
 30
0.0
  3
*D48
  1

  0
LINE
  5
819
330
624
100
AcDbEntity
  8
AM_REFDIM
100
AcDbLine
 10
1312.370401865298
 20
695.515818992736
 30
0.0
 11
1295.732834775776
 21
695.515818992736
 31
0.0
  0
LINE
  5
81A
330
624
100
AcDbEntity
  8
AM_REFDIM
100
AcDbLine
 10
1318.570401865298
 20
715.5158189927359
 30
0.0
 11
1295.732834775776
 21
715.5158189927359
 31
0.0
  0
LINE
  5
81B
330
624
100
AcDbEntity
  8
AM_REFDIM
100
AcDbLine
 10
1297.066168109109
 20
697.5158189927359
 30
0.0
 11
1297.066168109109
 21
713.5158189927359
 31
0.0
  0
SOLID
  5
81C
330
624
100
AcDbEntity
  8
AM_REFDIM
100
AcDbTrace
 10
1296.732834775776
 20
697.5158189927359
 30
0.0
 11
1297.399501442442
 21
697.5158189927359
 31
0.0
 12
1297.066168109109
 22
695.515818992736
 32
0.0
 13
1297.066168109109
 23
695.515818992736
 33
0.0
  0
SOLID
  5
81D
330
624
100
AcDbEntity
  8
AM_REFDIM
100
AcDbTrace
 10
1296.732834775776
 20
713.5158189927359
 30
0.0
 11
1297.399501442442
 21
713.5158189927359
 31
0.0
 12
1297.066168109109
 22
715.5158189927359
 32
0.0
 13
1297.066168109109
 23
715.5158189927359
 33
0.0
  0
MTEXT
  5
81E
330
624
100
AcDbEntity
  8
AM_REFDIM
100
AcDbMText
 10
1295.532834775776
 20
705.5158189927361
 30
0.0
 40
2.0
 41
0.0
 71
     5
 72
     1
  1
\A1;20
  7
DAYUS
 11
0.0000000000000001
 21
1.0
 31
0.0
 73
     1
 44
1.0
1001
ACAD
1000
MTEXTBEGIN
1070
    73
1070
     1
1070
    44
1040
1.0
1070
    74
1070
     0
1000
MTEXTEND
  0
POINT
  5
81F
330
624
100
AcDbEntity
  8
Defpoints
 62
     0
100
AcDbPoint
 10
1313.370401865298
 20
695.515818992736
 30
0.0
  0
POINT
  5
820
330
624
100
AcDbEntity
  8
Defpoints
 62
     0
100
AcDbPoint
 10
1319.570401865298
 20
715.5158189927359
 30
0.0
  0
POINT
  5
821
330
624
100
AcDbEntity
  8
Defpoints
 62
     0
100
AcDbPoint
 10
1297.066168109109
 20
715.5158189927359
 30
0.0
  0
ENDBLK
  5
62F
330
624
100
AcDbEntity
  8
0
100
AcDbBlockEnd
  0
BLOCK
  5
96C
330
962
100
AcDbEntity
  8
0
100
AcDbBlockBegin
  2
*D52
 70
     1
 10
0.0
 20
0.0
 30
0.0
  3
*D52
  1

  0
LINE
  5
A18
330
962
100
AcDbEntity
  8
AM_REFDIM
100
AcDbLine
 10
1361.070401865298
 20
748.4949556557883
 30
0.0
 11
1379.063782335167
 21
748.4949556557883
 31
0.0
  0
LINE
  5
A19
330
962
100
AcDbEntity
  8
AM_REFDIM
100
AcDbLine
 10
1361.070401865298
 20
786.9949556557883
 30
0.0
 11
1379.063782335167
 21
786.9949556557883
 31
0.0
  0
LINE
  5
A1A
330
962
100
AcDbEntity
  8
AM_REFDIM
100
AcDbLine
 10
1377.730449001834
 20
750.4949556557883
 30
0.0
 11
1377.730449001834
 21
784.9949556557882
 31
0.0
  0
SOLID
  5
A1B
330
962
100
AcDbEntity
  8
AM_REFDIM
100
AcDbTrace
 10
1377.3971156685
 20
750.4949556557883
 30
0.0
 11
1378.063782335167
 21
750.4949556557883
 31
0.0
 12
1377.730449001834
 22
748.4949556557883
 32
0.0
 13
1377.730449001834
 23
748.4949556557883
 33
0.0
  0
SOLID
  5
A1C
330
962
100
AcDbEntity
  8
AM_REFDIM
100
AcDbTrace
 10
1377.3971156685
 20
784.9949556557882
 30
0.0
 11
1378.063782335167
 21
784.9949556557882
 31
0.0
 12
1377.730449001834
 22
786.9949556557883
 32
0.0
 13
1377.730449001834
 23
786.9949556557883
 33
0.0
  0
MTEXT
  5
A1D
330
962
100
AcDbEntity
  8
AM_REFDIM
100
AcDbMText
 10
1376.1971156685
 20
767.7449556557885
 30
0.0
 40
2.0
 41
0.0
 71
     5
 72
     1
  1
\A1;38.5
  7
DAYUS
 11
0.0000000000000001
 21
1.0
 31
0.0
 73
     1
 44
1.0
1001
ACAD
1000
MTEXTBEGIN
1070
    73
1070
     1
1070
    44
1040
1.0
1070
    74
1070
     0
1000
MTEXTEND
  0
POINT
  5
A1E
330
962
100
AcDbEntity
  8
Defpoints
 62
     0
100
AcDbPoint
 10
1360.070401865298
 20
748.4949556557883
 30
0.0
  0
POINT
  5
A1F
330
962
100
AcDbEntity
  8
Defpoints
 62
     0
100
AcDbPoint
 10
1360.070401865298
 20
786.9949556557883
 30
0.0
  0
POINT
  5
A20
330
962
100
AcDbEntity
  8
Defpoints
 62
     0
100
AcDbPoint
 10
1377.730449001834
 20
786.9949556557883
 30
0.0
  0
ENDBLK
  5
96D
330
962
100
AcDbEntity
  8
0
100
AcDbBlockEnd
  0
BLOCK
  5
9ED
330
9EA
100
AcDbEntity
  8
0
100
AcDbBlockBegin
  2
A$C3CA723EF
 70
     0
 10
0.0
 20
0.0
 30
0.0
  3
A$C3CA723EF
  1

  0
LINE
  5
9EE
330
9EA
100
AcDbEntity
  8
SL
100
AcDbLine
 10
0.0
 20
0.6911753860061936
 30
0.0
 11
8.787074561278132
 21
0.6911753860061936
 31
0.0
  0
TRACE
  5
9EF
330
9EA
100
AcDbEntity
  8
SL
370
    35
100
AcDbTrace
 10
8.787074561278132
 20
-0.0000002232437737
 30
0.0
 11
8.787074561278132
 21
1.38235099525616
 31
0.0
 12
14.03707456127813
 22
0.6911753860061936
 32
0.0
 13
14.03707456127813
 23
0.6911753860061936
 33
0.0
  0
MTEXT
  5
9F0
330
9EA
100
AcDbEntity
  8
SL
100
AcDbMText
 10
3.57376164884431
 20
1.266163268973059
 30
0.0
 40
3.674999999999999
 41
0.0
 71
     7
 72
     5
  1
SL
  7
ACISOTS
 73
     1
 44
1.0
1001
ACAD
1000
MTEXTBEGIN
1070
    73
1070
     1
1070
    44
1040
1.0
1070
    74
1070
     0
1000
MTEXTEND
  0
ENDBLK
  5
9F1
330
9EA
100
AcDbEntity
  8
0
100
AcDbBlockEnd
  0
BLOCK
  5
C8D
330
C78
100
AcDbEntity
  8
0
100
AcDbBlockBegin
  2
A$C68053E03
 70
     0
 10
0.0
 20
0.0
 30
0.0
  3
A$C68053E03
  1

  0
LINE
  5
C79
330
C78
100
AcDbEntity
  8
0
 62
     4
100
AcDbLine
 10
12.50659009401329
 20
85.44988894942321
 30
0.0
 11
0.0000000000002274
 21
85.44988894942321
 31
0.0
  0
TEXT
  5
C7A
330
C78
100
AcDbEntity
  8
0
 62
     4
100
AcDbText
 10
14.5151502400538
 20
-0.000000108978611
 30
0.0
 40
3.0
  1
2
 41
0.75
  7
CHINESET
100
AcDbText
  0
LINE
  5
C7B
330
C78
100
AcDbEntity
  8
0
 62
     4
100
AcDbLine
 10
12.50659009401329
 20
74.94988894942321
 30
0.0
 11
0.0000000000002274
 21
74.94988894942321
 31
0.0
  0
LINE
  5
C7C
330
C78
100
AcDbEntity
  8
0
 62
     4
100
AcDbLine
 10
12.50659009401329
 20
64.44988894942321
 30
0.0
 11
0.0000000000002274
 21
64.44988894942321
 31
0.0
  0
LINE
  5
C7D
330
C78
100
AcDbEntity
  8
0
 62
     4
100
AcDbLine
 10
12.50659009401329
 20
53.94988894942321
 30
0.0
 11
0.0000000000002274
 21
53.94988894942321
 31
0.0
  0
LINE
  5
C7E
330
C78
100
AcDbEntity
  8
0
 62
     4
100
AcDbLine
 10
12.50659009401329
 20
43.4498889494232
 30
0.0
 11
0.0000000000002274
 21
43.4498889494232
 31
0.0
  0
LINE
  5
C7F
330
C78
100
AcDbEntity
  8
0
 62
     4
100
AcDbLine
 10
12.50659009401329
 20
32.94988894942321
 30
0.0
 11
0.0000000000002274
 21
32.94988894942321
 31
0.0
  0
LINE
  5
C80
330
C78
100
AcDbEntity
  8
0
 62
     4
100
AcDbLine
 10
12.50659009401329
 20
22.44988894942321
 30
0.0
 11
0.0000000000002274
 21
22.44988894942321
 31
0.0
  0
LINE
  5
C81
330
C78
100
AcDbEntity
  8
0
 62
     4
100
AcDbLine
 10
12.50659009401329
 20
11.94988894942321
 30
0.0
 11
0.0000000000002274
 21
11.94988894942321
 31
0.0
  0
LINE
  5
C82
330
C78
100
AcDbEntity
  8
0
 62
     4
100
AcDbLine
 10
12.50659009401329
 20
1.449888949423211
 30
0.0
 11
0.0000000000002274
 21
1.449888949423211
 31
0.0
  0
TEXT
  5
C83
330
C78
100
AcDbEntity
  8
0
 62
     4
100
AcDbText
 10
14.5151502400538
 20
10.49999989102139
 30
0.0
 40
3.0
  1
3
 41
0.75
  7
CHINESET
100
AcDbText
  0
TEXT
  5
C84
330
C78
100
AcDbEntity
  8
0
 62
     4
100
AcDbText
 10
14.5151502400538
 20
20.99999989102139
 30
0.0
 40
3.0
  1
4
 41
0.75
  7
CHINESET
100
AcDbText
  0
TEXT
  5
C85
330
C78
100
AcDbEntity
  8
0
 62
     4
100
AcDbText
 10
14.5151502400538
 20
31.49999989102139
 30
0.0
 40
3.0
  1
5
 41
0.75
  7
CHINESET
100
AcDbText
  0
TEXT
  5
C86
330
C78
100
AcDbEntity
  8
0
 62
     4
100
AcDbText
 10
14.5151502400538
 20
41.99999989102138
 30
0.0
 40
3.0
  1
6
 41
0.75
  7
CHINESET
100
AcDbText
  0
TEXT
  5
C87
330
C78
100
AcDbEntity
  8
0
 62
     4
100
AcDbText
 10
14.5151502400538
 20
52.49999989102139
 30
0.0
 40
3.0
  1
7
 41
0.75
  7
CHINESET
100
AcDbText
  0
TEXT
  5
C88
330
C78
100
AcDbEntity
  8
0
 62
     4
100
AcDbText
 10
14.5151502400538
 20
62.99999989102139
 30
0.0
 40
3.0
  1
8
 41
0.75
  7
CHINESET
100
AcDbText
  0
TEXT
  5
C89
330
C78
100
AcDbEntity
  8
0
 62
     4
100
AcDbText
 10
14.5151502400538
 20
73.49999989102139
 30
0.0
 40
3.0
  1
9
 41
0.75
  7
CHINESET
100
AcDbText
  0
TEXT
  5
C8A
330
C78
100
AcDbEntity
  8
0
 62
     4
100
AcDbText
 10
14.5151502400538
 20
83.99999989102139
 30
0.0
 40
3.0
  1
10
 41
0.75
  7
CHINESET
100
AcDbText
  0
ENDBLK
  5
C8E
330
C78
100
AcDbEntity
  8
0
100
AcDbBlockEnd
  0
ENDSEC
  0
SECTION
  2
ENTITIES
  0
LINE
  5
43B
330
1F
100
AcDbEntity
  8
AM_7
  6
AM_ISO08W050x2
 48
0.2
100
AcDbLine
 10
1347.493711586814
 20
766.7949556557882
 30
0.0
 11
1351.277050015646
 21
766.7949556557882
 31
0.0
  0
LINE
  5
43D
330
1F
100
AcDbEntity
  8
AM_7
  6
AM_ISO08W050x2
 48
0.2
100
AcDbLine
 10
1349.470401865298
 20
765.1788640682493
 30
0.0
 11
1349.470401865298
 21
768.6013640682493
 31
0.0
  0
CIRCLE
  5
43E
330
1F
100
AcDbEntity
  8
AM_4
  6
HIDDEN2
100
AcDbCircle
 10
1323.670401865298
 20
758.1949556557884
 30
0.0
 40
1.074
  0
CIRCLE
  5
43F
330
1F
100
AcDbEntity
  8
AM_4
  6
HIDDEN2
100
AcDbCircle
 10
1349.470401865298
 20
766.7949556557882
 30
0.0
 40
1.074
  0
CIRCLE
  5
44C
330
1F
100
AcDbEntity
  8
AM_4
  6
HIDDEN2
100
AcDbCircle
 10
1323.670401865298
 20
768.6949556557883
 30
0.0
 40
1.074
  0
DIMENSION
  5
44E
330
1F
100
AcDbEntity
  8
AM_REFDIM
100
AcDbDimension
  2
*D28
 10
1349.470401865298
 20
736.0133258960761
 30
0.0
 11
1336.570401865298
 21
737.5466592294094
 31
0.0
 70
    32
 71
     5
 42
25.79999999999996
  3
AM_ANSI$0
100
AcDbAlignedDimension
 13
1323.670401865298
 23
756.5788640682495
 33
0.0
 14
1349.470401865298
 24
765.1788640682493
 34
0.0
100
AcDbRotatedDimension
1001
ACAD
1000
DSTYLE
1002
{
1070
    74
1070
     1
1070
   271
1070
     1
1070
   288
1070
     1
1002
}
  0
DIMENSION
  5
450
102
{ACAD_REACTORS
330
CA5
102
}
330
1F
100
AcDbEntity
  8
AM_REFDIM
100
AcDbDimension
  2
*D30
 10
1332.168469715896
 20
721.4561553252217
 30
0.0
 11
1329.902700248305
 21
722.5127009795735
 31
0.0
 70
   160
  1
2×N-%%c<>×14L
 71
     5
 42
5.0
  3
AM_ANSI$0
100
AcDbAlignedDimension
 13
1323.88155579723
 23
715.5158189927359
 33
0.0
 14
1329.398445392042
 24
715.5158189927359
 34
0.0
 50
335.0000000000006
100
AcDbRotatedDimension
  0
LINE
  5
451
330
1F
100
AcDbEntity
  8
AM_7
100
AcDbLine
 10
1336.515401865298
 20
762.4949556557883
 30
0.0
 11
1336.625401865298
 21
762.4949556557883
 31
0.0
  0
LINE
  5
452
330
1F
100
AcDbEntity
  8
AM_7
100
AcDbLine
 10
1336.570401865298
 20
762.4399556557882
 30
0.0
 11
1336.570401865298
 21
762.5499556557883
 31
0.0
  0
LINE
  5
453
330
1F
100
AcDbEntity
  8
AM_7
100
AcDbLine
 10
1331.276401865298
 20
762.4949556557883
 30
0.0
 11
1336.359401865298
 21
762.4949556557883
 31
0.0
  0
LINE
  5
454
330
1F
100
AcDbEntity
  8
AM_7
100
AcDbLine
 10
1336.781401865298
 20
762.4949556557883
 30
0.0
 11
1341.864401865298
 21
762.4949556557883
 31
0.0
  0
LINE
  5
455
330
1F
100
AcDbEntity
  8
AM_7
100
AcDbLine
 10
1336.570401865298
 20
757.2009556557883
 30
0.0
 11
1336.570401865298
 21
762.2839556557883
 31
0.0
  0
LINE
  5
456
330
1F
100
AcDbEntity
  8
AM_7
100
AcDbLine
 10
1336.570401865298
 20
762.7059556557883
 30
0.0
 11
1336.570401865298
 21
767.7889556557882
 31
0.0
  0
LINE
  5
457
330
1F
100
AcDbEntity
  8
AM_7
100
AcDbLine
 10
1336.515401865298
 20
772.9949556557883
 30
0.0
 11
1336.625401865298
 21
772.9949556557883
 31
0.0
  0
LINE
  5
458
330
1F
100
AcDbEntity
  8
AM_7
100
AcDbLine
 10
1336.570401865298
 20
772.9399556557882
 30
0.0
 11
1336.570401865298
 21
773.0499556557884
 31
0.0
  0
LINE
  5
459
330
1F
100
AcDbEntity
  8
AM_7
100
AcDbLine
 10
1331.276401865298
 20
772.9949556557883
 30
0.0
 11
1336.359401865298
 21
772.9949556557883
 31
0.0
  0
LINE
  5
45A
330
1F
100
AcDbEntity
  8
AM_7
100
AcDbLine
 10
1336.781401865298
 20
772.9949556557883
 30
0.0
 11
1341.864401865298
 21
772.9949556557883
 31
0.0
  0
LINE
  5
45B
330
1F
100
AcDbEntity
  8
AM_7
100
AcDbLine
 10
1336.570401865298
 20
767.7009556557883
 30
0.0
 11
1336.570401865298
 21
772.7839556557882
 31
0.0
  0
LINE
  5
45C
330
1F
100
AcDbEntity
  8
AM_7
100
AcDbLine
 10
1336.570401865298
 20
773.2059556557883
 30
0.0
 11
1336.570401865298
 21
778.2889556557883
 31
0.0
  0
LINE
  5
45F
330
1F
100
AcDbEntity
  8
AM_7
100
AcDbLine
 10
1323.415858012709
 20
762.4949556557883
 30
0.0
 11
1329.725950315066
 21
762.4949556557883
 31
0.0
  0
LINE
  5
460
330
1F
100
AcDbEntity
  8
AM_7
100
AcDbLine
 10
1343.355901235478
 20
762.4949556557883
 30
0.0
 11
1349.644672032763
 21
762.4949556557883
 31
0.0
  0
LINE
  5
461
330
1F
100
AcDbEntity
  8
AM_7
100
AcDbLine
 10
1326.640000594636
 20
759.9993401329588
 30
0.0
 11
1326.640000594636
 21
764.9229825461717
 31
0.0
  0
LINE
  5
462
330
1F
100
AcDbEntity
  8
AM_7
100
AcDbLine
 10
1346.500803135961
 20
760.1498048285273
 30
0.0
 11
1346.500803135961
 21
765.106572400407
 31
0.0
  0
LINE
  5
463
330
1F
100
AcDbEntity
  8
AM_7
100
AcDbLine
 10
1323.415858012709
 20
772.9949556557883
 30
0.0
 11
1329.725950315066
 21
772.9949556557883
 31
0.0
  0
LINE
  5
464
330
1F
100
AcDbEntity
  8
AM_7
100
AcDbLine
 10
1343.355901235478
 20
772.9949556557883
 30
0.0
 11
1349.644672032763
 21
772.9949556557883
 31
0.0
  0
LINE
  5
465
330
1F
100
AcDbEntity
  8
AM_7
100
AcDbLine
 10
1326.640000594636
 20
770.4993401329589
 30
0.0
 11
1326.640000594636
 21
775.4229825461717
 31
0.0
  0
LINE
  5
466
330
1F
100
AcDbEntity
  8
AM_7
100
AcDbLine
 10
1346.500803135961
 20
770.6498048285274
 30
0.0
 11
1346.500803135961
 21
775.6065724004071
 31
0.0
  0
CIRCLE
  5
46D
330
1F
100
AcDbEntity
  8
AM_4
  6
HIDDEN2
100
AcDbCircle
 10
1320.070401865298
 20
704.0158189927359
 30
0.0
 40
4.849999999999999
  0
CIRCLE
  5
46E
330
1F
100
AcDbEntity
  8
AM_4
  6
HIDDEN2
100
AcDbCircle
 10
1353.070401865298
 20
704.0158189927359
 30
0.0
 40
4.849999999999999
  0
LINE
  5
46F
330
1F
100
AcDbEntity
  8
AM_7
100
AcDbLine
 10
1336.570401865298
 20
716.7158189927358
 30
0.0
 11
1336.570401865298
 21
708.9714343545903
 31
0.0
  0
LINE
  5
470
330
1F
100
AcDbEntity
  8
AM_7
100
AcDbLine
 10
1323.670401865298
 20
716.7158189927358
 30
0.0
 11
1323.670401865298
 21
706.2173965030623
 31
0.0
  0
LINE
  5
471
330
1F
100
AcDbEntity
  8
AM_7
100
AcDbLine
 10
1349.470401865298
 20
716.7158189927358
 30
0.0
 11
1349.470401865298
 21
706.2173965030623
 31
0.0
  0
LINE
  5
472
330
1F
100
AcDbEntity
  8
AM_7
100
AcDbLine
 10
1320.015401865298
 20
704.0158189927359
 30
0.0
 11
1320.125401865298
 21
704.0158189927359
 31
0.0
  0
LINE
  5
473
330
1F
100
AcDbEntity
  8
AM_7
100
AcDbLine
 10
1320.070401865298
 20
703.960818992736
 30
0.0
 11
1320.070401865298
 21
704.0708189927358
 31
0.0
  0
LINE
  5
474
330
1F
100
AcDbEntity
  8
AM_7
100
AcDbLine
 10
1313.126401865298
 20
704.0158189927359
 30
0.0
 11
1319.859401865298
 21
704.0158189927359
 31
0.0
  0
LINE
  5
475
330
1F
100
AcDbEntity
  8
AM_7
100
AcDbLine
 10
1320.281401865298
 20
704.0158189927359
 30
0.0
 11
1327.014401865298
 21
704.0158189927359
 31
0.0
  0
LINE
  5
476
330
1F
100
AcDbEntity
  8
AM_7
100
AcDbLine
 10
1320.070401865298
 20
697.0718189927359
 30
0.0
 11
1320.070401865298
 21
703.8048189927359
 31
0.0
  0
LINE
  5
477
330
1F
100
AcDbEntity
  8
AM_7
100
AcDbLine
 10
1320.070401865298
 20
704.226818992736
 30
0.0
 11
1320.070401865298
 21
710.9598189927359
 31
0.0
  0
LINE
  5
478
330
1F
100
AcDbEntity
  8
AM_7
100
AcDbLine
 10
1353.015401865298
 20
704.0158189927359
 30
0.0
 11
1353.125401865298
 21
704.0158189927359
 31
0.0
  0
LINE
  5
479
330
1F
100
AcDbEntity
  8
AM_7
100
AcDbLine
 10
1353.070401865298
 20
703.960818992736
 30
0.0
 11
1353.070401865298
 21
704.0708189927358
 31
0.0
  0
LINE
  5
47A
330
1F
100
AcDbEntity
  8
AM_7
100
AcDbLine
 10
1346.126401865298
 20
704.0158189927359
 30
0.0
 11
1352.859401865298
 21
704.0158189927359
 31
0.0
  0
LINE
  5
47B
330
1F
100
AcDbEntity
  8
AM_7
100
AcDbLine
 10
1353.281401865298
 20
704.0158189927359
 30
0.0
 11
1360.014401865298
 21
704.0158189927359
 31
0.0
  0
LINE
  5
47C
330
1F
100
AcDbEntity
  8
AM_7
100
AcDbLine
 10
1353.070401865298
 20
697.0718189927359
 30
0.0
 11
1353.070401865298
 21
703.8048189927359
 31
0.0
  0
LINE
  5
47D
330
1F
100
AcDbEntity
  8
AM_7
100
AcDbLine
 10
1353.070401865298
 20
704.226818992736
 30
0.0
 11
1353.070401865298
 21
710.9598189927359
 31
0.0
  0
DIMENSION
  5
47E
330
1F
100
AcDbEntity
  8
AM_REFDIM
100
AcDbDimension
  2
*D31
 10
1360.070401865298
 20
683.2379029236339
 30
0.0
 11
1336.246896119609
 21
683.2379029236339
 31
0.0
 70
   160
  1
<>
 71
     5
 42
47.0
  3
AM_ANSI$0
100
AcDbAlignedDimension
 13
1313.070401865298
 23
695.515818992736
 33
0.0
 14
1360.070401865298
 24
695.515818992736
 34
0.0
100
AcDbRotatedDimension
1001
ACAD
1000
DSTYLE
1002
{
1070
   272
1070
     8
1002
}
  0
DIMENSION
  5
47F
330
1F
100
AcDbEntity
  8
AM_REFDIM
100
AcDbDimension
  2
*D32
 10
1307.666168109109
 20
695.515818992736
 30
0.0
 11
1306.132834775776
 21
699.7658189927362
 31
0.0
 70
    32
  1
<>
 71
     5
 42
8.5
  3
AM_ANSI$0
100
AcDbAlignedDimension
 13
1313.126401865298
 23
704.0158189927359
 33
0.0
 14
1313.070401865298
 24
695.515818992736
 34
0.0
 50
90.0
100
AcDbRotatedDimension
1001
ACAD
1000
DSTYLE
1002
{
1070
   272
1070
     8
1002
}
  0
LINE
  5
480
330
1F
100
AcDbEntity
  8
AM_7
100
AcDbLine
 10
1336.515401865298
 20
708.5158189927359
 30
0.0
 11
1336.625401865298
 21
708.5158189927359
 31
0.0
  0
LINE
  5
481
330
1F
100
AcDbEntity
  8
AM_7
100
AcDbLine
 10
1336.570401865298
 20
708.460818992736
 30
0.0
 11
1336.570401865298
 21
708.5708189927359
 31
0.0
  0
LINE
  5
482
330
1F
100
AcDbEntity
  8
AM_7
100
AcDbLine
 10
1329.626401865298
 20
708.5158189927359
 30
0.0
 11
1336.359401865298
 21
708.5158189927359
 31
0.0
  0
LINE
  5
483
330
1F
100
AcDbEntity
  8
AM_7
100
AcDbLine
 10
1336.781401865298
 20
708.5158189927359
 30
0.0
 11
1343.514401865298
 21
708.5158189927359
 31
0.0
  0
LINE
  5
484
330
1F
100
AcDbEntity
  8
AM_7
100
AcDbLine
 10
1336.570401865298
 20
701.5718189927359
 30
0.0
 11
1336.570401865298
 21
708.3048189927359
 31
0.0
  0
LINE
  5
485
330
1F
100
AcDbEntity
  8
AM_7
100
AcDbLine
 10
1336.570401865298
 20
708.7268189927359
 30
0.0
 11
1336.570401865298
 21
715.4598189927359
 31
0.0
  0
CIRCLE
  5
486
330
1F
100
AcDbEntity
  8
AM_4
  6
HIDDEN2
100
AcDbCircle
 10
1336.570401865298
 20
708.5158189927359
 30
0.0
 40
4.849999999999999
  0
DIMENSION
  5
487
330
1F
100
AcDbEntity
  8
AM_REFDIM
100
AcDbDimension
  2
*D33
 10
1302.366168109109
 20
708.5158189927359
 30
0.0
 11
1300.832834775776
 21
702.0158189927362
 31
0.0
 70
    32
 71
     5
 42
13.0
  3
AM_ANSI$0
100
AcDbAlignedDimension
 13
1313.070401865298
 23
695.515818992736
 33
0.0
 14
1329.626401865298
 24
708.5158189927359
 34
0.0
 50
90.0
100
AcDbRotatedDimension
1001
ACAD
1000
DSTYLE
1002
{
1070
    74
1070
     1
1070
   271
1070
     1
1070
   288
1070
     1
1002
}
  0
LINE
  5
488
330
1F
100
AcDbEntity
  8
AM_7
100
AcDbLine
 10
1328.265401865298
 20
752.4949556557883
 30
0.0
 11
1328.375401865298
 21
752.4949556557883
 31
0.0
  0
LINE
  5
489
330
1F
100
AcDbEntity
  8
AM_7
100
AcDbLine
 10
1328.320401865298
 20
752.4399556557882
 30
0.0
 11
1328.320401865298
 21
752.5499556557884
 31
0.0
  0
LINE
  5
48A
330
1F
100
AcDbEntity
  8
AM_7
100
AcDbLine
 10
1323.276401865298
 20
752.4949556557883
 30
0.0
 11
1328.109401865298
 21
752.4949556557883
 31
0.0
  0
LINE
  5
48B
330
1F
100
AcDbEntity
  8
AM_7
100
AcDbLine
 10
1328.531401865298
 20
752.4949556557883
 30
0.0
 11
1333.364401865298
 21
752.4949556557883
 31
0.0
  0
LINE
  5
48C
330
1F
100
AcDbEntity
  8
AM_7
100
AcDbLine
 10
1328.320401865298
 20
747.4509556557883
 30
0.0
 11
1328.320401865298
 21
752.2839556557883
 31
0.0
  0
LINE
  5
48D
330
1F
100
AcDbEntity
  8
AM_7
100
AcDbLine
 10
1328.320401865298
 20
752.7059556557883
 30
0.0
 11
1328.320401865298
 21
757.5389556557882
 31
0.0
  0
LINE
  5
48E
330
1F
100
AcDbEntity
  8
AM_7
100
AcDbLine
 10
1344.765401865298
 20
752.4949556557883
 30
0.0
 11
1344.875401865298
 21
752.4949556557883
 31
0.0
  0
LINE
  5
48F
330
1F
100
AcDbEntity
  8
AM_7
100
AcDbLine
 10
1344.820401865298
 20
752.4399556557882
 30
0.0
 11
1344.820401865298
 21
752.5499556557884
 31
0.0
  0
LINE
  5
490
330
1F
100
AcDbEntity
  8
AM_7
100
AcDbLine
 10
1339.776401865298
 20
752.4949556557883
 30
0.0
 11
1344.609401865298
 21
752.4949556557883
 31
0.0
  0
LINE
  5
491
330
1F
100
AcDbEntity
  8
AM_7
100
AcDbLine
 10
1345.031401865298
 20
752.4949556557883
 30
0.0
 11
1349.864401865298
 21
752.4949556557883
 31
0.0
  0
LINE
  5
492
330
1F
100
AcDbEntity
  8
AM_7
100
AcDbLine
 10
1344.820401865298
 20
747.4509556557883
 30
0.0
 11
1344.820401865298
 21
752.2839556557883
 31
0.0
  0
LINE
  5
493
330
1F
100
AcDbEntity
  8
AM_7
100
AcDbLine
 10
1344.820401865298
 20
752.7059556557883
 30
0.0
 11
1344.820401865298
 21
757.5389556557882
 31
0.0
  0
LINE
  5
494
330
1F
100
AcDbEntity
  8
AM_7
100
AcDbLine
 10
1328.265401865298
 20
782.9949556557883
 30
0.0
 11
1328.375401865298
 21
782.9949556557883
 31
0.0
  0
LINE
  5
495
330
1F
100
AcDbEntity
  8
AM_7
100
AcDbLine
 10
1328.320401865298
 20
782.9399556557882
 30
0.0
 11
1328.320401865298
 21
783.0499556557883
 31
0.0
  0
LINE
  5
496
330
1F
100
AcDbEntity
  8
AM_7
100
AcDbLine
 10
1323.276401865298
 20
782.9949556557883
 30
0.0
 11
1328.109401865298
 21
782.9949556557883
 31
0.0
  0
LINE
  5
497
330
1F
100
AcDbEntity
  8
AM_7
100
AcDbLine
 10
1328.531401865298
 20
782.9949556557883
 30
0.0
 11
1333.364401865298
 21
782.9949556557883
 31
0.0
  0
LINE
  5
498
330
1F
100
AcDbEntity
  8
AM_7
100
AcDbLine
 10
1328.320401865298
 20
777.9509556557883
 30
0.0
 11
1328.320401865298
 21
782.7839556557883
 31
0.0
  0
LINE
  5
499
330
1F
100
AcDbEntity
  8
AM_7
100
AcDbLine
 10
1328.320401865298
 20
783.2059556557883
 30
0.0
 11
1328.320401865298
 21
788.0389556557883
 31
0.0
  0
LINE
  5
49A
330
1F
100
AcDbEntity
  8
AM_7
100
AcDbLine
 10
1344.765401865298
 20
782.9949556557883
 30
0.0
 11
1344.875401865298
 21
782.9949556557883
 31
0.0
  0
LINE
  5
49B
330
1F
100
AcDbEntity
  8
AM_7
100
AcDbLine
 10
1344.820401865298
 20
782.9399556557882
 30
0.0
 11
1344.820401865298
 21
783.0499556557883
 31
0.0
  0
LINE
  5
49C
330
1F
100
AcDbEntity
  8
AM_7
100
AcDbLine
 10
1339.776401865298
 20
782.9949556557883
 30
0.0
 11
1344.609401865298
 21
782.9949556557883
 31
0.0
  0
LINE
  5
49D
330
1F
100
AcDbEntity
  8
AM_7
100
AcDbLine
 10
1345.031401865298
 20
782.9949556557883
 30
0.0
 11
1349.864401865298
 21
782.9949556557883
 31
0.0
  0
LINE
  5
49E
330
1F
100
AcDbEntity
  8
AM_7
100
AcDbLine
 10
1344.820401865298
 20
777.9509556557883
 30
0.0
 11
1344.820401865298
 21
782.7839556557883
 31
0.0
  0
LINE
  5
49F
330
1F
100
AcDbEntity
  8
AM_7
100
AcDbLine
 10
1344.820401865298
 20
783.2059556557883
 30
0.0
 11
1344.820401865298
 21
788.0389556557883
 31
0.0
  0
LINE
  5
4A0
330
1F
100
AcDbEntity
  8
AM_7
100
AcDbLine
 10
1328.320401865298
 20
716.7158189927358
 30
0.0
 11
1328.320401865298
 21
695.2218189927359
 31
0.0
  0
LINE
  5
4A1
330
1F
100
AcDbEntity
  8
AM_7
100
AcDbLine
 10
1344.820401865298
 20
716.7158189927358
 30
0.0
 11
1344.820401865298
 21
695.2218189927359
 31
0.0
  0
DIMENSION
  5
4A2
330
1F
100
AcDbEntity
  8
AM_REFDIM
100
AcDbDimension
  2
*D34
 10
1320.070401865298
 20
688.5379029236339
 30
0.0
 11
1328.320401865298
 21
690.0712362569672
 31
0.0
 70
    32
 71
     5
 42
16.5
  3
AM_ANSI$0
100
AcDbAlignedDimension
 13
1336.570401865298
 23
701.5718189927359
 33
0.0
 14
1320.070401865298
 24
697.0718189927359
 34
0.0
100
AcDbRotatedDimension
  0
DIMENSION
  5
4A3
330
1F
100
AcDbEntity
  8
AM_REFDIM
100
AcDbDimension
  2
*D35
 10
1353.070401865298
 20
688.5379029236339
 30
0.0
 11
1344.820401865298
 21
690.0712362569672
 31
0.0
 70
    32
 71
     5
 42
16.5
  3
AM_ANSI$0
100
AcDbAlignedDimension
 13
1336.570401865298
 23
701.5718189927359
 33
0.0
 14
1353.070401865298
 24
697.0718189927359
 34
0.0
100
AcDbRotatedDimension
  0
DIMENSION
  5
4A6
330
1F
100
AcDbEntity
  8
AM_REFDIM
100
AcDbDimension
  2
*D36
 10
1334.994570934902
 20
764.435769113802
 30
0.0
 11
1362.549233758861
 21
739.7515859402599
 31
0.0
 70
   163
  1
N-<>×4L
 71
     5
 42
5.000000000000113
  3
AM_ANSI$3
100
AcDbDiametricDimension
 15
1338.146232795695
 25
760.554142197775
 35
0.0
 40
0.0
1001
ACAD
1000
DSTYLE
1002
{
1070
    74
1070
     1
1070
   271
1070
     1
1070
   289
1070
     3
1002
}
  0
DIMENSION
  5
4A7
330
1F
100
AcDbEntity
  8
AM_REFDIM
100
AcDbDimension
  2
*D37
 10
1302.366168109109
 20
762.4949556557883
 30
0.0
 11
1300.832834775776
 21
755.4949556557885
 31
0.0
 70
    32
 71
     5
 42
14.0
  3
AM_ANSI$0
100
AcDbAlignedDimension
 13
1313.070401865298
 23
748.4949556557883
 33
0.0
 14
1323.415858012709
 24
762.4949556557883
 34
0.0
 50
90.0
100
AcDbRotatedDimension
1001
ACAD
1000
DSTYLE
1002
{
1070
    71
1070
     1
1002
}
  0
DIMENSION
  5
4A8
330
1F
100
AcDbEntity
  8
AM_REFDIM
100
AcDbDimension
  2
*D38
 10
1307.666168109109
 20
766.7949556557882
 30
0.0
 11
1306.132834775776
 21
762.4949556557885
 31
0.0
 70
    32
 71
     5
 42
8.599999999999909
  3
AM_ANSI$0
100
AcDbAlignedDimension
 13
1321.693711586814
 23
758.1949556557884
 33
0.0
 14
1347.493711586814
 24
766.7949556557882
 34
0.0
 50
90.0
100
AcDbRotatedDimension
  0
DIMENSION
  5
4A9
330
1F
100
AcDbEntity
  8
AM_REFDIM
100
AcDbDimension
  2
*D39
 10
1302.366168109109
 20
772.9949556557883
 30
0.0
 11
1300.832834775776
 21
780.6235270843599
 31
0.0
 70
    32
  1
P=<>
 71
     5
 42
10.5
  3
AM_ANSI$0
100
AcDbAlignedDimension
 13
1323.415858012709
 23
762.4949556557883
 33
0.0
 14
1323.415858012709
 24
772.9949556557883
 34
0.0
 50
90.0
100
AcDbRotatedDimension
  0
LINE
  5
4BB
330
1F
100
AcDbEntity
  8
AM_7
100
AcDbLine
 10
1336.570401865298
 20
773.2059556557883
 30
0.0
 11
1336.570401865298
 21
778.2889556557883
 31
0.0
  0
CIRCLE
  5
4BD
330
1F
100
AcDbEntity
  8
AM_4
  6
HIDDEN2
100
AcDbCircle
 10
1349.470401865298
 20
777.2949556557882
 30
0.0
 40
1.074
  0
LINE
  5
4BE
330
1F
100
AcDbEntity
  8
AM_7
100
AcDbLine
 10
1321.754901777531
 20
705.0396907720822
 30
0.0
 11
1327.037334187265
 21
716.3679036318797
 31
0.0
  0
LINE
  5
4BF
330
1F
100
AcDbEntity
  8
AM_7
100
AcDbLine
 10
1350.980784553762
 20
705.9084678385061
 30
0.0
 11
1345.930655671911
 21
716.7385041751024
 31
0.0
  0
DIMENSION
  5
4C0
330
1F
100
AcDbEntity
  8
AM_REFDIM
100
AcDbDimension
  2
*D40
 10
1350.656673588532
 20
699.8091081866618
 30
0.0
 11
1369.727125583052
 21
716.6329484898784
 31
0.0
 70
   163
  1
2×N-PT1/8
 71
     5
 42
9.700000000000272
  3
AM_ANSI$3
100
AcDbDiametricDimension
 15
1355.484130142064
 25
708.22252979881
 35
0.0
 40
0.0
1001
ACAD
1000
DSTYLE
1002
{
1070
    74
1070
     1
1070
   271
1070
     1
1070
   289
1070
     3
1002
}
  0
DIMENSION
  5
4C1
330
1F
100
AcDbEntity
  8
AM_REFDIM
100
AcDbDimension
  2
*D41
 10
1346.500803135961
 20
741.3133258960761
 30
0.0
 11
1336.570401865298
 21
742.8466592294094
 31
0.0
 70
    32
  1
<>
 71
     5
 42
19.8608025413248
  3
AM_ANSI$0
100
AcDbAlignedDimension
 13
1326.640000594636
 23
759.9949556557882
 33
0.0
 14
1346.500803135961
 24
759.9949556557882
 34
0.0
100
AcDbRotatedDimension
1001
GENIUS_GENDTOL_13
1000
TolAcTol
1000

1000

1040
19.9
1001
ACAD
1000
DSTYLE
1002
{
1070
    74
1070
     1
1070
   271
1070
     1
1070
   288
1070
     1
1002
}
  0
LINE
  5
4C2
330
1F
100
AcDbEntity
  8
AM_7
100
AcDbLine
 10
1336.570401865298
 20
746.7427515317602
 30
0.0
 11
1336.570401865298
 21
788.6666782510619
 31
0.0
  0
DIMENSION
  5
4C3
102
{ACAD_XDICTIONARY
360
CA4
102
}
102
{ACAD_REACTORS
330
CA5
102
}
330
1F
100
AcDbEntity
  8
AM_REFDIM
100
AcDbDimension
  2
*D42
 10
1353.570401865298
 20
715.5158189927359
 30
0.0
 11
1340.891462320591
 21
724.5950014313778
 31
0.0
 70
    34
 71
     5
 42
1.134464013796301
  3
AM_ANSI$2
100
AcDb2LineAngularDimension
 13
1327.037334187265
 23
716.3679036318797
 33
0.0
 14
1321.754901777531
 24
705.0396907720822
 34
0.0
 15
1319.570401865298
 25
715.5158189927359
 35
0.0
 16
1340.918931583916
 26
721.1884753036049
 36
0.0
1001
ACAD
1000
DSTYLE
1002
{
1070
   271
1070
     1
1002
}
  0
DIMENSION
  5
4C4
330
1F
100
AcDbEntity
  8
AM_REFDIM
100
AcDbDimension
  2
*D43
 10
1372.964992143904
 20
748.4949556557883
 30
0.0
 11
1371.431658810571
 21
750.4949556557885
 31
0.0
 70
    32
 71
     5
 42
4.0
  3
AM_ANSI$0
100
AcDbAlignedDimension
 13
1349.864401865298
 23
752.4949556557883
 33
0.0
 14
1360.011718800464
 24
748.4949556557883
 34
0.0
 50
90.0
100
AcDbRotatedDimension
  0
DIMENSION
  5
4C5
330
1F
100
AcDbEntity
  8
AM_REFDIM
100
AcDbDimension
  2
*D44
 10
1372.964992143904
 20
782.9949556557883
 30
0.0
 11
1372.964992143904
 21
767.7449556557885
 31
0.0
 70
   160
  1
<>
 71
     5
 42
30.5
  3
AM_ANSI$0
100
AcDbAlignedDimension
 13
1349.864401865298
 23
752.4949556557883
 33
0.0
 14
1349.864401865298
 24
782.9949556557883
 34
0.0
 50
90.0
100
AcDbRotatedDimension
1001
ACAD
1000
DSTYLE
1002
{
1070
    74
1070
     1
1070
   271
1070
     1
1070
   288
1070
     1
1002
}
  0
DIMENSION
  5
4C9
330
1F
100
AcDbEntity
  8
AM_REFDIM
100
AcDbDimension
  2
*D45
 10
1324.067329037855
 20
759.1929159855039
 30
0.0
 11
1301.433480654166
 21
740.3454829502083
 31
0.0
 70
   163
  1
2×N-M2×0.4×4.5L
 71
     5
 42
2.14799999999991
  3
AM_ANSI$3
100
AcDbDiametricDimension
 15
1323.273474692742
 25
757.1969953260726
 35
0.0
 40
0.0
1001
ACAD
1000
DSTYLE
1002
{
1070
    74
1070
     1
1070
   271
1070
     1
1070
   289
1070
     3
1002
}
  0
DIMENSION
  5
4CA
330
1F
100
AcDbEntity
  8
AM_REFDIM
100
AcDbDimension
  2
*D46
 10
1343.294288556393
 20
781.3416322850041
 30
0.0
 11
1365.099909277435
 21
793.6567044616712
 31
0.0
 70
   163
  1
2*2-<>thru
 71
     5
 42
4.5
  3
AM_ANSI$3
100
AcDbDiametricDimension
 15
1346.346515174204
 25
784.6482790265727
 35
0.0
 40
0.0
1001
ACAD
1000
DSTYLE
1002
{
1070
    74
1070
     1
1070
   271
1070
     1
1070
   289
1070
     3
1002
}
  0
DIMENSION
  5
4CB
330
1F
100
AcDbEntity
  8
AM_REFDIM
100
AcDbDimension
  2
*D47
 10
1344.820401865298
 20
794.1824086498891
 30
0.0
 11
1336.570401865298
 21
795.7157419832224
 31
0.0
 70
    32
 71
     5
 42
16.5
  3
AM_ANSI$0
100
AcDbAlignedDimension
 13
1328.320401865298
 23
788.0389556557883
 33
0.0
 14
1344.820401865298
 24
788.0389556557883
 34
0.0
100
AcDbRotatedDimension
1001
ACAD
1000
DSTYLE
1002
{
1070
    74
1070
     1
1070
   271
1070
     1
1070
   288
1070
     1
1002
}
  0
DIMENSION
  5
4CD
330
1F
100
AcDbEntity
  8
AM_REFDIM
100
AcDbDimension
  2
*D48
 10
1297.066168109109
 20
715.5158189927359
 30
0.0
 11
1295.532834775776
 21
705.5158189927361
 31
0.0
 70
    32
 71
     5
 42
20.0
  3
AM_ANSI$0
100
AcDbAlignedDimension
 13
1313.370401865298
 23
695.515818992736
 33
0.0
 14
1319.570401865298
 24
715.5158189927359
 34
0.0
 50
90.0
100
AcDbRotatedDimension
1001
ACAD
1000
DSTYLE
1002
{
1070
    74
1070
     1
1070
   271
1070
     1
1070
   288
1070
     1
1002
}
  0
ARC
  5
4D0
330
1F
100
AcDbEntity
  8
AM_VIS
100
AcDbCircle
 10
1313.213699186391
 20
762.4949556557883
 30
0.0
 40
10.94784097943017
100
AcDbArc
 50
354.723292333948
 51
5.276707666052026
  0
LINE
  5
4D1
330
1F
100
AcDbEntity
  8
AM_VIS
100
AcDbLine
 10
1348.974251691944
 20
762.4947402473642
 30
0.0
 11
1349.017530490609
 21
761.4877794652458
 31
0.0
  0
LINE
  5
4D2
330
1F
100
AcDbEntity
  8
AM_VIS
100
AcDbLine
 10
1348.974251691944
 20
762.4951710642124
 30
0.0
 11
1349.017530490609
 21
763.5021318463308
 31
0.0
  0
LINE
  5
4D3
330
1F
100
AcDbEntity
  8
AM_VIS
100
AcDbLine
 10
1348.974251691944
 20
772.9947402473642
 30
0.0
 11
1349.017530490609
 21
771.9877794652457
 31
0.0
  0
LINE
  5
4D4
330
1F
100
AcDbEntity
  8
AM_VIS
100
AcDbLine
 10
1348.974251691944
 20
772.9951710642124
 30
0.0
 11
1349.017530490609
 21
774.0021318463308
 31
0.0
  0
ARC
  5
4D5
330
1F
100
AcDbEntity
  8
AM_VIS
100
AcDbCircle
 10
1313.213699186392
 20
772.9949556557883
 30
0.0
 40
10.94784097943001
100
AcDbArc
 50
354.723292333948
 51
5.276707666052026
  0
ELLIPSE
  5
4D9
330
1F
100
AcDbEntity
  8
AM_VIS
100
AcDbEllipse
 10
1346.500803135961
 20
762.4949556557883
 30
0.0
 11
2.758444797406228
 21
0.0000000000000003
 31
0.0
210
0.0
220
0.0
230
1.0
 40
0.9063077870366502
 41
3.141592653589793
 42
9.424777960769379
  0
LINE
  5
4DA
330
1F
100
AcDbEntity
  8
AM_VIS
100
AcDbLine
 10
1353.570401865298
 20
748.4949556557883
 30
0.0
 11
1353.570401865298
 21
786.9949556557883
 31
0.0
  0
ELLIPSE
  5
4DB
330
1F
100
AcDbEntity
  8
AM_VIS
100
AcDbEllipse
 10
1326.640000594636
 20
762.4949556557883
 30
0.0
 11
-2.758444797406228
 21
0.0
 31
0.0
210
0.0
220
0.0
230
1.0
 40
0.9063077870366502
 41
3.141592653589793
 42
9.424777960769379
  0
ELLIPSE
  5
4DC
330
1F
100
AcDbEntity
  8
AM_VIS
100
AcDbEllipse
 10
1346.500803135961
 20
772.9949556557883
 30
0.0
 11
2.758444797406228
 21
0.0000000000000003
 31
0.0
210
0.0
220
0.0
230
1.0
 40
0.9063077870366502
 41
3.141592653589793
 42
9.424777960769379
  0
ELLIPSE
  5
4DD
330
1F
100
AcDbEntity
  8
AM_VIS
100
AcDbEllipse
 10
1326.640000594636
 20
772.9949556557883
 30
0.0
 11
-2.758444797406228
 21
0.0
 31
0.0
210
0.0
220
0.0
230
1.0
 40
0.9063077870366502
 41
3.141592653589793
 42
9.424777960769379
  0
LINE
  5
4E0
330
1F
100
AcDbEntity
  8
AM_VIS
100
AcDbLine
 10
1353.570401865298
 20
786.9949556557883
 30
0.0
 11
1319.570401865298
 21
786.9949556557883
 31
0.0
  0
LINE
  5
4E1
102
{ACAD_REACTORS
330
96F
102
}
330
1F
100
AcDbEntity
  8
AM_VIS
100
AcDbLine
 10
1360.070401865298
 20
748.4949556557883
 30
0.0
 11
1360.070401865298
 21
786.9949556557883
 31
0.0
  0
LINE
  5
4E2
330
1F
100
AcDbEntity
  8
AM_VIS
100
AcDbLine
 10
1353.782176110647
 20
786.9949556557883
 30
0.0
 11
1359.85862761995
 21
786.9949556557883
 31
0.0
  0
LINE
  5
4E3
330
1F
100
AcDbEntity
  8
AM_VIS
100
AcDbLine
 10
1319.570401865298
 20
786.9949556557883
 30
0.0
 11
1319.570401865298
 21
748.4949556557883
 31
0.0
  0
LINE
  5
4E4
330
1F
100
AcDbEntity
  8
AM_VIS
100
AcDbLine
 10
1353.570401865298
 20
748.4949556557883
 30
0.0
 11
1319.570401865298
 21
748.4949556557883
 31
0.0
  0
LINE
  5
4E5
330
1F
100
AcDbEntity
  8
AM_VIS
100
AcDbLine
 10
1359.85862761995
 20
748.4949556557883
 30
0.0
 11
1353.782176110647
 21
748.4949556557883
 31
0.0
  0
LINE
  5
4E6
330
1F
100
AcDbEntity
  8
AM_VIS
100
AcDbLine
 10
1313.282176110647
 20
786.9949556557883
 30
0.0
 11
1319.35862761995
 21
786.9949556557883
 31
0.0
  0
LINE
  5
4E7
330
1F
100
AcDbEntity
  8
AM_VIS
100
AcDbLine
 10
1319.35862761995
 20
748.4949556557883
 30
0.0
 11
1313.282176110647
 21
748.4949556557883
 31
0.0
  0
LINE
  5
4E8
330
1F
100
AcDbEntity
  8
AM_VIS
100
AcDbLine
 10
1313.070401865298
 20
786.9949556557883
 30
0.0
 11
1313.070401865298
 21
748.4949556557883
 31
0.0
  0
CIRCLE
  5
4E9
330
1F
100
AcDbEntity
  8
AM_VIS
100
AcDbCircle
 10
1323.670401865298
 20
758.1949556557884
 30
0.0
 40
0.8394999999999999
  0
CIRCLE
  5
4EA
330
1F
100
AcDbEntity
  8
AM_VIS
100
AcDbCircle
 10
1349.470401865298
 20
766.7949556557882
 30
0.0
 40
0.8394999999999999
  0
CIRCLE
  5
4EB
330
1F
100
AcDbEntity
  8
AM_VIS
100
AcDbCircle
 10
1323.670401865298
 20
768.6949556557883
 30
0.0
 40
0.8394999999999999
  0
CIRCLE
  5
4EF
330
1F
100
AcDbEntity
  8
AM_VIS
100
AcDbCircle
 10
1349.470401865298
 20
766.7949556557882
 30
0.0
 40
1.139499999999997
  0
CIRCLE
  5
4F0
330
1F
100
AcDbEntity
  8
AM_VIS
100
AcDbCircle
 10
1336.570401865298
 20
762.4949556557883
 30
0.0
 40
2.5
  0
CIRCLE
  5
4F1
330
1F
100
AcDbEntity
  8
AM_VIS
100
AcDbCircle
 10
1323.670401865298
 20
758.1949556557884
 30
0.0
 40
1.139499999999997
  0
CIRCLE
  5
4F2
330
1F
100
AcDbEntity
  8
AM_VIS
100
AcDbCircle
 10
1336.570401865298
 20
772.9949556557883
 30
0.0
 40
2.5
  0
CIRCLE
  5
4F4
330
1F
100
AcDbEntity
  8
AM_VIS
100
AcDbCircle
 10
1323.670401865298
 20
768.6949556557883
 30
0.0
 40
1.139499999999997
  0
CIRCLE
  5
4F6
330
1F
100
AcDbEntity
  8
AM_VIS
100
AcDbCircle
 10
1349.470401865298
 20
777.2949556557882
 30
0.0
 40
1.139499999999997
  0
CIRCLE
  5
4F7
330
1F
100
AcDbEntity
  8
AM_VIS
100
AcDbCircle
 10
1349.470401865298
 20
777.2949556557882
 30
0.0
 40
0.8394999999999999
  0
CIRCLE
  5
4F8
330
1F
100
AcDbEntity
  8
AM_VIS
100
AcDbCircle
 10
1328.320401865298
 20
752.4949556557883
 30
0.0
 40
2.25
  0
CIRCLE
  5
4F9
330
1F
100
AcDbEntity
  8
AM_VIS
100
AcDbCircle
 10
1344.820401865298
 20
752.4949556557883
 30
0.0
 40
2.25
  0
CIRCLE
  5
4FA
330
1F
100
AcDbEntity
  8
AM_VIS
100
AcDbCircle
 10
1328.320401865298
 20
782.9949556557883
 30
0.0
 40
2.25
  0
CIRCLE
  5
4FB
330
1F
100
AcDbEntity
  8
AM_VIS
100
AcDbCircle
 10
1344.820401865298
 20
782.9949556557883
 30
0.0
 40
2.25
  0
LINE
  5
4FC
330
1F
100
AcDbEntity
  8
AM_VIS
100
AcDbLine
 10
1359.85862761995
 20
786.9949556557883
 30
0.0
 11
1360.070401865298
 21
786.9949556557883
 31
0.0
  0
LINE
  5
4FD
330
1F
100
AcDbEntity
  8
AM_VIS
100
AcDbLine
 10
1353.782176110647
 20
786.9949556557883
 30
0.0
 11
1353.570401865298
 21
786.9949556557883
 31
0.0
  0
LINE
  5
4FE
330
1F
100
AcDbEntity
  8
AM_VIS
100
AcDbLine
 10
1319.570401865298
 20
786.9949556557883
 30
0.0
 11
1319.35862761995
 21
786.9949556557883
 31
0.0
  0
LINE
  5
4FF
330
1F
100
AcDbEntity
  8
AM_VIS
100
AcDbLine
 10
1319.35862761995
 20
748.4949556557883
 30
0.0
 11
1319.570401865298
 21
748.4949556557883
 31
0.0
  0
LINE
  5
500
330
1F
100
AcDbEntity
  8
AM_VIS
100
AcDbLine
 10
1353.570401865298
 20
748.4949556557883
 30
0.0
 11
1353.782176110647
 21
748.4949556557883
 31
0.0
  0
LINE
  5
501
330
1F
100
AcDbEntity
  8
AM_VIS
100
AcDbLine
 10
1360.070401865298
 20
748.4949556557883
 30
0.0
 11
1359.85862761995
 21
748.4949556557883
 31
0.0
  0
LINE
  5
502
330
1F
100
AcDbEntity
  8
AM_VIS
100
AcDbLine
 10
1313.282176110647
 20
748.4949556557883
 30
0.0
 11
1313.070401865298
 21
748.4949556557883
 31
0.0
  0
LINE
  5
503
330
1F
100
AcDbEntity
  8
AM_VIS
100
AcDbLine
 10
1313.070401865298
 20
786.9949556557883
 30
0.0
 11
1313.282176110647
 21
786.9949556557883
 31
0.0
  0
LINE
  5
504
330
1F
100
AcDbEntity
  8
AM_VIS
100
AcDbLine
 10
1319.570401865298
 20
715.5158189927359
 30
0.0
 11
1319.570401865298
 21
711.7373913890913
 31
0.0
  0
LINE
  5
505
330
1F
100
AcDbEntity
  8
AM_VIS
100
AcDbLine
 10
1353.570401865298
 20
715.5158189927359
 30
0.0
 11
1319.570401865298
 21
715.5158189927359
 31
0.0
  0
LINE
  5
506
330
1F
100
AcDbEntity
  8
AM_VIS
100
AcDbLine
 10
1353.570401865298
 20
711.7373913890913
 30
0.0
 11
1353.570401865298
 21
715.5158189927359
 31
0.0
  0
LINE
  5
507
330
1F
100
AcDbEntity
  8
AM_VIS
100
AcDbLine
 10
1359.85862761995
 20
709.5809802989971
 30
0.0
 11
1353.782176110647
 21
711.4506576864747
 31
0.0
  0
LINE
  5
508
330
1F
100
AcDbEntity
  8
AM_VIS
100
AcDbLine
 10
1360.070401865298
 20
695.815818992736
 30
0.0
 11
1360.070401865298
 21
709.2942465963805
 31
0.0
  0
LINE
  5
509
330
1F
100
AcDbEntity
  8
AM_VIS
100
AcDbLine
 10
1350.186982619029
 20
695.515818992736
 30
0.0
 11
1359.770401865298
 21
695.515818992736
 31
0.0
  0
LINE
  5
50A
330
1F
100
AcDbEntity
  8
AM_VIS
100
AcDbLine
 10
1348.657004405677
 20
697.8658189927359
 30
0.0
 11
1349.927174997894
 21
695.6658189927359
 31
0.0
  0
LINE
  5
50B
330
1F
100
AcDbEntity
  8
AM_VIS
100
AcDbLine
 10
1324.743606946055
 20
698.0158189927359
 30
0.0
 11
1348.397196784541
 21
698.0158189927359
 31
0.0
  0
LINE
  5
50C
330
1F
100
AcDbEntity
  8
AM_VIS
100
AcDbLine
 10
1323.213628732703
 20
695.6658189927359
 30
0.0
 11
1324.48379932492
 21
697.8658189927359
 31
0.0
  0
LINE
  5
50D
330
1F
100
AcDbEntity
  8
AM_VIS
100
AcDbLine
 10
1313.370401865298
 20
695.515818992736
 30
0.0
 11
1322.953821111567
 21
695.515818992736
 31
0.0
  0
LINE
  5
50E
330
1F
100
AcDbEntity
  8
AM_VIS
100
AcDbLine
 10
1313.070401865298
 20
709.2942465963805
 30
0.0
 11
1313.070401865298
 21
695.8158189927359
 31
0.0
  0
LINE
  5
50F
330
1F
100
AcDbEntity
  8
AM_VIS
100
AcDbLine
 10
1319.35862761995
 20
711.4506576864747
 30
0.0
 11
1313.282176110647
 21
709.5809802989971
 31
0.0
  0
LINE
  5
510
330
1F
100
AcDbEntity
  8
AM_HID
100
AcDbLine
 10
1334.070401865298
 20
715.5158189927359
 30
0.0
 11
1334.070401865298
 21
711.7654343545902
 31
0.0
  0
LINE
  5
511
330
1F
100
AcDbEntity
  8
AM_HID
100
AcDbLine
 10
1339.070401865298
 20
715.5158189927359
 30
0.0
 11
1339.070401865298
 21
711.7654343545902
 31
0.0
  0
LINE
  5
512
330
1F
100
AcDbEntity
  8
AM_HID
100
AcDbLine
 10
1323.88155579723
 20
715.5158189927359
 30
0.0
 11
1320.423765184023
 21
708.1005630930413
 31
0.0
  0
LINE
  5
513
330
1F
100
AcDbEntity
  8
AM_HID
100
AcDbLine
 10
1329.398445392042
 20
715.5158189927359
 30
0.0
 11
1324.161540165821
 21
704.2852394930534
 31
0.0
  0
LINE
  5
514
330
1F
100
AcDbEntity
  8
AM_HID
100
AcDbLine
 10
1343.742358338555
 20
715.5158189927359
 30
0.0
 11
1348.979263564775
 21
704.2852394930534
 31
0.0
  0
LINE
  5
515
330
1F
100
AcDbEntity
  8
AM_HID
100
AcDbLine
 10
1349.259247933367
 20
715.5158189927359
 30
0.0
 11
1352.717038546573
 21
708.1005630930413
 31
0.0
  0
LINE
  5
516
330
1F
100
AcDbEntity
  8
AM_HID
100
AcDbLine
 10
1326.070401865298
 20
715.5158189927359
 30
0.0
 11
1326.070401865298
 21
698.0158189927359
 31
0.0
  0
LINE
  5
517
330
1F
100
AcDbEntity
  8
AM_HID
100
AcDbLine
 10
1330.570401865298
 20
715.5158189927359
 30
0.0
 11
1330.570401865298
 21
698.0158189927359
 31
0.0
  0
LINE
  5
518
330
1F
100
AcDbEntity
  8
AM_HID
100
AcDbLine
 10
1342.570401865298
 20
715.5158189927359
 30
0.0
 11
1342.570401865298
 21
698.0158189927359
 31
0.0
  0
LINE
  5
519
330
1F
100
AcDbEntity
  8
AM_HID
100
AcDbLine
 10
1347.070401865298
 20
715.5158189927359
 30
0.0
 11
1347.070401865298
 21
698.0158189927359
 31
0.0
  0
CIRCLE
  5
51A
330
1F
100
AcDbEntity
  8
AM_VIS
100
AcDbCircle
 10
1320.070401865298
 20
704.0158189927359
 30
0.0
 40
4.099999999999999
  0
CIRCLE
  5
51B
330
1F
100
AcDbEntity
  8
AM_VIS
100
AcDbCircle
 10
1320.070401865298
 20
704.0158189927359
 30
0.0
 40
4.15
  0
CIRCLE
  5
51C
330
1F
100
AcDbEntity
  8
AM_VIS
100
AcDbCircle
 10
1353.070401865298
 20
704.0158189927359
 30
0.0
 40
4.099999999999999
  0
CIRCLE
  5
51D
330
1F
100
AcDbEntity
  8
AM_VIS
100
AcDbCircle
 10
1353.070401865298
 20
704.0158189927359
 30
0.0
 40
4.15
  0
CIRCLE
  5
51E
330
1F
100
AcDbEntity
  8
AM_VIS
100
AcDbCircle
 10
1336.570401865298
 20
708.5158189927359
 30
0.0
 40
4.099999999999999
  0
CIRCLE
  5
51F
330
1F
100
AcDbEntity
  8
AM_VIS
100
AcDbCircle
 10
1336.570401865298
 20
708.5158189927359
 30
0.0
 40
4.15
  0
ARC
  5
520
330
1F
100
AcDbEntity
  8
AM_VIS
100
AcDbCircle
 10
1319.270401865298
 20
711.7373913890913
 30
0.0
 40
0.3
100
AcDbArc
 50
287.1027289690533
 51
0.0
  0
ARC
  5
521
330
1F
100
AcDbEntity
  8
AM_VIS
100
AcDbCircle
 10
1353.870401865298
 20
711.7373913890913
 30
0.0
 40
0.3
100
AcDbArc
 50
180.0
 51
252.8972710309467
  0
ARC
  5
522
330
1F
100
AcDbEntity
  8
AM_VIS
100
AcDbCircle
 10
1359.770401865298
 20
709.2942465963805
 30
0.0
 40
0.3
100
AcDbArc
 50
0.0
 51
72.89727103094667
  0
ARC
  5
523
330
1F
100
AcDbEntity
  8
AM_VIS
100
AcDbCircle
 10
1359.770401865298
 20
695.815818992736
 30
0.0
 40
0.3
100
AcDbArc
 50
270.0
 51
0.0
  0
ARC
  5
524
330
1F
100
AcDbEntity
  8
AM_VIS
100
AcDbCircle
 10
1350.186982619029
 20
695.8158189927359
 30
0.0
 40
0.2999999999999999
100
AcDbArc
 50
209.9999999999973
 51
270.0
  0
ARC
  5
525
330
1F
100
AcDbEntity
  8
AM_VIS
100
AcDbCircle
 10
1348.397196784541
 20
697.715818992736
 30
0.0
 40
0.3
100
AcDbArc
 50
29.99999999999729
 51
90.0
  0
ARC
  5
526
330
1F
100
AcDbEntity
  8
AM_VIS
100
AcDbCircle
 10
1324.743606946055
 20
697.715818992736
 30
0.0
 40
0.2999999999999999
100
AcDbArc
 50
90.0
 51
150.0000000000027
  0
ARC
  5
527
330
1F
100
AcDbEntity
  8
AM_VIS
100
AcDbCircle
 10
1322.953821111567
 20
695.8158189927359
 30
0.0
 40
0.2999999999999999
100
AcDbArc
 50
270.0
 51
330.0000000000027
  0
ARC
  5
528
330
1F
100
AcDbEntity
  8
AM_VIS
100
AcDbCircle
 10
1313.370401865298
 20
695.8158189927359
 30
0.0
 40
0.3
100
AcDbArc
 50
180.0
 51
270.0
  0
CIRCLE
  5
529
330
1F
100
AcDbEntity
  8
AM_VIS
100
AcDbCircle
 10
1353.070401865298
 20
704.0158189927359
 30
0.0
 40
4.950000000000001
  0
CIRCLE
  5
52A
330
1F
100
AcDbEntity
  8
AM_VIS
100
AcDbCircle
 10
1320.070401865298
 20
704.0158189927359
 30
0.0
 40
4.950000000000001
  0
CIRCLE
  5
52B
330
1F
100
AcDbEntity
  8
AM_VIS
100
AcDbCircle
 10
1336.570401865298
 20
708.5158189927359
 30
0.0
 40
4.95
  0
ARC
  5
52C
330
1F
100
AcDbEntity
  8
AM_VIS
100
AcDbCircle
 10
1313.370401865298
 20
709.2942465963805
 30
0.0
 40
0.3
100
AcDbArc
 50
107.1027289690533
 51
180.0
  0
LINE
  5
78A
330
1F
100
AcDbEntity
  8
LOGO
 62
     4
100
AcDbLine
 10
1324.499232448854
 20
621.0887780275795
 30
0.0
 11
1324.499232448854
 21
642.2364354798875
 31
0.0
  0
TEXT
  5
78B
330
1F
100
AcDbEntity
  8
LOGO
  6
Continuous
100
AcDbText
 10
1285.570719671206
 20
625.2432034194876
 30
0.0
 40
3.172148617846153
  1
金器工業股份有限公司
  7
CHINESET
100
AcDbText
  0
TEXT
  5
78C
330
1F
100
AcDbEntity
  8
LOGO
  6
Continuous
100
AcDbText
 10
1279.744110238877
 20
622.0704333092185
 30
0.0
 40
2.114765745230769
  1
MINDMAN INDUSTRIAL CO., LTD.
 41
0.85
  7
CHINESET
100
AcDbText
  0
LINE
  5
78D
330
1F
100
AcDbEntity
  8
LOGO
 62
     4
100
AcDbLine
 10
1324.499232448854
 20
638.0069039894259
 30
0.0
 11
1293.482668185469
 21
638.0069039894259
 31
0.0
  0
LINE
  5
78E
330
1F
100
AcDbEntity
  8
LOGO
 62
     4
100
AcDbLine
 10
1324.499232448854
 20
633.7773724989642
 30
0.0
 11
1293.482668185469
 21
633.7773724989642
 31
0.0
  0
LINE
  5
78F
330
1F
100
AcDbEntity
  8
LOGO
 62
     4
100
AcDbLine
 10
1324.499232448854
 20
629.547841008503
 30
0.0
 11
1277.974386053777
 21
629.547841008503
 31
0.0
  0
LINE
  5
790
330
1F
100
AcDbEntity
  8
LOGO
 62
     4
100
AcDbLine
 10
1293.482668185469
 20
629.547841008503
 30
0.0
 11
1293.482668185469
 21
642.2364354798875
 31
0.0
  0
TEXT
  5
791
330
1F
100
AcDbEntity
  8
LOGO
100
AcDbText
 10
1314.681025899959
 20
630.605223881118
 30
0.0
 40
2.114765745230769
  1
mm
  7
CHINESET
 72
     1
 11
1317.299307298816
 21
631.6626067537334
 31
0.0
100
AcDbText
 73
     2
  0
TEXT
  5
792
330
1F
100
AcDbEntity
  8
LOGO
100
AcDbText
 10
1313.573291461981
 20
639.0642868620412
 30
0.0
 40
2.114765745230769
  1
1 : 1
  7
CHINESET
 72
     1
 11
1317.299307298816
 21
640.1216697346566
 31
0.0
100
AcDbText
 73
     2
  0
LINE
  5
793
330
1F
100
AcDbEntity
  8
LOGO
 62
     4
100
AcDbLine
 10
1310.400794147316
 20
629.547841008503
 30
0.0
 11
1310.400794147316
 21
642.2364354798875
 31
0.0
  0
TEXT
  5
794
330
1F
100
AcDbEntity
  8
LOGO
100
AcDbText
 10
1295.226405833434
 20
639.0653275932151
 30
138.5982630693801
 40
2.114765745230769
  1
比例 Scale:
 41
0.9
  7
CHINESET
 72
     4
 11
1301.941731166392
 21
640.1216697346566
 31
138.5982630693801
100
AcDbText
  0
TEXT
  5
795
330
1F
100
AcDbEntity
  8
LOGO
100
AcDbText
 10
1295.104617984713
 20
634.8645029376317
 30
138.5982630693801
 40
2.114765745230769
  1
投影  View:
 41
0.9
  7
CHINESET
 72
     4
 11
1301.941731166392
 21
635.892138244195
 31
138.5982630693801
100
AcDbText
  0
TEXT
  5
796
330
1F
100
AcDbEntity
  8
LOGO
100
AcDbText
 10
1295.311374099983
 20
630.605223881118
 30
138.5982630693801
 40
2.114765745230769
  1
單位  Unit:
 41
0.9
  7
CHINESET
 72
     4
 11
1301.941731166392
 21
631.6626067537334
 31
138.5982630693801
100
AcDbText
  0
LWPOLYLINE
  5
797
330
1F
100
AcDbEntity
  8
LOGO
 62
     4
100
AcDbPolyline
 90
        4
 70
     1
 43
0.0
 10
1460.181101724047
 20
642.2364354798873
 10
1460.181101724047
 20
863.11763626818
 10
1277.974386053777
 20
863.11763626818
 10
1277.974386053777
 20
642.2364354798873
1001
GENIUS_GENREC_14
1002
{
1000
PYDIR
1011
1277.974386053777
1021
642.2364354798873
1031
0.0
1002
}
1002
{
1000
PXDIR
1011
1460.181101724047
1021
863.11763626818
1031
0.0
1002
}
1002
{
1000
PORI
1011
1460.181101724047
1021
642.2364354798873
1031
0.0
1002
}
1002
{
1000
PINS
1011
1460.181101724047
1021
642.2364354798873
1031
0.0
1002
}
1002
{
1000
PINS2
1011
1277.974386053777
1021
863.11763626818
1031
0.0
1002
}
1002
{
1000
C
1070
     1
1002
}
1001
GENIUS_GENODEF_13
1002
{
1000
HIER
1070
     0
1002
}
1002
{
1000
MANEDIT
1070
     0
1002
}
1002
{
1000
NOSEL
1070
     0
1002
}
1002
{
1000
BEHIND
1070
     0
1002
}
1002
{
1000
OTHER
1070
     0
1002
}
1002
{
1000
REACTOR
1002
}
1001
GENIUS_GENOBJ-N-REC_13
1002
{
1000
OWNER
1000
GEN
1002
}
  0
SOLID
  5
798
330
1F
100
AcDbEntity
  8
LOGO
 62
     5
100
AcDbTrace
 10
1280.168489453863
 20
633.0633380467486
 30
0.0
 11
1281.082858670647
 21
633.0633380467483
 31
0.0
 12
1284.897985402748
 22
641.7340806197065
 32
0.0
 13
1285.812354619534
 23
641.734080619706
 33
0.0
  0
SOLID
  5
799
330
1F
100
AcDbEntity
  8
LOGO
 62
     5
100
AcDbTrace
 10
1281.461218346559
 20
633.0633380467486
 30
0.0
 11
1282.375587563344
 21
633.0633380467486
 31
0.0
 12
1285.812354619534
 22
641.0404212138695
 32
0.0
 13
1284.897985402748
 23
637.6877340856591
 33
0.0
  0
SOLID
  5
79A
330
1F
100
AcDbEntity
  8
LOGO
 62
     2
100
AcDbTrace
 10
1281.082858670647
 20
633.0633380467483
 30
0.0
 11
1281.461218346559
 21
633.0633380467486
 31
0.0
 12
1285.812354619534
 22
641.734080619706
 32
0.0
 13
1286.190714295445
 23
641.734080619706
 33
0.0
  0
SOLID
  5
79B
330
1F
100
AcDbEntity
  8
LOGO
 62
     5
100
AcDbTrace
 10
1278.702531368558
 20
629.9103407474914
 30
0.0
 11
1279.017831098484
 21
629.9103407474914
 31
0.0
 12
1279.905739678925
 22
631.4868393971198
 32
0.0
 13
1280.22103940885
 23
631.4868393971198
 33
0.0
  0
SOLID
  5
79C
330
1F
100
AcDbEntity
  8
LOGO
 62
     5
100
AcDbTrace
 10
1279.905739678925
 20
631.4868393971198
 30
0.0
 11
1280.22103940885
 21
631.4868393971198
 31
0.0
 12
1279.905739678925
 22
629.9103407474914
 32
0.0
 13
1280.22103940885
 23
629.9103407474914
 33
0.0
  0
SOLID
  5
79D
330
1F
100
AcDbEntity
  8
LOGO
 62
     5
100
AcDbTrace
 10
1279.905739678925
 20
629.9103407474914
 30
0.0
 11
1280.22103940885
 21
629.9103407474914
 31
0.0
 12
1281.108947989292
 22
631.4868393971198
 32
0.0
 13
1281.424247719218
 23
631.4868393971198
 33
0.0
  0
SOLID
  5
79E
330
1F
100
AcDbEntity
  8
LOGO
 62
     5
100
AcDbTrace
 10
1281.108947989292
 20
631.4868393971198
 30
0.0
 11
1281.424247719218
 21
631.4868393971198
 31
0.0
 12
1281.108947989292
 22
629.9103407474914
 32
0.0
 13
1281.424247719218
 23
629.9103407474914
 33
0.0
  0
POLYLINE
  5
79F
330
1F
100
AcDbEntity
  8
LOGO
 62
     5
100
AcDb2dPolyline
 66
     1
 10
0.0
 20
0.0
 30
0.0
 40
0.3158050179544615
 41
0.3158050179544615
  0
VERTEX
  5
7A0
330
79F
100
AcDbEntity
  8
LOGO
 62
     5
100
AcDbVertex
100
AcDb2dVertex
 10
1291.677687528196
 20
630.8562399372684
 30
0.0
 42
1.0
  0
VERTEX
  5
7A1
330
79F
100
AcDbEntity
  8
LOGO
 62
     5
100
AcDbVertex
100
AcDb2dVertex
 10
1290.730272474332
 20
630.8562399372684
 30
0.0
 42
1.0
  0
SEQEND
  5
7A2
330
79F
100
AcDbEntity
  8
LOGO
 62
     5
  0
POLYLINE
  5
7A3
330
1F
100
AcDbEntity
  8
LOGO
 62
     5
100
AcDb2dPolyline
 66
     1
 10
0.0
 20
0.0
 30
0.0
 70
     1
  0
VERTEX
  5
7A4
330
7A3
100
AcDbEntity
  8
LOGO
 62
     5
100
AcDbVertex
100
AcDb2dVertex
 10
1288.944352956778
 20
630.6985900723055
 30
0.0
 42
1.000000057330635
  0
VERTEX
  5
7A5
330
7A3
100
AcDbEntity
  8
LOGO
 62
     5
100
AcDbVertex
100
AcDb2dVertex
 10
1289.890252146555
 20
630.6985900723055
 30
0.0
 42
1.000000057330635
  0
SEQEND
  5
7A6
330
7A3
100
AcDbEntity
  8
LOGO
 62
     5
  0
CIRCLE
  5
7A7
330
1F
100
AcDbEntity
  8
LOGO
 62
     5
100
AcDbCircle
 10
1289.417302551667
 20
630.6985900723055
 30
0.0
 40
0.4729495948886016
  0
POLYLINE
  5
7A8
330
1F
100
AcDbEntity
  8
LOGO
 62
     5
100
AcDb2dPolyline
 66
     1
 10
0.0
 20
0.0
 30
0.0
 70
     1
 40
0.3158050179544615
 41
0.3158050179544615
  0
VERTEX
  5
7A9
330
7A8
100
AcDbEntity
  8
LOGO
 62
     5
100
AcDbVertex
100
AcDb2dVertex
 10
1288.785692515758
 20
630.6985900723055
 30
0.0
 42
1.0
  0
VERTEX
  5
7AA
330
7A8
100
AcDbEntity
  8
LOGO
 62
     5
100
AcDbVertex
100
AcDb2dVertex
 10
1290.048912587575
 20
630.6985900723055
 30
0.0
 42
1.0
  0
SEQEND
  5
7AB
330
7A8
100
AcDbEntity
  8
LOGO
 62
     5
  0
LINE
  5
7AC
330
1F
100
AcDbEntity
  8
LOGO
100
AcDbLine
 10
1291.834579461115
 20
629.9103407474914
 30
0.0
 11
1291.834579461115
 21
630.8562399372684
 31
0.0
  0
SOLID
  5
7AD
330
1F
100
AcDbEntity
  8
LOGO
 62
     5
100
AcDbTrace
 10
1289.890220616583
 20
631.4868393971198
 30
0.0
 11
1290.205520346508
 21
631.4868393971198
 31
0.0
 12
1289.890220616583
 22
629.9103407474914
 32
0.0
 13
1290.205520346508
 23
629.9103407474914
 33
0.0
  0
SOLID
  5
7AE
330
1F
100
AcDbEntity
  8
LOGO
 62
     5
100
AcDbTrace
 10
1290.573380541412
 20
629.9103407474914
 30
0.0
 11
1290.888680271338
 21
629.9103407474914
 31
0.0
 12
1290.573380541412
 22
631.4868393971198
 32
0.0
 13
1290.888680271338
 23
631.4868393971198
 33
0.0
  0
SOLID
  5
7AF
330
1F
100
AcDbEntity
  8
LOGO
 62
     5
100
AcDbTrace
 10
1291.51927973119
 20
630.8562399372684
 30
0.0
 11
1291.834579461115
 21
630.8562399372684
 31
0.0
 12
1291.51927973119
 22
629.9103407474914
 32
0.0
 13
1291.834579461115
 23
629.9103407474914
 33
0.0
  0
SOLID
  5
7B0
330
1F
100
AcDbEntity
  8
LOGO
 62
     5
100
AcDbTrace
 10
1290.54185056842
 20
641.0404212138695
 30
0.0
 11
1289.627481351635
 21
637.6877340856591
 31
0.0
 12
1290.54185056842
 22
633.0633380467483
 32
0.0
 13
1289.627481351635
 23
633.0633380467483
 33
0.0
  0
SOLID
  5
7B1
330
1F
100
AcDbEntity
  8
LOGO
 62
     5
100
AcDbTrace
 10
1290.920210244331
 20
633.0633380467483
 30
0.0
 11
1291.834579461115
 21
633.0633380467483
 31
0.0
 12
1290.920210244331
 22
641.734080619706
 32
0.0
 13
1291.834579461115
 23
641.7340806197065
 33
0.0
  0
SOLID
  5
7B2
330
1F
100
AcDbEntity
  8
LOGO
 62
     2
100
AcDbTrace
 10
1290.54185056842
 20
641.7340806197065
 30
0.0
 11
1290.920210244331
 21
641.734080619706
 31
0.0
 12
1290.54185056842
 22
633.0633380467483
 32
0.0
 13
1290.920210244331
 23
633.0633380467483
 33
0.0
  0
POLYLINE
  5
7B3
330
1F
100
AcDbEntity
  8
LOGO
 62
     5
100
AcDb2dPolyline
 66
     1
 10
0.0
 20
0.0
 30
0.0
 40
0.3158050179544615
 41
0.3158050179544615
  0
VERTEX
  5
7B4
330
7B3
100
AcDbEntity
  8
LOGO
 62
     5
100
AcDbVertex
100
AcDb2dVertex
 10
1287.158370379278
 20
630.8562399372684
 30
0.0
 42
1.0
  0
VERTEX
  5
7B5
330
7B3
100
AcDbEntity
  8
LOGO
 62
     5
100
AcDbVertex
100
AcDb2dVertex
 10
1286.210955325415
 20
630.8562399372684
 30
0.0
 42
1.0
  0
SEQEND
  5
7B6
330
7B3
100
AcDbEntity
  8
LOGO
 62
     5
  0
POLYLINE
  5
7B7
330
1F
100
AcDbEntity
  8
LOGO
 62
     5
100
AcDb2dPolyline
 66
     1
 10
0.0
 20
0.0
 30
0.0
 40
0.3158050179544615
 41
0.3158050179544615
  0
VERTEX
  5
7B8
330
7B7
100
AcDbEntity
  8
LOGO
 62
     5
100
AcDbVertex
100
AcDb2dVertex
 10
1288.104269569054
 20
630.8562399372684
 30
0.0
 42
1.0
  0
VERTEX
  5
7B9
330
7B7
100
AcDbEntity
  8
LOGO
 62
     5
100
AcDbVertex
100
AcDb2dVertex
 10
1287.156854515192
 20
630.8562399372684
 30
0.0
 42
1.0
  0
SEQEND
  5
7BA
330
7B7
100
AcDbEntity
  8
LOGO
 62
     5
  0
POLYLINE
  5
7BB
330
1F
100
AcDbEntity
  8
LOGO
 62
     5
100
AcDb2dPolyline
 66
     1
 10
0.0
 20
0.0
 30
0.0
 40
0.3158050179544615
 41
0.3158050179544615
  0
VERTEX
  5
7BC
330
7BB
100
AcDbEntity
  8
LOGO
 62
     5
100
AcDbVertex
100
AcDb2dVertex
 10
1283.584952420137
 20
630.8562399372684
 30
0.0
 42
1.0
  0
VERTEX
  5
7BD
330
7BB
100
AcDbEntity
  8
LOGO
 62
     5
100
AcDbVertex
100
AcDb2dVertex
 10
1282.637537366274
 20
630.8562399372684
 30
0.0
 42
1.0
  0
SEQEND
  5
7BE
330
7BB
100
AcDbEntity
  8
LOGO
 62
     5
  0
SOLID
  5
7BF
330
1F
100
AcDbEntity
  8
LOGO
 62
     5
100
AcDbTrace
 10
1282.480645433354
 20
631.4868393971198
 30
0.0
 11
1282.79594516328
 21
631.4868393971198
 31
0.0
 12
1282.480645433354
 22
629.9103407474914
 32
0.0
 13
1282.79594516328
 23
629.9103407474914
 33
0.0
  0
SOLID
  5
7C0
330
1F
100
AcDbEntity
  8
LOGO
 62
     5
100
AcDbTrace
 10
1283.426544623132
 20
630.8562399372684
 30
0.0
 11
1283.741844353058
 21
630.8562399372684
 31
0.0
 12
1283.426544623132
 22
629.9103407474914
 32
0.0
 13
1283.741844353058
 23
629.9103407474914
 33
0.0
  0
POLYLINE
  5
7C1
330
1F
100
AcDbEntity
  8
LOGO
 62
     5
100
AcDb2dPolyline
 66
     1
 10
0.0
 20
0.0
 30
0.0
 70
     1
 40
0.3158050179544615
 41
0.3158050179544615
  0
VERTEX
  5
7C2
330
7C1
100
AcDbEntity
  8
LOGO
 62
     5
100
AcDbVertex
100
AcDb2dVertex
 10
1284.26637536684
 20
630.6985900723055
 30
0.0
 42
1.0
  0
VERTEX
  5
7C3
330
7C1
100
AcDbEntity
  8
LOGO
 62
     5
100
AcDbVertex
100
AcDb2dVertex
 10
1285.529595438658
 20
630.6985900723055
 30
0.0
 42
1.0
  0
SEQEND
  5
7C4
330
7C1
100
AcDbEntity
  8
LOGO
 62
     5
  0
SOLID
  5
7C5
330
1F
100
AcDbEntity
  8
LOGO
 62
     5
100
AcDbTrace
 10
1285.370903467665
 20
631.9597889920088
 30
0.0
 11
1285.686203197591
 21
631.9597889920088
 31
0.0
 12
1285.370903467665
 22
629.9103407474914
 32
0.0
 13
1285.686203197591
 23
629.9103407474914
 33
0.0
  0
SOLID
  5
7C6
330
1F
100
AcDbEntity
  8
LOGO
 62
     5
100
AcDbTrace
 10
1286.054063392496
 20
631.4868393971198
 30
0.0
 11
1286.369363122421
 21
631.4868393971198
 31
0.0
 12
1286.054063392496
 22
629.9103407474914
 32
0.0
 13
1286.369363122421
 23
629.9103407474914
 33
0.0
  0
SOLID
  5
7C7
330
1F
100
AcDbEntity
  8
LOGO
 62
     5
100
AcDbTrace
 10
1286.999962582272
 20
630.8562399372684
 30
0.0
 11
1287.315262312198
 21
630.8562399372684
 31
0.0
 12
1286.999962582272
 22
629.9103407474914
 32
0.0
 13
1287.315262312198
 23
629.9103407474914
 33
0.0
  0
SOLID
  5
7C8
330
1F
100
AcDbEntity
  8
LOGO
 62
     5
100
AcDbTrace
 10
1287.945861772049
 20
630.8562399372684
 30
0.0
 11
1288.261161501975
 21
630.8562399372684
 31
0.0
 12
1287.945861772049
 22
629.9103407474909
 32
0.0
 13
1288.261161501975
 23
629.9103407474909
 33
0.0
  0
SOLID
  5
7C9
330
1F
100
AcDbEntity
  8
LOGO
 62
     5
100
AcDbTrace
 10
1281.797485508524
 20
631.7075492080679
 30
0.0
 11
1282.112785238451
 21
631.7075492080679
 31
0.0
 12
1281.797485508524
 22
631.9597889920088
 32
0.0
 13
1282.112785238451
 23
631.9597889920088
 33
0.0
  0
SOLID
  5
7CA
330
1F
100
AcDbEntity
  8
LOGO
 62
     5
100
AcDbTrace
 10
1281.797485508524
 20
631.4868393971198
 30
0.0
 11
1282.112785238451
 21
631.4868393971198
 31
0.0
 12
1281.797485508524
 22
629.9103407474909
 32
0.0
 13
1282.112785238451
 23
629.9103407474914
 33
0.0
  0
SOLID
  5
7CB
330
1F
100
AcDbEntity
  8
LOGO
 62
     5
100
AcDbTrace
 10
1284.897985402748
 20
633.0633380467486
 30
0.0
 11
1285.812354619534
 21
633.0633380467486
 31
0.0
 12
1284.897985402748
 22
637.6877340856591
 32
0.0
 13
1285.812354619534
 23
641.0404212138695
 33
0.0
  0
SOLID
  5
7CC
330
1F
100
AcDbEntity
  8
LOGO
 62
     5
100
AcDbTrace
 10
1286.190714295445
 20
641.734080619706
 30
0.0
 11
1287.105083512229
 21
641.7340806197065
 31
0.0
 12
1286.190714295445
 22
633.7569974525851
 32
0.0
 13
1287.105083512229
 23
637.1096845807954
 33
0.0
  0
SOLID
  5
7CD
330
1F
100
AcDbEntity
  8
LOGO
 62
     2
100
AcDbTrace
 10
1285.812354619534
 20
641.734080619706
 30
0.0
 11
1286.190714295445
 21
641.734080619706
 31
0.0
 12
1285.812354619534
 22
633.0633380467486
 32
0.0
 13
1286.190714295445
 23
633.0633380467486
 33
0.0
  0
SOLID
  5
7CE
330
1F
100
AcDbEntity
  8
LOGO
 62
     5
100
AcDbTrace
 10
1286.190714295445
 20
633.7569974525851
 30
0.0
 11
1287.105083512229
 21
637.1096845807954
 31
0.0
 12
1290.54185056842
 22
641.7340806197065
 32
0.0
 13
1289.627481351635
 23
641.7340806197065
 33
0.0
  0
SOLID
  5
7CF
330
1F
100
AcDbEntity
  8
LOGO
 62
     5
100
AcDbTrace
 10
1286.190714295445
 20
633.0633380467486
 30
0.0
 11
1287.105083512229
 21
633.0633380467486
 31
0.0
 12
1290.54185056842
 22
641.0404212138695
 32
0.0
 13
1289.627481351635
 23
637.6877340856591
 33
0.0
  0
SOLID
  5
7D0
330
1F
100
AcDbEntity
  8
LOGO
 62
     2
100
AcDbTrace
 10
1285.812354619534
 20
633.0633380467486
 30
0.0
 11
1286.190714295445
 21
633.0633380467486
 31
0.0
 12
1290.54185056842
 22
641.7340806197065
 32
0.0
 13
1290.920210244331
 23
641.734080619706
 33
0.0
  0
LWPOLYLINE
  5
7D1
330
1F
100
AcDbEntity
  8
LOGO
 62
     4
100
AcDbPolyline
 90
        4
 70
     1
 43
0.0
 10
1277.974386053777
 20
642.2364354798873
 10
1460.181101724047
 20
642.2364354798873
 10
1460.181101724047
 20
621.0887780275793
 10
1277.974386053777
 20
621.0887780275793
1001
GENIUS_GENREC_14
1002
{
1000
PYDIR
1011
1277.974386053777
1021
621.0887780275793
1031
0.0
1002
}
1002
{
1000
PXDIR
1011
1460.181101724047
1021
642.2364354798873
1031
0.0
1002
}
1002
{
1000
PORI
1011
1277.974386053777
1021
642.2364354798873
1031
0.0
1002
}
1002
{
1000
PINS
1011
1277.974386053777
1021
642.2364354798873
1031
0.0
1002
}
1002
{
1000
PINS2
1011
1460.181101724047
1021
621.0887780275793
1031
0.0
1002
}
1002
{
1000
C
1070
     1
1002
}
1001
GENIUS_GENOBJ-N-REC_13
1002
{
1000
OWNER
1000
GEN
1002
}
1001
GENIUS_GENODEF_13
1002
{
1000
HIER
1070
     0
1002
}
1002
{
1000
MANEDIT
1070
     0
1002
}
1002
{
1000
NOSEL
1070
     0
1002
}
1002
{
1000
BEHIND
1070
     0
1002
}
1002
{
1000
OTHER
1070
     0
1002
}
1002
{
1000
REACTOR
1002
}
  0
CIRCLE
  5
7D2
330
1F
100
AcDbEntity
  8
LOGO
  6
Continuous
100
AcDbCircle
 10
1314.316547435328
 20
635.8966617435996
 30
0.0
 40
1.227882767655559
  0
CIRCLE
  5
7D3
330
1F
100
AcDbEntity
  8
LOGO
  6
Continuous
100
AcDbCircle
 10
1314.316547435328
 20
635.8966617435996
 30
0.0
 40
0.719430603534741
  0
LINE
  5
7D4
330
1F
100
AcDbEntity
  8
LOGO
100
AcDbLine
 10
1322.032705224767
 20
634.6687789759438
 30
0.0
 11
1322.032705224767
 21
637.1245445112553
 31
0.0
  0
LINE
  5
7D5
330
1F
100
AcDbEntity
  8
LOGO
100
AcDbLine
 10
1318.183363232001
 20
635.1772311400651
 30
0.0
 11
1318.183363232001
 21
636.6160923471347
 31
0.0
  0
LINE
  5
7D6
330
1F
100
AcDbEntity
  8
LOGO
  6
Continuous
100
AcDbLine
 10
1318.183363232001
 20
636.6160923471347
 30
0.0
 11
1322.032705224767
 21
637.1245445112553
 31
0.0
  0
LINE
  5
7D7
330
1F
100
AcDbEntity
  8
LOGO
  6
Continuous
100
AcDbLine
 10
1318.183363232001
 20
635.1772311400651
 30
0.0
 11
1322.032705224767
 21
634.6687789759438
 31
0.0
  0
LINE
  5
7D8
330
1F
100
AcDbEntity
  8
LOGO
  6
AM_ISO08W050x2
 48
0.3
100
AcDbLine
 10
1312.623892654019
 20
635.8966617435996
 30
0.0
 11
1316.009202216638
 21
635.8966617435996
 31
0.0
1001
GENIUS_GENOREF_13
1005
80D
  0
LINE
  5
7D9
330
1F
100
AcDbEntity
  8
LOGO
  6
AM_ISO08W050x2
 48
0.3
100
AcDbLine
 10
1314.316547435328
 20
634.2040069622899
 30
0.0
 11
1314.316547435328
 21
637.5893165249095
 31
0.0
1001
GENIUS_GENOREF_13
1005
80C
  0
LINE
  5
7DA
330
1F
100
AcDbEntity
  8
LOGO
  6
CENTER
 48
0.5
100
AcDbLine
 10
1317.87552286454
 20
635.8966617435996
 30
0.0
 11
1322.420321502476
 21
635.8966617435996
 31
0.0
1001
GENIUS_GENOREF_13
1005
80B
  0
TEXT
  5
7DB
330
1F
100
AcDbEntity
  8
LOGO
 62
     7
100
AcDbText
 10
1325.724396301089
 20
632.9720066081728
 30
0.0
 40
2.819687660307692
  1
Order example:
 41
0.8
  7
CHINESET
100
AcDbText
  0
TEXT
  5
7DC
330
1F
100
AcDbEntity
  8
LOGO
 62
     7
100
AcDbText
 10
1326.230271585216
 20
636.9415430101064
 30
0.0
 40
4.229531490461539
  1
訂購代號：
  7
CHINESET
100
AcDbText
  0
TEXT
  5
7DD
330
1F
100
AcDbEntity
  8
LOGO
100
AcDbText
 10
1325.47907719187
 20
622.2138250571959
 30
0.0
 40
2.115072
  1
00910130
 41
0.7
  7
CHINESET
 72
     1
 11
1330.625752391869
 21
622.2138250571959
 31
0.0
100
AcDbText
  0
LINE
  5
7DE
330
1F
100
AcDbEntity
  8
LOGO
 62
     4
100
AcDbLine
 10
1337.189664448853
 20
625.3183095180417
 30
0.0
 11
1337.189664448854
 21
621.0887780275799
 31
0.0
  0
LINE
  5
7DF
330
1F
100
AcDbEntity
  8
LOGO
 62
     4
100
AcDbLine
 10
1337.189664448853
 20
625.3183095180417
 30
0.0
 11
1324.499232448854
 21
625.3183095180417
 31
0.0
  0
LINE
  5
7E0
330
1F
100
AcDbEntity
  8
LOGO
 62
     4
100
AcDbLine
 10
1367.685334995357
 20
630.6052238811183
 30
0.0
 11
1367.685334995357
 21
622.8510828152721
 31
0.0
  0
LINE
  5
7E1
330
1F
100
AcDbEntity
  8
LOGO
 62
     4
100
AcDbLine
 10
1353.586896693818
 20
630.6052238811183
 30
0.0
 11
1353.586896693818
 21
622.8510828152721
 31
0.0
  0
LINE
  5
7E2
330
1F
100
AcDbEntity
  8
LOGO
 62
     4
100
AcDbLine
 10
1367.685334995357
 20
622.8510828152721
 30
0.0
 11
1353.586896693818
 21
622.8510828152721
 31
0.0
  0
LINE
  5
7E3
330
1F
100
AcDbEntity
  8
LOGO
 62
     4
100
AcDbLine
 10
1370.298755316168
 20
640.1216697346566
 30
0.0
 11
1353.586896693818
 21
640.1216697346566
 31
0.0
  0
LINE
  5
7E4
330
1F
100
AcDbEntity
  8
LOGO
 62
     4
100
AcDbLine
 10
1370.298755316168
 20
633.7773724989642
 30
0.0
 11
1353.586896693818
 21
633.7773724989642
 31
0.0
  0
LINE
  5
7E5
330
1F
100
AcDbEntity
  8
LOGO
 62
     4
100
AcDbLine
 10
1353.586896693818
 20
640.1216697346566
 30
0.0
 11
1353.586896693818
 21
633.7773724989642
 31
0.0
  0
LINE
  5
7E6
330
1F
100
AcDbEntity
  8
LOGO
 62
     4
100
AcDbLine
 10
1370.298755316168
 20
640.1216697346566
 30
0.0
 11
1370.298755316168
 21
633.7773724989642
 31
0.0
  0
LINE
  5
7E7
330
1F
100
AcDbEntity
  8
LOGO
 62
     4
100
AcDbLine
 10
1361.37170021489
 20
633.7773724989642
 30
0.0
 11
1361.37170021489
 21
630.6052238811183
 31
0.0
  0
TEXT
  5
7E8
330
1F
100
AcDbEntity
  8
LOGO
  6
Continuous
 62
     7
100
AcDbText
 10
1354.714178951997
 20
635.1017352715537
 30
0.0
 40
3.701376
  1
MVSZ
  7
CHINESET
100
AcDbText
  0
LINE
  5
7E9
330
1F
100
AcDbEntity
  8
LOGO
 62
     4
100
AcDbLine
 10
1367.685334995357
 20
630.6052238811183
 30
0.0
 11
1353.586896693818
 21
630.6052238811183
 31
0.0
  0
TEXT
  5
7EA
330
1F
100
AcDbEntity
  8
LOGO
  6
Continuous
100
AcDbText
 10
1358.111040909806
 20
623.9455633836783
 30
138.5982630693801
 40
1.586304
  1
Model
 41
0.8
  7
CHINESET
100
AcDbText
  0
TEXT
  5
7EB
330
1F
100
AcDbEntity
  8
LOGO
100
AcDbText
 10
1357.688818352577
 20
626.8862291267659
 30
138.5982630693801
 40
2.643839999999999
  1
型號
  7
CHINESET
100
AcDbText
  0
LINE
  5
7EC
330
1F
100
AcDbEntity
  8
LOGO
  6
Continuous
 62
     7
100
AcDbLine
 10
1370.973206547217
 20
636.9270486133658
 30
0.0
 11
1373.774616713379
 21
636.9270486133658
 31
0.0
  0
TEXT
  5
7ED
330
1F
100
AcDbEntity
  8
LOGO
  6
Continuous
 62
     7
100
AcDbText
 10
1374.97283546098
 20
635.1017352715537
 30
0.0
 40
3.701376
  1
100
  7
CHINESET
100
AcDbText
  0
LINE
  5
7EE
330
1F
100
AcDbEntity
  8
LOGO
  6
Continuous
 62
     7
100
AcDbLine
 10
1384.859630330905
 20
636.9270486133658
 30
0.0
 11
1387.661040497067
 21
636.9270486133658
 31
0.0
  0
LINE
  5
7EF
330
1F
100
AcDbEntity
  8
LOGO
 62
     4
100
AcDbLine
 10
1389.861480346925
 20
630.6052238811183
 30
0.0
 11
1389.861480346925
 21
622.8510828152721
 31
0.0
  0
LINE
  5
7F0
330
1F
100
AcDbEntity
  8
LOGO
 62
     4
100
AcDbLine
 10
1376.984165462744
 20
630.6052238811183
 30
0.0
 11
1376.984165462744
 21
622.8510828152721
 31
0.0
  0
LINE
  5
7F1
330
1F
100
AcDbEntity
  8
LOGO
 62
     4
100
AcDbLine
 10
1389.861480346925
 20
622.8510828152721
 30
0.0
 11
1376.984165462744
 21
622.8510828152721
 31
0.0
  0
LINE
  5
7F2
330
1F
100
AcDbEntity
  8
LOGO
 62
     4
100
AcDbLine
 10
1397.317765087098
 20
640.1216697346566
 30
0.0
 11
1388.544737733349
 21
640.1216697346566
 31
0.0
  0
LINE
  5
7F3
330
1F
100
AcDbEntity
  8
LOGO
 62
     4
100
AcDbLine
 10
1397.317765087098
 20
633.7773724989642
 30
0.0
 11
1388.544737733349
 21
633.7773724989642
 31
0.0
  0
LINE
  5
7F4
330
1F
100
AcDbEntity
  8
LOGO
 62
     4
100
AcDbLine
 10
1388.544737733349
 20
640.1216697346566
 30
0.0
 11
1388.544737733349
 21
633.7773724989642
 31
0.0
  0
LINE
  5
7F5
330
1F
100
AcDbEntity
  8
LOGO
 62
     4
100
AcDbLine
 10
1397.317765087098
 20
640.1216697346566
 30
0.0
 11
1397.317765087098
 21
633.7773724989642
 31
0.0
  0
LINE
  5
7F6
330
1F
100
AcDbEntity
  8
LOGO
 62
     4
100
AcDbLine
 10
1393.41917873233
 20
633.7773724989642
 30
0.0
 11
1393.41917873233
 21
632.1912981900413
 31
0.0
  0
TEXT
  5
7F7
330
1F
100
AcDbEntity
  8
LOGO
  6
Continuous
 62
     7
100
AcDbText
 10
1389.38914673078
 20
635.1017352715537
 30
0.0
 40
3.701376
  1
5B
  7
CHINESET
100
AcDbText
  0
LINE
  5
7F8
330
1F
100
AcDbEntity
  8
LOGO
 62
     4
100
AcDbLine
 10
1389.861480346925
 20
630.6052238811183
 30
0.0
 11
1376.984165462744
 21
630.6052238811183
 31
0.0
  0
LINE
  5
7F9
330
1F
100
AcDbEntity
  8
LOGO
 62
     4
100
AcDbLine
 10
1405.859388450557
 20
630.6052238811183
 30
0.0
 11
1405.859388450557
 21
622.8510828152721
 31
0.0
  0
LINE
  5
7FA
330
1F
100
AcDbEntity
  8
LOGO
 62
     4
100
AcDbLine
 10
1394.373962865175
 20
630.6052238811183
 30
0.0
 11
1394.373962865175
 21
622.8510828152721
 31
0.0
  0
LINE
  5
7FB
330
1F
100
AcDbEntity
  8
LOGO
 62
     4
100
AcDbLine
 10
1405.859388450557
 20
622.8510828152721
 30
0.0
 11
1394.373962865175
 21
622.8510828152721
 31
0.0
  0
LINE
  5
7FC
330
1F
100
AcDbEntity
  8
LOGO
 62
     4
100
AcDbLine
 10
1405.852935149294
 20
640.1216697346566
 30
0.0
 11
1400.473974239607
 21
640.1216697346566
 31
0.0
  0
LINE
  5
7FD
330
1F
100
AcDbEntity
  8
LOGO
 62
     4
100
AcDbLine
 10
1405.852935149294
 20
633.7773724989642
 30
0.0
 11
1400.473974239607
 21
633.7773724989642
 31
0.0
  0
LINE
  5
7FE
330
1F
100
AcDbEntity
  8
LOGO
 62
     4
100
AcDbLine
 10
1400.473974239607
 20
640.1216697346566
 30
0.0
 11
1400.473974239607
 21
633.7773724989642
 31
0.0
  0
LINE
  5
7FF
330
1F
100
AcDbEntity
  8
LOGO
 62
     4
100
AcDbLine
 10
1405.852935149294
 20
640.1216697346566
 30
0.0
 11
1405.852935149294
 21
633.7773724989642
 31
0.0
  0
LINE
  5
800
330
1F
100
AcDbEntity
  8
LOGO
 62
     4
100
AcDbLine
 10
1403.849052279057
 20
633.7773724989642
 30
0.0
 11
1403.849052279056
 21
632.1912981900413
 31
0.0
  0
TEXT
  5
801
330
1F
100
AcDbEntity
  8
LOGO
  6
Continuous
 62
     7
100
AcDbText
 10
1401.892099984264
 20
635.1017352715537
 30
0.0
 40
3.701376
  1
*
  7
CHINESET
100
AcDbText
  0
LINE
  5
802
330
1F
100
AcDbEntity
  8
LOGO
 62
     4
100
AcDbLine
 10
1405.859388450557
 20
630.6052238811183
 30
0.0
 11
1394.373962865175
 21
630.6052238811183
 31
0.0
  0
TEXT
  5
803
330
1F
100
AcDbEntity
  8
LOGO
  6
Continuous
100
AcDbText
 10
1379.937212068419
 20
623.9455633836783
 30
138.5982630693801
 40
1.586304
  1
Manifold
 41
0.8
  7
CHINESET
100
AcDbText
  0
TEXT
  5
804
330
1F
100
AcDbEntity
  8
LOGO
100
AcDbText
 10
1380.576826932032
 20
626.8862291267659
 30
138.5982630693801
 40
2.643839999999999
  1
連座
  7
CHINESET
100
AcDbText
  0
TEXT
  5
805
330
1F
100
AcDbEntity
  8
LOGO
  6
Continuous
100
AcDbText
 10
1396.308369796958
 20
623.9455633836783
 30
138.5982630693801
 40
1.586304
  1
Number
 41
0.8
  7
CHINESET
100
AcDbText
  0
TEXT
  5
806
330
1F
100
AcDbEntity
  8
LOGO
100
AcDbText
 10
1396.198380692217
 20
626.8862291267659
 30
138.5982630693801
 40
2.643839999999999
  1
連座數
  7
CHINESET
100
AcDbText
  0
LINE
  5
807
330
1F
100
AcDbEntity
  8
LOGO
 62
     4
100
AcDbLine
 10
1393.41917873233
 20
632.1912981900413
 30
0.0
 11
1384.033384613513
 21
632.1912981900413
 31
0.0
  0
LINE
  5
808
330
1F
100
AcDbEntity
  8
LOGO
 62
     4
100
AcDbLine
 10
1384.033384613513
 20
630.6052238811183
 30
0.0
 11
1384.033384613513
 21
632.1912981900413
 31
0.0
  0
LINE
  5
809
330
1F
100
AcDbEntity
  8
LOGO
 62
     4
100
AcDbLine
 10
1400.116675657865
 20
630.6052238811183
 30
0.0
 11
1400.116675657865
 21
632.1912981900413
 31
0.0
  0
LINE
  5
80A
330
1F
100
AcDbEntity
  8
LOGO
 62
     4
100
AcDbLine
 10
1403.849052279057
 20
632.1912981900413
 30
0.0
 11
1400.116675657865
 21
632.1912981900413
 31
0.0
  0
POINT
  5
80B
330
1F
100
AcDbEntity
  8
0
 60
     1
100
AcDbPoint
 10
-845.6520510926221
 20
-97.20386385684378
 30
0.0
1001
GENIUS_GENOBJ-N-CRS_13
1002
{
1000
OWNER
1000
GEN
1002
}
1001
GENIUS_GENOLIS_13
1002
{
1000
ENT
1005
0
1005
0
1005
0
1005
7DA
1002
}
1001
GENIUS_GENOENT_13
1002
{
1000
MYREF
1005
80B
1002
}
1002
{
1000
GRP
1005
0
1002
}
1001
GENIUS_GENODEF_13
1002
{
1000
HIER
1070
    10
1002
}
1002
{
1000
MANEDIT
1070
     1
1002
}
1002
{
1000
NOSEL
1070
     0
1002
}
1002
{
1000
BEHIND
1070
     0
1002
}
1002
{
1000
OTHER
1070
     0
1002
}
1002
{
1000
REACTOR
1002
}
  0
POINT
  5
80C
330
1F
100
AcDbEntity
  8
0
 60
     1
100
AcDbPoint
 10
-856.9766363154768
 20
-88.32827737820753
 30
0.0
1001
GENIUS_GENOBJ-N-CRS_13
1002
{
1000
OWNER
1000
GEN
1002
}
1001
GENIUS_GENOLIS_13
1002
{
1000
ENT
1005
0
1005
0
1005
0
1005
7D9
1002
}
1001
GENIUS_GENOENT_13
1002
{
1000
MYREF
1005
80C
1002
}
1002
{
1000
GRP
1005
0
1002
}
1001
GENIUS_GENODEF_13
1002
{
1000
HIER
1070
    10
1002
}
1002
{
1000
MANEDIT
1070
     1
1002
}
1002
{
1000
NOSEL
1070
     0
1002
}
1002
{
1000
BEHIND
1070
     0
1002
}
1002
{
1000
OTHER
1070
     0
1002
}
1002
{
1000
REACTOR
1002
}
  0
POINT
  5
80D
330
1F
100
AcDbEntity
  8
0
 60
     1
100
AcDbPoint
 10
-850.6179626176399
 20
-97.20386385684378
 30
0.0
1001
GENIUS_GENOBJ-N-CRS_13
1002
{
1000
OWNER
1000
GEN
1002
}
1001
GENIUS_GENOLIS_13
1002
{
1000
ENT
1005
0
1005
0
1005
0
1005
7D8
1002
}
1001
GENIUS_GENOENT_13
1002
{
1000
MYREF
1005
80D
1002
}
1002
{
1000
GRP
1005
0
1002
}
1001
GENIUS_GENODEF_13
1002
{
1000
HIER
1070
    10
1002
}
1002
{
1000
MANEDIT
1070
     1
1002
}
1002
{
1000
NOSEL
1070
     0
1002
}
1002
{
1000
BEHIND
1070
     0
1002
}
1002
{
1000
OTHER
1070
     0
1002
}
1002
{
1000
REACTOR
1002
}
  0
LINE
  5
888
330
1F
100
AcDbEntity
  8
0
100
AcDbLine
 10
1385.436685262316
 20
709.7995463480758
 30
0.0
 11
1385.436685262316
 21
661.4155463480762
 31
0.0
  0
LINE
  5
889
330
1F
100
AcDbEntity
  8
0
100
AcDbLine
 10
1431.004113388271
 20
709.7995463480762
 30
0.0
 11
1431.004113388271
 21
700.1227463480761
 31
0.0
  0
LINE
  5
88A
330
1F
100
AcDbEntity
  8
0
100
AcDbLine
 10
1449.148113388271
 20
709.7995463480762
 30
0.0
 11
1449.148113388271
 21
700.1227463480764
 31
0.0
  0
LINE
  5
88B
330
1F
100
AcDbEntity
  8
0
100
AcDbLine
 10
1412.86011338827
 20
709.7995463480758
 30
0.0
 11
1412.860113388273
 21
661.4155463480762
 31
0.0
  0
LINE
  5
88C
330
1F
100
AcDbEntity
  8
0
100
AcDbLine
 10
1385.436685262316
 20
700.1227463480761
 30
0.0
 11
1449.148113388271
 21
700.1227463480761
 31
0.0
  0
LINE
  5
88D
330
1F
100
AcDbEntity
  8
0
100
AcDbLine
 10
1385.436685262316
 20
704.961146348076
 30
0.0
 11
1449.148113388271
 21
704.961146348076
 31
0.0
  0
TEXT
  5
88E
330
1F
100
AcDbEntity
  8
0
100
AcDbText
 10
1398.41982216172
 20
700.94520424655
 30
0.0
 40
3.037726430252237
  1
2
 41
0.8
  7
CHINESET
 72
     4
 11
1399.229882543121
 21
702.4640674616761
 31
0.0
100
AcDbText
  0
TEXT
  5
88F
330
1F
100
AcDbEntity
  8
0
100
AcDbText
 10
1387.204905287637
 20
706.4431700584535
 30
0.0
 40
2.4192
  1
No. of stations
 41
0.8
  7
CHINESET
100
AcDbText
  0
TEXT
  5
890
330
1F
100
AcDbEntity
  8
0
100
AcDbText
 10
1417.381102404079
 20
700.9702695624277
 30
0.0
 40
3.023999999999999
  1
30.5
 41
0.8
  7
CHINESET
100
AcDbText
  0
TEXT
  5
891
330
1F
100
AcDbEntity
  8
0
100
AcDbText
 10
1420.320979825882
 20
705.8306075064628
 30
0.0
 40
3.023999999999999
  1
P
 41
0.8
  7
CHINESET
100
AcDbText
  0
LINE
  5
892
330
1F
100
AcDbEntity
  8
0
100
AcDbLine
 10
1385.436685262316
 20
709.7995463480762
 30
0.0
 11
1449.148113388271
 21
709.7995463480762
 31
0.0
  0
LINE
  5
893
330
1F
100
AcDbEntity
  8
0
100
AcDbLine
 10
1431.00411338827
 20
709.7995463480758
 30
0.0
 11
1431.004113388273
 21
661.4155463480762
 31
0.0
  0
LINE
  5
894
330
1F
100
AcDbEntity
  8
0
100
AcDbLine
 10
1449.14811338827
 20
709.7995463480758
 30
0.0
 11
1449.148113388273
 21
661.4155463480762
 31
0.0
  0
LINE
  5
895
330
1F
100
AcDbEntity
  8
0
100
AcDbLine
 10
1385.436685262316
 20
695.2843463480762
 30
0.0
 11
1449.148113388271
 21
695.2843463480762
 31
0.0
  0
LINE
  5
896
330
1F
100
AcDbEntity
  8
0
100
AcDbLine
 10
1385.436685262316
 20
690.4459463480762
 30
0.0
 11
1449.148113388271
 21
690.4459463480762
 31
0.0
  0
LINE
  5
897
330
1F
100
AcDbEntity
  8
0
100
AcDbLine
 10
1385.436685262316
 20
685.6075463480761
 30
0.0
 11
1449.148113388271
 21
685.6075463480761
 31
0.0
  0
LINE
  5
898
330
1F
100
AcDbEntity
  8
0
100
AcDbLine
 10
1385.436685262316
 20
680.7691463480762
 30
0.0
 11
1449.148113388271
 21
680.7691463480762
 31
0.0
  0
LINE
  5
899
330
1F
100
AcDbEntity
  8
0
100
AcDbLine
 10
1385.436685262316
 20
675.9307463480761
 30
0.0
 11
1449.148113388271
 21
675.9307463480761
 31
0.0
  0
LINE
  5
89A
330
1F
100
AcDbEntity
  8
0
100
AcDbLine
 10
1385.436685262316
 20
671.0923463480762
 30
0.0
 11
1449.148113388271
 21
671.0923463480762
 31
0.0
  0
LINE
  5
89B
330
1F
100
AcDbEntity
  8
0
100
AcDbLine
 10
1385.436685262316
 20
666.2539463480761
 30
0.0
 11
1449.148113388271
 21
666.2539463480761
 31
0.0
  0
LINE
  5
89C
330
1F
100
AcDbEntity
  8
0
100
AcDbLine
 10
1385.436685262316
 20
661.4155463480762
 30
0.0
 11
1449.148113388271
 21
661.4155463480762
 31
0.0
  0
TEXT
  5
89D
330
1F
100
AcDbEntity
  8
0
100
AcDbText
 10
1398.41982216172
 20
696.10680424655
 30
0.0
 40
3.037726430252237
  1
3
 41
0.8
  7
CHINESET
 72
     4
 11
1399.229882543121
 21
697.6256674616761
 31
0.0
100
AcDbText
  0
TEXT
  5
89E
330
1F
100
AcDbEntity
  8
0
100
AcDbText
 10
1398.361960705906
 20
691.26840424655
 30
0.0
 40
3.037726430252237
  1
4
 41
0.8
  7
CHINESET
 72
     4
 11
1399.229882543121
 21
692.7872674616761
 31
0.0
100
AcDbText
  0
TEXT
  5
89F
330
1F
100
AcDbEntity
  8
0
100
AcDbText
 10
1398.419822161721
 20
686.4300042465501
 30
0.0
 40
3.037726430252237
  1
5
 41
0.8
  7
CHINESET
 72
     4
 11
1399.229882543121
 21
687.9488674616761
 31
0.0
100
AcDbText
  0
TEXT
  5
8A0
330
1F
100
AcDbEntity
  8
0
100
AcDbText
 10
1398.477683617535
 20
681.59160424655
 30
0.0
 40
3.037726430252237
  1
6
 41
0.8
  7
CHINESET
 72
     4
 11
1399.229882543121
 21
683.1104674616762
 31
0.0
100
AcDbText
  0
TEXT
  5
8A1
330
1F
100
AcDbEntity
  8
0
100
AcDbText
 10
1398.419822161721
 20
676.7532042465501
 30
0.0
 40
3.037726430252237
  1
7
 41
0.8
  7
CHINESET
 72
     4
 11
1399.229882543121
 21
678.2720674616761
 31
0.0
100
AcDbText
  0
TEXT
  5
8A2
330
1F
100
AcDbEntity
  8
0
100
AcDbText
 10
1398.419822161721
 20
671.91480424655
 30
0.0
 40
3.037726430252237
  1
8
 41
0.8
  7
CHINESET
 72
     4
 11
1399.229882543122
 21
673.4336674616761
 31
0.0
100
AcDbText
  0
TEXT
  5
8A3
330
1F
100
AcDbEntity
  8
0
100
AcDbText
 10
1398.477683617536
 20
667.07640424655
 30
0.0
 40
3.037726430252237
  1
9
 41
0.8
  7
CHINESET
 72
     4
 11
1399.229882543123
 21
668.5952674616761
 31
0.0
100
AcDbText
  0
TEXT
  5
8A4
330
1F
100
AcDbEntity
  8
0
100
AcDbText
 10
1397.494038868693
 20
662.2380042465501
 30
0.0
 40
3.037726430252237
  1
10
 41
0.8
  7
CHINESET
 72
     4
 11
1399.229882543123
 21
663.7568674616761
 31
0.0
100
AcDbText
  0
TEXT
  5
8A5
330
1F
100
AcDbEntity
  8
0
100
AcDbText
 10
1435.525102404079
 20
700.9702695624277
 30
0.0
 40
3.023999999999999
  1
38.5
 41
0.8
  7
CHINESET
100
AcDbText
  0
TEXT
  5
8A6
330
1F
100
AcDbEntity
  8
0
100
AcDbText
 10
1417.381102404079
 20
696.1318695624277
 30
0.0
 40
3.023999999999999
  1
41
 41
0.8
  7
CHINESET
100
AcDbText
  0
TEXT
  5
8A7
330
1F
100
AcDbEntity
  8
0
100
AcDbText
 10
1435.525102404079
 20
696.1318695624277
 30
0.0
 40
3.023999999999999
  1
49
 41
0.8
  7
CHINESET
100
AcDbText
  0
TEXT
  5
8A8
330
1F
100
AcDbEntity
  8
0
100
AcDbText
 10
1417.38110240408
 20
691.2934695624277
 30
0.0
 40
3.023999999999999
  1
51.5
 41
0.8
  7
CHINESET
100
AcDbText
  0
TEXT
  5
8A9
330
1F
100
AcDbEntity
  8
0
100
AcDbText
 10
1435.52510240408
 20
691.2934695624277
 30
0.0
 40
3.023999999999999
  1
59.5
 41
0.8
  7
CHINESET
100
AcDbText
  0
TEXT
  5
8AA
330
1F
100
AcDbEntity
  8
0
100
AcDbText
 10
1417.38110240408
 20
686.4550695624277
 30
0.0
 40
3.023999999999999
  1
62
 41
0.8
  7
CHINESET
100
AcDbText
  0
TEXT
  5
8AB
330
1F
100
AcDbEntity
  8
0
100
AcDbText
 10
1435.52510240408
 20
686.4550695624277
 30
0.0
 40
3.023999999999999
  1
70
 41
0.8
  7
CHINESET
100
AcDbText
  0
TEXT
  5
8AC
330
1F
100
AcDbEntity
  8
0
100
AcDbText
 10
1417.38110240408
 20
681.6166695624278
 30
0.0
 40
3.023999999999999
  1
72.5
 41
0.8
  7
CHINESET
100
AcDbText
  0
TEXT
  5
8AD
330
1F
100
AcDbEntity
  8
0
100
AcDbText
 10
1435.52510240408
 20
681.6166695624278
 30
0.0
 40
3.023999999999999
  1
80.5
 41
0.8
  7
CHINESET
100
AcDbText
  0
TEXT
  5
8AE
330
1F
100
AcDbEntity
  8
0
100
AcDbText
 10
1417.38110240408
 20
676.7782695624277
 30
0.0
 40
3.023999999999999
  1
83
 41
0.8
  7
CHINESET
100
AcDbText
  0
TEXT
  5
8AF
330
1F
100
AcDbEntity
  8
0
100
AcDbText
 10
1435.52510240408
 20
676.7782695624277
 30
0.0
 40
3.023999999999999
  1
91
 41
0.8
  7
CHINESET
100
AcDbText
  0
TEXT
  5
8B0
330
1F
100
AcDbEntity
  8
0
100
AcDbText
 10
1417.381102404081
 20
671.9398695624277
 30
0.0
 40
3.023999999999999
  1
93.5
 41
0.8
  7
CHINESET
100
AcDbText
  0
TEXT
  5
8B1
330
1F
100
AcDbEntity
  8
0
100
AcDbText
 10
1435.525102404081
 20
671.9398695624277
 30
0.0
 40
3.023999999999999
  1
101.5
 41
0.8
  7
CHINESET
100
AcDbText
  0
TEXT
  5
8B2
330
1F
100
AcDbEntity
  8
0
100
AcDbText
 10
1417.381102404081
 20
667.1014695624275
 30
0.0
 40
3.023999999999999
  1
104
 41
0.8
  7
CHINESET
100
AcDbText
  0
TEXT
  5
8B3
330
1F
100
AcDbEntity
  8
0
100
AcDbText
 10
1435.525102404081
 20
667.1014695624275
 30
0.0
 40
3.023999999999999
  1
112
 41
0.8
  7
CHINESET
100
AcDbText
  0
TEXT
  5
8B4
330
1F
100
AcDbEntity
  8
0
100
AcDbText
 10
1417.381102404081
 20
662.2630695624277
 30
0.0
 40
3.023999999999999
  1
114.5
 41
0.8
  7
CHINESET
100
AcDbText
  0
TEXT
  5
8B5
330
1F
100
AcDbEntity
  8
0
100
AcDbText
 10
1435.525102404081
 20
662.2630695624277
 30
0.0
 40
3.023999999999999
  1
122.5
 41
0.8
  7
CHINESET
100
AcDbText
  0
TEXT
  5
8B6
330
1F
100
AcDbEntity
  8
0
100
AcDbText
 10
1438.464979825882
 20
705.8306075064628
 30
0.0
 40
3.023999999999999
  1
L
 41
0.8
  7
CHINESET
100
AcDbText
  0
CIRCLE
  5
8B7
330
1F
100
AcDbEntity
  8
0
100
AcDbCircle
 10
1383.137954149489
 20
702.2840328899903
 30
0.0
 40
1.232373610538005
  0
CIRCLE
  5
8B8
330
1F
100
AcDbEntity
  8
0
100
AcDbCircle
 10
1383.137954149489
 20
702.2840328899903
 30
0.0
 40
0.8019096229170319
  0
DIMENSION
  5
961
102
{ACAD_XDICTIONARY
360
96E
102
}
102
{ACAD_REACTORS
330
96F
102
}
330
1F
100
AcDbEntity
  8
AM_REFDIM
100
AcDbDimension
  2
*D52
 10
1377.730449001834
 20
786.9949556557883
 30
0.0
 11
1377.730449001833
 21
767.7449556557885
 31
0.0
 70
   160
 71
     5
 42
38.5
  3
AM_ANSI$0
100
AcDbAlignedDimension
 13
1360.070401865298
 23
748.4949556557883
 33
0.0
 14
1360.070401865298
 24
786.9949556557883
 34
0.0
 50
90.0
100
AcDbRotatedDimension
1001
ACAD
1000
DSTYLE
1002
{
1070
    74
1070
     1
1070
   271
1070
     1
1070
   288
1070
     1
1002
}
  0
LINE
  5
9BF
330
1F
100
AcDbEntity
  8
AM_7
  6
AM_ISO08W050x2
 48
0.2
100
AcDbLine
 10
1347.493711586814
 20
777.2949556557882
 30
0.0
 11
1351.277050015646
 21
777.2949556557882
 31
0.0
  0
LINE
  5
9C0
330
1F
100
AcDbEntity
  8
AM_7
  6
AM_ISO08W050x2
 48
0.2
100
AcDbLine
 10
1349.470401865298
 20
775.6788640682493
 30
0.0
 11
1349.470401865298
 21
779.1013640682494
 31
0.0
  0
LINE
  5
9C1
330
1F
100
AcDbEntity
  8
AM_7
  6
AM_ISO08W050x2
 48
0.2
100
AcDbLine
 10
1321.693711586814
 20
768.6949556557883
 30
0.0
 11
1325.477050015646
 21
768.6949556557883
 31
0.0
  0
LINE
  5
9C2
330
1F
100
AcDbEntity
  8
AM_7
  6
AM_ISO08W050x2
 48
0.2
100
AcDbLine
 10
1323.670401865298
 20
767.0788640682494
 30
0.0
 11
1323.670401865298
 21
770.5013640682494
 31
0.0
  0
LINE
  5
9C3
330
1F
100
AcDbEntity
  8
AM_7
  6
AM_ISO08W050x2
 48
0.2
100
AcDbLine
 10
1321.693711586814
 20
758.1949556557884
 30
0.0
 11
1325.477050015646
 21
758.1949556557884
 31
0.0
  0
LINE
  5
9C4
330
1F
100
AcDbEntity
  8
AM_7
  6
AM_ISO08W050x2
 48
0.2
100
AcDbLine
 10
1323.670401865298
 20
756.5788640682495
 30
0.0
 11
1323.670401865298
 21
760.0013640682495
 31
0.0
  0
LINE
  5
A15
330
1F
100
AcDbEntity
  8
SL
  6
ACISOTGB
 62
     4
100
AcDbLine
 10
1366.02713681691
 20
755.130922492498
 30
0.0
 11
1311.371399358025
 21
755.130922492498
 31
0.0
  0
INSERT
  5
A16
330
1F
100
AcDbEntity
  8
0
100
AcDbBlockReference
  2
A$C3CA723EF
 10
1365.123936476043
 20
755.130922492498
 30
0.0
 41
0.7
 42
0.7
 43
0.7
 50
90.0
  0
INSERT
  5
C90
330
1F
100
AcDbEntity
  8
0
100
AcDbBlockReference
  2
A$C68053E03
 10
1386.892233154578
 20
753.6810335430748
 30
0.0
  0
ENDSEC
  0
SECTION
  2
OBJECTS
  0
DICTIONARY
  5
C
330
0
100
AcDbDictionary
281
     1
  3
ACAD_COLOR
350
BE
  3
ACAD_GROUP
350
D
  3
ACAD_LAYOUT
350
1A
  3
ACAD_MATERIAL
350
BD
  3
ACAD_MLINESTYLE
350
17
  3
ACAD_PLOTSETTINGS
350
19
  3
ACAD_PLOTSTYLENAME
350
E
  3
ACAD_TABLESTYLE
350
11A
  3
ACDBHEADERROUNDTRIPXREC
350
CCA
  3
AcDbVariableDictionary
350
94
  3
AcmDictionary
350
5B
  3
AMG
350
41
  3
AMGSNAPSETTINGS
350
1B8
  3
DWGPROPS
350
CC9
  0
DICTIONARY
  5
32C
330
2
100
AcDbDictionary
280
     1
281
     1
  3
ACAD_LAYERFILTERS
360
8BA
  3
ACAD_LAYERSTATES
360
32D
  3
ACLYDICTIONARY
360
8B9
  0
DICTIONARY
  5
8F
330
1F
100
AcDbDictionary
280
     1
281
     1
  3
ACAD_SORTENTS
360
A7E
  0
DICTIONARY
  5
9EB
330
9EA
100
AcDbDictionary
280
     1
281
     1
  3
ACAD_SORTENTS
360
9EC
  0
DICTIONARY
  5
C8B
330
C78
100
AcDbDictionary
280
     1
281
     1
  3
ACAD_SORTENTS
360
C8C
  0
DICTIONARY
  5
CA4
330
4C3
100
AcDbDictionary
280
     1
281
     1
  3
ACMDIMBREAKPERSREACTOR
360
CA5
  0
DICTIONARY
  5
96E
330
961
100
AcDbDictionary
280
     1
281
     1
  3
ACAD_DIMASSOC
360
96F
  0
DICTIONARY
  5
BE
102
{ACAD_REACTORS
330
C
102
}
330
C
100
AcDbDictionary
281
     1
  0
DICTIONARY
  5
D
102
{ACAD_REACTORS
330
C
102
}
330
C
100
AcDbDictionary
281
     1
  0
DICTIONARY
  5
1A
102
{ACAD_REACTORS
330
C
102
}
330
C
100
AcDbDictionary
281
     1
  3
Model
350
22
  3
配置1
350
1E
  3
配置2
350
26
  0
DICTIONARY
  5
BD
102
{ACAD_REACTORS
330
C
102
}
330
C
100
AcDbDictionary
281
     1
  0
DICTIONARY
  5
17
102
{ACAD_REACTORS
330
C
102
}
330
C
100
AcDbDictionary
281
     1
  3
Standard
350
18
  0
DICTIONARY
  5
19
102
{ACAD_REACTORS
330
C
102
}
330
C
100
AcDbDictionary
281
     1
  0
ACDBDICTIONARYWDFLT
  5
E
102
{ACAD_REACTORS
330
C
102
}
330
C
100
AcDbDictionary
281
     1
  3
Normal
350
F
100
AcDbDictionaryWithDefault
340
F
  0
DICTIONARY
  5
11A
102
{ACAD_REACTORS
330
C
102
}
330
C
100
AcDbDictionary
281
     1
  3
Standard
350
11B
  0
DICTIONARY
  5
CCA
102
{ACAD_REACTORS
330
C
102
}
330
C
100
AcDbDictionary
281
     1
  0
DICTIONARY
  5
94
102
{ACAD_REACTORS
330
C
102
}
330
C
100
AcDbDictionary
281
     1
  3
CTABLESTYLE
350
138
  3
DIMASSOC
350
96
  3
INDEXCTL
350
95
  3
PROJECTNAME
350
CC7
  0
DICTIONARY
  5
5B
102
{ACAD_REACTORS
330
C
102
}
330
C
100
AcDbDictionary
281
     1
  3
AcmBOM
350
1B5
  3
AcmStdDictionary
350
61
  3
AMDTSECTSYM_ARROWCOLOR
350
123
  0
DICTIONARY
  5
41
102
{ACAD_REACTORS
330
C
102
}
330
C
100
AcDbDictionary
281
     1
  0
DICTIONARY
  5
1B8
102
{ACAD_REACTORS
330
C
102
}
330
C
100
AcDbDictionary
281
     1
  0
XRECORD
  5
CC9
102
{ACAD_REACTORS
330
C
102
}
330
C
100
AcDbXrecord
280
     1
  1
DWGPROPS COOKIE
  2

  3

  4

  6

  7

  8

  9

300
AmdtFileType=84
301
=
302
=
303
=
304
=
305
=
306
=
307
=
308
=
309
=
 40
0.0800745486111111
 41
2455118.495988414
 42
2455118.576062246
  1

 90
        1
  0
DICTIONARY
  5
8BA
102
{ACAD_REACTORS
330
32C
102
}
330
32C
100
AcDbDictionary
281
     1
  0
DICTIONARY
  5
32D
102
{ACAD_REACTORS
330
32C
102
}
330
32C
100
AcDbDictionary
281
     1
  0
DICTIONARY
  5
8B9
102
{ACAD_REACTORS
330
32C
102
}
330
32C
100
AcDbDictionary
281
     1
1001
ACAD
1000
<All
  0
SORTENTSTABLE
  5
A7E
102
{ACAD_REACTORS
330
8F
102
}
330
8F
100
AcDbSortentsTable
330
1F
331
7C8
  5
7C8
331
7EA
  5
7EA
331
4FE
  5
4FE
331
88C
  5
88C
331
8AE
  5
8AE
331
79D
  5
79D
331
520
  5
520
331
4E8
  5
4E8
331
482
  5
482
331
7BF
  5
7BF
331
7D9
  5
7D9
331
7FB
  5
7FB
331
9C3
  5
9C3
331
89D
  5
89D
331
7AE
  5
7AE
331
78C
  5
78C
331
50F
  5
50F
331
493
  5
493
331
479
  5
479
331
457
  5
457
331
7E8
  5
7E8
331
80A
  5
80A
331
4FC
  5
4FC
331
88A
  5
88A
331
8AC
  5
8AC
331
79B
  5
79B
331
51E
  5
51E
331
4E6
  5
4E6
331
4C4
  5
4C4
331
4A2
  5
4A2
331
480
  5
480
331
A16
  5
A16
331
7D7
  5
7D7
331
7F9
  5
7F9
331
50D
  5
50D
331
9C1
  5
9C1
331
89B
  5
89B
331
7AC
  5
7AC
331
78A
  5
78A
331
4F7
  5
4F7
331
4D5
  5
4D5
331
491
  5
491
331
477
  5
477
331
466
  5
466
331
455
  5
455
331
808
  5
808
331
4FA
  5
4FA
331
888
  5
888
331
8AA
  5
8AA
331
799
  5
799
331
51C
  5
51C
331
4E4
  5
4E4
331
4C2
  5
4C2
331
4A0
  5
4A0
331
7BB
  5
7BB
331
7D5
  5
7D5
331
961
  5
961
331
7F7
  5
7F7
331
9BF
  5
9BF
331
899
  5
899
331
50B
  5
50B
331
4D3
  5
4D3
331
48F
  5
48F
331
475
  5
475
331
7E6
  5
7E6
331
464
  5
464
331
453
  5
453
331
4F8
  5
4F8
331
8A8
  5
8A8
331
797
  5
797
331
51A
  5
51A
331
4E2
  5
4E2
331
4C0
  5
4C0
331
7D3
  5
7D3
331
7F5
  5
7F5
331
897
  5
897
331
7A8
  5
7A8
331
52B
  5
52B
331
509
  5
509
331
4D1
  5
4D1
331
48D
  5
48D
331
473
  5
473
331
7E4
  5
7E4
331
806
  5
806
331
49E
  5
49E
331
462
  5
462
331
451
  5
451
331
8A6
  5
8A6
331
7B7
  5
7B7
331
795
  5
795
331
518
  5
518
331
4E0
  5
4E0
331
7D1
  5
7D1
331
7F3
  5
7F3
331
507
  5
507
331
895
  5
895
331
529
  5
529
331
4F1
  5
4F1
331
48B
  5
48B
331
471
  5
471
331
8B7
  5
8B7
331
7E2
  5
7E2
331
804
  5
804
331
4BE
  5
4BE
331
49C
  5
49C
331
460
  5
460
331
43E
  5
43E
331
8A4
  5
8A4
331
793
  5
793
331
7CF
  5
7CF
331
7F1
  5
7F1
331
505
  5
505
331
8B5
  5
8B5
331
893
  5
893
331
7E0
  5
7E0
331
7C6
  5
7C6
331
527
  5
527
331
4EF
  5
4EF
331
4CD
  5
4CD
331
802
  5
802
331
516
  5
516
331
49A
  5
49A
331
489
  5
489
331
46F
  5
46F
331
8A2
  5
8A2
331
7B3
  5
7B3
331
791
  5
791
331
7CD
  5
7CD
331
7EF
  5
7EF
331
8B3
  5
8B3
331
891
  5
891
331
525
  5
525
331
503
  5
503
331
4CB
  5
4CB
331
4A9
  5
4A9
331
487
  5
487
331
46D
  5
46D
331
7DE
  5
7DE
331
800
  5
800
331
514
  5
514
331
4DC
  5
4DC
331
498
  5
498
331
47E
  5
47E
331
45C
  5
45C
331
8A0
  5
8A0
331
7CB
  5
7CB
331
7B1
  5
7B1
331
7ED
  5
7ED
331
501
  5
501
331
8B1
  5
8B1
331
88F
  5
88F
331
523
  5
523
331
4EB
  5
4EB
331
4C9
  5
4C9
331
4A7
  5
4A7
331
485
  5
485
331
7DC
  5
7DC
331
7FE
  5
7FE
331
78F
  5
78F
331
512
  5
512
331
4DA
  5
4DA
331
496
  5
496
331
47C
  5
47C
331
45A
  5
45A
331
7C9
  5
7C9
331
7EB
  5
7EB
331
4FF
  5
4FF
331
88D
  5
88D
331
8AF
  5
8AF
331
79E
  5
79E
331
521
  5
521
331
4E9
  5
4E9
331
483
  5
483
331
7C0
  5
7C0
331
7DA
  5
7DA
331
7FC
  5
7FC
331
9C4
  5
9C4
331
89E
  5
89E
331
7AF
  5
7AF
331
78D
  5
78D
331
510
  5
510
331
494
  5
494
331
47A
  5
47A
331
458
  5
458
331
7E9
  5
7E9
331
4FD
  5
4FD
331
88B
  5
88B
331
8AD
  5
8AD
331
79C
  5
79C
331
51F
  5
51F
331
4E7
  5
4E7
331
4C5
  5
4C5
331
4A3
  5
4A3
331
481
  5
481
331
7D8
  5
7D8
331
7FA
  5
7FA
331
9C2
  5
9C2
331
89C
  5
89C
331
7AD
  5
7AD
331
78B
  5
78B
331
50E
  5
50E
331
492
  5
492
331
478
  5
478
331
456
  5
456
331
809
  5
809
331
4FB
  5
4FB
331
889
  5
889
331
8AB
  5
8AB
331
79A
  5
79A
331
51D
  5
51D
331
4E5
  5
4E5
331
4C3
  5
4C3
331
4A1
  5
4A1
331
A15
  5
A15
331
7D6
  5
7D6
331
7F8
  5
7F8
331
50C
  5
50C
331
9C0
  5
9C0
331
89A
  5
89A
331
4F6
  5
4F6
331
4D4
  5
4D4
331
490
  5
490
331
476
  5
476
331
7E7
  5
7E7
331
465
  5
465
331
454
  5
454
331
4F9
  5
4F9
331
8A9
  5
8A9
331
798
  5
798
331
51B
  5
51B
331
4E3
  5
4E3
331
4C1
  5
4C1
331
7D4
  5
7D4
331
7F6
  5
7F6
331
50A
  5
50A
331
898
  5
898
331
52C
  5
52C
331
4F4
  5
4F4
331
4D2
  5
4D2
331
48E
  5
48E
331
474
  5
474
331
7E5
  5
7E5
331
807
  5
807
331
49F
  5
49F
331
463
  5
463
331
452
  5
452
331
8A7
  5
8A7
331
796
  5
796
331
519
  5
519
331
4E1
  5
4E1
331
7D2
  5
7D2
331
7F4
  5
7F4
331
508
  5
508
331
896
  5
896
331
52A
  5
52A
331
4F2
  5
4F2
331
4D0
  5
4D0
331
48C
  5
48C
331
472
  5
472
331
450
  5
450
331
7A7
  5
7A7
331
7E3
  5
7E3
331
805
  5
805
331
4BF
  5
4BF
331
49D
  5
49D
331
461
  5
461
331
43F
  5
43F
331
8A5
  5
8A5
331
794
  5
794
331
7D0
  5
7D0
331
7F2
  5
7F2
331
506
  5
506
331
894
  5
894
331
528
  5
528
331
4F0
  5
4F0
331
48A
  5
48A
331
470
  5
470
331
44E
  5
44E
331
8B6
  5
8B6
331
7E1
  5
7E1
331
7C7
  5
7C7
331
803
  5
803
331
517
  5
517
331
4BD
  5
4BD
331
49B
  5
49B
331
45F
  5
45F
331
43D
  5
43D
331
8B8
  5
8B8
331
8A3
  5
8A3
331
792
  5
792
331
7CE
  5
7CE
331
7F0
  5
7F0
331
892
  5
892
331
526
  5
526
331
504
  5
504
331
488
  5
488
331
46E
  5
46E
331
44C
  5
44C
331
8B4
  5
8B4
331
7C5
  5
7C5
331
7A3
  5
7A3
331
7DF
  5
7DF
331
801
  5
801
331
515
  5
515
331
4DD
  5
4DD
331
4BB
  5
4BB
331
499
  5
499
331
47F
  5
47F
331
43B
  5
43B
331
8A1
  5
8A1
331
7CC
  5
7CC
331
7B2
  5
7B2
331
790
  5
790
331
7EE
  5
7EE
331
8B2
  5
8B2
331
890
  5
890
331
524
  5
524
331
502
  5
502
331
4CA
  5
4CA
331
4A8
  5
4A8
331
486
  5
486
331
7DD
  5
7DD
331
7FF
  5
7FF
331
513
  5
513
331
4DB
  5
4DB
331
497
  5
497
331
47D
  5
47D
331
45B
  5
45B
331
7CA
  5
7CA
331
7B0
  5
7B0
331
7EC
  5
7EC
331
500
  5
500
331
88E
  5
88E
331
8B0
  5
8B0
331
79F
  5
79F
331
522
  5
522
331
4EA
  5
4EA
331
4A6
  5
4A6
331
484
  5
484
331
7C1
  5
7C1
331
7DB
  5
7DB
331
7FD
  5
7FD
331
89F
  5
89F
331
78E
  5
78E
331
511
  5
511
331
4D9
  5
4D9
331
495
  5
495
331
47B
  5
47B
331
459
  5
459
  0
SORTENTSTABLE
  5
9EC
102
{ACAD_REACTORS
330
9EB
102
}
330
9EB
100
AcDbSortentsTable
330
9EA
  0
SORTENTSTABLE
  5
C8C
102
{ACAD_REACTORS
330
C8B
102
}
330
C8B
100
AcDbSortentsTable
330
C78
  0
DIMASSOC
  5
96F
102
{ACAD_REACTORS
330
96E
102
}
330
96E
100
AcDbDimAssoc
330
961
 90
        3
 70
     0
 71
     0
  1
AcDbOsnapPointRef
 72
    13
331
4E1
 73
     2
 91
        0
 40
0.0
 10
0.0
 20
0.0
 30
2.000000000000000E+50
 75
     0
  1
AcDbOsnapPointRef
 72
     1
331
4E1
 73
     2
 91
        0
 40
0.0
 10
0.0
 20
0.0
 30
2.000000000000000E+50
 75
     0
  0
LAYOUT
  5
22
102
{ACAD_XDICTIONARY
360
CCD
102
}
102
{ACAD_REACTORS
330
1A
102
}
330
1A
100
AcDbPlotSettings
  1

  2

  4

  6

 40
0.0
 41
0.0
 42
0.0
 43
0.0
 44
0.0
 45
0.0
 46
0.0
 47
0.0
 48
0.0
 49
0.0
140
0.0
141
0.0
142
1.0
143
1.0
 70
  1712
 72
     0
 73
     0
 74
     0
  7

 75
     0
147
1.0
148
0.0
149
0.0
100
AcDbLayout
  1
Model
 70
     1
 71
     0
 10
0.0
 20
0.0
 11
12.0
 21
9.0
 12
0.0
 22
0.0
 32
0.0
 14
0.0
 24
0.0
 34
0.0
 15
0.0
 25
0.0
 35
0.0
146
0.0
 13
0.0
 23
0.0
 33
0.0
 16
1.0
 26
0.0
 36
0.0
 17
0.0
 27
1.0
 37
0.0
 76
     0
330
1F
  0
LAYOUT
  5
1E
102
{ACAD_XDICTIONARY
360
CCB
102
}
102
{ACAD_REACTORS
330
1A
102
}
330
1A
100
AcDbPlotSettings
  1

  2

  4

  6

 40
0.0
 41
0.0
 42
0.0
 43
0.0
 44
0.0
 45
0.0
 46
0.0
 47
0.0
 48
0.0
 49
0.0
140
0.0
141
0.0
142
1.0
143
1.0
 70
   688
 72
     0
 73
     0
 74
     5
  7

 75
    16
147
1.0
148
0.0
149
0.0
100
AcDbLayout
  1
配置1
 70
     1
 71
     1
 10
0.0
 20
0.0
 11
420.0
 21
297.0
 12
0.0
 22
0.0
 32
0.0
 14
1.000000000000000E+20
 24
1.000000000000000E+20
 34
1.000000000000000E+20
 15
-1.000000000000000E+20
 25
-1.000000000000000E+20
 35
-1.000000000000000E+20
146
0.0
 13
0.0
 23
0.0
 33
0.0
 16
1.0
 26
0.0
 36
0.0
 17
0.0
 27
1.0
 37
0.0
 76
     0
330
1B
  0
LAYOUT
  5
26
102
{ACAD_XDICTIONARY
360
CCF
102
}
102
{ACAD_REACTORS
330
1A
102
}
330
1A
100
AcDbPlotSettings
  1

  2

  4

  6

 40
0.0
 41
0.0
 42
0.0
 43
0.0
 44
0.0
 45
0.0
 46
0.0
 47
0.0
 48
0.0
 49
0.0
140
0.0
141
0.0
142
1.0
143
1.0
 70
   688
 72
     0
 73
     0
 74
     5
  7

 75
    16
147
1.0
148
0.0
149
0.0
100
AcDbLayout
  1
配置2
 70
     1
 71
     2
 10
0.0
 20
0.0
 11
12.0
 21
9.0
 12
0.0
 22
0.0
 32
0.0
 14
0.0
 24
0.0
 34
0.0
 15
0.0
 25
0.0
 35
0.0
146
0.0
 13
0.0
 23
0.0
 33
0.0
 16
1.0
 26
0.0
 36
0.0
 17
0.0
 27
1.0
 37
0.0
 76
     0
330
23
  0
MLINESTYLE
  5
18
102
{ACAD_REACTORS
330
17
102
}
330
17
100
AcDbMlineStyle
  2
STANDARD
 70
     0
  3

 62
   256
 51
90.0
 52
90.0
 71
     2
 49
0.5
 62
   256
  6
BYLAYER
 49
-0.5
 62
   256
  6
BYLAYER
  0
ACDBPLACEHOLDER
  5
F
102
{ACAD_REACTORS
330
E
102
}
330
E
  0
TABLESTYLE
  5
11B
102
{ACAD_REACTORS
330
11A
102
}
330
11A
100
AcDbTableStyle
  3
Standard
 70
     0
 71
     0
 40
1.5
 41
1.5
280
     0
281
     0
  7
STANDARD
140
4.5
170
     2
 62
     0
 63
     7
283
     0
274
    -2
284
     1
 64
     0
275
    -2
285
     1
 65
     0
276
    -2
286
     1
 66
     0
277
    -2
287
     1
 67
     0
278
    -2
288
     1
 68
     0
279
    -2
289
     1
 69
     0
  7
STANDARD
140
6.0
170
     5
 62
     0
 63
     7
283
     0
274
    -2
284
     1
 64
     0
275
    -2
285
     1
 65
     0
276
    -2
286
     1
 66
     0
277
    -2
287
     1
 67
     0
278
    -2
288
     1
 68
     0
279
    -2
289
     1
 69
     0
  7
STANDARD
140
4.5
170
     5
 62
     0
 63
     7
283
     0
274
    -2
284
     1
 64
     0
275
    -2
285
     1
 65
     0
276
    -2
286
     1
 66
     0
277
    -2
287
     1
 67
     0
278
    -2
288
     1
 68
     0
279
    -2
289
     1
 69
     0
  0
DICTIONARYVAR
  5
138
102
{ACAD_REACTORS
330
94
102
}
330
94
100
DictionaryVariables
280
     0
  1
STANDARD
  0
DICTIONARYVAR
  5
96
102
{ACAD_REACTORS
330
94
102
}
330
94
100
DictionaryVariables
280
     0
  1
2
  0
DICTIONARYVAR
  5
95
102
{ACAD_REACTORS
330
94
102
}
330
94
100
DictionaryVariables
280
     0
  1
0
  0
DICTIONARYVAR
  5
CC7
102
{ACAD_REACTORS
330
94
102
}
330
94
100
DictionaryVariables
280
     0
  1

  0
DICTIONARY
  5
1B5
102
{ACAD_REACTORS
330
5B
102
}
330
5B
100
AcDbDictionary
281
     1
  0
DICTIONARY
  5
61
102
{ACAD_REACTORS
330
5B
102
}
330
5B
100
AcDbDictionary
281
     1
  0
XRECORD
  5
123
102
{ACAD_REACTORS
330
5B
102
}
330
5B
100
AcDbXrecord
280
     1
 90
-1023410169
  0
DICTIONARY
  5
CCD
330
22
100
AcDbDictionary
280
     1
281
     1
  3
ACAD_XREC_ROUNDTRIP
360
CCE
  0
DICTIONARY
  5
CCB
330
1E
100
AcDbDictionary
280
     1
281
     1
  3
ACAD_XREC_ROUNDTRIP
360
CCC
  0
DICTIONARY
  5
CCF
330
26
100
AcDbDictionary
280
     1
281
     1
  3
ACAD_XREC_ROUNDTRIP
360
CD0
  0
XRECORD
  5
CCE
102
{ACAD_REACTORS
330
CCD
102
}
330
CCD
100
AcDbXrecord
280
     1
102
SHADEPLOT
 70
     0
102
SHADEPLOTRESLEVEL
 70
     2
102
SHADEPLOTCUSTOMDPI
 70
   300
  0
XRECORD
  5
CCC
102
{ACAD_REACTORS
330
CCB
102
}
330
CCB
100
AcDbXrecord
280
     1
102
SHADEPLOT
 70
     0
102
SHADEPLOTRESLEVEL
 70
     2
102
SHADEPLOTCUSTOMDPI
 70
   300
  0
XRECORD
  5
CD0
102
{ACAD_REACTORS
330
CCF
102
}
330
CCF
100
AcDbXrecord
280
     1
102
SHADEPLOT
 70
     0
102
SHADEPLOTRESLEVEL
 70
     2
102
SHADEPLOTCUSTOMDPI
 70
   300
  0
ENDSEC
  0
EOF
