  0
SECTION
  2
HEADER
  9
$ACADVER
  1
AC1015
  9
$ACADMAINTVER
 70
    20
  9
$DWGCODEPAGE
  3
ANSI_950
  9
$INSBASE
 10
0.0
 20
0.0
 30
0.0
  9
$EXTMIN
 10
125.6152400227365
 20
180.4369040450331
 30
-0.0021982163068515
  9
$EXTMAX
 10
483.1519814691002
 20
540.4777202705477
 30
144.1656985664254
  9
$LIMMIN
 10
0.0
 20
0.0
  9
$LIMMAX
 10
420.0
 20
297.0
  9
$ORTHOMODE
 70
     1
  9
$REGENMODE
 70
     1
  9
$FILLMODE
 70
     1
  9
$QTEXTMODE
 70
     0
  9
$MIRRTEXT
 70
     1
  9
$LTSCALE
 40
1.0
  9
$ATTMODE
 70
     1
  9
$TEXTSIZE
 40
3.0
  9
$TRACEWID
 40
1.0
  9
$TEXTSTYLE
  7
STANDARD
  9
$CLAYER
  8
0
  9
$CELTYPE
  6
ByLayer
  9
$CECOLOR
 62
   256
  9
$CELTSCALE
 40
1.0
  9
$DISPSILH
 70
     0
  9
$DIMSCALE
 40
1.0
  9
$DIMASZ
 40
3.0
  9
$DIMEXO
 40
1.5
  9
$DIMDLI
 40
8.0
  9
$DIMRND
 40
0.0
  9
$DIMDLE
 40
0.0
  9
$DIMEXE
 40
1.5
  9
$DIMTP
 40
0.1
  9
$DIMTM
 40
0.1
  9
$DIMTXT
 40
3.5
  9
$DIMCEN
 40
0.0
  9
$DIMTSZ
 40
0.0
  9
$DIMTOL
 70
     0
  9
$DIMLIM
 70
     0
  9
$DIMTIH
 70
     0
  9
$DIMTOH
 70
     0
  9
$DIMSE1
 70
     0
  9
$DIMSE2
 70
     0
  9
$DIMTAD
 70
     1
  9
$DIMZIN
 70
     8
  9
$DIMBLK
  1

  9
$DIMASO
 70
     1
  9
$DIMSHO
 70
     1
  9
$DIMPOST
  1

  9
$DIMAPOST
  1
"
  9
$DIMALT
 70
     0
  9
$DIMALTD
 70
     2
  9
$DIMALTF
 40
0.0393701
  9
$DIMLFAC
 40
1.0
  9
$DIMTOFL
 70
     1
  9
$DIMTVP
 40
0.0
  9
$DIMTIX
 70
     0
  9
$DIMSOXD
 70
     0
  9
$DIMSAH
 70
     0
  9
$DIMBLK1
  1

  9
$DIMBLK2
  1

  9
$DIMSTYLE
  2
AM_ISO
  9
$DIMCLRD
 70
   256
  9
$DIMCLRE
 70
   256
  9
$DIMCLRT
 70
   256
  9
$DIMTFAC
 40
0.71
  9
$DIMGAP
 40
1.5
  9
$DIMJUST
 70
     0
  9
$DIMSD1
 70
     0
  9
$DIMSD2
 70
     0
  9
$DIMTOLJ
 70
     0
  9
$DIMTZIN
 70
     8
  9
$DIMALTZ
 70
     0
  9
$DIMALTTZ
 70
     0
  9
$DIMUPT
 70
     0
  9
$DIMDEC
 70
     2
  9
$DIMTDEC
 70
     2
  9
$DIMALTU
 70
     2
  9
$DIMALTTD
 70
     2
  9
$DIMTXSTY
  7
STANDARD
  9
$DIMAUNIT
 70
     0
  9
$DIMADEC
 70
     0
  9
$DIMALTRND
 40
0.0
  9
$DIMAZIN
 70
     2
  9
$DIMDSEP
 70
    46
  9
$DIMATFIT
 70
     3
  9
$DIMFRAC
 70
     0
  9
$DIMLDRBLK
  1

  9
$DIMLUNIT
 70
     2
  9
$DIMLWD
 70
    -1
  9
$DIMLWE
 70
    -1
  9
$DIMTMOVE
 70
     0
  9
$LUNITS
 70
     2
  9
$LUPREC
 70
     2
  9
$SKETCHINC
 40
1.0
  9
$FILLETRAD
 40
2.5
  9
$AUNITS
 70
     0
  9
$AUPREC
 70
     0
  9
$MENU
  1
.
  9
$ELEVATION
 40
0.0
  9
$PELEVATION
 40
0.0
  9
$THICKNESS
 40
0.0
  9
$LIMCHECK
 70
     0
  9
$CHAMFERA
 40
2.5
  9
$CHAMFERB
 40
2.5
  9
$CHAMFERC
 40
20.0
  9
$CHAMFERD
 40
0.0
  9
$SKPOLY
 70
     0
  9
$TDCREATE
 40
2453885.350345046
  9
$TDUCREATE
 40
2453885.017011713
  9
$TDUPDATE
 40
2453977.364116748
  9
$TDUUPDATE
 40
2453977.030783415
  9
$TDINDWG
 40
0.0059188773
  9
$TDUSRTIMER
 40
0.0059188773
  9
$USRTIMER
 70
     1
  9
$ANGBASE
 50
0.0
  9
$ANGDIR
 70
     0
  9
$PDMODE
 70
     0
  9
$PDSIZE
 40
0.0
  9
$PLINEWID
 40
0.0
  9
$SPLFRAME
 70
     0
  9
$SPLINETYPE
 70
     6
  9
$SPLINESEGS
 70
     8
  9
$HANDSEED
  5
99D
  9
$SURFTAB1
 70
     6
  9
$SURFTAB2
 70
     6
  9
$SURFTYPE
 70
     6
  9
$SURFU
 70
     6
  9
$SURFV
 70
     6
  9
$UCSBASE
  2

  9
$UCSNAME
  2

  9
$UCSORG
 10
0.0
 20
0.0
 30
0.0
  9
$UCSXDIR
 10
1.0
 20
0.0
 30
0.0
  9
$UCSYDIR
 10
0.0
 20
1.0
 30
0.0
  9
$UCSORTHOREF
  2

  9
$UCSORTHOVIEW
 70
     0
  9
$UCSORGTOP
 10
0.0
 20
0.0
 30
0.0
  9
$UCSORGBOTTOM
 10
0.0
 20
0.0
 30
0.0
  9
$UCSORGLEFT
 10
0.0
 20
0.0
 30
0.0
  9
$UCSORGRIGHT
 10
0.0
 20
0.0
 30
0.0
  9
$UCSORGFRONT
 10
0.0
 20
0.0
 30
0.0
  9
$UCSORGBACK
 10
0.0
 20
0.0
 30
0.0
  9
$PUCSBASE
  2

  9
$PUCSNAME
  2

  9
$PUCSORG
 10
0.0
 20
0.0
 30
0.0
  9
$PUCSXDIR
 10
1.0
 20
0.0
 30
0.0
  9
$PUCSYDIR
 10
0.0
 20
1.0
 30
0.0
  9
$PUCSORTHOREF
  2

  9
$PUCSORTHOVIEW
 70
     0
  9
$PUCSORGTOP
 10
0.0
 20
0.0
 30
0.0
  9
$PUCSORGBOTTOM
 10
0.0
 20
0.0
 30
0.0
  9
$PUCSORGLEFT
 10
0.0
 20
0.0
 30
0.0
  9
$PUCSORGRIGHT
 10
0.0
 20
0.0
 30
0.0
  9
$PUCSORGFRONT
 10
0.0
 20
0.0
 30
0.0
  9
$PUCSORGBACK
 10
0.0
 20
0.0
 30
0.0
  9
$USERI1
 70
     0
  9
$USERI2
 70
     0
  9
$USERI3
 70
     0
  9
$USERI4
 70
     0
  9
$USERI5
 70
     0
  9
$USERR1
 40
0.0
  9
$USERR2
 40
0.0
  9
$USERR3
 40
0.0
  9
$USERR4
 40
0.0
  9
$USERR5
 40
0.0
  9
$WORLDVIEW
 70
     1
  9
$SHADEDGE
 70
     3
  9
$SHADEDIF
 70
    70
  9
$TILEMODE
 70
     1
  9
$MAXACTVP
 70
    64
  9
$PINSBASE
 10
0.0
 20
0.0
 30
0.0
  9
$PLIMCHECK
 70
     0
  9
$PEXTMIN
 10
1.000000000000000E+20
 20
1.000000000000000E+20
 30
1.000000000000000E+20
  9
$PEXTMAX
 10
-1.000000000000000E+20
 20
-1.000000000000000E+20
 30
-1.000000000000000E+20
  9
$PLIMMIN
 10
0.0
 20
0.0
  9
$PLIMMAX
 10
420.0
 20
297.0
  9
$UNITMODE
 70
     0
  9
$VISRETAIN
 70
     1
  9
$PLINEGEN
 70
     0
  9
$PSLTSCALE
 70
     1
  9
$TREEDEPTH
 70
  3020
  9
$CMLSTYLE
  2
Standard
  9
$CMLJUST
 70
     0
  9
$CMLSCALE
 40
20.0
  9
$PROXYGRAPHICS
 70
     1
  9
$MEASUREMENT
 70
     1
  9
$CELWEIGHT
370
    -1
  9
$ENDCAPS
280
     0
  9
$JOINSTYLE
280
     0
  9
$LWDISPLAY
290
     0
  9
$INSUNITS
 70
     4
  9
$HYPERLINKBASE
  1

  9
$STYLESHEET
  1
彩色出圖.ctb
  9
$XEDIT
290
     1
  9
$CEPSNTYPE
380
     0
  9
$PSTYLEMODE
290
     1
  9
$FINGERPRINTGUID
  2
{277783FA-7D03-4B9C-B83E-DB39A8F422DD}
  9
$VERSIONGUID
  2
{8F2CEE6B-7ED5-4589-8CD6-BA559052795F}
  9
$EXTNAMES
290
     1
  9
$PSVPSCALE
 40
0.0
  9
$OLESTARTUP
290
     0
  0
ENDSEC
  0
SECTION
  2
CLASSES
  0
CLASS
  1
ACDBDICTIONARYWDFLT
  2
AcDbDictionaryWithDefault
  3
ObjectDBX Classes
 90
        0
280
     0
281
     0
  0
CLASS
  1
ACDBPLACEHOLDER
  2
AcDbPlaceHolder
  3
ObjectDBX Classes
 90
        0
280
     0
281
     0
  0
CLASS
  1
LAYOUT
  2
AcDbLayout
  3
ObjectDBX Classes
 90
        0
280
     0
281
     0
  0
CLASS
  1
ACME_DOCUMENT
  2
AcMeDbDoc
  3
AcMeServices
 90
        0
280
     0
281
     0
  0
CLASS
  1
AMGSETTINGSOBJ
  2
AmgSettingsObj
  3
"AcadM|Product Description: AutoCAD Mechanical 2000|Company: Autodesk"
 90
        0
280
     0
281
     0
  0
CLASS
  1
ACMESCOPE
  2
AcMeScope
  3
AcMeServices
 90
        0
280
     0
281
     0
  0
CLASS
  1
ACMECOMMANDHISTORY
  2
AcMeCommandHistory
  3
AcMeServices
 90
        0
280
     0
281
     0
  0
CLASS
  1
ACIMSYSVARMAN
  2
AcImSysVarManager
  3
AcMeServices
 90
        0
280
     0
281
     0
  0
CLASS
  1
ACIMREALSYSVAR
  2
AcImRealSysVar
  3
AcMeServices
 90
        0
280
     0
281
     0
  0
CLASS
  1
ACIMINTSYSVAR
  2
AcImIntSysVar
  3
AcMeServices
 90
        0
280
     0
281
     0
  0
CLASS
  1
ACMEDRAWINGMAN
  2
AcMeDrawingMan
  3
AcMeServices
 90
        0
280
     0
281
     0
  0
CLASS
  1
ACMEVIEW
  2
AcMeView
  3
AcMeServices
 90
        0
280
     0
281
     0
  0
CLASS
  1
ACDBENTITYCACHE
  2
AcMeEntityCache
  3
AcMeServices
 90
        0
280
     0
281
     0
  0
CLASS
  1
GSMANAGER
  2
AcMeGSManager
  3
AcMeServices
 90
        0
280
     0
281
     0
  0
CLASS
  1
AMDTINTERNALREACTOR
  2
AmdtInternalReactor
  3
AcMeServices
 90
        0
280
     0
281
     0
  0
CLASS
  1
ACMESTATEMGR
  2
AcMeStateMgr
  3
AcMeServices
 90
        0
280
     0
281
     0
  0
CLASS
  1
ACGREFMASTER
  2
AcGrefMaster
  3
AcAttribServices
 90
        0
280
     0
281
     0
  0
CLASS
  1
ACME_DATABASE
  2
AcMeDbDatabase
  3
AcMeServices
 90
        0
280
     0
281
     0
  0
CLASS
  1
ACRFINSADJUSTERMGR
  2
AcRfInsAdjusterMgr
  3
AcMeServices
 90
        0
280
     0
281
     0
  0
CLASS
  1
ACGREFACADMASTER
  2
AcGrefacadMaster
  3
AcGrefServices
 90
        0
280
     0
281
     0
  0
CLASS
  1
AMIMASTER
  2
AmiMaster
  3
AmiServices
 90
        0
280
     0
281
     0
  0
CLASS
  1
ACMDATADICTIONARY
  2
AcmDataDictionary
  3
"AcmSymBB|Product Description: AutoCAD Mechanical 2004 DX|Company: Autodesk"
 90
        0
280
     0
281
     0
  0
CLASS
  1
ACMDATAENTRYBLOCK
  2
AcmDataEntryBlock
  3
"AcmSymBB|Product Description: AutoCAD Mechanical 2004 DX|Company: Autodesk"
 90
    32768
280
     0
281
     0
  0
CLASS
  1
ACIMSTRSYSVAR
  2
AcImStrSysVar
  3
AcMeServices
 90
        0
280
     0
281
     0
  0
CLASS
  1
ACMSTANDARDISO
  2
AcmStandardISO
  3
"Amdt_StdImp|Product Description: AutoCAD Mechanical 2004 DX|Company: Autodesk"
 90
        0
280
     0
281
     0
  0
CLASS
  1
AMGOBJPROPCFG
  2
AmgObjPropCfg
  3
"AmgLay|Product Description: AutoCAD Mechanical 2000|Company: Autodesk"
 90
        1
280
     0
281
     0
  0
CLASS
  1
AMDTEDGESTANDARDISO
  2
AmdtEdgeStdISO
  3
"Amdt_StdImp|Product Description: AutoCAD Mechanical 2004 DX|Company: Autodesk"
 90
    32768
280
     0
281
     0
  0
CLASS
  1
ACMSURFSTANDARDISO
  2
AcmSurfTextStdISO
  3
"Amdt_StdImp|Product Description: AutoCAD Mechanical 2004 DX|Company: Autodesk"
 90
        0
280
     0
281
     0
  0
CLASS
  1
ACMFCFSTANDARDISO
  2
AcmFCFStdISO
  3
"Amdt_StdImp|Product Description: AutoCAD Mechanical 2004 DX|Company: Autodesk"
 90
        0
280
     0
281
     0
  0
CLASS
  1
ACMWELDSTANDARDISO
  2
AcmWeldingStdISO
  3
"Amdt_StdImp|Product Description: AutoCAD Mechanical 2004 DX|Company: Autodesk"
 90
        0
280
     0
281
     0
  0
CLASS
  1
ACMIDSTANDARDISO
  2
AcmIdStdISO
  3
"Amdt_StdImp|Product Description: AutoCAD Mechanical 2004 DX|Company: Autodesk"
 90
        0
280
     0
281
     0
  0
CLASS
  1
ACMDATUMSTANDARDISO
  2
AcmDatumStdISO
  3
"Amdt_StdImp|Product Description: AutoCAD Mechanical 2004 DX|Company: Autodesk"
 90
        0
280
     0
281
     0
  0
CLASS
  1
ACMBOMSTANDARDISO
  2
AcmBOMStdISO
  3
"Amdt_StdImp|Product Description: AutoCAD Mechanical 2004 DX|Company: Autodesk"
 90
        0
280
     0
281
     0
  0
CLASS
  1
ACMDETAILSTANDARDISO
  2
AmdtDetailSymStdISO
  3
"Amdt_StdImp|Product Description: AutoCAD Mechanical 2004 DX|Company: Autodesk"
 90
        0
280
     0
281
     0
  0
CLASS
  1
ACMSECTIONSTANDARDISO
  2
AmdtSectionSymStdISO
  3
"Amdt_StdImp|Product Description: AutoCAD Mechanical 2004 DX|Company: Autodesk"
 90
        0
280
     0
281
     0
  0
CLASS
  1
ACMCENTERLINESTANDARDISO
  2
AmdtCenterLineStdISO
  3
"Amdt_StdImp|Product Description: AutoCAD Mechanical 2004 DX|Company: Autodesk"
 90
        0
280
     0
281
     0
  0
CLASS
  1
ACMNOTESTANDARDISO
  2
AmdtNoteStdISO
  3
"Amdt_StdImp|Product Description: AutoCAD Mechanical 2004 DX|Company: Autodesk"
 90
        0
280
     0
281
     0
  0
CLASS
  1
ACAMGLAYSTD
  2
AcAmgLayStd
  3
"AcAmgLayStd|Product Description: AutoCAD Mechanical 2000|Company: Autodesk"
 90
        0
280
     0
281
     0
  0
CLASS
  1
ACAMGDIMSTD
  2
AcAmgDimStd
  3
"AcAmgDimStd|Product Description: AutoCAD Mechanical 2000|Company: Autodesk"
 90
        0
280
     0
281
     0
  0
CLASS
  1
ACAMGHOLECHARTSTDISO
  2
AcAmgHoleChartStdISO
  3
ACMSYMBB_MODULE_NAME
 90
        0
280
     0
281
     0
  0
CLASS
  1
ACAMGTITLESTD
  2
AcAmgTitleStd
  3
"TITLEAPP"
 90
        0
280
     0
281
     0
  0
CLASS
  1
LAYER_INDEX
  2
AcDbLayerIndex
  3
ObjectDBX Classes
 90
    32768
280
     0
281
     0
  0
CLASS
  1
IDBUFFER
  2
AcDbIdBuffer
  3
ObjectDBX Classes
 90
    32768
280
     0
281
     0
  0
CLASS
  1
DICTIONARYVAR
  2
AcDbDictionaryVar
  3
ObjectDBX Classes
 90
        0
280
     0
281
     0
  0
CLASS
  1
AM_DRAWING_MGR
  2
AcDmDwgMgr
  3
AcMechDwgViewMgmt
 90
        0
280
     0
281
     0
  0
CLASS
  1
AM_DWG_DOCUMENT
  2
AcDmDwgDocument
  3
AcMechDwgViewMgmt
 90
        0
280
     0
281
     0
  0
CLASS
  1
AM_DWG_SHEET
  2
AcDmSheet
  3
AcMechDwgViewMgmt
 90
        0
280
     0
281
     0
  0
CLASS
  1
AM_VIEWDIMPARMAP
  2
AcDmViewDimParMap
  3
AcMechDwgViewMgmt
 90
        0
280
     0
281
     0
  0
CLASS
  1
AM_DWGMGR_NAME
  2
AcDmDwgMgrName
  3
AcMechDwgViewMgmt
 90
        0
280
     0
281
     0
  0
CLASS
  1
AMDTMENUSTATEMGR
  2
AmdtMenuStateMgr
  3
McadcomServices
 90
        0
280
     0
281
     0
  0
CLASS
  1
AMDTMCOMMENUSTATE
  2
AmdtMcomMenuState
  3
McadcomServices
 90
        0
280
     0
281
     0
  0
CLASS
  1
MAPIAMMOUDLE
  2
MApiAmModule
  3
MApiAmServices
 90
        0
280
     0
281
     0
  0
CLASS
  1
AMDTADMENUSTATE
  2
AmdtAdMenuState
  3
DesignerServices
 90
        0
280
     0
281
     0
  0
CLASS
  1
ADAPPL
  2
AcAdAppl
  3
DesignerServices
 90
        0
280
     0
281
     0
  0
CLASS
  1
DEPMGR
  2
AcAdDepMgr
  3
DesignerServices
 90
        0
280
     0
281
     0
  0
CLASS
  1
PARAMMGR
  2
AcAdParamMgr
  3
DesignerServices
 90
        0
280
     0
281
     0
  0
CLASS
  1
PARAMSCOPE
  2
AcAdParamScope
  3
DesignerServices
 90
        0
280
     0
281
     0
  0
CLASS
  1
NAMEDAPPL
  2
AcAdNamedAppl
  3
DesignerServices
 90
        0
280
     0
281
     0
  0
CLASS
  1
AMDTDMMENUSTATE
  2
AmdtDmMenuState
  3
AcMechDwgViewMgmt
 90
        0
280
     0
281
     0
  0
CLASS
  1
AMDTAMMENUSTATE
  2
AmdtAmMenuState
  3
DesignerAssemblies
 90
        0
280
     0
281
     0
  0
CLASS
  1
ACAMPROJECT
  2
AcAmProject
  3
DesignerAssemblies
 90
        0
280
     0
281
     0
  0
CLASS
  1
ACAMGRCOMPDEF
  2
AcAmGrCompDef
  3
DesignerAssemblies
 90
        0
280
     0
281
     0
  0
CLASS
  1
ACCMCONTEXT
  2
AcCmContext
  3
DesignerAssemblies
 90
        0
280
     0
281
     0
  0
CLASS
  1
ACAMCOMPDEF
  2
AcAmCompDef
  3
DesignerAssemblies
 90
        0
280
     0
281
     0
  0
CLASS
  1
ACAMCOMPDEFMGR
  2
AcAmCompDefMgr
  3
DesignerAssemblies
 90
        0
280
     0
281
     0
  0
CLASS
  1
AMCONTEXTMGR
  2
AcAmContextMgr
  3
DesignerAssemblies
 90
        0
280
     0
281
     0
  0
CLASS
  1
ACAMCONTEXTMODELER
  2
AcAmContextModeler
  3
DesignerAssemblies
 90
        0
280
     0
281
     0
  0
CLASS
  1
ACMTHREADLINESTANDARDISO
  2
AmdtThreadLineStdISO
  3
"Amdt_StdImp|Product Description: AutoCAD Mechanical 2004 DX|Company: Autodesk"
 90
        0
280
     0
281
     0
  0
CLASS
  1
CATALOGSTATE
  2
AcAmCatalogState
  3
DesignerAssemblies
 90
        0
280
     0
281
     0
  0
CLASS
  1
ACAMGRCOMPDEFSET
  2
AcAmGrCompDefSet
  3
DesignerAssemblies
 90
        0
280
     0
281
     0
  0
CLASS
  1
AMDTBROWSERDBTAB
  2
AmdtBrowserDbTab
  3
McadcomServices
 90
        0
280
     0
281
     0
  0
CLASS
  1
CBROWSERAPPOBJECT
  2
CBrowserAppObject
  3
McadcomServices
 90
        0
280
     0
281
     0
  0
CLASS
  1
DM_PLACEHOLDER
  2
AcDmSelsetPlaceholder
  3
AcMechDwgViewMgmt
 90
        0
280
     0
281
     0
  0
CLASS
  1
TABLESTYLE
  2
AcDbTableStyle
  3
ObjectDBX Classes
 90
     2047
280
     0
281
     0
  0
CLASS
  1
VAACXREFPANELOBJECT
  2
VaAcXREFPanelObject
  3
VAAC_ADDIN
 90
        0
280
     0
281
     0
  0
CLASS
  1
VAACIMAGEINVENTORY
  2
VaAcImageInventory
  3
VAAC_ADDIN
 90
        0
280
     0
281
     0
  0
CLASS
  1
AMDTNOTETEMPLATEDB
  2
AmdtNoteTemplateDB
  3
AMDT_STDIMP_MODULE_NAME
 90
        0
280
     0
281
     0
  0
CLASS
  1
ACMBOM
  2
AcmBom
  3
"AcmSymBB|Product Description: AutoCAD Mechanical 2004 DX|Company: Autodesk"
 90
    32768
280
     0
281
     0
  0
CLASS
  1
AMDTFORMULAUPDATEDISPATCHER
  2
AmdtFormulaUpdateDispatcher
  3
AcMeServices
 90
    32768
280
     0
281
     0
  0
CLASS
  1
ACMPARTLIST
  2
AcmPartList
  3
"AcmSymBB|Product Description: AutoCAD Mechanical 2004 DX|Company: Autodesk"
 90
    33791
280
     0
281
     1
  0
CLASS
  1
ACAMGFILTERDAT
  2
AcAmgFilterDat
  3
"AcadM|Product Description: AutoCAD Mechanical 2000|Company: Autodesk"
 90
    32768
280
     0
281
     0
  0
CLASS
  1
DIMASSOC
  2
AcDbDimAssoc
  3
"AcDbDimAssoc|Product Desc:     AcDim ARX App For Dimension|Company:          Autodesk, Inc.|WEB Address:      www.autodesk.com"
 90
    32768
280
     0
281
     0
  0
CLASS
  1
SORTENTSTABLE
  2
AcDbSortentsTable
  3
ObjectDBX Classes
 90
    32768
280
     0
281
     0
  0
CLASS
  1
ACMSTANDARDJIS
  2
AcmStandardJIS
  3
"Amdt_StdImp|Product Description: AutoCAD Mechanical 2004 DX|Company: Autodesk"
 90
    32768
280
     0
281
     0
  0
CLASS
  1
ACMSURFSTANDARDJIS
  2
AcmSurfTextStdJIS
  3
"Amdt_StdImp|Product Description: AutoCAD Mechanical 2004 DX|Company: Autodesk"
 90
    32768
280
     0
281
     0
  0
CLASS
  1
ACMFCFSTANDARDJIS
  2
AcmFCFStdJIS
  3
"Amdt_StdImp|Product Description: AutoCAD Mechanical 2004 DX|Company: Autodesk"
 90
    32768
280
     0
281
     0
  0
CLASS
  1
ACMWELDSTANDARDJIS
  2
AcmWeldingStdJIS
  3
"Amdt_StdImp|Product Description: AutoCAD Mechanical 2004 DX|Company: Autodesk"
 90
    32768
280
     0
281
     0
  0
CLASS
  1
ACMIDSTANDARDJIS
  2
AcmIdStdJIS
  3
"Amdt_StdImp|Product Description: AutoCAD Mechanical 2004 DX|Company: Autodesk"
 90
    32768
280
     0
281
     0
  0
CLASS
  1
ACMDATUMSTANDARDJIS
  2
AcmDatumStdJIS
  3
"Amdt_StdImp|Product Description: AutoCAD Mechanical 2004 DX|Company: Autodesk"
 90
    32768
280
     0
281
     0
  0
CLASS
  1
ACMBOMSTANDARDJIS
  2
AcmBOMStdJIS
  3
"Amdt_StdImp|Product Description: AutoCAD Mechanical 2004 DX|Company: Autodesk"
 90
    32768
280
     0
281
     0
  0
CLASS
  1
ACMDETAILSTANDARDJIS
  2
AmdtDetailSymStdJIS
  3
"Amdt_StdImp|Product Description: AutoCAD Mechanical 2004 DX|Company: Autodesk"
 90
    32768
280
     0
281
     0
  0
CLASS
  1
ACMSECTIONSTANDARDJIS
  2
AmdtSectionSymStdJIS
  3
"Amdt_StdImp|Product Description: AutoCAD Mechanical 2004 DX|Company: Autodesk"
 90
    32768
280
     0
281
     0
  0
CLASS
  1
ACMCENTERLINESTANDARDJIS
  2
AmdtCenterLineStdJIS
  3
"Amdt_StdImp|Product Description: AutoCAD Mechanical 2004 DX|Company: Autodesk"
 90
    32768
280
     0
281
     0
  0
CLASS
  1
ACMTHREADLINESTANDARDJIS
  2
AmdtThreadLineStdJIS
  3
"Amdt_StdImp|Product Description: AutoCAD Mechanical 2004 DX|Company: Autodesk"
 90
    32768
280
     0
281
     0
  0
CLASS
  1
ACMNOTESTANDARDJIS
  2
AmdtNoteStdJIS
  3
"Amdt_StdImp|Product Description: AutoCAD Mechanical 2004 DX|Company: Autodesk"
 90
    32768
280
     0
281
     0
  0
CLASS
  1
ACAMGHOLECHARTSTDJIS
  2
AcAmgHoleChartStdJIS
  3
ACMSYMBB_MODULE_NAME
 90
    32768
280
     0
281
     0
  0
CLASS
  1
AMDTEDGESTANDARDISO13715
  2
AmdtEdgeStdISO13715
  3
"Amdt_StdImp|Product Description: AutoCAD Mechanical 2004 DX|Company: Autodesk"
 90
        0
280
     0
281
     0
  0
CLASS
  1
ACRFATTGENMGR
  2
AcRfAttGeneralMgr
  3
AcAttribServices
 90
        0
280
     0
281
     0
  0
ENDSEC
  0
SECTION
  2
TABLES
  0
TABLE
  2
VPORT
  5
8
330
0
100
AcDbSymbolTable
 70
     3
  0
VPORT
  5
994
330
8
100
AcDbSymbolTableRecord
100
AcDbViewportTableRecord
  2
*Active
 70
     0
 10
0.0
 20
0.0
 11
1.0
 21
1.0
 12
304.394606792637
 22
360.4716260196035
 13
0.0
 23
0.0
 14
2.5
 24
2.5
 15
10.0
 25
10.0
 16
0.0
 26
0.0
 36
1.0
 17
0.0
 27
0.0
 37
0.0
 40
362.7263770532323
 41
1.218987341772151
 42
50.0
 43
0.0
 44
0.0
 50
0.0
 51
0.0
 71
     0
 72
   100
 73
     1
 74
     3
 75
     0
 76
     0
 77
     0
 78
     0
281
     0
 65
     1
110
0.0
120
0.0
130
0.0
111
1.0
121
0.0
131
0.0
112
0.0
122
1.0
132
0.0
 79
     0
146
0.0
  0
ENDTAB
  0
TABLE
  2
LTYPE
  5
5
330
0
100
AcDbSymbolTable
 70
    16
  0
LTYPE
  5
14
330
5
100
AcDbSymbolTableRecord
100
AcDbLinetypeTableRecord
  2
ByBlock
 70
     0
  3

 72
    65
 73
     0
 40
0.0
  0
LTYPE
  5
15
330
5
100
AcDbSymbolTableRecord
100
AcDbLinetypeTableRecord
  2
ByLayer
 70
     0
  3

 72
    65
 73
     0
 40
0.0
  0
LTYPE
  5
16
330
5
100
AcDbSymbolTableRecord
100
AcDbLinetypeTableRecord
  2
Continuous
 70
     0
  3
Solid line
 72
    65
 73
     0
 40
0.0
  0
LTYPE
  5
64
330
5
100
AcDbSymbolTableRecord
100
AcDbLinetypeTableRecord
  2
AM_ISO02W050
 70
     0
  3
__ __ __ __ __ __ __ __ __ __ __ __ __ __ __
 72
    65
 73
     2
 40
7.5
 49
6.0
 74
     0
 49
-1.5
 74
     0
  0
LTYPE
  5
65
330
5
100
AcDbSymbolTableRecord
100
AcDbLinetypeTableRecord
  2
AM_ISO08W050
 70
     0
  3
____ . ____ . ____ . ____ . ____ . ____ . ____
 72
    65
 73
     4
 40
18.0
 49
12.0
 74
     0
 49
-1.5
 74
     0
 49
3.0
 74
     0
 49
-1.5
 74
     0
  0
LTYPE
  5
66
330
5
100
AcDbSymbolTableRecord
100
AcDbLinetypeTableRecord
  2
AM_ISO09W050
 70
     0
  3
_____ . . _____ . . _____ . . ____ .. ____
 72
    65
 73
     6
 40
22.5
 49
12.0
 74
     0
 49
-1.5
 74
     0
 49
3.0
 74
     0
 49
-1.5
 74
     0
 49
3.0
 74
     0
 49
-1.5
 74
     0
  0
LTYPE
  5
67
330
5
100
AcDbSymbolTableRecord
100
AcDbLinetypeTableRecord
  2
Amconstr
 70
     0
  3
_______________________
 72
    65
 73
     2
 40
9999.0
 49
9999.0
 74
     0
 49
0.0
 74
     0
  0
LTYPE
  5
68
330
5
100
AcDbSymbolTableRecord
100
AcDbLinetypeTableRecord
  2
AM_ISO08W050x2
 70
     0
  3
__ . __ . __ . __ . __ . __
 72
    65
 73
     4
 40
9.0
 49
6.0
 74
     0
 49
-0.75
 74
     0
 49
1.5
 74
     0
 49
-0.75
 74
     0
  0
LTYPE
  5
69
330
5
100
AcDbSymbolTableRecord
100
AcDbLinetypeTableRecord
  2
AM_ISO02W050x2
 70
     0
  3
 _ _ _ _ _ _ _ _ _ _ _ _
 72
    65
 73
     2
 40
3.75
 49
3.0
 74
     0
 49
-0.75
 74
     0
  0
LTYPE
  5
6C
330
5
100
AcDbSymbolTableRecord
100
AcDbLinetypeTableRecord
  2
Amzigzag
 70
     0
  3
/\/-/\/-/\/-/\/-/\/-/\/
 72
    65
 73
     2
 40
11.0001
 49
0.0001
 74
     4
 75
   135
340
6B
 46
0.04
 50
0.0
 44
0.0
 45
0.0
 49
-11.0
 74
     0
  0
LTYPE
  5
7A
330
5
100
AcDbSymbolTableRecord
100
AcDbLinetypeTableRecord
  2
ACISOWELD
 70
     0
  3
_ _ _ _ _
 72
    65
 73
     2
 40
2.0
 49
2.0
 74
     0
 49
-1.0
 74
     0
  0
LTYPE
  5
7B
330
5
100
AcDbSymbolTableRecord
100
AcDbLinetypeTableRecord
  2
ACISOTGB
 70
     0
  3
__ . . __ . .
 72
    65
 73
     6
 40
9.0
 49
4.0
 74
     0
 49
-1.0
 74
     0
 49
1.0
 74
     0
 49
-1.0
 74
     0
 49
1.0
 74
     0
 49
-1.0
 74
     0
  0
LTYPE
  5
7C
330
5
100
AcDbSymbolTableRecord
100
AcDbLinetypeTableRecord
  2
ACISOTGL
 70
     0
  3
_ _ _ _ _
 72
    65
 73
     2
 40
3.0
 49
2.0
 74
     0
 49
-1.0
 74
     0
  0
LTYPE
  5
7E
330
5
100
AcDbSymbolTableRecord
100
AcDbLinetypeTableRecord
  2
CENTER
 70
     0
  3
__ . __
 72
    65
 73
     4
 40
7.0
 49
4.0
 74
     0
 49
-1.0
 74
     0
 49
1.0
 74
     0
 49
-1.0
 74
     0
  0
LTYPE
  5
D8
330
5
100
AcDbSymbolTableRecord
100
AcDbLinetypeTableRecord
  2
HIDDEN
 70
     0
  3
Hidden __ __ __ __ __ __ __ __ __ __ __ __ __ _
 72
    65
 73
     2
 40
9.524999999999998
 49
6.349999999999999
 74
     0
 49
-3.174999999999999
 74
     0
  0
LTYPE
  5
D9
330
5
100
AcDbSymbolTableRecord
100
AcDbLinetypeTableRecord
  2
PHANTOM2
 70
     0
  3
Phantom (.5x) ___ _ _ ___ _ _ ___ _ _ ___ _ _
 72
    65
 73
     6
 40
31.75
 49
15.875
 74
     0
 49
-3.174999999999999
 74
     0
 49
3.174999999999999
 74
     0
 49
-3.174999999999999
 74
     0
 49
3.174999999999999
 74
     0
 49
-3.174999999999999
 74
     0
  0
LTYPE
  5
3B1
330
5
100
AcDbSymbolTableRecord
100
AcDbLinetypeTableRecord
  2
ACJISTGB
 70
     0
  3
__ . . __ . .
 72
    65
 73
     6
 40
9.0
 49
4.0
 74
     0
 49
-1.0
 74
     0
 49
1.0
 74
     0
 49
-1.0
 74
     0
 49
1.0
 74
     0
 49
-1.0
 74
     0
  0
LTYPE
  5
3B2
330
5
100
AcDbSymbolTableRecord
100
AcDbLinetypeTableRecord
  2
ACJISTGL
 70
     0
  3
_ _ _ _ _
 72
    65
 73
     2
 40
3.0
 49
2.0
 74
     0
 49
-1.0
 74
     0
  0
ENDTAB
  0
TABLE
  2
LAYER
  5
2
102
{ACAD_XDICTIONARY
360
3C5
102
}
330
0
100
AcDbSymbolTable
 70
     5
  0
LAYER
  5
10
330
2
100
AcDbSymbolTableRecord
100
AcDbLayerTableRecord
  2
0
 70
     0
 62
     7
  6
Continuous
370
    -3
390
F
  0
LAYER
  5
3B3
330
2
100
AcDbSymbolTableRecord
100
AcDbLayerTableRecord
  2
Defpoints
 70
     0
 62
     7
  6
Continuous
290
     0
370
    -3
390
F
  0
LAYER
  5
3B4
330
2
100
AcDbSymbolTableRecord
100
AcDbLayerTableRecord
  2
AM_VIS
 70
     2
 62
     7
  6
Continuous
370
    50
390
F
  0
LAYER
  5
3B5
330
2
100
AcDbSymbolTableRecord
100
AcDbLayerTableRecord
  2
AM_7
 70
     0
 62
     1
  6
AM_ISO08W050
370
    25
390
F
  0
LAYER
  5
3B6
330
2
100
AcDbSymbolTableRecord
100
AcDbLayerTableRecord
  2
LOGO
 70
     0
 62
     7
  6
Continuous
370
    -3
390
F
  0
ENDTAB
  0
TABLE
  2
STYLE
  5
3
330
0
100
AcDbSymbolTable
 70
     8
  0
STYLE
  5
11
330
3
100
AcDbSymbolTableRecord
100
AcDbTextStyleTableRecord
  2
STANDARD
 70
     0
 40
0.0
 41
1.0
 50
0.0
 71
     0
 42
3.0
  3
ISOCP.SHX
  4
CHINESET.SHX
  0
STYLE
  5
6B
330
3
100
AcDbSymbolTableRecord
100
AcDbTextStyleTableRecord
  2

 70
     1
 40
0.0
 41
1.0
 50
0.0
 71
     0
 42
2.5
  3
ltypeshp.shx
  4

  0
STYLE
  5
6D
330
3
100
AcDbSymbolTableRecord
100
AcDbTextStyleTableRecord
  2
ACISOTS
 70
     0
 40
1.0
 41
1.0
 50
0.0
 71
     0
 42
1.0
  3
isocp.shx
  4
chineset.shx
  0
STYLE
  5
79
330
3
100
AcDbSymbolTableRecord
100
AcDbTextStyleTableRecord
  2
ACISOGDT
 70
     0
 40
0.0
 41
1.0
 50
0.0
 71
     0
 42
2.5
  3
amgdt.shx
  4
chineset.shx
  0
STYLE
  5
3B7
330
3
100
AcDbSymbolTableRecord
100
AcDbTextStyleTableRecord
  2
CHINESET
 70
     0
 40
0.0
 41
1.0
 50
0.0
 71
     0
 42
2.5
  3
simplex.shx
  4
CHINESET.shx
  0
STYLE
  5
3B8
330
3
100
AcDbSymbolTableRecord
100
AcDbTextStyleTableRecord
  2
ACJISTS
 70
     0
 40
1.0
 41
1.0
 50
0.0
 71
     0
 42
2.5
  3
isocp.shx
  4
chineset.shx
  0
STYLE
  5
3B9
330
3
100
AcDbSymbolTableRecord
100
AcDbTextStyleTableRecord
  2
ACJISGDT
 70
     0
 40
0.0
 41
1.0
 50
0.0
 71
     0
 42
2.5
  3
amgdt.shx
  4

  0
ENDTAB
  0
TABLE
  2
VIEW
  5
6
330
0
100
AcDbSymbolTable
 70
     0
  0
ENDTAB
  0
TABLE
  2
UCS
  5
7
330
0
100
AcDbSymbolTable
 70
     0
  0
ENDTAB
  0
TABLE
  2
APPID
  5
9
330
0
100
AcDbSymbolTable
 70
    17
  0
APPID
  5
12
330
9
100
AcDbSymbolTableRecord
100
AcDbRegAppTableRecord
  2
ACAD
 70
     0
  0
APPID
  5
46
330
9
100
AcDbSymbolTableRecord
100
AcDbRegAppTableRecord
  2
MCAD_NO_VIS
 70
     0
  0
APPID
  5
47
330
9
100
AcDbSymbolTableRecord
100
AcDbRegAppTableRecord
  2
ACAD_TEMP_GRAPHIC
 70
     0
  0
APPID
  5
58
330
9
100
AcDbSymbolTableRecord
100
AcDbRegAppTableRecord
  2
ACATTRIBSERVICES
 70
     0
  0
APPID
  5
EE
330
9
100
AcDbSymbolTableRecord
100
AcDbRegAppTableRecord
  2
AD_DRAW
 70
     0
  0
APPID
  5
10C
330
9
100
AcDbSymbolTableRecord
100
AcDbRegAppTableRecord
  2
DESIGNERASSEMBLIES
 70
     0
  0
APPID
  5
111
330
9
100
AcDbSymbolTableRecord
100
AcDbRegAppTableRecord
  2
ACADM_DIM_EDIT
 70
     0
  0
APPID
  5
112
330
9
100
AcDbSymbolTableRecord
100
AcDbRegAppTableRecord
  2
AMDT_DM_ADJ
 70
     0
  0
APPID
  5
1FE
330
9
100
AcDbSymbolTableRecord
100
AcDbRegAppTableRecord
  2
ACAD_DSTYLE_DIMTEXT_FILL
 70
     0
  0
APPID
  5
2B5
330
9
100
AcDbSymbolTableRecord
100
AcDbRegAppTableRecord
  2
GENIUS_GENOLIS_13
 70
     0
  0
APPID
  5
2B6
330
9
100
AcDbSymbolTableRecord
100
AcDbRegAppTableRecord
  2
GENIUS_GENOENT_13
 70
     0
  0
APPID
  5
2B7
330
9
100
AcDbSymbolTableRecord
100
AcDbRegAppTableRecord
  2
GENIUS_GENOBJ-N-CRS_13
 70
     0
  0
APPID
  5
2B8
330
9
100
AcDbSymbolTableRecord
100
AcDbRegAppTableRecord
  2
GENIUS_GENODEF_13
 70
     0
  0
APPID
  5
2B9
330
9
100
AcDbSymbolTableRecord
100
AcDbRegAppTableRecord
  2
GENIUS_GENOREF_13
 70
     0
  0
APPID
  5
3C2
330
9
100
AcDbSymbolTableRecord
100
AcDbRegAppTableRecord
  2
ACAD_PSEXT
 70
     0
  0
APPID
  5
3C3
330
9
100
AcDbSymbolTableRecord
100
AcDbRegAppTableRecord
  2
GENIUS_GENREC_14
 70
     0
  0
APPID
  5
3C4
330
9
100
AcDbSymbolTableRecord
100
AcDbRegAppTableRecord
  2
GENIUS_GENOBJ-N-REC_13
 70
     0
  0
ENDTAB
  0
TABLE
  2
DIMSTYLE
  5
A
330
0
100
AcDbSymbolTable
 70
    17
100
AcDbDimStyleTable
 71
     1
340
81
  0
DIMSTYLE
105
81
330
A
100
AcDbSymbolTableRecord
100
AcDbDimStyleTableRecord
  2
AM_ISO
 70
     0
  4
"
 41
3.0
 42
1.5
 43
8.0
 44
1.5
 47
0.1
 48
0.1
 73
     0
 74
     0
 77
     1
 78
     8
 79
     2
140
3.5
141
0.0
143
0.0393701
146
0.71
147
1.5
172
     1
176
   256
177
   256
178
   256
271
     2
272
     2
283
     0
284
     8
340
11
371
    -1
372
    -1
  0
DIMSTYLE
105
82
330
A
100
AcDbSymbolTableRecord
100
AcDbDimStyleTableRecord
  2
AM_ISO$3
 70
     0
  4
"
 41
3.0
 42
1.5
 43
8.0
 44
1.5
 47
0.1
 48
0.1
 73
     0
 77
     1
 78
     8
 79
     2
140
3.5
141
0.0
143
0.0393701
146
0.71
147
1.5
176
   256
177
   256
178
   256
271
     2
272
     2
283
     0
284
     8
288
     1
289
     0
340
11
371
    -1
372
    -1
  0
DIMSTYLE
105
83
330
A
100
AcDbSymbolTableRecord
100
AcDbDimStyleTableRecord
  2
AM_ISO$4
 70
     0
  4
"
 41
3.0
 42
1.5
 43
8.0
 44
1.5
 47
0.1
 48
0.1
 73
     0
 77
     1
 78
     8
 79
     2
140
3.5
141
0.0
143
0.0393701
146
0.71
147
1.5
176
   256
177
   256
178
   256
271
     2
272
     2
283
     0
284
     8
288
     1
289
     0
340
11
371
    -1
372
    -1
  0
DIMSTYLE
105
84
330
A
100
AcDbSymbolTableRecord
100
AcDbDimStyleTableRecord
  2
AM_ISO$6
 70
     0
  4
"
 41
3.0
 42
1.5
 43
8.0
 44
1.5
 47
0.1
 48
0.1
 73
     0
 74
     0
 78
     8
 79
     2
140
3.5
141
0.0
143
0.0393701
146
0.71
147
1.5
172
     1
176
   256
177
   256
178
   256
271
     2
272
     2
283
     0
284
     8
340
11
371
    -1
372
    -1
  0
DIMSTYLE
105
85
330
A
100
AcDbSymbolTableRecord
100
AcDbDimStyleTableRecord
  2
AM_ISO$7
 70
     0
  4
"
 41
3.0
 42
1.5
 43
8.0
 44
1.5
 47
0.1
 48
0.1
 73
     0
 74
     0
 77
     1
 78
     8
 79
     2
140
5.0
141
0.0
143
0.0393701
146
0.71
147
1.5
172
     1
176
   256
177
   256
178
   256
271
     2
272
     2
283
     0
284
     8
340
11
371
    -1
372
    -1
  0
DIMSTYLE
105
86
330
A
100
AcDbSymbolTableRecord
100
AcDbDimStyleTableRecord
  2
AM_ISO$SF
 70
     0
  4
"
 41
2.5
 42
1.0
 43
10.0
 44
1.0
 47
0.1
 48
0.1
 73
     0
 74
     0
 75
     1
 76
     1
 77
     1
 78
     8
 79
     2
140
3.5
141
0.0
143
0.0393701
146
0.71
147
1.5
172
     1
176
   256
177
   256
178
     2
271
     2
272
     3
274
     4
283
     0
284
     8
340
11
371
    -1
372
    -1
  0
DIMSTYLE
105
8B
330
A
100
AcDbSymbolTableRecord
100
AcDbDimStyleTableRecord
  2
AM_ISO$SH
 70
     0
  4
"
 41
2.5
 42
1.0
 43
10.0
 44
1.0
 47
0.1
 48
0.1
 73
     0
 74
     0
 75
     1
 76
     1
 77
     1
 78
     8
 79
     2
140
3.5
141
0.0
143
0.0393701
144
2.0
146
0.71
147
1.5
172
     1
173
     1
176
   256
177
   256
178
     2
271
     2
272
     3
274
     4
283
     0
284
     8
340
11
343
87
371
    -1
372
    -1
  0
DIMSTYLE
105
27B
330
A
100
AcDbSymbolTableRecord
100
AcDbDimStyleTableRecord
  2
AM_ISO$0
 70
     0
  4
"
 41
3.0
 42
1.5
 43
8.0
 44
1.5
 47
0.1
 48
0.1
 73
     0
 74
     0
 77
     1
 78
     8
 79
     2
140
3.5
141
0.0
143
0.0393701
146
0.71
147
1.5
172
     1
176
   256
177
   256
178
   256
271
     2
272
     2
283
     0
284
     8
340
11
371
    -1
372
    -1
  0
DIMSTYLE
105
3BA
102
{ACAD_REACTORS
330
79D
330
79F
330
7A0
330
7A1
330
7A2
330
7A3
330
7A4
102
}
330
A
100
AcDbSymbolTableRecord
100
AcDbDimStyleTableRecord
  2
STANDARD
 70
     0
 41
3.0
 42
2.0
 43
8.0
 44
2.0
 48
0.000000001
 73
     0
 74
     0
 77
     1
 78
     8
 79
     2
140
3.0
141
1.0
146
0.6
147
1.0
176
   256
177
   256
178
   256
179
     2
271
     2
272
     2
279
     2
284
     8
340
3B7
371
    -1
  0
DIMSTYLE
105
3BB
330
A
100
AcDbSymbolTableRecord
100
AcDbDimStyleTableRecord
  2
AM_JIS
 70
     0
  4
"
 41
2.5
 42
1.0
 43
10.0
 44
1.0
 47
0.1
 48
0.1
 73
     0
 74
     0
 77
     3
 78
     8
 79
     2
140
3.5
141
0.0
143
0.0393701
146
0.71
147
1.5
172
     1
176
   256
177
   256
178
     2
271
     2
272
     3
274
     4
283
     0
340
11
341
357
342
357
343
357
344
357
371
    -1
372
    -1
  0
DIMSTYLE
105
3BC
330
A
100
AcDbSymbolTableRecord
100
AcDbDimStyleTableRecord
  2
AM_JIS$3
 70
     0
  4
"
 41
2.5
 42
1.0
 43
10.0
 44
1.0
 47
0.1
 48
0.1
 73
     0
 77
     3
 78
     8
 79
     2
140
3.5
141
0.0
143
0.0393701
146
0.71
147
1.5
176
   256
177
   256
178
     2
271
     2
272
     3
274
     4
283
     0
288
     1
289
     0
340
11
341
357
342
357
343
357
344
357
371
    -1
372
    -1
  0
DIMSTYLE
105
3BD
330
A
100
AcDbSymbolTableRecord
100
AcDbDimStyleTableRecord
  2
AM_JIS$4
 70
     0
  4
"
 41
2.5
 42
1.0
 43
10.0
 44
1.0
 47
0.1
 48
0.1
 73
     0
 77
     3
 78
     8
 79
     2
140
3.5
141
0.0
143
0.0393701
146
0.71
147
1.5
176
   256
177
   256
178
     2
271
     2
272
     3
274
     4
283
     0
288
     1
289
     0
340
11
341
357
342
357
343
357
344
357
371
    -1
372
    -1
  0
DIMSTYLE
105
3BE
330
A
100
AcDbSymbolTableRecord
100
AcDbDimStyleTableRecord
  2
AM_JIS$6
 70
     0
  4
"
 41
2.5
 42
1.0
 43
10.0
 44
1.0
 47
0.1
 48
0.1
 73
     0
 74
     0
 78
     8
 79
     2
140
3.5
141
0.0
143
0.0393701
146
0.71
147
1.5
172
     1
176
   256
177
   256
178
     2
271
     2
272
     3
274
     4
283
     0
340
11
341
357
342
357
343
357
344
357
371
    -1
372
    -1
  0
DIMSTYLE
105
3BF
330
A
100
AcDbSymbolTableRecord
100
AcDbDimStyleTableRecord
  2
AM_JIS$7
 70
     0
  4
"
 41
2.5
 42
1.0
 43
10.0
 44
1.0
 47
0.1
 48
0.1
 73
     0
 74
     0
 77
     3
 78
     8
 79
     2
140
5.0
141
0.0
143
0.0393701
146
0.71
147
1.5
172
     1
176
   256
177
   256
178
     2
271
     2
272
     3
274
     4
283
     0
340
11
341
357
342
357
343
357
344
357
371
    -1
372
    -1
  0
DIMSTYLE
105
3C0
330
A
100
AcDbSymbolTableRecord
100
AcDbDimStyleTableRecord
  2
AM_JIS$SF
 70
     0
  4
"
 41
2.5
 42
1.0
 43
10.0
 44
1.0
 47
0.1
 48
0.1
 73
     0
 74
     0
 75
     1
 76
     1
 77
     3
 78
     8
 79
     2
140
3.5
141
0.0
143
0.0393701
146
0.71
147
1.5
172
     1
176
   256
177
   256
178
     2
271
     2
272
     3
274
     4
283
     0
340
11
341
357
342
357
343
357
344
357
371
    -1
372
    -1
  0
DIMSTYLE
105
3C1
330
A
100
AcDbSymbolTableRecord
100
AcDbDimStyleTableRecord
  2
AM_JIS$SH
 70
     0
  4
"
 41
2.5
 42
1.0
 43
10.0
 44
1.0
 47
0.1
 48
0.1
 73
     0
 74
     0
 75
     1
 76
     1
 77
     3
 78
     8
 79
     2
140
3.5
141
0.0
143
0.0393701
144
2.0
146
0.71
147
1.5
172
     1
173
     1
176
   256
177
   256
178
     2
271
     2
272
     3
274
     4
283
     0
340
11
341
357
342
357
343
87
344
357
371
    -1
372
    -1
  0
ENDTAB
  0
TABLE
  2
BLOCK_RECORD
  5
1
330
0
100
AcDbSymbolTable
 70
    12
  0
BLOCK_RECORD
  5
1F
102
{ACAD_XDICTIONARY
360
8F
102
}
330
1
100
AcDbSymbolTableRecord
100
AcDbBlockTableRecord
  2
*Model_Space
340
22
  0
BLOCK_RECORD
  5
1B
330
1
100
AcDbSymbolTableRecord
100
AcDbBlockTableRecord
  2
*Paper_Space
340
1E
  0
BLOCK_RECORD
  5
23
330
1
100
AcDbSymbolTableRecord
100
AcDbBlockTableRecord
  2
*Paper_Space0
340
26
  0
BLOCK_RECORD
  5
87
330
1
100
AcDbSymbolTableRecord
100
AcDbBlockTableRecord
  2
GENAXEH
340
0
  0
BLOCK_RECORD
  5
357
330
1
100
AcDbSymbolTableRecord
100
AcDbBlockTableRecord
  2
_Open30
340
0
  0
BLOCK_RECORD
  5
7A8
330
1
100
AcDbSymbolTableRecord
100
AcDbBlockTableRecord
  2
*D3
340
0
  0
BLOCK_RECORD
  5
7B4
330
1
100
AcDbSymbolTableRecord
100
AcDbBlockTableRecord
  2
*D4
340
0
  0
BLOCK_RECORD
  5
7C0
330
1
100
AcDbSymbolTableRecord
100
AcDbBlockTableRecord
  2
*D5
340
0
  0
BLOCK_RECORD
  5
7CC
330
1
100
AcDbSymbolTableRecord
100
AcDbBlockTableRecord
  2
*D6
340
0
  0
BLOCK_RECORD
  5
7D8
330
1
100
AcDbSymbolTableRecord
100
AcDbBlockTableRecord
  2
*D7
340
0
  0
BLOCK_RECORD
  5
7E4
330
1
100
AcDbSymbolTableRecord
100
AcDbBlockTableRecord
  2
*D8
340
0
  0
BLOCK_RECORD
  5
7F0
330
1
100
AcDbSymbolTableRecord
100
AcDbBlockTableRecord
  2
*D9
340
0
  0
ENDTAB
  0
ENDSEC
  0
SECTION
  2
BLOCKS
  0
BLOCK
  5
20
330
1F
100
AcDbEntity
  8
0
100
AcDbBlockBegin
  2
*Model_Space
 70
     0
 10
0.0
 20
0.0
 30
0.0
  3
*Model_Space
  1

  0
ENDBLK
  5
21
330
1F
100
AcDbEntity
  8
0
100
AcDbBlockEnd
  0
BLOCK
  5
1C
330
1B
100
AcDbEntity
 67
     1
  8
0
100
AcDbBlockBegin
  2
*Paper_Space
 70
     0
 10
0.0
 20
0.0
 30
0.0
  3
*Paper_Space
  1

  0
ENDBLK
  5
1D
330
1B
100
AcDbEntity
 67
     1
  8
0
100
AcDbBlockEnd
  0
BLOCK
  5
24
330
23
100
AcDbEntity
  8
0
100
AcDbBlockBegin
  2
*Paper_Space0
 70
     0
 10
0.0
 20
0.0
 30
0.0
  3
*Paper_Space0
  1

  0
ENDBLK
  5
25
330
23
100
AcDbEntity
  8
0
100
AcDbBlockEnd
  0
BLOCK
  5
89
330
87
100
AcDbEntity
  8
0
100
AcDbBlockBegin
  2
GENAXEH
 70
     0
 10
0.0
 20
0.0
 30
0.0
  3
GENAXEH
  1

  0
LINE
  5
88
330
87
100
AcDbEntity
  8
0
100
AcDbLine
 10
-1.0
 20
0.0
 30
0.0
 11
1.0
 21
0.0
 31
0.0
  0
ENDBLK
  5
8A
330
87
100
AcDbEntity
  8
0
100
AcDbBlockEnd
  0
BLOCK
  5
358
330
357
100
AcDbEntity
  8
0
100
AcDbBlockBegin
  2
_Open30
 70
     0
 10
0.0
 20
0.0
 30
0.0
  3
_Open30
  1

  0
LINE
  5
359
330
357
100
AcDbEntity
  8
0
 62
     0
370
    -2
100
AcDbLine
 10
-1.0
 20
0.26794919
 30
0.0
 11
0.0
 21
0.0
 31
0.0
  0
LINE
  5
35A
330
357
100
AcDbEntity
  8
0
 62
     0
370
    -2
100
AcDbLine
 10
0.0
 20
0.0
 30
0.0
 11
-1.0
 21
-0.26794919
 31
0.0
  0
LINE
  5
35B
330
357
100
AcDbEntity
  8
0
 62
     0
370
    -2
100
AcDbLine
 10
0.0
 20
0.0
 30
0.0
 11
-1.0
 21
0.0
 31
0.0
  0
ENDBLK
  5
35C
330
357
100
AcDbEntity
  8
0
100
AcDbBlockEnd
  0
BLOCK
  5
7B2
330
7A8
100
AcDbEntity
  8
0
100
AcDbBlockBegin
  2
*D3
 70
     1
 10
0.0
 20
0.0
 30
0.0
  3
*D3
  1

  0
LINE
  5
7FC
330
7A8
100
AcDbEntity
  8
0
 62
     5
370
    -2
100
AcDbLine
 10
262.3786444204341
 20
443.8945804163497
 30
0.0
 11
262.3786444204341
 21
457.1130912394838
 31
0.0
  0
LINE
  5
7FD
330
7A8
100
AcDbEntity
  8
0
 62
     5
370
    -2
100
AcDbLine
 10
315.3786444204341
 20
455.0538344596896
 30
0.0
 11
315.3786444204341
 21
457.1130912394838
 31
0.0
  0
LINE
  5
7FE
330
7A8
100
AcDbEntity
  8
0
 62
     5
100
AcDbLine
 10
265.3786444204341
 20
455.1130912394837
 30
0.0
 11
312.3786444204341
 21
455.1130912394837
 31
0.0
  0
SOLID
  5
7FF
330
7A8
100
AcDbEntity
  8
0
 62
     5
100
AcDbTrace
 10
265.3786444204341
 20
455.6130912394837
 30
0.0
 11
265.3786444204341
 21
454.6130912394837
 31
0.0
 12
262.3786444204341
 22
455.1130912394837
 32
0.0
 13
262.3786444204341
 23
455.1130912394837
 33
0.0
  0
SOLID
  5
800
330
7A8
100
AcDbEntity
  8
0
 62
     5
100
AcDbTrace
 10
312.3786444204341
 20
455.6130912394837
 30
0.0
 11
312.3786444204341
 21
454.6130912394837
 31
0.0
 12
315.3786444204341
 22
455.1130912394837
 32
0.0
 13
315.3786444204341
 23
455.1130912394837
 33
0.0
  0
MTEXT
  5
801
330
7A8
100
AcDbEntity
  8
0
 62
     5
100
AcDbMText
 10
288.878644420434
 20
457.6130912394837
 30
0.0
 40
3.0
 41
0.0
 71
     5
 72
     1
  1
\A1;53
  7
CHINESET
 73
     1
 44
1.0
1001
ACAD
1000
MTEXTBEGIN
1070
    73
1070
     1
1070
    44
1040
1.0
1070
    74
1070
     0
1000
MTEXTEND
  0
POINT
  5
802
330
7A8
100
AcDbEntity
  8
Defpoints
 62
     0
100
AcDbPoint
 10
262.3786444204341
 20
441.8945804163497
 30
0.0
  0
POINT
  5
803
330
7A8
100
AcDbEntity
  8
Defpoints
 62
     0
100
AcDbPoint
 10
315.3786444204341
 20
453.0538344596895
 30
0.0
  0
POINT
  5
804
330
7A8
100
AcDbEntity
  8
Defpoints
 62
     0
100
AcDbPoint
 10
315.3786444204341
 20
455.1130912394837
 30
0.0
  0
ENDBLK
  5
7B3
330
7A8
100
AcDbEntity
  8
0
100
AcDbBlockEnd
  0
BLOCK
  5
7BE
330
7B4
100
AcDbEntity
  8
0
100
AcDbBlockBegin
  2
*D4
 70
     1
 10
0.0
 20
0.0
 30
0.0
  3
*D4
  1

  0
LINE
  5
805
330
7B4
100
AcDbEntity
  8
0
 62
     5
370
    -2
100
AcDbLine
 10
257.878644420434
 20
511.5575165285655
 30
0.0
 11
257.878644420434
 21
531.2092216673893
 31
0.0
  0
LINE
  5
806
330
7B4
100
AcDbEntity
  8
0
 62
     5
370
    -2
100
AcDbLine
 10
352.3786444204341
 20
511.5575165285655
 30
0.0
 11
352.3786444204341
 21
531.2092216673893
 31
0.0
  0
LINE
  5
807
330
7B4
100
AcDbEntity
  8
0
 62
     5
100
AcDbLine
 10
260.8786444204341
 20
529.2092216673893
 30
0.0
 11
349.3786444204341
 21
529.2092216673893
 31
0.0
  0
SOLID
  5
808
330
7B4
100
AcDbEntity
  8
0
 62
     5
100
AcDbTrace
 10
260.8786444204341
 20
529.7092216673893
 30
0.0
 11
260.8786444204341
 21
528.7092216673893
 31
0.0
 12
257.878644420434
 22
529.2092216673893
 32
0.0
 13
257.878644420434
 23
529.2092216673893
 33
0.0
  0
SOLID
  5
809
330
7B4
100
AcDbEntity
  8
0
 62
     5
100
AcDbTrace
 10
349.3786444204341
 20
529.7092216673893
 30
0.0
 11
349.3786444204341
 21
528.7092216673893
 31
0.0
 12
352.3786444204341
 22
529.2092216673893
 32
0.0
 13
352.3786444204341
 23
529.2092216673893
 33
0.0
  0
MTEXT
  5
80A
330
7B4
100
AcDbEntity
  8
0
 62
     5
100
AcDbMText
 10
305.1286444204341
 20
531.7092216673893
 30
0.0
 40
3.0
 41
0.0
 71
     5
 72
     1
  1
\A1;94.5
  7
CHINESET
 73
     1
 44
1.0
1001
ACAD
1000
MTEXTBEGIN
1070
    73
1070
     1
1070
    44
1040
1.0
1070
    74
1070
     0
1000
MTEXTEND
  0
POINT
  5
80B
330
7B4
100
AcDbEntity
  8
Defpoints
 62
     0
100
AcDbPoint
 10
257.878644420434
 20
509.5575165285654
 30
0.0
  0
POINT
  5
80C
330
7B4
100
AcDbEntity
  8
Defpoints
 62
     0
100
AcDbPoint
 10
352.3786444204341
 20
509.5575165285654
 30
0.0
  0
POINT
  5
80D
330
7B4
100
AcDbEntity
  8
Defpoints
 62
     0
100
AcDbPoint
 10
352.3786444204341
 20
529.2092216673893
 30
0.0
  0
ENDBLK
  5
7BF
330
7B4
100
AcDbEntity
  8
0
100
AcDbBlockEnd
  0
BLOCK
  5
7CA
330
7C0
100
AcDbEntity
  8
0
100
AcDbBlockBegin
  2
*D5
 70
     1
 10
0.0
 20
0.0
 30
0.0
  3
*D5
  1

  0
LINE
  5
80E
330
7C0
100
AcDbEntity
  8
0
 62
     5
370
    -2
100
AcDbLine
 10
177.5918700273299
 20
447.2945804163497
 30
0.0
 11
149.9207350266314
 21
447.2945804163497
 31
0.0
  0
LINE
  5
80F
330
7C0
100
AcDbEntity
  8
0
 62
     5
370
    -2
100
AcDbLine
 10
176.0918700273299
 20
313.7945804163497
 30
0.0
 11
149.9207350266314
 21
313.7945804163497
 31
0.0
  0
LINE
  5
810
330
7C0
100
AcDbEntity
  8
0
 62
     5
100
AcDbLine
 10
151.9207350266314
 20
444.2945804163497
 30
0.0
 11
151.9207350266314
 21
316.7945804163498
 31
0.0
  0
SOLID
  5
811
330
7C0
100
AcDbEntity
  8
0
 62
     5
100
AcDbTrace
 10
151.4207350266314
 20
444.2945804163497
 30
0.0
 11
152.4207350266314
 21
444.2945804163497
 31
0.0
 12
151.9207350266314
 22
447.2945804163497
 32
0.0
 13
151.9207350266314
 23
447.2945804163497
 33
0.0
  0
SOLID
  5
812
330
7C0
100
AcDbEntity
  8
0
 62
     5
100
AcDbTrace
 10
151.4207350266314
 20
316.7945804163498
 30
0.0
 11
152.4207350266314
 21
316.7945804163498
 31
0.0
 12
151.9207350266314
 22
313.7945804163497
 32
0.0
 13
151.9207350266314
 23
313.7945804163497
 33
0.0
  0
MTEXT
  5
813
330
7C0
100
AcDbEntity
  8
0
 62
     5
100
AcDbMText
 10
149.4207350266314
 20
380.5445804163498
 30
0.0
 40
3.0
 41
0.0
 71
     5
 72
     1
  1
\A1;133.5
  7
CHINESET
 11
0.0000000000000001
 21
1.0
 31
0.0
 73
     1
 44
1.0
1001
ACAD
1000
MTEXTBEGIN
1070
    73
1070
     1
1070
    44
1040
1.0
1070
    74
1070
     0
1000
MTEXTEND
  0
POINT
  5
814
330
7C0
100
AcDbEntity
  8
Defpoints
 62
     0
100
AcDbPoint
 10
179.5918700273299
 20
447.2945804163497
 30
0.0
  0
POINT
  5
815
330
7C0
100
AcDbEntity
  8
Defpoints
 62
     0
100
AcDbPoint
 10
178.0918700273299
 20
313.7945804163497
 30
0.0
  0
POINT
  5
816
330
7C0
100
AcDbEntity
  8
Defpoints
 62
     0
100
AcDbPoint
 10
151.9207350266314
 20
313.7945804163497
 30
0.0
  0
ENDBLK
  5
7CB
330
7C0
100
AcDbEntity
  8
0
100
AcDbBlockEnd
  0
BLOCK
  5
7D6
330
7CC
100
AcDbEntity
  8
0
100
AcDbBlockBegin
  2
*D6
 70
     1
 10
0.0
 20
0.0
 30
0.0
  3
*D6
  1

  0
LINE
  5
817
330
7CC
100
AcDbEntity
  8
0
 62
     5
370
    -2
100
AcDbLine
 10
345.8786444204341
 20
522.0075165285654
 30
0.0
 11
372.409535979909
 21
522.0075165285654
 31
0.0
  0
LINE
  5
818
330
7CC
100
AcDbEntity
  8
0
 62
     5
370
    -2
100
AcDbLine
 10
345.8786444204341
 20
471.5075165285655
 30
0.0
 11
372.409535979909
 21
471.5075165285655
 31
0.0
  0
LINE
  5
819
330
7CC
100
AcDbEntity
  8
0
 62
     5
100
AcDbLine
 10
370.4095359799091
 20
519.0075165285654
 30
0.0
 11
370.4095359799091
 21
474.5075165285654
 31
0.0
  0
SOLID
  5
81A
330
7CC
100
AcDbEntity
  8
0
 62
     5
100
AcDbTrace
 10
369.909535979909
 20
519.0075165285654
 30
0.0
 11
370.909535979909
 21
519.0075165285654
 31
0.0
 12
370.4095359799091
 22
522.0075165285654
 32
0.0
 13
370.4095359799091
 23
522.0075165285654
 33
0.0
  0
SOLID
  5
81B
330
7CC
100
AcDbEntity
  8
0
 62
     5
100
AcDbTrace
 10
369.909535979909
 20
474.5075165285654
 30
0.0
 11
370.909535979909
 21
474.5075165285654
 31
0.0
 12
370.4095359799091
 22
471.5075165285655
 32
0.0
 13
370.4095359799091
 23
471.5075165285655
 33
0.0
  0
MTEXT
  5
81C
330
7CC
100
AcDbEntity
  8
0
 62
     5
100
AcDbMText
 10
367.909535979909
 20
496.7575165285656
 30
0.0
 40
3.0
 41
0.0
 71
     5
 72
     1
  1
\A1;50.5
  7
CHINESET
 11
0.0000000000000001
 21
1.0
 31
0.0
 73
     1
 44
1.0
1001
ACAD
1000
MTEXTBEGIN
1070
    73
1070
     1
1070
    44
1040
1.0
1070
    74
1070
     0
1000
MTEXTEND
  0
POINT
  5
81D
330
7CC
100
AcDbEntity
  8
Defpoints
 62
     0
100
AcDbPoint
 10
343.8786444204341
 20
522.0075165285654
 30
0.0
  0
POINT
  5
81E
330
7CC
100
AcDbEntity
  8
Defpoints
 62
     0
100
AcDbPoint
 10
343.8786444204341
 20
471.5075165285655
 30
0.0
  0
POINT
  5
81F
330
7CC
100
AcDbEntity
  8
Defpoints
 62
     0
100
AcDbPoint
 10
370.4095359799091
 20
471.5075165285655
 30
0.0
  0
ENDBLK
  5
7D7
330
7CC
100
AcDbEntity
  8
0
100
AcDbBlockEnd
  0
BLOCK
  5
7E2
330
7D8
100
AcDbEntity
  8
0
100
AcDbBlockBegin
  2
*D7
 70
     1
 10
0.0
 20
0.0
 30
0.0
  3
*D7
  1

  0
LINE
  5
820
330
7D8
100
AcDbEntity
  8
0
 62
     5
370
    -2
100
AcDbLine
 10
293.378644420434
 20
281.0770160002947
 30
0.0
 11
293.378644420434
 21
289.7126897220934
 31
0.0
  0
LINE
  5
821
330
7D8
100
AcDbEntity
  8
0
 62
     5
370
    -2
100
AcDbLine
 10
337.3786444204341
 20
281.0770160002947
 30
0.0
 11
337.3786444204341
 21
289.7126897220934
 31
0.0
  0
LINE
  5
822
330
7D8
100
AcDbEntity
  8
0
 62
     5
100
AcDbLine
 10
296.3786444204341
 20
287.7126897220934
 30
0.0
 11
334.3786444204341
 21
287.7126897220934
 31
0.0
  0
SOLID
  5
823
330
7D8
100
AcDbEntity
  8
0
 62
     5
100
AcDbTrace
 10
296.3786444204341
 20
288.2126897220934
 30
0.0
 11
296.3786444204341
 21
287.2126897220934
 31
0.0
 12
293.378644420434
 22
287.7126897220934
 32
0.0
 13
293.378644420434
 23
287.7126897220934
 33
0.0
  0
SOLID
  5
824
330
7D8
100
AcDbEntity
  8
0
 62
     5
100
AcDbTrace
 10
334.3786444204341
 20
288.2126897220934
 30
0.0
 11
334.3786444204341
 21
287.2126897220934
 31
0.0
 12
337.3786444204341
 22
287.7126897220934
 32
0.0
 13
337.3786444204341
 23
287.7126897220934
 33
0.0
  0
MTEXT
  5
825
330
7D8
100
AcDbEntity
  8
0
 62
     5
100
AcDbMText
 10
315.3786444204341
 20
290.2126897220934
 30
0.0
 40
3.0
 41
0.0
 71
     5
 72
     1
  1
\A1;44
  7
CHINESET
 73
     1
 44
1.0
1001
ACAD
1000
MTEXTBEGIN
1070
    73
1070
     1
1070
    44
1040
1.0
1070
    74
1070
     0
1000
MTEXTEND
  0
POINT
  5
826
330
7D8
100
AcDbEntity
  8
Defpoints
 62
     0
100
AcDbPoint
 10
293.378644420434
 20
279.0770160002947
 30
0.0
  0
POINT
  5
827
330
7D8
100
AcDbEntity
  8
Defpoints
 62
     0
100
AcDbPoint
 10
337.3786444204341
 20
279.0770160002947
 30
0.0
  0
POINT
  5
828
330
7D8
100
AcDbEntity
  8
Defpoints
 62
     0
100
AcDbPoint
 10
337.3786444204341
 20
287.7126897220934
 30
0.0
  0
ENDBLK
  5
7E3
330
7D8
100
AcDbEntity
  8
0
100
AcDbBlockEnd
  0
BLOCK
  5
7EE
330
7E4
100
AcDbEntity
  8
0
100
AcDbBlockBegin
  2
*D8
 70
     1
 10
0.0
 20
0.0
 30
0.0
  3
*D8
  1

  0
LINE
  5
829
330
7E4
100
AcDbEntity
  8
0
 62
     5
370
    -2
100
AcDbLine
 10
343.8786444204341
 20
274.5770160002947
 30
0.0
 11
363.8998573225391
 21
274.5770160002947
 31
0.0
  0
LINE
  5
82A
330
7E4
100
AcDbEntity
  8
0
 62
     5
370
    -2
100
AcDbLine
 10
343.8786444204341
 20
237.5770160002947
 30
0.0
 11
363.8998573225391
 21
237.5770160002947
 31
0.0
  0
LINE
  5
82B
330
7E4
100
AcDbEntity
  8
0
 62
     5
100
AcDbLine
 10
361.8998573225391
 20
271.5770160002947
 30
0.0
 11
361.8998573225391
 21
240.5770160002947
 31
0.0
  0
SOLID
  5
82C
330
7E4
100
AcDbEntity
  8
0
 62
     5
100
AcDbTrace
 10
361.3998573225391
 20
271.5770160002947
 30
0.0
 11
362.3998573225391
 21
271.5770160002947
 31
0.0
 12
361.8998573225391
 22
274.5770160002947
 32
0.0
 13
361.8998573225391
 23
274.5770160002947
 33
0.0
  0
SOLID
  5
82D
330
7E4
100
AcDbEntity
  8
0
 62
     5
100
AcDbTrace
 10
361.3998573225391
 20
240.5770160002947
 30
0.0
 11
362.3998573225391
 21
240.5770160002947
 31
0.0
 12
361.8998573225391
 22
237.5770160002947
 32
0.0
 13
361.8998573225391
 23
237.5770160002947
 33
0.0
  0
MTEXT
  5
82E
330
7E4
100
AcDbEntity
  8
0
 62
     5
100
AcDbMText
 10
359.3998573225391
 20
256.0770160002947
 30
0.0
 40
3.0
 41
0.0
 71
     5
 72
     1
  1
\A1;37
  7
CHINESET
 11
0.0000000000000001
 21
1.0
 31
0.0
 73
     1
 44
1.0
1001
ACAD
1000
MTEXTBEGIN
1070
    73
1070
     1
1070
    44
1040
1.0
1070
    74
1070
     0
1000
MTEXTEND
  0
POINT
  5
82F
330
7E4
100
AcDbEntity
  8
Defpoints
 62
     0
100
AcDbPoint
 10
341.8786444204341
 20
274.5770160002947
 30
0.0
  0
POINT
  5
830
330
7E4
100
AcDbEntity
  8
Defpoints
 62
     0
100
AcDbPoint
 10
341.8786444204341
 20
237.5770160002947
 30
0.0
  0
POINT
  5
831
330
7E4
100
AcDbEntity
  8
Defpoints
 62
     0
100
AcDbPoint
 10
361.8998573225391
 20
237.5770160002947
 30
0.0
  0
ENDBLK
  5
7EF
330
7E4
100
AcDbEntity
  8
0
100
AcDbBlockEnd
  0
BLOCK
  5
7FA
330
7F0
100
AcDbEntity
  8
0
100
AcDbBlockBegin
  2
*D9
 70
     1
 10
0.0
 20
0.0
 30
0.0
  3
*D9
  1

  0
LINE
  5
832
330
7F0
100
AcDbEntity
  8
0
 62
     5
370
    -2
100
AcDbLine
 10
276.378644420434
 20
314.8707975064679
 30
0.0
 11
263.2823862151012
 21
314.8707975064679
 31
0.0
  0
LINE
  5
833
330
7F0
100
AcDbEntity
  8
0
 62
     5
370
    -2
100
AcDbLine
 10
275.4631557189072
 20
328.370797506468
 30
0.0
 11
263.2823862151012
 21
328.370797506468
 31
0.0
  0
LINE
  5
834
330
7F0
100
AcDbEntity
  8
0
 62
     5
100
AcDbLine
 10
265.2823862151012
 20
317.8707975064679
 30
0.0
 11
265.2823862151012
 21
325.370797506468
 31
0.0
  0
SOLID
  5
835
330
7F0
100
AcDbEntity
  8
0
 62
     5
100
AcDbTrace
 10
264.7823862151012
 20
317.8707975064679
 30
0.0
 11
265.7823862151011
 21
317.8707975064679
 31
0.0
 12
265.2823862151012
 22
314.8707975064679
 32
0.0
 13
265.2823862151012
 23
314.8707975064679
 33
0.0
  0
SOLID
  5
836
330
7F0
100
AcDbEntity
  8
0
 62
     5
100
AcDbTrace
 10
264.7823862151012
 20
325.370797506468
 30
0.0
 11
265.7823862151011
 21
325.370797506468
 31
0.0
 12
265.2823862151012
 22
328.370797506468
 32
0.0
 13
265.2823862151012
 23
328.370797506468
 33
0.0
  0
MTEXT
  5
837
330
7F0
100
AcDbEntity
  8
0
 62
     5
100
AcDbMText
 10
262.7823862151011
 20
321.620797506468
 30
0.0
 40
3.0
 41
0.0
 71
     5
 72
     1
  1
\A1;13.5
  7
CHINESET
 11
0.0000000000000001
 21
1.0
 31
0.0
 73
     1
 44
1.0
1001
ACAD
1000
MTEXTBEGIN
1070
    73
1070
     1
1070
    44
1040
1.0
1070
    74
1070
     0
1000
MTEXTEND
  0
POINT
  5
838
330
7F0
100
AcDbEntity
  8
Defpoints
 62
     0
100
AcDbPoint
 10
278.378644420434
 20
314.8707975064679
 30
0.0
  0
POINT
  5
839
330
7F0
100
AcDbEntity
  8
Defpoints
 62
     0
100
AcDbPoint
 10
277.4631557189072
 20
328.370797506468
 30
0.0
  0
POINT
  5
83A
330
7F0
100
AcDbEntity
  8
Defpoints
 62
     0
100
AcDbPoint
 10
265.2823862151012
 20
328.370797506468
 30
0.0
  0
ENDBLK
  5
7FB
330
7F0
100
AcDbEntity
  8
0
100
AcDbBlockEnd
  0
ENDSEC
  0
SECTION
  2
ENTITIES
  0
TEXT
  5
5C5
330
1F
100
AcDbEntity
  8
LOGO
 62
     7
100
AcDbText
 10
175.311957381215
 20
192.8341658106552
 30
0.0
 40
2.932908597285067
  1
Order example:
 41
0.8
  7
CHINESET
100
AcDbText
  0
TEXT
  5
5C6
330
1F
100
AcDbEntity
  8
LOGO
 62
     7
100
AcDbText
 10
175.8381454377354
 20
196.9630938491591
 30
0.0
 40
4.399362895927601
  1
訂購代號：
  7
CHINESET
100
AcDbText
  0
LINE
  5
5C7
330
1F
100
AcDbEntity
  8
LOGO
 62
     4
100
AcDbLine
 10
483.144606792637
 20
202.470595926402
 30
0.0
 11
125.644606792637
 21
202.470595926402
 31
0.0
  0
LINE
  5
5C8
330
1F
100
AcDbEntity
  8
LOGO
 62
     4
100
AcDbLine
 10
174.0375986478407
 20
180.4737814467635
 30
0.0
 11
174.0375986478407
 21
202.470595926402
 31
0.0
  0
TEXT
  5
5C9
330
1F
100
AcDbEntity
  8
LOGO
  6
Continuous
100
AcDbText
 10
133.5459614313172
 20
184.795022455201
 30
0.0
 40
3.299522171945701
  1
金器工業股份有限公司
  7
CHINESET
100
AcDbText
  0
TEXT
  5
5CA
330
1F
100
AcDbEntity
  8
LOGO
  6
Continuous
100
AcDbText
 10
127.4853919797231
 20
181.4948538356021
 30
0.0
 40
2.1996814479638
  1
MINDMAN INDUSTRIAL CO., LTD.
 41
0.85
  7
CHINESET
100
AcDbText
  0
LINE
  5
5CB
330
1F
100
AcDbEntity
  8
LOGO
 62
     4
100
AcDbLine
 10
174.0375986478407
 20
198.0712330304741
 30
0.0
 11
141.7756040777048
 21
198.0712330304741
 31
0.0
  0
LINE
  5
5CC
330
1F
100
AcDbEntity
  8
LOGO
 62
     4
100
AcDbLine
 10
174.0375986478407
 20
193.6718701345466
 30
0.0
 11
141.7756040777048
 21
193.6718701345466
 31
0.0
  0
LINE
  5
5CD
330
1F
100
AcDbEntity
  8
LOGO
 62
     4
100
AcDbLine
 10
174.0375986478407
 20
189.2725072386193
 30
0.0
 11
125.644606792637
 21
189.2725072386193
 31
0.0
  0
LINE
  5
5CE
330
1F
100
AcDbEntity
  8
LOGO
 62
     4
100
AcDbLine
 10
141.7756040777048
 20
189.2725072386193
 30
0.0
 11
141.7756040777048
 21
202.470595926402
 31
0.0
  0
TEXT
  5
5CF
330
1F
100
AcDbEntity
  8
LOGO
100
AcDbText
 10
163.8251546234432
 20
190.3723479626008
 30
0.0
 40
2.1996814479638
  1
mm
  7
CHINESET
 72
     1
 11
166.5485697494936
 21
191.4721886865827
 31
0.0
100
AcDbText
 73
     2
  0
TEXT
  5
5D0
330
1F
100
AcDbEntity
  8
LOGO
100
AcDbText
 10
162.6729405316526
 20
199.1710737544561
 30
0.0
 40
2.1996814479638
  1
1 : 1
  7
CHINESET
 72
     1
 11
166.5485697494936
 21
200.270914478438
 31
0.0
100
AcDbText
 73
     2
  0
LINE
  5
5D1
330
1F
100
AcDbEntity
  8
LOGO
 62
     4
100
AcDbLine
 10
159.3730556614152
 20
189.2725072386193
 30
0.0
 11
159.3730556614152
 21
202.470595926402
 31
0.0
  0
TEXT
  5
5D2
330
1F
100
AcDbEntity
  8
LOGO
100
AcDbText
 10
143.5893592716285
 20
199.1721562748537
 30
144.1634983360548
 40
2.1996814479638
  1
比例 Scale:
 41
0.9
  7
CHINESET
 72
     4
 11
150.5743298695599
 21
200.270914478438
 31
144.1634983360548
100
AcDbText
  0
TEXT
  5
5D3
330
1F
100
AcDbEntity
  8
LOGO
100
AcDbText
 10
143.4626811882413
 20
194.8026528998935
 30
144.1634983360548
 40
2.1996814479638
  1
投影  View:
 41
0.9
  7
CHINESET
 72
     4
 11
150.5743298695599
 21
195.8715515825101
 31
144.1634983360548
100
AcDbText
  0
TEXT
  5
5D4
330
1F
100
AcDbEntity
  8
LOGO
100
AcDbText
 10
143.6777393298056
 20
190.3723479626008
 30
144.1634983360548
 40
2.1996814479638
  1
單位  Unit:
 41
0.9
  7
CHINESET
 72
     4
 11
150.5743298695599
 21
191.4721886865827
 31
144.1634983360548
100
AcDbText
  0
LINE
  5
5D5
330
1F
100
AcDbEntity
  8
LOGO
 62
     4
100
AcDbLine
 10
125.644606792637
 20
202.470595926402
 30
0.0
 11
483.144606792637
 21
202.470595926402
 31
0.0
1001
GENIUS_GENREC_14
1002
{
1000
PYDIR
1011
126.153166204836
1021
540.4694705924432
1031
0.0
1002
}
1002
{
1000
PXDIR
1011
483.144606792637
1021
202.470595926402
1031
0.0
1002
}
1002
{
1000
PORI
1011
125.644606792637
1021
202.470595926402
1031
0.0
1002
}
1002
{
1000
PINS
1011
125.644606792637
1021
202.470595926402
1031
0.0
1002
}
1002
{
1000
PINS2
1011
483.653166204836
1021
540.4694705924432
1031
0.0
1002
}
1002
{
1000
C
1070
     1
1002
}
1001
GENIUS_GENODEF_13
1002
{
1000
HIER
1070
     0
1002
}
1002
{
1000
MANEDIT
1070
     0
1002
}
1002
{
1000
NOSEL
1070
     0
1002
}
1002
{
1000
BEHIND
1070
     0
1002
}
1002
{
1000
OTHER
1070
     0
1002
}
1002
{
1000
REACTOR
1002
}
1001
GENIUS_GENOBJ-N-REC_13
1002
{
1000
OWNER
1000
GEN
1002
}
  0
LINE
  5
5D6
330
1F
100
AcDbEntity
  8
LOGO
 62
     4
100
AcDbLine
 10
483.144606792637
 20
540.4694705924432
 30
0.0
 11
125.644606792637
 21
540.4694705924432
 31
0.0
1001
GENIUS_GENREC_14
1002
{
1000
PYDIR
1011
126.153166204836
1021
540.4694705924432
1031
0.0
1002
}
1002
{
1000
PXDIR
1011
483.144606792637
1021
202.470595926402
1031
0.0
1002
}
1002
{
1000
PORI
1011
125.644606792637
1021
202.470595926402
1031
0.0
1002
}
1002
{
1000
PINS
1011
125.644606792637
1021
202.470595926402
1031
0.0
1002
}
1002
{
1000
PINS2
1011
483.653166204836
1021
540.4694705924432
1031
0.0
1002
}
1002
{
1000
C
1070
     1
1002
}
1001
GENIUS_GENODEF_13
1002
{
1000
HIER
1070
     0
1002
}
1002
{
1000
MANEDIT
1070
     0
1002
}
1002
{
1000
NOSEL
1070
     0
1002
}
1002
{
1000
BEHIND
1070
     0
1002
}
1002
{
1000
OTHER
1070
     0
1002
}
1002
{
1000
REACTOR
1002
}
1001
GENIUS_GENOBJ-N-REC_13
1002
{
1000
OWNER
1000
GEN
1002
}
  0
SOLID
  5
5D7
330
1F
100
AcDbEntity
  8
LOGO
 62
     5
100
AcDbTrace
 10
127.9268115971014
 20
192.9291645458598
 30
0.0
 11
128.8778961355598
 21
192.9291645458598
 31
0.0
 12
132.8462143822306
 22
201.9480696519309
 32
0.0
 13
133.7972989206895
 23
201.9480696519304
 33
0.0
  0
SOLID
  5
5D8
330
1F
100
AcDbEntity
  8
LOGO
 62
     5
100
AcDbTrace
 10
129.2714483583711
 20
192.9291645458598
 30
0.0
 11
130.2225328968294
 21
192.9291645458598
 31
0.0
 12
133.7972989206895
 22
201.2265572434448
 32
0.0
 13
132.8462143822306
 23
197.7392472690974
 33
0.0
  0
SOLID
  5
5D9
330
1F
100
AcDbEntity
  8
LOGO
 62
     2
100
AcDbTrace
 10
128.8778961355598
 20
192.9291645458598
 30
0.0
 11
129.2714483583711
 21
192.9291645458598
 31
0.0
 12
133.7972989206895
 22
201.9480696519304
 32
0.0
 13
134.1908511435004
 23
201.9480696519304
 33
0.0
  0
SOLID
  5
5DA
330
1F
100
AcDbEntity
  8
LOGO
 62
     5
100
AcDbTrace
 10
126.4019898474542
 20
189.6495626891073
 30
0.0
 11
126.7299500331298
 21
189.6495626891073
 31
0.0
 12
127.6535114423723
 22
191.2893636174835
 32
0.0
 13
127.9814716280469
 23
191.2893636174835
 33
0.0
  0
SOLID
  5
5DB
330
1F
100
AcDbEntity
  8
LOGO
 62
     5
100
AcDbTrace
 10
127.6535114423723
 20
191.2893636174835
 30
0.0
 11
127.9814716280469
 21
191.2893636174835
 31
0.0
 12
127.6535114423723
 22
189.6495626891073
 32
0.0
 13
127.9814716280469
 23
189.6495626891073
 33
0.0
  0
SOLID
  5
5DC
330
1F
100
AcDbEntity
  8
LOGO
 62
     5
100
AcDbTrace
 10
127.6535114423723
 20
189.6495626891073
 30
0.0
 11
127.9814716280469
 21
189.6495626891073
 31
0.0
 12
128.9050330372909
 22
191.2893636174835
 32
0.0
 13
129.232993222966
 23
191.2893636174835
 33
0.0
  0
SOLID
  5
5DD
330
1F
100
AcDbEntity
  8
LOGO
 62
     5
100
AcDbTrace
 10
128.9050330372909
 20
191.2893636174835
 30
0.0
 11
129.232993222966
 21
191.2893636174835
 31
0.0
 12
128.9050330372909
 22
189.6495626891073
 32
0.0
 13
129.232993222966
 23
189.6495626891073
 33
0.0
  0
ARC
  5
5DE
330
1F
100
AcDbEntity
  8
LOGO
 62
     5
100
AcDbCircle
 10
139.4054180957373
 20
190.6334432461327
 30
0.0
 40
0.4927286443439698
100
AcDbArc
 50
0.0
 51
180.0
  0
ARC
  5
5DF
330
1F
100
AcDbEntity
  8
LOGO
 62
     5
100
AcDbCircle
 10
137.5469989075891
 20
190.469463125092
 30
0.0
 40
0.4919402785129713
100
AcDbArc
 50
179.9999967151939
 51
0.0000032848060377
  0
ARC
  5
5E0
330
1F
100
AcDbEntity
  8
LOGO
 62
     5
100
AcDbCircle
 10
137.5469989075891
 20
190.4694631814985
 30
0.0
 40
0.4919402785129713
100
AcDbArc
 50
359.999996715194
 51
180.000003284806
  0
CIRCLE
  5
5E1
330
1F
100
AcDbEntity
  8
LOGO
 62
     5
100
AcDbCircle
 10
137.5469989075898
 20
190.4694631532952
 30
0.0
 40
0.4919402785129413
  0
ARC
  5
5E2
330
1F
100
AcDbEntity
  8
LOGO
 62
     5
100
AcDbCircle
 10
137.5469989075893
 20
190.4694631532952
 30
0.0
 40
0.6569715257918461
100
AcDbArc
 50
180.0
 51
0.0
  0
ARC
  5
5E3
330
1F
100
AcDbEntity
  8
LOGO
 62
     5
100
AcDbCircle
 10
137.5469989075893
 20
190.4694631532952
 30
0.0
 40
0.6569715257918461
100
AcDbArc
 50
0.0
 51
180.0
  0
LINE
  5
5E4
330
1F
100
AcDbEntity
  8
LOGO
100
AcDbLine
 10
140.0613384670873
 20
189.6495626891073
 30
0.0
 11
140.0613384670873
 21
190.6334432461327
 31
0.0
  0
SOLID
  5
5E5
330
1F
100
AcDbEntity
  8
LOGO
 62
     5
100
AcDbTrace
 10
138.0389063900849
 20
191.2893636174835
 30
0.0
 11
138.3668665757595
 21
191.2893636174835
 31
0.0
 12
138.0389063900849
 22
189.6495626891073
 32
0.0
 13
138.3668665757595
 23
189.6495626891073
 33
0.0
  0
SOLID
  5
5E6
330
1F
100
AcDbEntity
  8
LOGO
 62
     5
100
AcDbTrace
 10
138.7494977243863
 20
189.6495626891073
 30
0.0
 11
139.077457910062
 21
189.6495626891073
 31
0.0
 12
138.7494977243863
 22
191.2893636174835
 32
0.0
 13
139.077457910062
 23
191.2893636174835
 33
0.0
  0
SOLID
  5
5E7
330
1F
100
AcDbEntity
  8
LOGO
 62
     5
100
AcDbTrace
 10
139.7333782814127
 20
190.6334432461327
 30
0.0
 11
140.0613384670873
 21
190.6334432461327
 31
0.0
 12
139.7333782814127
 22
189.6495626891073
 32
0.0
 13
140.0613384670873
 23
189.6495626891073
 33
0.0
  0
SOLID
  5
5E8
330
1F
100
AcDbEntity
  8
LOGO
 62
     5
100
AcDbTrace
 10
138.7167017058186
 20
201.2265572434448
 30
0.0
 11
137.7656171673608
 21
197.7392472690974
 31
0.0
 12
138.7167017058186
 22
192.9291645458598
 32
0.0
 13
137.7656171673608
 23
192.9291645458598
 33
0.0
  0
SOLID
  5
5E9
330
1F
100
AcDbEntity
  8
LOGO
 62
     5
100
AcDbTrace
 10
139.1102539286295
 20
192.9291645458598
 30
0.0
 11
140.0613384670873
 21
192.9291645458598
 31
0.0
 12
139.1102539286295
 22
201.9480696519304
 32
0.0
 13
140.0613384670873
 23
201.9480696519309
 33
0.0
  0
SOLID
  5
5EA
330
1F
100
AcDbEntity
  8
LOGO
 62
     2
100
AcDbTrace
 10
138.7167017058186
 20
201.9480696519309
 30
0.0
 11
139.1102539286295
 21
201.9480696519304
 31
0.0
 12
138.7167017058186
 22
192.9291645458598
 32
0.0
 13
139.1102539286295
 23
192.9291645458598
 33
0.0
  0
ARC
  5
5EB
330
1F
100
AcDbEntity
  8
LOGO
 62
     5
100
AcDbCircle
 10
134.7046335703791
 20
190.6334432461327
 30
0.0
 40
0.4927286443440835
100
AcDbArc
 50
0.0
 51
180.0
  0
ARC
  5
5EC
330
1F
100
AcDbEntity
  8
LOGO
 62
     5
100
AcDbCircle
 10
135.6885141274043
 20
190.6334432461327
 30
0.0
 40
0.4927286443437425
100
AcDbArc
 50
0.0
 51
180.0
  0
ARC
  5
5ED
330
1F
100
AcDbEntity
  8
LOGO
 62
     5
100
AcDbCircle
 10
130.9877296020462
 20
190.6334432461327
 30
0.0
 40
0.4927286443437425
100
AcDbArc
 50
0.0
 51
180.0
  0
SOLID
  5
5EE
330
1F
100
AcDbEntity
  8
LOGO
 62
     5
100
AcDbTrace
 10
130.3318092306958
 20
191.2893636174835
 30
0.0
 11
130.6597694163705
 21
191.2893636174835
 31
0.0
 12
130.3318092306958
 22
189.6495626891073
 32
0.0
 13
130.6597694163705
 23
189.6495626891073
 33
0.0
  0
SOLID
  5
5EF
330
1F
100
AcDbEntity
  8
LOGO
 62
     5
100
AcDbTrace
 10
131.3156897877218
 20
190.6334432461327
 30
0.0
 11
131.6436499733975
 21
190.6334432461327
 31
0.0
 12
131.3156897877218
 22
189.6495626891073
 32
0.0
 13
131.6436499733975
 23
189.6495626891073
 33
0.0
  0
ARC
  5
5F0
330
1F
100
AcDbEntity
  8
LOGO
 62
     5
100
AcDbCircle
 10
132.8462143822308
 20
190.4694631532952
 30
0.0
 40
0.6569715257920734
100
AcDbArc
 50
180.0
 51
0.0
  0
ARC
  5
5F1
330
1F
100
AcDbEntity
  8
LOGO
 62
     5
100
AcDbCircle
 10
132.8462143822308
 20
190.4694631532952
 30
0.0
 40
0.6569715257920734
100
AcDbArc
 50
0.0
 51
180.0
  0
SOLID
  5
5F2
330
1F
100
AcDbEntity
  8
LOGO
 62
     5
100
AcDbTrace
 10
133.3381218647257
 20
191.7813038959967
 30
0.0
 11
133.6660820504008
 21
191.7813038959967
 31
0.0
 12
133.3381218647257
 22
189.6495626891073
 32
0.0
 13
133.6660820504008
 23
189.6495626891073
 33
0.0
  0
SOLID
  5
5F3
330
1F
100
AcDbEntity
  8
LOGO
 62
     5
100
AcDbTrace
 10
134.048713199029
 20
191.2893636174835
 30
0.0
 11
134.3766733847037
 21
191.2893636174835
 31
0.0
 12
134.048713199029
 22
189.6495626891073
 32
0.0
 13
134.3766733847037
 23
189.6495626891073
 33
0.0
  0
SOLID
  5
5F4
330
1F
100
AcDbEntity
  8
LOGO
 62
     5
100
AcDbTrace
 10
135.0325937560541
 20
190.6334432461327
 30
0.0
 11
135.3605539417296
 21
190.6334432461327
 31
0.0
 12
135.0325937560541
 22
189.6495626891073
 32
0.0
 13
135.3605539417296
 23
189.6495626891073
 33
0.0
  0
SOLID
  5
5F5
330
1F
100
AcDbEntity
  8
LOGO
 62
     5
100
AcDbTrace
 10
136.01647431308
 20
190.6334432461327
 30
0.0
 11
136.3444344987551
 21
190.6334432461327
 31
0.0
 12
136.01647431308
 22
189.6495626891068
 32
0.0
 13
136.3444344987551
 23
189.6495626891068
 33
0.0
  0
SOLID
  5
5F6
330
1F
100
AcDbEntity
  8
LOGO
 62
     5
100
AcDbTrace
 10
129.621217896393
 20
191.5189357474563
 30
0.0
 11
129.9491780820691
 21
191.5189357474563
 31
0.0
 12
129.621217896393
 22
191.7813038959967
 32
0.0
 13
129.9491780820691
 23
191.7813038959967
 33
0.0
  0
SOLID
  5
5F7
330
1F
100
AcDbEntity
  8
LOGO
 62
     5
100
AcDbTrace
 10
129.621217896393
 20
191.2893636174835
 30
0.0
 11
129.9491780820691
 21
191.2893636174835
 31
0.0
 12
129.621217896393
 22
189.6495626891068
 32
0.0
 13
129.9491780820691
 23
189.6495626891073
 33
0.0
  0
SOLID
  5
5F8
330
1F
100
AcDbEntity
  8
LOGO
 62
     5
100
AcDbTrace
 10
132.8462143822306
 20
192.9291645458598
 30
0.0
 11
133.7972989206895
 21
192.9291645458598
 31
0.0
 12
132.8462143822306
 22
197.7392472690974
 32
0.0
 13
133.7972989206895
 23
201.2265572434448
 33
0.0
  0
SOLID
  5
5F9
330
1F
100
AcDbEntity
  8
LOGO
 62
     5
100
AcDbTrace
 10
134.1908511435004
 20
201.9480696519304
 30
0.0
 11
135.1419356819582
 21
201.9480696519309
 31
0.0
 12
134.1908511435004
 22
193.6506769543453
 32
0.0
 13
135.1419356819582
 23
197.1379869286927
 33
0.0
  0
SOLID
  5
5FA
330
1F
100
AcDbEntity
  8
LOGO
 62
     2
100
AcDbTrace
 10
133.7972989206895
 20
201.9480696519304
 30
0.0
 11
134.1908511435004
 21
201.9480696519304
 31
0.0
 12
133.7972989206895
 22
192.9291645458598
 32
0.0
 13
134.1908511435004
 23
192.9291645458598
 33
0.0
  0
SOLID
  5
5FB
330
1F
100
AcDbEntity
  8
LOGO
 62
     5
100
AcDbTrace
 10
134.1908511435004
 20
193.6506769543453
 30
0.0
 11
135.1419356819582
 21
197.1379869286927
 31
0.0
 12
138.7167017058186
 22
201.9480696519309
 32
0.0
 13
137.7656171673608
 23
201.9480696519309
 33
0.0
  0
SOLID
  5
5FC
330
1F
100
AcDbEntity
  8
LOGO
 62
     5
100
AcDbTrace
 10
134.1908511435004
 20
192.9291645458598
 30
0.0
 11
135.1419356819582
 21
192.9291645458598
 31
0.0
 12
138.7167017058186
 22
201.2265572434448
 32
0.0
 13
137.7656171673608
 23
197.7392472690974
 33
0.0
  0
SOLID
  5
5FD
330
1F
100
AcDbEntity
  8
LOGO
 62
     2
100
AcDbTrace
 10
133.7972989206895
 20
192.9291645458598
 30
0.0
 11
134.1908511435004
 21
192.9291645458598
 31
0.0
 12
138.7167017058186
 22
201.9480696519309
 32
0.0
 13
139.1102539286295
 23
201.9480696519304
 33
0.0
  0
LINE
  5
5FE
330
1F
100
AcDbEntity
  8
LOGO
 62
     4
100
AcDbLine
 10
125.644606792637
 20
202.470595926402
 30
0.0
 11
483.144606792637
 21
202.470595926402
 31
0.0
1001
GENIUS_GENREC_14
1002
{
1000
PYDIR
1011
125.644606792637
1021
180.4737814467635
1031
0.0
1002
}
1002
{
1000
PXDIR
1011
483.144606792637
1021
202.470595926402
1031
0.0
1002
}
1002
{
1000
PORI
1011
125.644606792637
1021
202.470595926402
1031
0.0
1002
}
1002
{
1000
PINS
1011
125.644606792637
1021
202.470595926402
1031
0.0
1002
}
1002
{
1000
PINS2
1011
483.144606792637
1021
180.4737814467635
1031
0.0
1002
}
1002
{
1000
C
1070
     1
1002
}
1001
GENIUS_GENOBJ-N-REC_13
1002
{
1000
OWNER
1000
GEN
1002
}
1001
GENIUS_GENODEF_13
1002
{
1000
HIER
1070
     0
1002
}
1002
{
1000
MANEDIT
1070
     0
1002
}
1002
{
1000
NOSEL
1070
     0
1002
}
1002
{
1000
BEHIND
1070
     0
1002
}
1002
{
1000
OTHER
1070
     0
1002
}
1002
{
1000
REACTOR
1002
}
  0
LINE
  5
5FF
330
1F
100
AcDbEntity
  8
LOGO
 62
     4
100
AcDbLine
 10
483.144606792637
 20
202.470595926402
 30
0.0
 11
483.144606792637
 21
180.4737814467635
 31
0.0
1001
GENIUS_GENREC_14
1002
{
1000
PYDIR
1011
125.644606792637
1021
180.4737814467635
1031
0.0
1002
}
1002
{
1000
PXDIR
1011
483.144606792637
1021
202.470595926402
1031
0.0
1002
}
1002
{
1000
PORI
1011
125.644606792637
1021
202.470595926402
1031
0.0
1002
}
1002
{
1000
PINS
1011
125.644606792637
1021
202.470595926402
1031
0.0
1002
}
1002
{
1000
PINS2
1011
483.144606792637
1021
180.4737814467635
1031
0.0
1002
}
1002
{
1000
C
1070
     1
1002
}
1001
GENIUS_GENOBJ-N-REC_13
1002
{
1000
OWNER
1000
GEN
1002
}
1001
GENIUS_GENODEF_13
1002
{
1000
HIER
1070
     0
1002
}
1002
{
1000
MANEDIT
1070
     0
1002
}
1002
{
1000
NOSEL
1070
     0
1002
}
1002
{
1000
BEHIND
1070
     0
1002
}
1002
{
1000
OTHER
1070
     0
1002
}
1002
{
1000
REACTOR
1002
}
  0
LINE
  5
600
330
1F
100
AcDbEntity
  8
LOGO
 62
     4
100
AcDbLine
 10
483.144606792637
 20
180.4737814467635
 30
0.0
 11
125.644606792637
 21
180.4737814467635
 31
0.0
1001
GENIUS_GENREC_14
1002
{
1000
PYDIR
1011
125.644606792637
1021
180.4737814467635
1031
0.0
1002
}
1002
{
1000
PXDIR
1011
483.144606792637
1021
202.470595926402
1031
0.0
1002
}
1002
{
1000
PORI
1011
125.644606792637
1021
202.470595926402
1031
0.0
1002
}
1002
{
1000
PINS
1011
125.644606792637
1021
202.470595926402
1031
0.0
1002
}
1002
{
1000
PINS2
1011
483.144606792637
1021
180.4737814467635
1031
0.0
1002
}
1002
{
1000
C
1070
     1
1002
}
1001
GENIUS_GENOBJ-N-REC_13
1002
{
1000
OWNER
1000
GEN
1002
}
1001
GENIUS_GENODEF_13
1002
{
1000
HIER
1070
     0
1002
}
1002
{
1000
MANEDIT
1070
     0
1002
}
1002
{
1000
NOSEL
1070
     0
1002
}
1002
{
1000
BEHIND
1070
     0
1002
}
1002
{
1000
OTHER
1070
     0
1002
}
1002
{
1000
REACTOR
1002
}
  0
LINE
  5
601
330
1F
100
AcDbEntity
  8
LOGO
 62
     4
100
AcDbLine
 10
125.644606792637
 20
180.4737814467635
 30
0.0
 11
125.644606792637
 21
202.470595926402
 31
0.0
1001
GENIUS_GENREC_14
1002
{
1000
PYDIR
1011
125.644606792637
1021
180.4737814467635
1031
0.0
1002
}
1002
{
1000
PXDIR
1011
483.144606792637
1021
202.470595926402
1031
0.0
1002
}
1002
{
1000
PORI
1011
125.644606792637
1021
202.470595926402
1031
0.0
1002
}
1002
{
1000
PINS
1011
125.644606792637
1021
202.470595926402
1031
0.0
1002
}
1002
{
1000
PINS2
1011
483.144606792637
1021
180.4737814467635
1031
0.0
1002
}
1002
{
1000
C
1070
     1
1002
}
1001
GENIUS_GENOBJ-N-REC_13
1002
{
1000
OWNER
1000
GEN
1002
}
1001
GENIUS_GENODEF_13
1002
{
1000
HIER
1070
     0
1002
}
1002
{
1000
MANEDIT
1070
     0
1002
}
1002
{
1000
NOSEL
1070
     0
1002
}
1002
{
1000
BEHIND
1070
     0
1002
}
1002
{
1000
OTHER
1070
     0
1002
}
1002
{
1000
REACTOR
1002
}
  0
TEXT
  5
602
330
1F
100
AcDbEntity
  8
LOGO
100
AcDbText
 10
175.2401211315354
 20
181.644003295077
 30
0.0
 40
2.2
  1
10603201
 41
0.7
  7
CHINESET
 72
     1
 11
180.4101211315354
 21
181.644003295077
 31
0.0
100
AcDbText
  0
LINE
  5
603
330
1F
100
AcDbEntity
  8
LOGO
 62
     4
100
AcDbLine
 10
187.2375986478397
 20
184.8731443426919
 30
0.0
 11
187.2375986478407
 21
180.473781446764
 31
0.0
  0
LINE
  5
604
330
1F
100
AcDbEntity
  8
LOGO
 62
     4
100
AcDbLine
 10
187.2375986478397
 20
184.8731443426919
 30
0.0
 11
174.0375986478407
 21
184.8731443426919
 31
0.0
  0
CIRCLE
  5
605
330
1F
100
AcDbEntity
  8
LOGO
  6
Continuous
100
AcDbCircle
 10
163.4460409941264
 20
195.8762567172246
 30
0.0
 40
1.277186823352694
  0
CIRCLE
  5
606
330
1F
100
AcDbEntity
  8
LOGO
  6
Continuous
100
AcDbCircle
 10
163.4460409941264
 20
195.8762567172246
 30
0.0
 40
0.748318415532157
  0
LINE
  5
607
330
1F
100
AcDbEntity
  8
LOGO
100
AcDbLine
 10
171.4720311905665
 20
194.5990698938717
 30
0.0
 11
171.4720311905665
 21
197.1534435405775
 31
0.0
  0
LINE
  5
608
330
1F
100
AcDbEntity
  8
LOGO
100
AcDbLine
 10
167.4681238133779
 20
195.1279383016923
 30
0.0
 11
167.4681238133779
 21
196.6245751327569
 31
0.0
  0
LINE
  5
609
330
1F
100
AcDbEntity
  8
LOGO
  6
Continuous
100
AcDbLine
 10
167.4681238133779
 20
196.6245751327569
 30
0.0
 11
171.4720311905665
 21
197.1534435405775
 31
0.0
  0
LINE
  5
60A
330
1F
100
AcDbEntity
  8
LOGO
  6
Continuous
100
AcDbLine
 10
167.4681238133779
 20
195.1279383016923
 30
0.0
 11
171.4720311905665
 21
194.5990698938717
 31
0.0
  0
LINE
  5
60B
330
1F
100
AcDbEntity
  8
LOGO
  6
AM_ISO08W050x2
 48
0.3
100
AcDbLine
 10
161.6854198337679
 20
195.8762567172246
 30
0.0
 11
165.2066621544848
 21
195.8762567172246
 31
0.0
1001
GENIUS_GENOREF_13
1005
7A7
  0
LINE
  5
60C
330
1F
100
AcDbEntity
  8
LOGO
  6
AM_ISO08W050x2
 48
0.3
100
AcDbLine
 10
163.4460409941264
 20
194.1156355568662
 30
0.0
 11
163.4460409941264
 21
197.636877877583
 31
0.0
1001
GENIUS_GENOREF_13
1005
7A6
  0
LINE
  5
60D
330
1F
100
AcDbEntity
  8
LOGO
  6
CENTER
 48
0.5
100
AcDbLine
 10
167.1479225112876
 20
195.8762567172246
 30
0.0
 11
171.875211702133
 21
195.8762567172246
 31
0.0
1001
GENIUS_GENOREF_13
1005
7A5
  0
LINE
  5
60E
330
1F
100
AcDbEntity
  8
LOGO
 62
     4
100
AcDbLine
 10
220.2758481115816
 20
190.3723479626015
 30
0.0
 11
220.2758481115816
 21
182.3068493200671
 31
0.0
  0
LINE
  5
60F
330
1F
100
AcDbEntity
  8
LOGO
 62
     4
100
AcDbLine
 10
205.6113051251562
 20
190.3723479626015
 30
0.0
 11
205.6113051251562
 21
182.3068493200671
 31
0.0
  0
LINE
  5
610
330
1F
100
AcDbEntity
  8
LOGO
 62
     4
100
AcDbLine
 10
220.2758481115816
 20
182.3068493200671
 30
0.0
 11
205.6113051251562
 21
182.3068493200671
 31
0.0
  0
LINE
  5
611
330
1F
100
AcDbEntity
  8
LOGO
 62
     4
100
AcDbLine
 10
221.7672446731485
 20
200.270914478438
 30
0.0
 11
204.2932406963958
 21
200.270914478438
 31
0.0
  0
LINE
  5
612
330
1F
100
AcDbEntity
  8
LOGO
 62
     4
100
AcDbLine
 10
221.7672446731485
 20
193.6718701345469
 30
0.0
 11
204.2932406963958
 21
193.6718701345469
 31
0.0
  0
LINE
  5
613
330
1F
100
AcDbEntity
  8
LOGO
 62
     4
100
AcDbLine
 10
204.2932406963958
 20
200.270914478438
 30
0.0
 11
204.2932406963958
 21
193.6718701345469
 31
0.0
  0
LINE
  5
614
330
1F
100
AcDbEntity
  8
LOGO
 62
     4
100
AcDbLine
 10
221.7672446731485
 20
200.270914478438
 30
0.0
 11
221.7672446731485
 21
193.6718701345469
 31
0.0
  0
LINE
  5
615
330
1F
100
AcDbEntity
  8
LOGO
 62
     4
100
AcDbLine
 10
212.3906330056686
 20
193.6718701345469
 30
0.0
 11
212.3906330056686
 21
190.3723479626015
 31
0.0
  0
LINE
  5
616
330
1F
100
AcDbEntity
  8
LOGO
 62
     4
100
AcDbLine
 10
220.2758481115816
 20
190.3723479626015
 30
0.0
 11
205.6113051251562
 21
190.3723479626015
 31
0.0
  0
TEXT
  5
617
330
1F
100
AcDbEntity
  8
LOGO
  6
Continuous
100
AcDbText
 10
210.3946463894439
 20
183.4452773501737
 30
144.1634983360548
 40
1.649999999999999
  1
Model
 41
0.8
  7
CHINESET
100
AcDbText
  0
TEXT
  5
618
330
1F
100
AcDbEntity
  8
LOGO
100
AcDbText
 10
209.9554700276448
 20
186.5040217497938
 30
144.1634983360548
 40
2.75
  1
型號
  7
CHINESET
100
AcDbText
  0
LINE
  5
619
330
1F
100
AcDbEntity
  8
LOGO
  6
Continuous
 62
     7
100
AcDbLine
 10
222.4687776272548
 20
196.9480174485311
 30
0.0
 11
225.3826748210883
 21
196.9480174485311
 31
0.0
  0
LINE
  5
61A
330
1F
100
AcDbEntity
  8
LOGO
 62
     4
100
AcDbLine
 10
224.6539476879402
 20
190.3723479626015
 30
0.0
 11
224.6539476879402
 21
182.3068493200671
 31
0.0
  0
LINE
  5
61B
330
1F
100
AcDbEntity
  8
LOGO
 62
     4
100
AcDbLine
 10
237.108866114909
 20
182.3068493200671
 30
0.0
 11
224.6539476879402
 21
182.3068493200671
 31
0.0
  0
LINE
  5
61C
330
1F
100
AcDbEntity
  8
LOGO
 62
     4
100
AcDbLine
 10
234.7998550563358
 20
200.270914478438
 30
0.0
 11
226.3018557850551
 21
200.270914478438
 31
0.0
  0
LINE
  5
61D
330
1F
100
AcDbEntity
  8
LOGO
 62
     4
100
AcDbLine
 10
234.7998550563358
 20
193.6718701345469
 30
0.0
 11
226.3018557850551
 21
193.6718701345469
 31
0.0
  0
LINE
  5
61E
330
1F
100
AcDbEntity
  8
LOGO
 62
     4
100
AcDbLine
 10
226.3018557850551
 20
200.270914478438
 30
0.0
 11
226.3018557850551
 21
193.6718701345469
 31
0.0
  0
LINE
  5
61F
330
1F
100
AcDbEntity
  8
LOGO
 62
     4
100
AcDbLine
 10
234.7998550563358
 20
200.270914478438
 30
0.0
 11
234.7998550563358
 21
193.6718701345469
 31
0.0
  0
LINE
  5
620
330
1F
100
AcDbEntity
  8
LOGO
 62
     4
100
AcDbLine
 10
230.5508554206952
 20
193.6718701345469
 30
0.0
 11
230.5508554206952
 21
190.3723479626015
 31
0.0
  0
LINE
  5
621
330
1F
100
AcDbEntity
  8
LOGO
 62
     4
100
AcDbLine
 10
237.108866114909
 20
190.3723479626015
 30
0.0
 11
224.6539476879402
 21
190.3723479626015
 31
0.0
  0
TEXT
  5
622
330
1F
100
AcDbEntity
  8
LOGO
  6
Continuous
100
AcDbText
 10
228.0830065558919
 20
183.4452773501737
 30
144.1634983360548
 40
1.649999999999999
  1
CODE
 41
0.8
  7
CHINESET
100
AcDbText
  0
TEXT
  5
623
330
1F
100
AcDbEntity
  8
LOGO
100
AcDbText
 10
228.0674629844172
 20
186.5040217497938
 30
144.1634983360548
 40
2.75
  1
記號
  7
CHINESET
100
AcDbText
  0
TEXT
  5
624
330
1F
100
AcDbEntity
  8
LOGO
100
AcDbText
 10
208.5598697517041
 20
195.9340599139807
 30
144.1634983360548
 40
2.75
  1
MWA
  7
CHINESET
100
AcDbText
  0
TEXT
  5
625
330
1F
100
AcDbEntity
  8
LOGO
100
AcDbText
 10
228.6048207334405
 20
195.9340599139807
 30
144.1634983360548
 40
2.75
  1
15
  7
CHINESET
100
AcDbText
  0
LINE
  5
626
330
1F
100
AcDbEntity
  8
LOGO
 62
     4
100
AcDbLine
 10
237.108866114909
 20
190.3723479626015
 30
0.0
 11
237.108866114909
 21
182.3068493200671
 31
0.0
  0
LINE
  5
627
330
1F
100
AcDbEntity
  8
AM_7
 62
     1
100
AcDbLine
 10
315.3786444204341
 20
453.0538344596895
 30
0.0
 11
315.3786444204341
 21
310.5087468214897
 31
0.0
  0
LINE
  5
628
330
1F
100
AcDbEntity
  8
AM_7
 62
     1
100
AcDbLine
 10
273.1286444204341
 20
418.2945804163497
 30
0.0
 11
273.1286444204341
 21
391.494337680339
 31
0.0
  0
LINE
  5
629
330
1F
100
AcDbEntity
  8
AM_7
 62
     1
100
AcDbLine
 10
412.0192364322352
 20
343.7945804163498
 30
0.0
 11
412.0192364322352
 21
331.0281590312974
 31
0.0
  0
LINE
  5
62A
330
1F
100
AcDbEntity
  8
AM_7
 62
     1
100
AcDbLine
 10
412.0192364322352
 20
321.2000109872844
 30
0.0
 11
412.0192364322352
 21
312.2945804163497
 31
0.0
  0
LINE
  5
62B
330
1F
100
AcDbEntity
  8
AM_7
 62
     1
100
AcDbLine
 10
412.0192364322352
 20
337.4332975064679
 30
0.0
 11
412.0192364322352
 21
339.4332975064679
 31
0.0
  0
LINE
  5
62C
330
1F
100
AcDbEntity
  8
AM_7
 62
     1
100
AcDbLine
 10
412.0192364322352
 20
312.8707975064679
 30
0.0
 11
412.0192364322352
 21
336.4332975064679
 31
0.0
  0
LINE
  5
62D
330
1F
100
AcDbEntity
  8
AM_7
 62
     1
100
AcDbLine
 10
412.0192364322352
 20
340.4332975064679
 30
0.0
 11
412.0192364322352
 21
458.4110952480002
 31
0.0
  0
LINE
  5
62E
330
1F
100
AcDbEntity
  8
AM_7
 62
     1
100
AcDbLine
 10
412.0192364322352
 20
327.3707975064679
 30
0.0
 11
412.0192364322352
 21
329.3707975064679
 31
0.0
  0
LINE
  5
62F
330
1F
100
AcDbEntity
  8
AM_7
 62
     1
100
AcDbLine
 10
412.0192364322352
 20
317.3707975064679
 30
0.0
 11
412.0192364322352
 21
326.3707975064678
 31
0.0
  0
LINE
  5
630
330
1F
100
AcDbEntity
  8
AM_7
 62
     1
100
AcDbLine
 10
412.0192364322352
 20
330.3707975064678
 30
0.0
 11
412.0192364322352
 21
339.3707975064679
 31
0.0
  0
LINE
  5
631
330
1F
100
AcDbEntity
  8
AM_7
 62
     1
100
AcDbLine
 10
186.0918700273299
 20
343.7945804163498
 30
0.0
 11
186.0918700273299
 21
331.0281590312974
 31
0.0
  0
LINE
  5
632
330
1F
100
AcDbEntity
  8
AM_7
 62
     1
100
AcDbLine
 10
186.0918700273299
 20
321.2000109872844
 30
0.0
 11
186.0918700273299
 21
312.2945804163497
 31
0.0
  0
LINE
  5
633
330
1F
100
AcDbEntity
  8
AM_7
 62
     1
100
AcDbLine
 10
167.5918700273299
 20
343.7945804163498
 30
0.0
 11
167.5918700273299
 21
337.7945804163497
 31
0.0
  0
LINE
  5
634
330
1F
100
AcDbEntity
  8
AM_7
 62
     1
100
AcDbLine
 10
204.59187002733
 20
343.7945804163498
 30
0.0
 11
204.59187002733
 21
337.7945804163497
 31
0.0
  0
LINE
  5
635
330
1F
100
AcDbEntity
  8
AM_7
 62
     1
100
AcDbLine
 10
185.0918700273299
 20
429.0945804163497
 30
0.0
 11
187.0918700273299
 21
429.0945804163497
 31
0.0
  0
LINE
  5
636
330
1F
100
AcDbEntity
  8
AM_7
 62
     1
100
AcDbLine
 10
180.5918700273299
 20
429.0945804163497
 30
0.0
 11
184.0918700273299
 21
429.0945804163497
 31
0.0
  0
LINE
  5
637
330
1F
100
AcDbEntity
  8
AM_7
 62
     1
100
AcDbLine
 10
188.0918700273299
 20
429.0945804163497
 30
0.0
 11
191.5918700273299
 21
429.0945804163497
 31
0.0
  0
LINE
  5
638
330
1F
100
AcDbEntity
  8
AM_7
 62
     1
100
AcDbLine
 10
186.0918700273299
 20
337.4332975064679
 30
0.0
 11
186.0918700273299
 21
339.4332975064679
 31
0.0
  0
LINE
  5
639
330
1F
100
AcDbEntity
  8
AM_7
 62
     1
100
AcDbLine
 10
186.0918700273299
 20
312.8707975064679
 30
0.0
 11
186.0918700273299
 21
336.4332975064679
 31
0.0
  0
LINE
  5
63A
330
1F
100
AcDbEntity
  8
AM_7
 62
     1
100
AcDbLine
 10
186.0918700273299
 20
340.4332975064679
 30
0.0
 11
186.0918700273299
 21
453.045069143209
 31
0.0
  0
LINE
  5
63B
330
1F
100
AcDbEntity
  8
AM_7
 62
     1
100
AcDbLine
 10
186.0918700273299
 20
327.3707975064679
 30
0.0
 11
186.0918700273299
 21
329.3707975064679
 31
0.0
  0
LINE
  5
63C
330
1F
100
AcDbEntity
  8
AM_7
 62
     1
100
AcDbLine
 10
186.0918700273299
 20
317.3707975064679
 30
0.0
 11
186.0918700273299
 21
326.3707975064678
 31
0.0
  0
LINE
  5
63D
330
1F
100
AcDbEntity
  8
AM_7
 62
     1
100
AcDbLine
 10
186.0918700273299
 20
330.3707975064678
 30
0.0
 11
186.0918700273299
 21
339.3707975064679
 31
0.0
  0
LINE
  5
63E
330
1F
100
AcDbEntity
  8
AM_7
 62
     1
100
AcDbLine
 10
185.0918700273299
 20
380.5445804163497
 30
0.0
 11
187.0918700273299
 21
380.5445804163497
 31
0.0
  0
LINE
  5
63F
330
1F
100
AcDbEntity
  8
AM_7
 62
     1
100
AcDbLine
 10
182.5918700273299
 20
380.5445804163497
 30
0.0
 11
184.0918700273299
 21
380.5445804163497
 31
0.0
  0
LINE
  5
640
330
1F
100
AcDbEntity
  8
AM_7
 62
     1
100
AcDbLine
 10
188.0918700273299
 20
380.5445804163497
 30
0.0
 11
189.5918700273299
 21
380.5445804163497
 31
0.0
  0
LINE
  5
641
330
1F
100
AcDbEntity
  8
AM_7
 62
     1
100
AcDbLine
 10
314.3786444204341
 20
496.7575165285654
 30
0.0
 11
316.3786444204341
 21
496.7575165285654
 31
0.0
  0
LINE
  5
642
330
1F
100
AcDbEntity
  8
AM_7
 62
     1
100
AcDbLine
 10
315.3786444204341
 20
495.7575165285654
 30
0.0
 11
315.3786444204341
 21
497.7575165285655
 31
0.0
  0
LINE
  5
643
330
1F
100
AcDbEntity
  8
AM_7
 62
     1
100
AcDbLine
 10
252.6013010899998
 20
496.7575165285654
 30
0.0
 11
313.3786444204341
 21
496.7575165285654
 31
0.0
  0
LINE
  5
644
330
1F
100
AcDbEntity
  8
AM_7
 62
     1
100
AcDbLine
 10
317.3786444204341
 20
496.7575165285654
 30
0.0
 11
360.1059106527551
 21
496.7575165285654
 31
0.0
  0
LINE
  5
645
330
1F
100
AcDbEntity
  8
AM_7
 62
     1
100
AcDbLine
 10
315.3786444204341
 20
483.0075165285655
 30
0.0
 11
315.3786444204341
 21
494.7575165285654
 31
0.0
  0
LINE
  5
646
330
1F
100
AcDbEntity
  8
AM_7
 62
     1
100
AcDbLine
 10
315.3786444204341
 20
498.7575165285655
 30
0.0
 11
315.3786444204341
 21
510.5075165285654
 31
0.0
  0
LINE
  5
647
330
1F
100
AcDbEntity
  8
AM_7
 62
     1
100
AcDbLine
 10
314.3786444204341
 20
256.0770160002947
 30
0.0
 11
316.3786444204341
 21
256.0770160002947
 31
0.0
  0
LINE
  5
648
330
1F
100
AcDbEntity
  8
AM_7
 62
     1
100
AcDbLine
 10
315.3786444204341
 20
255.0770160002947
 30
0.0
 11
315.3786444204341
 21
257.0770160002947
 31
0.0
  0
LINE
  5
649
330
1F
100
AcDbEntity
  8
AM_7
 62
     1
100
AcDbLine
 10
293.378644420434
 20
256.0770160002947
 30
0.0
 11
313.3786444204341
 21
256.0770160002947
 31
0.0
  0
LINE
  5
64A
330
1F
100
AcDbEntity
  8
AM_7
 62
     1
100
AcDbLine
 10
317.3786444204341
 20
256.0770160002947
 30
0.0
 11
337.3786444204341
 21
256.0770160002947
 31
0.0
  0
LINE
  5
64B
330
1F
100
AcDbEntity
  8
AM_7
 62
     1
100
AcDbLine
 10
315.3786444204341
 20
234.0770160002947
 30
0.0
 11
315.3786444204341
 21
254.0770160002947
 31
0.0
  0
LINE
  5
64C
330
1F
100
AcDbEntity
  8
AM_7
 62
     1
100
AcDbLine
 10
315.3786444204341
 20
258.0770160002947
 30
0.0
 11
315.3786444204341
 21
278.0770160002947
 31
0.0
  0
LINE
  5
64D
330
1F
100
AcDbEntity
  8
AM_7
 62
     1
100
AcDbLine
 10
276.128644420434
 20
256.0770160002947
 30
0.0
 11
354.1286444204341
 21
256.0770160002947
 31
0.0
  0
LINE
  5
64E
330
1F
100
AcDbEntity
  8
AM_7
 62
     1
100
AcDbLine
 10
272.128644420434
 20
256.0770160002947
 30
0.0
 11
274.128644420434
 21
256.0770160002947
 31
0.0
  0
LINE
  5
64F
330
1F
100
AcDbEntity
  8
AM_7
 62
     1
100
AcDbLine
 10
273.1286444204341
 20
255.0770160002947
 30
0.0
 11
273.1286444204341
 21
257.0770160002947
 31
0.0
  0
LINE
  5
650
330
1F
100
AcDbEntity
  8
AM_7
 62
     1
100
AcDbLine
 10
260.3786444204341
 20
256.0770160002947
 30
0.0
 11
271.1286444204341
 21
256.0770160002947
 31
0.0
  0
LINE
  5
651
330
1F
100
AcDbEntity
  8
AM_7
 62
     1
100
AcDbLine
 10
275.1286444204341
 20
256.0770160002947
 30
0.0
 11
286.3786444204341
 21
256.0770160002947
 31
0.0
  0
LINE
  5
652
330
1F
100
AcDbEntity
  8
AM_7
 62
     1
100
AcDbLine
 10
273.1286444204341
 20
243.3270160002947
 30
0.0
 11
273.1286444204341
 21
254.0770160002947
 31
0.0
  0
LINE
  5
653
330
1F
100
AcDbEntity
  8
AM_7
 62
     1
100
AcDbLine
 10
273.1286444204341
 20
258.0770160002947
 30
0.0
 11
273.1286444204341
 21
268.8270160002947
 31
0.0
  0
LINE
  5
654
330
1F
100
AcDbEntity
  8
AM_7
 62
     1
100
AcDbLine
 10
292.378644420434
 20
237.5770160002947
 30
0.0
 11
294.3786444204341
 21
237.5770160002947
 31
0.0
  0
LINE
  5
655
330
1F
100
AcDbEntity
  8
AM_7
 62
     1
100
AcDbLine
 10
293.378644420434
 20
236.5770160002947
 30
0.0
 11
293.378644420434
 21
238.5770160002947
 31
0.0
  0
LINE
  5
656
330
1F
100
AcDbEntity
  8
AM_7
 62
     1
100
AcDbLine
 10
288.878644420434
 20
237.5770160002947
 30
0.0
 11
291.378644420434
 21
237.5770160002947
 31
0.0
  0
LINE
  5
657
330
1F
100
AcDbEntity
  8
AM_7
 62
     1
100
AcDbLine
 10
295.378644420434
 20
237.5770160002947
 30
0.0
 11
297.8786444204341
 21
237.5770160002947
 31
0.0
  0
LINE
  5
658
330
1F
100
AcDbEntity
  8
AM_7
 62
     1
100
AcDbLine
 10
293.378644420434
 20
233.0770160002947
 30
0.0
 11
293.378644420434
 21
235.5770160002947
 31
0.0
  0
LINE
  5
659
330
1F
100
AcDbEntity
  8
AM_7
 62
     1
100
AcDbLine
 10
293.378644420434
 20
239.5770160002947
 30
0.0
 11
293.378644420434
 21
242.0770160002947
 31
0.0
  0
LINE
  5
65A
330
1F
100
AcDbEntity
  8
AM_7
 62
     1
100
AcDbLine
 10
336.3786444204341
 20
274.5770160002947
 30
0.0
 11
338.3786444204341
 21
274.5770160002947
 31
0.0
  0
LINE
  5
65B
330
1F
100
AcDbEntity
  8
AM_7
 62
     1
100
AcDbLine
 10
337.3786444204341
 20
273.5770160002947
 30
0.0
 11
337.3786444204341
 21
275.5770160002947
 31
0.0
  0
LINE
  5
65C
330
1F
100
AcDbEntity
  8
AM_7
 62
     1
100
AcDbLine
 10
332.8786444204341
 20
274.5770160002947
 30
0.0
 11
335.3786444204341
 21
274.5770160002947
 31
0.0
  0
LINE
  5
65D
330
1F
100
AcDbEntity
  8
AM_7
 62
     1
100
AcDbLine
 10
339.3786444204341
 20
274.5770160002947
 30
0.0
 11
341.8786444204341
 21
274.5770160002947
 31
0.0
  0
LINE
  5
65E
330
1F
100
AcDbEntity
  8
AM_7
 62
     1
100
AcDbLine
 10
337.3786444204341
 20
270.0770160002947
 30
0.0
 11
337.3786444204341
 21
272.5770160002947
 31
0.0
  0
LINE
  5
65F
330
1F
100
AcDbEntity
  8
AM_7
 62
     1
100
AcDbLine
 10
337.3786444204341
 20
276.5770160002947
 30
0.0
 11
337.3786444204341
 21
279.0770160002947
 31
0.0
  0
LINE
  5
660
330
1F
100
AcDbEntity
  8
AM_7
 62
     1
100
AcDbLine
 10
292.378644420434
 20
274.5770160002947
 30
0.0
 11
294.3786444204341
 21
274.5770160002947
 31
0.0
  0
LINE
  5
661
330
1F
100
AcDbEntity
  8
AM_7
 62
     1
100
AcDbLine
 10
293.378644420434
 20
273.5770160002947
 30
0.0
 11
293.378644420434
 21
275.5770160002947
 31
0.0
  0
LINE
  5
662
330
1F
100
AcDbEntity
  8
AM_7
 62
     1
100
AcDbLine
 10
288.878644420434
 20
274.5770160002947
 30
0.0
 11
291.378644420434
 21
274.5770160002947
 31
0.0
  0
LINE
  5
663
330
1F
100
AcDbEntity
  8
AM_7
 62
     1
100
AcDbLine
 10
295.378644420434
 20
274.5770160002947
 30
0.0
 11
297.8786444204341
 21
274.5770160002947
 31
0.0
  0
LINE
  5
664
330
1F
100
AcDbEntity
  8
AM_7
 62
     1
100
AcDbLine
 10
293.378644420434
 20
270.0770160002947
 30
0.0
 11
293.378644420434
 21
272.5770160002947
 31
0.0
  0
LINE
  5
665
330
1F
100
AcDbEntity
  8
AM_7
 62
     1
100
AcDbLine
 10
293.378644420434
 20
276.5770160002947
 30
0.0
 11
293.378644420434
 21
279.0770160002947
 31
0.0
  0
LINE
  5
666
330
1F
100
AcDbEntity
  8
AM_7
 62
     1
100
AcDbLine
 10
336.3786444204341
 20
237.5770160002947
 30
0.0
 11
338.3786444204341
 21
237.5770160002947
 31
0.0
  0
LINE
  5
667
330
1F
100
AcDbEntity
  8
AM_7
 62
     1
100
AcDbLine
 10
337.3786444204341
 20
236.5770160002947
 30
0.0
 11
337.3786444204341
 21
238.5770160002947
 31
0.0
  0
LINE
  5
668
330
1F
100
AcDbEntity
  8
AM_7
 62
     1
100
AcDbLine
 10
332.8786444204341
 20
237.5770160002947
 30
0.0
 11
335.3786444204341
 21
237.5770160002947
 31
0.0
  0
LINE
  5
669
330
1F
100
AcDbEntity
  8
AM_7
 62
     1
100
AcDbLine
 10
339.3786444204341
 20
237.5770160002947
 30
0.0
 11
341.8786444204341
 21
237.5770160002947
 31
0.0
  0
LINE
  5
66A
330
1F
100
AcDbEntity
  8
AM_7
 62
     1
100
AcDbLine
 10
337.3786444204341
 20
233.0770160002947
 30
0.0
 11
337.3786444204341
 21
235.5770160002947
 31
0.0
  0
LINE
  5
66B
330
1F
100
AcDbEntity
  8
AM_7
 62
     1
100
AcDbLine
 10
337.3786444204341
 20
239.5770160002947
 30
0.0
 11
337.3786444204341
 21
242.0770160002947
 31
0.0
  0
LINE
  5
66C
330
1F
100
AcDbEntity
  8
AM_VIS
100
AcDbLine
 10
329.3786444204341
 20
443.7945804163497
 30
0.0
 11
329.3786444204341
 21
400.7945804163496
 31
0.0
  0
LINE
  5
66D
330
1F
100
AcDbEntity
  8
AM_VIS
100
AcDbLine
 10
294.878644420434
 20
443.7945804163497
 30
0.0
 11
329.3786444204341
 21
443.7945804163497
 31
0.0
  0
LINE
  5
66E
330
1F
100
AcDbEntity
  8
AM_VIS
100
AcDbLine
 10
329.3786444204341
 20
400.7945804163496
 30
0.0
 11
294.878644420434
 21
400.7945804163496
 31
0.0
  0
LINE
  5
66F
330
1F
100
AcDbEntity
  8
AM_VIS
100
AcDbLine
 10
294.878644420434
 20
443.5945804163497
 30
0.0
 11
294.878644420434
 21
443.7945804163497
 31
0.0
  0
LINE
  5
670
330
1F
100
AcDbEntity
  8
AM_VIS
100
AcDbLine
 10
289.8786444204341
 20
443.5945804163497
 30
0.0
 11
289.8786444204341
 21
414.5945804163497
 31
0.0
  0
LINE
  5
671
330
1F
100
AcDbEntity
  8
AM_VIS
100
AcDbLine
 10
294.878644420434
 20
443.5945804163497
 30
0.0
 11
289.8786444204341
 21
443.5945804163497
 31
0.0
  0
LINE
  5
672
330
1F
100
AcDbEntity
  8
AM_VIS
100
AcDbLine
 10
289.8786444204341
 20
443.3945804163498
 30
0.0
 11
285.8786444204341
 21
443.3945804163498
 31
0.0
  0
LINE
  5
673
330
1F
100
AcDbEntity
  8
AM_VIS
100
AcDbLine
 10
289.8786444204341
 20
414.7945804163497
 30
0.0
 11
285.8786444204341
 21
414.7945804163497
 31
0.0
  0
LINE
  5
674
330
1F
100
AcDbEntity
  8
AM_VIS
100
AcDbLine
 10
285.8786444204341
 20
442.3945804163497
 30
0.0
 11
285.8786444204341
 21
415.7945804163497
 31
0.0
  0
LINE
  5
675
330
1F
100
AcDbEntity
  8
AM_VIS
100
AcDbLine
 10
285.8786444204341
 20
441.8945804163497
 30
0.0
 11
262.3786444204341
 21
441.8945804163497
 31
0.0
  0
LINE
  5
676
330
1F
100
AcDbEntity
  8
AM_VIS
100
AcDbLine
 10
262.3786444204341
 20
441.8945804163497
 30
0.0
 11
262.3786444204341
 21
416.2945804163497
 31
0.0
  0
LINE
  5
677
330
1F
100
AcDbEntity
  8
AM_VIS
100
AcDbLine
 10
293.8786444204341
 20
414.5945804163497
 30
0.0
 11
289.8786444204341
 21
414.5945804163497
 31
0.0
  0
LINE
  5
678
330
1F
100
AcDbEntity
  8
AM_VIS
100
AcDbLine
 10
294.878644420434
 20
400.7945804163496
 30
0.0
 11
294.878644420434
 21
401.7945804163497
 31
0.0
  0
LINE
  5
679
330
1F
100
AcDbEntity
  8
AM_VIS
100
AcDbLine
 10
294.878644420434
 20
401.7945804163497
 30
0.0
 11
293.8786444204341
 21
414.5945804163497
 31
0.0
  0
LINE
  5
67A
330
1F
100
AcDbEntity
  8
AM_VIS
100
AcDbLine
 10
285.8786444204341
 20
416.2945804163497
 30
0.0
 11
262.3786444204341
 21
416.2945804163497
 31
0.0
  0
LINE
  5
67B
330
1F
100
AcDbEntity
  8
AM_VIS
100
AcDbLine
 10
268.5098422669171
 20
393.8945804163497
 30
0.0
 11
277.747446573951
 21
393.8945804163497
 31
0.0
  0
LINE
  5
67C
330
1F
100
AcDbEntity
  8
AM_VIS
100
AcDbLine
 10
268.5098422669171
 20
398.2945804163497
 30
0.0
 11
268.5098422669171
 21
393.8945804163497
 31
0.0
  0
LINE
  5
67D
330
1F
100
AcDbEntity
  8
AM_VIS
100
AcDbLine
 10
263.8810401134001
 20
393.8945804163497
 30
0.0
 11
268.5098422669171
 21
393.8945804163497
 31
0.0
  0
LINE
  5
67E
330
1F
100
AcDbEntity
  8
AM_VIS
100
AcDbLine
 10
263.8810401134001
 20
398.2945804163497
 30
0.0
 11
263.8810401134001
 21
393.8945804163497
 31
0.0
  0
LINE
  5
67F
330
1F
100
AcDbEntity
  8
AM_VIS
100
AcDbLine
 10
277.747446573951
 20
398.2945804163497
 30
0.0
 11
277.747446573951
 21
393.8945804163497
 31
0.0
  0
LINE
  5
680
330
1F
100
AcDbEntity
  8
AM_VIS
100
AcDbLine
 10
282.3762487274681
 20
398.2945804163497
 30
0.0
 11
282.3762487274681
 21
393.8945804163497
 31
0.0
  0
LINE
  5
681
330
1F
100
AcDbEntity
  8
AM_VIS
100
AcDbLine
 10
277.747446573951
 20
393.8945804163497
 30
0.0
 11
282.3762487274681
 21
393.8945804163497
 31
0.0
  0
LINE
  5
682
330
1F
100
AcDbEntity
  8
AM_VIS
100
AcDbLine
 10
263.8810401134001
 20
398.2945804163498
 30
0.0
 11
268.5098422669171
 21
398.2945804163497
 31
0.0
  0
LINE
  5
683
330
1F
100
AcDbEntity
  8
AM_VIS
100
AcDbLine
 10
277.747446573951
 20
398.2945804163497
 30
0.0
 11
282.3762487274681
 21
398.2945804163498
 31
0.0
  0
LINE
  5
684
330
1F
100
AcDbEntity
  8
AM_VIS
100
AcDbLine
 10
268.5098422669171
 20
398.2945804163497
 30
0.0
 11
277.747446573951
 21
398.2945804163497
 31
0.0
  0
LINE
  5
685
330
1F
100
AcDbEntity
  8
AM_VIS
100
AcDbLine
 10
330.628644420434
 20
398.2945804163497
 30
0.0
 11
298.628644420434
 21
398.2945804163497
 31
0.0
  0
LINE
  5
686
330
1F
100
AcDbEntity
  8
AM_VIS
100
AcDbLine
 10
286.878644420434
 20
355.2945804163497
 30
0.0
 11
286.878644420434
 21
341.7945804163498
 31
0.0
  0
LINE
  5
687
330
1F
100
AcDbEntity
  8
AM_VIS
100
AcDbLine
 10
329.4478479457694
 20
340.0153414739504
 30
0.0
 11
302.1714845517977
 21
331.8324324557589
 31
0.0
  0
LINE
  5
688
330
1F
100
AcDbEntity
  8
AM_VIS
100
AcDbLine
 10
299.7661494244381
 20
341.7945804163498
 30
0.0
 11
299.7661494244381
 21
333.0281590312974
 31
0.0
  0
SPLINE
  5
689
330
1F
100
AcDbEntity
  8
AM_VIS
100
AcDbSpline
210
0.0
220
0.0
230
1.0
 70
     8
 71
     3
 72
    16
 73
    12
 74
     0
 42
0.0000000001
 43
0.0000000001
 40
-3.57894915335743
 40
-3.57894915335743
 40
-3.57894915335743
 40
-3.57894915335743
 40
-3.084249525652708
 40
-3.084249525652708
 40
-2.584993111569177
 40
-2.584993111569177
 40
-1.904730127581095
 40
-1.904730127581095
 40
-1.052464595433399
 40
-1.052464595433399
 40
0.0
 40
0.0
 40
0.0
 40
0.0
 10
299.7661494244381
 20
333.0281590312974
 30
0.0
 10
299.7661494244381
 20
332.8935481169324
 30
0.0
 10
299.7886306486227
 20
332.760965019036
 30
0.0
 10
299.879755252072
 20
332.506420891385
 30
0.0
 10
299.9473624931198
 20
332.3886184190411
 30
0.0
 10
300.150243791035
 20
332.1397971291517
 30
0.0
 10
300.2970096493245
 20
332.0243306234583
 30
0.0
 10
300.6655364515461
 20
331.826374533015
 30
0.0
 10
300.9048202030805
 20
331.7551333030046
 30
0.0
 10
301.4909565889013
 20
331.6952670050686
 30
0.0
 10
301.8354584672075
 20
331.7316246303818
 30
0.0
 10
302.1714845517977
 20
331.8324324557589
 30
0.0
  0
SPLINE
  5
68A
330
1F
100
AcDbEntity
  8
AM_VIS
100
AcDbSpline
210
0.0
220
0.0
230
1.0
 70
     8
 71
     3
 72
    14
 73
    10
 74
     0
 42
0.0000000001
 43
0.0000000001
 40
-2.424952278597044
 40
-2.424952278597044
 40
-2.424952278597044
 40
-2.424952278597044
 40
-1.730444042461745
 40
-1.730444042461745
 40
-1.084947053790848
 40
-1.084947053790848
 40
-0.4870137225832132
 40
-0.4870137225832132
 40
0.0
 40
0.0
 40
0.0
 40
0.0
 10
329.4478479457694
 20
340.0153414739504
 30
0.0
 10
329.6714904492753
 20
340.0824342250021
 30
0.0
 10
329.8882321982836
 20
340.1771686427593
 30
0.0
 10
330.2715993242164
 20
340.4128091415271
 30
0.0
 10
330.4421830389718
 20
340.5509558339199
 30
0.0
 10
330.7184884310701
 20
340.8627050970188
 30
0.0
 10
330.8279640110538
 20
341.0329748671553
 30
0.0
 10
330.9585209408534
 20
341.3709552610937
 30
0.0
 10
330.9911394164301
 20
341.5307558465475
 30
0.0
 10
330.9911394164301
 20
341.6930937540752
 30
0.0
  0
LINE
  5
68B
330
1F
100
AcDbEntity
  8
AM_VIS
100
AcDbLine
 10
330.9911394164301
 20
341.6930937540752
 30
0.0
 11
330.9911394164301
 21
341.7945804163498
 31
0.0
  0
LINE
  5
68C
330
1F
100
AcDbEntity
  8
AM_VIS
100
AcDbLine
 10
286.878644420434
 20
341.7945804163498
 30
0.0
 11
343.8786444204341
 21
341.7945804163498
 31
0.0
  0
LINE
  5
68D
330
1F
100
AcDbEntity
  8
AM_VIS
100
AcDbLine
 10
332.1286444204341
 20
341.7945804163498
 30
0.0
 11
332.1286444204341
 21
316.8707975064679
 31
0.0
  0
LINE
  5
68E
330
1F
100
AcDbEntity
  8
AM_VIS
100
AcDbLine
 10
343.8786444204341
 20
342.8707975064678
 30
0.0
 11
352.3786444204341
 21
342.8707975064678
 31
0.0
  0
LINE
  5
68F
330
1F
100
AcDbEntity
  8
AM_VIS
100
AcDbLine
 10
352.3786444204341
 20
316.8707975064679
 30
0.0
 11
352.3786444204341
 21
342.8707975064678
 31
0.0
  0
LINE
  5
690
330
1F
100
AcDbEntity
  8
AM_VIS
100
AcDbLine
 10
332.1286444204341
 20
316.8707975064679
 30
0.0
 11
352.3786444204341
 21
316.8707975064679
 31
0.0
  0
LINE
  5
691
330
1F
100
AcDbEntity
  8
AM_VIS
100
AcDbLine
 10
286.878644420434
 20
342.8707975064678
 30
0.0
 11
278.378644420434
 21
342.8707975064678
 31
0.0
  0
LINE
  5
692
330
1F
100
AcDbEntity
  8
AM_VIS
100
AcDbLine
 10
298.628644420434
 20
316.8707975064679
 30
0.0
 11
298.628644420434
 21
341.7945804163498
 31
0.0
  0
LINE
  5
693
330
1F
100
AcDbEntity
  8
AM_VIS
100
AcDbLine
 10
278.378644420434
 20
342.8707975064678
 30
0.0
 11
278.378644420434
 21
316.8707975064679
 31
0.0
  0
LINE
  5
694
330
1F
100
AcDbEntity
  8
AM_VIS
100
AcDbLine
 10
278.378644420434
 20
316.8707975064679
 30
0.0
 11
298.628644420434
 21
316.8707975064679
 31
0.0
  0
SPLINE
  5
695
330
1F
100
AcDbEntity
  8
AM_VIS
100
AcDbSpline
210
0.0
220
0.0
230
1.0
 70
     8
 71
     3
 72
    38
 73
    34
 74
     0
 42
0.0000000001
 43
0.0000000001
 40
13.36967289368742
 40
13.36967289368742
 40
13.36967289368742
 40
13.36967289368742
 40
15.03061418408007
 40
15.03061418408007
 40
16.69155547447273
 40
16.69155547447273
 40
18.35249676486538
 40
18.35249676486538
 40
20.01343805525804
 40
20.01343805525804
 40
21.69491498828724
 40
21.69491498828724
 40
23.37639192131644
 40
23.37639192131644
 40
25.05786885434564
 40
25.05786885434564
 40
26.73934578737485
 40
26.73934578737485
 40
28.42082272040405
 40
28.42082272040405
 40
30.10229965343325
 40
30.10229965343325
 40
31.78377658646244
 40
31.78377658646244
 40
33.46525351949165
 40
33.46525351949165
 40
35.1261948098843
 40
35.1261948098843
 40
36.78713610027696
 40
36.78713610027696
 40
38.44807739066961
 40
38.44807739066961
 40
40.10901868106226
 40
40.10901868106226
 40
40.10901868106226
 40
40.10901868106226
 10
323.8786444204341
 20
315.8651623771961
 30
0.0
 10
323.8786444204341
 20
315.8651623771961
 30
0.0
 10
323.8236807246947
 20
315.9027498143156
 30
0.0
 10
323.5989667132054
 20
316.0539160022517
 30
0.0
 10
323.4293094744566
 20
316.1674089858219
 30
0.0
 10
322.9889805982582
 20
316.4534371432679
 30
0.0
 10
322.7179461127854
 20
316.6261101288967
 30
0.0
 10
322.1005028170884
 20
317.0019155397194
 30
0.0
 10
321.7540583512956
 20
317.2048425287016
 30
0.0
 10
321.019532883713
 20
317.607646817376
 30
0.0
 10
320.6031612921766
 20
317.8231872105133
 30
0.0
 10
319.6947268809002
 20
318.2426018457864
 30
0.0
 10
319.2026595450982
 20
318.4462148696188
 30
0.0
 10
318.1663997809683
 20
318.7978196028971
 30
0.0
 10
317.6211053207254
 20
318.9455672801235
 30
0.0
 10
316.5075481868139
 20
319.1469974233483
 30
0.0
 10
315.9391367314438
 20
319.2000109872844
 30
0.0
 10
314.8181521094243
 20
319.2000109872844
 30
0.0
 10
314.2497406540542
 20
319.1469974233483
 30
0.0
 10
313.1361835201428
 20
318.9455672801235
 30
0.0
 10
312.5908890598998
 20
318.7978196028971
 30
0.0
 10
311.5546292957699
 20
318.4462148696188
 30
0.0
 10
311.0625619599679
 20
318.2426018457864
 30
0.0
 10
310.1541275486916
 20
317.8231872105133
 30
0.0
 10
309.7377559571551
 20
317.6076468173759
 30
0.0
 10
309.0032304895725
 20
317.2048425287016
 30
0.0
 10
308.6567860237797
 20
317.0019155397194
 30
0.0
 10
308.0393427280827
 20
316.6261101288967
 30
0.0
 10
307.7683082426099
 20
316.4534371432679
 30
0.0
 10
307.3279793664115
 20
316.1674089858219
 30
0.0
 10
307.1583221276627
 20
316.0539160022517
 30
0.0
 10
306.9336081161734
 20
315.9027498143156
 30
0.0
 10
306.8786444204341
 20
315.8651623771961
 30
0.0
 10
306.8786444204341
 20
315.8651623771961
 30
0.0
  0
LINE
  5
696
330
1F
100
AcDbEntity
  8
AM_VIS
100
AcDbLine
 10
298.628644420434
 20
398.2945804163497
 30
0.0
 11
298.628644420434
 21
355.2945804163497
 31
0.0
  0
LINE
  5
697
330
1F
100
AcDbEntity
  8
AM_VIS
100
AcDbLine
 10
286.878644420434
 20
355.2945804163497
 30
0.0
 11
286.878644420434
 21
382.7945804163497
 31
0.0
  0
LINE
  5
698
330
1F
100
AcDbEntity
  8
AM_VIS
100
AcDbLine
 10
298.628644420434
 20
382.7945804163497
 30
0.0
 11
286.878644420434
 21
382.7945804163497
 31
0.0
  0
LINE
  5
699
330
1F
100
AcDbEntity
  8
AM_VIS
100
AcDbLine
 10
343.8786444204341
 20
355.2945804163497
 30
0.0
 11
286.878644420434
 21
355.2945804163497
 31
0.0
  0
LINE
  5
69A
330
1F
100
AcDbEntity
  8
AM_VIS
100
AcDbLine
 10
330.628644420434
 20
398.2945804163497
 30
0.0
 11
330.628644420434
 21
355.2945804163497
 31
0.0
  0
LINE
  5
69B
330
1F
100
AcDbEntity
  8
AM_VIS
100
AcDbLine
 10
338.443944981101
 20
382.7945804163497
 30
0.0
 11
330.628644420434
 21
382.7945804163497
 31
0.0
  0
LINE
  5
69C
330
1F
100
AcDbEntity
  8
AM_VIS
100
AcDbLine
 10
343.8786444204341
 20
355.2945804163497
 30
0.0
 11
343.8786444204341
 21
341.7945804163498
 31
0.0
  0
LINE
  5
69D
330
1F
100
AcDbEntity
  8
AM_VIS
100
AcDbLine
 10
338.443944981101
 20
355.2945804163497
 30
0.0
 11
338.443944981101
 21
382.7945804163497
 31
0.0
  0
LINE
  5
69E
330
1F
100
AcDbEntity
  8
AM_VIS
100
AcDbLine
 10
262.3786444204341
 20
416.2945804163497
 30
0.0
 11
262.3786444204341
 21
400.2945804163497
 31
0.0
  0
LINE
  5
69F
330
1F
100
AcDbEntity
  8
AM_VIS
100
AcDbLine
 10
283.8786444204341
 20
416.2945804163497
 30
0.0
 11
283.8786444204341
 21
400.2945804163497
 31
0.0
  0
LINE
  5
6A0
330
1F
100
AcDbEntity
  8
AM_VIS
100
AcDbLine
 10
266.378644420434
 20
400.2945804163497
 30
0.0
 11
266.378644420434
 21
398.2945804163497
 31
0.0
  0
LINE
  5
6A1
330
1F
100
AcDbEntity
  8
AM_VIS
100
AcDbLine
 10
279.8786444204341
 20
400.2945804163497
 30
0.0
 11
279.8786444204341
 21
398.2945804163497
 31
0.0
  0
LINE
  5
6A2
330
1F
100
AcDbEntity
  8
AM_VIS
100
AcDbLine
 10
308.8786444204341
 20
400.7945804163496
 30
0.0
 11
308.8786444204341
 21
398.2945804163497
 31
0.0
  0
LINE
  5
6A3
330
1F
100
AcDbEntity
  8
AM_VIS
100
AcDbLine
 10
321.8786444204341
 20
400.7945804163496
 30
0.0
 11
321.8786444204341
 21
398.2945804163497
 31
0.0
  0
LINE
  5
6A4
330
1F
100
AcDbEntity
  8
AM_VIS
100
AcDbLine
 10
321.8786444204341
 20
443.7945804163497
 30
0.0
 11
321.8786444204341
 21
447.2945804163497
 31
0.0
  0
LINE
  5
6A5
330
1F
100
AcDbEntity
  8
AM_VIS
100
AcDbLine
 10
308.8786444204341
 20
443.7945804163497
 30
0.0
 11
308.8786444204341
 21
447.2945804163497
 31
0.0
  0
LINE
  5
6A6
330
1F
100
AcDbEntity
  8
AM_VIS
100
AcDbLine
 10
323.8786444204341
 20
315.8651623771961
 30
0.0
 11
332.1286444204341
 21
315.8651623771961
 31
0.0
  0
LINE
  5
6A7
330
1F
100
AcDbEntity
  8
AM_VIS
100
AcDbLine
 10
298.628644420434
 20
315.8651623771961
 30
0.0
 11
306.8786444204341
 21
315.8651623771961
 31
0.0
  0
LINE
  5
6A8
330
1F
100
AcDbEntity
  8
AM_VIS
100
AcDbLine
 10
352.3786444204341
 20
314.8707975064679
 30
0.0
 11
332.1286444204341
 21
314.8707975064679
 31
0.0
  0
LINE
  5
6A9
330
1F
100
AcDbEntity
  8
AM_VIS
100
AcDbLine
 10
278.378644420434
 20
314.8707975064679
 30
0.0
 11
298.628644420434
 21
314.8707975064679
 31
0.0
  0
LINE
  5
6AA
330
1F
100
AcDbEntity
  8
AM_7
 62
     1
100
AcDbLine
 10
174.1839548279935
 20
328.3707975064679
 30
0.0
 11
196.6931588107527
 21
328.3707975064679
 31
0.0
  0
LINE
  5
6AB
330
1F
100
AcDbEntity
  8
AM_7
 62
     1
100
AcDbLine
 10
277.4631557189072
 20
328.370797506468
 30
0.0
 11
358.5260210001728
 21
328.3707975064679
 31
0.0
  0
LINE
  5
6AC
330
1F
100
AcDbEntity
  8
AM_7
 62
     1
100
AcDbLine
 10
399.4622358526439
 20
328.3707975064679
 30
0.0
 11
423.5647602366679
 21
328.370797506468
 31
0.0
  0
LINE
  5
6AD
330
1F
100
AcDbEntity
  8
AM_VIS
100
AcDbLine
 10
306.8786444204341
 20
315.8651623771961
 30
0.0
 11
306.8786444204341
 21
314.2945804163497
 31
0.0
  0
LINE
  5
6AE
330
1F
100
AcDbEntity
  8
AM_VIS
100
AcDbLine
 10
323.8786444204341
 20
315.8651623771961
 30
0.0
 11
323.8786444204341
 21
314.2945804163497
 31
0.0
  0
LINE
  5
6AF
330
1F
100
AcDbEntity
  8
AM_VIS
100
AcDbLine
 10
334.8786444204341
 20
341.7945804163498
 30
0.0
 11
334.8786444204341
 21
339.7945804163498
 31
0.0
  0
LINE
  5
6B0
330
1F
100
AcDbEntity
  8
AM_VIS
100
AcDbLine
 10
339.8786444204341
 20
341.7945804163498
 30
0.0
 11
339.8786444204341
 21
339.7945804163498
 31
0.0
  0
LINE
  5
6B1
330
1F
100
AcDbEntity
  8
AM_VIS
100
AcDbLine
 10
290.878644420434
 20
341.7945804163498
 30
0.0
 11
290.878644420434
 21
339.7945804163498
 31
0.0
  0
LINE
  5
6B2
330
1F
100
AcDbEntity
  8
AM_VIS
100
AcDbLine
 10
295.8786444204341
 20
341.7945804163498
 30
0.0
 11
295.8786444204341
 21
339.7945804163498
 31
0.0
  0
LINE
  5
6B3
330
1F
100
AcDbEntity
  8
AM_VIS
100
AcDbLine
 10
285.8786444204341
 20
442.3945804163497
 30
0.0
 11
285.8786444204341
 21
443.3945804163498
 31
0.0
  0
LINE
  5
6B4
330
1F
100
AcDbEntity
  8
AM_VIS
100
AcDbLine
 10
285.8786444204341
 20
414.7945804163497
 30
0.0
 11
285.8786444204341
 21
415.7945804163497
 31
0.0
  0
LINE
  5
6B5
330
1F
100
AcDbEntity
  8
AM_VIS
100
AcDbLine
 10
283.8786444204341
 20
400.2945804163497
 30
0.0
 11
262.3786444204341
 21
400.2945804163497
 31
0.0
  0
LINE
  5
6B6
330
1F
100
AcDbEntity
  8
AM_VIS
100
AcDbLine
 10
308.8786444204341
 20
447.2945804163497
 30
0.0
 11
321.8786444204341
 21
447.2945804163497
 31
0.0
  0
LINE
  5
6B7
330
1F
100
AcDbEntity
  8
AM_VIS
100
AcDbLine
 10
332.1286444204341
 20
316.8707975064679
 30
0.0
 11
332.1286444204341
 21
314.8707975064679
 31
0.0
  0
LINE
  5
6B8
330
1F
100
AcDbEntity
  8
AM_VIS
100
AcDbLine
 10
352.3786444204341
 20
314.8707975064679
 30
0.0
 11
352.3786444204341
 21
316.8707975064679
 31
0.0
  0
LINE
  5
6B9
330
1F
100
AcDbEntity
  8
AM_VIS
100
AcDbLine
 10
278.378644420434
 20
316.8707975064679
 30
0.0
 11
278.378644420434
 21
314.8707975064679
 31
0.0
  0
LINE
  5
6BA
330
1F
100
AcDbEntity
  8
AM_VIS
100
AcDbLine
 10
298.628644420434
 20
314.8707975064679
 30
0.0
 11
298.628644420434
 21
316.8707975064679
 31
0.0
  0
LINE
  5
6BB
330
1F
100
AcDbEntity
  8
AM_VIS
100
AcDbLine
 10
323.3786444204341
 20
313.7945804163497
 30
0.0
 11
307.378644420434
 21
313.7945804163497
 31
0.0
  0
LINE
  5
6BC
330
1F
100
AcDbEntity
  8
AM_VIS
100
AcDbLine
 10
339.8786444204341
 20
339.7945804163498
 30
0.0
 11
334.8786444204341
 21
339.7945804163498
 31
0.0
  0
LINE
  5
6BD
330
1F
100
AcDbEntity
  8
AM_VIS
100
AcDbLine
 10
295.8786444204341
 20
339.7945804163498
 30
0.0
 11
290.878644420434
 21
339.7945804163498
 31
0.0
  0
ARC
  5
6BE
330
1F
100
AcDbEntity
  8
AM_VIS
100
AcDbCircle
 10
307.378644420434
 20
314.2945804163497
 30
0.0
 40
0.5
100
AcDbArc
 50
180.0
 51
270.0
  0
ARC
  5
6BF
330
1F
100
AcDbEntity
  8
AM_VIS
100
AcDbCircle
 10
323.3786444204341
 20
314.2945804163497
 30
0.0
 40
0.5
100
AcDbArc
 50
270.0
 51
0.0
  0
LINE
  5
6C0
330
1F
100
AcDbEntity
  8
AM_VIS
100
AcDbLine
 10
426.5192364322351
 20
400.7945804163496
 30
0.0
 11
426.5192364322351
 21
443.7945804163497
 31
0.0
  0
LINE
  5
6C1
330
1F
100
AcDbEntity
  8
AM_VIS
100
AcDbLine
 10
397.5192364322352
 20
443.7945804163497
 30
0.0
 11
397.5192364322352
 21
400.7945804163496
 31
0.0
  0
LINE
  5
6C2
330
1F
100
AcDbEntity
  8
AM_VIS
100
AcDbLine
 10
426.5192364322351
 20
443.7945804163497
 30
0.0
 11
397.5192364322352
 21
443.7945804163497
 31
0.0
  0
LINE
  5
6C3
330
1F
100
AcDbEntity
  8
AM_VIS
100
AcDbLine
 10
426.5192364322351
 20
400.7945804163496
 30
0.0
 11
397.5192364322352
 21
400.7945804163496
 31
0.0
  0
LINE
  5
6C4
330
1F
100
AcDbEntity
  8
AM_VIS
100
AcDbLine
 10
397.485944808105
 20
342.8707975064678
 30
0.0
 11
426.485944808105
 21
342.8707975064678
 31
0.0
  0
LINE
  5
6C5
330
1F
100
AcDbEntity
  8
AM_VIS
100
AcDbLine
 10
426.485944808105
 20
342.8707975064678
 30
0.0
 11
426.485944808105
 21
316.8707975064679
 31
0.0
  0
LINE
  5
6C6
330
1F
100
AcDbEntity
  8
AM_VIS
100
AcDbLine
 10
421.5192364322351
 20
316.8707975064679
 30
0.0
 11
426.485944808105
 21
316.8707975064679
 31
0.0
  0
LINE
  5
6C7
330
1F
100
AcDbEntity
  8
AM_VIS
100
AcDbLine
 10
397.485944808105
 20
316.8707975064679
 30
0.0
 11
397.485944808105
 21
342.8707975064678
 31
0.0
  0
LINE
  5
6C8
330
1F
100
AcDbEntity
  8
AM_VIS
100
AcDbLine
 10
397.485944808105
 20
316.8707975064679
 30
0.0
 11
402.5192364322351
 21
316.8707975064679
 31
0.0
  0
LINE
  5
6C9
330
1F
100
AcDbEntity
  8
AM_VIS
100
AcDbLine
 10
396.2692364322352
 20
398.2945804163497
 30
0.0
 11
396.2692364322352
 21
355.2945804163497
 31
0.0
  0
LINE
  5
6CA
330
1F
100
AcDbEntity
  8
AM_VIS
100
AcDbLine
 10
428.2692364322351
 20
398.2945804163497
 30
0.0
 11
396.2692364322352
 21
398.2945804163497
 31
0.0
  0
LINE
  5
6CB
330
1F
100
AcDbEntity
  8
AM_VIS
100
AcDbLine
 10
428.2692364322351
 20
398.2945804163497
 30
0.0
 11
428.2692364322351
 21
355.2945804163497
 31
0.0
  0
LINE
  5
6CC
330
1F
100
AcDbEntity
  8
AM_VIS
100
AcDbLine
 10
437.2692364322351
 20
355.2945804163497
 30
0.0
 11
437.2692364322351
 21
341.7945804163498
 31
0.0
  0
LINE
  5
6CD
330
1F
100
AcDbEntity
  8
AM_VIS
100
AcDbLine
 10
426.485944808105
 20
341.7945804163498
 30
0.0
 11
437.2692364322351
 21
341.7945804163498
 31
0.0
  0
LINE
  5
6CE
330
1F
100
AcDbEntity
  8
AM_VIS
100
AcDbLine
 10
386.7692364322352
 20
341.7945804163498
 30
0.0
 11
397.485944808105
 21
341.7945804163498
 31
0.0
  0
LINE
  5
6CF
330
1F
100
AcDbEntity
  8
AM_VIS
100
AcDbLine
 10
386.7692364322352
 20
355.2945804163497
 30
0.0
 11
386.7692364322352
 21
341.7945804163498
 31
0.0
  0
LINE
  5
6D0
330
1F
100
AcDbEntity
  8
AM_VIS
100
AcDbLine
 10
437.2692364322351
 20
355.2945804163497
 30
0.0
 11
386.7692364322352
 21
355.2945804163497
 31
0.0
  0
LINE
  5
6D1
330
1F
100
AcDbEntity
  8
AM_VIS
100
AcDbLine
 10
406.5192364322351
 20
355.2945804163497
 30
0.0
 11
406.5192364322351
 21
382.7945804163497
 31
0.0
  0
LINE
  5
6D2
330
1F
100
AcDbEntity
  8
AM_VIS
100
AcDbLine
 10
406.5192364322351
 20
382.7945804163497
 30
0.0
 11
417.5192364322351
 21
382.7945804163497
 31
0.0
  0
LINE
  5
6D3
330
1F
100
AcDbEntity
  8
AM_VIS
100
AcDbLine
 10
417.5192364322351
 20
382.7945804163497
 30
0.0
 11
417.5192364322351
 21
355.2945804163497
 31
0.0
  0
LINE
  5
6D4
330
1F
100
AcDbEntity
  8
AM_VIS
100
AcDbLine
 10
401.2692364322352
 20
400.7945804163496
 30
0.0
 11
401.2692364322352
 21
400.2945804163497
 31
0.0
  0
LINE
  5
6D5
330
1F
100
AcDbEntity
  8
AM_VIS
100
AcDbLine
 10
422.7692364322352
 20
400.7945804163496
 30
0.0
 11
422.7692364322352
 21
400.2945804163497
 31
0.0
  0
LINE
  5
6D6
330
1F
100
AcDbEntity
  8
AM_VIS
100
AcDbLine
 10
405.2692364322352
 20
400.2945804163497
 30
0.0
 11
405.2692364322352
 21
398.2945804163497
 31
0.0
  0
LINE
  5
6D7
330
1F
100
AcDbEntity
  8
AM_VIS
100
AcDbLine
 10
418.7692364322352
 20
400.2945804163497
 30
0.0
 11
418.7692364322352
 21
398.2945804163497
 31
0.0
  0
LINE
  5
6D8
330
1F
100
AcDbEntity
  8
AM_VIS
100
AcDbLine
 10
405.5192364322351
 20
400.7945804163496
 30
0.0
 11
405.5192364322351
 21
398.2945804163497
 31
0.0
  0
LINE
  5
6D9
330
1F
100
AcDbEntity
  8
AM_VIS
100
AcDbLine
 10
418.5192364322351
 20
400.7945804163496
 30
0.0
 11
418.5192364322351
 21
398.2945804163497
 31
0.0
  0
LINE
  5
6DA
330
1F
100
AcDbEntity
  8
AM_VIS
100
AcDbLine
 10
418.5192364322351
 20
443.7945804163497
 30
0.0
 11
418.5192364322351
 21
447.2945804163497
 31
0.0
  0
LINE
  5
6DB
330
1F
100
AcDbEntity
  8
AM_VIS
100
AcDbLine
 10
405.5192364322351
 20
443.7945804163497
 30
0.0
 11
405.5192364322351
 21
447.2945804163497
 31
0.0
  0
LINE
  5
6DC
330
1F
100
AcDbEntity
  8
AM_VIS
100
AcDbLine
 10
432.0192364322351
 20
339.7945804163498
 30
0.0
 11
432.0192364322351
 21
337.3606263926863
 31
0.0
  0
LINE
  5
6DD
330
1F
100
AcDbEntity
  8
AM_VIS
100
AcDbLine
 10
392.0192364322352
 20
339.7945804163498
 30
0.0
 11
392.0192364322352
 21
337.3606263926863
 31
0.0
  0
SPLINE
  5
6DE
330
1F
100
AcDbEntity
  8
AM_VIS
100
AcDbSpline
210
0.0
220
0.0
230
1.0
 70
    24
 71
     1
 72
     4
 73
     2
 74
     0
 42
0.0000000001
 43
0.0000000001
 40
0.0
 40
0.0
 40
4.175163334158837
 40
4.175163334158837
 10
432.0192364322351
 20
337.3606263926863
 30
0.0
 10
431.4012572528991
 20
335.429967725735
 30
0.0
  0
SPLINE
  5
6DF
330
1F
100
AcDbEntity
  8
AM_VIS
100
AcDbSpline
210
0.0
220
0.0
230
1.0
 70
    24
 71
     1
 72
     4
 73
     2
 74
     0
 42
0.0000000001
 43
0.0000000001
 40
4.175163334158837
 40
4.175163334158837
 40
8.665319143765255
 40
8.665319143765255
 10
431.4012572528991
 20
335.429967725735
 30
0.0
 10
429.7589468999086
 20
333.8599039986732
 30
0.0
  0
SPLINE
  5
6E0
330
1F
100
AcDbEntity
  8
AM_VIS
100
AcDbSpline
210
0.0
220
0.0
230
1.0
 70
    24
 71
     1
 72
     4
 73
     2
 74
     0
 42
0.0000000001
 43
0.0000000001
 40
8.665319143765255
 40
8.665319143765255
 40
14.50939118097617
 40
14.50939118097617
 10
429.7589468999086
 20
333.8599039986732
 30
0.0
 10
426.485944808105
 20
332.3066541068194
 30
0.0
  0
SPLINE
  5
6E1
330
1F
100
AcDbEntity
  8
AM_VIS
100
AcDbSpline
210
0.0
220
0.0
230
1.0
 70
    24
 71
     1
 72
     4
 73
     2
 74
     0
 42
0.0000000001
 43
0.0000000001
 40
2.86165310430207
 40
2.86165310430207
 40
6.61551583717777
 40
6.61551583717777
 10
397.485944808105
 20
332.3299735330513
 30
0.0
 10
395.2525821947064
 20
333.2825864760684
 30
0.0
  0
SPLINE
  5
6E2
330
1F
100
AcDbEntity
  8
AM_VIS
100
AcDbSpline
210
0.0
220
0.0
230
1.0
 70
    24
 71
     1
 72
     4
 73
     2
 74
     0
 42
0.0000000001
 43
0.0000000001
 40
6.61551583717777
 40
6.61551583717777
 40
13.49524073261379
 40
13.49524073261379
 10
395.2525821947064
 20
333.2825864760684
 30
0.0
 10
392.5293399356298
 20
335.5994723416866
 30
0.0
  0
SPLINE
  5
6E3
330
1F
100
AcDbEntity
  8
AM_VIS
100
AcDbSpline
210
0.0
220
0.0
230
1.0
 70
    24
 71
     1
 72
     4
 73
     2
 74
     0
 42
0.0000000001
 43
0.0000000001
 40
13.49524073261379
 40
13.49524073261379
 40
17.26193912689604
 40
17.26193912689604
 10
392.5293399356298
 20
335.5994723416866
 30
0.0
 10
392.0192364322352
 20
337.3606263926863
 30
0.0
  0
LINE
  5
6E4
330
1F
100
AcDbEntity
  8
AM_VIS
100
AcDbLine
 10
403.5192364322352
 20
316.4573696250336
 30
0.0
 11
403.5192364322352
 21
314.2945804163497
 31
0.0
  0
LINE
  5
6E5
330
1F
100
AcDbEntity
  8
AM_VIS
100
AcDbLine
 10
420.5192364322352
 20
316.4573696250336
 30
0.0
 11
420.5192364322352
 21
314.2945804163497
 31
0.0
  0
LINE
  5
6E6
330
1F
100
AcDbEntity
  8
AM_VIS
100
AcDbLine
 10
391.0192364322352
 20
341.7945804163498
 30
0.0
 11
391.0192364322352
 21
339.7945804163498
 31
0.0
  0
LINE
  5
6E7
330
1F
100
AcDbEntity
  8
AM_VIS
100
AcDbLine
 10
396.0192364322352
 20
341.7945804163498
 30
0.0
 11
396.0192364322352
 21
339.7945804163498
 31
0.0
  0
LINE
  5
6E8
330
1F
100
AcDbEntity
  8
AM_VIS
100
AcDbLine
 10
428.0192364322352
 20
341.7945804163498
 30
0.0
 11
428.0192364322352
 21
339.7945804163498
 31
0.0
  0
LINE
  5
6E9
330
1F
100
AcDbEntity
  8
AM_VIS
100
AcDbLine
 10
433.0192364322352
 20
341.7945804163498
 30
0.0
 11
433.0192364322352
 21
339.7945804163498
 31
0.0
  0
LINE
  5
6EA
330
1F
100
AcDbEntity
  8
AM_VIS
100
AcDbLine
 10
422.7692364322352
 20
400.2945804163497
 30
0.0
 11
418.5192364322351
 21
400.2945804163497
 31
0.0
  0
LINE
  5
6EB
330
1F
100
AcDbEntity
  8
AM_VIS
100
AcDbLine
 10
405.5192364322351
 20
400.2945804163497
 30
0.0
 11
401.2692364322352
 21
400.2945804163497
 31
0.0
  0
LINE
  5
6EC
330
1F
100
AcDbEntity
  8
AM_VIS
100
AcDbLine
 10
405.5192364322351
 20
447.2945804163497
 30
0.0
 11
418.5192364322351
 21
447.2945804163497
 31
0.0
  0
ARC
  5
6ED
330
1F
100
AcDbEntity
  8
AM_VIS
100
AcDbCircle
 10
412.0192364322352
 20
338.4332975064679
 30
0.0
 40
23.56249999999999
100
AcDbArc
 50
246.2226839207447
 51
293.7773160792553
  0
CIRCLE
  5
6EE
330
1F
100
AcDbEntity
  8
AM_VIS
100
AcDbCircle
 10
412.0192364322352
 20
328.3707975064678
 30
0.0
 40
9.0
  0
LINE
  5
6EF
330
1F
100
AcDbEntity
  8
AM_VIS
100
AcDbLine
 10
420.0192364322352
 20
313.7945804163497
 30
0.0
 11
404.0192364322352
 21
313.7945804163497
 31
0.0
  0
LINE
  5
6F0
330
1F
100
AcDbEntity
  8
AM_VIS
100
AcDbLine
 10
396.0192364322352
 20
339.7945804163498
 30
0.0
 11
391.0192364322352
 21
339.7945804163498
 31
0.0
  0
LINE
  5
6F1
330
1F
100
AcDbEntity
  8
AM_VIS
100
AcDbLine
 10
433.0192364322352
 20
339.7945804163498
 30
0.0
 11
428.0192364322352
 21
339.7945804163498
 31
0.0
  0
ARC
  5
6F2
330
1F
100
AcDbEntity
  8
AM_VIS
100
AcDbCircle
 10
404.0192364322352
 20
314.2945804163497
 30
0.0
 40
0.5
100
AcDbArc
 50
180.0
 51
270.0
  0
ARC
  5
6F3
330
1F
100
AcDbEntity
  8
AM_VIS
100
AcDbCircle
 10
420.0192364322352
 20
314.2945804163497
 30
0.0
 40
0.5
100
AcDbArc
 50
270.0
 51
0.0
  0
LINE
  5
6F4
330
1F
100
AcDbEntity
  8
AM_VIS
100
AcDbLine
 10
171.5918700273299
 20
443.7945804163497
 30
0.0
 11
171.5918700273299
 21
443.5945804163497
 31
0.0
  0
LINE
  5
6F5
330
1F
100
AcDbEntity
  8
AM_VIS
100
AcDbLine
 10
171.5918700273299
 20
443.7945804163497
 30
0.0
 11
200.59187002733
 21
443.7945804163497
 31
0.0
  0
LINE
  5
6F6
330
1F
100
AcDbEntity
  8
AM_VIS
100
AcDbLine
 10
200.59187002733
 20
443.5945804163497
 30
0.0
 11
200.59187002733
 21
443.7945804163497
 31
0.0
  0
LINE
  5
6F7
330
1F
100
AcDbEntity
  8
AM_VIS
100
AcDbLine
 10
171.5918700273299
 20
414.5945804163497
 30
0.0
 11
171.5918700273299
 21
443.5945804163497
 31
0.0
  0
LINE
  5
6F8
330
1F
100
AcDbEntity
  8
AM_VIS
100
AcDbLine
 10
200.59187002733
 20
443.5945804163497
 30
0.0
 11
200.59187002733
 21
414.5945804163497
 31
0.0
  0
LINE
  5
6F9
330
1F
100
AcDbEntity
  8
AM_VIS
100
AcDbLine
 10
171.5918700273299
 20
443.5945804163496
 30
0.0
 11
200.59187002733
 21
443.5945804163496
 31
0.0
  0
LINE
  5
6FA
330
1F
100
AcDbEntity
  8
AM_VIS
100
AcDbLine
 10
172.79187002733
 20
443.3945804163498
 30
0.0
 11
199.3918700273299
 21
443.3945804163498
 31
0.0
  0
LINE
  5
6FB
330
1F
100
AcDbEntity
  8
AM_VIS
100
AcDbLine
 10
171.79187002733
 20
415.7945804163497
 30
0.0
 11
171.79187002733
 21
442.3945804163497
 31
0.0
  0
LINE
  5
6FC
330
1F
100
AcDbEntity
  8
AM_VIS
100
AcDbLine
 10
199.3918700273299
 20
414.7945804163497
 30
0.0
 11
196.8418700273299
 21
414.7945804163497
 31
0.0
  0
LINE
  5
6FD
330
1F
100
AcDbEntity
  8
AM_VIS
100
AcDbLine
 10
175.3418700273299
 20
414.7945804163497
 30
0.0
 11
172.79187002733
 21
414.7945804163497
 31
0.0
  0
LINE
  5
6FE
330
1F
100
AcDbEntity
  8
AM_VIS
100
AcDbLine
 10
200.3918700273299
 20
442.3945804163497
 30
0.0
 11
200.3918700273299
 21
415.7945804163497
 31
0.0
  0
LINE
  5
6FF
330
1F
100
AcDbEntity
  8
AM_VIS
100
AcDbLine
 10
173.29187002733
 20
441.8945804163497
 30
0.0
 11
198.8918700273299
 21
441.8945804163497
 31
0.0
  0
LINE
  5
700
330
1F
100
AcDbEntity
  8
AM_VIS
100
AcDbLine
 10
173.29187002733
 20
416.2945804163497
 30
0.0
 11
173.29187002733
 21
441.8945804163497
 31
0.0
  0
LINE
  5
701
330
1F
100
AcDbEntity
  8
AM_VIS
100
AcDbLine
 10
198.8918700273299
 20
441.8945804163497
 30
0.0
 11
198.8918700273299
 21
416.2945804163497
 31
0.0
  0
LINE
  5
702
330
1F
100
AcDbEntity
  8
AM_VIS
100
AcDbLine
 10
200.59187002733
 20
414.5945804163497
 30
0.0
 11
196.8418700273299
 21
414.5945804163497
 31
0.0
  0
LINE
  5
703
330
1F
100
AcDbEntity
  8
AM_VIS
100
AcDbLine
 10
175.3418700273299
 20
414.5945804163497
 30
0.0
 11
171.5918700273299
 21
414.5945804163497
 31
0.0
  0
LINE
  5
704
330
1F
100
AcDbEntity
  8
AM_VIS
100
AcDbLine
 10
200.59187002733
 20
400.7945804163496
 30
0.0
 11
200.59187002733
 21
401.7945804163497
 31
0.0
  0
LINE
  5
705
330
1F
100
AcDbEntity
  8
AM_VIS
100
AcDbLine
 10
171.5918700273299
 20
400.7945804163496
 30
0.0
 11
175.3418700273299
 21
400.7945804163496
 31
0.0
  0
LINE
  5
706
330
1F
100
AcDbEntity
  8
AM_VIS
100
AcDbLine
 10
196.8418700273299
 20
400.7945804163496
 30
0.0
 11
200.59187002733
 21
400.7945804163496
 31
0.0
  0
LINE
  5
707
330
1F
100
AcDbEntity
  8
AM_VIS
100
AcDbLine
 10
171.5918700273299
 20
401.7945804163497
 30
0.0
 11
171.5918700273299
 21
400.7945804163496
 31
0.0
  0
LINE
  5
708
330
1F
100
AcDbEntity
  8
AM_VIS
100
AcDbLine
 10
200.59187002733
 20
401.7945804163497
 30
0.0
 11
196.8418700273299
 21
401.7945804163497
 31
0.0
  0
LINE
  5
709
330
1F
100
AcDbEntity
  8
AM_VIS
100
AcDbLine
 10
175.3418700273299
 20
401.7945804163497
 30
0.0
 11
171.5918700273299
 21
401.7945804163497
 31
0.0
  0
LINE
  5
70A
330
1F
100
AcDbEntity
  8
AM_VIS
100
AcDbLine
 10
171.5918700273299
 20
414.5945804163497
 30
0.0
 11
171.5918700273299
 21
401.7945804163497
 31
0.0
  0
LINE
  5
70B
330
1F
100
AcDbEntity
  8
AM_VIS
100
AcDbLine
 10
200.59187002733
 20
401.7945804163497
 30
0.0
 11
200.59187002733
 21
414.5945804163497
 31
0.0
  0
LINE
  5
70C
330
1F
100
AcDbEntity
  8
AM_VIS
100
AcDbLine
 10
186.0918700273299
 20
416.2945804163497
 30
0.0
 11
173.29187002733
 21
416.2945804163497
 31
0.0
  0
LINE
  5
70D
330
1F
100
AcDbEntity
  8
AM_VIS
100
AcDbLine
 10
198.8918700273299
 20
416.2945804163497
 30
0.0
 11
186.0918700273299
 21
416.2945804163497
 31
0.0
  0
LINE
  5
70E
330
1F
100
AcDbEntity
  8
AM_VIS
100
AcDbLine
 10
194.0918700273299
 20
398.2945804163497
 30
0.0
 11
194.0918700273299
 21
393.8945804163497
 31
0.0
  0
LINE
  5
70F
330
1F
100
AcDbEntity
  8
AM_VIS
100
AcDbLine
 10
186.0918700273299
 20
393.8945804163497
 30
0.0
 11
194.0918700273299
 21
393.8945804163497
 31
0.0
  0
LINE
  5
710
330
1F
100
AcDbEntity
  8
AM_VIS
100
AcDbLine
 10
178.0918700273299
 20
393.8945804163497
 30
0.0
 11
186.0918700273299
 21
393.8945804163497
 31
0.0
  0
LINE
  5
711
330
1F
100
AcDbEntity
  8
AM_VIS
100
AcDbLine
 10
178.0918700273299
 20
398.2945804163497
 30
0.0
 11
178.0918700273299
 21
393.8945804163497
 31
0.0
  0
LINE
  5
712
330
1F
100
AcDbEntity
  8
AM_VIS
100
AcDbLine
 10
186.0918700273299
 20
398.2945804163497
 30
0.0
 11
194.0918700273299
 21
398.2945804163497
 31
0.0
  0
LINE
  5
713
330
1F
100
AcDbEntity
  8
AM_VIS
100
AcDbLine
 10
178.0918700273299
 20
398.2945804163497
 30
0.0
 11
186.0918700273299
 21
398.2945804163497
 31
0.0
  0
LINE
  5
714
330
1F
100
AcDbEntity
  8
AM_VIS
100
AcDbLine
 10
160.8418700273299
 20
355.2945804163497
 30
0.0
 11
160.8418700273299
 21
341.7945804163498
 31
0.0
  0
LINE
  5
715
330
1F
100
AcDbEntity
  8
AM_VIS
100
AcDbLine
 10
211.34187002733
 20
355.2945804163497
 30
0.0
 11
211.34187002733
 21
341.7945804163498
 31
0.0
  0
LINE
  5
716
330
1F
100
AcDbEntity
  8
AM_VIS
100
AcDbLine
 10
160.8418700273299
 20
341.7945804163498
 30
0.0
 11
171.6251616514601
 21
341.7945804163498
 31
0.0
  0
LINE
  5
717
330
1F
100
AcDbEntity
  8
AM_VIS
100
AcDbLine
 10
200.6251616514601
 20
341.7945804163498
 30
0.0
 11
211.34187002733
 21
341.7945804163498
 31
0.0
  0
LINE
  5
718
330
1F
100
AcDbEntity
  8
AM_VIS
100
AcDbLine
 10
171.6251616514601
 20
316.8707975064679
 30
0.0
 11
171.6251616514601
 21
342.8707975064679
 31
0.0
  0
LINE
  5
719
330
1F
100
AcDbEntity
  8
AM_VIS
100
AcDbLine
 10
171.6251616514601
 20
342.8707975064679
 30
0.0
 11
200.6251616514601
 21
342.8707975064679
 31
0.0
  0
LINE
  5
71A
330
1F
100
AcDbEntity
  8
AM_VIS
100
AcDbLine
 10
200.6251616514601
 20
342.8707975064678
 30
0.0
 11
200.6251616514601
 21
316.8707975064679
 31
0.0
  0
LINE
  5
71B
330
1F
100
AcDbEntity
  8
AM_VIS
100
AcDbLine
 10
171.6251616514601
 20
316.8707975064679
 30
0.0
 11
176.5918700273299
 21
316.8707975064679
 31
0.0
  0
LINE
  5
71C
330
1F
100
AcDbEntity
  8
AM_VIS
100
AcDbLine
 10
195.5918700273299
 20
316.8707975064679
 30
0.0
 11
200.6251616514601
 21
316.8707975064679
 31
0.0
  0
LINE
  5
71D
330
1F
100
AcDbEntity
  8
AM_VIS
100
AcDbLine
 10
169.8418700273299
 20
398.2945804163497
 30
0.0
 11
169.8418700273299
 21
355.2945804163497
 31
0.0
  0
LINE
  5
71E
330
1F
100
AcDbEntity
  8
AM_VIS
100
AcDbLine
 10
201.8418700273299
 20
398.2945804163497
 30
0.0
 11
194.0918700273299
 21
398.2945804163497
 31
0.0
  0
LINE
  5
71F
330
1F
100
AcDbEntity
  8
AM_VIS
100
AcDbLine
 10
178.0918700273299
 20
398.2945804163497
 30
0.0
 11
169.8418700273299
 21
398.2945804163497
 31
0.0
  0
LINE
  5
720
330
1F
100
AcDbEntity
  8
AM_VIS
100
AcDbLine
 10
201.8418700273299
 20
398.2945804163497
 30
0.0
 11
201.8418700273299
 21
355.2945804163497
 31
0.0
  0
LINE
  5
721
330
1F
100
AcDbEntity
  8
AM_VIS
100
AcDbLine
 10
191.5918700273299
 20
382.7945804163497
 30
0.0
 11
180.5918700273299
 21
382.7945804163497
 31
0.0
  0
LINE
  5
722
330
1F
100
AcDbEntity
  8
AM_VIS
100
AcDbLine
 10
180.5918700273299
 20
355.2945804163497
 30
0.0
 11
180.5918700273299
 21
382.7945804163497
 31
0.0
  0
LINE
  5
723
330
1F
100
AcDbEntity
  8
AM_VIS
100
AcDbLine
 10
191.5918700273299
 20
355.2945804163497
 30
0.0
 11
191.5918700273299
 21
382.7945804163497
 31
0.0
  0
LINE
  5
724
330
1F
100
AcDbEntity
  8
AM_VIS
100
AcDbLine
 10
211.34187002733
 20
355.2945804163497
 30
0.0
 11
191.5918700273299
 21
355.2945804163497
 31
0.0
  0
LINE
  5
725
330
1F
100
AcDbEntity
  8
AM_VIS
100
AcDbLine
 10
180.5918700273299
 20
355.2945804163497
 30
0.0
 11
160.8418700273299
 21
355.2945804163497
 31
0.0
  0
LINE
  5
726
330
1F
100
AcDbEntity
  8
AM_VIS
100
AcDbLine
 10
175.3418700273299
 20
416.2945804163497
 30
0.0
 11
175.3418700273299
 21
400.2945804163497
 31
0.0
  0
LINE
  5
727
330
1F
100
AcDbEntity
  8
AM_VIS
100
AcDbLine
 10
196.8418700273299
 20
416.2945804163497
 30
0.0
 11
196.8418700273299
 21
400.2945804163497
 31
0.0
  0
LINE
  5
728
330
1F
100
AcDbEntity
  8
AM_VIS
100
AcDbLine
 10
179.3418700273299
 20
400.2945804163497
 30
0.0
 11
179.3418700273299
 21
398.2945804163497
 31
0.0
  0
LINE
  5
729
330
1F
100
AcDbEntity
  8
AM_VIS
100
AcDbLine
 10
192.8418700273299
 20
400.2945804163497
 30
0.0
 11
192.8418700273299
 21
398.2945804163497
 31
0.0
  0
LINE
  5
72A
330
1F
100
AcDbEntity
  8
AM_VIS
100
AcDbLine
 10
192.5918700273299
 20
443.7945804163497
 30
0.0
 11
192.5918700273299
 21
447.2945804163497
 31
0.0
  0
LINE
  5
72B
330
1F
100
AcDbEntity
  8
AM_VIS
100
AcDbLine
 10
179.5918700273299
 20
443.7945804163497
 30
0.0
 11
179.5918700273299
 21
447.2945804163497
 31
0.0
  0
LINE
  5
72C
330
1F
100
AcDbEntity
  8
AM_VIS
100
AcDbLine
 10
166.0918700273299
 20
339.7945804163498
 30
0.0
 11
166.0918700273299
 21
337.3606263926863
 31
0.0
  0
LINE
  5
72D
330
1F
100
AcDbEntity
  8
AM_VIS
100
AcDbLine
 10
206.0918700273299
 20
339.7945804163498
 30
0.0
 11
206.0918700273299
 21
337.3606263926863
 31
0.0
  0
SPLINE
  5
72E
330
1F
100
AcDbEntity
  8
AM_VIS
100
AcDbSpline
210
0.0
220
0.0
230
1.0
 70
    24
 71
     1
 72
     4
 73
     2
 74
     0
 42
0.0000000001
 43
0.0000000001
 40
2.761484376299849
 40
2.761484376299849
 40
6.615515837146264
 40
6.615515837146264
 10
171.6251616514601
 20
332.3068198195989
 30
0.0
 10
169.3252157898179
 20
333.2825864760597
 30
0.0
  0
SPLINE
  5
72F
330
1F
100
AcDbEntity
  8
AM_VIS
100
AcDbSpline
210
0.0
220
0.0
230
1.0
 70
    24
 71
     1
 72
     4
 73
     2
 74
     0
 42
0.0000000001
 43
0.0000000001
 40
6.615515837146264
 40
6.615515837146264
 40
13.49524073258131
 40
13.49524073258131
 10
169.3252157898179
 20
333.2825864760597
 30
0.0
 10
166.6019735307328
 20
335.5994723416729
 30
0.0
  0
SPLINE
  5
730
330
1F
100
AcDbEntity
  8
AM_VIS
100
AcDbSpline
210
0.0
220
0.0
230
1.0
 70
    24
 71
     1
 72
     4
 73
     2
 74
     0
 42
0.0000000001
 43
0.0000000001
 40
13.49524073258131
 40
13.49524073258131
 40
17.26193912689624
 40
17.26193912689624
 10
166.6019735307328
 20
335.5994723416729
 30
0.0
 10
166.0918700273299
 20
337.3606263926863
 30
0.0
  0
SPLINE
  5
731
330
1F
100
AcDbEntity
  8
AM_VIS
100
AcDbSpline
210
0.0
220
0.0
230
1.0
 70
    24
 71
     1
 72
     4
 73
     2
 74
     0
 42
0.0000000001
 43
0.0000000001
 40
0.0
 40
0.0
 40
4.175163334158837
 40
4.175163334158837
 10
206.0918700273299
 20
337.3606263926863
 30
0.0
 10
205.4738908479939
 20
335.429967725735
 30
0.0
  0
SPLINE
  5
732
330
1F
100
AcDbEntity
  8
AM_VIS
100
AcDbSpline
210
0.0
220
0.0
230
1.0
 70
    24
 71
     1
 72
     4
 73
     2
 74
     0
 42
0.0000000001
 43
0.0000000001
 40
4.175163334158837
 40
4.175163334158837
 40
8.665319143765254
 40
8.665319143765254
 10
205.4738908479939
 20
335.429967725735
 30
0.0
 10
203.8315804950034
 20
333.8599039986732
 30
0.0
  0
SPLINE
  5
733
330
1F
100
AcDbEntity
  8
AM_VIS
100
AcDbSpline
210
0.0
220
0.0
230
1.0
 70
    24
 71
     1
 72
     4
 73
     2
 74
     0
 42
0.0000000001
 43
0.0000000001
 40
8.665319143765254
 40
8.665319143765254
 40
14.40889226609054
 40
14.40889226609054
 10
203.8315804950034
 20
333.8599039986732
 30
0.0
 10
200.6251616514601
 20
332.3297765872064
 30
0.0
  0
LINE
  5
734
330
1F
100
AcDbEntity
  8
AM_VIS
100
AcDbLine
 10
177.5918700273299
 20
316.4573696250336
 30
0.0
 11
177.5918700273299
 21
314.2945804163497
 31
0.0
  0
LINE
  5
735
330
1F
100
AcDbEntity
  8
AM_VIS
100
AcDbLine
 10
194.5918700273299
 20
316.4573696250337
 30
0.0
 11
194.5918700273299
 21
314.2945804163497
 31
0.0
  0
LINE
  5
736
330
1F
100
AcDbEntity
  8
AM_VIS
100
AcDbLine
 10
165.0918700273299
 20
341.7945804163498
 30
0.0
 11
165.0918700273299
 21
339.7945804163498
 31
0.0
  0
LINE
  5
737
330
1F
100
AcDbEntity
  8
AM_VIS
100
AcDbLine
 10
170.0918700273299
 20
341.7945804163498
 30
0.0
 11
170.0918700273299
 21
339.7945804163498
 31
0.0
  0
LINE
  5
738
330
1F
100
AcDbEntity
  8
AM_VIS
100
AcDbLine
 10
202.0918700273299
 20
341.7945804163498
 30
0.0
 11
202.0918700273299
 21
339.7945804163498
 31
0.0
  0
LINE
  5
739
330
1F
100
AcDbEntity
  8
AM_VIS
100
AcDbLine
 10
207.09187002733
 20
341.7945804163498
 30
0.0
 11
207.09187002733
 21
339.7945804163498
 31
0.0
  0
ARC
  5
73A
330
1F
100
AcDbEntity
  8
AM_VIS
100
AcDbCircle
 10
199.3918700273299
 20
442.3945804163497
 30
0.0
 40
1.0
100
AcDbArc
 50
0.0
 51
90.0
  0
ARC
  5
73B
330
1F
100
AcDbEntity
  8
AM_VIS
100
AcDbCircle
 10
172.79187002733
 20
442.3945804163497
 30
0.0
 40
1.0
100
AcDbArc
 50
90.0
 51
180.0
  0
ARC
  5
73C
330
1F
100
AcDbEntity
  8
AM_VIS
100
AcDbCircle
 10
172.79187002733
 20
415.7945804163497
 30
0.0
 40
1.0
100
AcDbArc
 50
180.0
 51
270.0
  0
ARC
  5
73D
330
1F
100
AcDbEntity
  8
AM_VIS
100
AcDbCircle
 10
199.3918700273299
 20
415.7945804163497
 30
0.0
 40
1.0
100
AcDbArc
 50
270.0
 51
0.0
  0
LINE
  5
73E
330
1F
100
AcDbEntity
  8
AM_VIS
100
AcDbLine
 10
196.8418700273299
 20
400.2945804163497
 30
0.0
 11
175.3418700273299
 21
400.2945804163497
 31
0.0
  0
CIRCLE
  5
73F
330
1F
100
AcDbEntity
  8
AM_VIS
100
AcDbCircle
 10
186.0918700273299
 20
429.0945804163497
 30
0.0
 40
3.5
  0
CIRCLE
  5
740
330
1F
100
AcDbEntity
  8
AM_VIS
100
AcDbCircle
 10
186.0918700273299
 20
429.0945804163497
 30
0.0
 40
2.5
  0
LINE
  5
741
330
1F
100
AcDbEntity
  8
AM_VIS
100
AcDbLine
 10
179.5918700273299
 20
447.2945804163497
 30
0.0
 11
192.5918700273299
 21
447.2945804163497
 31
0.0
  0
ARC
  5
742
330
1F
100
AcDbEntity
  8
AM_VIS
100
AcDbCircle
 10
186.0918700273299
 20
338.4332975064679
 30
0.0
 40
23.56249999999999
100
AcDbArc
 50
246.2226839207447
 51
293.7773160792553
  0
CIRCLE
  5
743
330
1F
100
AcDbEntity
  8
AM_VIS
100
AcDbCircle
 10
186.0918700273299
 20
328.3707975064678
 30
0.0
 40
9.0
  0
LINE
  5
744
330
1F
100
AcDbEntity
  8
AM_VIS
100
AcDbLine
 10
194.0918700273299
 20
313.7945804163497
 30
0.0
 11
178.0918700273299
 21
313.7945804163497
 31
0.0
  0
LINE
  5
745
330
1F
100
AcDbEntity
  8
AM_VIS
100
AcDbLine
 10
170.0918700273299
 20
339.7945804163498
 30
0.0
 11
165.0918700273299
 21
339.7945804163498
 31
0.0
  0
LINE
  5
746
330
1F
100
AcDbEntity
  8
AM_VIS
100
AcDbLine
 10
207.09187002733
 20
339.7945804163498
 30
0.0
 11
202.0918700273299
 21
339.7945804163498
 31
0.0
  0
CIRCLE
  5
747
330
1F
100
AcDbEntity
  8
AM_VIS
100
AcDbCircle
 10
186.0918700273299
 20
380.5445804163497
 30
0.0
 40
1.5
  0
ARC
  5
748
330
1F
100
AcDbEntity
  8
AM_VIS
100
AcDbCircle
 10
178.0918700273299
 20
314.2945804163497
 30
0.0
 40
0.5
100
AcDbArc
 50
180.0
 51
270.0
  0
ARC
  5
749
330
1F
100
AcDbEntity
  8
AM_VIS
100
AcDbCircle
 10
194.0918700273299
 20
314.2945804163497
 30
0.0
 40
0.5
100
AcDbArc
 50
270.0
 51
0.0
  0
LINE
  5
74A
330
1F
100
AcDbEntity
  8
AM_VIS
100
AcDbLine
 10
329.3786444204341
 20
511.2575165285655
 30
0.0
 11
294.878644420434
 21
511.2575165285655
 31
0.0
  0
LINE
  5
74B
330
1F
100
AcDbEntity
  8
AM_VIS
100
AcDbLine
 10
329.3786444204341
 20
511.2575165285655
 30
0.0
 11
329.3786444204341
 21
482.2575165285654
 31
0.0
  0
LINE
  5
74C
330
1F
100
AcDbEntity
  8
AM_VIS
100
AcDbLine
 10
294.878644420434
 20
482.2575165285654
 30
0.0
 11
329.3786444204341
 21
482.2575165285654
 31
0.0
  0
LINE
  5
74D
330
1F
100
AcDbEntity
  8
AM_VIS
100
AcDbLine
 10
294.878644420434
 20
511.2575165285655
 30
0.0
 11
294.878644420434
 21
482.2575165285654
 31
0.0
  0
LINE
  5
74E
330
1F
100
AcDbEntity
  8
AM_VIS
100
AcDbLine
 10
294.878644420434
 20
511.2575165285655
 30
0.0
 11
289.8786444204341
 21
511.2575165285655
 31
0.0
  0
LINE
  5
74F
330
1F
100
AcDbEntity
  8
AM_VIS
100
AcDbLine
 10
294.878644420434
 20
482.2575165285654
 30
0.0
 11
289.8786444204341
 21
482.2575165285654
 31
0.0
  0
LINE
  5
750
330
1F
100
AcDbEntity
  8
AM_VIS
100
AcDbLine
 10
289.8786444204341
 20
511.2575165285655
 30
0.0
 11
289.8786444204341
 21
482.2575165285654
 31
0.0
  0
LINE
  5
751
330
1F
100
AcDbEntity
  8
AM_VIS
100
AcDbLine
 10
285.8786444204341
 20
510.0575165285654
 30
0.0
 11
285.8786444204341
 21
483.4575165285655
 31
0.0
  0
LINE
  5
752
330
1F
100
AcDbEntity
  8
AM_VIS
100
AcDbLine
 10
289.8786444204341
 20
511.0575165285655
 30
0.0
 11
285.8786444204341
 21
511.0575165285655
 31
0.0
  0
LINE
  5
753
330
1F
100
AcDbEntity
  8
AM_VIS
100
AcDbLine
 10
289.8786444204341
 20
482.4575165285654
 30
0.0
 11
285.8786444204341
 21
482.4575165285654
 31
0.0
  0
LINE
  5
754
330
1F
100
AcDbEntity
  8
AM_VIS
100
AcDbLine
 10
257.878644420434
 20
509.5575165285654
 30
0.0
 11
257.878644420434
 21
483.9575165285655
 31
0.0
  0
LINE
  5
755
330
1F
100
AcDbEntity
  8
AM_VIS
100
AcDbLine
 10
285.8786444204341
 20
509.5575165285654
 30
0.0
 11
257.878644420434
 21
509.5575165285654
 31
0.0
  0
LINE
  5
756
330
1F
100
AcDbEntity
  8
AM_VIS
100
AcDbLine
 10
285.8786444204341
 20
483.9575165285654
 30
0.0
 11
257.878644420434
 21
483.9575165285654
 31
0.0
  0
LINE
  5
757
330
1F
100
AcDbEntity
  8
AM_VIS
100
AcDbLine
 10
298.628644420434
 20
513.0075165285655
 30
0.0
 11
330.628644420434
 21
513.0075165285655
 31
0.0
  0
LINE
  5
758
330
1F
100
AcDbEntity
  8
AM_VIS
100
AcDbLine
 10
330.628644420434
 20
481.0075165285654
 30
0.0
 11
298.628644420434
 21
481.0075165285654
 31
0.0
  0
LINE
  5
759
330
1F
100
AcDbEntity
  8
AM_VIS
100
AcDbLine
 10
286.878644420434
 20
511.2242249044353
 30
0.0
 11
278.628644420434
 21
511.2242249044353
 31
0.0
  0
LINE
  5
75A
330
1F
100
AcDbEntity
  8
AM_VIS
100
AcDbLine
 10
343.8786444204341
 20
511.2242249044353
 30
0.0
 11
352.3786444204341
 21
511.2242249044353
 31
0.0
  0
LINE
  5
75B
330
1F
100
AcDbEntity
  8
AM_VIS
100
AcDbLine
 10
352.3786444204341
 20
482.2242249044353
 30
0.0
 11
352.3786444204341
 21
511.2242249044353
 31
0.0
  0
LINE
  5
75C
330
1F
100
AcDbEntity
  8
AM_VIS
100
AcDbLine
 10
343.8786444204341
 20
482.2242249044353
 30
0.0
 11
352.3786444204341
 21
482.2242249044353
 31
0.0
  0
LINE
  5
75D
330
1F
100
AcDbEntity
  8
AM_VIS
100
AcDbLine
 10
286.878644420434
 20
482.2242249044353
 30
0.0
 11
278.628644420434
 21
482.2242249044353
 31
0.0
  0
LINE
  5
75E
330
1F
100
AcDbEntity
  8
AM_VIS
100
AcDbLine
 10
278.628644420434
 20
511.2242249044353
 30
0.0
 11
278.628644420434
 21
509.5575165285654
 31
0.0
  0
LINE
  5
75F
330
1F
100
AcDbEntity
  8
AM_VIS
100
AcDbLine
 10
278.628644420434
 20
483.9575165285654
 30
0.0
 11
278.628644420434
 21
482.2242249044353
 31
0.0
  0
LINE
  5
760
330
1F
100
AcDbEntity
  8
AM_VIS
100
AcDbLine
 10
298.628644420434
 20
481.0075165285654
 30
0.0
 11
298.628644420434
 21
482.2575165285654
 31
0.0
  0
LINE
  5
761
330
1F
100
AcDbEntity
  8
AM_VIS
100
AcDbLine
 10
298.628644420434
 20
511.2575165285655
 30
0.0
 11
298.628644420434
 21
513.0075165285655
 31
0.0
  0
LINE
  5
762
330
1F
100
AcDbEntity
  8
AM_VIS
100
AcDbLine
 10
343.8786444204341
 20
471.5075165285655
 30
0.0
 11
286.878644420434
 21
471.5075165285655
 31
0.0
  0
LINE
  5
763
330
1F
100
AcDbEntity
  8
AM_VIS
100
AcDbLine
 10
286.878644420434
 20
471.5075165285655
 30
0.0
 11
286.878644420434
 21
482.4575165285654
 31
0.0
  0
LINE
  5
764
330
1F
100
AcDbEntity
  8
AM_VIS
100
AcDbLine
 10
286.878644420434
 20
511.0575165285655
 30
0.0
 11
286.878644420434
 21
522.0075165285654
 31
0.0
  0
LINE
  5
765
330
1F
100
AcDbEntity
  8
AM_VIS
100
AcDbLine
 10
286.878644420434
 20
522.0075165285654
 30
0.0
 11
343.8786444204341
 21
522.0075165285654
 31
0.0
  0
LINE
  5
766
330
1F
100
AcDbEntity
  8
AM_VIS
100
AcDbLine
 10
330.628644420434
 20
513.0075165285655
 30
0.0
 11
330.628644420434
 21
481.0075165285654
 31
0.0
  0
LINE
  5
767
330
1F
100
AcDbEntity
  8
AM_VIS
100
AcDbLine
 10
330.628644420434
 20
502.2575165285655
 30
0.0
 11
338.443944981101
 21
502.2575165285655
 31
0.0
  0
LINE
  5
768
330
1F
100
AcDbEntity
  8
AM_VIS
100
AcDbLine
 10
338.443944981101
 20
491.2575165285654
 30
0.0
 11
330.628644420434
 21
491.2575165285654
 31
0.0
  0
LINE
  5
769
330
1F
100
AcDbEntity
  8
AM_VIS
100
AcDbLine
 10
343.8786444204341
 20
522.0075165285654
 30
0.0
 11
343.8786444204341
 21
471.5075165285655
 31
0.0
  0
LINE
  5
76A
330
1F
100
AcDbEntity
  8
AM_VIS
100
AcDbLine
 10
338.443944981101
 20
491.2575165285654
 30
0.0
 11
338.443944981101
 21
502.2575165285655
 31
0.0
  0
LINE
  5
76B
330
1F
100
AcDbEntity
  8
AM_VIS
100
AcDbLine
 10
285.8786444204341
 20
482.4575165285654
 30
0.0
 11
285.8786444204341
 21
483.4575165285654
 31
0.0
  0
LINE
  5
76C
330
1F
100
AcDbEntity
  8
AM_VIS
100
AcDbLine
 10
285.8786444204341
 20
510.0575165285654
 30
0.0
 11
285.8786444204341
 21
511.0575165285655
 31
0.0
  0
CIRCLE
  5
76D
330
1F
100
AcDbEntity
  8
AM_VIS
100
AcDbCircle
 10
315.3786444204341
 20
496.7575165285654
 30
0.0
 40
11.75
  0
CIRCLE
  5
76E
330
1F
100
AcDbEntity
  8
AM_VIS
100
AcDbCircle
 10
315.3786444204341
 20
496.7575165285654
 30
0.0
 40
6.5
  0
LINE
  5
76F
330
1F
100
AcDbEntity
  8
AM_VIS
100
AcDbLine
 10
278.378644420434
 20
268.8770160002948
 30
0.0
 11
262.3786444204341
 21
268.8770160002947
 31
0.0
  0
LINE
  5
770
330
1F
100
AcDbEntity
  8
AM_VIS
100
AcDbLine
 10
278.378644420434
 20
243.2770160002947
 30
0.0
 11
262.3786444204341
 21
243.2770160002947
 31
0.0
  0
LINE
  5
771
330
1F
100
AcDbEntity
  8
AM_VIS
100
AcDbLine
 10
262.3786444204341
 20
256.0770160002947
 30
0.0
 11
262.3786444204341
 21
243.2770160002947
 31
0.0
  0
LINE
  5
772
330
1F
100
AcDbEntity
  8
AM_VIS
100
AcDbLine
 10
262.3786444204341
 20
268.8770160002947
 30
0.0
 11
262.3786444204341
 21
256.0770160002947
 31
0.0
  0
LINE
  5
773
330
1F
100
AcDbEntity
  8
AM_VIS
100
AcDbLine
 10
268.5098422669171
 20
264.0770160002947
 30
0.0
 11
278.2474465739511
 21
264.0770160002947
 31
0.0
  0
LINE
  5
774
330
1F
100
AcDbEntity
  8
AM_VIS
100
AcDbLine
 10
263.8910401134
 20
256.0770160002947
 30
0.0
 11
268.5098422669171
 21
264.0770160002947
 31
0.0
  0
LINE
  5
775
330
1F
100
AcDbEntity
  8
AM_VIS
100
AcDbLine
 10
268.5098422669171
 20
248.0770160002947
 30
0.0
 11
263.8910401134
 21
256.0770160002947
 31
0.0
  0
LINE
  5
776
330
1F
100
AcDbEntity
  8
AM_VIS
100
AcDbLine
 10
278.2474465739511
 20
248.0770160002947
 30
0.0
 11
268.5098422669171
 21
248.0770160002947
 31
0.0
  0
LINE
  5
777
330
1F
100
AcDbEntity
  8
AM_VIS
100
AcDbLine
 10
278.378644420434
 20
248.3042573362468
 30
0.0
 11
278.2474465739511
 21
248.0770160002947
 31
0.0
  0
LINE
  5
778
330
1F
100
AcDbEntity
  8
AM_VIS
100
AcDbLine
 10
278.2474465739511
 20
264.0770160002947
 30
0.0
 11
278.378644420434
 21
263.8497746643424
 31
0.0
  0
ARC
  5
779
330
1F
100
AcDbEntity
  8
AM_VIS
100
AcDbCircle
 10
315.3786444204341
 20
256.0770160002947
 30
0.0
 40
20.0
100
AcDbArc
 50
218.6821874534895
 51
321.3178125465105
  0
ARC
  5
77A
330
1F
100
AcDbEntity
  8
AM_VIS
100
AcDbCircle
 10
315.3786444204341
 20
256.0770160002947
 30
0.0
 40
20.0
100
AcDbArc
 50
38.68218745348949
 51
141.3178125465105
  0
LINE
  5
77B
330
1F
100
AcDbEntity
  8
AM_VIS
100
AcDbLine
 10
298.628644420434
 20
268.5770160002947
 30
0.0
 11
332.1286444204341
 21
268.5770160002947
 31
0.0
  0
LINE
  5
77C
330
1F
100
AcDbEntity
  8
AM_VIS
100
AcDbLine
 10
332.1286444204341
 20
243.5770160002947
 30
0.0
 11
298.628644420434
 21
243.5770160002947
 31
0.0
  0
LINE
  5
77D
330
1F
100
AcDbEntity
  8
AM_VIS
100
AcDbLine
 10
343.8786444204341
 20
230.8270160002947
 30
0.0
 11
286.878644420434
 21
230.8270160002947
 31
0.0
  0
LINE
  5
77E
330
1F
100
AcDbEntity
  8
AM_VIS
100
AcDbLine
 10
286.878644420434
 20
230.8270160002947
 30
0.0
 11
286.878644420434
 21
241.6103076244248
 31
0.0
  0
LINE
  5
77F
330
1F
100
AcDbEntity
  8
AM_VIS
100
AcDbLine
 10
286.878644420434
 20
270.6103076244248
 30
0.0
 11
286.878644420434
 21
281.3270160002947
 31
0.0
  0
LINE
  5
780
330
1F
100
AcDbEntity
  8
AM_VIS
100
AcDbLine
 10
286.878644420434
 20
281.3270160002947
 30
0.0
 11
343.8786444204341
 21
281.3270160002947
 31
0.0
  0
LINE
  5
781
330
1F
100
AcDbEntity
  8
AM_VIS
100
AcDbLine
 10
332.1286444204341
 20
241.6103076244248
 30
0.0
 11
332.1286444204341
 21
246.5770160002947
 31
0.0
  0
LINE
  5
782
330
1F
100
AcDbEntity
  8
AM_VIS
100
AcDbLine
 10
352.1286444204341
 20
241.6103076244248
 30
0.0
 11
332.1286444204341
 21
241.6103076244248
 31
0.0
  0
LINE
  5
783
330
1F
100
AcDbEntity
  8
AM_VIS
100
AcDbLine
 10
352.1286444204341
 20
246.5770160002947
 30
0.0
 11
332.1286444204341
 21
246.5770160002947
 31
0.0
  0
LINE
  5
784
330
1F
100
AcDbEntity
  8
AM_VIS
100
AcDbLine
 10
352.1286444204341
 20
246.5770160002947
 30
0.0
 11
352.1286444204341
 21
241.6103076244248
 31
0.0
  0
LINE
  5
785
330
1F
100
AcDbEntity
  8
AM_VIS
100
AcDbLine
 10
332.1286444204341
 20
270.6103076244248
 30
0.0
 11
352.1286444204341
 21
270.6103076244248
 31
0.0
  0
LINE
  5
786
330
1F
100
AcDbEntity
  8
AM_VIS
100
AcDbLine
 10
352.1286444204341
 20
270.6103076244248
 30
0.0
 11
352.1286444204341
 21
265.5770160002947
 31
0.0
  0
LINE
  5
787
330
1F
100
AcDbEntity
  8
AM_VIS
100
AcDbLine
 10
352.1286444204341
 20
265.5770160002947
 30
0.0
 11
332.1286444204341
 21
265.5770160002947
 31
0.0
  0
LINE
  5
788
330
1F
100
AcDbEntity
  8
AM_VIS
100
AcDbLine
 10
332.1286444204341
 20
265.5770160002947
 30
0.0
 11
332.1286444204341
 21
270.6103076244248
 31
0.0
  0
LINE
  5
789
330
1F
100
AcDbEntity
  8
AM_VIS
100
AcDbLine
 10
298.628644420434
 20
246.5770160002947
 30
0.0
 11
298.628644420434
 21
241.6103076244248
 31
0.0
  0
LINE
  5
78A
330
1F
100
AcDbEntity
  8
AM_VIS
100
AcDbLine
 10
298.628644420434
 20
241.6103076244248
 30
0.0
 11
278.378644420434
 21
241.6103076244248
 31
0.0
  0
LINE
  5
78B
330
1F
100
AcDbEntity
  8
AM_VIS
100
AcDbLine
 10
298.628644420434
 20
270.6103076244248
 30
0.0
 11
298.628644420434
 21
265.5770160002947
 31
0.0
  0
LINE
  5
78C
330
1F
100
AcDbEntity
  8
AM_VIS
100
AcDbLine
 10
278.378644420434
 20
270.6103076244249
 30
0.0
 11
298.628644420434
 21
270.6103076244248
 31
0.0
  0
LINE
  5
78D
330
1F
100
AcDbEntity
  8
AM_VIS
100
AcDbLine
 10
278.378644420434
 20
246.5770160002946
 30
0.0
 11
298.628644420434
 21
246.5770160002947
 31
0.0
  0
LINE
  5
78E
330
1F
100
AcDbEntity
  8
AM_VIS
100
AcDbLine
 10
278.378644420434
 20
265.5770160002947
 30
0.0
 11
298.628644420434
 21
265.5770160002947
 31
0.0
  0
LINE
  5
78F
330
1F
100
AcDbEntity
  8
AM_VIS
100
AcDbLine
 10
343.8786444204341
 20
241.6103076244248
 30
0.0
 11
343.8786444204341
 21
230.8270160002947
 31
0.0
  0
LINE
  5
790
330
1F
100
AcDbEntity
  8
AM_VIS
100
AcDbLine
 10
343.8786444204341
 20
281.3270160002947
 30
0.0
 11
343.8786444204341
 21
270.6103076244248
 31
0.0
  0
ARC
  5
791
330
1F
100
AcDbEntity
  8
AM_VIS
100
AcDbCircle
 10
273.6286444204341
 20
256.0770160002947
 30
0.0
 40
10.75
100
AcDbArc
 50
63.77735349507735
 51
296.2226465049226
  0
CIRCLE
  5
792
330
1F
100
AcDbEntity
  8
AM_VIS
100
AcDbCircle
 10
273.1286444204341
 20
256.0770160002947
 30
0.0
 40
5.0
  0
LINE
  5
793
330
1F
100
AcDbEntity
  8
AM_VIS
100
AcDbLine
 10
332.1286444204341
 20
265.5770160002947
 30
0.0
 11
332.1286444204341
 21
246.5770160002947
 31
0.0
  0
LINE
  5
794
330
1F
100
AcDbEntity
  8
AM_VIS
100
AcDbLine
 10
352.1286444204341
 20
246.5770160002947
 30
0.0
 11
352.1286444204341
 21
265.5770160002947
 31
0.0
  0
LINE
  5
795
330
1F
100
AcDbEntity
  8
AM_VIS
100
AcDbLine
 10
298.628644420434
 20
246.5770160002947
 30
0.0
 11
298.628644420434
 21
265.5770160002947
 31
0.0
  0
CIRCLE
  5
796
330
1F
100
AcDbEntity
  8
AM_VIS
100
AcDbCircle
 10
315.3786444204341
 20
256.0770160002947
 30
0.0
 40
8.5
  0
CIRCLE
  5
797
330
1F
100
AcDbEntity
  8
AM_VIS
100
AcDbCircle
 10
293.378644420434
 20
237.5770160002947
 30
0.0
 40
2.5
  0
CIRCLE
  5
798
330
1F
100
AcDbEntity
  8
AM_VIS
100
AcDbCircle
 10
337.3786444204341
 20
274.5770160002947
 30
0.0
 40
2.5
  0
CIRCLE
  5
799
330
1F
100
AcDbEntity
  8
AM_VIS
100
AcDbCircle
 10
293.378644420434
 20
274.5770160002947
 30
0.0
 40
2.5
  0
CIRCLE
  5
79A
330
1F
100
AcDbEntity
  8
AM_VIS
100
AcDbCircle
 10
337.3786444204341
 20
237.5770160002947
 30
0.0
 40
2.5
  0
LINE
  5
79B
330
1F
100
AcDbEntity
  8
LOGO
 62
     4
100
AcDbLine
 10
483.144606792637
 20
202.470595926402
 30
0.0
 11
483.144606792637
 21
540.4694705924433
 31
0.0
  0
LINE
  5
79C
330
1F
100
AcDbEntity
  8
LOGO
 62
     4
100
AcDbLine
 10
125.644606792637
 20
202.470595926402
 30
0.0
 11
125.6446067926368
 21
540.4694705924432
 31
0.0
  0
DIMENSION
  5
79D
330
1F
100
AcDbEntity
  8
0
100
AcDbDimension
  2
*D3
 10
315.3786444204341
 20
455.1130912394837
 30
0.0
 11
288.878644420434
 21
457.6130912394837
 31
0.0
 70
    32
 71
     5
 42
53.0
  3
STANDARD
100
AcDbAlignedDimension
 13
262.3786444204341
 23
441.8945804163497
 33
0.0
 14
315.3786444204341
 24
453.0538344596895
 34
0.0
100
AcDbRotatedDimension
1001
ACAD
1000
DSTYLE
1002
{
1070
   176
1070
     5
1070
   177
1070
     5
1070
   178
1070
     5
1070
   272
1070
     8
1002
}
  0
LINE
  5
79E
330
1F
100
AcDbEntity
  8
0
100
AcDbLine
 10
278.378644420434
 20
270.6103076244248
 30
0.0
 11
278.378644420434
 21
241.6103076244247
 31
0.0
  0
DIMENSION
  5
79F
330
1F
100
AcDbEntity
  8
0
100
AcDbDimension
  2
*D4
 10
352.3786444204341
 20
529.2092216673893
 30
0.0
 11
305.1286444204341
 21
531.7092216673893
 31
0.0
 70
    32
 71
     5
 42
94.50000000000006
  3
STANDARD
100
AcDbAlignedDimension
 13
257.878644420434
 23
509.5575165285654
 33
0.0
 14
352.3786444204341
 24
509.5575165285654
 34
0.0
100
AcDbRotatedDimension
1001
ACAD
1000
DSTYLE
1002
{
1070
   176
1070
     5
1070
   177
1070
     5
1070
   178
1070
     5
1070
   272
1070
     8
1002
}
  0
DIMENSION
  5
7A0
330
1F
100
AcDbEntity
  8
0
100
AcDbDimension
  2
*D5
 10
151.9207350266314
 20
313.7945804163497
 30
0.0
 11
149.4207350266314
 21
380.5445804163498
 31
0.0
 70
    32
 71
     5
 42
133.5
  3
STANDARD
100
AcDbAlignedDimension
 13
179.5918700273299
 23
447.2945804163497
 33
0.0
 14
178.0918700273299
 24
313.7945804163497
 34
0.0
 50
90.0
100
AcDbRotatedDimension
1001
ACAD
1000
DSTYLE
1002
{
1070
   176
1070
     5
1070
   177
1070
     5
1070
   178
1070
     5
1070
   272
1070
     8
1002
}
  0
DIMENSION
  5
7A1
330
1F
100
AcDbEntity
  8
0
100
AcDbDimension
  2
*D6
 10
370.4095359799091
 20
471.5075165285655
 30
0.0
 11
367.909535979909
 21
496.7575165285656
 31
0.0
 70
    32
 71
     5
 42
50.50000000000006
  3
STANDARD
100
AcDbAlignedDimension
 13
343.8786444204341
 23
522.0075165285654
 33
0.0
 14
343.8786444204341
 24
471.5075165285655
 34
0.0
 50
90.0
100
AcDbRotatedDimension
1001
ACAD
1000
DSTYLE
1002
{
1070
   177
1070
     5
1070
   176
1070
     5
1070
   178
1070
     5
1070
   272
1070
     8
1002
}
  0
DIMENSION
  5
7A2
330
1F
100
AcDbEntity
  8
0
100
AcDbDimension
  2
*D7
 10
337.3786444204341
 20
287.7126897220934
 30
0.0
 11
315.3786444204341
 21
290.2126897220934
 31
0.0
 70
    32
 71
     5
 42
44.00000000000005
  3
STANDARD
100
AcDbAlignedDimension
 13
293.378644420434
 23
279.0770160002947
 33
0.0
 14
337.3786444204341
 24
279.0770160002947
 34
0.0
100
AcDbRotatedDimension
1001
ACAD
1000
DSTYLE
1002
{
1070
   176
1070
     5
1070
   177
1070
     5
1070
   178
1070
     5
1070
   272
1070
     8
1002
}
  0
DIMENSION
  5
7A3
330
1F
100
AcDbEntity
  8
0
100
AcDbDimension
  2
*D8
 10
361.8998573225391
 20
237.5770160002947
 30
0.0
 11
359.3998573225391
 21
256.0770160002947
 31
0.0
 70
    32
 71
     5
 42
36.99999999999997
  3
STANDARD
100
AcDbAlignedDimension
 13
341.8786444204341
 23
274.5770160002947
 33
0.0
 14
341.8786444204341
 24
237.5770160002947
 34
0.0
 50
90.0
100
AcDbRotatedDimension
1001
ACAD
1000
DSTYLE
1002
{
1070
   176
1070
     5
1070
   177
1070
     5
1070
   178
1070
     5
1070
   272
1070
     8
1002
}
  0
DIMENSION
  5
7A4
330
1F
100
AcDbEntity
  8
0
100
AcDbDimension
  2
*D9
 10
265.2823862151012
 20
328.370797506468
 30
0.0
 11
262.7823862151011
 21
321.620797506468
 31
0.0
 70
    32
 71
     5
 42
13.50000000000006
  3
STANDARD
100
AcDbAlignedDimension
 13
278.378644420434
 23
314.8707975064679
 33
0.0
 14
277.4631557189072
 24
328.370797506468
 34
0.0
 50
90.0
100
AcDbRotatedDimension
1001
ACAD
1000
DSTYLE
1002
{
1070
   176
1070
     5
1070
   177
1070
     5
1070
   178
1070
     5
1070
   272
1070
     8
1002
}
  0
POINT
  5
7A5
330
1F
100
AcDbEntity
  8
0
 60
     1
100
AcDbPoint
 10
-2044.65432920041
 20
-699.0028071170159
 30
0.0
1001
GENIUS_GENOBJ-N-CRS_13
1002
{
1000
OWNER
1000
GEN
1002
}
1001
GENIUS_GENOLIS_13
1002
{
1000
ENT
1005
0
1005
0
1005
0
1005
60D
1002
}
1001
GENIUS_GENOENT_13
1002
{
1000
MYREF
1005
7A5
1002
}
1002
{
1000
GRP
1005
0
1002
}
1001
GENIUS_GENODEF_13
1002
{
1000
HIER
1070
    10
1002
}
1002
{
1000
MANEDIT
1070
     1
1002
}
1002
{
1000
NOSEL
1070
     0
1002
}
1002
{
1000
BEHIND
1070
     0
1002
}
1002
{
1000
OTHER
1070
     0
1002
}
1002
{
1000
REACTOR
1002
}
  0
POINT
  5
7A6
330
1F
100
AcDbEntity
  8
0
 60
     1
100
AcDbPoint
 10
-2055.978914423265
 20
-690.1272206383796
 30
0.0
1001
GENIUS_GENOBJ-N-CRS_13
1002
{
1000
OWNER
1000
GEN
1002
}
1001
GENIUS_GENOLIS_13
1002
{
1000
ENT
1005
0
1005
0
1005
0
1005
60C
1002
}
1001
GENIUS_GENOENT_13
1002
{
1000
MYREF
1005
7A6
1002
}
1002
{
1000
GRP
1005
0
1002
}
1001
GENIUS_GENODEF_13
1002
{
1000
HIER
1070
    10
1002
}
1002
{
1000
MANEDIT
1070
     1
1002
}
1002
{
1000
NOSEL
1070
     0
1002
}
1002
{
1000
BEHIND
1070
     0
1002
}
1002
{
1000
OTHER
1070
     0
1002
}
1002
{
1000
REACTOR
1002
}
  0
POINT
  5
7A7
330
1F
100
AcDbEntity
  8
0
 60
     1
100
AcDbPoint
 10
-2049.620240725428
 20
-699.0028071170159
 30
0.0
1001
GENIUS_GENOBJ-N-CRS_13
1002
{
1000
OWNER
1000
GEN
1002
}
1001
GENIUS_GENOLIS_13
1002
{
1000
ENT
1005
0
1005
0
1005
0
1005
60B
1002
}
1001
GENIUS_GENOENT_13
1002
{
1000
MYREF
1005
7A7
1002
}
1002
{
1000
GRP
1005
0
1002
}
1001
GENIUS_GENODEF_13
1002
{
1000
HIER
1070
    10
1002
}
1002
{
1000
MANEDIT
1070
     1
1002
}
1002
{
1000
NOSEL
1070
     0
1002
}
1002
{
1000
BEHIND
1070
     0
1002
}
1002
{
1000
OTHER
1070
     0
1002
}
1002
{
1000
REACTOR
1002
}
  0
ENDSEC
  0
SECTION
  2
OBJECTS
  0
DICTIONARY
  5
C
330
0
100
AcDbDictionary
281
     1
  3
ACAD_COLOR
350
BE
  3
ACAD_GROUP
350
D
  3
ACAD_LAYOUT
350
1A
  3
ACAD_MATERIAL
350
BD
  3
ACAD_MLINESTYLE
350
17
  3
ACAD_PLOTSETTINGS
350
19
  3
ACAD_PLOTSTYLENAME
350
E
  3
ACAD_TABLESTYLE
350
11A
  3
ACDBHEADERROUNDTRIPXREC
350
996
  3
AcDbVariableDictionary
350
94
  3
AcmDictionary
350
5B
  3
AMG
350
41
  3
AMGSNAPSETTINGS
350
1B8
  3
DWGPROPS
350
995
  0
DICTIONARY
  5
3C5
330
2
100
AcDbDictionary
280
     1
281
     1
  3
ACAD_LAYERSTATES
360
3C6
  0
DICTIONARY
  5
8F
330
1F
100
AcDbDictionary
280
     1
281
     1
  0
DICTIONARY
  5
BE
102
{ACAD_REACTORS
330
C
102
}
330
C
100
AcDbDictionary
281
     1
  0
DICTIONARY
  5
D
102
{ACAD_REACTORS
330
C
102
}
330
C
100
AcDbDictionary
281
     1
  0
DICTIONARY
  5
1A
102
{ACAD_REACTORS
330
C
102
}
330
C
100
AcDbDictionary
281
     1
  3
Model
350
22
  3
配置1
350
1E
  3
配置2
350
26
  0
DICTIONARY
  5
BD
102
{ACAD_REACTORS
330
C
102
}
330
C
100
AcDbDictionary
281
     1
  0
DICTIONARY
  5
17
102
{ACAD_REACTORS
330
C
102
}
330
C
100
AcDbDictionary
281
     1
  3
Standard
350
18
  0
DICTIONARY
  5
19
102
{ACAD_REACTORS
330
C
102
}
330
C
100
AcDbDictionary
281
     1
  0
ACDBDICTIONARYWDFLT
  5
E
102
{ACAD_REACTORS
330
C
102
}
330
C
100
AcDbDictionary
281
     1
  3
Normal
350
F
100
AcDbDictionaryWithDefault
340
F
  0
DICTIONARY
  5
11A
102
{ACAD_REACTORS
330
C
102
}
330
C
100
AcDbDictionary
281
     1
  3
Standard
350
11B
  0
DICTIONARY
  5
996
102
{ACAD_REACTORS
330
C
102
}
330
C
100
AcDbDictionary
281
     1
  0
DICTIONARY
  5
94
102
{ACAD_REACTORS
330
C
102
}
330
C
100
AcDbDictionary
281
     1
  3
CTABLESTYLE
350
138
  3
DIMASSOC
350
96
  3
INDEXCTL
350
95
  3
PROJECTNAME
350
86C
  0
DICTIONARY
  5
5B
102
{ACAD_REACTORS
330
C
102
}
330
C
100
AcDbDictionary
281
     1
  3
AcmBOM
350
1B5
  3
AcmStdDictionary
350
61
  3
AMDTSECTSYM_ARROWCOLOR
350
123
  0
DICTIONARY
  5
41
102
{ACAD_REACTORS
330
C
102
}
330
C
100
AcDbDictionary
281
     1
  0
DICTIONARY
  5
1B8
102
{ACAD_REACTORS
330
C
102
}
330
C
100
AcDbDictionary
281
     1
  0
XRECORD
  5
995
102
{ACAD_REACTORS
330
C
102
}
330
C
100
AcDbXrecord
280
     1
  1
DWGPROPS COOKIE
  2

  3

  4

  6

  7

  8

  9

300
AmdtFileType=84
301
=
302
=
303
=
304
=
305
=
306
=
307
=
308
=
309
=
 40
0.0059187037037037
 41
2453885.350345046
 42
2453977.364116748
  1

 90
        1
  0
DICTIONARY
  5
3C6
102
{ACAD_REACTORS
330
3C5
102
}
330
3C5
100
AcDbDictionary
281
     1
  0
LAYOUT
  5
22
102
{ACAD_XDICTIONARY
360
999
102
}
102
{ACAD_REACTORS
330
1A
102
}
330
1A
100
AcDbPlotSettings
  1

  2
\\RDS1\iR3300影印機
  4
A4
  6

 40
6.805083274841308
 41
5.619736671447753
 42
6.974411010742187
 43
5.027069091796875
 44
209.9733276367187
 45
296.9259948730469
 46
0.0
 47
0.0
 48
0.0
 49
0.0
140
0.0
141
0.0
142
1.0
143
1.848816401910286
 70
 11952
 72
     1
 73
     1
 74
     0
  7
彩色出圖.ctb
 75
     0
147
0.5408865904514649
148
-83.3151757152555
149
-179.1084374929873
100
AcDbLayout
  1
Model
 70
     1
 71
     0
 10
0.0
 20
0.0
 11
12.0
 21
9.0
 12
0.0
 22
0.0
 32
0.0
 14
0.0
 24
0.0
 34
0.0
 15
0.0
 25
0.0
 35
0.0
146
0.0
 13
0.0
 23
0.0
 33
0.0
 16
1.0
 26
0.0
 36
0.0
 17
0.0
 27
1.0
 37
0.0
 76
     0
330
1F
1001
ACAD_PSEXT
1000
\\RDS1\iR3300影印機
1000
Canon iR2200-3300 PCL5e
1000
\\RDS1
1000

1070
     0
  0
LAYOUT
  5
1E
102
{ACAD_XDICTIONARY
360
997
102
}
102
{ACAD_REACTORS
330
1A
102
}
330
1A
100
AcDbPlotSettings
  1

  2

  4

  6

 40
0.0
 41
0.0
 42
0.0
 43
0.0
 44
0.0
 45
0.0
 46
0.0
 47
0.0
 48
0.0
 49
0.0
140
0.0
141
0.0
142
1.0
143
1.0
 70
   688
 72
     0
 73
     0
 74
     5
  7
彩色出圖.ctb
 75
    16
147
1.0
148
0.0
149
0.0
100
AcDbLayout
  1
配置1
 70
     1
 71
     1
 10
0.0
 20
0.0
 11
420.0
 21
297.0
 12
0.0
 22
0.0
 32
0.0
 14
1.000000000000000E+20
 24
1.000000000000000E+20
 34
1.000000000000000E+20
 15
-1.000000000000000E+20
 25
-1.000000000000000E+20
 35
-1.000000000000000E+20
146
0.0
 13
0.0
 23
0.0
 33
0.0
 16
1.0
 26
0.0
 36
0.0
 17
0.0
 27
1.0
 37
0.0
 76
     0
330
1B
  0
LAYOUT
  5
26
102
{ACAD_XDICTIONARY
360
99B
102
}
102
{ACAD_REACTORS
330
1A
102
}
330
1A
100
AcDbPlotSettings
  1

  2

  4

  6

 40
0.0
 41
0.0
 42
0.0
 43
0.0
 44
0.0
 45
0.0
 46
0.0
 47
0.0
 48
0.0
 49
0.0
140
0.0
141
0.0
142
1.0
143
1.0
 70
   688
 72
     0
 73
     0
 74
     5
  7
彩色出圖.ctb
 75
    16
147
1.0
148
0.0
149
0.0
100
AcDbLayout
  1
配置2
 70
     1
 71
     2
 10
0.0
 20
0.0
 11
12.0
 21
9.0
 12
0.0
 22
0.0
 32
0.0
 14
0.0
 24
0.0
 34
0.0
 15
0.0
 25
0.0
 35
0.0
146
0.0
 13
0.0
 23
0.0
 33
0.0
 16
1.0
 26
0.0
 36
0.0
 17
0.0
 27
1.0
 37
0.0
 76
     0
330
23
  0
MLINESTYLE
  5
18
102
{ACAD_REACTORS
330
17
102
}
330
17
100
AcDbMlineStyle
  2
STANDARD
 70
     0
  3

 62
   256
 51
90.0
 52
90.0
 71
     2
 49
0.5
 62
   256
  6
BYLAYER
 49
-0.5
 62
   256
  6
BYLAYER
  0
ACDBPLACEHOLDER
  5
F
102
{ACAD_REACTORS
330
E
102
}
330
E
  0
TABLESTYLE
  5
11B
102
{ACAD_REACTORS
330
11A
102
}
330
11A
100
AcDbTableStyle
  3
Standard
 70
     0
 71
     0
 40
1.5
 41
1.5
280
     0
281
     0
  7
STANDARD
140
4.5
170
     2
 62
     0
 63
     7
283
     0
274
    -2
284
     1
 64
     0
275
    -2
285
     1
 65
     0
276
    -2
286
     1
 66
     0
277
    -2
287
     1
 67
     0
278
    -2
288
     1
 68
     0
279
    -2
289
     1
 69
     0
  7
STANDARD
140
6.0
170
     5
 62
     0
 63
     7
283
     0
274
    -2
284
     1
 64
     0
275
    -2
285
     1
 65
     0
276
    -2
286
     1
 66
     0
277
    -2
287
     1
 67
     0
278
    -2
288
     1
 68
     0
279
    -2
289
     1
 69
     0
  7
STANDARD
140
4.5
170
     5
 62
     0
 63
     7
283
     0
274
    -2
284
     1
 64
     0
275
    -2
285
     1
 65
     0
276
    -2
286
     1
 66
     0
277
    -2
287
     1
 67
     0
278
    -2
288
     1
 68
     0
279
    -2
289
     1
 69
     0
  0
DICTIONARYVAR
  5
138
102
{ACAD_REACTORS
330
94
102
}
330
94
100
DictionaryVariables
280
     0
  1
STANDARD
  0
DICTIONARYVAR
  5
96
102
{ACAD_REACTORS
330
94
102
}
330
94
100
DictionaryVariables
280
     0
  1
2
  0
DICTIONARYVAR
  5
95
102
{ACAD_REACTORS
330
94
102
}
330
94
100
DictionaryVariables
280
     0
  1
0
  0
DICTIONARYVAR
  5
86C
102
{ACAD_REACTORS
330
94
102
}
330
94
100
DictionaryVariables
280
     0
  1

  0
DICTIONARY
  5
1B5
102
{ACAD_REACTORS
330
5B
102
}
330
5B
100
AcDbDictionary
281
     1
  0
DICTIONARY
  5
61
102
{ACAD_REACTORS
330
5B
102
}
330
5B
100
AcDbDictionary
281
     1
  0
XRECORD
  5
123
102
{ACAD_REACTORS
330
5B
102
}
330
5B
100
AcDbXrecord
280
     1
 90
-1023410169
  0
DICTIONARY
  5
999
330
22
100
AcDbDictionary
280
     1
281
     1
  3
ACAD_XREC_ROUNDTRIP
360
99A
  0
DICTIONARY
  5
997
330
1E
100
AcDbDictionary
280
     1
281
     1
  3
ACAD_XREC_ROUNDTRIP
360
998
  0
DICTIONARY
  5
99B
330
26
100
AcDbDictionary
280
     1
281
     1
  3
ACAD_XREC_ROUNDTRIP
360
99C
  0
XRECORD
  5
99A
102
{ACAD_REACTORS
330
999
102
}
330
999
100
AcDbXrecord
280
     1
102
SHADEPLOT
 70
     0
102
SHADEPLOTRESLEVEL
 70
     2
102
SHADEPLOTCUSTOMDPI
 70
   300
  0
XRECORD
  5
998
102
{ACAD_REACTORS
330
997
102
}
330
997
100
AcDbXrecord
280
     1
102
SHADEPLOT
 70
     0
102
SHADEPLOTRESLEVEL
 70
     2
102
SHADEPLOTCUSTOMDPI
 70
   300
  0
XRECORD
  5
99C
102
{ACAD_REACTORS
330
99B
102
}
330
99B
100
AcDbXrecord
280
     1
102
SHADEPLOT
 70
     0
102
SHADEPLOTRESLEVEL
 70
     2
102
SHADEPLOTCUSTOMDPI
 70
   300
  0
ENDSEC
  0
EOF
