  0
SECTION
  2
HEADER
  9
$ACADVER
  1
AC1015
  9
$ACADMAINTVER
 70
    20
  9
$DWGCODEPAGE
  3
ANSI_950
  9
$INSBASE
 10
0.0
 20
0.0
 30
0.0
  9
$EXTMIN
 10
349.6270515554527
 20
-317.2884174255567
 30
0.0
  9
$EXTMAX
 10
1783.949253114406
 20
740.2209515207284
 30
297.2389220237929
  9
$LIMMIN
 10
0.0
 20
0.0
  9
$LIMMAX
 10
420.0
 20
297.0
  9
$ORTHOMODE
 70
     0
  9
$REGENMODE
 70
     1
  9
$FILLMODE
 70
     1
  9
$QTEXTMODE
 70
     0
  9
$MIRRTEXT
 70
     1
  9
$LTSCALE
 40
3.0
  9
$ATTMODE
 70
     1
  9
$TEXTSIZE
 40
3.0
  9
$TRACEWID
 40
1.0
  9
$TEXTSTYLE
  7
CHINESET
  9
$CLAYER
  8
0
  9
$CELTYPE
  6
ByLayer
  9
$CECOLOR
 62
   256
  9
$CELTSCALE
 40
1.0
  9
$DISPSILH
 70
     0
  9
$DIMSCALE
 40
1.0
  9
$DIMASZ
 40
3.0
  9
$DIMEXO
 40
1.5
  9
$DIMDLI
 40
8.0
  9
$DIMRND
 40
0.0
  9
$DIMDLE
 40
0.0
  9
$DIMEXE
 40
1.5
  9
$DIMTP
 40
0.1
  9
$DIMTM
 40
0.1
  9
$DIMTXT
 40
3.0
  9
$DIMCEN
 40
0.0
  9
$DIMTSZ
 40
0.0
  9
$DIMTOL
 70
     0
  9
$DIMLIM
 70
     0
  9
$DIMTIH
 70
     0
  9
$DIMTOH
 70
     0
  9
$DIMSE1
 70
     0
  9
$DIMSE2
 70
     0
  9
$DIMTAD
 70
     1
  9
$DIMZIN
 70
     8
  9
$DIMBLK
  1

  9
$DIMASO
 70
     1
  9
$DIMSHO
 70
     1
  9
$DIMPOST
  1

  9
$DIMAPOST
  1
"
  9
$DIMALT
 70
     0
  9
$DIMALTD
 70
     2
  9
$DIMALTF
 40
0.0393701
  9
$DIMLFAC
 40
1.0
  9
$DIMTOFL
 70
     1
  9
$DIMTVP
 40
0.0
  9
$DIMTIX
 70
     0
  9
$DIMSOXD
 70
     0
  9
$DIMSAH
 70
     0
  9
$DIMBLK1
  1

  9
$DIMBLK2
  1

  9
$DIMSTYLE
  2
AM_ISO
  9
$DIMCLRD
 70
   256
  9
$DIMCLRE
 70
   256
  9
$DIMCLRT
 70
   256
  9
$DIMTFAC
 40
0.6
  9
$DIMGAP
 40
1.0
  9
$DIMJUST
 70
     0
  9
$DIMSD1
 70
     0
  9
$DIMSD2
 70
     0
  9
$DIMTOLJ
 70
     0
  9
$DIMTZIN
 70
     8
  9
$DIMALTZ
 70
     0
  9
$DIMALTTZ
 70
     0
  9
$DIMUPT
 70
     0
  9
$DIMDEC
 70
     2
  9
$DIMTDEC
 70
     8
  9
$DIMALTU
 70
     2
  9
$DIMALTTD
 70
     2
  9
$DIMTXSTY
  7
CHINESET
  9
$DIMAUNIT
 70
     0
  9
$DIMADEC
 70
     0
  9
$DIMALTRND
 40
0.0
  9
$DIMAZIN
 70
     2
  9
$DIMDSEP
 70
    46
  9
$DIMATFIT
 70
     3
  9
$DIMFRAC
 70
     0
  9
$DIMLDRBLK
  1

  9
$DIMLUNIT
 70
     2
  9
$DIMLWD
 70
    -1
  9
$DIMLWE
 70
    -1
  9
$DIMTMOVE
 70
     0
  9
$LUNITS
 70
     2
  9
$LUPREC
 70
     2
  9
$SKETCHINC
 40
1.0
  9
$FILLETRAD
 40
2.5
  9
$AUNITS
 70
     0
  9
$AUPREC
 70
     0
  9
$MENU
  1
.
  9
$ELEVATION
 40
0.0
  9
$PELEVATION
 40
0.0
  9
$THICKNESS
 40
0.0
  9
$LIMCHECK
 70
     0
  9
$CHAMFERA
 40
2.5
  9
$CHAMFERB
 40
2.5
  9
$CHAMFERC
 40
20.0
  9
$CHAMFERD
 40
0.0
  9
$SKPOLY
 70
     0
  9
$TDCREATE
 40
2454314.615040868
  9
$TDUCREATE
 40
2454314.281707535
  9
$TDUPDATE
 40
2456140.449002813
  9
$TDUUPDATE
 40
2456140.115669479
  9
$TDINDWG
 40
0.0900548727
  9
$TDUSRTIMER
 40
0.0900548727
  9
$USRTIMER
 70
     1
  9
$ANGBASE
 50
0.0
  9
$ANGDIR
 70
     0
  9
$PDMODE
 70
     0
  9
$PDSIZE
 40
0.0
  9
$PLINEWID
 40
0.0
  9
$SPLFRAME
 70
     0
  9
$SPLINETYPE
 70
     6
  9
$SPLINESEGS
 70
     8
  9
$HANDSEED
  5
3755
  9
$SURFTAB1
 70
     6
  9
$SURFTAB2
 70
     6
  9
$SURFTYPE
 70
     6
  9
$SURFU
 70
     6
  9
$SURFV
 70
     6
  9
$UCSBASE
  2

  9
$UCSNAME
  2

  9
$UCSORG
 10
0.0
 20
0.0
 30
0.0
  9
$UCSXDIR
 10
1.0
 20
0.0
 30
0.0
  9
$UCSYDIR
 10
0.0
 20
1.0
 30
0.0
  9
$UCSORTHOREF
  2

  9
$UCSORTHOVIEW
 70
     0
  9
$UCSORGTOP
 10
0.0
 20
0.0
 30
0.0
  9
$UCSORGBOTTOM
 10
0.0
 20
0.0
 30
0.0
  9
$UCSORGLEFT
 10
0.0
 20
0.0
 30
0.0
  9
$UCSORGRIGHT
 10
0.0
 20
0.0
 30
0.0
  9
$UCSORGFRONT
 10
0.0
 20
0.0
 30
0.0
  9
$UCSORGBACK
 10
0.0
 20
0.0
 30
0.0
  9
$PUCSBASE
  2

  9
$PUCSNAME
  2

  9
$PUCSORG
 10
0.0
 20
0.0
 30
0.0
  9
$PUCSXDIR
 10
1.0
 20
0.0
 30
0.0
  9
$PUCSYDIR
 10
0.0
 20
1.0
 30
0.0
  9
$PUCSORTHOREF
  2

  9
$PUCSORTHOVIEW
 70
     0
  9
$PUCSORGTOP
 10
0.0
 20
0.0
 30
0.0
  9
$PUCSORGBOTTOM
 10
0.0
 20
0.0
 30
0.0
  9
$PUCSORGLEFT
 10
0.0
 20
0.0
 30
0.0
  9
$PUCSORGRIGHT
 10
0.0
 20
0.0
 30
0.0
  9
$PUCSORGFRONT
 10
0.0
 20
0.0
 30
0.0
  9
$PUCSORGBACK
 10
0.0
 20
0.0
 30
0.0
  9
$USERI1
 70
     0
  9
$USERI2
 70
     0
  9
$USERI3
 70
     0
  9
$USERI4
 70
     0
  9
$USERI5
 70
     0
  9
$USERR1
 40
0.0
  9
$USERR2
 40
0.0
  9
$USERR3
 40
0.0
  9
$USERR4
 40
0.0
  9
$USERR5
 40
0.0
  9
$WORLDVIEW
 70
     1
  9
$SHADEDGE
 70
     3
  9
$SHADEDIF
 70
    70
  9
$TILEMODE
 70
     1
  9
$MAXACTVP
 70
    64
  9
$PINSBASE
 10
0.0
 20
0.0
 30
0.0
  9
$PLIMCHECK
 70
     0
  9
$PEXTMIN
 10
1.000000000000000E+20
 20
1.000000000000000E+20
 30
1.000000000000000E+20
  9
$PEXTMAX
 10
-1.000000000000000E+20
 20
-1.000000000000000E+20
 30
-1.000000000000000E+20
  9
$PLIMMIN
 10
0.0
 20
0.0
  9
$PLIMMAX
 10
420.0
 20
297.0
  9
$UNITMODE
 70
     0
  9
$VISRETAIN
 70
     1
  9
$PLINEGEN
 70
     0
  9
$PSLTSCALE
 70
     1
  9
$TREEDEPTH
 70
  3020
  9
$CMLSTYLE
  2
Standard
  9
$CMLJUST
 70
     0
  9
$CMLSCALE
 40
20.0
  9
$PROXYGRAPHICS
 70
     1
  9
$MEASUREMENT
 70
     1
  9
$CELWEIGHT
370
    -1
  9
$ENDCAPS
280
     0
  9
$JOINSTYLE
280
     0
  9
$LWDISPLAY
290
     0
  9
$INSUNITS
 70
     4
  9
$HYPERLINKBASE
  1

  9
$STYLESHEET
  1
彩色出圖.ctb
  9
$XEDIT
290
     1
  9
$CEPSNTYPE
380
     0
  9
$PSTYLEMODE
290
     1
  9
$FINGERPRINTGUID
  2
{F91B2B0A-EDDD-4F46-BB43-57EDAAE643EB}
  9
$VERSIONGUID
  2
{76FA66E2-DFAD-4BBD-A139-C3D223E4D622}
  9
$EXTNAMES
290
     1
  9
$PSVPSCALE
 40
0.0
  9
$OLESTARTUP
290
     0
  0
ENDSEC
  0
SECTION
  2
CLASSES
  0
CLASS
  1
ACDBDICTIONARYWDFLT
  2
AcDbDictionaryWithDefault
  3
ObjectDBX Classes
 90
        0
280
     0
281
     0
  0
CLASS
  1
ACDBPLACEHOLDER
  2
AcDbPlaceHolder
  3
ObjectDBX Classes
 90
        0
280
     0
281
     0
  0
CLASS
  1
LAYOUT
  2
AcDbLayout
  3
ObjectDBX Classes
 90
        0
280
     0
281
     0
  0
CLASS
  1
ACME_DOCUMENT
  2
AcMeDbDoc
  3
AcMeServices
 90
        0
280
     0
281
     0
  0
CLASS
  1
AMGSETTINGSOBJ
  2
AmgSettingsObj
  3
"AcadM|Product Description: AutoCAD Mechanical 2000|Company: Autodesk"
 90
        0
280
     0
281
     0
  0
CLASS
  1
ACMESCOPE
  2
AcMeScope
  3
AcMeServices
 90
        0
280
     0
281
     0
  0
CLASS
  1
ACMECOMMANDHISTORY
  2
AcMeCommandHistory
  3
AcMeServices
 90
        0
280
     0
281
     0
  0
CLASS
  1
ACIMSYSVARMAN
  2
AcImSysVarManager
  3
AcMeServices
 90
        0
280
     0
281
     0
  0
CLASS
  1
ACIMREALSYSVAR
  2
AcImRealSysVar
  3
AcMeServices
 90
        0
280
     0
281
     0
  0
CLASS
  1
ACIMINTSYSVAR
  2
AcImIntSysVar
  3
AcMeServices
 90
        0
280
     0
281
     0
  0
CLASS
  1
ACMEDRAWINGMAN
  2
AcMeDrawingMan
  3
AcMeServices
 90
        0
280
     0
281
     0
  0
CLASS
  1
ACMEVIEW
  2
AcMeView
  3
AcMeServices
 90
        0
280
     0
281
     0
  0
CLASS
  1
ACDBENTITYCACHE
  2
AcMeEntityCache
  3
AcMeServices
 90
        0
280
     0
281
     0
  0
CLASS
  1
GSMANAGER
  2
AcMeGSManager
  3
AcMeServices
 90
        0
280
     0
281
     0
  0
CLASS
  1
AMDTINTERNALREACTOR
  2
AmdtInternalReactor
  3
AcMeServices
 90
        0
280
     0
281
     0
  0
CLASS
  1
ACMESTATEMGR
  2
AcMeStateMgr
  3
AcMeServices
 90
        0
280
     0
281
     0
  0
CLASS
  1
ACGREFMASTER
  2
AcGrefMaster
  3
AcAttribServices
 90
        0
280
     0
281
     0
  0
CLASS
  1
ACME_DATABASE
  2
AcMeDbDatabase
  3
AcMeServices
 90
        0
280
     0
281
     0
  0
CLASS
  1
ACRFINSADJUSTERMGR
  2
AcRfInsAdjusterMgr
  3
AcMeServices
 90
        0
280
     0
281
     0
  0
CLASS
  1
ACGREFACADMASTER
  2
AcGrefacadMaster
  3
AcGrefServices
 90
        0
280
     0
281
     0
  0
CLASS
  1
AMIMASTER
  2
AmiMaster
  3
AmiServices
 90
        0
280
     0
281
     0
  0
CLASS
  1
ACMDATADICTIONARY
  2
AcmDataDictionary
  3
"AcmSymBB|Product Description: AutoCAD Mechanical 2004 DX|Company: Autodesk"
 90
        0
280
     0
281
     0
  0
CLASS
  1
ACMDATAENTRYBLOCK
  2
AcmDataEntryBlock
  3
"AcmSymBB|Product Description: AutoCAD Mechanical 2004 DX|Company: Autodesk"
 90
        0
280
     0
281
     0
  0
CLASS
  1
ACIMSTRSYSVAR
  2
AcImStrSysVar
  3
AcMeServices
 90
        0
280
     0
281
     0
  0
CLASS
  1
ACMSTANDARDISO
  2
AcmStandardISO
  3
"Amdt_StdImp|Product Description: AutoCAD Mechanical 2004 DX|Company: Autodesk"
 90
        0
280
     0
281
     0
  0
CLASS
  1
AMGOBJPROPCFG
  2
AmgObjPropCfg
  3
"AmgLay|Product Description: AutoCAD Mechanical 2000|Company: Autodesk"
 90
        1
280
     0
281
     0
  0
CLASS
  1
AMDTEDGESTANDARDISO
  2
AmdtEdgeStdISO
  3
"Amdt_StdImp|Product Description: AutoCAD Mechanical 2004 DX|Company: Autodesk"
 90
    32768
280
     0
281
     0
  0
CLASS
  1
ACMSURFSTANDARDISO
  2
AcmSurfTextStdISO
  3
"Amdt_StdImp|Product Description: AutoCAD Mechanical 2004 DX|Company: Autodesk"
 90
        0
280
     0
281
     0
  0
CLASS
  1
ACMFCFSTANDARDISO
  2
AcmFCFStdISO
  3
"Amdt_StdImp|Product Description: AutoCAD Mechanical 2004 DX|Company: Autodesk"
 90
        0
280
     0
281
     0
  0
CLASS
  1
ACMWELDSTANDARDISO
  2
AcmWeldingStdISO
  3
"Amdt_StdImp|Product Description: AutoCAD Mechanical 2004 DX|Company: Autodesk"
 90
        0
280
     0
281
     0
  0
CLASS
  1
ACMIDSTANDARDISO
  2
AcmIdStdISO
  3
"Amdt_StdImp|Product Description: AutoCAD Mechanical 2004 DX|Company: Autodesk"
 90
        0
280
     0
281
     0
  0
CLASS
  1
ACMDATUMSTANDARDISO
  2
AcmDatumStdISO
  3
"Amdt_StdImp|Product Description: AutoCAD Mechanical 2004 DX|Company: Autodesk"
 90
        0
280
     0
281
     0
  0
CLASS
  1
ACMBOMSTANDARDISO
  2
AcmBOMStdISO
  3
"Amdt_StdImp|Product Description: AutoCAD Mechanical 2004 DX|Company: Autodesk"
 90
        0
280
     0
281
     0
  0
CLASS
  1
ACMDETAILSTANDARDISO
  2
AmdtDetailSymStdISO
  3
"Amdt_StdImp|Product Description: AutoCAD Mechanical 2004 DX|Company: Autodesk"
 90
        0
280
     0
281
     0
  0
CLASS
  1
ACMSECTIONSTANDARDISO
  2
AmdtSectionSymStdISO
  3
"Amdt_StdImp|Product Description: AutoCAD Mechanical 2004 DX|Company: Autodesk"
 90
        0
280
     0
281
     0
  0
CLASS
  1
ACMCENTERLINESTANDARDISO
  2
AmdtCenterLineStdISO
  3
"Amdt_StdImp|Product Description: AutoCAD Mechanical 2004 DX|Company: Autodesk"
 90
        0
280
     0
281
     0
  0
CLASS
  1
ACMNOTESTANDARDISO
  2
AmdtNoteStdISO
  3
"Amdt_StdImp|Product Description: AutoCAD Mechanical 2004 DX|Company: Autodesk"
 90
        0
280
     0
281
     0
  0
CLASS
  1
ACAMGLAYSTD
  2
AcAmgLayStd
  3
"AcAmgLayStd|Product Description: AutoCAD Mechanical 2000|Company: Autodesk"
 90
        0
280
     0
281
     0
  0
CLASS
  1
ACAMGDIMSTD
  2
AcAmgDimStd
  3
"AcAmgDimStd|Product Description: AutoCAD Mechanical 2000|Company: Autodesk"
 90
        0
280
     0
281
     0
  0
CLASS
  1
ACAMGHOLECHARTSTDISO
  2
AcAmgHoleChartStdISO
  3
ACMSYMBB_MODULE_NAME
 90
        0
280
     0
281
     0
  0
CLASS
  1
ACAMGTITLESTD
  2
AcAmgTitleStd
  3
"TITLEAPP"
 90
        0
280
     0
281
     0
  0
CLASS
  1
LAYER_INDEX
  2
AcDbLayerIndex
  3
ObjectDBX Classes
 90
        0
280
     0
281
     0
  0
CLASS
  1
IDBUFFER
  2
AcDbIdBuffer
  3
ObjectDBX Classes
 90
        0
280
     0
281
     0
  0
CLASS
  1
DICTIONARYVAR
  2
AcDbDictionaryVar
  3
ObjectDBX Classes
 90
        0
280
     0
281
     0
  0
CLASS
  1
AM_DRAWING_MGR
  2
AcDmDwgMgr
  3
AcMechDwgViewMgmt
 90
        0
280
     0
281
     0
  0
CLASS
  1
AM_DWG_DOCUMENT
  2
AcDmDwgDocument
  3
AcMechDwgViewMgmt
 90
        0
280
     0
281
     0
  0
CLASS
  1
AM_DWG_SHEET
  2
AcDmSheet
  3
AcMechDwgViewMgmt
 90
        0
280
     0
281
     0
  0
CLASS
  1
AM_VIEWDIMPARMAP
  2
AcDmViewDimParMap
  3
AcMechDwgViewMgmt
 90
        0
280
     0
281
     0
  0
CLASS
  1
AM_DWGMGR_NAME
  2
AcDmDwgMgrName
  3
AcMechDwgViewMgmt
 90
        0
280
     0
281
     0
  0
CLASS
  1
AMDTMENUSTATEMGR
  2
AmdtMenuStateMgr
  3
McadcomServices
 90
        0
280
     0
281
     0
  0
CLASS
  1
AMDTMCOMMENUSTATE
  2
AmdtMcomMenuState
  3
McadcomServices
 90
        0
280
     0
281
     0
  0
CLASS
  1
MAPIAMMOUDLE
  2
MApiAmModule
  3
MApiAmServices
 90
        0
280
     0
281
     0
  0
CLASS
  1
AMDTADMENUSTATE
  2
AmdtAdMenuState
  3
DesignerServices
 90
        0
280
     0
281
     0
  0
CLASS
  1
ADAPPL
  2
AcAdAppl
  3
DesignerServices
 90
        0
280
     0
281
     0
  0
CLASS
  1
DEPMGR
  2
AcAdDepMgr
  3
DesignerServices
 90
        0
280
     0
281
     0
  0
CLASS
  1
PARAMMGR
  2
AcAdParamMgr
  3
DesignerServices
 90
        0
280
     0
281
     0
  0
CLASS
  1
PARAMSCOPE
  2
AcAdParamScope
  3
DesignerServices
 90
        0
280
     0
281
     0
  0
CLASS
  1
NAMEDAPPL
  2
AcAdNamedAppl
  3
DesignerServices
 90
        0
280
     0
281
     0
  0
CLASS
  1
AMDTDMMENUSTATE
  2
AmdtDmMenuState
  3
AcMechDwgViewMgmt
 90
        0
280
     0
281
     0
  0
CLASS
  1
AMDTAMMENUSTATE
  2
AmdtAmMenuState
  3
DesignerAssemblies
 90
        0
280
     0
281
     0
  0
CLASS
  1
ACAMPROJECT
  2
AcAmProject
  3
DesignerAssemblies
 90
        0
280
     0
281
     0
  0
CLASS
  1
ACAMGRCOMPDEF
  2
AcAmGrCompDef
  3
DesignerAssemblies
 90
        0
280
     0
281
     0
  0
CLASS
  1
ACCMCONTEXT
  2
AcCmContext
  3
DesignerAssemblies
 90
        0
280
     0
281
     0
  0
CLASS
  1
ACAMCOMPDEF
  2
AcAmCompDef
  3
DesignerAssemblies
 90
        0
280
     0
281
     0
  0
CLASS
  1
ACAMCOMPDEFMGR
  2
AcAmCompDefMgr
  3
DesignerAssemblies
 90
        0
280
     0
281
     0
  0
CLASS
  1
AMCONTEXTMGR
  2
AcAmContextMgr
  3
DesignerAssemblies
 90
        0
280
     0
281
     0
  0
CLASS
  1
ACAMCONTEXTMODELER
  2
AcAmContextModeler
  3
DesignerAssemblies
 90
        0
280
     0
281
     0
  0
CLASS
  1
ACMTHREADLINESTANDARDISO
  2
AmdtThreadLineStdISO
  3
"Amdt_StdImp|Product Description: AutoCAD Mechanical 2004 DX|Company: Autodesk"
 90
        0
280
     0
281
     0
  0
CLASS
  1
CATALOGSTATE
  2
AcAmCatalogState
  3
DesignerAssemblies
 90
        0
280
     0
281
     0
  0
CLASS
  1
ACAMGRCOMPDEFSET
  2
AcAmGrCompDefSet
  3
DesignerAssemblies
 90
        0
280
     0
281
     0
  0
CLASS
  1
AMDTBROWSERDBTAB
  2
AmdtBrowserDbTab
  3
McadcomServices
 90
        0
280
     0
281
     0
  0
CLASS
  1
CBROWSERAPPOBJECT
  2
CBrowserAppObject
  3
McadcomServices
 90
        0
280
     0
281
     0
  0
CLASS
  1
DM_PLACEHOLDER
  2
AcDmSelsetPlaceholder
  3
AcMechDwgViewMgmt
 90
        0
280
     0
281
     0
  0
CLASS
  1
TABLESTYLE
  2
AcDbTableStyle
  3
ObjectDBX Classes
 90
     2047
280
     0
281
     0
  0
CLASS
  1
VAACXREFPANELOBJECT
  2
VaAcXREFPanelObject
  3
VAAC_ADDIN
 90
    32768
280
     0
281
     0
  0
CLASS
  1
VAACIMAGEINVENTORY
  2
VaAcImageInventory
  3
VAAC_ADDIN
 90
    32768
280
     0
281
     0
  0
CLASS
  1
AMDTNOTETEMPLATEDB
  2
AmdtNoteTemplateDB
  3
AMDT_STDIMP_MODULE_NAME
 90
        0
280
     0
281
     0
  0
CLASS
  1
ACMBOM
  2
AcmBom
  3
"AcmSymBB|Product Description: AutoCAD Mechanical 2004 DX|Company: Autodesk"
 90
    32768
280
     0
281
     0
  0
CLASS
  1
AMDTFORMULAUPDATEDISPATCHER
  2
AmdtFormulaUpdateDispatcher
  3
AcMeServices
 90
    32768
280
     0
281
     0
  0
CLASS
  1
ACMPARTLIST
  2
AcmPartList
  3
"AcmSymBB|Product Description: AutoCAD Mechanical 2004 DX|Company: Autodesk"
 90
    33791
280
     0
281
     1
  0
CLASS
  1
ACAMGFILTERDAT
  2
AcAmgFilterDat
  3
"AcadM|Product Description: AutoCAD Mechanical 2000|Company: Autodesk"
 90
    32768
280
     0
281
     0
  0
CLASS
  1
DIMASSOC
  2
AcDbDimAssoc
  3
"AcDbDimAssoc|Product Desc:     AcDim ARX App For Dimension|Company:          Autodesk, Inc.|WEB Address:      www.autodesk.com"
 90
        0
280
     0
281
     0
  0
CLASS
  1
SORTENTSTABLE
  2
AcDbSortentsTable
  3
ObjectDBX Classes
 90
        0
280
     0
281
     0
  0
CLASS
  1
ACMSTANDARDANSI
  2
AcmStandardANSI
  3
"Amdt_StdImp|Product Description: AutoCAD Mechanical 2004 DX|Company: Autodesk"
 90
    32768
280
     0
281
     0
  0
CLASS
  1
ACMSURFSTANDARDANSI
  2
AcmSurfTextStdANSI
  3
"Amdt_StdImp|Product Description: AutoCAD Mechanical 2004 DX|Company: Autodesk"
 90
    32768
280
     0
281
     0
  0
CLASS
  1
ACMFCFSTANDARDANSI
  2
AcmFCFStdANSI
  3
"Amdt_StdImp|Product Description: AutoCAD Mechanical 2004 DX|Company: Autodesk"
 90
    32768
280
     0
281
     0
  0
CLASS
  1
ACMWELDSTANDARDANSI
  2
AcmWeldingStdANSI
  3
"Amdt_StdImp|Product Description: AutoCAD Mechanical 2004 DX|Company: Autodesk"
 90
    32768
280
     0
281
     0
  0
CLASS
  1
ACMIDSTANDARDANSI
  2
AcmIdStdANSI
  3
"Amdt_StdImp|Product Description: AutoCAD Mechanical 2004 DX|Company: Autodesk"
 90
    32768
280
     0
281
     0
  0
CLASS
  1
ACMDATUMSTANDARDANSI
  2
AcmDatumStdANSI
  3
"Amdt_StdImp|Product Description: AutoCAD Mechanical 2004 DX|Company: Autodesk"
 90
    32768
280
     0
281
     0
  0
CLASS
  1
ACMBOMSTANDARDANSI
  2
AcmBOMStdANSI
  3
"Amdt_StdImp|Product Description: AutoCAD Mechanical 2004 DX|Company: Autodesk"
 90
    32768
280
     0
281
     0
  0
CLASS
  1
ACMDETAILSTANDARDANSI
  2
AmdtDetailSymStdANSI
  3
"Amdt_StdImp|Product Description: AutoCAD Mechanical 2004 DX|Company: Autodesk"
 90
    32768
280
     0
281
     0
  0
CLASS
  1
ACMSECTIONSTANDARDANSI
  2
AmdtSectionSymStdANSI
  3
"Amdt_StdImp|Product Description: AutoCAD Mechanical 2004 DX|Company: Autodesk"
 90
    32768
280
     0
281
     0
  0
CLASS
  1
ACMCENTERLINESTANDARDANSI
  2
AmdtCenterLineStdANSI
  3
"Amdt_StdImp|Product Description: AutoCAD Mechanical 2004 DX|Company: Autodesk"
 90
    32768
280
     0
281
     0
  0
CLASS
  1
ACMTHREADLINESTANDARDANSI
  2
AmdtThreadLineStdANSI
  3
"Amdt_StdImp|Product Description: AutoCAD Mechanical 2004 DX|Company: Autodesk"
 90
    32768
280
     0
281
     0
  0
CLASS
  1
ACMNOTESTANDARDANSI
  2
AmdtNoteStdANSI
  3
"Amdt_StdImp|Product Description: AutoCAD Mechanical 2004 DX|Company: Autodesk"
 90
    32768
280
     0
281
     0
  0
CLASS
  1
ACAMGHOLECHARTSTDANSI
  2
AcAmgHoleChartStdANSI
  3
ACMSYMBB_MODULE_NAME
 90
    32768
280
     0
281
     0
  0
CLASS
  1
AMDTNOTE
  2
AmdtNote
  3
"AcmSymBB|Product Description: AutoCAD Mechanical 2004 DX|Company: Autodesk"
 90
     1023
280
     0
281
     1
  0
CLASS
  1
ACDBCIRCARCRES
  2
AcDbCircArcRes
  3
AcGrefServices
 90
    32768
280
     0
281
     0
  0
CLASS
  1
ACRFATTGENMGR
  2
AcRfAttGeneralMgr
  3
AcAttribServices
 90
    32768
280
     0
281
     0
  0
CLASS
  1
AMDTEDGESTANDARDISO13715
  2
AmdtEdgeStdISO13715
  3
"Amdt_StdImp|Product Description: AutoCAD Mechanical 2004 DX|Company: Autodesk"
 90
        0
280
     0
281
     0
  0
CLASS
  1
ASAPP
  2
AcAsAppObject
  3
AutoSurfServices
 90
        0
280
     0
281
     0
  0
CLASS
  1
IM_STATIC_MAN
  2
AcImStaticVarManager
  3
AcMeServices
 90
        0
280
     0
281
     0
  0
CLASS
  1
ACIMDBLSTATICVAR
  2
AcImDblStaticVar
  3
AcMeServices
 90
        0
280
     0
281
     0
  0
CLASS
  1
ACIMSTRSTATICVAR
  2
AcImStrStaticVar
  3
AcMeServices
 90
        0
280
     0
281
     0
  0
CLASS
  1
ACIMINTSTATICVAR
  2
AcImIntStaticVar
  3
AcMeServices
 90
        0
280
     0
281
     0
  0
CLASS
  1
ACASGREFMASTER
  2
AcAsGrefMaster
  3
AutoSurfResolverServices
 90
        0
280
     0
281
     0
  0
CLASS
  1
ACADGREFMODULE
  2
AcAdGrefModule
  3
AdGrefServices
 90
        0
280
     0
281
     0
  0
CLASS
  1
AMDTMAPISURFMOUDULE
  2
AmdtMApiSurfModule
  3
MApiSurfServices
 90
        0
280
     0
281
     0
  0
CLASS
  1
MAPIADMODULE
  2
MApiAdModule
  3
MApiAdServices
 90
        0
280
     0
281
     0
  0
ENDSEC
  0
SECTION
  2
TABLES
  0
TABLE
  2
VPORT
  5
8
330
0
100
AcDbSymbolTable
 70
    11
  0
VPORT
  5
374C
330
8
100
AcDbSymbolTableRecord
100
AcDbViewportTableRecord
  2
*Active
 70
     0
 10
0.0
 20
0.0
 11
1.0
 21
1.0
 12
655.7968535149703
 22
386.9644304445877
 13
0.0
 23
0.0
 14
2.5
 24
2.5
 15
10.0
 25
10.0
 16
0.0
 26
0.0
 36
1.0
 17
0.0
 27
0.0
 37
0.0
 40
865.353650029642
 41
1.263157894736842
 42
50.0
 43
0.0
 44
0.0
 50
0.0
 51
0.0
 71
     0
 72
   100
 73
     1
 74
     3
 75
     0
 76
     0
 77
     0
 78
     0
281
     0
 65
     1
110
0.0
120
0.0
130
0.0
111
1.0
121
0.0
131
0.0
112
0.0
122
1.0
132
0.0
 79
     0
146
0.0
  0
ENDTAB
  0
TABLE
  2
LTYPE
  5
5
330
0
100
AcDbSymbolTable
 70
    16
  0
LTYPE
  5
14
330
5
100
AcDbSymbolTableRecord
100
AcDbLinetypeTableRecord
  2
ByBlock
 70
     0
  3

 72
    65
 73
     0
 40
0.0
  0
LTYPE
  5
15
330
5
100
AcDbSymbolTableRecord
100
AcDbLinetypeTableRecord
  2
ByLayer
 70
     0
  3

 72
    65
 73
     0
 40
0.0
  0
LTYPE
  5
16
330
5
100
AcDbSymbolTableRecord
100
AcDbLinetypeTableRecord
  2
Continuous
 70
     0
  3
Solid line
 72
    65
 73
     0
 40
0.0
  0
LTYPE
  5
64
330
5
100
AcDbSymbolTableRecord
100
AcDbLinetypeTableRecord
  2
AM_ISO02W050
 70
     0
  3
__ __ __ __ __ __ __ __ __ __ __ __ __ __ __
 72
    65
 73
     2
 40
7.5
 49
6.0
 74
     0
 49
-1.5
 74
     0
  0
LTYPE
  5
65
330
5
100
AcDbSymbolTableRecord
100
AcDbLinetypeTableRecord
  2
AM_ISO08W050
 70
     0
  3
____ . ____ . ____ . ____ . ____ . ____ . ____
 72
    65
 73
     4
 40
18.0
 49
12.0
 74
     0
 49
-1.5
 74
     0
 49
3.0
 74
     0
 49
-1.5
 74
     0
  0
LTYPE
  5
66
330
5
100
AcDbSymbolTableRecord
100
AcDbLinetypeTableRecord
  2
AM_ISO09W050
 70
     0
  3
_____ . . _____ . . _____ . . ____ .. ____
 72
    65
 73
     6
 40
22.5
 49
12.0
 74
     0
 49
-1.5
 74
     0
 49
3.0
 74
     0
 49
-1.5
 74
     0
 49
3.0
 74
     0
 49
-1.5
 74
     0
  0
LTYPE
  5
67
330
5
100
AcDbSymbolTableRecord
100
AcDbLinetypeTableRecord
  2
Amconstr
 70
     0
  3
_______________________
 72
    65
 73
     2
 40
9999.0
 49
9999.0
 74
     0
 49
0.0
 74
     0
  0
LTYPE
  5
68
330
5
100
AcDbSymbolTableRecord
100
AcDbLinetypeTableRecord
  2
AM_ISO08W050x2
 70
     0
  3
__ . __ . __ . __ . __ . __
 72
    65
 73
     4
 40
9.0
 49
6.0
 74
     0
 49
-0.75
 74
     0
 49
1.5
 74
     0
 49
-0.75
 74
     0
  0
LTYPE
  5
69
330
5
100
AcDbSymbolTableRecord
100
AcDbLinetypeTableRecord
  2
AM_ISO02W050x2
 70
     0
  3
 _ _ _ _ _ _ _ _ _ _ _ _
 72
    65
 73
     2
 40
3.75
 49
3.0
 74
     0
 49
-0.75
 74
     0
  0
LTYPE
  5
6C
330
5
100
AcDbSymbolTableRecord
100
AcDbLinetypeTableRecord
  2
Amzigzag
 70
     0
  3
/\/-/\/-/\/-/\/-/\/-/\/
 72
    65
 73
     2
 40
11.0001
 49
0.0001
 74
     4
 75
   135
340
6B
 46
0.04
 50
0.0
 44
0.0
 45
0.0
 49
-11.0
 74
     0
  0
LTYPE
  5
7A
330
5
100
AcDbSymbolTableRecord
100
AcDbLinetypeTableRecord
  2
ACISOWELD
 70
     0
  3
_ _ _ _ _
 72
    65
 73
     2
 40
2.0
 49
2.0
 74
     0
 49
-1.0
 74
     0
  0
LTYPE
  5
7B
330
5
100
AcDbSymbolTableRecord
100
AcDbLinetypeTableRecord
  2
ACISOTGB
 70
     0
  3
__ . . __ . .
 72
    65
 73
     6
 40
9.0
 49
4.0
 74
     0
 49
-1.0
 74
     0
 49
1.0
 74
     0
 49
-1.0
 74
     0
 49
1.0
 74
     0
 49
-1.0
 74
     0
  0
LTYPE
  5
7C
330
5
100
AcDbSymbolTableRecord
100
AcDbLinetypeTableRecord
  2
ACISOTGL
 70
     0
  3
_ _ _ _ _
 72
    65
 73
     2
 40
3.0
 49
2.0
 74
     0
 49
-1.0
 74
     0
  0
LTYPE
  5
7E
330
5
100
AcDbSymbolTableRecord
100
AcDbLinetypeTableRecord
  2
CENTER
 70
     0
  3
__ . __
 72
    65
 73
     4
 40
7.0
 49
4.0
 74
     0
 49
-1.0
 74
     0
 49
1.0
 74
     0
 49
-1.0
 74
     0
  0
LTYPE
  5
D8
330
5
100
AcDbSymbolTableRecord
100
AcDbLinetypeTableRecord
  2
HIDDEN
 70
     0
  3
Hidden __ __ __ __ __ __ __ __ __ __ __ __ __ _
 72
    65
 73
     2
 40
9.524999999999998
 49
6.349999999999999
 74
     0
 49
-3.174999999999999
 74
     0
  0
LTYPE
  5
D9
330
5
100
AcDbSymbolTableRecord
100
AcDbLinetypeTableRecord
  2
PHANTOM2
 70
     0
  3
Phantom (.5x) ___ _ _ ___ _ _ ___ _ _ ___ _ _
 72
    65
 73
     6
 40
31.75
 49
15.875
 74
     0
 49
-3.174999999999999
 74
     0
 49
3.174999999999999
 74
     0
 49
-3.174999999999999
 74
     0
 49
3.174999999999999
 74
     0
 49
-3.174999999999999
 74
     0
  0
LTYPE
  5
28C2
330
5
100
AcDbSymbolTableRecord
100
AcDbLinetypeTableRecord
  2
ASVLTYPE
 70
     0
  3
__ __ __ __ __ __ __ __ __ __ __ __ __ __ __ __ __ __ __ __ __
 72
    65
 73
     2
 40
0.75
 49
0.5
 74
     0
 49
-0.25
 74
     0
  0
LTYPE
  5
334C
330
5
100
AcDbSymbolTableRecord
100
AcDbLinetypeTableRecord
  2
ASULTYPE
 70
     0
  3
實線
 72
    65
 73
     2
 40
3.0
 49
2.5
 74
     0
 49
0.5
 74
     0
  0
ENDTAB
  0
TABLE
  2
LAYER
  5
2
102
{ACAD_XDICTIONARY
360
3F9
102
}
330
0
100
AcDbSymbolTable
 70
     9
  0
LAYER
  5
10
330
2
100
AcDbSymbolTableRecord
100
AcDbLayerTableRecord
  2
0
 70
     0
 62
     7
  6
Continuous
370
    -3
390
F
  0
LAYER
  5
ECB
330
2
100
AcDbSymbolTableRecord
100
AcDbLayerTableRecord
  2
AM_VIS
 70
     0
 62
     7
  6
Continuous
370
    50
390
F
  0
LAYER
  5
10A9
330
2
100
AcDbSymbolTableRecord
100
AcDbLayerTableRecord
  2
AM_7
 70
     0
 62
     1
  6
CENTER
370
    25
390
F
  0
LAYER
  5
10DF
330
2
100
AcDbSymbolTableRecord
100
AcDbLayerTableRecord
  2
AM_5
 70
     0
 62
     5
  6
Continuous
370
    50
390
F
  0
LAYER
  5
10EF
330
2
100
AcDbSymbolTableRecord
100
AcDbLayerTableRecord
  2
Defpoints
 70
     0
 62
     7
  6
Continuous
290
     0
370
    -3
390
F
  0
LAYER
  5
17FA
330
2
100
AcDbSymbolTableRecord
100
AcDbLayerTableRecord
  2
LOGO
 70
     0
 62
     7
  6
Continuous
370
    -3
390
F
  0
LAYER
  5
3421
330
2
100
AcDbSymbolTableRecord
100
AcDbLayerTableRecord
  2
AM_4
 70
     0
 62
     3
  6
Continuous
370
    25
390
F
  0
LAYER
  5
3422
330
2
100
AcDbSymbolTableRecord
100
AcDbLayerTableRecord
  2
AM_10
 70
     0
 62
     7
  6
AM_ISO08W050
370
    50
390
F
  0
LAYER
  5
3501
330
2
100
AcDbSymbolTableRecord
100
AcDbLayerTableRecord
  2
底
 70
     0
 62
     6
  6
Continuous
370
    -3
390
F
1001
AcAecLayerStandard
1000

1000

  0
ENDTAB
  0
TABLE
  2
STYLE
  5
3
330
0
100
AcDbSymbolTable
 70
     7
  0
STYLE
  5
11
330
3
100
AcDbSymbolTableRecord
100
AcDbTextStyleTableRecord
  2
STANDARD
 70
     0
 40
0.0
 41
1.0
 50
0.0
 71
     0
 42
3.0
  3
ISOCP.SHX
  4
CHINESET.SHX
  0
STYLE
  5
6B
330
3
100
AcDbSymbolTableRecord
100
AcDbTextStyleTableRecord
  2

 70
     1
 40
0.0
 41
1.0
 50
0.0
 71
     0
 42
2.5
  3
ltypeshp.shx
  4

  0
STYLE
  5
6D
330
3
100
AcDbSymbolTableRecord
100
AcDbTextStyleTableRecord
  2
ACISOTS
 70
     0
 40
1.0
 41
1.0
 50
0.0
 71
     0
 42
1.0
  3
isocp.shx
  4
chineset.shx
  0
STYLE
  5
79
330
3
100
AcDbSymbolTableRecord
100
AcDbTextStyleTableRecord
  2
ACISOGDT
 70
     0
 40
0.0
 41
1.0
 50
0.0
 71
     0
 42
2.5
  3
amgdt.shx
  4
chineset.shx
  0
STYLE
  5
60C
330
3
100
AcDbSymbolTableRecord
100
AcDbTextStyleTableRecord
  2
CHINESET
 70
     0
 40
0.0
 41
1.0
 50
0.0
 71
     0
 42
3.0
  3
simplex.shx
  4
CHINESET.SHX
  0
STYLE
  5
1E96
330
3
100
AcDbSymbolTableRecord
100
AcDbTextStyleTableRecord
  2
新細明體
 70
     0
 40
0.0
 41
1.0
 50
0.0
 71
     0
 42
2.5
  3
PMingLiU.ttf
  4

1001
ACAD
1000
PMingLiU
1071
    34834
  0
STYLE
  5
1E97
330
3
100
AcDbSymbolTableRecord
100
AcDbTextStyleTableRecord
  2
Arial
 70
     0
 40
0.0
 41
1.0
 50
0.0
 71
     0
 42
6.0
  3
arial.ttf
  4

1001
ACAD
1000
Arial
1071
       34
  0
ENDTAB
  0
TABLE
  2
VIEW
  5
6
330
0
100
AcDbSymbolTable
 70
     0
  0
ENDTAB
  0
TABLE
  2
UCS
  5
7
330
0
100
AcDbSymbolTable
 70
     0
  0
ENDTAB
  0
TABLE
  2
APPID
  5
9
330
0
100
AcDbSymbolTable
 70
    27
  0
APPID
  5
12
330
9
100
AcDbSymbolTableRecord
100
AcDbRegAppTableRecord
  2
ACAD
 70
     0
  0
APPID
  5
46
330
9
100
AcDbSymbolTableRecord
100
AcDbRegAppTableRecord
  2
MCAD_NO_VIS
 70
     0
  0
APPID
  5
47
330
9
100
AcDbSymbolTableRecord
100
AcDbRegAppTableRecord
  2
ACAD_TEMP_GRAPHIC
 70
     0
  0
APPID
  5
58
330
9
100
AcDbSymbolTableRecord
100
AcDbRegAppTableRecord
  2
ACATTRIBSERVICES
 70
     0
  0
APPID
  5
EE
330
9
100
AcDbSymbolTableRecord
100
AcDbRegAppTableRecord
  2
AD_DRAW
 70
     0
  0
APPID
  5
10C
330
9
100
AcDbSymbolTableRecord
100
AcDbRegAppTableRecord
  2
DESIGNERASSEMBLIES
 70
     0
  0
APPID
  5
111
330
9
100
AcDbSymbolTableRecord
100
AcDbRegAppTableRecord
  2
ACADM_DIM_EDIT
 70
     0
  0
APPID
  5
112
330
9
100
AcDbSymbolTableRecord
100
AcDbRegAppTableRecord
  2
AMDT_DM_ADJ
 70
     0
  0
APPID
  5
22C
330
9
100
AcDbSymbolTableRecord
100
AcDbRegAppTableRecord
  2
ACAD_DSTYLE_DIMTEXT_FILL
 70
     0
  0
APPID
  5
452
330
9
100
AcDbSymbolTableRecord
100
AcDbRegAppTableRecord
  2
GENIUS_GENOENT_13
 70
     0
  0
APPID
  5
453
330
9
100
AcDbSymbolTableRecord
100
AcDbRegAppTableRecord
  2
GENIUS_GENOBJ-N-CRS_13
 70
     0
  0
APPID
  5
454
330
9
100
AcDbSymbolTableRecord
100
AcDbRegAppTableRecord
  2
GENIUS_GENOLIS_13
 70
     0
  0
APPID
  5
455
330
9
100
AcDbSymbolTableRecord
100
AcDbRegAppTableRecord
  2
GENIUS_GENODEF_13
 70
     0
  0
APPID
  5
456
330
9
100
AcDbSymbolTableRecord
100
AcDbRegAppTableRecord
  2
GENIUS_GENOREF_13
 70
     0
  0
APPID
  5
6F3
330
9
100
AcDbSymbolTableRecord
100
AcDbRegAppTableRecord
  2
ACAD_PSEXT
 70
     0
  0
APPID
  5
808
330
9
100
AcDbSymbolTableRecord
100
AcDbRegAppTableRecord
  2
GENIUS_GENDTOL_13
 70
     0
  0
APPID
  5
10AB
330
9
100
AcDbSymbolTableRecord
100
AcDbRegAppTableRecord
  2
GENIUS_GENOBJ-N-CEN_13
 70
     0
  0
APPID
  5
10AC
330
9
100
AcDbSymbolTableRecord
100
AcDbRegAppTableRecord
  2
GENIUS_GENCEN_19
 70
     0
  0
APPID
  5
1587
330
9
100
AcDbSymbolTableRecord
100
AcDbRegAppTableRecord
  2
GENIUS_GENOBJ-N-HTC_13
 70
     0
  0
APPID
  5
1588
330
9
100
AcDbSymbolTableRecord
100
AcDbRegAppTableRecord
  2
GENIUS_GENHATCH_13
 70
     0
  0
APPID
  5
179F
330
9
100
AcDbSymbolTableRecord
100
AcDbRegAppTableRecord
  2
AcAecLayerStandard
 70
     0
  0
APPID
  5
17FB
330
9
100
AcDbSymbolTableRecord
100
AcDbRegAppTableRecord
  2
GENIUS_GENREC_14
 70
     0
  0
APPID
  5
17FC
330
9
100
AcDbSymbolTableRecord
100
AcDbRegAppTableRecord
  2
GENIUS_GENOBJ-N-REC_13
 70
     0
  0
APPID
  5
32FB
330
9
100
AcDbSymbolTableRecord
100
AcDbRegAppTableRecord
  2
GENIUS_GENDIM_13
 70
     0
  0
APPID
  5
32FC
330
9
100
AcDbSymbolTableRecord
100
AcDbRegAppTableRecord
  2
GENIUS_GE3DTOL_13
 70
     0
  0
APPID
  5
334D
330
9
100
AcDbSymbolTableRecord
100
AcDbRegAppTableRecord
  2
ASURF_PCURVE_APPNAME
 70
     0
  0
APPID
  5
3351
330
9
100
AcDbSymbolTableRecord
100
AcDbRegAppTableRecord
  2
AMG_3D2D_5.0
 70
     0
  0
ENDTAB
  0
TABLE
  2
DIMSTYLE
  5
A
330
0
100
AcDbSymbolTable
 70
     8
100
AcDbDimStyleTable
 71
     3
340
81
340
8B
340
86
  0
DIMSTYLE
105
81
330
A
100
AcDbSymbolTableRecord
100
AcDbDimStyleTableRecord
  2
AM_ISO
 70
     0
  4
"
 41
3.0
 42
1.5
 43
8.0
 44
1.5
 47
0.1
 48
0.1
 73
     0
 74
     0
 77
     1
 78
     8
 79
     2
140
3.0
141
0.0
143
0.0393701
146
0.6
147
1.0
172
     1
176
   256
177
   256
178
   256
271
     2
272
     2
283
     0
284
     8
340
60C
371
    -1
372
    -1
  0
DIMSTYLE
105
82
102
{ACAD_REACTORS
330
3563
330
3541
102
}
330
A
100
AcDbSymbolTableRecord
100
AcDbDimStyleTableRecord
  2
AM_ISO$3
 70
     0
  4
"
 41
3.0
 42
1.5
 43
8.0
 44
1.5
 47
0.1
 48
0.1
 73
     0
 77
     1
 78
     8
 79
     2
140
3.0
141
0.0
143
0.0393701
146
0.6
147
1.0
176
   256
177
   256
178
   256
271
     2
272
     2
283
     0
284
     8
288
     1
289
     0
340
60C
371
    -1
372
    -1
  0
DIMSTYLE
105
83
330
A
100
AcDbSymbolTableRecord
100
AcDbDimStyleTableRecord
  2
AM_ISO$4
 70
     0
  4
"
 41
3.0
 42
1.5
 43
8.0
 44
1.5
 47
0.1
 48
0.1
 73
     0
 77
     1
 78
     8
 79
     2
140
3.0
141
0.0
143
0.0393701
146
0.6
147
1.0
176
   256
177
   256
178
   256
271
     2
272
     2
283
     0
284
     8
288
     1
289
     0
340
60C
371
    -1
372
    -1
  0
DIMSTYLE
105
84
330
A
100
AcDbSymbolTableRecord
100
AcDbDimStyleTableRecord
  2
AM_ISO$6
 70
     0
  4
"
 41
3.0
 42
1.5
 43
8.0
 44
1.5
 47
0.1
 48
0.1
 73
     0
 74
     0
 78
     8
 79
     2
140
3.0
141
0.0
143
0.0393701
146
0.6
147
1.0
172
     1
176
   256
177
   256
178
   256
271
     2
272
     2
283
     0
284
     8
340
60C
371
    -1
372
    -1
  0
DIMSTYLE
105
85
330
A
100
AcDbSymbolTableRecord
100
AcDbDimStyleTableRecord
  2
AM_ISO$7
 70
     0
  4
"
 41
3.0
 42
1.5
 43
8.0
 44
1.5
 47
0.1
 48
0.1
 73
     0
 74
     0
 77
     1
 78
     8
 79
     2
140
5.0
141
0.0
143
0.0393701
146
0.6
147
1.0
172
     1
176
   256
177
   256
178
   256
271
     2
272
     2
283
     0
284
     8
340
60C
371
    -1
372
    -1
  0
DIMSTYLE
105
86
330
A
100
AcDbSymbolTableRecord
100
AcDbDimStyleTableRecord
  2
AM_ISO$SF
 70
     0
  4
"
 41
2.5
 42
1.0
 43
10.0
 44
1.0
 47
0.1
 48
0.1
 73
     0
 74
     0
 75
     1
 76
     1
 77
     1
 78
     8
 79
     2
140
3.5
141
0.0
143
0.0393701
146
0.71
147
1.5
172
     1
176
   256
177
   256
178
     2
271
     2
272
     3
274
     4
283
     0
284
     8
340
11
371
    -1
372
    -1
  0
DIMSTYLE
105
8B
330
A
100
AcDbSymbolTableRecord
100
AcDbDimStyleTableRecord
  2
AM_ISO$SH
 70
     0
  4
"
 41
2.5
 42
1.0
 43
10.0
 44
1.0
 47
0.1
 48
0.1
 73
     0
 74
     0
 75
     1
 76
     1
 77
     1
 78
     8
 79
     2
140
3.5
141
0.0
143
0.0393701
144
2.0
146
0.71
147
1.5
172
     1
173
     1
176
   256
177
   256
178
     2
271
     2
272
     3
274
     4
283
     0
284
     8
340
11
343
87
371
    -1
372
    -1
  0
DIMSTYLE
105
40B
102
{ACAD_REACTORS
330
2BFF
330
2B10
330
2B20
330
2B1B
330
2B1D
330
2B26
330
2B23
330
2B1A
330
2BF0
330
2B13
330
2B1C
330
3471
330
347B
330
353E
330
353D
330
3540
330
353F
330
3543
330
3542
102
}
330
A
100
AcDbSymbolTableRecord
100
AcDbDimStyleTableRecord
  2
AM_ISO$0
 70
     0
  4
"
 41
3.0
 42
1.5
 43
8.0
 44
1.5
 47
0.1
 48
0.1
 73
     0
 74
     0
 77
     1
 78
     8
 79
     2
140
3.0
141
0.0
143
0.0393701
146
0.6
147
1.0
172
     1
176
   256
177
   256
178
   256
271
     2
272
     2
283
     0
284
     8
340
60C
371
    -1
372
    -1
  0
ENDTAB
  0
TABLE
  2
BLOCK_RECORD
  5
1
330
0
100
AcDbSymbolTable
 70
    83
  0
BLOCK_RECORD
  5
1F
102
{ACAD_XDICTIONARY
360
8F
102
}
330
1
100
AcDbSymbolTableRecord
100
AcDbBlockTableRecord
  2
*Model_Space
340
22
  0
BLOCK_RECORD
  5
1B
330
1
100
AcDbSymbolTableRecord
100
AcDbBlockTableRecord
  2
*Paper_Space
340
1E
  0
BLOCK_RECORD
  5
23
330
1
100
AcDbSymbolTableRecord
100
AcDbBlockTableRecord
  2
*Paper_Space0
340
26
  0
BLOCK_RECORD
  5
87
330
1
100
AcDbSymbolTableRecord
100
AcDbBlockTableRecord
  2
GENAXEH
340
0
  0
BLOCK_RECORD
  5
1E6C
102
{ACAD_XDICTIONARY
360
1E6D
102
}
330
1
100
AcDbSymbolTableRecord
100
AcDbBlockTableRecord
  2
A$C68EF195C
340
0
102
{BLKREFS
331
2B0D
331
2B0E
102
}
  0
BLOCK_RECORD
  5
1E77
102
{ACAD_XDICTIONARY
360
1E78
102
}
330
1
100
AcDbSymbolTableRecord
100
AcDbBlockTableRecord
  2
A$C31684616
340
0
  0
BLOCK_RECORD
  5
2C02
330
1
100
AcDbSymbolTableRecord
100
AcDbBlockTableRecord
  2
*D37
340
0
  0
BLOCK_RECORD
  5
2C0F
330
1
100
AcDbSymbolTableRecord
100
AcDbBlockTableRecord
  2
*D38
340
0
  0
BLOCK_RECORD
  5
2C1B
330
1
100
AcDbSymbolTableRecord
100
AcDbBlockTableRecord
  2
*D39
340
0
  0
BLOCK_RECORD
  5
2C8A
330
1
100
AcDbSymbolTableRecord
100
AcDbBlockTableRecord
  2
*D48
340
0
  0
BLOCK_RECORD
  5
2C96
330
1
100
AcDbSymbolTableRecord
100
AcDbBlockTableRecord
  2
*D49
340
0
  0
BLOCK_RECORD
  5
2CBF
330
1
100
AcDbSymbolTableRecord
100
AcDbBlockTableRecord
  2
*D50
340
0
  0
BLOCK_RECORD
  5
2CCB
330
1
100
AcDbSymbolTableRecord
100
AcDbBlockTableRecord
  2
*D51
340
0
  0
BLOCK_RECORD
  5
2CD7
330
1
100
AcDbSymbolTableRecord
100
AcDbBlockTableRecord
  2
*D52
340
0
  0
BLOCK_RECORD
  5
2CE3
330
1
100
AcDbSymbolTableRecord
100
AcDbBlockTableRecord
  2
*D53
340
0
  0
BLOCK_RECORD
  5
2D6B
330
1
100
AcDbSymbolTableRecord
100
AcDbBlockTableRecord
  2
*D58
340
0
  0
BLOCK_RECORD
  5
2D79
330
1
100
AcDbSymbolTableRecord
100
AcDbBlockTableRecord
  2
*D59
340
0
  0
BLOCK_RECORD
  5
33EC
102
{ACAD_XDICTIONARY
360
33ED
102
}
330
1
100
AcDbSymbolTableRecord
100
AcDbBlockTableRecord
  2
A$C61FB0DC2
340
0
102
{BLKREFS
331
3445
331
3448
331
3475
331
3478
102
}
  0
BLOCK_RECORD
  5
3409
330
1
100
AcDbSymbolTableRecord
100
AcDbBlockTableRecord
  2
*D61
340
0
  0
BLOCK_RECORD
  5
3415
330
1
100
AcDbSymbolTableRecord
100
AcDbBlockTableRecord
  2
*D62
340
0
  0
BLOCK_RECORD
  5
347F
330
1
100
AcDbSymbolTableRecord
100
AcDbBlockTableRecord
  2
*D64
340
0
  0
BLOCK_RECORD
  5
3494
330
1
100
AcDbSymbolTableRecord
100
AcDbBlockTableRecord
  2
*D65
340
0
  0
BLOCK_RECORD
  5
34A1
330
1
100
AcDbSymbolTableRecord
100
AcDbBlockTableRecord
  2
*D66
340
0
  0
BLOCK_RECORD
  5
34AD
330
1
100
AcDbSymbolTableRecord
100
AcDbBlockTableRecord
  2
*D67
340
0
  0
BLOCK_RECORD
  5
34B9
330
1
100
AcDbSymbolTableRecord
100
AcDbBlockTableRecord
  2
*D68
340
0
  0
BLOCK_RECORD
  5
34C7
330
1
100
AcDbSymbolTableRecord
100
AcDbBlockTableRecord
  2
*D69
340
0
  0
BLOCK_RECORD
  5
34D5
330
1
100
AcDbSymbolTableRecord
100
AcDbBlockTableRecord
  2
*D70
340
0
  0
BLOCK_RECORD
  5
34DE
330
1
100
AcDbSymbolTableRecord
100
AcDbBlockTableRecord
  2
*D71
340
0
  0
BLOCK_RECORD
  5
34EC
330
1
100
AcDbSymbolTableRecord
100
AcDbBlockTableRecord
  2
*D72
340
0
  0
BLOCK_RECORD
  5
34F8
330
1
100
AcDbSymbolTableRecord
100
AcDbBlockTableRecord
  2
*D73
340
0
  0
BLOCK_RECORD
  5
3564
330
1
100
AcDbSymbolTableRecord
100
AcDbBlockTableRecord
  2
*D75
340
0
  0
BLOCK_RECORD
  5
3570
330
1
100
AcDbSymbolTableRecord
100
AcDbBlockTableRecord
  2
*D76
340
0
  0
BLOCK_RECORD
  5
357C
330
1
100
AcDbSymbolTableRecord
100
AcDbBlockTableRecord
  2
*D77
340
0
  0
BLOCK_RECORD
  5
358A
330
1
100
AcDbSymbolTableRecord
100
AcDbBlockTableRecord
  2
*D78
340
0
  0
BLOCK_RECORD
  5
3598
330
1
100
AcDbSymbolTableRecord
100
AcDbBlockTableRecord
  2
*D79
340
0
  0
BLOCK_RECORD
  5
35A1
330
1
100
AcDbSymbolTableRecord
100
AcDbBlockTableRecord
  2
*D80
340
0
  0
BLOCK_RECORD
  5
35AF
330
1
100
AcDbSymbolTableRecord
100
AcDbBlockTableRecord
  2
*D81
340
0
  0
BLOCK_RECORD
  5
35BB
330
1
100
AcDbSymbolTableRecord
100
AcDbBlockTableRecord
  2
*D82
340
0
  0
ENDTAB
  0
ENDSEC
  0
SECTION
  2
BLOCKS
  0
BLOCK
  5
20
330
1F
100
AcDbEntity
  8
0
100
AcDbBlockBegin
  2
*Model_Space
 70
     0
 10
0.0
 20
0.0
 30
0.0
  3
*Model_Space
  1

  0
ENDBLK
  5
21
330
1F
100
AcDbEntity
  8
0
100
AcDbBlockEnd
  0
BLOCK
  5
1C
330
1B
100
AcDbEntity
 67
     1
  8
0
100
AcDbBlockBegin
  2
*Paper_Space
 70
     0
 10
0.0
 20
0.0
 30
0.0
  3
*Paper_Space
  1

  0
ENDBLK
  5
1D
330
1B
100
AcDbEntity
 67
     1
  8
0
100
AcDbBlockEnd
  0
BLOCK
  5
24
330
23
100
AcDbEntity
  8
0
100
AcDbBlockBegin
  2
*Paper_Space0
 70
     0
 10
0.0
 20
0.0
 30
0.0
  3
*Paper_Space0
  1

  0
ENDBLK
  5
25
330
23
100
AcDbEntity
  8
0
100
AcDbBlockEnd
  0
BLOCK
  5
89
330
87
100
AcDbEntity
  8
0
100
AcDbBlockBegin
  2
GENAXEH
 70
     0
 10
0.0
 20
0.0
 30
0.0
  3
GENAXEH
  1

  0
LINE
  5
88
330
87
100
AcDbEntity
  8
0
100
AcDbLine
 10
-1.0
 20
0.0
 30
0.0
 11
1.0
 21
0.0
 31
0.0
  0
ENDBLK
  5
8A
330
87
100
AcDbEntity
  8
0
100
AcDbBlockEnd
  0
BLOCK
  5
1E6E
330
1E6C
100
AcDbEntity
  8
0
100
AcDbBlockBegin
  2
A$C68EF195C
 70
     0
 10
0.0
 20
0.0
 30
0.0
  3
A$C68EF195C
  1

  0
LINE
  5
1E6F
330
1E6C
100
AcDbEntity
  8
0
100
AcDbLine
 10
16.34268158382792
 20
3.153027476499346
 30
0.0
 11
8.491741336899622
 21
6.306054513659205
 31
0.0
  0
LINE
  5
1E70
330
1E6C
100
AcDbEntity
  8
0
100
AcDbLine
 10
8.491741336899622
 20
4.306054513659205
 30
0.0
 11
-0.0000000000002274
 21
4.306054513659205
 31
0.0
  0
LINE
  5
1E71
330
1E6C
100
AcDbEntity
  8
0
100
AcDbLine
 10
-0.0000000000002274
 20
4.306054513659205
 30
0.0
 11
-0.0000000000002274
 21
2.000000439339487
 31
0.0
  0
LINE
  5
1E72
330
1E6C
100
AcDbEntity
  8
0
100
AcDbLine
 10
8.491741336899622
 20
2.000000439339487
 30
0.0
 11
-0.0000000000002274
 21
2.000000439339487
 31
0.0
  0
LINE
  5
1E73
330
1E6C
100
AcDbEntity
  8
0
100
AcDbLine
 10
8.491741336899622
 20
4.306054513659205
 30
0.0
 11
8.491741336899622
 21
6.306054513659205
 31
0.0
  0
LINE
  5
1E74
330
1E6C
100
AcDbEntity
  8
0
100
AcDbLine
 10
16.34268158382792
 20
3.15302747649946
 30
0.0
 11
8.491741336899622
 21
0.0000004393394875
 31
0.0
  0
LINE
  5
1E75
330
1E6C
100
AcDbEntity
  8
0
100
AcDbLine
 10
8.491741336899622
 20
2.000000439339487
 30
0.0
 11
8.491741336899622
 21
0.0000004393394875
 31
0.0
  0
ENDBLK
  5
1E76
330
1E6C
100
AcDbEntity
  8
0
100
AcDbBlockEnd
  0
BLOCK
  5
1E7A
330
1E77
100
AcDbEntity
  8
0
100
AcDbBlockBegin
  2
A$C31684616
 70
     0
 10
0.0
 20
0.0
 30
0.0
  3
A$C31684616
  1

  0
LWPOLYLINE
  5
1E7B
330
1E77
100
AcDbEntity
  8
0
100
AcDbPolyline
 90
        3
 70
     1
 43
0.0
 10
2.598076508295662
 20
4.859642400323991
 10
0.0000002969423463
 20
0.3596424003239917
 10
5.196152719648978
 20
0.3596424003239917
  0
MTEXT
  5
1E7C
330
1E77
100
AcDbEntity
  8
0
100
AcDbMText
 10
0.3505603060264519
 20
4.080039577984337
 30
0.0
 40
3.0
 41
52.50666666666667
 71
     1
 72
     5
  1
！
  7
新細明體
 73
     1
 44
1.0
1001
ACAD
1000
MTEXTBEGIN
1070
    73
1070
     1
1070
    44
1040
1.0
1070
    74
1070
     0
1000
MTEXTEND
  0
ENDBLK
  5
1E7D
330
1E77
100
AcDbEntity
  8
0
100
AcDbBlockEnd
  0
BLOCK
  5
2C0D
330
2C02
100
AcDbEntity
  8
0
100
AcDbBlockBegin
  2
*D37
 70
     1
 10
0.0
 20
0.0
 30
0.0
  3
*D37
  1

  0
LINE
  5
361E
330
2C02
100
AcDbEntity
  8
AM_5
100
AcDbLine
 10
487.9299514191025
 20
570.7382546355388
 30
0.0
 11
570.4036477434182
 21
570.7382546355388
 31
0.0
  0
LINE
  5
361F
330
2C02
100
AcDbEntity
  8
AM_5
100
AcDbLine
 10
519.9299514191024
 20
559.738254635539
 30
0.0
 11
570.4036477434182
 21
559.738254635539
 31
0.0
  0
LINE
  5
3620
330
2C02
100
AcDbEntity
  8
AM_5
100
AcDbLine
 10
567.4036477434182
 20
553.7382546355391
 30
0.0
 11
567.4036477434182
 21
547.738254635539
 31
0.0
  0
LINE
  5
3621
330
2C02
100
AcDbEntity
  8
AM_5
100
AcDbLine
 10
567.4036477434182
 20
576.7382546355388
 30
0.0
 11
567.4036477434182
 21
597.6041512714
 31
0.0
  0
LINE
  5
3622
330
2C02
100
AcDbEntity
  8
AM_5
100
AcDbLine
 10
567.4036477434182
 20
559.738254635539
 30
0.0
 11
567.4036477434182
 21
570.7382546355388
 31
0.0
  0
SOLID
  5
3623
330
2C02
100
AcDbEntity
  8
AM_5
100
AcDbTrace
 10
566.4036477434182
 20
553.7382546355391
 30
0.0
 11
568.4036477434182
 21
553.7382546355391
 31
0.0
 12
567.4036477434182
 22
559.738254635539
 32
0.0
 13
567.4036477434182
 23
559.738254635539
 33
0.0
  0
SOLID
  5
3624
330
2C02
100
AcDbEntity
  8
AM_5
100
AcDbTrace
 10
566.4036477434182
 20
576.7382546355388
 30
0.0
 11
568.4036477434182
 21
576.7382546355388
 31
0.0
 12
567.4036477434182
 22
570.7382546355388
 32
0.0
 13
567.4036477434182
 23
570.7382546355388
 33
0.0
  0
MTEXT
  5
3625
330
2C02
100
AcDbEntity
  8
AM_5
100
AcDbMText
 10
562.4036477434181
 20
592.6041512714001
 30
0.0
 40
6.0
 41
0.0
 71
     5
 72
     1
  1
11
  7
CHINESET
 11
0.0000000000000001
 21
1.0
 31
0.0
 73
     1
 44
1.0
1001
ACAD
1000
MTEXTBEGIN
1070
    73
1070
     1
1070
    44
1040
1.0
1070
    74
1070
     0
1000
MTEXTEND
  0
POINT
  5
3626
330
2C02
100
AcDbEntity
  8
Defpoints
 62
     0
100
AcDbPoint
 10
484.9299514191025
 20
570.7382546355388
 30
0.0
  0
POINT
  5
3627
330
2C02
100
AcDbEntity
  8
Defpoints
 62
     0
100
AcDbPoint
 10
516.9299514191025
 20
559.738254635539
 30
0.0
  0
POINT
  5
3628
330
2C02
100
AcDbEntity
  8
Defpoints
 62
     0
100
AcDbPoint
 10
567.4036477434182
 20
559.738254635539
 30
0.0
  0
ENDBLK
  5
2C0E
330
2C02
100
AcDbEntity
  8
0
100
AcDbBlockEnd
  0
BLOCK
  5
2C19
330
2C0F
100
AcDbEntity
  8
0
100
AcDbBlockBegin
  2
*D38
 70
     1
 10
0.0
 20
0.0
 30
0.0
  3
*D38
  1

  0
LINE
  5
3629
330
2C0F
100
AcDbEntity
  8
AM_5
100
AcDbLine
 10
519.9299514191024
 20
559.738254635539
 30
0.0
 11
570.4036477434183
 21
559.738254635539
 31
0.0
  0
LINE
  5
362A
330
2C0F
100
AcDbEntity
  8
AM_5
100
AcDbLine
 10
520.4299514191025
 20
485.738254635539
 30
0.0
 11
570.4036477434183
 21
485.738254635539
 31
0.0
  0
LINE
  5
362B
330
2C0F
100
AcDbEntity
  8
AM_5
100
AcDbLine
 10
567.4036477434183
 20
553.7382546355391
 30
0.0
 11
567.4036477434183
 21
491.7382546355391
 31
0.0
  0
SOLID
  5
362C
330
2C0F
100
AcDbEntity
  8
AM_5
100
AcDbTrace
 10
566.4036477434183
 20
553.7382546355391
 30
0.0
 11
568.4036477434183
 21
553.7382546355391
 31
0.0
 12
567.4036477434183
 22
559.738254635539
 32
0.0
 13
567.4036477434183
 23
559.738254635539
 33
0.0
  0
SOLID
  5
362D
330
2C0F
100
AcDbEntity
  8
AM_5
100
AcDbTrace
 10
566.4036477434183
 20
491.7382546355391
 30
0.0
 11
568.4036477434183
 21
491.7382546355391
 31
0.0
 12
567.4036477434183
 22
485.738254635539
 32
0.0
 13
567.4036477434183
 23
485.738254635539
 33
0.0
  0
MTEXT
  5
362E
330
2C0F
100
AcDbEntity
  8
AM_5
100
AcDbMText
 10
562.4036477434182
 20
522.7382546355392
 30
0.0
 40
6.0
 41
0.0
 71
     5
 72
     1
  1
74
  7
CHINESET
 11
0.0000000000000001
 21
1.0
 31
0.0
 73
     1
 44
1.0
1001
ACAD
1000
MTEXTBEGIN
1070
    73
1070
     1
1070
    44
1040
1.0
1070
    74
1070
     0
1000
MTEXTEND
  0
POINT
  5
362F
330
2C0F
100
AcDbEntity
  8
Defpoints
 62
     0
100
AcDbPoint
 10
516.9299514191025
 20
559.738254635539
 30
0.0
  0
POINT
  5
3630
330
2C0F
100
AcDbEntity
  8
Defpoints
 62
     0
100
AcDbPoint
 10
517.4299514191025
 20
485.738254635539
 30
0.0
  0
POINT
  5
3631
330
2C0F
100
AcDbEntity
  8
Defpoints
 62
     0
100
AcDbPoint
 10
567.4036477434183
 20
485.738254635539
 30
0.0
  0
ENDBLK
  5
2C1A
330
2C0F
100
AcDbEntity
  8
0
100
AcDbBlockEnd
  0
BLOCK
  5
2C26
330
2C1B
100
AcDbEntity
  8
0
100
AcDbBlockBegin
  2
*D39
 70
     1
 10
0.0
 20
0.0
 30
0.0
  3
*D39
  1

  0
LINE
  5
3632
330
2C1B
100
AcDbEntity
  8
AM_5
100
AcDbLine
 10
426.4299514191025
 20
548.238254635539
 30
0.0
 11
384.8135062347812
 21
548.238254635539
 31
0.0
  0
LINE
  5
3633
330
2C1B
100
AcDbEntity
  8
AM_5
100
AcDbLine
 10
461.9299514191025
 20
570.7382546355388
 30
0.0
 11
384.8135062347812
 21
570.7382546355388
 31
0.0
  0
LINE
  5
3634
330
2C1B
100
AcDbEntity
  8
AM_5
100
AcDbLine
 10
387.8135062347812
 20
554.2382546355391
 30
0.0
 11
387.8135062347812
 21
564.7382546355388
 31
0.0
  0
SOLID
  5
3635
330
2C1B
100
AcDbEntity
  8
AM_5
100
AcDbTrace
 10
386.8135062347812
 20
554.2382546355391
 30
0.0
 11
388.8135062347812
 21
554.2382546355391
 31
0.0
 12
387.8135062347812
 22
548.238254635539
 32
0.0
 13
387.8135062347812
 23
548.238254635539
 33
0.0
  0
SOLID
  5
3636
330
2C1B
100
AcDbEntity
  8
AM_5
100
AcDbTrace
 10
386.8135062347812
 20
564.7382546355388
 30
0.0
 11
388.8135062347812
 21
564.7382546355388
 31
0.0
 12
387.8135062347812
 22
570.7382546355388
 32
0.0
 13
387.8135062347812
 23
570.7382546355388
 33
0.0
  0
MTEXT
  5
3637
330
2C1B
100
AcDbEntity
  8
AM_5
100
AcDbMText
 10
382.8135062347812
 20
559.4882546355389
 30
0.0
 40
6.0
 41
0.0
 71
     5
 72
     1
  1
22
  7
CHINESET
 11
0.0000000000000001
 21
1.0
 31
0.0
 73
     1
 44
1.0
1001
ACAD
1000
MTEXTBEGIN
1070
    73
1070
     1
1070
    44
1040
1.0
1070
    74
1070
     0
1000
MTEXTEND
  0
POINT
  5
3638
330
2C1B
100
AcDbEntity
  8
Defpoints
 62
     0
100
AcDbPoint
 10
429.4299514191025
 20
548.238254635539
 30
0.0
  0
POINT
  5
3639
330
2C1B
100
AcDbEntity
  8
Defpoints
 62
     0
100
AcDbPoint
 10
464.9299514191024
 20
570.7382546355388
 30
0.0
  0
POINT
  5
363A
330
2C1B
100
AcDbEntity
  8
Defpoints
 62
     0
100
AcDbPoint
 10
387.8135062347812
 20
570.7382546355388
 30
0.0
  0
ENDBLK
  5
2C27
330
2C1B
100
AcDbEntity
  8
0
100
AcDbBlockEnd
  0
BLOCK
  5
2C94
330
2C8A
100
AcDbEntity
  8
0
100
AcDbBlockBegin
  2
*D48
 70
     1
 10
0.0
 20
0.0
 30
0.0
  3
*D48
  1

  0
LINE
  5
360C
330
2C8A
100
AcDbEntity
  8
AM_5
100
AcDbLine
 10
487.9299514191025
 20
570.7382546355388
 30
0.0
 11
604.6041209028991
 21
570.7382546355388
 31
0.0
  0
LINE
  5
360D
330
2C8A
100
AcDbEntity
  8
AM_5
100
AcDbLine
 10
482.6699514191022
 20
189.538254635539
 30
0.0
 11
604.604120902899
 21
189.538254635539
 31
0.0
  0
LINE
  5
360E
330
2C8A
100
AcDbEntity
  8
AM_5
100
AcDbLine
 10
601.604120902899
 20
564.7382546355388
 30
0.0
 11
601.604120902899
 21
195.538254635539
 31
0.0
  0
SOLID
  5
360F
330
2C8A
100
AcDbEntity
  8
AM_5
100
AcDbTrace
 10
600.6041209028991
 20
564.7382546355388
 30
0.0
 11
602.6041209028991
 21
564.7382546355388
 31
0.0
 12
601.604120902899
 22
570.7382546355388
 32
0.0
 13
601.604120902899
 23
570.7382546355388
 33
0.0
  0
SOLID
  5
3610
330
2C8A
100
AcDbEntity
  8
AM_5
100
AcDbTrace
 10
600.604120902899
 20
195.538254635539
 30
0.0
 11
602.6041209028989
 21
195.538254635539
 31
0.0
 12
601.604120902899
 22
189.538254635539
 32
0.0
 13
601.604120902899
 23
189.538254635539
 33
0.0
  0
MTEXT
  5
3611
330
2C8A
100
AcDbEntity
  8
AM_5
100
AcDbMText
 10
595.0326923314704
 20
383.1060712598696
 30
0.0
 40
6.0
 41
0.0
 71
     5
 72
     1
  1
(382)
  7
CHINESET
 11
0.0000000000000001
 21
1.0
 31
0.0
 73
     1
 44
1.0
1001
ACAD
1000
MTEXTBEGIN
1070
    73
1070
     1
1070
    44
1040
1.0
1070
    74
1070
     0
1000
MTEXTEND
  0
POINT
  5
3612
330
2C8A
100
AcDbEntity
  8
Defpoints
 62
     0
100
AcDbPoint
 10
484.9299514191025
 20
570.7382546355388
 30
0.0
  0
POINT
  5
3613
330
2C8A
100
AcDbEntity
  8
Defpoints
 62
     0
100
AcDbPoint
 10
479.6699514191023
 20
189.538254635539
 30
0.0
  0
POINT
  5
3614
330
2C8A
100
AcDbEntity
  8
Defpoints
 62
     0
100
AcDbPoint
 10
601.604120902899
 20
189.538254635539
 30
0.0
  0
ENDBLK
  5
2C95
330
2C8A
100
AcDbEntity
  8
0
100
AcDbBlockEnd
  0
BLOCK
  5
2CA0
330
2C96
100
AcDbEntity
  8
0
100
AcDbBlockBegin
  2
*D49
 70
     1
 10
0.0
 20
0.0
 30
0.0
  3
*D49
  1

  0
LINE
  5
3615
330
2C96
100
AcDbEntity
  8
AM_5
100
AcDbLine
 10
432.4299514191024
 20
542.2382546355388
 30
0.0
 11
432.4299514191024
 21
594.246022528096
 31
0.0
  0
LINE
  5
3616
330
2C96
100
AcDbEntity
  8
AM_5
100
AcDbLine
 10
517.4299514191025
 20
542.2382546355388
 30
0.0
 11
517.4299514191025
 21
594.246022528096
 31
0.0
  0
LINE
  5
3617
330
2C96
100
AcDbEntity
  8
AM_5
100
AcDbLine
 10
438.4299514191025
 20
591.2460225280961
 30
0.0
 11
511.4299514191024
 21
591.2460225280961
 31
0.0
  0
SOLID
  5
3618
330
2C96
100
AcDbEntity
  8
AM_5
100
AcDbTrace
 10
438.4299514191025
 20
592.2460225280961
 30
0.0
 11
438.4299514191025
 21
590.246022528096
 31
0.0
 12
432.4299514191024
 22
591.2460225280961
 32
0.0
 13
432.4299514191024
 23
591.2460225280961
 33
0.0
  0
SOLID
  5
3619
330
2C96
100
AcDbEntity
  8
AM_5
100
AcDbTrace
 10
511.4299514191024
 20
592.2460225280961
 30
0.0
 11
511.4299514191024
 21
590.246022528096
 31
0.0
 12
517.4299514191025
 22
591.2460225280961
 32
0.0
 13
517.4299514191025
 23
591.2460225280961
 33
0.0
  0
MTEXT
  5
361A
330
2C96
100
AcDbEntity
  8
AM_5
100
AcDbMText
 10
474.9299514191025
 20
596.2460225280961
 30
0.0
 40
6.0
 41
0.0
 71
     5
 72
     1
  1
%%c85
  7
CHINESET
 73
     1
 44
1.0
1001
ACAD
1000
MTEXTBEGIN
1070
    73
1070
     1
1070
    44
1040
1.0
1070
    74
1070
     0
1000
MTEXTEND
  0
POINT
  5
361B
330
2C96
100
AcDbEntity
  8
Defpoints
 62
     0
100
AcDbPoint
 10
432.4299514191024
 20
539.2382546355388
 30
0.0
  0
POINT
  5
361C
330
2C96
100
AcDbEntity
  8
Defpoints
 62
     0
100
AcDbPoint
 10
517.4299514191025
 20
539.2382546355388
 30
0.0
  0
POINT
  5
361D
330
2C96
100
AcDbEntity
  8
Defpoints
 62
     0
100
AcDbPoint
 10
517.4299514191025
 20
591.2460225280961
 30
0.0
  0
ENDBLK
  5
2CA1
330
2C96
100
AcDbEntity
  8
0
100
AcDbBlockEnd
  0
BLOCK
  5
2CC9
330
2CBF
100
AcDbEntity
  8
0
100
AcDbBlockBegin
  2
*D50
 70
     1
 10
0.0
 20
0.0
 30
0.0
  3
*D50
  1

  0
LINE
  5
363B
330
2CBF
100
AcDbEntity
  8
AM_5
100
AcDbLine
 10
434.9299514191025
 20
488.738254635539
 30
0.0
 11
434.9299514191025
 21
500.738254635539
 31
0.0
  0
LINE
  5
363C
330
2CBF
100
AcDbEntity
  8
AM_5
100
AcDbLine
 10
514.9299514191024
 20
488.738254635539
 30
0.0
 11
514.9299514191024
 21
500.738254635539
 31
0.0
  0
LINE
  5
363D
330
2CBF
100
AcDbEntity
  8
AM_5
100
AcDbLine
 10
440.9299514191025
 20
497.738254635539
 30
0.0
 11
508.9299514191025
 21
497.738254635539
 31
0.0
  0
SOLID
  5
363E
330
2CBF
100
AcDbEntity
  8
AM_5
100
AcDbTrace
 10
440.9299514191025
 20
498.738254635539
 30
0.0
 11
440.9299514191025
 21
496.738254635539
 31
0.0
 12
434.9299514191025
 22
497.738254635539
 32
0.0
 13
434.9299514191025
 23
497.738254635539
 33
0.0
  0
SOLID
  5
363F
330
2CBF
100
AcDbEntity
  8
AM_5
100
AcDbTrace
 10
508.9299514191025
 20
498.738254635539
 30
0.0
 11
508.9299514191025
 21
496.738254635539
 31
0.0
 12
514.9299514191024
 22
497.738254635539
 32
0.0
 13
514.9299514191024
 23
497.738254635539
 33
0.0
  0
MTEXT
  5
3640
330
2CBF
100
AcDbEntity
  8
AM_5
100
AcDbMText
 10
474.9299514191025
 20
502.738254635539
 30
0.0
 40
6.0
 41
0.0
 71
     5
 72
     1
  1
%%c80
  7
CHINESET
 73
     1
 44
1.0
1001
ACAD
1000
MTEXTBEGIN
1070
    73
1070
     1
1070
    44
1040
1.0
1070
    74
1070
     0
1000
MTEXTEND
  0
POINT
  5
3641
330
2CBF
100
AcDbEntity
  8
Defpoints
 62
     0
100
AcDbPoint
 10
434.9299514191025
 20
485.738254635539
 30
0.0
  0
POINT
  5
3642
330
2CBF
100
AcDbEntity
  8
Defpoints
 62
     0
100
AcDbPoint
 10
514.9299514191024
 20
485.738254635539
 30
0.0
  0
POINT
  5
3643
330
2CBF
100
AcDbEntity
  8
Defpoints
 62
     0
100
AcDbPoint
 10
514.9299514191024
 20
497.738254635539
 30
0.0
  0
ENDBLK
  5
2CCA
330
2CBF
100
AcDbEntity
  8
0
100
AcDbBlockEnd
  0
BLOCK
  5
2CD5
330
2CCB
100
AcDbEntity
  8
0
100
AcDbBlockBegin
  2
*D51
 70
     1
 10
0.0
 20
0.0
 30
0.0
  3
*D51
  1

  0
LINE
  5
3644
330
2CCB
100
AcDbEntity
  8
AM_5
100
AcDbLine
 10
520.4299514191025
 20
485.738254635539
 30
0.0
 11
570.4036477434183
 21
485.738254635539
 31
0.0
  0
LINE
  5
3645
330
2CCB
100
AcDbEntity
  8
AM_5
100
AcDbLine
 10
487.9299514191025
 20
365.7382546355391
 30
0.0
 11
570.4036477434183
 21
365.7382546355391
 31
0.0
  0
LINE
  5
3646
330
2CCB
100
AcDbEntity
  8
AM_5
100
AcDbLine
 10
567.4036477434183
 20
479.738254635539
 30
0.0
 11
567.4036477434183
 21
371.7382546355391
 31
0.0
  0
SOLID
  5
3647
330
2CCB
100
AcDbEntity
  8
AM_5
100
AcDbTrace
 10
566.4036477434183
 20
479.738254635539
 30
0.0
 11
568.4036477434183
 21
479.738254635539
 31
0.0
 12
567.4036477434183
 22
485.738254635539
 32
0.0
 13
567.4036477434183
 23
485.738254635539
 33
0.0
  0
SOLID
  5
3648
330
2CCB
100
AcDbEntity
  8
AM_5
100
AcDbTrace
 10
566.4036477434183
 20
371.7382546355391
 30
0.0
 11
568.4036477434183
 21
371.7382546355391
 31
0.0
 12
567.4036477434183
 22
365.7382546355391
 32
0.0
 13
567.4036477434183
 23
365.7382546355391
 33
0.0
  0
MTEXT
  5
3649
330
2CCB
100
AcDbEntity
  8
AM_5
100
AcDbMText
 10
562.4036477434182
 20
425.7382546355391
 30
0.0
 40
6.0
 41
0.0
 71
     5
 72
     1
  1
120
  7
CHINESET
 11
0.0000000000000001
 21
1.0
 31
0.0
 73
     1
 44
1.0
1001
ACAD
1000
MTEXTBEGIN
1070
    73
1070
     1
1070
    44
1040
1.0
1070
    74
1070
     0
1000
MTEXTEND
  0
POINT
  5
364A
330
2CCB
100
AcDbEntity
  8
Defpoints
 62
     0
100
AcDbPoint
 10
517.4299514191025
 20
485.738254635539
 30
0.0
  0
POINT
  5
364B
330
2CCB
100
AcDbEntity
  8
Defpoints
 62
     0
100
AcDbPoint
 10
484.9299514191025
 20
365.7382546355391
 30
0.0
  0
POINT
  5
364C
330
2CCB
100
AcDbEntity
  8
Defpoints
 62
     0
100
AcDbPoint
 10
567.4036477434183
 20
365.7382546355391
 30
0.0
  0
ENDBLK
  5
2CD6
330
2CCB
100
AcDbEntity
  8
0
100
AcDbBlockEnd
  0
BLOCK
  5
2CE1
330
2CD7
100
AcDbEntity
  8
0
100
AcDbBlockBegin
  2
*D52
 70
     1
 10
0.0
 20
0.0
 30
0.0
  3
*D52
  1

  0
LINE
  5
364D
330
2CD7
100
AcDbEntity
  8
AM_5
100
AcDbLine
 10
492.9299514191025
 20
357.538254635539
 30
0.0
 11
570.4036477434184
 21
357.538254635539
 31
0.0
  0
LINE
  5
364E
330
2CD7
100
AcDbEntity
  8
AM_5
100
AcDbLine
 10
482.6699514191022
 20
189.538254635539
 30
0.0
 11
570.4036477434183
 21
189.538254635539
 31
0.0
  0
LINE
  5
364F
330
2CD7
100
AcDbEntity
  8
AM_5
100
AcDbLine
 10
567.4036477434184
 20
351.538254635539
 30
0.0
 11
567.4036477434183
 21
195.538254635539
 31
0.0
  0
SOLID
  5
3650
330
2CD7
100
AcDbEntity
  8
AM_5
100
AcDbTrace
 10
566.4036477434184
 20
351.538254635539
 30
0.0
 11
568.4036477434184
 21
351.538254635539
 31
0.0
 12
567.4036477434184
 22
357.538254635539
 32
0.0
 13
567.4036477434184
 23
357.538254635539
 33
0.0
  0
SOLID
  5
3651
330
2CD7
100
AcDbEntity
  8
AM_5
100
AcDbTrace
 10
566.4036477434183
 20
195.538254635539
 30
0.0
 11
568.4036477434183
 21
195.538254635539
 31
0.0
 12
567.4036477434183
 22
189.538254635539
 32
0.0
 13
567.4036477434183
 23
189.538254635539
 33
0.0
  0
MTEXT
  5
3652
330
2CD7
100
AcDbEntity
  8
AM_5
100
AcDbMText
 10
562.4036477434183
 20
273.5382546355391
 30
0.0
 40
6.0
 41
0.0
 71
     5
 72
     1
  1
168
  7
CHINESET
 11
0.0000000000000001
 21
1.0
 31
0.0
 73
     1
 44
1.0
1001
ACAD
1000
MTEXTBEGIN
1070
    73
1070
     1
1070
    44
1040
1.0
1070
    74
1070
     0
1000
MTEXTEND
  0
POINT
  5
3653
330
2CD7
100
AcDbEntity
  8
Defpoints
 62
     0
100
AcDbPoint
 10
489.9299514191024
 20
357.538254635539
 30
0.0
  0
POINT
  5
3654
330
2CD7
100
AcDbEntity
  8
Defpoints
 62
     0
100
AcDbPoint
 10
479.6699514191023
 20
189.538254635539
 30
0.0
  0
POINT
  5
3655
330
2CD7
100
AcDbEntity
  8
Defpoints
 62
     0
100
AcDbPoint
 10
567.4036477434183
 20
189.538254635539
 30
0.0
  0
ENDBLK
  5
2CE2
330
2CD7
100
AcDbEntity
  8
0
100
AcDbBlockEnd
  0
BLOCK
  5
2CEE
330
2CE3
100
AcDbEntity
  8
0
100
AcDbBlockBegin
  2
*D53
 70
     1
 10
0.0
 20
0.0
 30
0.0
  3
*D53
  1

  0
LINE
  5
3656
330
2CE3
100
AcDbEntity
  8
AM_5
100
AcDbLine
 10
433.9299514191025
 20
311.5382546355391
 30
0.0
 11
433.9299514191025
 21
294.5830729515329
 31
0.0
  0
LINE
  5
3657
330
2CE3
100
AcDbEntity
  8
AM_5
100
AcDbLine
 10
515.9299514191025
 20
311.5382546355391
 30
0.0
 11
515.9299514191025
 21
294.5830729515329
 31
0.0
  0
LINE
  5
3658
330
2CE3
100
AcDbEntity
  8
AM_5
100
AcDbLine
 10
509.9299514191025
 20
297.5830729515329
 30
0.0
 11
439.9299514191024
 21
297.5830729515329
 31
0.0
  0
LINE
  5
3659
330
2CE3
100
AcDbEntity
  8
AM_5
100
AcDbLine
 10
433.9299514191025
 20
297.5830729515329
 30
0.0
 11
387.9381094618474
 21
297.5830729515329
 31
0.0
  0
SOLID
  5
365A
330
2CE3
100
AcDbEntity
  8
AM_5
100
AcDbTrace
 10
509.9299514191025
 20
298.5830729515329
 30
0.0
 11
509.9299514191025
 21
296.5830729515329
 31
0.0
 12
515.9299514191025
 22
297.5830729515329
 32
0.0
 13
515.9299514191025
 23
297.5830729515329
 33
0.0
  0
SOLID
  5
365B
330
2CE3
100
AcDbEntity
  8
AM_5
100
AcDbTrace
 10
439.9299514191024
 20
298.5830729515329
 30
0.0
 11
439.9299514191024
 21
296.5830729515329
 31
0.0
 12
433.9299514191025
 22
297.5830729515329
 32
0.0
 13
433.9299514191025
 23
297.5830729515329
 33
0.0
  0
MTEXT
  5
365C
330
2CE3
100
AcDbEntity
  8
AM_5
100
AcDbMText
 10
397.509538033276
 20
302.5830729515329
 30
0.0
 40
6.0
 41
0.0
 71
     5
 72
     1
  1
%%c82
  7
CHINESET
 73
     1
 44
1.0
1001
ACAD
1000
MTEXTBEGIN
1070
    73
1070
     1
1070
    44
1040
1.0
1070
    74
1070
     0
1000
MTEXTEND
  0
POINT
  5
365D
330
2CE3
100
AcDbEntity
  8
Defpoints
 62
     0
100
AcDbPoint
 10
433.9299514191025
 20
314.538254635539
 30
0.0
  0
POINT
  5
365E
330
2CE3
100
AcDbEntity
  8
Defpoints
 62
     0
100
AcDbPoint
 10
515.9299514191025
 20
314.538254635539
 30
0.0
  0
POINT
  5
365F
330
2CE3
100
AcDbEntity
  8
Defpoints
 62
     0
100
AcDbPoint
 10
515.9299514191025
 20
297.5830729515329
 30
0.0
  0
ENDBLK
  5
2CEF
330
2CE3
100
AcDbEntity
  8
0
100
AcDbBlockEnd
  0
BLOCK
  5
2D77
330
2D6B
100
AcDbEntity
  8
0
100
AcDbBlockBegin
  2
*D58
 70
     1
 10
0.0
 20
0.0
 30
0.0
  3
*D58
  1

  0
LINE
  5
3660
330
2D6B
100
AcDbEntity
  8
AM_5
100
AcDbLine
 10
487.9299514191025
 20
570.7382546355388
 30
0.0
 11
544.1125786054193
 21
570.7382546355388
 31
0.0
  0
LINE
  5
3661
330
2D6B
100
AcDbEntity
  8
AM_5
100
AcDbLine
 10
509.4299514191025
 20
563.7382546355389
 30
0.0
 11
544.1125786054193
 21
563.7382546355389
 31
0.0
  0
LINE
  5
3662
330
2D6B
100
AcDbEntity
  8
AM_5
100
AcDbLine
 10
541.1125786054193
 20
557.7382546355388
 30
0.0
 11
541.1125786054193
 21
551.7382546355388
 31
0.0
  0
LINE
  5
3663
330
2D6B
100
AcDbEntity
  8
AM_5
100
AcDbLine
 10
541.1125786054193
 20
576.7382546355388
 30
0.0
 11
541.1125786054193
 21
596.246022528096
 31
0.0
  0
LINE
  5
3664
330
2D6B
100
AcDbEntity
  8
AM_5
100
AcDbLine
 10
541.1125786054193
 20
563.7382546355389
 30
0.0
 11
541.1125786054193
 21
570.7382546355388
 31
0.0
  0
SOLID
  5
3665
330
2D6B
100
AcDbEntity
  8
AM_5
100
AcDbTrace
 10
540.1125786054193
 20
557.7382546355388
 30
0.0
 11
542.1125786054193
 21
557.7382546355388
 31
0.0
 12
541.1125786054193
 22
563.7382546355389
 32
0.0
 13
541.1125786054193
 23
563.7382546355389
 33
0.0
  0
SOLID
  5
3666
330
2D6B
100
AcDbEntity
  8
AM_5
100
AcDbTrace
 10
540.1125786054193
 20
576.7382546355388
 30
0.0
 11
542.1125786054193
 21
576.7382546355388
 31
0.0
 12
541.1125786054193
 22
570.7382546355388
 32
0.0
 13
541.1125786054193
 23
570.7382546355388
 33
0.0
  0
MTEXT
  5
3667
330
2D6B
100
AcDbEntity
  8
AM_5
100
AcDbMText
 10
536.1125786054192
 20
592.2460225280961
 30
0.0
 40
6.0
 41
0.0
 71
     5
 72
     1
  1
7
  7
CHINESET
 11
0.0000000000000001
 21
1.0
 31
0.0
 73
     1
 44
1.0
1001
ACAD
1000
MTEXTBEGIN
1070
    73
1070
     1
1070
    44
1040
1.0
1070
    74
1070
     0
1000
MTEXTEND
  0
POINT
  5
3668
330
2D6B
100
AcDbEntity
  8
Defpoints
 62
     0
100
AcDbPoint
 10
484.9299514191025
 20
570.7382546355388
 30
0.0
  0
POINT
  5
3669
330
2D6B
100
AcDbEntity
  8
Defpoints
 62
     0
100
AcDbPoint
 10
506.4299514191024
 20
563.7382546355389
 30
0.0
  0
POINT
  5
366A
330
2D6B
100
AcDbEntity
  8
Defpoints
 62
     0
100
AcDbPoint
 10
541.1125786054193
 20
563.7382546355389
 30
0.0
  0
ENDBLK
  5
2D78
330
2D6B
100
AcDbEntity
  8
0
100
AcDbBlockEnd
  0
BLOCK
  5
2D83
330
2D79
100
AcDbEntity
  8
0
100
AcDbBlockBegin
  2
*D59
 70
     1
 10
0.0
 20
0.0
 30
0.0
  3
*D59
  1

  0
LINE
  5
366B
330
2D79
100
AcDbEntity
  8
AM_5
100
AcDbLine
 10
464.9299514191024
 20
673.7665222541363
 30
0.0
 11
464.9299514191024
 21
723.6039053717373
 31
0.0
  0
LINE
  5
366C
330
2D79
100
AcDbEntity
  8
AM_5
100
AcDbLine
 10
484.9299514191025
 20
673.7665222541363
 30
0.0
 11
484.9299514191025
 21
723.6039053717373
 31
0.0
  0
LINE
  5
366D
330
2D79
100
AcDbEntity
  8
AM_5
100
AcDbLine
 10
467.9299514191025
 20
722.1039053717373
 30
0.0
 11
481.9299514191024
 21
722.1039053717373
 31
0.0
  0
SOLID
  5
366E
330
2D79
100
AcDbEntity
  8
AM_5
100
AcDbTrace
 10
467.9299514191025
 20
722.6039053717373
 30
0.0
 11
467.9299514191025
 21
721.6039053717373
 31
0.0
 12
464.9299514191024
 22
722.1039053717373
 32
0.0
 13
464.9299514191024
 23
722.1039053717373
 33
0.0
  0
SOLID
  5
366F
330
2D79
100
AcDbEntity
  8
AM_5
100
AcDbTrace
 10
481.9299514191024
 20
722.6039053717373
 30
0.0
 11
481.9299514191024
 21
721.6039053717373
 31
0.0
 12
484.9299514191025
 22
722.1039053717373
 32
0.0
 13
484.9299514191025
 23
722.1039053717373
 33
0.0
  0
MTEXT
  5
3670
330
2D79
100
AcDbEntity
  8
AM_5
100
AcDbMText
 10
474.9299514191025
 20
724.6039053717374
 30
0.0
 40
3.0
 41
0.0
 71
     5
 72
     1
  1
20
  7
CHINESET
 73
     1
 44
1.0
1001
ACAD
1000
MTEXTBEGIN
1070
    73
1070
     1
1070
    44
1040
1.0
1070
    74
1070
     0
1000
MTEXTEND
  0
POINT
  5
3671
330
2D79
100
AcDbEntity
  8
Defpoints
 62
     0
100
AcDbPoint
 10
464.9299514191024
 20
672.2665222541364
 30
0.0
  0
POINT
  5
3672
330
2D79
100
AcDbEntity
  8
Defpoints
 62
     0
100
AcDbPoint
 10
484.9299514191025
 20
672.2665222541364
 30
0.0
  0
POINT
  5
3673
330
2D79
100
AcDbEntity
  8
Defpoints
 62
     0
100
AcDbPoint
 10
484.9299514191025
 20
722.1039053717373
 30
0.0
  0
ENDBLK
  5
2D84
330
2D79
100
AcDbEntity
  8
0
100
AcDbBlockEnd
  0
BLOCK
  5
33EF
330
33EC
100
AcDbEntity
  8
0
100
AcDbBlockBegin
  2
A$C61FB0DC2
 70
     0
 10
0.0
 20
0.0
 30
0.0
  3
A$C61FB0DC2
  1

  0
LINE
  5
33F0
330
33EC
100
AcDbEntity
  8
0
100
AcDbLine
 10
5.571074860934913
 20
18.43717112803176
 30
0.0
 11
17.83009005304438
 21
7.129552331577542
 31
0.0
  0
LINE
  5
33F1
330
33EC
100
AcDbEntity
  8
0
100
AcDbLine
 10
5.571074860934913
 20
6.562829040993847
 30
0.0
 11
17.83009005295537
 21
17.87044783765123
 31
0.0
  0
LINE
  5
33F2
330
33EC
100
AcDbEntity
  8
AM_4
 62
     7
100
AcDbLine
 10
20.57107486093491
 20
20.85000008451277
 30
0.0
 11
20.57107486093491
 21
4.150000084512839
 31
0.0
  0
LINE
  5
33F3
330
33EC
100
AcDbEntity
  8
AM_10
  6
CENTER
 62
     1
100
AcDbLine
 10
24.08328567640229
 20
12.50000008451275
 30
0.0
 11
0.0000011488166365
 21
12.50000008451275
 31
0.0
  0
SPLINE
  5
33F4
330
33EC
100
AcDbEntity
  8
AM_VIS
100
AcDbSpline
210
0.0
220
0.0
230
1.0
 70
    12
 71
     2
 72
     6
 73
     3
 74
     0
 42
0.0000000001
 43
0.0000000001
 40
0.0
 40
0.0
 40
0.0
 40
1.888530049683949
 40
1.888530049683949
 40
1.888530049683949
 10
18.07107486093491
 20
7.704168561200049
 30
0.0
 41
1.0
 10
17.84765967522844
 20
7.145145122731719
 30
0.0
 41
1.011720278337109
 10
17.57107486093491
 20
6.562829040993847
 30
0.0
 41
1.02135656413234
  0
LINE
  5
33F5
330
33EC
100
AcDbEntity
  8
AM_VIS
100
AcDbLine
 10
5.571074860934913
 20
18.43717112803176
 30
0.0
 11
17.57107486093491
 21
18.43717112803176
 31
0.0
  0
LINE
  5
33F6
330
33EC
100
AcDbEntity
  8
AM_VIS
100
AcDbLine
 10
17.57107486093491
 20
6.562829040993847
 30
0.0
 11
5.571074860934913
 21
6.562829040993847
 31
0.0
  0
SPLINE
  5
33F7
330
33EC
100
AcDbEntity
  8
AM_VIS
100
AcDbSpline
210
0.0
220
0.0
230
1.0
 70
    12
 71
     2
 72
     6
 73
     3
 74
     0
 42
0.0000000001
 43
0.0000000001
 40
19.3534824676295
 40
19.3534824676295
 40
19.3534824676295
 40
21.24201251731343
 40
21.24201251731343
 40
21.24201251731343
 10
17.57107486093491
 20
18.43717112803176
 30
0.0
 41
1.02135656413234
 10
17.84765967522844
 20
17.85485504629378
 30
0.0
 41
1.011720278337109
 10
18.07107486093491
 20
17.29583160782556
 30
0.0
 41
1.0
  0
LINE
  5
33F8
330
33EC
100
AcDbEntity
  8
AM_VIS
100
AcDbLine
 10
18.07107486093491
 20
17.29583160782556
 30
0.0
 11
18.07107486093491
 21
7.704168561200049
 31
0.0
  0
LINE
  5
33F9
330
33EC
100
AcDbEntity
  8
AM_VIS
100
AcDbLine
 10
3.071074860934913
 20
0.5000000845127488
 30
0.0
 11
3.571074860934913
 21
0.0000000845127488
 31
0.0
  0
LINE
  5
33FA
330
33EC
100
AcDbEntity
  8
AM_VIS
100
AcDbLine
 10
3.071074860934913
 20
24.50000008451275
 30
0.0
 11
3.571074860934913
 21
25.00000008451275
 31
0.0
  0
LINE
  5
33FB
330
33EC
100
AcDbEntity
  8
AM_VIS
100
AcDbLine
 10
18.07107486093491
 20
0.5000000845127488
 30
0.0
 11
17.57107486093491
 21
0.0000000845127488
 31
0.0
  0
LINE
  5
33FC
330
33EC
100
AcDbEntity
  8
AM_VIS
100
AcDbLine
 10
3.571074860934913
 20
0.0000000845127488
 30
0.0
 11
17.57107486093491
 21
0.0000000845127488
 31
0.0
  0
LINE
  5
33FD
330
33EC
100
AcDbEntity
  8
AM_VIS
100
AcDbLine
 10
3.571074860934913
 20
25.00000008451275
 30
0.0
 11
17.57107486093491
 21
25.00000008451275
 31
0.0
  0
LINE
  5
33FE
330
33EC
100
AcDbEntity
  8
AM_VIS
100
AcDbLine
 10
18.07107486093491
 20
24.50000008451275
 30
0.0
 11
17.57107486093491
 21
25.00000008451275
 31
0.0
  0
LINE
  5
33FF
330
33EC
100
AcDbEntity
  8
AM_VIS
100
AcDbLine
 10
19.07107486093491
 20
4.150000084512839
 30
0.0
 11
22.07107486093491
 21
4.150000084512782
 31
0.0
  0
LINE
  5
3400
330
33EC
100
AcDbEntity
  8
AM_VIS
100
AcDbLine
 10
19.07107486093491
 20
20.85000008451277
 30
0.0
 11
22.07107486093491
 21
20.85000008451277
 31
0.0
  0
LINE
  5
3401
330
33EC
100
AcDbEntity
  8
AM_VIS
100
AcDbLine
 10
3.071074860934913
 20
0.5000000845127488
 30
0.0
 11
3.071074860934913
 21
24.50000008451275
 31
0.0
  0
LINE
  5
3402
330
33EC
100
AcDbEntity
  8
AM_VIS
100
AcDbLine
 10
5.571074860934913
 20
18.43717112803176
 30
0.0
 11
5.571074860934913
 21
6.562829040993847
 31
0.0
  0
LINE
  5
3403
330
33EC
100
AcDbEntity
  8
AM_VIS
100
AcDbLine
 10
18.07107486093491
 20
7.704168561200049
 30
0.0
 11
18.07107486093491
 21
0.5000000845127488
 31
0.0
  0
LINE
  5
3404
330
33EC
100
AcDbEntity
  8
AM_VIS
100
AcDbLine
 10
18.07107486093491
 20
24.50000008451275
 30
0.0
 11
18.07107486093491
 21
17.29583160782556
 31
0.0
  0
ARC
  5
3405
330
33EC
100
AcDbEntity
  8
AM_VIS
100
AcDbCircle
 10
19.0710748609348
 20
3.150000084512896
 30
0.0
 40
1.0
100
AcDbArc
 50
90.0
 51
180.0
  0
ARC
  5
3406
330
33EC
100
AcDbEntity
  8
AM_VIS
100
AcDbCircle
 10
19.0710748609348
 20
21.85000008451283
 30
0.0
 40
1.0
100
AcDbArc
 50
180.0
 51
270.0
  0
LINE
  5
3407
330
33EC
100
AcDbEntity
  8
AM_VIS
100
AcDbLine
 10
22.07107486093503
 20
20.85000008451277
 30
0.0
 11
22.07107486093491
 21
4.150000084512839
 31
0.0
  0
ENDBLK
  5
3408
330
33EC
100
AcDbEntity
  8
0
100
AcDbBlockEnd
  0
BLOCK
  5
340A
330
3409
100
AcDbEntity
  8
0
100
AcDbBlockBegin
  2
*D61
 70
     1
 10
0.0
 20
0.0
 30
0.0
  3
*D61
  1

  0
LINE
  5
340B
330
3409
100
AcDbEntity
  8
AM_5
100
AcDbLine
 10
1812.268884264371
 20
558.7604406500966
 30
0.0
 11
1812.268884264371
 21
586.2941474005865
 31
0.0
  0
LINE
  5
340C
330
3409
100
AcDbEntity
  8
AM_5
100
AcDbLine
 10
1935.268884264371
 20
558.7604406500966
 30
0.0
 11
1935.268884264371
 21
586.2941474005865
 31
0.0
  0
LINE
  5
340D
330
3409
100
AcDbEntity
  8
AM_5
100
AcDbLine
 10
1817.26888426437
 20
584.7941474005865
 30
0.0
 11
1930.268884264371
 21
584.7941474005865
 31
0.0
  0
SOLID
  5
340E
330
3409
100
AcDbEntity
  8
AM_5
100
AcDbTrace
 10
1817.26888426437
 20
585.6274807339199
 30
0.0
 11
1817.26888426437
 21
583.9608140672531
 31
0.0
 12
1812.268884264371
 22
584.7941474005865
 32
0.0
 13
1812.268884264371
 23
584.7941474005865
 33
0.0
  0
SOLID
  5
340F
330
3409
100
AcDbEntity
  8
AM_5
100
AcDbTrace
 10
1930.268884264371
 20
585.6274807339199
 30
0.0
 11
1930.268884264371
 21
583.9608140672531
 31
0.0
 12
1935.268884264371
 22
584.7941474005865
 32
0.0
 13
1935.268884264371
 23
584.7941474005865
 33
0.0
  0
MTEXT
  5
3410
330
3409
100
AcDbEntity
  8
AM_5
100
AcDbMText
 10
1873.76888426437
 20
589.0941474005865
 30
0.0
 40
6.0
 41
0.0
 71
     5
 72
     1
  1
(123)
 73
     1
 44
1.0
1001
ACAD
1000
MTEXTBEGIN
1070
    73
1070
     1
1070
    44
1040
1.0
1070
    74
1070
     0
1000
MTEXTEND
  0
POINT
  5
3411
330
3409
100
AcDbEntity
  8
Defpoints
 62
     0
100
AcDbPoint
 10
1812.268884264371
 20
557.2604406500966
 30
0.0
  0
POINT
  5
3412
330
3409
100
AcDbEntity
  8
Defpoints
 62
     0
100
AcDbPoint
 10
1935.268884264371
 20
557.2604406500966
 30
0.0
  0
POINT
  5
3413
330
3409
100
AcDbEntity
  8
Defpoints
 62
     0
100
AcDbPoint
 10
1935.268884264371
 20
584.7941474005865
 30
0.0
  0
ENDBLK
  5
3414
330
3409
100
AcDbEntity
  8
0
100
AcDbBlockEnd
  0
BLOCK
  5
3416
330
3415
100
AcDbEntity
  8
0
100
AcDbBlockBegin
  2
*D62
 70
     1
 10
0.0
 20
0.0
 30
0.0
  3
*D62
  1

  0
LINE
  5
3417
330
3415
100
AcDbEntity
  8
AM_5
100
AcDbLine
 10
1936.26888426437
 20
532.7604406500966
 30
0.0
 11
1953.721182354177
 21
532.7604406500966
 31
0.0
  0
LINE
  5
3418
330
3415
100
AcDbEntity
  8
AM_5
100
AcDbLine
 10
1936.26888426437
 20
557.7604406500966
 30
0.0
 11
1953.721182354177
 21
557.7604406500966
 31
0.0
  0
LINE
  5
3419
330
3415
100
AcDbEntity
  8
AM_5
100
AcDbLine
 10
1952.221182354177
 20
537.7604406500966
 30
0.0
 11
1952.221182354177
 21
552.7604406500966
 31
0.0
  0
SOLID
  5
341A
330
3415
100
AcDbEntity
  8
AM_5
100
AcDbTrace
 10
1951.387849020844
 20
537.7604406500966
 30
0.0
 11
1953.05451568751
 21
537.7604406500966
 31
0.0
 12
1952.221182354177
 22
532.7604406500966
 32
0.0
 13
1952.221182354177
 23
532.7604406500966
 33
0.0
  0
SOLID
  5
341B
330
3415
100
AcDbEntity
  8
AM_5
100
AcDbTrace
 10
1951.387849020844
 20
552.7604406500966
 30
0.0
 11
1953.05451568751
 21
552.7604406500966
 31
0.0
 12
1952.221182354177
 22
557.7604406500966
 32
0.0
 13
1952.221182354177
 23
557.7604406500966
 33
0.0
  0
MTEXT
  5
341C
330
3415
100
AcDbEntity
  8
AM_5
100
AcDbMText
 10
1948.220591802996
 20
545.2604406500969
 30
0.0
 40
6.0
 41
0.0
 71
     5
 72
     1
  1
%%c25
 11
0.0000000000000001
 21
1.0
 31
0.0
 73
     1
 44
1.0
1001
ACAD
1000
MTEXTBEGIN
1070
    73
1070
     1
1070
    44
1040
1.0
1070
    74
1070
     0
1000
MTEXTEND
  0
POINT
  5
341D
330
3415
100
AcDbEntity
  8
Defpoints
 62
     0
100
AcDbPoint
 10
1934.76888426437
 20
532.7604406500966
 30
0.0
  0
POINT
  5
341E
330
3415
100
AcDbEntity
  8
Defpoints
 62
     0
100
AcDbPoint
 10
1934.76888426437
 20
557.7604406500966
 30
0.0
  0
POINT
  5
341F
330
3415
100
AcDbEntity
  8
Defpoints
 62
     0
100
AcDbPoint
 10
1952.221182354177
 20
557.7604406500966
 30
0.0
  0
ENDBLK
  5
3420
330
3415
100
AcDbEntity
  8
0
100
AcDbBlockEnd
  0
BLOCK
  5
3489
330
347F
100
AcDbEntity
  8
0
100
AcDbBlockBegin
  2
*D64
 70
     1
 10
0.0
 20
0.0
 30
0.0
  3
*D64
  1

  0
LINE
  5
3699
330
347F
100
AcDbEntity
  8
AM_5
100
AcDbLine
 10
714.3340569421416
 20
655.5101175127085
 30
0.0
 11
714.3340569421416
 21
683.0438242631985
 31
0.0
  0
LINE
  5
369A
330
347F
100
AcDbEntity
  8
AM_5
100
AcDbLine
 10
837.3340569421415
 20
655.5101175127085
 30
0.0
 11
837.3340569421415
 21
683.0438242631985
 31
0.0
  0
LINE
  5
369B
330
347F
100
AcDbEntity
  8
AM_5
100
AcDbLine
 10
717.3340569421416
 20
681.5438242631985
 30
0.0
 11
834.3340569421416
 21
681.5438242631985
 31
0.0
  0
SOLID
  5
369C
330
347F
100
AcDbEntity
  8
AM_5
100
AcDbTrace
 10
717.3340569421416
 20
682.0438242631985
 30
0.0
 11
717.3340569421416
 21
681.0438242631985
 31
0.0
 12
714.3340569421416
 22
681.5438242631985
 32
0.0
 13
714.3340569421416
 23
681.5438242631985
 33
0.0
  0
SOLID
  5
369D
330
347F
100
AcDbEntity
  8
AM_5
100
AcDbTrace
 10
834.3340569421416
 20
682.0438242631985
 30
0.0
 11
834.3340569421416
 21
681.0438242631985
 31
0.0
 12
837.3340569421415
 22
681.5438242631985
 32
0.0
 13
837.3340569421415
 23
681.5438242631985
 33
0.0
  0
MTEXT
  5
369E
330
347F
100
AcDbEntity
  8
AM_5
100
AcDbMText
 10
775.8340569421416
 20
684.8295385489128
 30
0.0
 40
3.0
 41
0.0
 71
     5
 72
     1
  1
(123)
  7
CHINESET
 73
     1
 44
1.0
1001
ACAD
1000
MTEXTBEGIN
1070
    73
1070
     1
1070
    44
1040
1.0
1070
    74
1070
     0
1000
MTEXTEND
  0
POINT
  5
369F
330
347F
100
AcDbEntity
  8
Defpoints
 62
     0
100
AcDbPoint
 10
714.3340569421416
 20
654.0101175127086
 30
0.0
  0
POINT
  5
36A0
330
347F
100
AcDbEntity
  8
Defpoints
 62
     0
100
AcDbPoint
 10
837.3340569421415
 20
654.0101175127086
 30
0.0
  0
POINT
  5
36A1
330
347F
100
AcDbEntity
  8
Defpoints
 62
     0
100
AcDbPoint
 10
837.3340569421415
 20
681.5438242631985
 30
0.0
  0
ENDBLK
  5
348A
330
347F
100
AcDbEntity
  8
0
100
AcDbBlockEnd
  0
BLOCK
  5
349E
330
3494
100
AcDbEntity
  8
0
100
AcDbBlockBegin
  2
*D65
 70
     1
 10
0.0
 20
0.0
 30
0.0
  3
*D65
  1

  0
LINE
  5
36A2
330
3494
100
AcDbEntity
  8
AM_5
100
AcDbLine
 10
838.3340569421417
 20
629.5101175127086
 30
0.0
 11
855.7863550319479
 21
629.5101175127086
 31
0.0
  0
LINE
  5
36A3
330
3494
100
AcDbEntity
  8
AM_5
100
AcDbLine
 10
838.3340569421417
 20
654.5101175127086
 30
0.0
 11
855.7863550319479
 21
654.5101175127086
 31
0.0
  0
LINE
  5
36A4
330
3494
100
AcDbEntity
  8
AM_5
100
AcDbLine
 10
854.2863550319479
 20
632.5101175127086
 30
0.0
 11
854.2863550319479
 21
651.5101175127085
 31
0.0
  0
SOLID
  5
36A5
330
3494
100
AcDbEntity
  8
AM_5
100
AcDbTrace
 10
853.786355031948
 20
632.5101175127086
 30
0.0
 11
854.786355031948
 21
632.5101175127086
 31
0.0
 12
854.2863550319479
 22
629.5101175127086
 32
0.0
 13
854.2863550319479
 23
629.5101175127086
 33
0.0
  0
SOLID
  5
36A6
330
3494
100
AcDbEntity
  8
AM_5
100
AcDbTrace
 10
853.786355031948
 20
651.5101175127085
 30
0.0
 11
854.786355031948
 21
651.5101175127085
 31
0.0
 12
854.2863550319479
 22
654.5101175127086
 32
0.0
 13
854.2863550319479
 23
654.5101175127086
 33
0.0
  0
MTEXT
  5
36A7
330
3494
100
AcDbEntity
  8
AM_5
100
AcDbMText
 10
851.7863550319479
 20
642.0101175127087
 30
0.0
 40
3.0
 41
0.0
 71
     5
 72
     1
  1
%%c25
  7
CHINESET
 11
0.0000000000000001
 21
1.0
 31
0.0
 73
     1
 44
1.0
1001
ACAD
1000
MTEXTBEGIN
1070
    73
1070
     1
1070
    44
1040
1.0
1070
    74
1070
     0
1000
MTEXTEND
  0
POINT
  5
36A8
330
3494
100
AcDbEntity
  8
Defpoints
 62
     0
100
AcDbPoint
 10
836.8340569421416
 20
629.5101175127086
 30
0.0
  0
POINT
  5
36A9
330
3494
100
AcDbEntity
  8
Defpoints
 62
     0
100
AcDbPoint
 10
836.8340569421416
 20
654.5101175127086
 30
0.0
  0
POINT
  5
36AA
330
3494
100
AcDbEntity
  8
Defpoints
 62
     0
100
AcDbPoint
 10
854.2863550319479
 20
654.5101175127086
 30
0.0
  0
ENDBLK
  5
349F
330
3494
100
AcDbEntity
  8
0
100
AcDbBlockEnd
  0
BLOCK
  5
34A2
330
34A1
100
AcDbEntity
  8
0
100
AcDbBlockBegin
  2
*D66
 70
     1
 10
0.0
 20
0.0
 30
0.0
  3
*D66
  1

  0
LINE
  5
34A3
330
34A1
100
AcDbEntity
  8
AM_5
100
AcDbLine
 10
4606.644756657146
 20
812.4740685248452
 30
0.0
 11
4606.644756657146
 21
771.2378901719411
 31
0.0
  0
LINE
  5
34A4
330
34A1
100
AcDbEntity
  8
AM_5
100
AcDbLine
 10
4711.644756657146
 20
812.4740685248452
 30
0.0
 11
4711.644756657146
 21
771.2378901719411
 31
0.0
  0
LINE
  5
34A5
330
34A1
100
AcDbEntity
  8
AM_5
100
AcDbLine
 10
4620.644756657146
 20
776.4878901719411
 30
0.0
 11
4697.644756657146
 21
776.4878901719411
 31
0.0
  0
SOLID
  5
34A6
330
34A1
100
AcDbEntity
  8
AM_5
100
AcDbTrace
 10
4620.644756657146
 20
778.8212235052744
 30
0.0
 11
4620.644756657146
 21
774.1545568386077
 31
0.0
 12
4606.644756657146
 22
776.4878901719411
 32
0.0
 13
4606.644756657146
 23
776.4878901719411
 33
0.0
  0
SOLID
  5
34A7
330
34A1
100
AcDbEntity
  8
AM_5
100
AcDbTrace
 10
4697.644756657146
 20
778.8212235052744
 30
0.0
 11
4697.644756657146
 21
774.1545568386077
 31
0.0
 12
4711.644756657146
 22
776.4878901719411
 32
0.0
 13
4711.644756657146
 23
776.4878901719411
 33
0.0
  0
MTEXT
  5
34A8
330
34A1
100
AcDbEntity
  8
AM_5
100
AcDbMText
 10
4659.623608096022
 20
787.8628901719411
 30
0.0
 40
12.25
 41
0.0
 71
     5
 72
     1
  1
105
 73
     1
 44
1.0
1001
ACAD
1000
MTEXTBEGIN
1070
    73
1070
     1
1070
    44
1040
1.0
1070
    74
1070
     0
1000
MTEXTEND
  0
POINT
  5
34A9
330
34A1
100
AcDbEntity
  8
Defpoints
 62
     0
100
AcDbPoint
 10
4606.644756657146
 20
815.9740685248452
 30
0.0
  0
POINT
  5
34AA
330
34A1
100
AcDbEntity
  8
Defpoints
 62
     0
100
AcDbPoint
 10
4711.644756657146
 20
815.9740685248452
 30
0.0
  0
POINT
  5
34AB
330
34A1
100
AcDbEntity
  8
Defpoints
 62
     0
100
AcDbPoint
 10
4711.644756657146
 20
776.4878901719411
 30
0.0
  0
ENDBLK
  5
34AC
330
34A1
100
AcDbEntity
  8
0
100
AcDbBlockEnd
  0
BLOCK
  5
34AE
330
34AD
100
AcDbEntity
  8
0
100
AcDbBlockBegin
  2
*D67
 70
     1
 10
0.0
 20
0.0
 30
0.0
  3
*D67
  1

  0
LINE
  5
34AF
330
34AD
100
AcDbEntity
  8
AM_5
100
AcDbLine
 10
4596.644756657146
 20
807.9740685248452
 30
0.0
 11
4596.644756657146
 21
750.8223143563972
 31
0.0
  0
LINE
  5
34B0
330
34AD
100
AcDbEntity
  8
AM_5
100
AcDbLine
 10
4721.644756657146
 20
807.9740685248452
 30
0.0
 11
4721.644756657146
 21
750.8223143563972
 31
0.0
  0
LINE
  5
34B1
330
34AD
100
AcDbEntity
  8
AM_5
100
AcDbLine
 10
4610.644756657146
 20
756.0723143563972
 30
0.0
 11
4707.644756657145
 21
756.0723143563972
 31
0.0
  0
SOLID
  5
34B2
330
34AD
100
AcDbEntity
  8
AM_5
100
AcDbTrace
 10
4610.644756657146
 20
758.4056476897305
 30
0.0
 11
4610.644756657146
 21
753.7389810230638
 31
0.0
 12
4596.644756657146
 22
756.0723143563972
 32
0.0
 13
4596.644756657146
 23
756.0723143563972
 33
0.0
  0
SOLID
  5
34B3
330
34AD
100
AcDbEntity
  8
AM_5
100
AcDbTrace
 10
4707.644756657145
 20
758.4056476897305
 30
0.0
 11
4707.644756657145
 21
753.7389810230638
 31
0.0
 12
4721.644756657146
 22
756.0723143563972
 32
0.0
 13
4721.644756657146
 23
756.0723143563972
 33
0.0
  0
MTEXT
  5
34B4
330
34AD
100
AcDbEntity
  8
AM_5
100
AcDbMText
 10
4661.53796629725
 20
767.4485200650585
 30
0.0
 40
12.25
 41
0.0
 71
     5
 72
     1
  1
125
 73
     1
 44
1.0
1001
ACAD
1000
MTEXTBEGIN
1070
    73
1070
     1
1070
    44
1040
1.0
1070
    74
1070
     0
1000
MTEXTEND
  0
POINT
  5
34B5
330
34AD
100
AcDbEntity
  8
Defpoints
 62
     0
100
AcDbPoint
 10
4596.644756657146
 20
811.4740685248452
 30
0.0
  0
POINT
  5
34B6
330
34AD
100
AcDbEntity
  8
Defpoints
 62
     0
100
AcDbPoint
 10
4721.644756657146
 20
811.4740685248452
 30
0.0
  0
POINT
  5
34B7
330
34AD
100
AcDbEntity
  8
Defpoints
 62
     0
100
AcDbPoint
 10
4721.644756657146
 20
756.0723143563972
 30
0.0
  0
ENDBLK
  5
34B8
330
34AD
100
AcDbEntity
  8
0
100
AcDbBlockEnd
  0
BLOCK
  5
34BA
330
34B9
100
AcDbEntity
  8
0
100
AcDbBlockBegin
  2
*D68
 70
     1
 10
0.0
 20
0.0
 30
0.0
  3
*D68
  1

  0
LINE
  5
34BB
330
34B9
100
AcDbEntity
  8
AM_5
100
AcDbLine
 10
4725.144756657146
 20
811.4740685248452
 30
0.0
 11
4779.77002862996
 21
811.4740685248452
 31
0.0
  0
LINE
  5
34BC
330
34B9
100
AcDbEntity
  8
AM_5
100
AcDbLine
 10
4725.144756657146
 20
835.4740685248453
 30
0.0
 11
4779.77002862996
 21
835.4740685248453
 31
0.0
  0
LINE
  5
34BD
330
34B9
100
AcDbEntity
  8
AM_5
100
AcDbLine
 10
4774.52002862996
 20
797.4740685248453
 30
0.0
 11
4774.52002862996
 21
783.4740685248452
 31
0.0
  0
LINE
  5
34BE
330
34B9
100
AcDbEntity
  8
AM_5
100
AcDbLine
 10
4774.52002862996
 20
849.4740685248453
 30
0.0
 11
4774.52002862996
 21
863.4740685248452
 31
0.0
  0
LINE
  5
34BF
330
34B9
100
AcDbEntity
  8
AM_5
100
AcDbLine
 10
4774.52002862996
 20
811.4740685248452
 30
0.0
 11
4774.52002862996
 21
835.4740685248453
 31
0.0
  0
SOLID
  5
34C0
330
34B9
100
AcDbEntity
  8
AM_5
100
AcDbTrace
 10
4772.186695296627
 20
797.4740685248453
 30
0.0
 11
4776.853361963293
 21
797.4740685248453
 31
0.0
 12
4774.52002862996
 22
811.4740685248452
 32
0.0
 13
4774.52002862996
 23
811.4740685248452
 33
0.0
  0
SOLID
  5
34C1
330
34B9
100
AcDbEntity
  8
AM_5
100
AcDbTrace
 10
4772.186695296627
 20
849.4740685248453
 30
0.0
 11
4776.853361963293
 21
849.4740685248453
 31
0.0
 12
4774.52002862996
 22
835.4740685248453
 32
0.0
 13
4774.52002862996
 23
835.4740685248453
 33
0.0
  0
MTEXT
  5
34C2
330
34B9
100
AcDbEntity
  8
AM_5
100
AcDbMText
 10
4763.143822921299
 20
823.4740685248459
 30
0.0
 40
12.25
 41
0.0
 71
     5
 72
     1
  1
24
 11
0.0000000000000001
 21
1.0
 31
0.0
 73
     1
 44
1.0
1001
ACAD
1000
MTEXTBEGIN
1070
    73
1070
     1
1070
    44
1040
1.0
1070
    74
1070
     0
1000
MTEXTEND
  0
POINT
  5
34C3
330
34B9
100
AcDbEntity
  8
Defpoints
 62
     0
100
AcDbPoint
 10
4721.644756657146
 20
811.4740685248452
 30
0.0
  0
POINT
  5
34C4
330
34B9
100
AcDbEntity
  8
Defpoints
 62
     0
100
AcDbPoint
 10
4721.644756657146
 20
835.4740685248453
 30
0.0
  0
POINT
  5
34C5
330
34B9
100
AcDbEntity
  8
Defpoints
 62
     0
100
AcDbPoint
 10
4774.52002862996
 20
835.4740685248453
 30
0.0
  0
ENDBLK
  5
34C6
330
34B9
100
AcDbEntity
  8
0
100
AcDbBlockEnd
  0
BLOCK
  5
34C8
330
34C7
100
AcDbEntity
  8
0
100
AcDbBlockBegin
  2
*D69
 70
     1
 10
0.0
 20
0.0
 30
0.0
  3
*D69
  1

  0
LINE
  5
34C9
330
34C7
100
AcDbEntity
  8
AM_5
100
AcDbLine
 10
4725.144756657146
 20
811.4740685248452
 30
0.0
 11
4753.504475388008
 21
811.4740685248452
 31
0.0
  0
LINE
  5
34CA
330
34C7
100
AcDbEntity
  8
AM_5
100
AcDbLine
 10
4722.644756657145
 20
823.4740685248452
 30
0.0
 11
4753.504475388008
 21
823.4740685248452
 31
0.0
  0
LINE
  5
34CB
330
34C7
100
AcDbEntity
  8
AM_5
100
AcDbLine
 10
4748.254475388008
 20
837.4740685248452
 30
0.0
 11
4748.254475388008
 21
851.4740685248453
 31
0.0
  0
LINE
  5
34CC
330
34C7
100
AcDbEntity
  8
AM_5
100
AcDbLine
 10
4748.254475388008
 20
797.4740685248453
 30
0.0
 11
4748.254475388008
 21
761.2133450996484
 31
0.0
  0
LINE
  5
34CD
330
34C7
100
AcDbEntity
  8
AM_5
100
AcDbLine
 10
4748.254475388008
 20
823.4740685248452
 30
0.0
 11
4748.254475388008
 21
811.4740685248452
 31
0.0
  0
SOLID
  5
34CE
330
34C7
100
AcDbEntity
  8
AM_5
100
AcDbTrace
 10
4745.921142054675
 20
837.4740685248452
 30
0.0
 11
4750.587808721341
 21
837.4740685248452
 31
0.0
 12
4748.254475388008
 22
823.4740685248452
 32
0.0
 13
4748.254475388008
 23
823.4740685248452
 33
0.0
  0
SOLID
  5
34CF
330
34C7
100
AcDbEntity
  8
AM_5
100
AcDbTrace
 10
4745.921142054675
 20
797.4740685248453
 30
0.0
 11
4750.587808721341
 21
797.4740685248453
 31
0.0
 12
4748.254475388008
 22
811.4740685248452
 32
0.0
 13
4748.254475388008
 23
811.4740685248452
 33
0.0
  0
MTEXT
  5
34D0
330
34C7
100
AcDbEntity
  8
AM_5
100
AcDbMText
 10
4736.878269679347
 20
772.3437068122475
 30
0.0
 40
12.25
 41
0.0
 71
     5
 72
     1
  1
12
 11
0.0000000000000001
 21
1.0
 31
0.0
 73
     1
 44
1.0
1001
ACAD
1000
MTEXTBEGIN
1070
    73
1070
     1
1070
    44
1040
1.0
1070
    74
1070
     0
1000
MTEXTEND
  0
POINT
  5
34D1
330
34C7
100
AcDbEntity
  8
Defpoints
 62
     0
100
AcDbPoint
 10
4721.644756657146
 20
811.4740685248452
 30
0.0
  0
POINT
  5
34D2
330
34C7
100
AcDbEntity
  8
Defpoints
 62
     0
100
AcDbPoint
 10
4719.144756657146
 20
823.4740685248452
 30
0.0
  0
POINT
  5
34D3
330
34C7
100
AcDbEntity
  8
Defpoints
 62
     0
100
AcDbPoint
 10
4748.254475388008
 20
823.4740685248452
 30
0.0
  0
ENDBLK
  5
34D4
330
34C7
100
AcDbEntity
  8
0
100
AcDbBlockEnd
  0
BLOCK
  5
34D6
330
34D5
100
AcDbEntity
  8
0
100
AcDbBlockBegin
  2
*D70
 70
     1
 10
0.0
 20
0.0
 30
0.0
  3
*D70
  1

  0
LINE
  5
34D7
330
34D5
100
AcDbEntity
  8
AM_5
100
AcDbLine
 10
4700.226651537292
 20
838.0300595756814
 30
0.0
 11
4691.585923338482
 21
849.04540415469
 31
0.0
  0
LINE
  5
34D8
330
34D5
100
AcDbEntity
  8
AM_5
100
AcDbLine
 10
4691.585923338482
 20
849.04540415469
 30
0.0
 11
4669.533903220711
 21
849.04540415469
 31
0.0
  0
SOLID
  5
34D9
330
34D5
100
AcDbEntity
  8
AM_5
100
AcDbTrace
 10
4702.062542300459
 20
839.4701809421487
 30
0.0
 11
4698.390760774123
 21
836.5899382092127
 31
0.0
 12
4708.8673797361
 22
827.0147149966717
 32
0.0
 13
4708.8673797361
 23
827.0147149966717
 33
0.0
  0
MTEXT
  5
34DA
330
34D5
100
AcDbEntity
  8
AM_5
100
AcDbMText
 10
4677.934913279596
 20
860.4204041546894
 30
0.0
 40
12.25
 41
0.0
 71
     5
 72
     1
  1
\U+22059
 73
     1
 44
1.0
1001
ACAD
1000
MTEXTBEGIN
1070
    73
1070
     1
1070
    44
1040
1.0
1070
    74
1070
     0
1000
MTEXTEND
  0
POINT
  5
34DB
330
34D5
100
AcDbEntity
  8
Defpoints
 62
     0
100
AcDbPoint
 10
4708.8673797361
 20
827.0147149966717
 30
0.0
  0
POINT
  5
34DC
330
34D5
100
AcDbEntity
  8
Defpoints
 62
     0
100
AcDbPoint
 10
4714.422133578194
 20
819.9334220530236
 30
0.0
  0
ENDBLK
  5
34DD
330
34D5
100
AcDbEntity
  8
0
100
AcDbBlockEnd
  0
BLOCK
  5
34DF
330
34DE
100
AcDbEntity
  8
0
100
AcDbBlockBegin
  2
*D71
 70
     1
 10
0.0
 20
0.0
 30
0.0
  3
*D71
  1

  0
LINE
  5
34E0
330
34DE
100
AcDbEntity
  8
AM_5
100
AcDbLine
 10
4725.144756657146
 20
870.6869419342886
 30
0.0
 11
4746.4762023822
 21
870.6869419342886
 31
0.0
  0
LINE
  5
34E1
330
34DE
100
AcDbEntity
  8
AM_5
100
AcDbLine
 10
4725.144756657146
 20
872.2869419342885
 30
0.0
 11
4746.4762023822
 21
872.2869419342885
 31
0.0
  0
LINE
  5
34E2
330
34DE
100
AcDbEntity
  8
AM_5
100
AcDbLine
 10
4741.2262023822
 20
856.6869419342886
 30
0.0
 11
4741.2262023822
 21
842.6869419342885
 31
0.0
  0
LINE
  5
34E3
330
34DE
100
AcDbEntity
  8
AM_5
100
AcDbLine
 10
4741.2262023822
 20
886.2869419342885
 30
0.0
 11
4741.2262023822
 21
926.0946190996428
 31
0.0
  0
LINE
  5
34E4
330
34DE
100
AcDbEntity
  8
AM_5
100
AcDbLine
 10
4741.2262023822
 20
870.6869419342886
 30
0.0
 11
4741.2262023822
 21
872.2869419342885
 31
0.0
  0
SOLID
  5
34E5
330
34DE
100
AcDbEntity
  8
AM_5
100
AcDbTrace
 10
4738.892869048867
 20
856.6869419342886
 30
0.0
 11
4743.559535715533
 21
856.6869419342886
 31
0.0
 12
4741.2262023822
 22
870.6869419342886
 32
0.0
 13
4741.2262023822
 23
870.6869419342886
 33
0.0
  0
SOLID
  5
34E6
330
34DE
100
AcDbEntity
  8
AM_5
100
AcDbTrace
 10
4738.892869048867
 20
886.2869419342885
 30
0.0
 11
4743.559535715533
 21
886.2869419342885
 31
0.0
 12
4741.2262023822
 22
872.2869419342885
 32
0.0
 13
4741.2262023822
 23
872.2869419342885
 33
0.0
  0
MTEXT
  5
34E7
330
34DE
100
AcDbEntity
  8
AM_5
100
AcDbMText
 10
4729.8512023822
 20
913.1907805169664
 30
0.0
 40
12.25
 41
0.0
 71
     5
 72
     1
  1
1.6
 11
0.0000000000000001
 21
1.0
 31
0.0
 73
     1
 44
1.0
1001
ACAD
1000
MTEXTBEGIN
1070
    73
1070
     1
1070
    44
1040
1.0
1070
    74
1070
     0
1000
MTEXTEND
  0
POINT
  5
34E8
330
34DE
100
AcDbEntity
  8
Defpoints
 62
     0
100
AcDbPoint
 10
4721.644756657146
 20
870.6869419342886
 30
0.0
  0
POINT
  5
34E9
330
34DE
100
AcDbEntity
  8
Defpoints
 62
     0
100
AcDbPoint
 10
4721.644756657146
 20
872.2869419342885
 30
0.0
  0
POINT
  5
34EA
330
34DE
100
AcDbEntity
  8
Defpoints
 62
     0
100
AcDbPoint
 10
4741.2262023822
 20
872.2869419342885
 30
0.0
  0
ENDBLK
  5
34EB
330
34DE
100
AcDbEntity
  8
0
100
AcDbBlockEnd
  0
BLOCK
  5
34ED
330
34EC
100
AcDbEntity
  8
0
100
AcDbBlockBegin
  2
*D72
 70
     1
 10
0.0
 20
0.0
 30
0.0
  3
*D72
  1

  0
LINE
  5
34EE
330
34EC
100
AcDbEntity
  8
AM_5
100
AcDbLine
 10
4725.144756657146
 20
870.6869419342886
 30
0.0
 11
4779.77002862996
 21
870.6869419342886
 31
0.0
  0
LINE
  5
34EF
330
34EC
100
AcDbEntity
  8
AM_5
100
AcDbLine
 10
4662.644756657146
 20
951.6869419342887
 30
0.0
 11
4779.77002862996
 21
951.6869419342887
 31
0.0
  0
LINE
  5
34F0
330
34EC
100
AcDbEntity
  8
AM_5
100
AcDbLine
 10
4774.52002862996
 20
884.6869419342885
 30
0.0
 11
4774.52002862996
 21
937.6869419342886
 31
0.0
  0
SOLID
  5
34F1
330
34EC
100
AcDbEntity
  8
AM_5
100
AcDbTrace
 10
4772.186695296627
 20
884.6869419342885
 30
0.0
 11
4776.853361963293
 21
884.6869419342885
 31
0.0
 12
4774.52002862996
 22
870.6869419342886
 32
0.0
 13
4774.52002862996
 23
870.6869419342886
 33
0.0
  0
SOLID
  5
34F2
330
34EC
100
AcDbEntity
  8
AM_5
100
AcDbTrace
 10
4772.186695296627
 20
937.6869419342886
 30
0.0
 11
4776.853361963293
 21
937.6869419342886
 31
0.0
 12
4774.52002862996
 22
951.6869419342887
 32
0.0
 13
4774.52002862996
 23
951.6869419342887
 33
0.0
  0
MTEXT
  5
34F3
330
34EC
100
AcDbEntity
  8
AM_5
100
AcDbMText
 10
4763.14502862996
 20
911.1869419342893
 30
0.0
 40
12.25
 41
0.0
 71
     5
 72
     1
  1
81
 11
0.0000000000000001
 21
1.0
 31
0.0
 73
     1
 44
1.0
1001
ACAD
1000
MTEXTBEGIN
1070
    73
1070
     1
1070
    44
1040
1.0
1070
    74
1070
     0
1000
MTEXTEND
  0
POINT
  5
34F4
330
34EC
100
AcDbEntity
  8
Defpoints
 62
     0
100
AcDbPoint
 10
4721.644756657146
 20
870.6869419342886
 30
0.0
  0
POINT
  5
34F5
330
34EC
100
AcDbEntity
  8
Defpoints
 62
     0
100
AcDbPoint
 10
4659.144756657146
 20
951.6869419342887
 30
0.0
  0
POINT
  5
34F6
330
34EC
100
AcDbEntity
  8
Defpoints
 62
     0
100
AcDbPoint
 10
4774.52002862996
 20
951.6869419342887
 30
0.0
  0
ENDBLK
  5
34F7
330
34EC
100
AcDbEntity
  8
0
100
AcDbBlockEnd
  0
BLOCK
  5
34F9
330
34F8
100
AcDbEntity
  8
0
100
AcDbBlockBegin
  2
*D73
 70
     1
 10
0.0
 20
0.0
 30
0.0
  3
*D73
  1

  0
LINE
  5
34FA
330
34F8
100
AcDbEntity
  8
AM_5
100
AcDbLine
 10
4634.509097006859
 20
901.7752469449776
 30
0.0
 11
4683.780416307431
 21
918.3986369235977
 31
0.0
  0
SOLID
  5
34FB
330
34F8
100
AcDbEntity
  8
AM_5
100
AcDbTrace
 10
4633.763175661664
 20
903.9861394776956
 30
0.0
 11
4635.255018352054
 21
899.5643544122597
 31
0.0
 12
4621.243741810553
 22
897.2997188738109
 32
0.0
 13
4621.243741810553
 23
897.2997188738109
 33
0.0
  0
SOLID
  5
34FC
330
34F8
100
AcDbEntity
  8
AM_5
100
AcDbTrace
 10
4683.034494962236
 20
920.6095294563155
 30
0.0
 11
4684.526337652626
 21
916.1877443908798
 31
0.0
 12
4697.045771503739
 22
922.8741649947641
 32
0.0
 13
4697.045771503739
 23
922.8741649947641
 33
0.0
  0
MTEXT
  5
34FD
330
34F8
100
AcDbEntity
  8
AM_5
100
AcDbMText
 10
4671.966340849428
 20
926.417704040808
 30
0.0
 40
12.25
 41
0.0
 71
     5
 72
     1
  1
\U+220580
 11
0.9475253711648109
 21
0.3196805765119102
 31
0.0
 73
     1
 44
1.0
1001
ACAD
1000
MTEXTBEGIN
1070
    73
1070
     1
1070
    44
1040
1.0
1070
    74
1070
     0
1000
MTEXTEND
  0
POINT
  5
34FE
330
34F8
100
AcDbEntity
  8
Defpoints
 62
     0
100
AcDbPoint
 10
4697.045771503739
 20
922.8741649947641
 30
0.0
  0
POINT
  5
34FF
330
34F8
100
AcDbEntity
  8
Defpoints
 62
     0
100
AcDbPoint
 10
4621.243741810553
 20
897.2997188738109
 30
0.0
  0
ENDBLK
  5
3500
330
34F8
100
AcDbEntity
  8
0
100
AcDbBlockEnd
  0
BLOCK
  5
356E
330
3564
100
AcDbEntity
  8
0
100
AcDbBlockBegin
  2
*D75
 70
     1
 10
0.0
 20
0.0
 30
0.0
  3
*D75
  1

  0
LINE
  5
3700
330
3564
100
AcDbEntity
  8
AM_5
100
AcDbLine
 10
693.3418243415663
 20
347.5638998690649
 30
0.0
 11
693.3418243415663
 21
308.0777215161609
 31
0.0
  0
LINE
  5
3701
330
3564
100
AcDbEntity
  8
AM_5
100
AcDbLine
 10
798.3418243415663
 20
347.5638998690649
 30
0.0
 11
798.3418243415663
 21
308.0777215161609
 31
0.0
  0
LINE
  5
3702
330
3564
100
AcDbEntity
  8
AM_5
100
AcDbLine
 10
699.3418243415662
 20
311.0777215161609
 30
0.0
 11
792.3418243415662
 21
311.0777215161609
 31
0.0
  0
SOLID
  5
3703
330
3564
100
AcDbEntity
  8
AM_5
100
AcDbTrace
 10
699.3418243415662
 20
312.0777215161609
 30
0.0
 11
699.3418243415662
 21
310.0777215161609
 31
0.0
 12
693.3418243415663
 22
311.0777215161609
 32
0.0
 13
693.3418243415663
 23
311.0777215161609
 33
0.0
  0
SOLID
  5
3704
330
3564
100
AcDbEntity
  8
AM_5
100
AcDbTrace
 10
792.3418243415662
 20
312.0777215161609
 30
0.0
 11
792.3418243415662
 21
310.0777215161609
 31
0.0
 12
798.3418243415663
 22
311.0777215161609
 32
0.0
 13
798.3418243415663
 23
311.0777215161609
 33
0.0
  0
MTEXT
  5
3705
330
3564
100
AcDbEntity
  8
AM_5
100
AcDbMText
 10
746.3206757804428
 20
316.0777215161609
 30
0.0
 40
6.0
 41
0.0
 71
     5
 72
     1
  1
105
  7
CHINESET
 73
     1
 44
1.0
1001
ACAD
1000
MTEXTBEGIN
1070
    73
1070
     1
1070
    44
1040
1.0
1070
    74
1070
     0
1000
MTEXTEND
  0
POINT
  5
3706
330
3564
100
AcDbEntity
  8
Defpoints
 62
     0
100
AcDbPoint
 10
693.3418243415663
 20
350.5638998690649
 30
0.0
  0
POINT
  5
3707
330
3564
100
AcDbEntity
  8
Defpoints
 62
     0
100
AcDbPoint
 10
798.3418243415663
 20
350.5638998690649
 30
0.0
  0
POINT
  5
3708
330
3564
100
AcDbEntity
  8
Defpoints
 62
     0
100
AcDbPoint
 10
798.3418243415663
 20
311.0777215161609
 30
0.0
  0
ENDBLK
  5
356F
330
3564
100
AcDbEntity
  8
0
100
AcDbBlockEnd
  0
BLOCK
  5
357A
330
3570
100
AcDbEntity
  8
0
100
AcDbBlockBegin
  2
*D76
 70
     1
 10
0.0
 20
0.0
 30
0.0
  3
*D76
  1

  0
LINE
  5
36F7
330
3570
100
AcDbEntity
  8
AM_5
100
AcDbLine
 10
683.3418243415662
 20
343.0638998690649
 30
0.0
 11
683.3418243415662
 21
287.662145700617
 31
0.0
  0
LINE
  5
36F8
330
3570
100
AcDbEntity
  8
AM_5
100
AcDbLine
 10
808.3418243415662
 20
343.0638998690649
 30
0.0
 11
808.3418243415662
 21
287.662145700617
 31
0.0
  0
LINE
  5
36F9
330
3570
100
AcDbEntity
  8
AM_5
100
AcDbLine
 10
689.3418243415663
 20
290.662145700617
 30
0.0
 11
802.3418243415662
 21
290.662145700617
 31
0.0
  0
SOLID
  5
36FA
330
3570
100
AcDbEntity
  8
AM_5
100
AcDbTrace
 10
689.3418243415663
 20
291.662145700617
 30
0.0
 11
689.3418243415663
 21
289.662145700617
 31
0.0
 12
683.3418243415662
 22
290.662145700617
 32
0.0
 13
683.3418243415662
 23
290.662145700617
 33
0.0
  0
SOLID
  5
36FB
330
3570
100
AcDbEntity
  8
AM_5
100
AcDbTrace
 10
802.3418243415662
 20
291.662145700617
 30
0.0
 11
802.3418243415662
 21
289.662145700617
 31
0.0
 12
808.3418243415662
 22
290.662145700617
 32
0.0
 13
808.3418243415662
 23
290.662145700617
 33
0.0
  0
MTEXT
  5
36FC
330
3570
100
AcDbEntity
  8
AM_5
100
AcDbMText
 10
748.2350339816703
 20
295.662145700617
 30
0.0
 40
6.0
 41
0.0
 71
     5
 72
     1
  1
125
  7
CHINESET
 73
     1
 44
1.0
1001
ACAD
1000
MTEXTBEGIN
1070
    73
1070
     1
1070
    44
1040
1.0
1070
    74
1070
     0
1000
MTEXTEND
  0
POINT
  5
36FD
330
3570
100
AcDbEntity
  8
Defpoints
 62
     0
100
AcDbPoint
 10
683.3418243415662
 20
346.0638998690649
 30
0.0
  0
POINT
  5
36FE
330
3570
100
AcDbEntity
  8
Defpoints
 62
     0
100
AcDbPoint
 10
808.3418243415662
 20
346.0638998690649
 30
0.0
  0
POINT
  5
36FF
330
3570
100
AcDbEntity
  8
Defpoints
 62
     0
100
AcDbPoint
 10
808.3418243415662
 20
290.662145700617
 30
0.0
  0
ENDBLK
  5
357B
330
3570
100
AcDbEntity
  8
0
100
AcDbBlockEnd
  0
BLOCK
  5
3588
330
357C
100
AcDbEntity
  8
0
100
AcDbBlockBegin
  2
*D77
 70
     1
 10
0.0
 20
0.0
 30
0.0
  3
*D77
  1

  0
LINE
  5
3714
330
357C
100
AcDbEntity
  8
AM_5
100
AcDbLine
 10
811.3418243415662
 20
346.0638998690649
 30
0.0
 11
864.217096314381
 21
346.0638998690649
 31
0.0
  0
LINE
  5
3715
330
357C
100
AcDbEntity
  8
AM_5
100
AcDbLine
 10
811.3418243415662
 20
370.0638998690649
 30
0.0
 11
864.217096314381
 21
370.0638998690649
 31
0.0
  0
LINE
  5
3716
330
357C
100
AcDbEntity
  8
AM_5
100
AcDbLine
 10
861.2170963143809
 20
352.0638998690649
 30
0.0
 11
861.2170963143809
 21
364.0638998690649
 31
0.0
  0
SOLID
  5
3717
330
357C
100
AcDbEntity
  8
AM_5
100
AcDbTrace
 10
860.2170963143809
 20
352.0638998690649
 30
0.0
 11
862.2170963143808
 21
352.0638998690649
 31
0.0
 12
861.2170963143809
 22
346.0638998690649
 32
0.0
 13
861.2170963143809
 23
346.0638998690649
 33
0.0
  0
SOLID
  5
3718
330
357C
100
AcDbEntity
  8
AM_5
100
AcDbTrace
 10
860.2170963143809
 20
364.0638998690649
 30
0.0
 11
862.2170963143808
 21
364.0638998690649
 31
0.0
 12
861.2170963143809
 22
370.0638998690649
 32
0.0
 13
861.2170963143809
 23
370.0638998690649
 33
0.0
  0
MTEXT
  5
3719
330
357C
100
AcDbEntity
  8
AM_5
100
AcDbMText
 10
856.2170963143808
 20
358.0638998690651
 30
0.0
 40
6.0
 41
0.0
 71
     5
 72
     1
  1
24
  7
CHINESET
 11
0.0000000000000001
 21
1.0
 31
0.0
 73
     1
 44
1.0
1001
ACAD
1000
MTEXTBEGIN
1070
    73
1070
     1
1070
    44
1040
1.0
1070
    74
1070
     0
1000
MTEXTEND
  0
POINT
  5
371A
330
357C
100
AcDbEntity
  8
Defpoints
 62
     0
100
AcDbPoint
 10
808.3418243415662
 20
346.0638998690649
 30
0.0
  0
POINT
  5
371B
330
357C
100
AcDbEntity
  8
Defpoints
 62
     0
100
AcDbPoint
 10
808.3418243415662
 20
370.0638998690649
 30
0.0
  0
POINT
  5
371C
330
357C
100
AcDbEntity
  8
Defpoints
 62
     0
100
AcDbPoint
 10
861.2170963143809
 20
370.0638998690649
 30
0.0
  0
ENDBLK
  5
3589
330
357C
100
AcDbEntity
  8
0
100
AcDbBlockEnd
  0
BLOCK
  5
3596
330
358A
100
AcDbEntity
  8
0
100
AcDbBlockBegin
  2
*D78
 70
     1
 10
0.0
 20
0.0
 30
0.0
  3
*D78
  1

  0
LINE
  5
3709
330
358A
100
AcDbEntity
  8
AM_5
100
AcDbLine
 10
811.3418243415662
 20
346.0638998690649
 30
0.0
 11
837.9515430724287
 21
346.0638998690649
 31
0.0
  0
LINE
  5
370A
330
358A
100
AcDbEntity
  8
AM_5
100
AcDbLine
 10
808.8418243415663
 20
358.0638998690649
 30
0.0
 11
837.9515430724287
 21
358.0638998690649
 31
0.0
  0
LINE
  5
370B
330
358A
100
AcDbEntity
  8
AM_5
100
AcDbLine
 10
834.9515430724288
 20
364.0638998690649
 30
0.0
 11
834.9515430724288
 21
370.0638998690649
 31
0.0
  0
LINE
  5
370C
330
358A
100
AcDbEntity
  8
AM_5
100
AcDbLine
 10
834.9515430724288
 20
340.0638998690649
 30
0.0
 11
834.9515430724288
 21
300.6478238707528
 31
0.0
  0
LINE
  5
370D
330
358A
100
AcDbEntity
  8
AM_5
100
AcDbLine
 10
834.9515430724288
 20
358.0638998690649
 30
0.0
 11
834.9515430724288
 21
346.0638998690649
 31
0.0
  0
SOLID
  5
370E
330
358A
100
AcDbEntity
  8
AM_5
100
AcDbTrace
 10
833.9515430724286
 20
364.0638998690649
 30
0.0
 11
835.9515430724288
 21
364.0638998690649
 31
0.0
 12
834.9515430724288
 22
358.0638998690649
 32
0.0
 13
834.9515430724288
 23
358.0638998690649
 33
0.0
  0
SOLID
  5
370F
330
358A
100
AcDbEntity
  8
AM_5
100
AcDbTrace
 10
833.9515430724286
 20
340.0638998690649
 30
0.0
 11
835.9515430724288
 21
340.0638998690649
 31
0.0
 12
834.9515430724288
 22
346.0638998690649
 32
0.0
 13
834.9515430724288
 23
346.0638998690649
 33
0.0
  0
MTEXT
  5
3710
330
358A
100
AcDbEntity
  8
AM_5
100
AcDbMText
 10
829.9515430724285
 20
306.9335381564672
 30
0.0
 40
6.0
 41
0.0
 71
     5
 72
     1
  1
12
  7
CHINESET
 11
0.0000000000000001
 21
1.0
 31
0.0
 73
     1
 44
1.0
1001
ACAD
1000
MTEXTBEGIN
1070
    73
1070
     1
1070
    44
1040
1.0
1070
    74
1070
     0
1000
MTEXTEND
  0
POINT
  5
3711
330
358A
100
AcDbEntity
  8
Defpoints
 62
     0
100
AcDbPoint
 10
808.3418243415662
 20
346.0638998690649
 30
0.0
  0
POINT
  5
3712
330
358A
100
AcDbEntity
  8
Defpoints
 62
     0
100
AcDbPoint
 10
805.8418243415662
 20
358.0638998690649
 30
0.0
  0
POINT
  5
3713
330
358A
100
AcDbEntity
  8
Defpoints
 62
     0
100
AcDbPoint
 10
834.9515430724288
 20
358.0638998690649
 30
0.0
  0
ENDBLK
  5
3597
330
358A
100
AcDbEntity
  8
0
100
AcDbBlockEnd
  0
BLOCK
  5
359F
330
3598
100
AcDbEntity
  8
0
100
AcDbBlockBegin
  2
*D79
 70
     1
 10
0.0
 20
0.0
 30
0.0
  3
*D79
  1

  0
LINE
  5
3736
330
3598
100
AcDbEntity
  8
AM_5
100
AcDbLine
 10
766.8778949733333
 20
394.2899409280526
 30
0.0
 11
791.4565565130702
 21
365.9912630454247
 31
0.0
  0
LINE
  5
3737
330
3598
100
AcDbEntity
  8
AM_5
100
AcDbLine
 10
805.2270921700644
 20
350.13653669271
 30
0.0
 11
809.1615309292057
 21
345.6066148776487
 31
0.0
  0
MTEXT
  5
3738
330
3598
100
AcDbEntity
  8
AM_5
100
AcDbMText
 10
774.9619770316104
 20
392.6072969536983
 30
0.0
 40
6.0
 41
0.0
 71
     5
 72
     1
  1
\U+22059
  7
CHINESET
 11
0.6557397931901897
 21
-0.7549869691768773
 31
0.0
 73
     1
 44
1.0
1001
ACAD
1000
MTEXTBEGIN
1070
    73
1070
     1
1070
    44
1040
1.0
1070
    74
1070
     0
1000
MTEXTEND
  0
LINE
  5
3739
330
3598
100
AcDbEntity
  8
AM_5
100
AcDbLine
 10
801.2926534109233
 20
354.6664585077713
 30
0.0
 11
795.3909952722113
 21
361.4613412303635
 31
0.0
  0
SOLID
  5
373A
330
3598
100
AcDbEntity
  8
AM_5
100
AcDbTrace
 10
805.9820791392414
 20
350.7922764859001
 30
0.0
 11
804.4721052008876
 21
349.4807968995198
 31
0.0
 12
801.2926534109233
 22
354.6664585077713
 32
0.0
 13
801.2926534109233
 23
354.6664585077713
 33
0.0
  0
SOLID
  5
373B
330
3598
100
AcDbEntity
  8
AM_5
100
AcDbTrace
 10
792.2115434822472
 20
366.6470028386149
 30
0.0
 11
790.7015695438933
 21
365.3355232522346
 31
0.0
 12
795.3909952722113
 22
361.4613412303635
 32
0.0
 13
795.3909952722113
 23
361.4613412303635
 33
0.0
  0
POINT
  5
373C
330
3598
100
AcDbEntity
  8
Defpoints
 62
     0
100
AcDbPoint
 10
795.3909952722113
 20
361.4613412303635
 30
0.0
  0
POINT
  5
373D
330
3598
100
AcDbEntity
  8
Defpoints
 62
     0
100
AcDbPoint
 10
801.2926534109233
 20
354.6664585077713
 30
0.0
  0
ENDBLK
  5
35A0
330
3598
100
AcDbEntity
  8
0
100
AcDbBlockEnd
  0
BLOCK
  5
35AD
330
35A1
100
AcDbEntity
  8
0
100
AcDbBlockBegin
  2
*D80
 70
     1
 10
0.0
 20
0.0
 30
0.0
  3
*D80
  1

  0
LINE
  5
3726
330
35A1
100
AcDbEntity
  8
AM_5
100
AcDbLine
 10
811.3418243415662
 20
405.2767732785084
 30
0.0
 11
830.9232700666209
 21
405.2767732785084
 31
0.0
  0
LINE
  5
3727
330
35A1
100
AcDbEntity
  8
AM_5
100
AcDbLine
 10
811.3418243415662
 20
406.8767732785083
 30
0.0
 11
830.9232700666209
 21
406.8767732785083
 31
0.0
  0
LINE
  5
3728
330
35A1
100
AcDbEntity
  8
AM_5
100
AcDbLine
 10
827.9232700666208
 20
399.2767732785085
 30
0.0
 11
827.9232700666208
 21
393.2767732785085
 31
0.0
  0
LINE
  5
3729
330
35A1
100
AcDbEntity
  8
AM_5
100
AcDbLine
 10
827.9232700666208
 20
412.8767732785084
 30
0.0
 11
827.9232700666208
 21
452.1267732785084
 31
0.0
  0
LINE
  5
372A
330
35A1
100
AcDbEntity
  8
AM_5
100
AcDbLine
 10
827.9232700666208
 20
405.2767732785084
 30
0.0
 11
827.9232700666208
 21
406.8767732785083
 31
0.0
  0
SOLID
  5
372B
330
35A1
100
AcDbEntity
  8
AM_5
100
AcDbTrace
 10
826.9232700666208
 20
399.2767732785085
 30
0.0
 11
828.9232700666207
 21
399.2767732785085
 31
0.0
 12
827.9232700666208
 22
405.2767732785084
 32
0.0
 13
827.9232700666208
 23
405.2767732785084
 33
0.0
  0
SOLID
  5
372C
330
35A1
100
AcDbEntity
  8
AM_5
100
AcDbTrace
 10
826.9232700666208
 20
412.8767732785084
 30
0.0
 11
828.9232700666207
 21
412.8767732785084
 31
0.0
 12
827.9232700666208
 22
406.8767732785083
 32
0.0
 13
827.9232700666208
 23
406.8767732785083
 33
0.0
  0
MTEXT
  5
372D
330
35A1
100
AcDbEntity
  8
AM_5
100
AcDbMText
 10
822.9232700666207
 20
448.1267732785085
 30
0.0
 40
6.0
 41
0.0
 71
     5
 72
     1
  1
2
  7
CHINESET
 11
0.0000000000000001
 21
1.0
 31
0.0
 73
     1
 44
1.0
1001
ACAD
1000
MTEXTBEGIN
1070
    73
1070
     1
1070
    44
1040
1.0
1070
    74
1070
     0
1000
MTEXTEND
  0
POINT
  5
372E
330
35A1
100
AcDbEntity
  8
Defpoints
 62
     0
100
AcDbPoint
 10
808.3418243415662
 20
405.2767732785084
 30
0.0
  0
POINT
  5
372F
330
35A1
100
AcDbEntity
  8
Defpoints
 62
     0
100
AcDbPoint
 10
808.3418243415662
 20
406.8767732785083
 30
0.0
  0
POINT
  5
3730
330
35A1
100
AcDbEntity
  8
Defpoints
 62
     0
100
AcDbPoint
 10
827.9232700666208
 20
406.8767732785083
 30
0.0
  0
ENDBLK
  5
35AE
330
35A1
100
AcDbEntity
  8
0
100
AcDbBlockEnd
  0
BLOCK
  5
35B9
330
35AF
100
AcDbEntity
  8
0
100
AcDbBlockBegin
  2
*D81
 70
     1
 10
0.0
 20
0.0
 30
0.0
  3
*D81
  1

  0
LINE
  5
371D
330
35AF
100
AcDbEntity
  8
AM_5
100
AcDbLine
 10
811.3418243415662
 20
405.2767732785084
 30
0.0
 11
864.2170963143808
 21
405.2767732785084
 31
0.0
  0
LINE
  5
371E
330
35AF
100
AcDbEntity
  8
AM_5
100
AcDbLine
 10
748.8418243415662
 20
486.2767732785084
 30
0.0
 11
864.2170963143808
 21
486.2767732785084
 31
0.0
  0
LINE
  5
371F
330
35AF
100
AcDbEntity
  8
AM_5
100
AcDbLine
 10
861.2170963143809
 20
411.2767732785084
 30
0.0
 11
861.2170963143809
 21
480.2767732785084
 31
0.0
  0
SOLID
  5
3720
330
35AF
100
AcDbEntity
  8
AM_5
100
AcDbTrace
 10
860.2170963143807
 20
411.2767732785084
 30
0.0
 11
862.2170963143808
 21
411.2767732785084
 31
0.0
 12
861.2170963143809
 22
405.2767732785084
 32
0.0
 13
861.2170963143809
 23
405.2767732785084
 33
0.0
  0
SOLID
  5
3721
330
35AF
100
AcDbEntity
  8
AM_5
100
AcDbTrace
 10
860.2170963143807
 20
480.2767732785084
 30
0.0
 11
862.2170963143808
 21
480.2767732785084
 31
0.0
 12
861.2170963143809
 22
486.2767732785084
 32
0.0
 13
861.2170963143809
 23
486.2767732785084
 33
0.0
  0
MTEXT
  5
3722
330
35AF
100
AcDbEntity
  8
AM_5
100
AcDbMText
 10
856.2170963143806
 20
445.7767732785085
 30
0.0
 40
6.0
 41
0.0
 71
     5
 72
     1
  1
81
  7
CHINESET
 11
0.0000000000000001
 21
1.0
 31
0.0
 73
     1
 44
1.0
1001
ACAD
1000
MTEXTBEGIN
1070
    73
1070
     1
1070
    44
1040
1.0
1070
    74
1070
     0
1000
MTEXTEND
  0
POINT
  5
3723
330
35AF
100
AcDbEntity
  8
Defpoints
 62
     0
100
AcDbPoint
 10
808.3418243415662
 20
405.2767732785084
 30
0.0
  0
POINT
  5
3724
330
35AF
100
AcDbEntity
  8
Defpoints
 62
     0
100
AcDbPoint
 10
745.8418243415662
 20
486.2767732785084
 30
0.0
  0
POINT
  5
3725
330
35AF
100
AcDbEntity
  8
Defpoints
 62
     0
100
AcDbPoint
 10
861.2170963143809
 20
486.2767732785084
 30
0.0
  0
ENDBLK
  5
35BA
330
35AF
100
AcDbEntity
  8
0
100
AcDbBlockEnd
  0
BLOCK
  5
35C2
330
35BB
100
AcDbEntity
  8
0
100
AcDbBlockBegin
  2
*D82
 70
     1
 10
0.0
 20
0.0
 30
0.0
  3
*D82
  1

  0
LINE
  5
3731
330
35BB
100
AcDbEntity
  8
AM_5
100
AcDbLine
 10
753.2306036819513
 20
447.169634484271
 30
0.0
 11
778.0576869611705
 21
455.5459128799127
 31
0.0
  0
MTEXT
  5
3732
330
35BB
100
AcDbEntity
  8
AM_5
100
AcDbMText
 10
760.701372209112
 20
454.967061143852
 30
0.0
 40
6.0
 41
0.0
 71
     5
 72
     1
  1
\U+220580
  7
CHINESET
 11
0.9475253711648068
 21
0.319680576511922
 31
0.0
 73
     1
 44
1.0
1001
ACAD
1000
MTEXTBEGIN
1070
    73
1070
     1
1070
    44
1040
1.0
1070
    74
1070
     0
1000
MTEXTEND
  0
SOLID
  5
3733
330
35BB
100
AcDbEntity
  8
AM_5
100
AcDbTrace
 10
777.7380063846585
 20
456.4934382510775
 30
0.0
 11
778.3773675376823
 21
454.5983875087479
 31
0.0
 12
783.7428391881592
 22
457.4639963389842
 32
0.0
 13
783.7428391881592
 23
457.4639963389842
 33
0.0
  0
POINT
  5
3734
330
35BB
100
AcDbEntity
  8
Defpoints
 62
     0
100
AcDbPoint
 10
783.7428391881592
 20
457.4639963389842
 30
0.0
  0
POINT
  5
3735
330
35BB
100
AcDbEntity
  8
Defpoints
 62
     0
100
AcDbPoint
 10
707.9408094949728
 20
431.8895502180298
 30
0.0
  0
ENDBLK
  5
35C3
330
35BB
100
AcDbEntity
  8
0
100
AcDbBlockEnd
  0
ENDSEC
  0
SECTION
  2
ENTITIES
  0
LWPOLYLINE
  5
189A
330
1F
100
AcDbEntity
  8
LOGO
 62
     4
100
AcDbPolyline
 90
        4
 70
     1
 43
0.0
 10
353.1770515554527
 20
161.8743835569283
 10
882.8539894397833
 20
161.8743835569283
 10
882.8539894397836
 20
740.2209515207283
 10
353.1770515554527
 20
740.2209515207283
1001
GENIUS_GENREC_14
1002
{
1000
PYDIR
1011
353.1770515554527
1021
740.2209515207283
1031
0.0
1002
}
1002
{
1000
PXDIR
1011
882.8539894397833
1021
161.8743835569283
1031
0.0
1002
}
1002
{
1000
PORI
1011
353.1770515554527
1021
161.8743835569283
1031
0.0
1002
}
1002
{
1000
PINS
1011
353.1770515554527
1021
161.8743835569283
1031
0.0
1002
}
1002
{
1000
PINS2
1011
882.8539894397836
1021
740.2209515207283
1031
0.0
1002
}
1002
{
1000
C
1070
     1
1002
}
1001
GENIUS_GENODEF_13
1002
{
1000
HIER
1070
     0
1002
}
1002
{
1000
MANEDIT
1070
     0
1002
}
1002
{
1000
NOSEL
1070
     0
1002
}
1002
{
1000
BEHIND
1070
     0
1002
}
1002
{
1000
OTHER
1070
     0
1002
}
1002
{
1000
REACTOR
1002
}
1001
GENIUS_GENOBJ-N-REC_13
1002
{
1000
OWNER
1000
GEN
1002
}
  0
LWPOLYLINE
  5
189B
330
1F
100
AcDbEntity
  8
LOGO
 62
     4
100
AcDbPolyline
 90
        4
 70
     1
 43
0.0
 10
353.1770515554527
 20
161.8743835569283
 10
882.8539894397833
 20
161.8743835569283
 10
882.8539894397833
 20
116.5209515207283
 10
353.1770515554527
 20
116.5209515207283
1001
GENIUS_GENREC_14
1002
{
1000
PYDIR
1011
353.1770515554527
1021
116.5209515207283
1031
0.0
1002
}
1002
{
1000
PXDIR
1011
882.8539894397833
1021
161.8743835569283
1031
0.0
1002
}
1002
{
1000
PORI
1011
353.1770515554527
1021
161.8743835569283
1031
0.0
1002
}
1002
{
1000
PINS
1011
353.1770515554527
1021
161.8743835569283
1031
0.0
1002
}
1002
{
1000
PINS2
1011
882.8539894397833
1021
116.5209515207283
1031
0.0
1002
}
1002
{
1000
C
1070
     1
1002
}
1001
GENIUS_GENOBJ-N-REC_13
1002
{
1000
OWNER
1000
GEN
1002
}
1001
GENIUS_GENODEF_13
1002
{
1000
HIER
1070
     0
1002
}
1002
{
1000
MANEDIT
1070
     0
1002
}
1002
{
1000
NOSEL
1070
     0
1002
}
1002
{
1000
BEHIND
1070
     0
1002
}
1002
{
1000
OTHER
1070
     0
1002
}
1002
{
1000
REACTOR
1002
}
  0
TEXT
  5
189C
330
1F
100
AcDbEntity
  8
LOGO
 62
     7
100
AcDbText
 10
455.582098041721
 20
142.0058167364617
 30
0.0
 40
6.047124271493212
  1
Order example:
 41
0.8
  7
CHINESET
100
AcDbText
  0
TEXT
  5
189D
330
1F
100
AcDbEntity
  8
LOGO
 62
     7
100
AcDbText
 10
456.6670021437102
 20
150.5189156376675
 30
0.0
 40
9.070686407239819
  1
訂購代號：
  7
CHINESET
100
AcDbText
  0
LINE
  5
189E
330
1F
100
AcDbEntity
  8
LOGO
 62
     4
100
AcDbLine
 10
452.9546020350908
 20
116.5209515207289
 30
0.0
 11
452.9546020350908
 21
161.8743835569282
 31
0.0
  0
TEXT
  5
189F
330
1F
100
AcDbEntity
  8
LOGO
  6
Continuous
100
AcDbText
 10
369.468208210477
 20
125.4305647999435
 30
0.0
 40
6.803014805429863
  1
金器工業股份有限公司
  7
CHINESET
100
AcDbText
  0
TEXT
  5
18A0
330
1F
100
AcDbEntity
  8
LOGO
  6
Continuous
100
AcDbText
 10
356.9724159230084
 20
118.6262171369889
 30
0.0
 40
4.535343203619909
  1
MINDMAN INDUSTRIAL CO., LTD.
 41
0.85
  7
CHINESET
100
AcDbText
  0
LINE
  5
18A1
330
1F
100
AcDbEntity
  8
LOGO
 62
     4
100
AcDbLine
 10
452.9546020350908
 20
152.8036971496884
 30
0.0
 11
386.4362350486651
 21
152.8036971496884
 31
0.0
  0
LINE
  5
18A2
330
1F
100
AcDbEntity
  8
LOGO
 62
     4
100
AcDbLine
 10
452.9546020350908
 20
143.7330107424486
 30
0.0
 11
386.4362350486651
 21
143.7330107424486
 31
0.0
  0
LINE
  5
18A3
330
1F
100
AcDbEntity
  8
LOGO
 62
     4
100
AcDbLine
 10
452.9546020350908
 20
134.6623243352091
 30
0.0
 11
353.1770515554527
 21
134.6623243352091
 31
0.0
  0
LINE
  5
18A4
330
1F
100
AcDbEntity
  8
LOGO
 62
     4
100
AcDbLine
 10
386.4362350486651
 20
134.6623243352091
 30
0.0
 11
386.4362350486651
 21
161.8743835569282
 31
0.0
  0
TEXT
  5
18A5
330
1F
100
AcDbEntity
  8
LOGO
100
AcDbText
 10
431.8983992647877
 20
136.9299959370183
 30
0.0
 40
4.535343203619909
  1
mm
  7
CHINESET
 72
     1
 11
437.5135860883171
 21
139.1976675388283
 31
0.0
100
AcDbText
 73
     2
  0
TEXT
  5
18A6
330
1F
100
AcDbEntity
  8
LOGO
100
AcDbText
 10
429.5227433009867
 20
155.0713687514981
 30
0.0
 40
4.535343203619909
  1
1 : 1
  7
CHINESET
 72
     1
 11
437.5135860883171
 21
157.339040353308
 31
0.0
100
AcDbText
 73
     2
  0
LINE
  5
18A7
330
1F
100
AcDbEntity
  8
LOGO
 62
     4
100
AcDbLine
 10
422.7189806776245
 20
134.6623243352091
 30
0.0
 11
422.7189806776245
 21
161.8743835569282
 31
0.0
  0
CIRCLE
  5
18A8
330
1F
100
AcDbEntity
  8
LOGO
  6
Continuous
100
AcDbCircle
 10
431.1167358908871
 20
148.2780550783699
 30
0.0
 40
2.633327013967191
  0
CIRCLE
  5
18A9
330
1F
100
AcDbEntity
  8
LOGO
  6
Continuous
100
AcDbCircle
 10
431.1167358908871
 20
148.2780550783699
 30
0.0
 40
1.542896514933574
  0
LINE
  5
18AA
330
1F
100
AcDbEntity
  8
LOGO
100
AcDbLine
 10
447.664868405002
 20
145.6447280644021
 30
0.0
 11
447.664868405002
 21
150.9113820923376
 31
0.0
  0
LINE
  5
18AB
330
1F
100
AcDbEntity
  8
LOGO
100
AcDbLine
 10
439.4095393763985
 20
146.7351585634366
 30
0.0
 11
439.4095393763985
 21
149.8209515933038
 31
0.0
  0
LINE
  5
18AC
330
1F
100
AcDbEntity
  8
LOGO
  6
Continuous
100
AcDbLine
 10
439.4095393763985
 20
149.8209515933038
 30
0.0
 11
447.664868405002
 21
150.9113820923376
 31
0.0
  0
LINE
  5
18AD
330
1F
100
AcDbEntity
  8
LOGO
  6
Continuous
100
AcDbLine
 10
439.4095393763985
 20
146.7351585634366
 30
0.0
 11
447.664868405002
 21
145.6447280644021
 31
0.0
  0
TEXT
  5
18AE
330
1F
100
AcDbEntity
  8
LOGO
100
AcDbText
 10
390.1758684848644
 20
155.0736007117361
 30
297.2389220237929
 40
4.535343203619909
  1
比例 Scale:
 41
0.9
  7
CHINESET
 72
     4
 11
404.5776078631448
 21
157.339040353308
 31
297.2389220237929
100
AcDbText
  0
TEXT
  5
18AF
330
1F
100
AcDbEntity
  8
LOGO
100
AcDbText
 10
389.9146813092987
 20
146.0644792077278
 30
297.2389220237929
 40
4.535343203619909
  1
投影  View:
 41
0.9
  7
CHINESET
 72
     4
 11
404.5776078631448
 21
148.2683539460682
 31
297.2389220237929
100
AcDbText
  0
TEXT
  5
18B0
330
1F
100
AcDbEntity
  8
LOGO
100
AcDbText
 10
390.358092095724
 20
136.9299959370183
 30
297.2389220237929
 40
4.535343203619909
  1
單位  Unit:
 41
0.9
  7
CHINESET
 72
     4
 11
404.5776078631448
 21
139.1976675388283
 31
297.2389220237929
100
AcDbText
  0
SOLID
  5
18B1
330
1F
100
AcDbEntity
  8
LOGO
 62
     5
100
AcDbTrace
 10
357.8825429159303
 20
142.2016868559564
 30
0.0
 11
359.8435063097698
 21
142.2016868559559
 31
0.0
 12
368.0254570219967
 22
160.797029383746
 32
0.0
 13
369.9864204158373
 23
160.797029383745
 33
0.0
  0
SOLID
  5
18B2
330
1F
100
AcDbEntity
  8
LOGO
 62
     5
100
AcDbTrace
 10
360.6549394382573
 20
142.2016868559564
 30
0.0
 11
362.6159028320968
 21
142.2016868559564
 31
0.0
 12
369.9864204158373
 22
159.3094019815221
 32
0.0
 13
368.0254570219967
 23
152.1192028707768
 33
0.0
  0
SOLID
  5
18B3
330
1F
100
AcDbEntity
  8
LOGO
 62
     2
100
AcDbTrace
 10
359.8435063097698
 20
142.2016868559559
 30
0.0
 11
360.6549394382573
 21
142.2016868559564
 31
0.0
 12
369.9864204158373
 22
160.797029383745
 32
0.0
 13
370.7978535443237
 23
160.797029383745
 33
0.0
  0
SOLID
  5
18B4
330
1F
100
AcDbEntity
  8
LOGO
 62
     5
100
AcDbTrace
 10
354.7386377084759
 20
135.4397441185791
 30
0.0
 11
355.4148319822144
 21
135.4397441185791
 31
0.0
 12
357.3190476878161
 22
138.8207154872675
 32
0.0
 13
357.9952419615525
 23
138.8207154872675
 33
0.0
  0
SOLID
  5
18B5
330
1F
100
AcDbEntity
  8
LOGO
 62
     5
100
AcDbTrace
 10
357.3190476878161
 20
138.8207154872675
 30
0.0
 11
357.9952419615525
 21
138.8207154872675
 31
0.0
 12
357.3190476878161
 22
135.4397441185791
 32
0.0
 13
357.9952419615525
 23
135.4397441185791
 33
0.0
  0
SOLID
  5
18B6
330
1F
100
AcDbEntity
  8
LOGO
 62
     5
100
AcDbTrace
 10
357.3190476878161
 20
135.4397441185791
 30
0.0
 11
357.9952419615525
 21
135.4397441185791
 31
0.0
 12
359.8994576671573
 22
138.8207154872675
 32
0.0
 13
360.5756519408948
 23
138.8207154872675
 33
0.0
  0
SOLID
  5
18B7
330
1F
100
AcDbEntity
  8
LOGO
 62
     5
100
AcDbTrace
 10
359.8994576671573
 20
138.8207154872675
 30
0.0
 11
360.5756519408948
 21
138.8207154872675
 31
0.0
 12
359.8994576671573
 22
135.4397441185791
 32
0.0
 13
360.5756519408948
 23
135.4397441185791
 33
0.0
  0
POLYLINE
  5
18B8
330
1F
100
AcDbEntity
  8
LOGO
 62
     5
100
AcDb2dPolyline
 66
     1
 10
0.0
 20
0.0
 30
0.0
 40
0.6772779184072397
 41
0.6772779184072397
  0
VERTEX
  5
18B9
330
18B8
100
AcDbEntity
  8
LOGO
 62
     5
100
AcDbVertex
100
AcDb2dVertex
 10
382.5652593743653
 20
137.468326939792
 30
0.0
 42
1.0
  0
VERTEX
  5
18BA
330
18B8
100
AcDbEntity
  8
LOGO
 62
     5
100
AcDbVertex
100
AcDb2dVertex
 10
380.5334256191431
 20
137.468326939792
 30
0.0
 42
1.0
  0
SEQEND
  5
18BB
330
18B8
100
AcDbEntity
  8
LOGO
 62
     5
  0
POLYLINE
  5
18BC
330
1F
100
AcDbEntity
  8
LOGO
 62
     5
100
AcDb2dPolyline
 66
     1
 10
0.0
 20
0.0
 30
0.0
 70
     1
  0
VERTEX
  5
18BD
330
18BC
100
AcDbEntity
  8
LOGO
 62
     5
100
AcDbVertex
100
AcDb2dVertex
 10
376.7033286145836
 20
137.1302298029227
 30
0.0
 42
1.000000057330635
  0
VERTEX
  5
18BE
330
18BC
100
AcDbEntity
  8
LOGO
 62
     5
100
AcDbVertex
100
AcDb2dVertex
 10
378.7319114357971
 20
137.1302298029227
 30
0.0
 42
1.000000057330635
  0
SEQEND
  5
18BF
330
18BC
100
AcDbEntity
  8
LOGO
 62
     5
  0
CIRCLE
  5
18C0
330
1F
100
AcDbEntity
  8
LOGO
 62
     5
100
AcDbCircle
 10
377.7176200251919
 20
137.1302298029227
 30
0.0
 40
1.014291410606682
  0
POLYLINE
  5
18C1
330
1F
100
AcDbEntity
  8
LOGO
 62
     5
100
AcDb2dPolyline
 66
     1
 10
0.0
 20
0.0
 30
0.0
 70
     1
 40
0.6772779184072397
 41
0.6772779184072397
  0
VERTEX
  5
18C2
330
18C1
100
AcDbEntity
  8
LOGO
 62
     5
100
AcDbVertex
100
AcDb2dVertex
 10
376.3630641883764
 20
137.1302298029227
 30
0.0
 42
1.0
  0
VERTEX
  5
18C3
330
18C1
100
AcDbEntity
  8
LOGO
 62
     5
100
AcDbVertex
100
AcDb2dVertex
 10
379.0721758620052
 20
137.1302298029227
 30
0.0
 42
1.0
  0
SEQEND
  5
18C4
330
18C1
100
AcDbEntity
  8
LOGO
 62
     5
  0
LINE
  5
18C5
330
1F
100
AcDbEntity
  8
LOGO
100
AcDbLine
 10
382.9017310442286
 20
135.4397441185791
 30
0.0
 11
382.9017310442286
 21
137.468326939792
 31
0.0
  0
SOLID
  5
18C6
330
1F
100
AcDbEntity
  8
LOGO
 62
     5
100
AcDbTrace
 10
378.7318438163727
 20
138.8207154872675
 30
0.0
 11
379.4080380901091
 21
138.8207154872675
 31
0.0
 12
378.7318438163727
 22
135.4397441185791
 32
0.0
 13
379.4080380901091
 23
135.4397441185791
 33
0.0
  0
SOLID
  5
18C7
330
1F
100
AcDbEntity
  8
LOGO
 62
     5
100
AcDbTrace
 10
380.1969539492777
 20
135.4397441185791
 30
0.0
 11
380.8731482230162
 21
135.4397441185791
 31
0.0
 12
380.1969539492777
 22
138.8207154872675
 32
0.0
 13
380.8731482230162
 23
138.8207154872675
 33
0.0
  0
SOLID
  5
18C8
330
1F
100
AcDbEntity
  8
LOGO
 62
     5
100
AcDbTrace
 10
382.2255367704922
 20
137.468326939792
 30
0.0
 11
382.9017310442286
 21
137.468326939792
 31
0.0
 12
382.2255367704922
 22
135.4397441185791
 32
0.0
 13
382.9017310442286
 23
135.4397441185791
 33
0.0
  0
SOLID
  5
18C9
330
1F
100
AcDbEntity
  8
LOGO
 62
     5
100
AcDbTrace
 10
380.1293345219037
 20
159.3094019815221
 30
0.0
 11
378.1683711280653
 21
152.1192028707768
 31
0.0
 12
380.1293345219037
 22
142.2016868559559
 32
0.0
 13
378.1683711280653
 23
142.2016868559559
 33
0.0
  0
SOLID
  5
18CA
330
1F
100
AcDbEntity
  8
LOGO
 62
     5
100
AcDbTrace
 10
380.9407676503902
 20
142.2016868559559
 30
0.0
 11
382.9017310442286
 21
142.2016868559559
 31
0.0
 12
380.9407676503902
 22
160.797029383745
 32
0.0
 13
382.9017310442286
 23
160.797029383746
 33
0.0
  0
SOLID
  5
18CB
330
1F
100
AcDbEntity
  8
LOGO
 62
     2
100
AcDbTrace
 10
380.1293345219037
 20
160.797029383746
 30
0.0
 11
380.9407676503902
 21
160.797029383745
 31
0.0
 12
380.1293345219037
 22
142.2016868559559
 32
0.0
 13
380.9407676503902
 23
142.2016868559559
 33
0.0
  0
POLYLINE
  5
18CC
330
1F
100
AcDbEntity
  8
LOGO
 62
     5
100
AcDb2dPolyline
 66
     1
 10
0.0
 20
0.0
 30
0.0
 40
0.6772779184072397
 41
0.6772779184072397
  0
VERTEX
  5
18CD
330
18CC
100
AcDbEntity
  8
LOGO
 62
     5
100
AcDbVertex
100
AcDb2dVertex
 10
372.8730963711722
 20
137.468326939792
 30
0.0
 42
1.0
  0
VERTEX
  5
18CE
330
18CC
100
AcDbEntity
  8
LOGO
 62
     5
100
AcDbVertex
100
AcDb2dVertex
 10
370.8412626159501
 20
137.468326939792
 30
0.0
 42
1.0
  0
SEQEND
  5
18CF
330
18CC
100
AcDbEntity
  8
LOGO
 62
     5
  0
POLYLINE
  5
18D0
330
1F
100
AcDbEntity
  8
LOGO
 62
     5
100
AcDb2dPolyline
 66
     1
 10
0.0
 20
0.0
 30
0.0
 40
0.6772779184072397
 41
0.6772779184072397
  0
VERTEX
  5
18D1
330
18D0
100
AcDbEntity
  8
LOGO
 62
     5
100
AcDbVertex
100
AcDb2dVertex
 10
374.9016791923836
 20
137.468326939792
 30
0.0
 42
1.0
  0
VERTEX
  5
18D2
330
18D0
100
AcDbEntity
  8
LOGO
 62
     5
100
AcDbVertex
100
AcDb2dVertex
 10
372.8698454371626
 20
137.468326939792
 30
0.0
 42
1.0
  0
SEQEND
  5
18D3
330
18D0
100
AcDbEntity
  8
LOGO
 62
     5
  0
POLYLINE
  5
18D4
330
1F
100
AcDbEntity
  8
LOGO
 62
     5
100
AcDb2dPolyline
 66
     1
 10
0.0
 20
0.0
 30
0.0
 40
0.6772779184072397
 41
0.6772779184072397
  0
VERTEX
  5
18D5
330
18D4
100
AcDbEntity
  8
LOGO
 62
     5
100
AcDbVertex
100
AcDb2dVertex
 10
365.2095161891906
 20
137.468326939792
 30
0.0
 42
1.0
  0
VERTEX
  5
18D6
330
18D4
100
AcDbEntity
  8
LOGO
 62
     5
100
AcDbVertex
100
AcDb2dVertex
 10
363.1776824339695
 20
137.468326939792
 30
0.0
 42
1.0
  0
SEQEND
  5
18D7
330
18D4
100
AcDbEntity
  8
LOGO
 62
     5
  0
SOLID
  5
18D8
330
1F
100
AcDbEntity
  8
LOGO
 62
     5
100
AcDbTrace
 10
362.8412107641051
 20
138.8207154872675
 30
0.0
 11
363.5174050378415
 21
138.8207154872675
 31
0.0
 12
362.8412107641051
 22
135.4397441185791
 32
0.0
 13
363.5174050378415
 23
135.4397441185791
 33
0.0
  0
SOLID
  5
18D9
330
1F
100
AcDbEntity
  8
LOGO
 62
     5
100
AcDbTrace
 10
364.8697935853186
 20
137.468326939792
 30
0.0
 11
365.545987859057
 21
137.468326939792
 31
0.0
 12
364.8697935853186
 22
135.4397441185791
 32
0.0
 13
365.545987859057
 23
135.4397441185791
 33
0.0
  0
POLYLINE
  5
18DA
330
1F
100
AcDbEntity
  8
LOGO
 62
     5
100
AcDb2dPolyline
 66
     1
 10
0.0
 20
0.0
 30
0.0
 70
     1
 40
0.6772779184072397
 41
0.6772779184072397
  0
VERTEX
  5
18DB
330
18DA
100
AcDbEntity
  8
LOGO
 62
     5
100
AcDbVertex
100
AcDb2dVertex
 10
366.6709011851823
 20
137.1302298029227
 30
0.0
 42
1.0
  0
VERTEX
  5
18DC
330
18DA
100
AcDbEntity
  8
LOGO
 62
     5
100
AcDbVertex
100
AcDb2dVertex
 10
369.3800128588122
 20
137.1302298029227
 30
0.0
 42
1.0
  0
SEQEND
  5
18DD
330
18DA
100
AcDbEntity
  8
LOGO
 62
     5
  0
SOLID
  5
18DE
330
1F
100
AcDbEntity
  8
LOGO
 62
     5
100
AcDbTrace
 10
369.0396808131776
 20
139.8350068978747
 30
0.0
 11
369.715875086915
 21
139.8350068978747
 31
0.0
 12
369.0396808131776
 22
135.4397441185791
 32
0.0
 13
369.715875086915
 23
135.4397441185791
 33
0.0
  0
SOLID
  5
18DF
330
1F
100
AcDbEntity
  8
LOGO
 62
     5
100
AcDbTrace
 10
370.5047909460867
 20
138.8207154872675
 30
0.0
 11
371.1809852198231
 21
138.8207154872675
 31
0.0
 12
370.5047909460867
 22
135.4397441185791
 32
0.0
 13
371.1809852198231
 23
135.4397441185791
 33
0.0
  0
SOLID
  5
18E0
330
1F
100
AcDbEntity
  8
LOGO
 62
     5
100
AcDbTrace
 10
372.5333737672981
 20
137.468326939792
 30
0.0
 11
373.2095680410366
 21
137.468326939792
 31
0.0
 12
372.5333737672981
 22
135.4397441185791
 32
0.0
 13
373.2095680410366
 23
135.4397441185791
 33
0.0
  0
SOLID
  5
18E1
330
1F
100
AcDbEntity
  8
LOGO
 62
     5
100
AcDbTrace
 10
374.5619565885117
 20
137.468326939792
 30
0.0
 11
375.238150862249
 21
137.468326939792
 31
0.0
 12
374.5619565885117
 22
135.439744118578
 32
0.0
 13
375.238150862249
 23
135.439744118578
 33
0.0
  0
SOLID
  5
18E2
330
1F
100
AcDbEntity
  8
LOGO
 62
     5
100
AcDbTrace
 10
361.376100631197
 20
139.2940514788841
 30
0.0
 11
362.0522949049365
 21
139.2940514788841
 31
0.0
 12
361.376100631197
 22
139.8350068978747
 32
0.0
 13
362.0522949049365
 23
139.8350068978747
 33
0.0
  0
SOLID
  5
18E3
330
1F
100
AcDbEntity
  8
LOGO
 62
     5
100
AcDbTrace
 10
361.376100631197
 20
138.8207154872675
 30
0.0
 11
362.0522949049365
 21
138.8207154872675
 31
0.0
 12
361.376100631197
 22
135.439744118578
 32
0.0
 13
362.0522949049365
 23
135.4397441185791
 33
0.0
  0
SOLID
  5
18E4
330
1F
100
AcDbEntity
  8
LOGO
 62
     5
100
AcDbTrace
 10
368.0254570219967
 20
142.2016868559564
 30
0.0
 11
369.9864204158373
 21
142.2016868559564
 31
0.0
 12
368.0254570219967
 22
152.1192028707768
 32
0.0
 13
369.9864204158373
 23
159.3094019815221
 33
0.0
  0
SOLID
  5
18E5
330
1F
100
AcDbEntity
  8
LOGO
 62
     5
100
AcDbTrace
 10
370.7978535443237
 20
160.797029383745
 30
0.0
 11
372.7588169381622
 21
160.797029383746
 31
0.0
 12
370.7978535443237
 22
143.6893142581793
 32
0.0
 13
372.7588169381622
 23
150.8795133689245
 33
0.0
  0
SOLID
  5
18E6
330
1F
100
AcDbEntity
  8
LOGO
 62
     2
100
AcDbTrace
 10
369.9864204158373
 20
160.797029383745
 30
0.0
 11
370.7978535443237
 21
160.797029383745
 31
0.0
 12
369.9864204158373
 22
142.2016868559564
 32
0.0
 13
370.7978535443237
 23
142.2016868559564
 33
0.0
  0
SOLID
  5
18E7
330
1F
100
AcDbEntity
  8
LOGO
 62
     5
100
AcDbTrace
 10
370.7978535443237
 20
143.6893142581793
 30
0.0
 11
372.7588169381622
 21
150.8795133689245
 31
0.0
 12
380.1293345219037
 22
160.797029383746
 32
0.0
 13
378.1683711280653
 23
160.797029383746
 33
0.0
  0
SOLID
  5
18E8
330
1F
100
AcDbEntity
  8
LOGO
 62
     5
100
AcDbTrace
 10
370.7978535443237
 20
142.2016868559564
 30
0.0
 11
372.7588169381622
 21
142.2016868559564
 31
0.0
 12
380.1293345219037
 22
159.3094019815221
 32
0.0
 13
378.1683711280653
 23
152.1192028707768
 33
0.0
  0
SOLID
  5
18E9
330
1F
100
AcDbEntity
  8
LOGO
 62
     2
100
AcDbTrace
 10
369.9864204158373
 20
142.2016868559564
 30
0.0
 11
370.7978535443237
 21
142.2016868559564
 31
0.0
 12
380.1293345219037
 22
160.797029383746
 32
0.0
 13
380.9407676503902
 23
160.797029383745
 33
0.0
  0
LINE
  5
18EA
330
1F
100
AcDbEntity
  8
LOGO
 62
     4
100
AcDbLine
 10
559.1609989985292
 20
136.9299959370192
 30
0.0
 11
559.1609989985292
 21
120.300404190412
 31
0.0
  0
LINE
  5
18EB
330
1F
100
AcDbEntity
  8
LOGO
 62
     4
100
AcDbLine
 10
528.925377641063
 20
136.9299959370192
 30
0.0
 11
528.925377641063
 21
120.300404190412
 31
0.0
  0
LINE
  5
18EC
330
1F
100
AcDbEntity
  8
LOGO
 62
     4
100
AcDbLine
 10
559.1609989985292
 20
120.300404190412
 30
0.0
 11
528.925377641063
 21
120.300404190412
 31
0.0
  0
LINE
  5
18ED
330
1F
100
AcDbEntity
  8
LOGO
 62
     4
100
AcDbLine
 10
570.5564594049755
 20
157.339040353308
 30
0.0
 11
515.3362349133844
 21
157.339040353308
 31
0.0
  0
LINE
  5
18EE
330
1F
100
AcDbEntity
  8
LOGO
 62
     4
100
AcDbLine
 10
570.5564594049755
 20
143.7330107424486
 30
0.0
 11
515.3362349133844
 21
143.7330107424486
 31
0.0
  0
LINE
  5
18EF
330
1F
100
AcDbEntity
  8
LOGO
 62
     4
100
AcDbLine
 10
515.3362349133844
 20
157.339040353308
 30
0.0
 11
515.3362349133844
 21
143.7330107424486
 31
0.0
  0
LINE
  5
18F0
330
1F
100
AcDbEntity
  8
LOGO
 62
     4
100
AcDbLine
 10
570.5564594049755
 20
157.339040353308
 30
0.0
 11
570.5564594049755
 21
143.7330107424486
 31
0.0
  0
LINE
  5
18F1
330
1F
100
AcDbEntity
  8
LOGO
 62
     4
100
AcDbLine
 10
545.6207283296363
 20
143.7330107424486
 30
0.0
 11
545.6207283296363
 21
136.9299959370192
 31
0.0
  0
TEXT
  5
18F2
330
1F
100
AcDbEntity
  8
LOGO
  6
Continuous
100
AcDbText
 10
517.7538132857034
 20
147.5782185101443
 30
0.0
 40
6.479999999999999
  1
MWC-1000
  7
CHINESET
100
AcDbText
  0
LINE
  5
18F3
330
1F
100
AcDbEntity
  8
LOGO
 62
     4
100
AcDbLine
 10
559.1609989985292
 20
136.9299959370192
 30
0.0
 11
528.925377641063
 21
136.9299959370192
 31
0.0
  0
TEXT
  5
18F4
330
1F
100
AcDbEntity
  8
LOGO
  6
Continuous
100
AcDbText
 10
538.6278928101534
 20
122.6476358015772
 30
297.2389220237929
 40
3.401999999999999
  1
Model
 41
0.8
  7
CHINESET
100
AcDbText
  0
TEXT
  5
18F5
330
1F
100
AcDbEntity
  8
LOGO
100
AcDbText
 10
537.7223910023714
 20
128.9542106182485
 30
297.2389220237929
 40
5.669999999999999
  1
型號
  7
CHINESET
100
AcDbText
  0
TEXT
  5
1929
330
1F
100
AcDbEntity
  8
LOGO
100
AcDbText
 10
455.3583847560179
 20
118.9337362043425
 30
0.0
 40
4.535999999999999
  1
1120731B
 41
0.7
  7
CHINESET
 72
     1
 11
466.0935847560178
 21
118.9337362043425
 31
0.0
100
AcDbText
  0
LINE
  5
192A
330
1F
100
AcDbEntity
  8
LOGO
 62
     4
100
AcDbLine
 10
480.1706020350888
 20
125.5916379279699
 30
0.0
 11
480.1706020350908
 21
116.5209515207294
 31
0.0
  0
LINE
  5
192B
330
1F
100
AcDbEntity
  8
LOGO
 62
     4
100
AcDbLine
 10
480.1706020350888
 20
125.5916379279699
 30
0.0
 11
452.9546020350908
 21
125.5916379279699
 31
0.0
  0
LINE
  5
192C
330
1F
100
AcDbEntity
  8
LOGO
  6
AM_ISO08W050x2
 48
0.3
100
AcDbLine
 10
427.4866551711664
 20
148.2780550783699
 30
0.0
 11
434.7468166106081
 21
148.2780550783699
 31
0.0
1001
GENIUS_GENOREF_13
1005
1931
  0
LINE
  5
192D
330
1F
100
AcDbEntity
  8
LOGO
  6
AM_ISO08W050x2
 48
0.3
100
AcDbLine
 10
431.1167358908871
 20
144.6479743586491
 30
0.0
 11
431.1167358908871
 21
151.9081357980907
 31
0.0
1001
GENIUS_GENOREF_13
1005
1930
  0
LINE
  5
192E
330
1F
100
AcDbEntity
  8
LOGO
  6
CENTER
 48
0.5
100
AcDbLine
 10
438.7493425099068
 20
148.2780550783699
 30
0.0
 11
448.4961533143045
 21
148.2780550783699
 31
0.0
1001
GENIUS_GENOREF_13
1005
192F
  0
POINT
  5
192F
330
1F
100
AcDbEntity
  8
0
 60
     1
100
AcDbPoint
 10
-2182.927183784027
 20
-759.4863134747757
 30
0.0
1001
GENIUS_GENOBJ-N-CRS_13
1002
{
1000
OWNER
1000
GEN
1002
}
1001
GENIUS_GENOLIS_13
1002
{
1000
ENT
1005
0
1005
0
1005
0
1005
192E
1002
}
1001
GENIUS_GENOENT_13
1002
{
1000
MYREF
1005
192F
1002
}
1002
{
1000
GRP
1005
0
1002
}
1001
GENIUS_GENODEF_13
1002
{
1000
HIER
1070
    10
1002
}
1002
{
1000
MANEDIT
1070
     1
1002
}
1002
{
1000
NOSEL
1070
     0
1002
}
1002
{
1000
BEHIND
1070
     0
1002
}
1002
{
1000
OTHER
1070
     0
1002
}
1002
{
1000
REACTOR
1002
}
  0
POINT
  5
1930
330
1F
100
AcDbEntity
  8
0
 60
     1
100
AcDbPoint
 10
-2194.251769006881
 20
-750.6107269961394
 30
0.0
1001
GENIUS_GENOBJ-N-CRS_13
1002
{
1000
OWNER
1000
GEN
1002
}
1001
GENIUS_GENOLIS_13
1002
{
1000
ENT
1005
0
1005
0
1005
0
1005
192D
1002
}
1001
GENIUS_GENOENT_13
1002
{
1000
MYREF
1005
1930
1002
}
1002
{
1000
GRP
1005
0
1002
}
1001
GENIUS_GENODEF_13
1002
{
1000
HIER
1070
    10
1002
}
1002
{
1000
MANEDIT
1070
     1
1002
}
1002
{
1000
NOSEL
1070
     0
1002
}
1002
{
1000
BEHIND
1070
     0
1002
}
1002
{
1000
OTHER
1070
     0
1002
}
1002
{
1000
REACTOR
1002
}
  0
POINT
  5
1931
330
1F
100
AcDbEntity
  8
0
 60
     1
100
AcDbPoint
 10
-2187.893095309044
 20
-759.4863134747757
 30
0.0
1001
GENIUS_GENOBJ-N-CRS_13
1002
{
1000
OWNER
1000
GEN
1002
}
1001
GENIUS_GENOLIS_13
1002
{
1000
ENT
1005
0
1005
0
1005
0
1005
192C
1002
}
1001
GENIUS_GENOENT_13
1002
{
1000
MYREF
1005
1931
1002
}
1002
{
1000
GRP
1005
0
1002
}
1001
GENIUS_GENODEF_13
1002
{
1000
HIER
1070
    10
1002
}
1002
{
1000
MANEDIT
1070
     1
1002
}
1002
{
1000
NOSEL
1070
     0
1002
}
1002
{
1000
BEHIND
1070
     0
1002
}
1002
{
1000
OTHER
1070
     0
1002
}
1002
{
1000
REACTOR
1002
}
  0
LINE
  5
2A65
330
1F
100
AcDbEntity
  8
AM_7
100
AcDbLine
 10
474.9299514191025
 20
657.9051156377913
 30
0.0
 11
474.9299514191025
 21
657.9051156377913
 31
0.0
  0
LINE
  5
2A66
330
1F
100
AcDbEntity
  8
AM_7
100
AcDbLine
 10
474.9299514191025
 20
657.9051156377913
 30
0.0
 11
474.9299514191025
 21
657.9051156377913
 31
0.0
  0
LINE
  5
2A67
330
1F
100
AcDbEntity
  8
AM_7
100
AcDbLine
 10
429.4299514191025
 20
657.9051156377913
 30
0.0
 11
520.4299514191025
 21
657.9051156377913
 31
0.0
  0
LINE
  5
2A68
330
1F
100
AcDbEntity
  8
AM_7
100
AcDbLine
 10
474.9299514191025
 20
612.4051156377912
 30
0.0
 11
474.9299514191025
 21
703.4051156377914
 31
0.0
  0
LINE
  5
2A69
330
1F
100
AcDbEntity
  8
AM_7
100
AcDbLine
 10
474.9299514191025
 20
186.538254635539
 30
0.0
 11
474.9299514191025
 21
379.9844967430282
 31
0.0
  0
LINE
  5
2A6A
330
1F
100
AcDbEntity
  8
AM_7
100
AcDbLine
 10
495.9299514191025
 20
356.1390046355391
 30
0.0
 11
495.9299514191025
 21
339.5390046355392
 31
0.0
  0
LINE
  5
2A6B
330
1F
100
AcDbEntity
  8
AM_7
100
AcDbLine
 10
429.4299514191025
 20
548.2382546355388
 30
0.0
 11
436.7799514191029
 21
548.2382546355388
 31
0.0
  0
LINE
  5
2A6C
330
1F
100
AcDbEntity
  8
AM_7
100
AcDbLine
 10
520.4299514191025
 20
548.2382546355388
 30
0.0
 11
513.0799514191021
 21
548.2382546355388
 31
0.0
  0
LINE
  5
2A6D
102
{ACAD_REACTORS
330
2C01
102
}
330
1F
100
AcDbEntity
  8
AM_VIS
100
AcDbLine
 10
464.9299514191024
 20
672.2665222541364
 30
0.0
 11
464.9299514191024
 21
643.5437090214463
 31
0.0
  0
LINE
  5
2A6E
330
1F
100
AcDbEntity
  8
AM_VIS
100
AcDbLine
 10
464.9299514191024
 20
672.8717451848869
 30
0.0
 11
464.9299514191024
 21
672.2665222541364
 31
0.0
  0
LINE
  5
2A6F
102
{ACAD_REACTORS
330
2C01
102
}
330
1F
100
AcDbEntity
  8
AM_VIS
100
AcDbLine
 10
484.9299514191025
 20
643.5437090214463
 30
0.0
 11
484.9299514191025
 21
672.2665222541364
 31
0.0
  0
LINE
  5
2A70
330
1F
100
AcDbEntity
  8
AM_VIS
100
AcDbLine
 10
484.9299514191025
 20
672.8717451848869
 30
0.0
 11
484.9299514191025
 21
672.2665222541364
 31
0.0
  0
LINE
  5
2A71
330
1F
100
AcDbEntity
  8
AM_VIS
100
AcDbLine
 10
484.9299514191025
 20
643.5437090214463
 30
0.0
 11
484.9299514191025
 21
642.9384860906952
 31
0.0
  0
LINE
  5
2A72
330
1F
100
AcDbEntity
  8
AM_VIS
100
AcDbLine
 10
464.9299514191024
 20
643.5437090214463
 30
0.0
 11
464.9299514191024
 21
642.9384860906957
 31
0.0
  0
CIRCLE
  5
2A73
330
1F
100
AcDbEntity
  8
AM_VIS
100
AcDbCircle
 10
474.9299514191025
 20
657.9051156377913
 30
0.0
 40
32.0
  0
CIRCLE
  5
2A74
330
1F
100
AcDbEntity
  8
AM_VIS
100
AcDbCircle
 10
474.9299514191025
 20
657.9051156377913
 30
0.0
 40
42.5
  0
ARC
  5
2A75
330
1F
100
AcDbEntity
  8
AM_VIS
100
AcDbCircle
 10
456.9299514191024
 20
231.5382546340256
 30
0.0
 40
7.0
100
AcDbArc
 50
180.0000000123892
 51
0.0000000123892019
  0
LINE
  5
2A76
330
1F
100
AcDbEntity
  8
AM_VIS
100
AcDbLine
 10
485.9299514191024
 20
232.538254635539
 30
0.0
 11
485.9299514191024
 21
231.538254635539
 31
0.0
  0
LINE
  5
2A77
330
1F
100
AcDbEntity
  8
AM_VIS
100
AcDbLine
 10
485.9299514191024
 20
232.538254635539
 30
0.0
 11
485.9299514191024
 21
299.538254635539
 31
0.0
  0
ARC
  5
2A78
330
1F
100
AcDbEntity
  8
AM_VIS
100
AcDbCircle
 10
492.9299514191025
 20
299.5381597944506
 30
0.0
 40
7.000000000642487
100
AcDbArc
 50
0.0007762843731783
 51
179.9992237151317
  0
ARC
  5
2A79
330
1F
100
AcDbEntity
  8
AM_VIS
100
AcDbCircle
 10
492.9299514191025
 20
231.5382546350302
 30
0.0
 40
6.999999999999943
100
AcDbArc
 50
180.0000000041623
 51
0.0000000041623029
  0
LINE
  5
2A7A
330
1F
100
AcDbEntity
  8
AM_VIS
100
AcDbLine
 10
499.9299514191025
 20
299.538254635539
 30
0.0
 11
499.9299514191025
 21
232.538254635539
 31
0.0
  0
LINE
  5
2A7B
330
1F
100
AcDbEntity
  8
AM_VIS
100
AcDbLine
 10
499.9299514191025
 20
232.538254635539
 30
0.0
 11
499.9299514191025
 21
231.538254635539
 31
0.0
  0
ARC
  5
2A7C
330
1F
100
AcDbEntity
  8
AM_VIS
100
AcDbCircle
 10
456.9299514191024
 20
299.5381596187438
 30
0.0
 40
7.000000000644871
100
AcDbArc
 50
0.0007777227256507
 51
179.9992222769486
  0
LINE
  5
2A7D
330
1F
100
AcDbEntity
  8
AM_VIS
100
AcDbLine
 10
449.9299514191025
 20
232.538254635539
 30
0.0
 11
449.9299514191025
 21
231.538254635539
 31
0.0
  0
LINE
  5
2A7E
330
1F
100
AcDbEntity
  8
AM_VIS
100
AcDbLine
 10
449.9299514191025
 20
232.538254635539
 30
0.0
 11
449.9299514191025
 21
299.538254635539
 31
0.0
  0
LINE
  5
2A7F
330
1F
100
AcDbEntity
  8
AM_VIS
100
AcDbLine
 10
463.9299514191025
 20
299.538254635539
 30
0.0
 11
463.9299514191025
 21
232.538254635539
 31
0.0
  0
LINE
  5
2A80
330
1F
100
AcDbEntity
  8
AM_VIS
100
AcDbLine
 10
463.9299514191025
 20
232.538254635539
 30
0.0
 11
463.9299514191025
 21
231.538254635539
 31
0.0
  0
LINE
  5
2A81
330
1F
100
AcDbEntity
  8
AM_VIS
100
AcDbLine
 10
514.9299514191024
 20
314.538254635539
 30
0.0
 11
514.9299514191024
 21
329.538254635539
 31
0.0
  0
LINE
  5
2A82
330
1F
100
AcDbEntity
  8
AM_VIS
100
AcDbLine
 10
434.9299514191025
 20
329.538254635539
 30
0.0
 11
434.9299514191025
 21
314.538254635539
 31
0.0
  0
LINE
  5
2A83
330
1F
100
AcDbEntity
  8
AM_VIS
100
AcDbLine
 10
465.9299514191025
 20
324.538254635539
 30
0.0
 11
465.9299514191025
 21
329.538254635539
 31
0.0
  0
LINE
  5
2A84
330
1F
100
AcDbEntity
  8
AM_VIS
100
AcDbLine
 10
465.9299514191025
 20
329.538254635539
 30
0.0
 11
483.9299514191025
 21
329.538254635539
 31
0.0
  0
LINE
  5
2A85
330
1F
100
AcDbEntity
  8
AM_VIS
100
AcDbLine
 10
483.9299514191025
 20
329.538254635539
 30
0.0
 11
483.9299514191025
 21
324.538254635539
 31
0.0
  0
LINE
  5
2A86
330
1F
100
AcDbEntity
  8
AM_VIS
100
AcDbLine
 10
465.9299514191025
 20
324.538254635539
 30
0.0
 11
474.9299514191025
 21
327.538254635539
 31
0.0
  0
LINE
  5
2A87
330
1F
100
AcDbEntity
  8
AM_VIS
100
AcDbLine
 10
474.9299514191025
 20
327.538254635539
 30
0.0
 11
483.9299514191025
 21
324.538254635539
 31
0.0
  0
LINE
  5
2A88
330
1F
100
AcDbEntity
  8
AM_VIS
100
AcDbLine
 10
465.9299514191025
 20
314.538254635539
 30
0.0
 11
465.9299514191025
 21
324.538254635539
 31
0.0
  0
LINE
  5
2A89
330
1F
100
AcDbEntity
  8
AM_VIS
100
AcDbLine
 10
483.9299514191025
 20
324.538254635539
 30
0.0
 11
465.9299514191025
 21
324.538254635539
 31
0.0
  0
LINE
  5
2A8A
330
1F
100
AcDbEntity
  8
AM_VIS
100
AcDbLine
 10
483.9299514191025
 20
324.538254635539
 30
0.0
 11
483.9299514191006
 21
314.538254635539
 31
0.0
  0
LINE
  5
2A8B
330
1F
100
AcDbEntity
  8
AM_VIS
100
AcDbLine
 10
459.9299516157479
 20
357.538254635539
 30
0.0
 11
459.9299516157479
 21
356.1985090320304
 31
0.0
  0
LINE
  5
2A8C
330
1F
100
AcDbEntity
  8
AM_VIS
100
AcDbLine
 10
438.242363741685
 20
324.538254635539
 30
0.0
 11
438.242363741685
 21
314.538254635539
 31
0.0
  0
LINE
  5
2A8D
330
1F
100
AcDbEntity
  8
AM_VIS
100
AcDbLine
 10
435.4331161028404
 20
314.538254635539
 30
0.0
 11
435.4331161028404
 21
324.538254635539
 31
0.0
  0
LINE
  5
2A8E
330
1F
100
AcDbEntity
  8
AM_VIS
100
AcDbLine
 10
461.930492406107
 20
324.538254635539
 30
0.0
 11
461.930492406107
 21
314.538254635539
 31
0.0
  0
LINE
  5
2A8F
330
1F
100
AcDbEntity
  8
AM_VIS
100
AcDbLine
 10
454.7796459246164
 20
314.538254635539
 30
0.0
 11
454.7796459246164
 21
324.538254635539
 31
0.0
  0
LINE
  5
2A90
330
1F
100
AcDbEntity
  8
AM_VIS
100
AcDbLine
 10
493.2335278568298
 20
324.538254635539
 30
0.0
 11
493.2335278568298
 21
314.538254635539
 31
0.0
  0
LINE
  5
2A91
330
1F
100
AcDbEntity
  8
AM_VIS
100
AcDbLine
 10
485.9299514191024
 20
314.538254635539
 30
0.0
 11
485.9299514191024
 21
324.538254635539
 31
0.0
  0
LINE
  5
2A92
330
1F
100
AcDbEntity
  8
AM_VIS
100
AcDbLine
 10
513.8145764702658
 20
324.538254635539
 30
0.0
 11
513.8145764702658
 21
314.538254635539
 31
0.0
  0
LINE
  5
2A93
330
1F
100
AcDbEntity
  8
AM_VIS
100
AcDbLine
 10
510.6366060996925
 20
314.538254635539
 30
0.0
 11
510.6366060996925
 21
324.538254635539
 31
0.0
  0
LINE
  5
2A94
330
1F
100
AcDbEntity
  8
AM_VIS
100
AcDbLine
 10
440.7060247431145
 20
314.538254635539
 30
0.0
 11
440.7060247431145
 21
324.538254635539
 31
0.0
  0
LINE
  5
2A95
330
1F
100
AcDbEntity
  8
AM_VIS
100
AcDbLine
 10
444.1851701215236
 20
324.538254635539
 30
0.0
 11
444.1851701215236
 21
314.538254635539
 31
0.0
  0
LINE
  5
2A96
330
1F
100
AcDbEntity
  8
AM_VIS
100
AcDbLine
 10
447.7155453171953
 20
314.538254635539
 30
0.0
 11
447.7155453171953
 21
324.538254635539
 31
0.0
  0
LINE
  5
2A97
330
1F
100
AcDbEntity
  8
AM_VIS
100
AcDbLine
 10
452.2532053785944
 20
324.538254635539
 30
0.0
 11
452.2532053785944
 21
314.538254635539
 31
0.0
  0
LINE
  5
2A98
330
1F
100
AcDbEntity
  8
AM_VIS
100
AcDbLine
 10
497.5069938045999
 20
314.538254635539
 30
0.0
 11
497.5069938045999
 21
324.538254635539
 31
0.0
  0
LINE
  5
2A99
330
1F
100
AcDbEntity
  8
AM_VIS
100
AcDbLine
 10
502.0548186623545
 20
324.538254635539
 30
0.0
 11
502.0548186623545
 21
314.538254635539
 31
0.0
  0
LINE
  5
2A9A
330
1F
100
AcDbEntity
  8
AM_VIS
100
AcDbLine
 10
505.5955037624153
 20
314.538254635539
 30
0.0
 11
505.5955037624153
 21
324.538254635539
 31
0.0
  0
LINE
  5
2A9B
330
1F
100
AcDbEntity
  8
AM_VIS
100
AcDbLine
 10
509.087896161347
 20
324.538254635539
 30
0.0
 11
509.087896161347
 21
314.538254635539
 31
0.0
  0
LINE
  5
2A9C
330
1F
100
AcDbEntity
  8
AM_VIS
100
AcDbLine
 10
489.929951451877
 20
357.538254635539
 30
0.0
 11
489.929951451877
 21
356.1985087698372
 31
0.0
  0
SPLINE
  5
2A9D
330
1F
100
AcDbEntity
  8
AM_VIS
100
AcDbSpline
210
0.0
220
0.0
230
1.0
 70
    12
 71
     2
 72
     6
 73
     3
 74
     0
 42
0.0000000001
 43
0.0000000001
 40
13.59864481359987
 40
13.59864481359987
 40
13.59864481359987
 40
23.01938164714779
 40
23.01938164714779
 40
23.01938164714779
 10
482.429951222457
 20
357.538254635539
 30
0.0
 41
1.0
 10
478.9491891838841
 20
357.5382546355387
 30
0.0
 41
1.055507143872967
 10
474.9299514191021
 20
356.1985089227823
 30
0.0
 41
1.034106889696072
  0
SPLINE
  5
2A9E
330
1F
100
AcDbEntity
  8
AM_VIS
100
AcDbSpline
210
0.0
220
0.0
230
1.0
 70
    12
 71
     2
 72
     6
 73
     3
 74
     0
 42
0.0000000001
 43
0.0000000001
 40
4.177907453215747
 40
4.177907453215747
 40
4.177907453215747
 40
13.59864481359987
 40
13.59864481359987
 40
13.59864481359987
 10
489.9299514846517
 20
356.1985087698371
 30
0.0
 41
1.034106887302553
 10
485.9107134454478
 20
357.5382546355393
 30
0.0
 41
1.05550714697712
 10
482.429951222457
 20
357.538254635539
 30
0.0
 41
1.0
  0
LINE
  5
2A9F
330
1F
100
AcDbEntity
  8
AM_VIS
100
AcDbLine
 10
489.9299514846516
 20
343.539004635539
 30
0.0
 11
489.9299514846516
 21
356.198508769837
 31
0.0
  0
LINE
  5
2AA0
330
1F
100
AcDbEntity
  8
AM_VIS
100
AcDbLine
 10
459.9299516157479
 20
343.539004635539
 30
0.0
 11
459.9299516157479
 21
356.1985090320304
 31
0.0
  0
SPLINE
  5
2AA1
330
1F
100
AcDbEntity
  8
AM_VIS
100
AcDbSpline
210
0.0
220
0.0
230
1.0
 70
    12
 71
     2
 72
     6
 73
     3
 74
     0
 42
0.0000000001
 43
0.0000000001
 40
13.59864512279584
 40
13.59864512279584
 40
13.59864512279584
 40
23.01938221340325
 40
23.01938221340325
 40
23.01938221340325
 10
467.4299513535543
 20
357.538254635539
 30
0.0
 41
1.0
 10
463.949188839051
 20
357.538254635539
 30
0.0
 41
1.055507317645056
 10
459.9299516157481
 20
356.198509032031
 30
0.0
 41
1.034106996122101
  0
SPLINE
  5
2AA2
330
1F
100
AcDbEntity
  8
AM_VIS
100
AcDbSpline
210
0.0
220
0.0
230
1.0
 70
    12
 71
     2
 72
     6
 73
     3
 74
     0
 42
0.0000000001
 43
0.0000000001
 40
4.177907655876841
 40
4.177907655876841
 40
4.177907655876841
 40
13.59864512279584
 40
13.59864512279584
 40
13.59864512279584
 10
474.9299514191023
 20
356.1985089227833
 30
0.0
 41
1.034106994412429
 10
470.9107139997832
 20
357.5382546355387
 30
0.0
 41
1.055507319862299
 10
467.4299513535543
 20
357.538254635539
 30
0.0
 41
1.0
  0
LINE
  5
2AA3
330
1F
100
AcDbEntity
  8
AM_VIS
100
AcDbLine
 10
474.9299514191025
 20
343.539004635539
 30
0.0
 11
474.9299514191025
 21
356.1985089227833
 31
0.0
  0
ARC
  5
2AA4
330
1F
100
AcDbEntity
  8
AM_VIS
100
AcDbCircle
 10
458.9299516157479
 20
343.539004635539
 30
0.0
 40
1.0
100
AcDbArc
 50
270.0
 51
0.0
  0
LINE
  5
2AA5
330
1F
100
AcDbEntity
  8
AM_VIS
100
AcDbLine
 10
474.9299514191025
 20
343.539004635539
 30
0.0
 11
474.9299514016229
 21
342.5390046355389
 31
0.0
  0
ARC
  5
2AA6
330
1F
100
AcDbEntity
  8
AM_VIS
100
AcDbCircle
 10
490.9299514846516
 20
343.539004635539
 30
0.0
 40
0.9999999999999998
100
AcDbArc
 50
180.0
 51
270.0
  0
LINE
  5
2AA7
330
1F
100
AcDbEntity
  8
AM_VIS
100
AcDbLine
 10
480.9299514191025
 20
199.538254635539
 30
0.0
 11
480.9299514191025
 21
201.6382546355389
 31
0.0
  0
LINE
  5
2AA8
330
1F
100
AcDbEntity
  8
AM_VIS
100
AcDbLine
 10
468.9299514191024
 20
199.538254635539
 30
0.0
 11
468.9299514191024
 21
201.6382546355389
 31
0.0
  0
LINE
  5
2AA9
102
{ACAD_REACTORS
330
2B25
102
}
330
1F
100
AcDbEntity
  8
AM_VIS
100
AcDbLine
 10
479.6699514191023
 20
189.538254635539
 30
0.0
 11
479.6699514191023
 21
199.538254635539
 31
0.0
  0
LINE
  5
2AAA
330
1F
100
AcDbEntity
  8
AM_VIS
100
AcDbLine
 10
470.1899514191027
 20
189.538254635539
 30
0.0
 11
470.1899514191027
 21
199.538254635539
 31
0.0
  0
LINE
  5
2AAB
330
1F
100
AcDbEntity
  8
AM_VIS
100
AcDbLine
 10
448.9299514191024
 20
342.5390046355392
 30
0.0
 11
434.9299514191025
 21
333.538254635539
 31
0.0
  0
LINE
  5
2AAC
330
1F
100
AcDbEntity
  8
AM_VIS
100
AcDbLine
 10
500.9299514191025
 20
342.5390046355392
 30
0.0
 11
514.9299514191024
 21
333.538254635539
 31
0.0
  0
LINE
  5
2AAD
330
1F
100
AcDbEntity
  8
AM_VIS
100
AcDbLine
 10
514.9299514191024
 20
331.5382546355395
 30
0.0
 11
514.9299514191024
 21
333.538254635539
 31
0.0
  0
LINE
  5
2AAE
330
1F
100
AcDbEntity
  8
AM_VIS
100
AcDbLine
 10
434.9299514191025
 20
331.5382546355392
 30
0.0
 11
434.9299514191025
 21
333.538254635539
 31
0.0
  0
LINE
  5
2AAF
330
1F
100
AcDbEntity
  8
AM_VIS
100
AcDbLine
 10
509.9838100405249
 20
329.538254635539
 30
0.0
 11
509.9838100405249
 21
331.538254635539
 31
0.0
  0
LINE
  5
2AB0
330
1F
100
AcDbEntity
  8
AM_VIS
100
AcDbLine
 10
439.87609279768
 20
329.538254635539
 30
0.0
 11
439.87609279768
 21
331.538254635539
 31
0.0
  0
LINE
  5
2AB1
330
1F
100
AcDbEntity
  8
AM_VIS
100
AcDbLine
 10
506.829615091241
 20
311.8361052175012
 30
0.0
 11
515.9299514191025
 21
313.5916769995538
 31
0.0
  0
LINE
  5
2AB2
330
1F
100
AcDbEntity
  8
AM_VIS
100
AcDbLine
 10
443.0302877469639
 20
311.8361052175012
 30
0.0
 11
433.9299514191025
 21
313.5916769995538
 31
0.0
  0
LINE
  5
2AB3
330
1F
100
AcDbEntity
  8
AM_VIS
100
AcDbLine
 10
484.8299514191021
 20
205.538254635539
 30
0.0
 11
485.2186464191027
 21
206.6156806355391
 31
0.0
  0
LINE
  5
2AB4
330
1F
100
AcDbEntity
  8
AM_VIS
100
AcDbLine
 10
465.0299514191028
 20
205.538254635539
 30
0.0
 11
464.6412564191032
 21
206.6156806355391
 31
0.0
  0
LINE
  5
2AB5
330
1F
100
AcDbEntity
  8
AM_VIS
100
AcDbLine
 10
484.8299514191021
 20
201.6382546355389
 30
0.0
 11
484.8299514191021
 21
205.538254635539
 31
0.0
  0
LINE
  5
2AB6
330
1F
100
AcDbEntity
  8
AM_VIS
100
AcDbLine
 10
465.0299514191028
 20
201.6382546355389
 30
0.0
 11
465.0299514191028
 21
205.538254635539
 31
0.0
  0
LINE
  5
2AB7
330
1F
100
AcDbEntity
  8
AM_VIS
100
AcDbLine
 10
506.829615091241
 20
232.538254635539
 30
0.0
 11
506.829615091241
 21
311.8361052175012
 31
0.0
  0
LINE
  5
2AB8
330
1F
100
AcDbEntity
  8
AM_VIS
100
AcDbLine
 10
443.0302877469639
 20
232.538254635539
 30
0.0
 11
443.0302877469639
 21
311.8361052175012
 31
0.0
  0
LINE
  5
2AB9
330
1F
100
AcDbEntity
  8
AM_VIS
100
AcDbLine
 10
515.9299514191025
 20
313.5916769995538
 30
0.0
 11
515.9299514191025
 21
314.538254635539
 31
0.0
  0
LINE
  5
2ABA
330
1F
100
AcDbEntity
  8
AM_VIS
100
AcDbLine
 10
433.9299514191025
 20
313.5916769995538
 30
0.0
 11
433.9299514191025
 21
314.538254635539
 31
0.0
  0
LINE
  5
2ABB
330
1F
100
AcDbEntity
  8
AM_VIS
100
AcDbLine
 10
492.4299514191025
 20
344.0390046355392
 30
0.0
 11
492.4299514191025
 21
342.5390046355392
 31
0.0
  0
LINE
  5
2ABC
330
1F
100
AcDbEntity
  8
AM_VIS
100
AcDbLine
 10
499.4299514191025
 20
344.0390046355392
 30
0.0
 11
499.4299514191025
 21
342.5390046355392
 31
0.0
  0
LINE
  5
2ABD
330
1F
100
AcDbEntity
  8
AM_VIS
100
AcDbLine
 10
494.3940534191024
 20
346.6390046355391
 30
0.0
 11
494.3940534191024
 21
344.0390046355392
 31
0.0
  0
LINE
  5
2ABE
330
1F
100
AcDbEntity
  8
AM_VIS
100
AcDbLine
 10
497.4658494191025
 20
346.6390046355391
 30
0.0
 11
497.4658494191025
 21
344.0390046355392
 31
0.0
  0
LINE
  5
2ABF
330
1F
100
AcDbEntity
  8
AM_VIS
100
AcDbLine
 10
493.4299514191025
 20
353.6390046355391
 30
0.0
 11
492.9299514191025
 21
353.1390046355391
 31
0.0
  0
LINE
  5
2AC0
330
1F
100
AcDbEntity
  8
AM_VIS
100
AcDbLine
 10
498.4299514191024
 20
353.6390046355391
 30
0.0
 11
498.9299514191024
 21
353.1390046355391
 31
0.0
  0
LINE
  5
2AC1
330
1F
100
AcDbEntity
  8
AM_VIS
100
AcDbLine
 10
492.9299514191025
 20
353.1390046355391
 30
0.0
 11
492.9299514191025
 21
347.1390046355391
 31
0.0
  0
LINE
  5
2AC2
330
1F
100
AcDbEntity
  8
AM_VIS
100
AcDbLine
 10
498.9299514191024
 20
353.1390046355391
 30
0.0
 11
498.9299514191024
 21
347.1390046355391
 31
0.0
  0
LINE
  5
2AC3
330
1F
100
AcDbEntity
  8
AM_VIS
100
AcDbLine
 10
498.4299514191024
 20
346.6390046355391
 30
0.0
 11
498.9299514191024
 21
347.1390046355391
 31
0.0
  0
LINE
  5
2AC4
330
1F
100
AcDbEntity
  8
AM_VIS
100
AcDbLine
 10
493.4299514191025
 20
346.6390046355391
 30
0.0
 11
492.9299514191025
 21
347.1390046355391
 31
0.0
  0
LINE
  5
2AC5
330
1F
100
AcDbEntity
  8
AM_VIS
100
AcDbLine
 10
480.9299514191025
 20
199.538254635539
 30
0.0
 11
468.9299514191024
 21
199.538254635539
 31
0.0
  0
LINE
  5
2AC6
102
{ACAD_REACTORS
330
2B12
102
}
330
1F
100
AcDbEntity
  8
AM_VIS
100
AcDbLine
 10
479.6699514191023
 20
189.538254635539
 30
0.0
 11
470.1899514191027
 21
189.538254635539
 31
0.0
  0
LINE
  5
2AC7
330
1F
100
AcDbEntity
  8
AM_VIS
100
AcDbLine
 10
514.9299514191024
 20
333.538254635539
 30
0.0
 11
434.9299514191025
 21
333.538254635539
 31
0.0
  0
LINE
  5
2AC8
330
1F
100
AcDbEntity
  8
AM_VIS
100
AcDbLine
 10
514.9299514191024
 20
331.5382546355395
 30
0.0
 11
434.9299514191025
 21
331.5382546355395
 31
0.0
  0
LINE
  5
2AC9
330
1F
100
AcDbEntity
  8
AM_VIS
100
AcDbLine
 10
484.8299514191021
 20
205.538254635539
 30
0.0
 11
465.0299514191028
 21
205.538254635539
 31
0.0
  0
LINE
  5
2ACA
330
1F
100
AcDbEntity
  8
AM_VIS
100
AcDbLine
 10
484.8299514191021
 20
201.6382546355389
 30
0.0
 11
465.0299514191028
 21
201.6382546355389
 31
0.0
  0
LINE
  5
2ACB
330
1F
100
AcDbEntity
  8
AM_VIS
100
AcDbLine
 10
506.829615091241
 20
311.8361052175012
 30
0.0
 11
443.0302877469639
 21
311.8361052175012
 31
0.0
  0
LINE
  5
2ACC
330
1F
100
AcDbEntity
  8
AM_VIS
100
AcDbLine
 10
491.9299514191025
 20
206.6156806355391
 30
0.0
 11
457.9299514191025
 21
206.6156806355391
 31
0.0
  0
LINE
  5
2ACD
330
1F
100
AcDbEntity
  8
AM_VIS
100
AcDbLine
 10
515.9299514191025
 20
313.5916769995538
 30
0.0
 11
433.9299514191025
 21
313.5916769995538
 31
0.0
  0
LINE
  5
2ACE
330
1F
100
AcDbEntity
  8
AM_VIS
100
AcDbLine
 10
465.9299514191025
 20
329.538254635539
 30
0.0
 11
434.9299514191025
 21
329.538254635539
 31
0.0
  0
LINE
  5
2ACF
330
1F
100
AcDbEntity
  8
AM_VIS
100
AcDbLine
 10
465.9299514191025
 20
314.538254635539
 30
0.0
 11
483.9299514191025
 21
314.538254635539
 31
0.0
  0
LINE
  5
2AD0
330
1F
100
AcDbEntity
  8
AM_VIS
100
AcDbLine
 10
514.9299514191024
 20
329.538254635539
 30
0.0
 11
483.9299514191025
 21
329.538254635539
 31
0.0
  0
LINE
  5
2AD1
102
{ACAD_REACTORS
330
2B28
102
}
330
1F
100
AcDbEntity
  8
AM_VIS
100
AcDbLine
 10
514.9299514191024
 20
314.538254635539
 30
0.0
 11
515.9299514191025
 21
314.538254635539
 31
0.0
  0
LINE
  5
2AD2
102
{ACAD_REACTORS
330
2B28
102
}
330
1F
100
AcDbEntity
  8
AM_VIS
100
AcDbLine
 10
433.9299514191025
 20
314.538254635539
 30
0.0
 11
434.9299514191025
 21
314.538254635539
 31
0.0
  0
LINE
  5
2AD3
102
{ACAD_REACTORS
330
2B25
102
}
330
1F
100
AcDbEntity
  8
AM_VIS
100
AcDbLine
 10
489.9299514191024
 20
357.538254635539
 30
0.0
 11
482.429951222457
 21
357.538254635539
 31
0.0
  0
LINE
  5
2AD4
330
1F
100
AcDbEntity
  8
AM_VIS
100
AcDbLine
 10
482.429951222457
 20
357.538254635539
 30
0.0
 11
467.429951222457
 21
357.538254635539
 31
0.0
  0
LINE
  5
2AD5
330
1F
100
AcDbEntity
  8
AM_VIS
100
AcDbLine
 10
467.429951222457
 20
357.538254635539
 30
0.0
 11
459.9299514191025
 21
357.538254635539
 31
0.0
  0
LINE
  5
2AD6
330
1F
100
AcDbEntity
  8
AM_VIS
100
AcDbLine
 10
435.4331161028404
 20
314.538254635539
 30
0.0
 11
438.242363741685
 21
314.538254635539
 31
0.0
  0
LINE
  5
2AD7
330
1F
100
AcDbEntity
  8
AM_VIS
100
AcDbLine
 10
438.242363741685
 20
324.538254635539
 30
0.0
 11
435.4331161028404
 21
324.538254635539
 31
0.0
  0
LINE
  5
2AD8
330
1F
100
AcDbEntity
  8
AM_VIS
100
AcDbLine
 10
454.7796459246164
 20
314.538254635539
 30
0.0
 11
461.930492406107
 21
314.538254635539
 31
0.0
  0
LINE
  5
2AD9
330
1F
100
AcDbEntity
  8
AM_VIS
100
AcDbLine
 10
461.930492406107
 20
324.538254635539
 30
0.0
 11
454.7796459246164
 21
324.538254635539
 31
0.0
  0
LINE
  5
2ADA
330
1F
100
AcDbEntity
  8
AM_VIS
100
AcDbLine
 10
485.9299514191024
 20
314.538254635539
 30
0.0
 11
493.2335278568298
 21
314.538254635539
 31
0.0
  0
LINE
  5
2ADB
330
1F
100
AcDbEntity
  8
AM_VIS
100
AcDbLine
 10
493.2335278568298
 20
324.538254635539
 30
0.0
 11
485.9299514191024
 21
324.538254635539
 31
0.0
  0
LINE
  5
2ADC
330
1F
100
AcDbEntity
  8
AM_VIS
100
AcDbLine
 10
510.6366060996925
 20
314.538254635539
 30
0.0
 11
513.8145764702658
 21
314.538254635539
 31
0.0
  0
LINE
  5
2ADD
330
1F
100
AcDbEntity
  8
AM_VIS
100
AcDbLine
 10
513.8145764702658
 20
324.538254635539
 30
0.0
 11
510.6366060996925
 21
324.538254635539
 31
0.0
  0
LINE
  5
2ADE
330
1F
100
AcDbEntity
  8
AM_VIS
100
AcDbLine
 10
444.1851701215236
 20
324.538254635539
 30
0.0
 11
440.7060247431145
 21
324.538254635539
 31
0.0
  0
LINE
  5
2ADF
330
1F
100
AcDbEntity
  8
AM_VIS
100
AcDbLine
 10
440.7060247431145
 20
314.538254635539
 30
0.0
 11
444.1851701215236
 21
314.538254635539
 31
0.0
  0
LINE
  5
2AE0
330
1F
100
AcDbEntity
  8
AM_VIS
100
AcDbLine
 10
452.2532053785944
 20
324.538254635539
 30
0.0
 11
447.7155453171953
 21
324.538254635539
 31
0.0
  0
LINE
  5
2AE1
330
1F
100
AcDbEntity
  8
AM_VIS
100
AcDbLine
 10
447.7155453171953
 20
314.538254635539
 30
0.0
 11
452.2532053785944
 21
314.538254635539
 31
0.0
  0
LINE
  5
2AE2
330
1F
100
AcDbEntity
  8
AM_VIS
100
AcDbLine
 10
502.0548186623545
 20
324.538254635539
 30
0.0
 11
497.5069938045999
 21
324.538254635539
 31
0.0
  0
LINE
  5
2AE3
330
1F
100
AcDbEntity
  8
AM_VIS
100
AcDbLine
 10
497.5069938045999
 20
314.538254635539
 30
0.0
 11
502.0548186623555
 21
314.538254635539
 31
0.0
  0
LINE
  5
2AE4
330
1F
100
AcDbEntity
  8
AM_VIS
100
AcDbLine
 10
509.087896161347
 20
324.538254635539
 30
0.0
 11
505.5955037624153
 21
324.538254635539
 31
0.0
  0
LINE
  5
2AE5
330
1F
100
AcDbEntity
  8
AM_VIS
100
AcDbLine
 10
505.5955037624153
 20
314.538254635539
 30
0.0
 11
509.087896161347
 21
314.538254635539
 31
0.0
  0
LINE
  5
2AE6
330
1F
100
AcDbEntity
  8
AM_VIS
100
AcDbLine
 10
500.9299514191025
 20
342.5390046355392
 30
0.0
 11
448.9299514191024
 21
342.5390046355392
 31
0.0
  0
LINE
  5
2AE7
330
1F
100
AcDbEntity
  8
AM_VIS
100
AcDbLine
 10
492.4299514191025
 20
344.0390046355392
 30
0.0
 11
499.4299514191025
 21
344.0390046355392
 31
0.0
  0
LINE
  5
2AE8
330
1F
100
AcDbEntity
  8
AM_VIS
100
AcDbLine
 10
493.4299514191025
 20
353.6390046355391
 30
0.0
 11
498.4299514191024
 21
353.6390046355391
 31
0.0
  0
LINE
  5
2AE9
330
1F
100
AcDbEntity
  8
AM_VIS
100
AcDbLine
 10
498.9299514191024
 20
353.1390046355391
 30
0.0
 11
492.9299514191025
 21
353.1390046355391
 31
0.0
  0
LINE
  5
2AEA
330
1F
100
AcDbEntity
  8
AM_VIS
100
AcDbLine
 10
498.4299514191024
 20
346.6390046355391
 30
0.0
 11
493.4299514191025
 21
346.6390046355391
 31
0.0
  0
LINE
  5
2AEB
330
1F
100
AcDbEntity
  8
AM_VIS
100
AcDbLine
 10
492.9299514191025
 20
347.1390046355391
 30
0.0
 11
498.9299514191024
 21
347.1390046355391
 31
0.0
  0
ARC
  5
2AEC
330
1F
100
AcDbEntity
  8
AM_VIS
100
AcDbCircle
 10
473.0302877469639
 20
232.538254635539
 30
0.0
 40
30.0
100
AcDbArc
 50
180.0
 51
239.7784789423033
  0
ARC
  5
2AED
330
1F
100
AcDbEntity
  8
AM_VIS
100
AcDbCircle
 10
476.829615091241
 20
232.538254635539
 30
0.0
 40
30.0
100
AcDbArc
 50
300.2215210576967
 51
0.0
  0
LINE
  5
2AEE
330
1F
100
AcDbEntity
  8
AM_VIS
100
AcDbLine
 10
464.9299514191024
 20
570.7382546355388
 30
0.0
 11
464.9299514191024
 21
563.788254635539
 31
0.0
  0
LINE
  5
2AEF
330
1F
100
AcDbEntity
  8
AM_VIS
100
AcDbLine
 10
484.9299514191025
 20
563.788254635539
 30
0.0
 11
484.9299514191025
 21
570.7382546355388
 31
0.0
  0
SPLINE
  5
2AF0
330
1F
100
AcDbEntity
  8
AM_VIS
100
AcDbSpline
210
0.0
220
0.0
230
1.0
 70
     8
 71
     3
 72
    38
 73
    34
 74
     0
 42
0.0000000001
 43
0.0000000001
 40
12.99701597929317
 40
12.99701597929317
 40
12.99701597929317
 40
12.99701597929317
 40
14.63954863654092
 40
14.63954863654092
 40
16.28208129378866
 40
16.28208129378866
 40
17.92461395103641
 40
17.92461395103641
 40
19.56714660828415
 40
19.56714660828415
 40
21.17386794585971
 40
21.17386794585971
 40
22.78058928343525
 40
22.78058928343525
 40
24.3873106210108
 40
24.3873106210108
 40
25.99403195858635
 40
25.99403195858635
 40
27.6007532961619
 40
27.6007532961619
 40
29.20747463373745
 40
29.20747463373745
 40
30.814195971313
 40
30.814195971313
 40
32.42091730888855
 40
32.42091730888855
 40
34.06344996613629
 40
34.06344996613629
 40
35.70598262338403
 40
35.70598262338403
 40
37.34851528063177
 40
37.34851528063177
 40
38.99104793787952
 40
38.99104793787952
 40
38.99104793787952
 40
38.99104793787952
 10
432.4299514191024
 20
557.2382546355388
 30
0.0
 10
432.4299514191024
 20
557.2382546355388
 30
0.0
 10
432.4408194551906
 20
557.1767081870062
 30
0.0
 10
432.4842497394866
 20
556.9232009795205
 30
0.0
 10
432.5167673564155
 20
556.7313219216944
 30
0.0
 10
432.5971246594636
 20
556.2317652357628
 30
0.0
 10
432.6449566941518
 20
555.9236270475121
 30
0.0
 10
432.745948837416
 20
555.2218076405165
 30
0.0
 10
432.7989972946961
 20
554.8281115352374
 30
0.0
 10
432.8986238313428
 20
554.0109886964505
 30
0.0
 10
432.9488246076143
 20
553.5604057138057
 30
0.0
 10
433.0419568964898
 20
552.5906458171907
 30
0.0
 10
433.0848060020998
 20
552.0714924360577
 30
0.0
 10
433.1554600295567
 20
550.9971323710629
 30
0.0
 10
433.1832524267956
 20
550.441250285518
 30
0.0
 10
433.2199056459049
 20
549.3296018838787
 30
0.0
 10
433.2287490432645
 20
548.7738284147308
 30
0.0
 10
433.2287490432645
 20
547.7026808563473
 30
0.0
 10
433.2199056459049
 20
547.1469073871992
 30
0.0
 10
433.1832524267956
 20
546.0352589855599
 30
0.0
 10
433.1554600295567
 20
545.4793769000152
 30
0.0
 10
433.0848060020998
 20
544.4050168350204
 30
0.0
 10
433.0419568964898
 20
543.8858634538873
 30
0.0
 10
432.9488246076143
 20
542.9161035572722
 30
0.0
 10
432.8986238313428
 20
542.4655205746275
 30
0.0
 10
432.7989972946961
 20
541.6483977358405
 30
0.0
 10
432.745948837416
 20
541.2547016305616
 30
0.0
 10
432.6449566941518
 20
540.552882223566
 30
0.0
 10
432.5971246594636
 20
540.2447440353153
 30
0.0
 10
432.5167673564155
 20
539.7451873493834
 30
0.0
 10
432.4842497394866
 20
539.5533082915576
 30
0.0
 10
432.4408194551906
 20
539.2998010840719
 30
0.0
 10
432.4299514191024
 20
539.2382546355388
 30
0.0
 10
432.4299514191024
 20
539.2382546355388
 30
0.0
  0
SPLINE
  5
2AF1
330
1F
100
AcDbEntity
  8
AM_VIS
100
AcDbSpline
210
0.0
220
0.0
230
1.0
 70
     8
 71
     3
 72
    39
 73
    35
 74
     0
 42
0.0000000001
 43
0.0000000001
 40
38.9943552632704
 40
38.9943552632704
 40
38.9943552632704
 40
38.9943552632704
 40
40.63688792051815
 40
40.63688792051815
 40
42.27942057776589
 40
42.27942057776589
 40
43.92195323501363
 40
43.92195323501363
 40
45.56448589226137
 40
45.56448589226137
 40
47.17120722983692
 40
47.17120722983692
 40
48.77792856741248
 40
48.77792856741248
 40
50.38464990498802
 40
50.38464990498802
 40
51.99137124256357
 40
51.99137124256357
 40
51.99137124256357
 40
53.5589878607859
 40
53.5589878607859
 40
55.12660447900822
 40
55.12660447900822
 40
56.69422109723055
 40
56.69422109723055
 40
58.26183771545288
 40
58.26183771545288
 40
59.94430192340156
 40
59.94430192340156
 40
61.62676613135025
 40
61.62676613135025
 40
63.30923033929893
 40
63.30923033929893
 40
64.99169454724762
 40
64.99169454724762
 40
64.99169454724762
 40
64.99169454724762
 10
517.4299514191025
 20
539.2382546355388
 30
0.0
 10
517.4299514191025
 20
539.2382546355388
 30
0.0
 10
517.4190833830143
 20
539.2998010840719
 30
0.0
 10
517.3756530987193
 20
539.5533082915576
 30
0.0
 10
517.3431354817894
 20
539.7451873493834
 30
0.0
 10
517.2627781787414
 20
540.2447440353153
 30
0.0
 10
517.2149461440531
 20
540.552882223566
 30
0.0
 10
517.1139540007898
 20
541.2547016305616
 30
0.0
 10
517.0609055435088
 20
541.6483977358405
 30
0.0
 10
516.9612790068622
 20
542.4655205746275
 30
0.0
 10
516.9110782305906
 20
542.9161035572722
 30
0.0
 10
516.8179459417151
 20
543.8858634538873
 30
0.0
 10
516.7750968361051
 20
544.4050168350204
 30
0.0
 10
516.7044428086483
 20
545.4793769000152
 30
0.0
 10
516.6766504114093
 20
546.0352589855599
 30
0.0
 10
516.6399971923019
 20
547.1469073871992
 30
0.0
 10
516.6311537949404
 20
547.7026808563473
 30
0.0
 10
516.6311537949404
 20
548.2382546355388
 30
0.0
 10
516.6311537949404
 20
548.7607935082796
 30
0.0
 10
516.6395685581592
 20
549.3033576229883
 30
0.0
 10
516.6745469390007
 20
550.3897841655307
 30
0.0
 10
516.7010956163376
 20
550.9336525484341
 30
0.0
 10
516.7687919203981
 20
551.9865461141266
 30
0.0
 10
516.8099284587715
 20
552.4962066042149
 30
0.0
 10
516.8996789080884
 20
553.4505451265613
 30
0.0
 10
516.9482166639918
 20
553.8952023452584
 30
0.0
 10
517.0474845208718
 20
554.7249877342306
 30
0.0
 10
517.1019680777208
 20
555.1347025404502
 30
0.0
 10
517.2061488015843
 20
555.8656157336163
 30
0.0
 10
517.255726006746
 20
556.1868344834874
 30
0.0
 10
517.3392379950364
 20
556.7080481805592
 30
0.0
 10
517.3731640621045
 20
556.9085428569869
 30
0.0
 10
517.4185455757378
 20
557.1736899536249
 30
0.0
 10
517.4299514191025
 20
557.2382546355388
 30
0.0
 10
517.4299514191025
 20
557.2382546355388
 30
0.0
  0
LINE
  5
2AF2
102
{ACAD_REACTORS
330
2B1F
102
}
330
1F
100
AcDbEntity
  8
AM_VIS
100
AcDbLine
 10
434.9299514191025
 20
485.738254635539
 30
0.0
 11
434.9299514191025
 21
374.7382546355391
 31
0.0
  0
LINE
  5
2AF3
102
{ACAD_REACTORS
330
2B1F
102
}
330
1F
100
AcDbEntity
  8
AM_VIS
100
AcDbLine
 10
514.9299514191024
 20
485.738254635539
 30
0.0
 11
514.9299514191024
 21
374.7382546355391
 31
0.0
  0
LINE
  5
2AF4
330
1F
100
AcDbEntity
  8
AM_VIS
100
AcDbLine
 10
484.9299514191025
 20
365.7382546355391
 30
0.0
 11
514.9299514191024
 21
374.7382546355391
 31
0.0
  0
LINE
  5
2AF5
330
1F
100
AcDbEntity
  8
AM_VIS
100
AcDbLine
 10
464.9299514191024
 20
365.7382546355391
 30
0.0
 11
434.9299514191025
 21
374.7382546355391
 31
0.0
  0
LINE
  5
2AF6
330
1F
100
AcDbEntity
  8
AM_VIS
100
AcDbLine
 10
492.9299514191025
 20
563.7382546355389
 30
0.0
 11
492.9299514191025
 21
563.788254635539
 31
0.0
  0
LINE
  5
2AF7
330
1F
100
AcDbEntity
  8
AM_VIS
100
AcDbLine
 10
456.9299514191024
 20
563.7382546355389
 30
0.0
 11
456.9299514191024
 21
563.788254635539
 31
0.0
  0
LINE
  5
2AF8
330
1F
100
AcDbEntity
  8
AM_VIS
100
AcDbLine
 10
506.9299514191024
 20
559.7382546355389
 30
0.0
 11
506.9299514191024
 21
563.2382546355388
 31
0.0
  0
LINE
  5
2AF9
330
1F
100
AcDbEntity
  8
AM_VIS
100
AcDbLine
 10
442.9299514191025
 20
559.7382546355389
 30
0.0
 11
442.9299514191025
 21
563.2382546355388
 31
0.0
  0
LINE
  5
2AFA
330
1F
100
AcDbEntity
  8
AM_VIS
100
AcDbLine
 10
443.4299514191025
 20
563.7382546355389
 30
0.0
 11
442.9299514191025
 21
563.2382546355388
 31
0.0
  0
LINE
  5
2AFB
330
1F
100
AcDbEntity
  8
AM_VIS
100
AcDbLine
 10
506.4299514191024
 20
563.7382546355389
 30
0.0
 11
506.9299514191024
 21
563.2382546355388
 31
0.0
  0
LINE
  5
2AFC
102
{ACAD_REACTORS
330
2B15
102
}
330
1F
100
AcDbEntity
  8
AM_VIS
100
AcDbLine
 10
432.4299514191024
 20
539.2382546355388
 30
0.0
 11
432.4299514191024
 21
485.738254635539
 31
0.0
  0
LINE
  5
2AFD
330
1F
100
AcDbEntity
  8
AM_VIS
100
AcDbLine
 10
432.4299514191024
 20
559.2382546355388
 30
0.0
 11
432.4299514191024
 21
557.2382546355388
 31
0.0
  0
LINE
  5
2AFE
102
{ACAD_REACTORS
330
2B15
330
2B22
102
}
330
1F
100
AcDbEntity
  8
AM_VIS
100
AcDbLine
 10
517.4299514191025
 20
539.2382546355388
 30
0.0
 11
517.4299514191025
 21
485.738254635539
 31
0.0
  0
LINE
  5
2AFF
330
1F
100
AcDbEntity
  8
AM_VIS
100
AcDbLine
 10
517.4299514191025
 20
559.2382546355388
 30
0.0
 11
517.4299514191025
 21
557.2382546355388
 31
0.0
  0
LINE
  5
2B00
330
1F
100
AcDbEntity
  8
AM_VIS
100
AcDbLine
 10
432.9299514191025
 20
559.7382546355389
 30
0.0
 11
432.4299514191024
 21
559.2382546355388
 31
0.0
  0
LINE
  5
2B01
330
1F
100
AcDbEntity
  8
AM_VIS
100
AcDbLine
 10
516.9299514191025
 20
559.7382546355389
 30
0.0
 11
517.4299514191025
 21
559.2382546355388
 31
0.0
  0
LINE
  5
2B02
330
1F
100
AcDbEntity
  8
AM_VIS
100
AcDbLine
 10
468.3299514191021
 20
365.7382546355391
 30
0.0
 11
468.3299514191021
 21
357.538254635539
 31
0.0
  0
LINE
  5
2B03
330
1F
100
AcDbEntity
  8
AM_VIS
100
AcDbLine
 10
481.5299514191028
 20
365.7382546355391
 30
0.0
 11
481.5299514191028
 21
357.538254635539
 31
0.0
  0
LINE
  5
2B04
330
1F
100
AcDbEntity
  8
AM_VIS
100
AcDbLine
 10
514.9299514191024
 20
374.7382546355391
 30
0.0
 11
434.9299514191025
 21
374.7382546355391
 31
0.0
  0
LINE
  5
2B05
102
{ACAD_REACTORS
330
2B22
102
}
330
1F
100
AcDbEntity
  8
AM_VIS
100
AcDbLine
 10
464.9299514191024
 20
365.7382546355391
 30
0.0
 11
484.9299514191025
 21
365.7382546355391
 31
0.0
  0
LINE
  5
2B06
330
1F
100
AcDbEntity
  8
AM_VIS
100
AcDbLine
 10
484.9299514191025
 20
563.788254635539
 30
0.0
 11
492.9299514191025
 21
563.788254635539
 31
0.0
  0
LINE
  5
2B07
330
1F
100
AcDbEntity
  8
AM_VIS
100
AcDbLine
 10
456.9299514191024
 20
563.788254635539
 30
0.0
 11
464.9299514191024
 21
563.788254635539
 31
0.0
  0
LINE
  5
2B08
102
{ACAD_REACTORS
330
2BF2
102
}
330
1F
100
AcDbEntity
  8
AM_VIS
100
AcDbLine
 10
464.9299514191024
 20
570.7382546355388
 30
0.0
 11
484.9299514191025
 21
570.7382546355388
 31
0.0
  0
LINE
  5
2B09
102
{ACAD_REACTORS
330
2BF2
102
}
330
1F
100
AcDbEntity
  8
AM_VIS
100
AcDbLine
 10
443.4299514191025
 20
563.7382546355389
 30
0.0
 11
506.4299514191024
 21
563.7382546355389
 31
0.0
  0
LINE
  5
2B0A
330
1F
100
AcDbEntity
  8
AM_VIS
100
AcDbLine
 10
517.4299514191025
 20
485.738254635539
 30
0.0
 11
432.4299514191024
 21
485.738254635539
 31
0.0
  0
LINE
  5
2B0B
330
1F
100
AcDbEntity
  8
AM_VIS
100
AcDbLine
 10
432.9299514191025
 20
559.7382546355389
 30
0.0
 11
516.9299514191025
 21
559.7382546355389
 31
0.0
  0
MTEXT
  5
2B0C
330
1F
100
AcDbEntity
  8
0
100
AcDbMText
 10
399.8939275217654
 20
537.8191747533369
 30
0.0
 40
6.0
 41
28.90783782997869
 71
     1
 72
     5
  1
AIR IN
  7
Arial
 73
     1
 44
1.0
1001
ACAD
1000
MTEXTBEGIN
1070
    73
1070
     1
1070
    44
1040
1.0
1070
    74
1070
     0
1000
MTEXTEND
  0
INSERT
  5
2B0D
330
1F
100
AcDbEntity
  8
0
100
AcDbBlockReference
  2
A$C68EF195C
 10
404.8633102475013
 20
523.6855622594621
 30
0.0
  0
INSERT
  5
2B0E
330
1F
100
AcDbEntity
  8
0
100
AcDbBlockReference
  2
A$C68EF195C
 10
528.476511173374
 20
523.8887888671443
 30
0.0
  0
MTEXT
  5
2B0F
330
1F
100
AcDbEntity
  8
0
100
AcDbMText
 10
519.3623992973207
 20
538.2256255940315
 30
0.0
 40
6.0
 41
53.03429105703049
 71
     1
 72
     5
  1
AIR OUT
  7
Arial
 73
     1
 44
1.0
1001
ACAD
1000
MTEXTBEGIN
1070
    73
1070
     1
1070
    44
1040
1.0
1070
    74
1070
     0
1000
MTEXTEND
  0
DIMENSION
  5
2B10
102
{ACAD_XDICTIONARY
360
2B11
102
}
102
{ACAD_REACTORS
330
2B12
102
}
330
1F
100
AcDbEntity
  8
AM_5
100
AcDbDimension
  2
*D48
 10
601.604120902899
 20
189.538254635539
 30
0.0
 11
601.604120902899
 21
383.1060712598696
 31
0.0
 70
   160
  1
(382)
 71
     5
 42
381.1999999999998
  3
AM_ISO$0
100
AcDbAlignedDimension
 13
484.9299514191025
 23
570.7382546355388
 33
0.0
 14
479.6699514191023
 24
189.538254635539
 34
0.0
 50
90.0
100
AcDbRotatedDimension
1001
ACAD
1000
DSTYLE
1002
{
1070
    40
1040
2.0
1070
   271
1070
     0
1002
}
  0
DIMENSION
  5
2B13
102
{ACAD_XDICTIONARY
360
2B14
102
}
102
{ACAD_REACTORS
330
2B15
102
}
330
1F
100
AcDbEntity
  8
AM_5
100
AcDbDimension
  2
*D49
 10
517.4299514191025
 20
591.2460225280961
 30
0.0
 11
474.9299514191025
 21
591.2460225280961
 31
0.0
 70
   160
  1
%%c<>
 71
     5
 42
85.0
  3
AM_ISO$0
100
AcDbAlignedDimension
 13
432.4299514191024
 23
539.2382546355388
 33
0.0
 14
517.4299514191025
 24
539.2382546355388
 34
0.0
100
AcDbRotatedDimension
1001
ACAD
1000
DSTYLE
1002
{
1070
    40
1040
2.0
1070
   271
1070
     0
1002
}
  0
LINE
  5
2B16
330
1F
100
AcDbEntity
  8
AM_VIS
100
AcDbLine
 10
471.1899514191027
 20
189.538254635539
 30
0.0
 11
471.1899514191027
 21
199.538254635539
 31
0.0
  0
LINE
  5
2B17
330
1F
100
AcDbEntity
  8
AM_VIS
100
AcDbLine
 10
478.6699514191022
 20
189.538254635539
 30
0.0
 11
478.6699514191022
 21
199.538254635539
 31
0.0
  0
DIMENSION
  5
2B1A
330
1F
100
AcDbEntity
  8
AM_5
100
AcDbDimension
  2
*D37
 10
567.4036477434182
 20
559.738254635539
 30
0.0
 11
567.4036477434181
 21
592.6041512714001
 31
0.0
 70
   160
 71
     5
 42
10.99999999999977
  3
AM_ISO$0
100
AcDbAlignedDimension
 13
484.9299514191025
 23
570.7382546355388
 33
0.0
 14
516.9299514191025
 24
559.738254635539
 34
0.0
 50
90.0
100
AcDbRotatedDimension
1001
ACAD
1000
DSTYLE
1002
{
1070
    40
1040
2.0
1070
   271
1070
     0
1002
}
  0
DIMENSION
  5
2B1B
330
1F
100
AcDbEntity
  8
AM_5
100
AcDbDimension
  2
*D38
 10
567.4036477434183
 20
485.738254635539
 30
0.0
 11
562.4036477434182
 21
522.7382546355392
 31
0.0
 70
    32
 71
     5
 42
74.0
  3
AM_ISO$0
100
AcDbAlignedDimension
 13
516.9299514191025
 23
559.738254635539
 33
0.0
 14
517.4299514191025
 24
485.738254635539
 34
0.0
 50
90.0
100
AcDbRotatedDimension
1001
ACAD
1000
DSTYLE
1002
{
1070
    40
1040
2.0
1070
   271
1070
     0
1002
}
  0
DIMENSION
  5
2B1C
330
1F
100
AcDbEntity
  8
AM_5
100
AcDbDimension
  2
*D39
 10
387.8135062347812
 20
570.7382546355388
 30
0.0
 11
387.8135062347812
 21
559.4882546355389
 31
0.0
 70
   160
 71
     5
 42
22.49999999999977
  3
AM_ISO$0
100
AcDbAlignedDimension
 13
429.4299514191025
 23
548.238254635539
 33
0.0
 14
464.9299514191024
 24
570.7382546355388
 34
0.0
 50
90.0
100
AcDbRotatedDimension
1001
ACAD
1000
DSTYLE
1002
{
1070
    40
1040
2.0
1070
   271
1070
     0
1002
}
  0
DIMENSION
  5
2B1D
102
{ACAD_XDICTIONARY
360
2B1E
102
}
102
{ACAD_REACTORS
330
2B1F
102
}
330
1F
100
AcDbEntity
  8
AM_5
100
AcDbDimension
  2
*D50
 10
514.9299514191024
 20
497.738254635539
 30
0.0
 11
474.9299514191025
 21
502.738254635539
 31
0.0
 70
    32
  1
%%c<>
 71
     5
 42
80.0
  3
AM_ISO$0
100
AcDbAlignedDimension
 13
434.9299514191025
 23
485.738254635539
 33
0.0
 14
514.9299514191024
 24
485.738254635539
 34
0.0
100
AcDbRotatedDimension
1001
ACAD
1000
DSTYLE
1002
{
1070
    40
1040
2.0
1070
   271
1070
     0
1002
}
  0
DIMENSION
  5
2B20
102
{ACAD_XDICTIONARY
360
2B21
102
}
102
{ACAD_REACTORS
330
2B22
102
}
330
1F
100
AcDbEntity
  8
AM_5
100
AcDbDimension
  2
*D51
 10
567.4036477434183
 20
365.7382546355391
 30
0.0
 11
562.4036477434182
 21
425.7382546355391
 31
0.0
 70
    32
 71
     5
 42
120.0
  3
AM_ISO$0
100
AcDbAlignedDimension
 13
517.4299514191025
 23
485.738254635539
 33
0.0
 14
484.9299514191025
 24
365.7382546355391
 34
0.0
 50
90.0
100
AcDbRotatedDimension
1001
ACAD
1000
DSTYLE
1002
{
1070
    40
1040
2.0
1070
   271
1070
     0
1002
}
  0
DIMENSION
  5
2B23
102
{ACAD_XDICTIONARY
360
2B24
102
}
102
{ACAD_REACTORS
330
2B25
102
}
330
1F
100
AcDbEntity
  8
AM_5
100
AcDbDimension
  2
*D52
 10
567.4036477434183
 20
189.538254635539
 30
0.0
 11
562.4036477434183
 21
273.5382546355391
 31
0.0
 70
    32
 71
     5
 42
167.9999999999999
  3
AM_ISO$0
100
AcDbAlignedDimension
 13
489.9299514191024
 23
357.538254635539
 33
0.0
 14
479.6699514191023
 24
189.538254635539
 34
0.0
 50
90.0
100
AcDbRotatedDimension
1001
ACAD
1000
DSTYLE
1002
{
1070
    40
1040
2.0
1070
   271
1070
     0
1002
}
  0
DIMENSION
  5
2B26
102
{ACAD_XDICTIONARY
360
2B27
102
}
102
{ACAD_REACTORS
330
2B28
102
}
330
1F
100
AcDbEntity
  8
AM_5
100
AcDbDimension
  2
*D53
 10
515.9299514191025
 20
297.5830729515329
 30
0.0
 11
397.509538033276
 21
297.5830729515329
 31
0.0
 70
   160
  1
%%c<>
 71
     5
 42
82.0
  3
AM_ISO$0
100
AcDbAlignedDimension
 13
433.9299514191025
 23
314.538254635539
 33
0.0
 14
515.9299514191025
 24
314.538254635539
 34
0.0
100
AcDbRotatedDimension
1001
ACAD
1000
DSTYLE
1002
{
1070
    40
1040
2.0
1070
   271
1070
     0
1002
}
  0
CIRCLE
  5
2BE2
330
1F
100
AcDbEntity
  8
AM_VIS
100
AcDbCircle
 10
474.9299514191025
 20
657.9051156377913
 30
0.0
 40
18.0
  0
DIMENSION
  5
2BF0
102
{ACAD_XDICTIONARY
360
2BF1
102
}
102
{ACAD_REACTORS
330
2BF2
102
}
330
1F
100
AcDbEntity
  8
AM_5
100
AcDbDimension
  2
*D58
 10
541.1125786054193
 20
563.7382546355389
 30
0.0
 11
541.1125786054192
 21
592.2460225280961
 31
0.0
 70
   160
 71
     5
 42
7.0
  3
AM_ISO$0
100
AcDbAlignedDimension
 13
484.9299514191025
 23
570.7382546355388
 33
0.0
 14
506.4299514191024
 24
563.7382546355389
 34
0.0
 50
90.0
100
AcDbRotatedDimension
1001
ACAD
1000
DSTYLE
1002
{
1070
    40
1040
2.0
1070
   271
1070
     0
1002
}
  0
MTEXT
  5
2BF4
102
{ACAD_REACTORS
330
2BF3
102
}
330
1F
100
AcDbEntity
  8
AM_5
100
AcDbMText
 10
407.2527415789108
 20
340.266696036149
 30
0.0
 40
5.0
 41
0.0
 71
     9
 72
     1
  1
(PT1/4")
 73
     1
 44
1.0
1001
ACAD
1000
MTEXTBEGIN
1070
    73
1070
     1
1070
    44
1040
1.0
1070
    74
1070
     0
1000
MTEXTEND
  0
LINE
  5
2BF5
330
1F
100
AcDbEntity
  8
0
  6
ASVLTYPE
 62
     6
100
AcDbLine
 10
468.7666829104514
 20
365.7382546355391
 30
0.0
 11
468.7666829104514
 21
374.7382546355391
 31
0.0
  0
LINE
  5
2BF6
330
1F
100
AcDbEntity
  8
0
  6
ASVLTYPE
 62
     6
100
AcDbLine
 10
467.7666829104514
 20
365.7382546355391
 30
0.0
 11
467.7666829104514
 21
374.7382546355391
 31
0.0
  0
LINE
  5
2BF7
330
1F
100
AcDbEntity
  8
0
  6
ASVLTYPE
 62
     6
100
AcDbLine
 10
481.0932199277536
 20
365.7382546355391
 30
0.0
 11
481.0932199277536
 21
374.7382546355391
 31
0.0
  0
LINE
  5
2BF8
330
1F
100
AcDbEntity
  8
0
  6
ASVLTYPE
 62
     6
100
AcDbLine
 10
482.0932199277535
 20
365.7382546355391
 30
0.0
 11
482.0932199277535
 21
374.7382546355391
 31
0.0
  0
DIMENSION
  5
2BFF
102
{ACAD_XDICTIONARY
360
2C00
102
}
102
{ACAD_REACTORS
330
2C01
102
}
330
1F
100
AcDbEntity
  8
AM_5
100
AcDbDimension
  2
*D59
 10
484.9299514191025
 20
722.1039053717373
 30
0.0
 11
474.9299514191025
 21
724.6039053717374
 31
0.0
 70
    32
 71
     5
 42
20.0
  3
AM_ISO$0
100
AcDbAlignedDimension
 13
464.9299514191024
 23
672.2665222541364
 33
0.0
 14
484.9299514191025
 24
672.2665222541364
 34
0.0
100
AcDbRotatedDimension
  0
LEADER
  5
2ECA
330
1F
100
AcDbEntity
  8
AM_5
100
AcDbLeader
  3
AM_ISO$7
 73
     0
 75
     1
 40
5.0
 41
16.0
 76
     3
 10
469.5765447097041
 20
192.9952111007316
 30
0.0
 10
452.2709248018391
 20
177.1034940210376
 30
0.0
 10
446.270924801839
 20
177.1034940210376
 30
0.0
213
-5.074227932964731
223
1.548378659791978
233
0.0
1001
ACAD
1000
DSTYLE
1002
{
1070
    40
1040
2.0
1070
   140
1040
3.0
1002
}
  0
MTEXT
  5
2ECB
102
{ACAD_REACTORS
330
2ECA
102
}
330
1F
100
AcDbEntity
  8
AM_5
100
AcDbMText
 10
448.3451527348038
 20
178.5551153612456
 30
0.0
 40
6.0
 41
0.0
 71
     9
 72
     1
  1
PT1/8
 73
     1
 44
1.0
1001
ACAD
1000
MTEXTBEGIN
1070
    73
1070
     1
1070
    44
1040
1.0
1070
    74
1070
     0
1000
MTEXTEND
  0
LEADER
  5
2ED7
330
1F
100
AcDbEntity
  8
AM_5
100
AcDbLeader
  3
AM_ISO$7
 73
     0
 74
     0
 75
     1
 40
7.0
 41
27.99999999999999
 76
     3
 10
432.4299514191024
 20
548.2382546355388
 30
0.0
 10
421.3813114452785
 20
508.3852204827295
 30
0.0
 10
415.3813114452786
 20
508.3852204827295
 30
0.0
211
-1.0
221
0.0000000000000001
231
0.0
213
-3.573287685194827
223
-1.33873553942476
233
0.0
1001
ACAD
1000
DSTYLE
1002
{
1070
    40
1040
2.0
1070
   140
1040
3.5
1002
}
  0
MTEXT
  5
2EDA
102
{ACAD_REACTORS
330
2ED7
102
}
330
1F
100
AcDbEntity
  8
AM_5
100
AcDbMText
 10
388.5357517866266
 20
510.4505312236453
 30
0.0
 40
7.0
 41
0.0
 71
     7
 72
     1
  1
Rc 3/8"
 73
     1
 44
1.0
1001
ACAD
1000
MTEXTBEGIN
1070
    73
1070
     1
1070
    44
1040
1.0
1070
    74
1070
     0
1000
MTEXTEND
  0
SOLID
  5
33E0
330
1F
100
AcDbEntity
  8
AM_5
100
AcDbTrace
 10
465.1631543961169
 20
368.6661098346232
 30
0.0
 11
467.7666829104514
 21
370.2382546355391
 31
0.0
 12
465.813770467459
 22
367.906703008402
 32
0.0
 13
465.813770467459
 23
367.906703008402
 33
0.0
1001
ACAD
1000
DSTYLE
1002
{
1070
   140
1040
3.5
1002
}
  0
LWPOLYLINE
  5
33E1
330
1F
100
AcDbEntity
  8
AM_5
100
AcDbPolyline
 90
        3
 70
     0
 43
0.0
 10
465.488462431788
 20
368.2864064215126
 10
411.7034111615303
 20
337.3443484235322
 10
379.825284943663
 20
337.3443484235322
1001
ACAD
1000
DSTYLE
1002
{
1070
   140
1040
3.5
1002
}
  0
LINE
  5
3454
330
1F
100
AcDbEntity
  8
AM_7
 48
0.7
100
AcDbLine
 10
775.8340569421416
 20
538.6441305767414
 30
0.0
 11
775.8340569421416
 21
670.0515335804225
 31
0.0
  0
LINE
  5
3455
330
1F
100
AcDbEntity
  8
AM_7
100
AcDbLine
 10
729.3340569421416
 20
642.0101175127086
 30
0.0
 11
737.6840569421415
 21
642.0101175127086
 31
0.0
  0
LINE
  5
3456
330
1F
100
AcDbEntity
  8
AM_7
100
AcDbLine
 10
822.3340569421413
 20
642.0101175127086
 30
0.0
 11
813.9840569421412
 21
642.0101175127086
 31
0.0
  0
LINE
  5
3457
330
1F
100
AcDbEntity
  8
AM_VIS
100
AcDbLine
 10
765.8340569421416
 20
664.0101175127085
 30
0.0
 11
765.8340569421416
 21
657.5601175127087
 31
0.0
  0
LINE
  5
3458
330
1F
100
AcDbEntity
  8
AM_VIS
100
AcDbLine
 10
785.8340569421415
 20
657.5601175127087
 30
0.0
 11
785.8340569421415
 21
664.0101175127085
 31
0.0
  0
LINE
  5
3459
330
1F
100
AcDbEntity
  8
AM_VIS
100
AcDbLine
 10
785.8340569421411
 20
664.5101175127085
 30
0.0
 11
785.8340569421411
 21
664.0101175127085
 31
0.0
  0
LINE
  5
345A
330
1F
100
AcDbEntity
  8
AM_VIS
100
AcDbLine
 10
765.8340569421416
 20
664.5101175127085
 30
0.0
 11
765.8340569421416
 21
664.0101175127085
 31
0.0
  0
SPLINE
  5
345B
330
1F
100
AcDbEntity
  8
AM_VIS
100
AcDbSpline
210
0.0
220
0.0
230
1.0
 70
     8
 71
     3
 72
    38
 73
    34
 74
     0
 42
0.0000000001
 43
0.0000000001
 40
12.99701597929317
 40
12.99701597929317
 40
12.99701597929317
 40
12.99701597929317
 40
14.63954863654092
 40
14.63954863654092
 40
16.28208129378866
 40
16.28208129378866
 40
17.92461395103641
 40
17.92461395103641
 40
19.56714660828415
 40
19.56714660828415
 40
21.17386794585971
 40
21.17386794585971
 40
22.78058928343525
 40
22.78058928343525
 40
24.3873106210108
 40
24.3873106210108
 40
25.99403195858635
 40
25.99403195858635
 40
27.6007532961619
 40
27.6007532961619
 40
29.20747463373745
 40
29.20747463373745
 40
30.814195971313
 40
30.814195971313
 40
32.42091730888855
 40
32.42091730888855
 40
34.06344996613629
 40
34.06344996613629
 40
35.70598262338403
 40
35.70598262338403
 40
37.34851528063177
 40
37.34851528063177
 40
38.99104793787952
 40
38.99104793787952
 40
38.99104793787952
 40
38.99104793787952
 10
733.3340569421416
 20
651.0101175127085
 30
0.0
 10
733.3340569421416
 20
651.0101175127085
 30
0.0
 10
733.344924978229
 20
650.9485710641756
 30
0.0
 10
733.3883552625255
 20
650.6950638566902
 30
0.0
 10
733.4208728794551
 20
650.5031847988641
 30
0.0
 10
733.5012301825031
 20
650.0036281129325
 30
0.0
 10
733.5490622171906
 20
649.6954899246816
 30
0.0
 10
733.6500543604552
 20
648.993670517686
 30
0.0
 10
733.7031028177356
 20
648.5999744124072
 30
0.0
 10
733.8027293543818
 20
647.78285157362
 30
0.0
 10
733.852930130653
 20
647.3322685909754
 30
0.0
 10
733.9460624195282
 20
646.3625086943602
 30
0.0
 10
733.988911525139
 20
645.8433553132272
 30
0.0
 10
734.0595655525953
 20
644.7689952482326
 30
0.0
 10
734.0873579498345
 20
644.2131131626877
 30
0.0
 10
734.1240111689431
 20
643.1014647610484
 30
0.0
 10
734.132854566304
 20
642.5456912919005
 30
0.0
 10
734.132854566304
 20
641.4745437335168
 30
0.0
 10
734.1240111689431
 20
640.9187702643687
 30
0.0
 10
734.0873579498345
 20
639.8071218627294
 30
0.0
 10
734.0595655525953
 20
639.2512397771847
 30
0.0
 10
733.988911525139
 20
638.1768797121901
 30
0.0
 10
733.9460624195282
 20
637.6577263310571
 30
0.0
 10
733.852930130653
 20
636.6879664344416
 30
0.0
 10
733.8027293543818
 20
636.2373834517971
 30
0.0
 10
733.7031028177356
 20
635.4202606130099
 30
0.0
 10
733.6500543604552
 20
635.0265645077313
 30
0.0
 10
733.5490622171906
 20
634.3247451007357
 30
0.0
 10
733.5012301825031
 20
634.0166069124848
 30
0.0
 10
733.4208728794551
 20
633.517050226553
 30
0.0
 10
733.3883552625255
 20
633.3251711687271
 30
0.0
 10
733.344924978229
 20
633.0716639612415
 30
0.0
 10
733.3340569421416
 20
633.0101175127086
 30
0.0
 10
733.3340569421416
 20
633.0101175127086
 30
0.0
  0
SPLINE
  5
345C
330
1F
100
AcDbEntity
  8
AM_VIS
100
AcDbSpline
210
0.0
220
0.0
230
1.0
 70
     8
 71
     3
 72
    39
 73
    35
 74
     0
 42
0.0000000001
 43
0.0000000001
 40
38.9943552632704
 40
38.9943552632704
 40
38.9943552632704
 40
38.9943552632704
 40
40.63688792051815
 40
40.63688792051815
 40
42.27942057776589
 40
42.27942057776589
 40
43.92195323501363
 40
43.92195323501363
 40
45.56448589226137
 40
45.56448589226137
 40
47.17120722983692
 40
47.17120722983692
 40
48.77792856741248
 40
48.77792856741248
 40
50.38464990498802
 40
50.38464990498802
 40
51.99137124256357
 40
51.99137124256357
 40
51.99137124256357
 40
53.5589878607859
 40
53.5589878607859
 40
55.12660447900822
 40
55.12660447900822
 40
56.69422109723055
 40
56.69422109723055
 40
58.26183771545288
 40
58.26183771545288
 40
59.94430192340156
 40
59.94430192340156
 40
61.62676613135025
 40
61.62676613135025
 40
63.30923033929893
 40
63.30923033929893
 40
64.99169454724762
 40
64.99169454724762
 40
64.99169454724762
 40
64.99169454724762
 10
818.3340569421416
 20
633.0101175127086
 30
0.0
 10
818.3340569421416
 20
633.0101175127086
 30
0.0
 10
818.3231889060539
 20
633.0716639612415
 30
0.0
 10
818.2797586217574
 20
633.3251711687271
 30
0.0
 10
818.247241004828
 20
633.517050226553
 30
0.0
 10
818.1668837017799
 20
634.0166069124848
 30
0.0
 10
818.1190516670927
 20
634.3247451007357
 30
0.0
 10
818.018059523828
 20
635.0265645077313
 30
0.0
 10
817.9650110665473
 20
635.4202606130099
 30
0.0
 10
817.8653845299008
 20
636.2373834517971
 30
0.0
 10
817.8151837536301
 20
636.6879664344416
 30
0.0
 10
817.7220514647547
 20
637.6577263310569
 30
0.0
 10
817.6792023591442
 20
638.1768797121901
 30
0.0
 10
817.6085483316875
 20
639.2512397771847
 30
0.0
 10
817.5807559344484
 20
639.8071218627294
 30
0.0
 10
817.5441027153398
 20
640.9187702643687
 30
0.0
 10
817.5352593179791
 20
641.4745437335168
 30
0.0
 10
817.5352593179791
 20
642.0101175127086
 30
0.0
 10
817.5352593179791
 20
642.5326563854493
 30
0.0
 10
817.5436740811983
 20
643.0752205001579
 30
0.0
 10
817.5786524620402
 20
644.1616470427004
 30
0.0
 10
817.6052011393768
 20
644.7055154256038
 30
0.0
 10
817.6728974434375
 20
645.7584089912962
 30
0.0
 10
817.7140339818096
 20
646.2680694813846
 30
0.0
 10
817.8037844311271
 20
647.2224080037308
 30
0.0
 10
817.8523221870298
 20
647.6670652224282
 30
0.0
 10
817.9515900439104
 20
648.4968506114003
 30
0.0
 10
818.0060736007598
 20
648.9065654176197
 30
0.0
 10
818.1102543246222
 20
649.6374786107858
 30
0.0
 10
818.1598315297856
 20
649.9586973606569
 30
0.0
 10
818.2433435180744
 20
650.4799110577289
 30
0.0
 10
818.2772695851438
 20
650.6804057341566
 30
0.0
 10
818.3226510987767
 20
650.9455528307944
 30
0.0
 10
818.3340569421416
 20
651.0101175127085
 30
0.0
 10
818.3340569421416
 20
651.0101175127085
 30
0.0
  0
LINE
  5
345D
330
1F
100
AcDbEntity
  8
AM_VIS
100
AcDbLine
 10
735.8340569421415
 20
579.3101175127087
 30
0.0
 11
735.8340569421415
 21
554.7924712719357
 31
0.0
  0
LINE
  5
345E
330
1F
100
AcDbEntity
  8
AM_VIS
100
AcDbLine
 10
815.8340569421415
 20
579.3101175127087
 30
0.0
 11
815.8340569421415
 21
555.6427918270458
 31
0.0
  0
LINE
  5
345F
330
1F
100
AcDbEntity
  8
AM_VIS
100
AcDbLine
 10
793.8340569421415
 20
657.5101175127086
 30
0.0
 11
793.8340569421415
 21
657.5601175127087
 31
0.0
  0
LINE
  5
3460
330
1F
100
AcDbEntity
  8
AM_VIS
100
AcDbLine
 10
757.8340569421416
 20
657.5101175127086
 30
0.0
 11
757.8340569421416
 21
657.5601175127087
 31
0.0
  0
LINE
  5
3461
330
1F
100
AcDbEntity
  8
AM_VIS
100
AcDbLine
 10
807.8340569421415
 20
654.3101175127087
 30
0.0
 11
807.8340569421415
 21
657.0101175127085
 31
0.0
  0
LINE
  5
3462
330
1F
100
AcDbEntity
  8
AM_VIS
100
AcDbLine
 10
743.8340569421415
 20
654.3101175127087
 30
0.0
 11
743.8340569421415
 21
657.0101175127085
 31
0.0
  0
LINE
  5
3463
330
1F
100
AcDbEntity
  8
AM_VIS
100
AcDbLine
 10
744.3340569421415
 20
657.5101175127086
 30
0.0
 11
743.8340569421415
 21
657.0101175127085
 31
0.0
  0
LINE
  5
3464
330
1F
100
AcDbEntity
  8
AM_VIS
100
AcDbLine
 10
807.3340569421416
 20
657.5101175127086
 30
0.0
 11
807.8340569421415
 21
657.0101175127085
 31
0.0
  0
LINE
  5
3465
330
1F
100
AcDbEntity
  8
AM_VIS
100
AcDbLine
 10
733.3340569421416
 20
633.0101175127086
 30
0.0
 11
733.3340569421416
 21
579.3101175127087
 31
0.0
  0
LINE
  5
3466
330
1F
100
AcDbEntity
  8
AM_VIS
100
AcDbLine
 10
733.3340569421416
 20
653.8101175127088
 30
0.0
 11
733.3340569421416
 21
651.0101175127085
 31
0.0
  0
LINE
  5
3467
330
1F
100
AcDbEntity
  8
AM_VIS
100
AcDbLine
 10
818.3340569421416
 20
633.0101175127086
 30
0.0
 11
818.3340569421416
 21
579.3101175127087
 31
0.0
  0
LINE
  5
3468
330
1F
100
AcDbEntity
  8
AM_VIS
100
AcDbLine
 10
818.3340569421416
 20
653.8101175127088
 30
0.0
 11
818.3340569421416
 21
651.0101175127085
 31
0.0
  0
LINE
  5
3469
330
1F
100
AcDbEntity
  8
AM_VIS
100
AcDbLine
 10
733.8340569421416
 20
654.3101175127087
 30
0.0
 11
733.3340569421416
 21
653.8101175127088
 31
0.0
  0
LINE
  5
346A
330
1F
100
AcDbEntity
  8
AM_VIS
100
AcDbLine
 10
817.8340569421417
 20
654.3101175127087
 30
0.0
 11
818.3340569421416
 21
653.8101175127088
 31
0.0
  0
LINE
  5
346B
330
1F
100
AcDbEntity
  8
AM_VIS
100
AcDbLine
 10
785.8340569421415
 20
657.5601175127087
 30
0.0
 11
793.8340569421415
 21
657.5601175127087
 31
0.0
  0
LINE
  5
346C
330
1F
100
AcDbEntity
  8
AM_VIS
100
AcDbLine
 10
757.8340569421416
 20
657.5601175127087
 30
0.0
 11
765.8340569421416
 21
657.5601175127087
 31
0.0
  0
LINE
  5
346D
330
1F
100
AcDbEntity
  8
AM_VIS
100
AcDbLine
 10
765.8340569421416
 20
664.5101175127085
 30
0.0
 11
785.8340569421415
 21
664.5101175127085
 31
0.0
  0
LINE
  5
346E
330
1F
100
AcDbEntity
  8
AM_VIS
100
AcDbLine
 10
744.3340569421415
 20
657.5101175127086
 30
0.0
 11
807.3340569421416
 21
657.5101175127086
 31
0.0
  0
LINE
  5
346F
330
1F
100
AcDbEntity
  8
AM_VIS
100
AcDbLine
 10
818.3340569421416
 20
579.3101175127087
 30
0.0
 11
733.3340569421416
 21
579.3101175127087
 31
0.0
  0
LINE
  5
3470
330
1F
100
AcDbEntity
  8
AM_VIS
100
AcDbLine
 10
733.8340569421416
 20
654.3101175127087
 30
0.0
 11
817.8340569421417
 21
654.3101175127087
 31
0.0
  0
DIMENSION
  5
3471
330
1F
100
AcDbEntity
  8
AM_5
100
AcDbDimension
  2
*D64
 10
837.3340569421415
 20
681.5438242631985
 30
0.0
 11
775.8340569421416
 21
684.8295385489128
 31
0.0
 70
    32
  1
(<>)
 71
     5
 42
123.0
  3
AM_ISO$0
100
AcDbAlignedDimension
 13
714.3340569421416
 23
654.0101175127086
 33
0.0
 14
837.3340569421415
 24
654.0101175127086
 34
0.0
100
AcDbRotatedDimension
1001
ACAD
1000
DSTYLE
1002
{
1070
    40
1040
1.0
1070
   144
1040
1.0
1070
   272
1070
     8
1002
}
  0
SPLINE
  5
3473
330
1F
100
AcDbEntity
  8
0
100
AcDbSpline
210
0.0
220
0.0
230
1.0
 70
     8
 71
     3
 72
    11
 73
     7
 74
     0
 42
0.0000000001
 43
0.0000000001
 40
15.75991058802537
 40
15.75991058802537
 40
15.75991058802537
 40
15.75991058802537
 40
40.7074493577508
 40
71.10769619577675
 40
90.261471344498
 40
96.65608129046365
 40
96.65608129046365
 40
96.65608129046365
 40
96.65608129046365
 10
735.8340569421418
 20
554.7924712719357
 30
0.0
 10
744.1430029643008
 20
555.0394152963804
 30
0.0
 10
762.89293765943
 20
562.9401222959181
 30
0.0
 10
787.577628589836
 20
546.8212649542433
 30
0.0
 10
805.3798257915744
 20
555.1295320722372
 30
0.0
 10
813.7326355373479
 20
555.6654572890192
 30
0.0
 10
815.8340569421413
 20
555.6427918270458
 30
0.0
  0
TEXT
  5
3474
330
1F
100
AcDbEntity
  8
0
100
AcDbText
 10
663.7390437773428
 20
722.5493434284423
 30
0.0
 40
9.728000000000001
  1
G &NPT thread
 41
0.75
  7
CHINESET
100
AcDbText
  0
INSERT
  5
3475
330
1F
100
AcDbEntity
  8
0
100
AcDbBlockReference
  2
A$C61FB0DC2
 10
711.2629820812067
 20
629.5101174281958
 30
0.0
  0
LINE
  5
3476
330
1F
100
AcDbEntity
  8
0
100
AcDbLine
 10
733.3340569421416
 20
650.3601175127085
 30
0.0
 11
733.4437848077655
 21
650.3601175127085
 31
0.0
  0
LINE
  5
3477
330
1F
100
AcDbEntity
  8
0
100
AcDbLine
 10
733.3340569421416
 20
633.6601175127084
 30
0.0
 11
733.4437848077655
 21
633.6601175127084
 31
0.0
  0
INSERT
  5
3478
102
{ACAD_REACTORS
330
347D
102
}
330
1F
100
AcDbEntity
  8
0
100
AcDbBlockReference
  2
A$C61FB0DC2
 10
840.4051318030765
 20
629.5101174281958
 30
0.0
 41
-1.0
  0
LINE
  5
3479
330
1F
100
AcDbEntity
  8
0
100
AcDbLine
 10
818.3340569421416
 20
650.3601175127085
 30
0.0
 11
818.2243290765176
 21
650.3601175127085
 31
0.0
  0
LINE
  5
347A
330
1F
100
AcDbEntity
  8
0
100
AcDbLine
 10
818.3340569421416
 20
633.6601175127084
 30
0.0
 11
818.2243290765176
 21
633.6601175127084
 31
0.0
  0
DIMENSION
  5
347B
102
{ACAD_XDICTIONARY
360
347C
102
}
102
{ACAD_REACTORS
330
347D
102
}
330
1F
100
AcDbEntity
  8
AM_5
100
AcDbDimension
  2
*D65
 10
854.2863550319479
 20
654.5101175127086
 30
0.0
 11
851.7863550319479
 21
642.0101175127087
 31
0.0
 70
    32
  1
%%c<>
 71
     5
 42
25.0
  3
AM_ISO$0
100
AcDbAlignedDimension
 13
836.8340569421416
 23
629.5101175127086
 33
0.0
 14
836.8340569421416
 24
654.5101175127086
 34
0.0
 50
90.0
100
AcDbRotatedDimension
1001
ACAD
1000
DSTYLE
1002
{
1070
    40
1040
1.0
1070
   144
1040
1.0
1070
   272
1070
     8
1002
}
  0
LINE
  5
3536
330
1F
100
AcDbEntity
  8
AM_7
100
AcDbLine
 10
745.8418243415662
 20
373.0638998690649
 30
0.0
 11
745.8418243415662
 21
343.0638998690649
 31
0.0
  0
LINE
  5
3537
330
1F
100
AcDbEntity
  8
AM_7
100
AcDbLine
 10
685.8418243415663
 20
358.0638998690649
 30
0.0
 11
700.8418243415662
 21
358.0638998690649
 31
0.0
  0
LINE
  5
3538
330
1F
100
AcDbEntity
  8
AM_7
100
AcDbLine
 10
693.3418243415663
 20
350.5638998690649
 30
0.0
 11
693.3418243415663
 21
365.5638998690649
 31
0.0
  0
LINE
  5
3539
330
1F
100
AcDbEntity
  8
AM_7
100
AcDbLine
 10
745.8418243415662
 20
444.6767732785085
 30
0.0
 11
745.8418243415662
 21
444.6767732785085
 31
0.0
  0
LINE
  5
353A
330
1F
100
AcDbEntity
  8
AM_7
100
AcDbLine
 10
745.8418243415662
 20
444.6767732785085
 30
0.0
 11
745.8418243415662
 21
444.6767732785085
 31
0.0
  0
LINE
  5
353B
330
1F
100
AcDbEntity
  8
AM_7
100
AcDbLine
 10
701.2418243415659
 20
444.6767732785085
 30
0.0
 11
790.4418243415648
 21
444.6767732785085
 31
0.0
  0
LINE
  5
353C
330
1F
100
AcDbEntity
  8
AM_7
100
AcDbLine
 10
745.8418243415662
 20
411.6141730823562
 30
0.0
 11
745.8418243415662
 21
489.2767732785085
 31
0.0
  0
DIMENSION
  5
353D
330
1F
100
AcDbEntity
  8
AM_5
100
AcDbDimension
  2
*D75
 10
798.3418243415663
 20
311.0777215161609
 30
0.0
 11
746.3206757804428
 21
311.0777215161609
 31
0.0
 70
   160
 71
     5
 42
105.0
  3
AM_ISO$0
100
AcDbAlignedDimension
 13
693.3418243415663
 23
350.5638998690649
 33
0.0
 14
798.3418243415663
 24
350.5638998690649
 34
0.0
100
AcDbRotatedDimension
1001
ACAD
1000
DSTYLE
1002
{
1070
    40
1040
2.0
1070
   271
1070
     0
1002
}
  0
DIMENSION
  5
353E
330
1F
100
AcDbEntity
  8
AM_5
100
AcDbDimension
  2
*D76
 10
808.3418243415662
 20
290.662145700617
 30
0.0
 11
748.2350339816703
 21
290.662145700617
 31
0.0
 70
   160
 71
     5
 42
125.0
  3
AM_ISO$0
100
AcDbAlignedDimension
 13
683.3418243415662
 23
346.0638998690649
 33
0.0
 14
808.3418243415662
 24
346.0638998690649
 34
0.0
100
AcDbRotatedDimension
1001
ACAD
1000
DSTYLE
1002
{
1070
    40
1040
2.0
1070
   271
1070
     0
1002
}
  0
DIMENSION
  5
353F
330
1F
100
AcDbEntity
  8
AM_5
100
AcDbDimension
  2
*D77
 10
861.2170963143809
 20
370.0638998690649
 30
0.0
 11
861.2170963143809
 21
358.0638998690651
 31
0.0
 70
   160
 71
     5
 42
24.0
  3
AM_ISO$0
100
AcDbAlignedDimension
 13
808.3418243415662
 23
346.0638998690649
 33
0.0
 14
808.3418243415662
 24
370.0638998690649
 34
0.0
 50
90.0
100
AcDbRotatedDimension
1001
ACAD
1000
DSTYLE
1002
{
1070
    40
1040
2.0
1070
   271
1070
     0
1002
}
  0
DIMENSION
  5
3540
330
1F
100
AcDbEntity
  8
AM_5
100
AcDbDimension
  2
*D78
 10
834.9515430724288
 20
358.0638998690649
 30
0.0
 11
834.9515430724286
 21
306.9335381564672
 31
0.0
 70
   160
 71
     5
 42
12.0
  3
AM_ISO$0
100
AcDbAlignedDimension
 13
808.3418243415662
 23
346.0638998690649
 33
0.0
 14
805.8418243415662
 24
358.0638998690649
 34
0.0
 50
90.0
100
AcDbRotatedDimension
1001
ACAD
1000
DSTYLE
1002
{
1070
    40
1040
2.0
1070
   271
1070
     0
1002
}
  0
DIMENSION
  5
3541
330
1F
100
AcDbEntity
  8
AM_5
100
AcDbDimension
  2
*D79
 10
801.2926534109233
 20
354.6664585077713
 30
0.0
 11
771.187042185726
 21
389.3285979877473
 31
0.0
 70
   163
 71
     5
 42
9.000000000000397
  3
AM_ISO$3
100
AcDbDiametricDimension
 15
795.3909952722113
 25
361.4613412303635
 35
0.0
 40
0.0
1001
ACAD
1000
DSTYLE
1002
{
1070
    40
1040
2.0
1070
    74
1070
     0
1070
   172
1070
     1
1070
   271
1070
     0
1070
   288
1070
     0
1070
   289
1070
     3
1002
}
  0
DIMENSION
  5
3542
330
1F
100
AcDbEntity
  8
AM_5
100
AcDbDimension
  2
*D80
 10
827.9232700666208
 20
406.8767732785083
 30
0.0
 11
827.9232700666208
 21
448.1267732785085
 31
0.0
 70
   160
  1
<>
 71
     5
 42
1.599999999999909
  3
AM_ISO$0
100
AcDbAlignedDimension
 13
808.3418243415662
 23
405.2767732785084
 33
0.0
 14
808.3418243415662
 24
406.8767732785083
 34
0.0
 50
90.0
100
AcDbRotatedDimension
1001
ACAD
1000
DSTYLE
1002
{
1070
    40
1040
2.0
1070
   271
1070
     0
1002
}
  0
DIMENSION
  5
3543
330
1F
100
AcDbEntity
  8
AM_5
100
AcDbDimension
  2
*D81
 10
861.2170963143809
 20
486.2767732785084
 30
0.0
 11
856.2170963143806
 21
445.7767732785085
 31
0.0
 70
    32
 71
     5
 42
81.0
  3
AM_ISO$0
100
AcDbAlignedDimension
 13
808.3418243415662
 23
405.2767732785084
 33
0.0
 14
745.8418243415662
 24
486.2767732785084
 34
0.0
 50
90.0
100
AcDbRotatedDimension
1001
ACAD
1000
DSTYLE
1002
{
1070
    40
1040
2.0
1070
   271
1070
     0
1002
}
  0
LINE
  5
3544
330
1F
100
AcDbEntity
  8
AM_VIS
100
AcDbLine
 10
808.3418243415662
 20
370.0638998690649
 30
0.0
 11
785.8418243415663
 21
370.0638998690649
 31
0.0
  0
LINE
  5
3545
330
1F
100
AcDbEntity
  8
AM_VIS
100
AcDbLine
 10
785.8418243415663
 20
346.0638998690649
 30
0.0
 11
808.3418243415662
 21
346.0638998690649
 31
0.0
  0
LINE
  5
3546
330
1F
100
AcDbEntity
  8
AM_VIS
100
AcDbLine
 10
785.8418243415663
 20
370.0638998690649
 30
0.0
 11
785.8418243415663
 21
346.0638998690649
 31
0.0
  0
LINE
  5
3547
330
1F
100
AcDbEntity
  8
AM_VIS
100
AcDbLine
 10
705.8418243415663
 20
370.0638998690649
 30
0.0
 11
683.3418243415662
 21
370.0638998690649
 31
0.0
  0
LINE
  5
3548
330
1F
100
AcDbEntity
  8
AM_VIS
100
AcDbLine
 10
705.8418243415663
 20
370.0638998690649
 30
0.0
 11
705.8418243415663
 21
346.0638998690649
 31
0.0
  0
LINE
  5
3549
330
1F
100
AcDbEntity
  8
AM_VIS
100
AcDbLine
 10
683.3418243415662
 20
346.0638998690649
 30
0.0
 11
705.8418243415663
 21
346.0638998690649
 31
0.0
  0
LINE
  5
354A
330
1F
100
AcDbEntity
  8
AM_VIS
100
AcDbLine
 10
683.3418243415662
 20
370.0638998690649
 30
0.0
 11
683.3418243415662
 21
346.0638998690649
 31
0.0
  0
LINE
  5
354B
330
1F
100
AcDbEntity
  8
AM_VIS
100
AcDbLine
 10
808.3418243415662
 20
370.0638998690649
 30
0.0
 11
808.3418243415662
 21
346.0638998690649
 31
0.0
  0
LINE
  5
354C
330
1F
100
AcDbEntity
  8
AM_VIS
100
AcDbLine
 10
785.8418243415663
 20
370.0638998690649
 30
0.0
 11
705.8418243415663
 21
370.0638998690649
 31
0.0
  0
LINE
  5
354D
330
1F
100
AcDbEntity
  8
AM_VIS
100
AcDbLine
 10
705.8418243415663
 20
346.0638998690649
 30
0.0
 11
785.8418243415663
 21
346.0638998690649
 31
0.0
  0
CIRCLE
  5
354E
330
1F
100
AcDbEntity
  8
AM_VIS
100
AcDbCircle
 10
693.3418243415663
 20
358.0638998690649
 30
0.0
 40
4.5
  0
CIRCLE
  5
354F
330
1F
100
AcDbEntity
  8
AM_VIS
100
AcDbCircle
 10
798.3418243415663
 20
358.0638998690649
 30
0.0
 40
4.5
  0
LINE
  5
3550
330
1F
100
AcDbEntity
  8
AM_VIS
100
AcDbLine
 10
808.3418243415662
 20
405.2767732785084
 30
0.0
 11
785.8418243415663
 21
405.2767732785084
 31
0.0
  0
LINE
  5
3551
330
1F
100
AcDbEntity
  8
AM_VIS
100
AcDbLine
 10
785.8418243415663
 20
405.2767732785084
 30
0.0
 11
785.8418243415663
 21
444.6767732785085
 31
0.0
  0
LINE
  5
3552
330
1F
100
AcDbEntity
  8
AM_VIS
100
AcDbLine
 10
705.8418243415663
 20
444.6767732785085
 30
0.0
 11
705.8418243415663
 21
405.2767732785084
 31
0.0
  0
LINE
  5
3553
330
1F
100
AcDbEntity
  8
AM_VIS
100
AcDbLine
 10
705.8418243415663
 20
405.2767732785084
 30
0.0
 11
683.3418243415662
 21
405.2767732785084
 31
0.0
  0
LINE
  5
3554
330
1F
100
AcDbEntity
  8
AM_VIS
100
AcDbLine
 10
683.3418243415662
 20
405.2767732785084
 30
0.0
 11
683.3418243415662
 21
406.8767732785083
 31
0.0
  0
LINE
  5
3555
330
1F
100
AcDbEntity
  8
AM_VIS
100
AcDbLine
 10
683.3418243415662
 20
406.8767732785083
 30
0.0
 11
704.2418243415659
 21
406.8767732785083
 31
0.0
  0
LINE
  5
3556
330
1F
100
AcDbEntity
  8
AM_VIS
100
AcDbLine
 10
704.2418243415659
 20
406.8767732785083
 30
0.0
 11
704.2418243415659
 21
444.6767732785085
 31
0.0
  0
LINE
  5
3557
330
1F
100
AcDbEntity
  8
AM_VIS
100
AcDbLine
 10
787.4418243415666
 20
444.6767732785085
 30
0.0
 11
787.4418243415666
 21
406.8767732785083
 31
0.0
  0
LINE
  5
3558
330
1F
100
AcDbEntity
  8
AM_VIS
100
AcDbLine
 10
787.4418243415666
 20
406.8767732785083
 30
0.0
 11
808.3418243415662
 21
406.8767732785083
 31
0.0
  0
LINE
  5
3559
330
1F
100
AcDbEntity
  8
AM_VIS
100
AcDbLine
 10
808.3418243415662
 20
406.8767732785083
 30
0.0
 11
808.3418243415662
 21
405.2767732785084
 31
0.0
  0
ARC
  5
355A
330
1F
100
AcDbEntity
  8
AM_VIS
100
AcDbCircle
 10
745.8418243415662
 20
444.6767732785085
 30
0.0
 40
40.0
100
AcDbArc
 50
0.0
 51
180.0
  0
ARC
  5
355B
330
1F
100
AcDbEntity
  8
AM_VIS
100
AcDbCircle
 10
745.8418243415662
 20
444.6767732785085
 30
0.0
 40
41.60000000000002
100
AcDbArc
 50
0.0
 51
180.0
  0
LINE
  5
355C
330
1F
100
AcDbEntity
  8
AM_7
100
AcDbLine
 10
790.8418243415662
 20
358.0638998690649
 30
0.0
 11
805.8418243415662
 21
358.0638998690649
 31
0.0
  0
LINE
  5
355D
330
1F
100
AcDbEntity
  8
AM_7
100
AcDbLine
 10
798.3418243415663
 20
350.5638998690649
 30
0.0
 11
798.3418243415663
 21
365.5638998690649
 31
0.0
  0
ARC
  5
3562
330
1F
100
AcDbEntity
  8
AM_7
100
AcDbCircle
 10
745.8418243415662
 20
444.6767732785085
 30
0.0
 40
40.0
100
AcDbArc
 50
180.0
 51
0.0
  0
DIMENSION
  5
3563
330
1F
100
AcDbEntity
  8
AM_5
100
AcDbDimension
  2
*D82
 10
707.9408094949728
 20
431.8895502180298
 30
0.0
 11
762.2997750916717
 21
450.2294342880279
 31
0.0
 70
   163
 71
     5
 42
80.00000000000204
  3
AM_ISO$3
100
AcDbDiametricDimension
 15
783.7428391881592
 25
457.4639963389842
 35
0.0
 40
0.0
1001
ACAD
1000
DSTYLE
1002
{
1070
    40
1040
2.0
1070
    74
1070
     0
1070
   172
1070
     1
1070
   271
1070
     0
1070
   288
1070
     0
1070
   289
1070
     3
1002
}
  0
LWPOLYLINE
  5
3674
330
1F
100
AcDbEntity
  8
LOGO
 62
     4
100
AcDbPolyline
 90
        4
 70
     1
 43
0.0
 10
649.7148350931237
 20
518.1358694226291
 10
882.8539894397836
 20
518.1358694226291
 10
882.8539894397836
 20
740.2209515207284
 10
649.7148350931238
 20
740.2209515207284
1001
GENIUS_GENREC_14
1002
{
1000
PYDIR
1011
649.7148350931238
1021
740.2209515207284
1031
0.0
1002
}
1002
{
1000
PXDIR
1011
882.8539894397836
1021
518.1358694226291
1031
0.0
1002
}
1002
{
1000
PORI
1011
649.7148350931237
1021
518.1358694226291
1031
0.0
1002
}
1002
{
1000
PINS
1011
649.7148350931237
1021
518.1358694226291
1031
0.0
1002
}
1002
{
1000
PINS2
1011
882.8539894397836
1021
740.2209515207284
1031
0.0
1002
}
1002
{
1000
C
1070
     1
1002
}
1001
GENIUS_GENODEF_13
1002
{
1000
HIER
1070
     0
1002
}
1002
{
1000
MANEDIT
1070
     0
1002
}
1002
{
1000
NOSEL
1070
     0
1002
}
1002
{
1000
BEHIND
1070
     0
1002
}
1002
{
1000
OTHER
1070
     0
1002
}
1002
{
1000
REACTOR
1002
}
1001
GENIUS_GENOBJ-N-REC_13
1002
{
1000
OWNER
1000
GEN
1002
}
  0
LWPOLYLINE
  5
36AC
330
1F
100
AcDbEntity
  8
LOGO
 62
     4
100
AcDbPolyline
 90
        4
 70
     1
 43
0.0
 10
649.7148350931237
 20
259.9162003113888
 10
882.8539894397836
 20
259.9162003113889
 10
882.8539894397836
 20
518.1358694226291
 10
649.7148350931238
 20
518.1358694226291
1001
GENIUS_GENREC_14
1002
{
1000
PYDIR
1011
649.7148350931238
1021
518.1358694226291
1031
0.0
1002
}
1002
{
1000
PXDIR
1011
882.8539894397836
1021
259.9162003113889
1031
0.0
1002
}
1002
{
1000
PORI
1011
649.7148350931237
1021
259.9162003113888
1031
0.0
1002
}
1002
{
1000
PINS
1011
649.7148350931237
1021
259.9162003113888
1031
0.0
1002
}
1002
{
1000
PINS2
1011
882.8539894397836
1021
518.1358694226291
1031
0.0
1002
}
1002
{
1000
C
1070
     1
1002
}
1001
GENIUS_GENODEF_13
1002
{
1000
HIER
1070
     0
1002
}
1002
{
1000
MANEDIT
1070
     0
1002
}
1002
{
1000
NOSEL
1070
     0
1002
}
1002
{
1000
BEHIND
1070
     0
1002
}
1002
{
1000
OTHER
1070
     0
1002
}
1002
{
1000
REACTOR
1002
}
1001
GENIUS_GENOBJ-N-REC_13
1002
{
1000
OWNER
1000
GEN
1002
}
  0
TEXT
  5
36F5
330
1F
100
AcDbEntity
  8
0
100
AcDbText
 10
663.7390437773428
 20
500.4642613303432
 30
0.0
 40
9.728000000000001
  1
Bracket
 41
0.75
  7
CHINESET
100
AcDbText
  0
ENDSEC
  0
SECTION
  2
OBJECTS
  0
DICTIONARY
  5
C
330
0
100
AcDbDictionary
281
     1
  3
ACAD_COLOR
350
BE
  3
ACAD_GROUP
350
D
  3
ACAD_LAYOUT
350
1A
  3
ACAD_MATERIAL
350
BD
  3
ACAD_MLINESTYLE
350
17
  3
ACAD_PLOTSETTINGS
350
19
  3
ACAD_PLOTSTYLENAME
350
E
  3
ACAD_TABLESTYLE
350
11A
  3
ACDBHEADERROUNDTRIPXREC
350
374E
  3
AcDbVariableDictionary
350
94
  3
AcmDictionary
350
5B
  3
AMG
350
41
  3
AMGSNAPSETTINGS
350
1B8
  3
DWGPROPS
350
374D
  3
MAPISURF_MODULE
350
3350
  0
DICTIONARY
  5
3F9
330
2
100
AcDbDictionary
280
     1
281
     1
  3
ACAD_LAYERFILTERS
360
17A7
  3
ACAD_LAYERSTATES
360
CF8
  3
ACLYDICTIONARY
360
17A6
  3
AMLAYER_GROUPCOLORS
360
11CC
  0
DICTIONARY
  5
8F
330
1F
100
AcDbDictionary
280
     1
281
     1
  3
ACAD_INDEX
360
373E
  3
ACAD_SORTENTS
360
D71
  0
DICTIONARY
  5
1E6D
330
1E6C
100
AcDbDictionary
280
     1
281
     1
  0
DICTIONARY
  5
1E78
330
1E77
100
AcDbDictionary
280
     1
281
     1
  3
ACAD_SORTENTS
360
22FA
  0
DICTIONARY
  5
33ED
330
33EC
100
AcDbDictionary
280
     1
281
     1
  3
ACAD_SORTENTS
360
33EE
  0
DICTIONARY
  5
2B11
330
2B10
100
AcDbDictionary
280
     1
281
     1
  3
ACAD_DIMASSOC
360
2B12
  0
DICTIONARY
  5
2B14
330
2B13
100
AcDbDictionary
280
     1
281
     1
  3
ACAD_DIMASSOC
360
2B15
  0
DICTIONARY
  5
2B1E
330
2B1D
100
AcDbDictionary
280
     1
281
     1
  3
ACAD_DIMASSOC
360
2B1F
  0
DICTIONARY
  5
2B21
330
2B20
100
AcDbDictionary
280
     1
281
     1
  3
ACAD_DIMASSOC
360
2B22
  0
DICTIONARY
  5
2B24
330
2B23
100
AcDbDictionary
280
     1
281
     1
  3
ACAD_DIMASSOC
360
2B25
  0
DICTIONARY
  5
2B27
330
2B26
100
AcDbDictionary
280
     1
281
     1
  3
ACAD_DIMASSOC
360
2B28
  0
DICTIONARY
  5
2BF1
330
2BF0
100
AcDbDictionary
280
     1
281
     1
  3
ACAD_DIMASSOC
360
2BF2
  0
DICTIONARY
  5
2C00
330
2BFF
100
AcDbDictionary
280
     1
281
     1
  3
ACAD_DIMASSOC
360
2C01
  0
DICTIONARY
  5
347C
330
347B
100
AcDbDictionary
280
     1
281
     1
  3
ACAD_DIMASSOC
360
347D
  0
DICTIONARY
  5
BE
102
{ACAD_REACTORS
330
C
102
}
330
C
100
AcDbDictionary
281
     1
  0
DICTIONARY
  5
D
102
{ACAD_REACTORS
330
C
102
}
330
C
100
AcDbDictionary
281
     1
  0
DICTIONARY
  5
1A
102
{ACAD_REACTORS
330
C
102
}
330
C
100
AcDbDictionary
281
     1
  3
Model
350
22
  3
配置1
350
1E
  3
配置2
350
26
  0
DICTIONARY
  5
BD
102
{ACAD_REACTORS
330
C
102
}
330
C
100
AcDbDictionary
281
     1
  0
DICTIONARY
  5
17
102
{ACAD_REACTORS
330
C
102
}
330
C
100
AcDbDictionary
281
     1
  3
Standard
350
18
  0
DICTIONARY
  5
19
102
{ACAD_REACTORS
330
C
102
}
330
C
100
AcDbDictionary
281
     1
  0
ACDBDICTIONARYWDFLT
  5
E
102
{ACAD_REACTORS
330
C
102
}
330
C
100
AcDbDictionary
281
     1
  3
Normal
350
F
100
AcDbDictionaryWithDefault
340
F
  0
DICTIONARY
  5
11A
102
{ACAD_REACTORS
330
C
102
}
330
C
100
AcDbDictionary
281
     1
  3
Standard
350
11B
  0
DICTIONARY
  5
374E
102
{ACAD_REACTORS
330
C
102
}
330
C
100
AcDbDictionary
281
     1
  0
DICTIONARY
  5
94
102
{ACAD_REACTORS
330
C
102
}
330
C
100
AcDbDictionary
281
     1
  3
CTABLESTYLE
350
138
  3
DIMASSOC
350
96
  3
INDEXCTL
350
95
  3
PROJECTNAME
350
1981
  0
DICTIONARY
  5
5B
102
{ACAD_REACTORS
330
C
102
}
330
C
100
AcDbDictionary
281
     1
  3
AcmBOM
350
1B5
  3
AcmStdDictionary
350
61
  3
AMDTSECTSYM_ARROWCOLOR
350
123
  0
DICTIONARY
  5
41
102
{ACAD_REACTORS
330
C
102
}
330
C
100
AcDbDictionary
281
     1
  3
AcMgSettings
350
2728
  0
DICTIONARY
  5
1B8
102
{ACAD_REACTORS
330
C
102
}
330
C
100
AcDbDictionary
281
     1
  0
XRECORD
  5
374D
102
{ACAD_REACTORS
330
C
102
}
330
C
100
AcDbXrecord
280
     1
  1
DWGPROPS COOKIE
  2

  3

  4

  6

  7

  8

  9

300
AmdtFileType=84
301
=
302
=
303
=
304
=
305
=
306
=
307
=
308
=
309
=
 40
0.0900546875
 41
2454314.615040868
 42
2456140.449002813
  1

 90
        1
  0
DICTIONARY
  5
17A7
102
{ACAD_REACTORS
330
3F9
102
}
330
3F9
100
AcDbDictionary
281
     1
  0
DICTIONARY
  5
CF8
102
{ACAD_REACTORS
330
3F9
102
}
330
3F9
100
AcDbDictionary
281
     1
  0
DICTIONARY
  5
17A6
102
{ACAD_REACTORS
330
3F9
102
}
330
3F9
100
AcDbDictionary
281
     1
1001
ACAD
1000
<All
  0
DICTIONARY
  5
11CC
102
{ACAD_REACTORS
330
3F9
102
}
330
3F9
100
AcDbDictionary
280
     1
281
     1
  0
DICTIONARY
  5
373E
102
{ACAD_REACTORS
330
8F
102
}
330
8F
100
AcDbDictionary
281
     1
  3
*A1
350
373F
  0
SORTENTSTABLE
  5
D71
102
{ACAD_REACTORS
330
8F
102
}
330
8F
100
AcDbSortentsTable
330
1F
331
2A97
  5
2A97
331
2AB9
  5
2AB9
331
2ADB
  5
2ADB
331
2AFD
  5
2AFD
331
2B17
  5
2B17
331
2A88
  5
2A88
331
2A66
  5
2A66
331
192C
  5
192C
331
18DA
  5
18DA
331
18B8
  5
18B8
331
2AA8
  5
2AA8
331
2ACA
  5
2ACA
331
2AEC
  5
2AEC
331
2A77
  5
2A77
331
18EB
  5
18EB
331
18C9
  5
18C9
331
18AF
  5
18AF
331
189E
  5
189E
331
2A95
  5
2A95
331
2AB7
  5
2AB7
331
2AD9
  5
2AD9
331
2AFB
  5
2AFB
331
2A86
  5
2A86
331
192A
  5
192A
331
18D8
  5
18D8
331
18B6
  5
18B6
331
2AA6
  5
2AA6
331
2AC8
  5
2AC8
331
2AEA
  5
2AEA
331
2B26
  5
2B26
331
2A75
  5
2A75
331
18E9
  5
18E9
331
18C7
  5
18C7
331
18AD
  5
18AD
331
189C
  5
189C
331
2A93
  5
2A93
331
2B13
  5
2B13
331
2AF9
  5
2AF9
331
2AD7
  5
2AD7
331
2AB5
  5
2AB5
331
2A84
  5
2A84
331
18B4
  5
18B4
331
2AA4
  5
2AA4
331
2AC6
  5
2AC6
331
2AE8
  5
2AE8
331
2A73
  5
2A73
331
18E7
  5
18E7
331
18C5
  5
18C5
331
18AB
  5
18AB
331
189A
  5
189A
331
2A91
  5
2A91
331
2AB3
  5
2AB3
331
2AF7
  5
2AF7
331
2AD5
  5
2AD5
331
2A82
  5
2A82
331
18D4
  5
18D4
331
18B2
  5
18B2
331
2AC4
  5
2AC4
331
2AA2
  5
2AA2
331
2AE6
  5
2AE6
331
2A71
  5
2A71
331
18E5
  5
18E5
331
18A9
  5
18A9
331
33E1
  5
2BF5
331
2AD3
  5
2AD3
331
2AB1
  5
2AB1
331
2B0F
  5
2B0F
331
2AF5
  5
2AF5
331
2ECA
  5
2ED7
331
2A80
  5
2A80
331
18F4
  5
18F4
331
18B0
  5
18B0
331
2AA0
  5
2AA0
331
2AC2
  5
2AC2
331
2B06
  5
2B06
331
2AE4
  5
2AE4
331
2B20
  5
2B20
331
2A6F
  5
2A6F
331
18E3
  5
18E3
331
18C1
  5
18C1
331
18A7
  5
18A7
331
2AD1
  5
2AD1
331
2B0D
  5
2B0D
331
2AF3
  5
2AF3
331
2A7E
  5
2A7E
331
18F2
  5
18F2
331
18D0
  5
18D0
331
2AC0
  5
2AC0
331
2A9E
  5
2A9E
331
2B04
  5
2B04
331
2AE2
  5
2AE2
331
2BF8
  5
2ECA
331
2AAF
  5
2AAF
331
2A8F
  5
2A8F
331
2A6D
  5
2A6D
331
18E1
  5
18E1
331
18A5
  5
18A5
331
2B0B
  5
2B0B
331
2AF1
  5
2AF1
331
2A7C
  5
2A7C
331
18F0
  5
18F0
331
2ABE
  5
2ABE
331
2A9C
  5
2A9C
331
2B02
  5
2B02
331
2AE0
  5
2AE0
331
2B1C
  5
2B1C
331
2ED7
  5
3281
331
2BF6
  5
2BF8
331
2ACF
  5
2ACF
331
2AAD
  5
2AAD
331
2A8D
  5
2A8D
331
2A6B
  5
2A6B
331
18DF
  5
18DF
331
18A3
  5
18A3
331
2B09
  5
2B09
331
2A7A
  5
2A7A
331
2B00
  5
2B00
331
2ADE
  5
2ADE
331
2ABC
  5
2ABC
331
2A9A
  5
2A9A
331
2B1A
  5
2B1A
331
2BF4
  5
2BF6
331
2AAB
  5
2AAB
331
2A8B
  5
2A8B
331
2A69
  5
2A69
331
2ACD
  5
2ACD
331
2AEF
  5
2AEF
331
18EE
  5
18EE
331
18CC
  5
18CC
331
18A1
  5
18A1
331
2A78
  5
2A78
331
2ADC
  5
2ADC
331
2ABA
  5
2ABA
331
2A98
  5
2A98
331
2AFE
  5
2AFE
331
2AA9
  5
2AA9
331
2A89
  5
2A89
331
2A67
  5
2A67
331
192D
  5
192D
331
2ACB
  5
2ACB
331
2AED
  5
2AED
331
18EC
  5
18EC
331
18CA
  5
18CA
331
189F
  5
189F
331
2A96
  5
2A96
331
2AB8
  5
2AB8
331
2ADA
  5
2ADA
331
2AFC
  5
2AFC
331
2B16
  5
2B16
331
2BF0
  5
2BF0
331
2A87
  5
2A87
331
2A65
  5
2A65
331
192B
  5
192B
331
18D9
  5
18D9
331
18B7
  5
18B7
331
2AA7
  5
2AA7
331
2AC9
  5
2AC9
331
2AEB
  5
2AEB
331
2A76
  5
2A76
331
18EA
  5
18EA
331
18C8
  5
18C8
331
18AE
  5
18AE
331
189D
  5
189D
331
2A94
  5
2A94
331
2AD8
  5
2AD8
331
2AB6
  5
2AB6
331
2AFA
  5
2AFA
331
2A85
  5
2A85
331
1929
  5
1929
331
18B5
  5
18B5
331
2AA5
  5
2AA5
331
2AC7
  5
2AC7
331
2AE9
  5
2AE9
331
2BFF
  5
2ECB
331
2A74
  5
2A74
331
18E8
  5
18E8
331
18C6
  5
18C6
331
18AC
  5
18AC
331
189B
  5
189B
331
2A92
  5
2A92
331
2AF8
  5
2AF8
331
2AD6
  5
2AD6
331
2AB4
  5
2AB4
331
2A83
  5
2A83
331
18B3
  5
18B3
331
2AC5
  5
2AC5
331
2AA3
  5
2AA3
331
2AE7
  5
2AE7
331
2B23
  5
2B23
331
2A72
  5
2A72
331
18E6
  5
18E6
331
18AA
  5
18AA
331
2A90
  5
2A90
331
2AD4
  5
2AD4
331
2AB2
  5
2AB2
331
2B10
  5
2B10
331
2AF6
  5
2AF6
331
2ECB
  5
2EDA
331
2BE2
  5
2BE2
331
2A81
  5
2A81
331
18F5
  5
18F5
331
18B1
  5
18B1
331
2AC3
  5
2AC3
331
2AA1
  5
2AA1
331
2B07
  5
2B07
331
2AE5
  5
2AE5
331
2A70
  5
2A70
331
18E4
  5
18E4
331
18A8
  5
18A8
331
33E0
  5
2BF4
331
2AD2
  5
2AD2
331
2AB0
  5
2AB0
331
2B0E
  5
2B0E
331
2AF4
  5
2AF4
331
2A7F
  5
2A7F
331
18F3
  5
18F3
331
2A9F
  5
2A9F
331
2AC1
  5
2AC1
331
2B05
  5
2B05
331
2AE3
  5
2AE3
331
2EDA
  5
3282
331
2A6E
  5
2A6E
331
18E2
  5
18E2
331
18C0
  5
18C0
331
18A6
  5
18A6
331
2AD0
  5
2AD0
331
2B0C
  5
2B0C
331
2AF2
  5
2AF2
331
2A7D
  5
2A7D
331
18F1
  5
18F1
331
2ABF
  5
2ABF
331
2A9D
  5
2A9D
331
2B03
  5
2B03
331
2AE1
  5
2AE1
331
2B1D
  5
2B1D
331
2BF7
  5
2BFF
331
2AAE
  5
2AAE
331
2A8E
  5
2A8E
331
2A6C
  5
2A6C
331
18E0
  5
18E0
331
18A4
  5
18A4
331
2B0A
  5
2B0A
331
2AF0
  5
2AF0
331
2A7B
  5
2A7B
331
2A9B
  5
2A9B
331
2ABD
  5
2ABD
331
2B01
  5
2B01
331
2ADF
  5
2ADF
331
2B1B
  5
2B1B
331
2BF5
  5
2BF7
331
2ACE
  5
2ACE
331
2AAC
  5
2AAC
331
2A8C
  5
2A8C
331
2A6A
  5
2A6A
331
18EF
  5
18EF
331
18DE
  5
18DE
331
18BC
  5
18BC
331
18A2
  5
18A2
331
2B08
  5
2B08
331
2A79
  5
2A79
331
2ADD
  5
2ADD
331
2ABB
  5
2ABB
331
2A99
  5
2A99
331
2AFF
  5
2AFF
331
2AAA
  5
2AAA
331
2A8A
  5
2A8A
331
2A68
  5
2A68
331
192E
  5
192E
331
2ACC
  5
2ACC
331
2AEE
  5
2AEE
331
18ED
  5
18ED
331
18CB
  5
18CB
331
18A0
  5
18A0
  0
SORTENTSTABLE
  5
22FA
102
{ACAD_REACTORS
330
1E78
102
}
330
1E78
100
AcDbSortentsTable
330
1E77
  0
SORTENTSTABLE
  5
33EE
102
{ACAD_REACTORS
330
33ED
102
}
330
33ED
100
AcDbSortentsTable
330
33EC
  0
DIMASSOC
  5
2B12
102
{ACAD_REACTORS
330
2B11
102
}
330
2B11
100
AcDbDimAssoc
330
2B10
 90
        2
 70
     0
 71
     0
  1
AcDbOsnapPointRef
 72
    13
331
2AC6
 73
     0
 91
        0
 40
0.0
 10
0.0
 20
0.0
 30
2.000000000000000E+50
 75
     0
  0
DIMASSOC
  5
2B15
102
{ACAD_REACTORS
330
2B14
102
}
330
2B14
100
AcDbDimAssoc
330
2B13
 90
        3
 70
     0
 71
     0
  1
AcDbOsnapPointRef
 72
    13
331
2AFC
 73
     0
 91
        0
 40
0.0
 10
0.0
 20
0.0
 30
2.000000000000000E+50
 75
     0
  1
AcDbOsnapPointRef
 72
    13
331
2AFE
 73
     0
 91
        0
 40
0.0
 10
0.0
 20
0.0
 30
2.000000000000000E+50
 75
     0
  0
DIMASSOC
  5
2B1F
102
{ACAD_REACTORS
330
2B1E
102
}
330
2B1E
100
AcDbDimAssoc
330
2B1D
 90
        3
 70
     0
 71
     0
  1
AcDbOsnapPointRef
 72
    13
331
2AF2
 73
     0
 91
        0
 40
0.0
 10
0.0
 20
0.0
 30
2.000000000000000E+50
 75
     0
  1
AcDbOsnapPointRef
 72
    13
331
2AF3
 73
     0
 91
        0
 40
0.0
 10
0.0
 20
0.0
 30
2.000000000000000E+50
 75
     0
  0
DIMASSOC
  5
2B22
102
{ACAD_REACTORS
330
2B21
102
}
330
2B21
100
AcDbDimAssoc
330
2B20
 90
        3
 70
     0
 71
     0
  1
AcDbOsnapPointRef
 72
     1
331
2AFE
 73
     0
 91
        0
 40
0.0
 10
0.0
 20
0.0
 30
2.000000000000000E+50
 75
     0
  1
AcDbOsnapPointRef
 72
     1
331
2B05
 73
     0
 91
        0
 40
0.0
 10
0.0
 20
0.0
 30
2.000000000000000E+50
 75
     0
  0
DIMASSOC
  5
2B25
102
{ACAD_REACTORS
330
2B24
102
}
330
2B24
100
AcDbDimAssoc
330
2B23
 90
        3
 70
     0
 71
     0
  1
AcDbOsnapPointRef
 72
    13
331
2AD3
 73
     0
 91
        0
 40
0.0
 10
0.0
 20
0.0
 30
2.000000000000000E+50
 75
     0
  1
AcDbOsnapPointRef
 72
    13
331
2AA9
 73
     0
 91
        0
 40
0.0
 10
0.0
 20
0.0
 30
2.000000000000000E+50
 75
     0
  0
DIMASSOC
  5
2B28
102
{ACAD_REACTORS
330
2B27
102
}
330
2B27
100
AcDbDimAssoc
330
2B26
 90
        3
 70
     0
 71
     0
  1
AcDbOsnapPointRef
 72
    13
331
2AD2
 73
     0
 91
        0
 40
0.0
 10
0.0
 20
0.0
 30
2.000000000000000E+50
 75
     0
  1
AcDbOsnapPointRef
 72
     1
331
2AD1
 73
     0
 91
        0
 40
0.0
 10
0.0
 20
0.0
 30
2.000000000000000E+50
 75
     0
  0
DIMASSOC
  5
2BF2
102
{ACAD_REACTORS
330
2BF1
102
}
330
2BF1
100
AcDbDimAssoc
330
2BF0
 90
        3
 70
     0
 71
     0
  1
AcDbOsnapPointRef
 72
     1
331
2B08
 73
     0
 91
        0
 40
0.0
 10
0.0
 20
0.0
 30
2.000000000000000E+50
 75
     0
  1
AcDbOsnapPointRef
 72
     1
331
2B09
 73
     0
 91
        0
 40
0.0
 10
0.0
 20
0.0
 30
2.000000000000000E+50
 75
     0
  0
DIMASSOC
  5
2C01
102
{ACAD_REACTORS
330
2C00
102
}
330
2C00
100
AcDbDimAssoc
330
2BFF
 90
        3
 70
     0
 71
     0
  1
AcDbOsnapPointRef
 72
    13
331
2A6D
 73
     0
 91
        0
 40
0.0
 10
0.0
 20
0.0
 30
2.000000000000000E+50
 75
     0
  1
AcDbOsnapPointRef
 72
     1
331
2A6F
 73
     0
 91
        0
 40
0.0
 10
0.0
 20
0.0
 30
2.000000000000000E+50
 75
     0
  0
DIMASSOC
  5
347D
102
{ACAD_REACTORS
330
347C
102
}
330
347C
100
AcDbDimAssoc
330
347B
 90
        3
 70
     0
 71
     0
  1
AcDbOsnapPointRef
 72
     1
331
3478
331
33F9
 73
     0
 91
        0
 40
0.0
 10
0.0
 20
0.0
 30
2.000000000000000E+50
 75
     0
  1
AcDbOsnapPointRef
 72
     1
331
3478
331
33FA
 73
     0
 91
        0
 40
0.0
 10
0.0
 20
0.0
 30
2.000000000000000E+50
 75
     0
  0
LAYOUT
  5
22
102
{ACAD_XDICTIONARY
360
3751
102
}
102
{ACAD_REACTORS
330
1A
102
}
330
1A
100
AcDbPlotSettings
  1

  2
\\RD\EPSON Stylus C63 Series單色
  4
A4
  6

 40
3.757083177566528
 41
3.757076978683471
 42
3.757080078125
 43
3.757080078125
 44
209.9733276367187
 45
296.9683227539062
 46
0.0
 47
0.0
 48
0.0
 49
0.0
140
0.0
141
0.0
142
1.0
143
0.3405120737814363
 70
 11952
 72
     1
 73
     0
 74
     0
  7
彩色出圖.ctb
 75
     0
147
2.936753428137963
148
-2047.07469463503
149
-1261.649717473083
100
AcDbLayout
  1
Model
 70
     1
 71
     0
 10
0.0
 20
0.0
 11
12.0
 21
9.0
 12
0.0
 22
0.0
 32
0.0
 14
0.0
 24
0.0
 34
0.0
 15
0.0
 25
0.0
 35
0.0
146
0.0
 13
0.0
 23
0.0
 33
0.0
 16
1.0
 26
0.0
 36
0.0
 17
0.0
 27
1.0
 37
0.0
 76
     0
330
1F
1001
ACAD_PSEXT
1000
\\RD\EPSON Stylus C63 Series單色
1000
EPSON Stylus C63 Series
1000
\\RD
1000

1070
     0
  0
LAYOUT
  5
1E
102
{ACAD_XDICTIONARY
360
374F
102
}
102
{ACAD_REACTORS
330
1A
102
}
330
1A
100
AcDbPlotSettings
  1

  2

  4

  6

 40
0.0
 41
0.0
 42
0.0
 43
0.0
 44
0.0
 45
0.0
 46
0.0
 47
0.0
 48
0.0
 49
0.0
140
0.0
141
0.0
142
1.0
143
1.0
 70
   688
 72
     0
 73
     0
 74
     5
  7
彩色出圖.ctb
 75
    16
147
1.0
148
0.0
149
0.0
100
AcDbLayout
  1
配置1
 70
     1
 71
     1
 10
0.0
 20
0.0
 11
420.0
 21
297.0
 12
0.0
 22
0.0
 32
0.0
 14
1.000000000000000E+20
 24
1.000000000000000E+20
 34
1.000000000000000E+20
 15
-1.000000000000000E+20
 25
-1.000000000000000E+20
 35
-1.000000000000000E+20
146
0.0
 13
0.0
 23
0.0
 33
0.0
 16
1.0
 26
0.0
 36
0.0
 17
0.0
 27
1.0
 37
0.0
 76
     0
330
1B
  0
LAYOUT
  5
26
102
{ACAD_XDICTIONARY
360
3753
102
}
102
{ACAD_REACTORS
330
1A
102
}
330
1A
100
AcDbPlotSettings
  1

  2

  4

  6

 40
0.0
 41
0.0
 42
0.0
 43
0.0
 44
0.0
 45
0.0
 46
0.0
 47
0.0
 48
0.0
 49
0.0
140
0.0
141
0.0
142
1.0
143
1.0
 70
   688
 72
     0
 73
     0
 74
     5
  7
彩色出圖.ctb
 75
    16
147
1.0
148
0.0
149
0.0
100
AcDbLayout
  1
配置2
 70
     1
 71
     2
 10
0.0
 20
0.0
 11
12.0
 21
9.0
 12
0.0
 22
0.0
 32
0.0
 14
0.0
 24
0.0
 34
0.0
 15
0.0
 25
0.0
 35
0.0
146
0.0
 13
0.0
 23
0.0
 33
0.0
 16
1.0
 26
0.0
 36
0.0
 17
0.0
 27
1.0
 37
0.0
 76
     0
330
23
  0
MLINESTYLE
  5
18
102
{ACAD_REACTORS
330
17
102
}
330
17
100
AcDbMlineStyle
  2
STANDARD
 70
     0
  3

 62
   256
 51
90.0
 52
90.0
 71
     2
 49
0.5
 62
   256
  6
BYLAYER
 49
-0.5
 62
   256
  6
BYLAYER
  0
ACDBPLACEHOLDER
  5
F
102
{ACAD_REACTORS
330
E
102
}
330
E
  0
TABLESTYLE
  5
11B
102
{ACAD_REACTORS
330
11A
102
}
330
11A
100
AcDbTableStyle
  3
Standard
 70
     0
 71
     0
 40
1.5
 41
1.5
280
     0
281
     0
  7
STANDARD
140
4.5
170
     2
 62
     0
 63
     7
283
     0
274
    -2
284
     1
 64
     0
275
    -2
285
     1
 65
     0
276
    -2
286
     1
 66
     0
277
    -2
287
     1
 67
     0
278
    -2
288
     1
 68
     0
279
    -2
289
     1
 69
     0
  7
STANDARD
140
6.0
170
     5
 62
     0
 63
     7
283
     0
274
    -2
284
     1
 64
     0
275
    -2
285
     1
 65
     0
276
    -2
286
     1
 66
     0
277
    -2
287
     1
 67
     0
278
    -2
288
     1
 68
     0
279
    -2
289
     1
 69
     0
  7
STANDARD
140
4.5
170
     5
 62
     0
 63
     7
283
     0
274
    -2
284
     1
 64
     0
275
    -2
285
     1
 65
     0
276
    -2
286
     1
 66
     0
277
    -2
287
     1
 67
     0
278
    -2
288
     1
 68
     0
279
    -2
289
     1
 69
     0
  0
DICTIONARYVAR
  5
138
102
{ACAD_REACTORS
330
94
102
}
330
94
100
DictionaryVariables
280
     0
  1
STANDARD
  0
DICTIONARYVAR
  5
96
102
{ACAD_REACTORS
330
94
102
}
330
94
100
DictionaryVariables
280
     0
  1
2
  0
DICTIONARYVAR
  5
95
102
{ACAD_REACTORS
330
94
102
}
330
94
100
DictionaryVariables
280
     0
  1
1
  0
DICTIONARYVAR
  5
1981
102
{ACAD_REACTORS
330
94
102
}
330
94
100
DictionaryVariables
280
     0
  1

  0
DICTIONARY
  5
1B5
102
{ACAD_REACTORS
330
5B
102
}
330
5B
100
AcDbDictionary
281
     1
  0
DICTIONARY
  5
61
102
{ACAD_REACTORS
330
5B
102
}
330
5B
100
AcDbDictionary
281
     1
  0
XRECORD
  5
123
102
{ACAD_REACTORS
330
5B
102
}
330
5B
100
AcDbXrecord
280
     1
 90
-1023410169
  0
DICTIONARY
  5
2728
102
{ACAD_REACTORS
330
41
102
}
330
41
100
AcDbDictionary
281
     1
  3
DWGSETTINGS
350
2729
  3
TRANSSETTINGS
350
272A
  0
LAYER_INDEX
  5
373F
102
{ACAD_REACTORS
330
373E
102
}
330
373E
100
AcDbIndex
 40
2456140.449002813
100
AcDbLayerIndex
  8
0
360
3740
 90
       20
  8
AM_VIS
360
3741
 90
      212
  8
AM_7
360
3742
 90
       21
  8
AM_5
360
3743
 90
       30
  8
Defpoints
360
3744
 90
        0
  8
LOGO
360
3745
 90
       79
  8
AM_4
360
3746
 90
        0
  8
AM_10
360
3747
 90
        0
  8
底
360
3748
 90
        0
  0
DICTIONARY
  5
3751
330
22
100
AcDbDictionary
280
     1
281
     1
  3
ACAD_XREC_ROUNDTRIP
360
3752
  0
DICTIONARY
  5
374F
330
1E
100
AcDbDictionary
280
     1
281
     1
  3
ACAD_XREC_ROUNDTRIP
360
3750
  0
DICTIONARY
  5
3753
330
26
100
AcDbDictionary
280
     1
281
     1
  3
ACAD_XREC_ROUNDTRIP
360
3754
  0
IDBUFFER
  5
3740
330
0
100
AcDbIdBuffer
330
3478
330
3479
330
347A
330
36F5
330
192F
330
1930
330
1931
330
2B0C
330
2B0D
330
2B0E
330
2B0F
330
2BF5
330
2BF6
330
2BF7
330
2BF8
330
3473
330
3474
330
3475
330
3476
330
3477
  0
IDBUFFER
  5
3741
330
0
100
AcDbIdBuffer
330
2ADD
330
2ADE
330
2ADF
330
2AE0
330
2AE1
330
2AE2
330
2AE3
330
2AE4
330
2AE5
330
2AE6
330
2AE7
330
2AE8
330
2AE9
330
2AEA
330
2AEB
330
2AEC
330
2AED
330
2AEE
330
2AEF
330
2AF0
330
2AF1
330
2AF2
330
2AF3
330
2AF4
330
2AF5
330
2AF6
330
2AF7
330
2AF8
330
2AF9
330
2AFA
330
2AFB
330
2AFC
330
2AFD
330
2AFE
330
2AFF
330
2B00
330
2B01
330
2B02
330
2B03
330
2B04
330
2B05
330
2B06
330
2B07
330
2B08
330
2B09
330
2B0A
330
2B0B
330
2B16
330
2B17
330
2BE2
330
3457
330
3458
330
3459
330
345A
330
345B
330
345C
330
345D
330
345E
330
345F
330
3460
330
3461
330
3462
330
3463
330
3464
330
3465
330
3466
330
3467
330
3468
330
3469
330
346A
330
346B
330
346C
330
346D
330
346E
330
346F
330
3470
330
3544
330
3545
330
3546
330
3547
330
3548
330
3549
330
354A
330
354B
330
354C
330
354D
330
354E
330
354F
330
3550
330
3551
330
3552
330
3553
330
3554
330
3555
330
3556
330
3557
330
3558
330
3559
330
355A
330
355B
330
2A6D
330
2A6E
330
2A6F
330
2A70
330
2A71
330
2A72
330
2A73
330
2A74
330
2A75
330
2A76
330
2A77
330
2A78
330
2A79
330
2A7A
330
2A7B
330
2A7C
330
2A7D
330
2A7E
330
2A7F
330
2A80
330
2A81
330
2A82
330
2A83
330
2A84
330
2A85
330
2A86
330
2A87
330
2A88
330
2A89
330
2A8A
330
2A8B
330
2A8C
330
2A8D
330
2A8E
330
2A8F
330
2A90
330
2A91
330
2A92
330
2A93
330
2A94
330
2A95
330
2A96
330
2A97
330
2A98
330
2A99
330
2A9A
330
2A9B
330
2A9C
330
2A9D
330
2A9E
330
2A9F
330
2AA0
330
2AA1
330
2AA2
330
2AA3
330
2AA4
330
2AA5
330
2AA6
330
2AA7
330
2AA8
330
2AA9
330
2AAA
330
2AAB
330
2AAC
330
2AAD
330
2AAE
330
2AAF
330
2AB0
330
2AB1
330
2AB2
330
2AB3
330
2AB4
330
2AB5
330
2AB6
330
2AB7
330
2AB8
330
2AB9
330
2ABA
330
2ABB
330
2ABC
330
2ABD
330
2ABE
330
2ABF
330
2AC0
330
2AC1
330
2AC2
330
2AC3
330
2AC4
330
2AC5
330
2AC6
330
2AC7
330
2AC8
330
2AC9
330
2ACA
330
2ACB
330
2ACC
330
2ACD
330
2ACE
330
2ACF
330
2AD0
330
2AD1
330
2AD2
330
2AD3
330
2AD4
330
2AD5
330
2AD6
330
2AD7
330
2AD8
330
2AD9
330
2ADA
330
2ADB
330
2ADC
  0
IDBUFFER
  5
3742
330
0
100
AcDbIdBuffer
330
353B
330
353C
330
355C
330
355D
330
3562
330
2A65
330
2A66
330
2A67
330
2A68
330
2A69
330
2A6A
330
2A6B
330
2A6C
330
3454
330
3455
330
3456
330
3536
330
3537
330
3538
330
3539
330
353A
  0
IDBUFFER
  5
3743
330
0
100
AcDbIdBuffer
330
33E0
330
33E1
330
3471
330
3472
330
347B
330
347E
330
353D
330
353E
330
353F
330
3540
330
3541
330
3542
330
3543
330
3563
330
2B10
330
2B13
330
2B1A
330
2B1B
330
2B1C
330
2B1D
330
2B20
330
2B23
330
2B26
330
2BF0
330
2BF4
330
2BFF
330
2ECA
330
2ECB
330
2ED7
330
2EDA
  0
IDBUFFER
  5
3744
330
0
100
AcDbIdBuffer
  0
IDBUFFER
  5
3745
330
0
100
AcDbIdBuffer
330
18DF
330
18E0
330
18E1
330
18E2
330
18E3
330
18E4
330
18E5
330
18E6
330
18E7
330
18E8
330
18E9
330
18EA
330
18EB
330
18EC
330
18ED
330
18EE
330
18EF
330
18F0
330
18F1
330
18F2
330
18F3
330
18F4
330
18F5
330
1929
330
192A
330
192B
330
192C
330
192D
330
192E
330
3674
330
36AC
330
189A
330
189B
330
189C
330
189D
330
189E
330
189F
330
18A0
330
18A1
330
18A2
330
18A3
330
18A4
330
18A5
330
18A6
330
18A7
330
18A8
330
18A9
330
18AA
330
18AB
330
18AC
330
18AD
330
18AE
330
18AF
330
18B0
330
18B1
330
18B2
330
18B3
330
18B4
330
18B5
330
18B6
330
18B7
330
18B8
330
18BC
330
18C0
330
18C1
330
18C5
330
18C6
330
18C7
330
18C8
330
18C9
330
18CA
330
18CB
330
18CC
330
18D0
330
18D4
330
18D8
330
18D9
330
18DA
330
18DE
  0
IDBUFFER
  5
3746
330
0
100
AcDbIdBuffer
  0
IDBUFFER
  5
3747
330
0
100
AcDbIdBuffer
  0
IDBUFFER
  5
3748
330
0
100
AcDbIdBuffer
  0
XRECORD
  5
3752
102
{ACAD_REACTORS
330
3751
102
}
330
3751
100
AcDbXrecord
280
     1
102
SHADEPLOT
 70
     0
102
SHADEPLOTRESLEVEL
 70
     2
102
SHADEPLOTCUSTOMDPI
 70
   300
  0
XRECORD
  5
3750
102
{ACAD_REACTORS
330
374F
102
}
330
374F
100
AcDbXrecord
280
     1
102
SHADEPLOT
 70
     0
102
SHADEPLOTRESLEVEL
 70
     2
102
SHADEPLOTCUSTOMDPI
 70
   300
  0
XRECORD
  5
3754
102
{ACAD_REACTORS
330
3753
102
}
330
3753
100
AcDbXrecord
280
     1
102
SHADEPLOT
 70
     0
102
SHADEPLOTRESLEVEL
 70
     2
102
SHADEPLOTCUSTOMDPI
 70
   300
  0
ENDSEC
  0
EOF
