  0
SECTION
  2
HEADER
  9
$ACADVER
  1
AC1015
  9
$ACADMAINTVER
 70
    20
  9
$DWGCODEPAGE
  3
ANSI_950
  9
$INSBASE
 10
0.0
 20
0.0
 30
0.0
  9
$EXTMIN
 10
95.83136789305104
 20
76.61671505988079
 30
-0.0000000000002274
  9
$EXTMAX
 10
730.871367893051
 20
931.6553422454008
 30
297.2389220237929
  9
$LIMMIN
 10
0.0
 20
0.0
  9
$LIMMAX
 10
420.0
 20
297.0
  9
$ORTHOMODE
 70
     0
  9
$REGENMODE
 70
     1
  9
$FILLMODE
 70
     1
  9
$QTEXTMODE
 70
     0
  9
$MIRRTEXT
 70
     1
  9
$LTSCALE
 40
4.0
  9
$ATTMODE
 70
     1
  9
$TEXTSIZE
 40
12.0
  9
$TRACEWID
 40
1.0
  9
$TEXTSTYLE
  7
STANDARD
  9
$CLAYER
  8
0
  9
$CELTYPE
  6
ByLayer
  9
$CECOLOR
 62
   256
  9
$CELTSCALE
 40
1.0
  9
$DISPSILH
 70
     0
  9
$DIMSCALE
 40
4.0
  9
$DIMASZ
 40
3.5
  9
$DIMEXO
 40
1.0
  9
$DIMDLI
 40
10.0
  9
$DIMRND
 40
0.0
  9
$DIMDLE
 40
0.0
  9
$DIMEXE
 40
1.0
  9
$DIMTP
 40
0.1
  9
$DIMTM
 40
0.1
  9
$DIMTXT
 40
3.5
  9
$DIMCEN
 40
0.0
  9
$DIMTSZ
 40
0.0
  9
$DIMTOL
 70
     0
  9
$DIMLIM
 70
     0
  9
$DIMTIH
 70
     0
  9
$DIMTOH
 70
     0
  9
$DIMSE1
 70
     0
  9
$DIMSE2
 70
     0
  9
$DIMTAD
 70
     1
  9
$DIMZIN
 70
     8
  9
$DIMBLK
  1

  9
$DIMASO
 70
     1
  9
$DIMSHO
 70
     1
  9
$DIMPOST
  1

  9
$DIMAPOST
  1
"
  9
$DIMALT
 70
     0
  9
$DIMALTD
 70
     2
  9
$DIMALTF
 40
0.0393701
  9
$DIMLFAC
 40
1.0
  9
$DIMTOFL
 70
     1
  9
$DIMTVP
 40
0.0
  9
$DIMTIX
 70
     0
  9
$DIMSOXD
 70
     0
  9
$DIMSAH
 70
     0
  9
$DIMBLK1
  1

  9
$DIMBLK2
  1

  9
$DIMSTYLE
  2
AM_ISO
  9
$DIMCLRD
 70
   256
  9
$DIMCLRE
 70
   256
  9
$DIMCLRT
 70
   256
  9
$DIMTFAC
 40
0.71
  9
$DIMGAP
 40
1.0
  9
$DIMJUST
 70
     0
  9
$DIMSD1
 70
     0
  9
$DIMSD2
 70
     0
  9
$DIMTOLJ
 70
     0
  9
$DIMTZIN
 70
     8
  9
$DIMALTZ
 70
     0
  9
$DIMALTTZ
 70
     0
  9
$DIMUPT
 70
     0
  9
$DIMDEC
 70
     2
  9
$DIMTDEC
 70
     8
  9
$DIMALTU
 70
     2
  9
$DIMALTTD
 70
     2
  9
$DIMTXSTY
  7
STANDARD
  9
$DIMAUNIT
 70
     0
  9
$DIMADEC
 70
     0
  9
$DIMALTRND
 40
0.0
  9
$DIMAZIN
 70
     2
  9
$DIMDSEP
 70
    46
  9
$DIMATFIT
 70
     3
  9
$DIMFRAC
 70
     0
  9
$DIMLDRBLK
  1

  9
$DIMLUNIT
 70
     2
  9
$DIMLWD
 70
    -1
  9
$DIMLWE
 70
    -1
  9
$DIMTMOVE
 70
     0
  9
$LUNITS
 70
     2
  9
$LUPREC
 70
     2
  9
$SKETCHINC
 40
1.0
  9
$FILLETRAD
 40
2.5
  9
$AUNITS
 70
     0
  9
$AUPREC
 70
     0
  9
$MENU
  1
.
  9
$ELEVATION
 40
0.0
  9
$PELEVATION
 40
0.0
  9
$THICKNESS
 40
0.0
  9
$LIMCHECK
 70
     0
  9
$CHAMFERA
 40
2.5
  9
$CHAMFERB
 40
2.5
  9
$CHAMFERC
 40
20.0
  9
$CHAMFERD
 40
0.0
  9
$SKPOLY
 70
     0
  9
$TDCREATE
 40
2453616.443301678
  9
$TDUCREATE
 40
2453616.109968345
  9
$TDUPDATE
 40
2456140.450237627
  9
$TDUUPDATE
 40
2456140.116904294
  9
$TDINDWG
 40
0.0850792245
  9
$TDUSRTIMER
 40
0.0850792245
  9
$USRTIMER
 70
     1
  9
$ANGBASE
 50
0.0
  9
$ANGDIR
 70
     0
  9
$PDMODE
 70
     0
  9
$PDSIZE
 40
0.0
  9
$PLINEWID
 40
0.0
  9
$SPLFRAME
 70
     0
  9
$SPLINETYPE
 70
     6
  9
$SPLINESEGS
 70
     8
  9
$HANDSEED
  5
1A36
  9
$SURFTAB1
 70
     6
  9
$SURFTAB2
 70
     6
  9
$SURFTYPE
 70
     6
  9
$SURFU
 70
     6
  9
$SURFV
 70
     6
  9
$UCSBASE
  2

  9
$UCSNAME
  2

  9
$UCSORG
 10
0.0
 20
0.0
 30
0.0
  9
$UCSXDIR
 10
1.0
 20
0.0
 30
0.0
  9
$UCSYDIR
 10
0.0
 20
1.0
 30
0.0
  9
$UCSORTHOREF
  2

  9
$UCSORTHOVIEW
 70
     0
  9
$UCSORGTOP
 10
0.0
 20
0.0
 30
0.0
  9
$UCSORGBOTTOM
 10
0.0
 20
0.0
 30
0.0
  9
$UCSORGLEFT
 10
0.0
 20
0.0
 30
0.0
  9
$UCSORGRIGHT
 10
0.0
 20
0.0
 30
0.0
  9
$UCSORGFRONT
 10
0.0
 20
0.0
 30
0.0
  9
$UCSORGBACK
 10
0.0
 20
0.0
 30
0.0
  9
$PUCSBASE
  2

  9
$PUCSNAME
  2

  9
$PUCSORG
 10
0.0
 20
0.0
 30
0.0
  9
$PUCSXDIR
 10
1.0
 20
0.0
 30
0.0
  9
$PUCSYDIR
 10
0.0
 20
1.0
 30
0.0
  9
$PUCSORTHOREF
  2

  9
$PUCSORTHOVIEW
 70
     0
  9
$PUCSORGTOP
 10
0.0
 20
0.0
 30
0.0
  9
$PUCSORGBOTTOM
 10
0.0
 20
0.0
 30
0.0
  9
$PUCSORGLEFT
 10
0.0
 20
0.0
 30
0.0
  9
$PUCSORGRIGHT
 10
0.0
 20
0.0
 30
0.0
  9
$PUCSORGFRONT
 10
0.0
 20
0.0
 30
0.0
  9
$PUCSORGBACK
 10
0.0
 20
0.0
 30
0.0
  9
$USERI1
 70
     0
  9
$USERI2
 70
     0
  9
$USERI3
 70
     0
  9
$USERI4
 70
     0
  9
$USERI5
 70
     0
  9
$USERR1
 40
0.0
  9
$USERR2
 40
0.0
  9
$USERR3
 40
0.0
  9
$USERR4
 40
0.0
  9
$USERR5
 40
0.0
  9
$WORLDVIEW
 70
     1
  9
$SHADEDGE
 70
     3
  9
$SHADEDIF
 70
    70
  9
$TILEMODE
 70
     1
  9
$MAXACTVP
 70
    64
  9
$PINSBASE
 10
0.0
 20
0.0
 30
0.0
  9
$PLIMCHECK
 70
     0
  9
$PEXTMIN
 10
1.000000000000000E+20
 20
1.000000000000000E+20
 30
1.000000000000000E+20
  9
$PEXTMAX
 10
-1.000000000000000E+20
 20
-1.000000000000000E+20
 30
-1.000000000000000E+20
  9
$PLIMMIN
 10
0.0
 20
0.0
  9
$PLIMMAX
 10
420.0
 20
297.0
  9
$UNITMODE
 70
     0
  9
$VISRETAIN
 70
     1
  9
$PLINEGEN
 70
     0
  9
$PSLTSCALE
 70
     1
  9
$TREEDEPTH
 70
  3020
  9
$CMLSTYLE
  2
Standard
  9
$CMLJUST
 70
     0
  9
$CMLSCALE
 40
20.0
  9
$PROXYGRAPHICS
 70
     1
  9
$MEASUREMENT
 70
     1
  9
$CELWEIGHT
370
    -1
  9
$ENDCAPS
280
     0
  9
$JOINSTYLE
280
     0
  9
$LWDISPLAY
290
     0
  9
$INSUNITS
 70
     4
  9
$HYPERLINKBASE
  1

  9
$STYLESHEET
  1
單色出圖.ctb
  9
$XEDIT
290
     1
  9
$CEPSNTYPE
380
     0
  9
$PSTYLEMODE
290
     1
  9
$FINGERPRINTGUID
  2
{F3896C3B-F92D-4C9E-8579-58F36AA26C87}
  9
$VERSIONGUID
  2
{CEC4BEDA-A453-4CC4-B01E-D884CC3F4781}
  9
$EXTNAMES
290
     1
  9
$PSVPSCALE
 40
0.0
  9
$OLESTARTUP
290
     0
  0
ENDSEC
  0
SECTION
  2
CLASSES
  0
CLASS
  1
ACDBDICTIONARYWDFLT
  2
AcDbDictionaryWithDefault
  3
ObjectDBX Classes
 90
        0
280
     0
281
     0
  0
CLASS
  1
ACDBPLACEHOLDER
  2
AcDbPlaceHolder
  3
ObjectDBX Classes
 90
        0
280
     0
281
     0
  0
CLASS
  1
LAYOUT
  2
AcDbLayout
  3
ObjectDBX Classes
 90
        0
280
     0
281
     0
  0
CLASS
  1
ACME_DOCUMENT
  2
AcMeDbDoc
  3
AcMeServices
 90
        0
280
     0
281
     0
  0
CLASS
  1
AMGSETTINGSOBJ
  2
AmgSettingsObj
  3
"AcadM|Product Description: AutoCAD Mechanical 2000|Company: Autodesk"
 90
        0
280
     0
281
     0
  0
CLASS
  1
ACMESCOPE
  2
AcMeScope
  3
AcMeServices
 90
        0
280
     0
281
     0
  0
CLASS
  1
ACMECOMMANDHISTORY
  2
AcMeCommandHistory
  3
AcMeServices
 90
        0
280
     0
281
     0
  0
CLASS
  1
ACIMSYSVARMAN
  2
AcImSysVarManager
  3
AcMeServices
 90
        0
280
     0
281
     0
  0
CLASS
  1
ACIMREALSYSVAR
  2
AcImRealSysVar
  3
AcMeServices
 90
        0
280
     0
281
     0
  0
CLASS
  1
ACIMINTSYSVAR
  2
AcImIntSysVar
  3
AcMeServices
 90
        0
280
     0
281
     0
  0
CLASS
  1
ACMEDRAWINGMAN
  2
AcMeDrawingMan
  3
AcMeServices
 90
        0
280
     0
281
     0
  0
CLASS
  1
ACMEVIEW
  2
AcMeView
  3
AcMeServices
 90
        0
280
     0
281
     0
  0
CLASS
  1
ACDBENTITYCACHE
  2
AcMeEntityCache
  3
AcMeServices
 90
        0
280
     0
281
     0
  0
CLASS
  1
GSMANAGER
  2
AcMeGSManager
  3
AcMeServices
 90
        0
280
     0
281
     0
  0
CLASS
  1
AMDTINTERNALREACTOR
  2
AmdtInternalReactor
  3
AcMeServices
 90
        0
280
     0
281
     0
  0
CLASS
  1
ACMESTATEMGR
  2
AcMeStateMgr
  3
AcMeServices
 90
        0
280
     0
281
     0
  0
CLASS
  1
ACGREFMASTER
  2
AcGrefMaster
  3
AcAttribServices
 90
        0
280
     0
281
     0
  0
CLASS
  1
ACME_DATABASE
  2
AcMeDbDatabase
  3
AcMeServices
 90
        0
280
     0
281
     0
  0
CLASS
  1
ACRFINSADJUSTERMGR
  2
AcRfInsAdjusterMgr
  3
AcMeServices
 90
        0
280
     0
281
     0
  0
CLASS
  1
ACGREFACADMASTER
  2
AcGrefacadMaster
  3
AcGrefServices
 90
        0
280
     0
281
     0
  0
CLASS
  1
AMIMASTER
  2
AmiMaster
  3
AmiServices
 90
        0
280
     0
281
     0
  0
CLASS
  1
ACMDATADICTIONARY
  2
AcmDataDictionary
  3
"AcmSymBB|Product Description: AutoCAD Mechanical 2004 DX|Company: Autodesk"
 90
        0
280
     0
281
     0
  0
CLASS
  1
ACMDATAENTRYBLOCK
  2
AcmDataEntryBlock
  3
"AcmSymBB|Product Description: AutoCAD Mechanical 2004 DX|Company: Autodesk"
 90
        0
280
     0
281
     0
  0
CLASS
  1
ACIMSTRSYSVAR
  2
AcImStrSysVar
  3
AcMeServices
 90
        0
280
     0
281
     0
  0
CLASS
  1
ACMSTANDARDISO
  2
AcmStandardISO
  3
"Amdt_StdImp|Product Description: AutoCAD Mechanical 2004 DX|Company: Autodesk"
 90
        0
280
     0
281
     0
  0
CLASS
  1
AMGOBJPROPCFG
  2
AmgObjPropCfg
  3
"AmgLay|Product Description: AutoCAD Mechanical 2000|Company: Autodesk"
 90
        1
280
     0
281
     0
  0
CLASS
  1
AMDTEDGESTANDARDISO
  2
AmdtEdgeStdISO
  3
"Amdt_StdImp|Product Description: AutoCAD Mechanical 2004 DX|Company: Autodesk"
 90
        0
280
     0
281
     0
  0
CLASS
  1
ACMSURFSTANDARDISO
  2
AcmSurfTextStdISO
  3
"Amdt_StdImp|Product Description: AutoCAD Mechanical 2004 DX|Company: Autodesk"
 90
        0
280
     0
281
     0
  0
CLASS
  1
ACMFCFSTANDARDISO
  2
AcmFCFStdISO
  3
"Amdt_StdImp|Product Description: AutoCAD Mechanical 2004 DX|Company: Autodesk"
 90
        0
280
     0
281
     0
  0
CLASS
  1
ACMWELDSTANDARDISO
  2
AcmWeldingStdISO
  3
"Amdt_StdImp|Product Description: AutoCAD Mechanical 2004 DX|Company: Autodesk"
 90
        0
280
     0
281
     0
  0
CLASS
  1
ACMIDSTANDARDISO
  2
AcmIdStdISO
  3
"Amdt_StdImp|Product Description: AutoCAD Mechanical 2004 DX|Company: Autodesk"
 90
        0
280
     0
281
     0
  0
CLASS
  1
ACMDATUMSTANDARDISO
  2
AcmDatumStdISO
  3
"Amdt_StdImp|Product Description: AutoCAD Mechanical 2004 DX|Company: Autodesk"
 90
        0
280
     0
281
     0
  0
CLASS
  1
ACMBOMSTANDARDISO
  2
AcmBOMStdISO
  3
"Amdt_StdImp|Product Description: AutoCAD Mechanical 2004 DX|Company: Autodesk"
 90
        0
280
     0
281
     0
  0
CLASS
  1
ACMDETAILSTANDARDISO
  2
AmdtDetailSymStdISO
  3
"Amdt_StdImp|Product Description: AutoCAD Mechanical 2004 DX|Company: Autodesk"
 90
        0
280
     0
281
     0
  0
CLASS
  1
ACMSECTIONSTANDARDISO
  2
AmdtSectionSymStdISO
  3
"Amdt_StdImp|Product Description: AutoCAD Mechanical 2004 DX|Company: Autodesk"
 90
        0
280
     0
281
     0
  0
CLASS
  1
ACMCENTERLINESTANDARDISO
  2
AmdtCenterLineStdISO
  3
"Amdt_StdImp|Product Description: AutoCAD Mechanical 2004 DX|Company: Autodesk"
 90
        0
280
     0
281
     0
  0
CLASS
  1
ACMNOTESTANDARDISO
  2
AmdtNoteStdISO
  3
"Amdt_StdImp|Product Description: AutoCAD Mechanical 2004 DX|Company: Autodesk"
 90
        0
280
     0
281
     0
  0
CLASS
  1
ACAMGLAYSTD
  2
AcAmgLayStd
  3
"AcAmgLayStd|Product Description: AutoCAD Mechanical 2000|Company: Autodesk"
 90
        0
280
     0
281
     0
  0
CLASS
  1
ACAMGDIMSTD
  2
AcAmgDimStd
  3
"AcAmgDimStd|Product Description: AutoCAD Mechanical 2000|Company: Autodesk"
 90
        0
280
     0
281
     0
  0
CLASS
  1
ACAMGHOLECHARTSTDISO
  2
AcAmgHoleChartStdISO
  3
ACMSYMBB_MODULE_NAME
 90
        0
280
     0
281
     0
  0
CLASS
  1
ACAMGTITLESTD
  2
AcAmgTitleStd
  3
"TITLEAPP"
 90
        0
280
     0
281
     0
  0
CLASS
  1
LAYER_INDEX
  2
AcDbLayerIndex
  3
ObjectDBX Classes
 90
        0
280
     0
281
     0
  0
CLASS
  1
IDBUFFER
  2
AcDbIdBuffer
  3
ObjectDBX Classes
 90
        0
280
     0
281
     0
  0
CLASS
  1
DICTIONARYVAR
  2
AcDbDictionaryVar
  3
ObjectDBX Classes
 90
        0
280
     0
281
     0
  0
CLASS
  1
AM_DRAWING_MGR
  2
AcDmDwgMgr
  3
AcMechDwgViewMgmt
 90
        0
280
     0
281
     0
  0
CLASS
  1
AM_DWG_DOCUMENT
  2
AcDmDwgDocument
  3
AcMechDwgViewMgmt
 90
        0
280
     0
281
     0
  0
CLASS
  1
AM_DWG_SHEET
  2
AcDmSheet
  3
AcMechDwgViewMgmt
 90
        0
280
     0
281
     0
  0
CLASS
  1
AM_VIEWDIMPARMAP
  2
AcDmViewDimParMap
  3
AcMechDwgViewMgmt
 90
        0
280
     0
281
     0
  0
CLASS
  1
AM_DWGMGR_NAME
  2
AcDmDwgMgrName
  3
AcMechDwgViewMgmt
 90
        0
280
     0
281
     0
  0
CLASS
  1
AMDTMENUSTATEMGR
  2
AmdtMenuStateMgr
  3
McadcomServices
 90
        0
280
     0
281
     0
  0
CLASS
  1
AMDTMCOMMENUSTATE
  2
AmdtMcomMenuState
  3
McadcomServices
 90
        0
280
     0
281
     0
  0
CLASS
  1
MAPIAMMOUDLE
  2
MApiAmModule
  3
MApiAmServices
 90
        0
280
     0
281
     0
  0
CLASS
  1
AMDTADMENUSTATE
  2
AmdtAdMenuState
  3
DesignerServices
 90
        0
280
     0
281
     0
  0
CLASS
  1
ADAPPL
  2
AcAdAppl
  3
DesignerServices
 90
        0
280
     0
281
     0
  0
CLASS
  1
DEPMGR
  2
AcAdDepMgr
  3
DesignerServices
 90
        0
280
     0
281
     0
  0
CLASS
  1
PARAMMGR
  2
AcAdParamMgr
  3
DesignerServices
 90
        0
280
     0
281
     0
  0
CLASS
  1
PARAMSCOPE
  2
AcAdParamScope
  3
DesignerServices
 90
        0
280
     0
281
     0
  0
CLASS
  1
NAMEDAPPL
  2
AcAdNamedAppl
  3
DesignerServices
 90
        0
280
     0
281
     0
  0
CLASS
  1
AMDTDMMENUSTATE
  2
AmdtDmMenuState
  3
AcMechDwgViewMgmt
 90
        0
280
     0
281
     0
  0
CLASS
  1
AMDTAMMENUSTATE
  2
AmdtAmMenuState
  3
DesignerAssemblies
 90
        0
280
     0
281
     0
  0
CLASS
  1
ACAMPROJECT
  2
AcAmProject
  3
DesignerAssemblies
 90
        0
280
     0
281
     0
  0
CLASS
  1
ACAMGRCOMPDEF
  2
AcAmGrCompDef
  3
DesignerAssemblies
 90
        0
280
     0
281
     0
  0
CLASS
  1
ACCMCONTEXT
  2
AcCmContext
  3
DesignerAssemblies
 90
        0
280
     0
281
     0
  0
CLASS
  1
ACAMCOMPDEF
  2
AcAmCompDef
  3
DesignerAssemblies
 90
        0
280
     0
281
     0
  0
CLASS
  1
ACAMCOMPDEFMGR
  2
AcAmCompDefMgr
  3
DesignerAssemblies
 90
        0
280
     0
281
     0
  0
CLASS
  1
AMCONTEXTMGR
  2
AcAmContextMgr
  3
DesignerAssemblies
 90
        0
280
     0
281
     0
  0
CLASS
  1
ACAMCONTEXTMODELER
  2
AcAmContextModeler
  3
DesignerAssemblies
 90
        0
280
     0
281
     0
  0
CLASS
  1
ACMTHREADLINESTANDARDISO
  2
AmdtThreadLineStdISO
  3
"Amdt_StdImp|Product Description: AutoCAD Mechanical 2004 DX|Company: Autodesk"
 90
        0
280
     0
281
     0
  0
CLASS
  1
CATALOGSTATE
  2
AcAmCatalogState
  3
DesignerAssemblies
 90
        0
280
     0
281
     0
  0
CLASS
  1
ACAMGRCOMPDEFSET
  2
AcAmGrCompDefSet
  3
DesignerAssemblies
 90
        0
280
     0
281
     0
  0
CLASS
  1
AMDTBROWSERDBTAB
  2
AmdtBrowserDbTab
  3
McadcomServices
 90
        0
280
     0
281
     0
  0
CLASS
  1
CBROWSERAPPOBJECT
  2
CBrowserAppObject
  3
McadcomServices
 90
        0
280
     0
281
     0
  0
CLASS
  1
DM_PLACEHOLDER
  2
AcDmSelsetPlaceholder
  3
AcMechDwgViewMgmt
 90
        0
280
     0
281
     0
  0
CLASS
  1
TABLESTYLE
  2
AcDbTableStyle
  3
ObjectDBX Classes
 90
     2047
280
     0
281
     0
  0
CLASS
  1
VAACXREFPANELOBJECT
  2
VaAcXREFPanelObject
  3
VAAC_ADDIN
 90
    32768
280
     0
281
     0
  0
CLASS
  1
VAACIMAGEINVENTORY
  2
VaAcImageInventory
  3
VAAC_ADDIN
 90
    32768
280
     0
281
     0
  0
CLASS
  1
AMDTNOTETEMPLATEDB
  2
AmdtNoteTemplateDB
  3
AMDT_STDIMP_MODULE_NAME
 90
        0
280
     0
281
     0
  0
CLASS
  1
ACMBOM
  2
AcmBom
  3
"AcmSymBB|Product Description: AutoCAD Mechanical 2004 DX|Company: Autodesk"
 90
    32768
280
     0
281
     0
  0
CLASS
  1
AMDTFORMULAUPDATEDISPATCHER
  2
AmdtFormulaUpdateDispatcher
  3
AcMeServices
 90
    32768
280
     0
281
     0
  0
CLASS
  1
ACMPARTLIST
  2
AcmPartList
  3
"AcmSymBB|Product Description: AutoCAD Mechanical 2004 DX|Company: Autodesk"
 90
    33791
280
     0
281
     1
  0
CLASS
  1
ACAMGFILTERDAT
  2
AcAmgFilterDat
  3
"AcadM|Product Description: AutoCAD Mechanical 2000|Company: Autodesk"
 90
        0
280
     0
281
     0
  0
CLASS
  1
DIMASSOC
  2
AcDbDimAssoc
  3
"AcDbDimAssoc|Product Desc:     AcDim ARX App For Dimension|Company:          Autodesk, Inc.|WEB Address:      www.autodesk.com"
 90
        0
280
     0
281
     0
  0
CLASS
  1
ASAPP
  2
AcAsAppObject
  3
AutoSurfServices
 90
        0
280
     0
281
     0
  0
CLASS
  1
IM_STATIC_MAN
  2
AcImStaticVarManager
  3
AcMeServices
 90
        0
280
     0
281
     0
  0
CLASS
  1
ACIMDBLSTATICVAR
  2
AcImDblStaticVar
  3
AcMeServices
 90
        0
280
     0
281
     0
  0
CLASS
  1
ACIMSTRSTATICVAR
  2
AcImStrStaticVar
  3
AcMeServices
 90
        0
280
     0
281
     0
  0
CLASS
  1
ACIMINTSTATICVAR
  2
AcImIntStaticVar
  3
AcMeServices
 90
        0
280
     0
281
     0
  0
CLASS
  1
ACASGREFMASTER
  2
AcAsGrefMaster
  3
AutoSurfResolverServices
 90
        0
280
     0
281
     0
  0
CLASS
  1
ACADGREFMODULE
  2
AcAdGrefModule
  3
AdGrefServices
 90
        0
280
     0
281
     0
  0
CLASS
  1
AMDTMAPISURFMOUDULE
  2
AmdtMApiSurfModule
  3
MApiSurfServices
 90
        0
280
     0
281
     0
  0
CLASS
  1
MAPIADMODULE
  2
MApiAdModule
  3
MApiAdServices
 90
        0
280
     0
281
     0
  0
CLASS
  1
ACMSTANDARDANSI
  2
AcmStandardANSI
  3
"Amdt_StdImp|Product Description: AutoCAD Mechanical 2004 DX|Company: Autodesk"
 90
        0
280
     0
281
     0
  0
CLASS
  1
ACMSURFSTANDARDANSI
  2
AcmSurfTextStdANSI
  3
"Amdt_StdImp|Product Description: AutoCAD Mechanical 2004 DX|Company: Autodesk"
 90
        0
280
     0
281
     0
  0
CLASS
  1
ACMFCFSTANDARDANSI
  2
AcmFCFStdANSI
  3
"Amdt_StdImp|Product Description: AutoCAD Mechanical 2004 DX|Company: Autodesk"
 90
        0
280
     0
281
     0
  0
CLASS
  1
ACMWELDSTANDARDANSI
  2
AcmWeldingStdANSI
  3
"Amdt_StdImp|Product Description: AutoCAD Mechanical 2004 DX|Company: Autodesk"
 90
        0
280
     0
281
     0
  0
CLASS
  1
ACMIDSTANDARDANSI
  2
AcmIdStdANSI
  3
"Amdt_StdImp|Product Description: AutoCAD Mechanical 2004 DX|Company: Autodesk"
 90
        0
280
     0
281
     0
  0
CLASS
  1
ACMDATUMSTANDARDANSI
  2
AcmDatumStdANSI
  3
"Amdt_StdImp|Product Description: AutoCAD Mechanical 2004 DX|Company: Autodesk"
 90
        0
280
     0
281
     0
  0
CLASS
  1
ACMBOMSTANDARDANSI
  2
AcmBOMStdANSI
  3
"Amdt_StdImp|Product Description: AutoCAD Mechanical 2004 DX|Company: Autodesk"
 90
        0
280
     0
281
     0
  0
CLASS
  1
ACMDETAILSTANDARDANSI
  2
AmdtDetailSymStdANSI
  3
"Amdt_StdImp|Product Description: AutoCAD Mechanical 2004 DX|Company: Autodesk"
 90
        0
280
     0
281
     0
  0
CLASS
  1
ACMSECTIONSTANDARDANSI
  2
AmdtSectionSymStdANSI
  3
"Amdt_StdImp|Product Description: AutoCAD Mechanical 2004 DX|Company: Autodesk"
 90
        0
280
     0
281
     0
  0
CLASS
  1
ACMCENTERLINESTANDARDANSI
  2
AmdtCenterLineStdANSI
  3
"Amdt_StdImp|Product Description: AutoCAD Mechanical 2004 DX|Company: Autodesk"
 90
        0
280
     0
281
     0
  0
CLASS
  1
ACMTHREADLINESTANDARDANSI
  2
AmdtThreadLineStdANSI
  3
"Amdt_StdImp|Product Description: AutoCAD Mechanical 2004 DX|Company: Autodesk"
 90
        0
280
     0
281
     0
  0
CLASS
  1
ACMNOTESTANDARDANSI
  2
AmdtNoteStdANSI
  3
"Amdt_StdImp|Product Description: AutoCAD Mechanical 2004 DX|Company: Autodesk"
 90
        0
280
     0
281
     0
  0
CLASS
  1
ACAMGHOLECHARTSTDANSI
  2
AcAmgHoleChartStdANSI
  3
ACMSYMBB_MODULE_NAME
 90
        0
280
     0
281
     0
  0
CLASS
  1
SORTENTSTABLE
  2
AcDbSortentsTable
  3
ObjectDBX Classes
 90
    32768
280
     0
281
     0
  0
CLASS
  1
AMDTNOTE
  2
AmdtNote
  3
"AcmSymBB|Product Description: AutoCAD Mechanical 2004 DX|Company: Autodesk"
 90
     1023
280
     0
281
     1
  0
ENDSEC
  0
SECTION
  2
TABLES
  0
TABLE
  2
VPORT
  5
8
330
0
100
AcDbSymbolTable
 70
     4
  0
VPORT
  5
1A2D
330
8
100
AcDbSymbolTableRecord
100
AcDbViewportTableRecord
  2
*Active
 70
     0
 10
0.0
 20
0.0
 11
1.0
 21
1.0
 12
475.4243273090172
 22
523.6749413471975
 13
0.0
 23
0.0
 14
2.5
 24
2.5
 15
10.0
 25
10.0
 16
0.0
 26
0.0
 36
1.0
 17
0.0
 27
0.0
 37
0.0
 40
948.3150644951919
 41
1.263157894736842
 42
50.0
 43
0.0
 44
0.0
 50
0.0
 51
0.0
 71
     0
 72
   100
 73
     1
 74
     3
 75
     0
 76
     0
 77
     0
 78
     0
281
     0
 65
     1
110
0.0
120
0.0
130
0.0
111
1.0
121
0.0
131
0.0
112
0.0
122
1.0
132
0.0
 79
     0
146
0.0
  0
ENDTAB
  0
TABLE
  2
LTYPE
  5
5
330
0
100
AcDbSymbolTable
 70
    19
  0
LTYPE
  5
14
330
5
100
AcDbSymbolTableRecord
100
AcDbLinetypeTableRecord
  2
ByBlock
 70
     0
  3

 72
    65
 73
     0
 40
0.0
  0
LTYPE
  5
15
330
5
100
AcDbSymbolTableRecord
100
AcDbLinetypeTableRecord
  2
ByLayer
 70
     0
  3

 72
    65
 73
     0
 40
0.0
  0
LTYPE
  5
16
330
5
100
AcDbSymbolTableRecord
100
AcDbLinetypeTableRecord
  2
Continuous
 70
     0
  3
Solid line
 72
    65
 73
     0
 40
0.0
  0
LTYPE
  5
64
330
5
100
AcDbSymbolTableRecord
100
AcDbLinetypeTableRecord
  2
AM_ISO02W050
 70
     0
  3
__ __ __ __ __ __ __ __ __ __ __ __ __ __ __
 72
    65
 73
     2
 40
7.5
 49
6.0
 74
     0
 49
-1.5
 74
     0
  0
LTYPE
  5
65
330
5
100
AcDbSymbolTableRecord
100
AcDbLinetypeTableRecord
  2
AM_ISO08W050
 70
     0
  3
____ . ____ . ____ . ____ . ____ . ____ . ____
 72
    65
 73
     4
 40
18.0
 49
12.0
 74
     0
 49
-1.5
 74
     0
 49
3.0
 74
     0
 49
-1.5
 74
     0
  0
LTYPE
  5
66
330
5
100
AcDbSymbolTableRecord
100
AcDbLinetypeTableRecord
  2
AM_ISO09W050
 70
     0
  3
_____ . . _____ . . _____ . . ____ .. ____
 72
    65
 73
     6
 40
22.5
 49
12.0
 74
     0
 49
-1.5
 74
     0
 49
3.0
 74
     0
 49
-1.5
 74
     0
 49
3.0
 74
     0
 49
-1.5
 74
     0
  0
LTYPE
  5
67
330
5
100
AcDbSymbolTableRecord
100
AcDbLinetypeTableRecord
  2
Amconstr
 70
     0
  3
_______________________
 72
    65
 73
     2
 40
9999.0
 49
9999.0
 74
     0
 49
0.0
 74
     0
  0
LTYPE
  5
68
330
5
100
AcDbSymbolTableRecord
100
AcDbLinetypeTableRecord
  2
AM_ISO08W050x2
 70
     0
  3
__ . __ . __ . __ . __ . __
 72
    65
 73
     4
 40
9.0
 49
6.0
 74
     0
 49
-0.75
 74
     0
 49
1.5
 74
     0
 49
-0.75
 74
     0
  0
LTYPE
  5
69
330
5
100
AcDbSymbolTableRecord
100
AcDbLinetypeTableRecord
  2
AM_ISO02W050x2
 70
     0
  3
 _ _ _ _ _ _ _ _ _ _ _ _
 72
    65
 73
     2
 40
3.75
 49
3.0
 74
     0
 49
-0.75
 74
     0
  0
LTYPE
  5
6C
330
5
100
AcDbSymbolTableRecord
100
AcDbLinetypeTableRecord
  2
Amzigzag
 70
     0
  3
/\/-/\/-/\/-/\/-/\/-/\/
 72
    65
 73
     2
 40
11.0001
 49
0.0001
 74
     4
 75
   135
340
6B
 46
0.04
 50
0.0
 44
0.0
 45
0.0
 49
-11.0
 74
     0
  0
LTYPE
  5
7A
330
5
100
AcDbSymbolTableRecord
100
AcDbLinetypeTableRecord
  2
ACISOWELD
 70
     0
  3
_ _ _ _ _
 72
    65
 73
     2
 40
2.0
 49
2.0
 74
     0
 49
-1.0
 74
     0
  0
LTYPE
  5
7B
330
5
100
AcDbSymbolTableRecord
100
AcDbLinetypeTableRecord
  2
ACISOTGB
 70
     0
  3
__ . . __ . .
 72
    65
 73
     6
 40
9.0
 49
4.0
 74
     0
 49
-1.0
 74
     0
 49
1.0
 74
     0
 49
-1.0
 74
     0
 49
1.0
 74
     0
 49
-1.0
 74
     0
  0
LTYPE
  5
7C
330
5
100
AcDbSymbolTableRecord
100
AcDbLinetypeTableRecord
  2
ACISOTGL
 70
     0
  3
_ _ _ _ _
 72
    65
 73
     2
 40
3.0
 49
2.0
 74
     0
 49
-1.0
 74
     0
  0
LTYPE
  5
7E
330
5
100
AcDbSymbolTableRecord
100
AcDbLinetypeTableRecord
  2
CENTER
 70
     0
  3
__ . __
 72
    65
 73
     4
 40
7.0
 49
4.0
 74
     0
 49
-1.0
 74
     0
 49
1.0
 74
     0
 49
-1.0
 74
     0
  0
LTYPE
  5
D8
330
5
100
AcDbSymbolTableRecord
100
AcDbLinetypeTableRecord
  2
HIDDEN
 70
     0
  3
Hidden __ __ __ __ __ __ __ __ __ __ __ __ __ _
 72
    65
 73
     2
 40
9.524999999999998
 49
6.349999999999999
 74
     0
 49
-3.174999999999999
 74
     0
  0
LTYPE
  5
D9
330
5
100
AcDbSymbolTableRecord
100
AcDbLinetypeTableRecord
  2
PHANTOM2
 70
     0
  3
Phantom (.5x) ___ _ _ ___ _ _ ___ _ _ ___ _ _
 72
    65
 73
     6
 40
31.75
 49
15.875
 74
     0
 49
-3.174999999999999
 74
     0
 49
3.174999999999999
 74
     0
 49
-3.174999999999999
 74
     0
 49
3.174999999999999
 74
     0
 49
-3.174999999999999
 74
     0
  0
LTYPE
  5
373
330
5
100
AcDbSymbolTableRecord
100
AcDbLinetypeTableRecord
  2
ASULTYPE
 70
     0
  3
實線
 72
    65
 73
     2
 40
3.0
 49
2.5
 74
     0
 49
0.5
 74
     0
  0
LTYPE
  5
374
330
5
100
AcDbSymbolTableRecord
100
AcDbLinetypeTableRecord
  2
ASVLTYPE
 70
     0
  3
__ __ __ __ __ __ __ __ __ __ __ __ __ __ __ __ __ __ __ __ __
 72
    65
 73
     2
 40
0.75
 49
0.5
 74
     0
 49
-0.25
 74
     0
  0
LTYPE
  5
3A0
330
5
100
AcDbSymbolTableRecord
100
AcDbLinetypeTableRecord
  2
CENTER2
 70
     0
  3
___ _ ___ _ ___ _ ___ _ ___ _ ___ _ ___ _ ___ _
 72
    65
 73
     4
 40
1.125
 49
0.75
 74
     0
 49
-0.125
 74
     0
 49
0.125
 74
     0
 49
-0.125
 74
     0
  0
LTYPE
  5
3A1
330
5
100
AcDbSymbolTableRecord
100
AcDbLinetypeTableRecord
  2
ACANSTGB
 70
     0
  3
__ . . __ . .
 72
    65
 73
     6
 40
0.35433070866
 49
0.15748031496
 74
     0
 49
-0.03937007874
 74
     0
 49
0.03937007874
 74
     0
 49
-0.03937007874
 74
     0
 49
0.03937007874
 74
     0
 49
-0.03937007874
 74
     0
  0
LTYPE
  5
3A2
330
5
100
AcDbSymbolTableRecord
100
AcDbLinetypeTableRecord
  2
ACANSTGL
 70
     0
  3
_ _ _ _ _
 72
    65
 73
     2
 40
0.11811023622
 49
0.07874015748
 74
     0
 49
-0.03937007874
 74
     0
  0
ENDTAB
  0
TABLE
  2
LAYER
  5
2
102
{ACAD_XDICTIONARY
360
63B
102
}
330
0
100
AcDbSymbolTable
 70
    10
  0
LAYER
  5
10
330
2
100
AcDbSymbolTableRecord
100
AcDbLayerTableRecord
  2
0
 70
     0
 62
     7
  6
Continuous
370
    -3
390
F
  0
LAYER
  5
39B
330
2
100
AcDbSymbolTableRecord
100
AcDbLayerTableRecord
  2
BORDER
 70
     0
 62
     7
  6
Continuous
370
    -3
390
F
  0
LAYER
  5
3A3
330
2
100
AcDbSymbolTableRecord
100
AcDbLayerTableRecord
  2
AM_CL
 70
     0
 62
     1
  6
Amconstr
370
    25
390
F
  0
LAYER
  5
3A4
330
2
100
AcDbSymbolTableRecord
100
AcDbLayerTableRecord
  2
AM_5
 70
     0
 62
     5
  6
Continuous
370
    50
390
F
  0
LAYER
  5
3A5
330
2
100
AcDbSymbolTableRecord
100
AcDbLayerTableRecord
  2
Defpoints
 70
     0
 62
     7
  6
Continuous
290
     0
370
    -3
390
F
  0
LAYER
  5
635
330
2
100
AcDbSymbolTableRecord
100
AcDbLayerTableRecord
  2
AM_7
 70
     0
 62
     1
  6
AM_ISO08W050x2
370
    25
390
F
1001
AcAecLayerStandard
1000

1000

  0
LAYER
  5
636
330
2
100
AcDbSymbolTableRecord
100
AcDbLayerTableRecord
  2
AM_VIS
 70
     0
 62
     7
  6
Continuous
370
    50
390
F
  0
LAYER
  5
637
330
2
100
AcDbSymbolTableRecord
100
AcDbLayerTableRecord
  2
底
 70
     0
 62
     6
  6
Continuous
370
    -3
390
F
1001
AcAecLayerStandard
1000

1000

  0
LAYER
  5
1226
330
2
100
AcDbSymbolTableRecord
100
AcDbLayerTableRecord
  2
LOGO
 70
     0
 62
     7
  6
Continuous
370
    -3
390
F
  0
LAYER
  5
15EF
330
2
100
AcDbSymbolTableRecord
100
AcDbLayerTableRecord
  2
AM_4
 70
     0
 62
     3
  6
Continuous
370
    25
390
F
  0
ENDTAB
  0
TABLE
  2
STYLE
  5
3
330
0
100
AcDbSymbolTable
 70
    15
  0
STYLE
  5
11
330
3
100
AcDbSymbolTableRecord
100
AcDbTextStyleTableRecord
  2
STANDARD
 70
     0
 40
0.0
 41
1.0
 50
0.0
 71
     0
 42
12.0
  3
ISOCP.SHX
  4
CHINESET.SHX
  0
STYLE
  5
6B
330
3
100
AcDbSymbolTableRecord
100
AcDbTextStyleTableRecord
  2

 70
     1
 40
0.0
 41
1.0
 50
0.0
 71
     0
 42
2.5
  3
ltypeshp.shx
  4

  0
STYLE
  5
6D
330
3
100
AcDbSymbolTableRecord
100
AcDbTextStyleTableRecord
  2
ACISOTS
 70
     0
 40
1.0
 41
1.0
 50
0.0
 71
     0
 42
1.0
  3
isocp.shx
  4
chineset.shx
  0
STYLE
  5
79
330
3
100
AcDbSymbolTableRecord
100
AcDbTextStyleTableRecord
  2
ACISOGDT
 70
     0
 40
0.0
 41
1.0
 50
0.0
 71
     0
 42
2.5
  3
amgdt.shx
  4
chineset.shx
  0
STYLE
  5
3A6
330
3
100
AcDbSymbolTableRecord
100
AcDbTextStyleTableRecord
  2
ROMANT
 70
     0
 40
2.0
 41
1.0
 50
0.0
 71
     0
 42
2.0
  3
romant
  4

  0
STYLE
  5
3A7
330
3
100
AcDbSymbolTableRecord
100
AcDbTextStyleTableRecord
  2
RUBONK
 70
     0
 40
0.0
 41
1.0
 50
0.0
 71
     0
 42
3.5
  3
cn1.shx
  4
rubonk.shx
  0
STYLE
  5
3A8
330
3
100
AcDbSymbolTableRecord
100
AcDbTextStyleTableRecord
  2
CYRILTLC
 70
     0
 40
0.0
 41
1.0
 50
0.0
 71
     0
 42
2.5
  3
CYRILTLC.shx
  4

  0
STYLE
  5
3A9
330
3
100
AcDbSymbolTableRecord
100
AcDbTextStyleTableRecord
  2
CHINESET
 70
     0
 40
0.0
 41
1.0
 50
0.0
 71
     0
 42
2.5
  3
simplex.shx
  4
CHINESET.shx
  0
STYLE
  5
3AA
330
3
100
AcDbSymbolTableRecord
100
AcDbTextStyleTableRecord
  2
CHINA
 70
     0
 40
0.0
 41
1.0
 50
0.0
 71
     0
 42
2.0
  3
/rubon/c2
  4
/rubon/china
  0
STYLE
  5
3AB
330
3
100
AcDbSymbolTableRecord
100
AcDbTextStyleTableRecord
  2
標楷體
 70
     0
 40
0.0
 41
1.0
 50
0.0
 71
     0
 42
3.5
  3
KAIU.TTF
  4

1001
ACAD
1000
DFKai-SB
1071
    34865
  0
STYLE
  5
3AC
330
3
100
AcDbSymbolTableRecord
100
AcDbTextStyleTableRecord
  2
新細明體
 70
     0
 40
0.0
 41
1.0
 50
0.0
 71
     0
 42
2.5
  3
PMingLiU.ttf
  4

1001
ACAD
1000
PMingLiU
1071
    34834
  0
STYLE
  5
3AD
330
3
100
AcDbSymbolTableRecord
100
AcDbTextStyleTableRecord
  2
ACANSTS
 70
     0
 40
1.0
 41
1.0
 50
0.0
 71
     0
 42
2.0
  3
romans.shx
  4
chineset.shx
  0
STYLE
  5
3AE
330
3
100
AcDbSymbolTableRecord
100
AcDbTextStyleTableRecord
  2
ACANSGDT
 70
     0
 40
0.0
 41
1.0
 50
0.0
 71
     0
 42
2.0
  3
amgdtans.shx
  4

  0
STYLE
  5
3AF
330
3
100
AcDbSymbolTableRecord
100
AcDbTextStyleTableRecord
  2
文鼎中粗隸
 70
     0
 40
0.0
 41
1.0
 50
0.0
 71
     0
 42
2.5
  3
LEI00DP.TTF
  4

1001
ACAD
1000
文鼎中粗隸
1071
    34865
  0
STYLE
  5
638
330
3
100
AcDbSymbolTableRecord
100
AcDbTextStyleTableRecord
  2
Arial
 70
     0
 40
0.0
 41
1.0
 50
0.0
 71
     0
 42
6.0
  3
arial.ttf
  4

1001
ACAD
1000
Arial
1071
       34
  0
ENDTAB
  0
TABLE
  2
VIEW
  5
6
330
0
100
AcDbSymbolTable
 70
     0
  0
ENDTAB
  0
TABLE
  2
UCS
  5
7
330
0
100
AcDbSymbolTable
 70
     0
  0
ENDTAB
  0
TABLE
  2
APPID
  5
9
330
0
100
AcDbSymbolTable
 70
    26
  0
APPID
  5
12
330
9
100
AcDbSymbolTableRecord
100
AcDbRegAppTableRecord
  2
ACAD
 70
     0
  0
APPID
  5
46
330
9
100
AcDbSymbolTableRecord
100
AcDbRegAppTableRecord
  2
MCAD_NO_VIS
 70
     0
  0
APPID
  5
47
330
9
100
AcDbSymbolTableRecord
100
AcDbRegAppTableRecord
  2
ACAD_TEMP_GRAPHIC
 70
     0
  0
APPID
  5
58
330
9
100
AcDbSymbolTableRecord
100
AcDbRegAppTableRecord
  2
ACATTRIBSERVICES
 70
     0
  0
APPID
  5
EE
330
9
100
AcDbSymbolTableRecord
100
AcDbRegAppTableRecord
  2
AD_DRAW
 70
     0
  0
APPID
  5
10C
330
9
100
AcDbSymbolTableRecord
100
AcDbRegAppTableRecord
  2
DESIGNERASSEMBLIES
 70
     0
  0
APPID
  5
111
330
9
100
AcDbSymbolTableRecord
100
AcDbRegAppTableRecord
  2
ACADM_DIM_EDIT
 70
     0
  0
APPID
  5
112
330
9
100
AcDbSymbolTableRecord
100
AcDbRegAppTableRecord
  2
AMDT_DM_ADJ
 70
     0
  0
APPID
  5
1FE
330
9
100
AcDbSymbolTableRecord
100
AcDbRegAppTableRecord
  2
ACAD_DSTYLE_DIMTEXT_FILL
 70
     0
  0
APPID
  5
2B5
330
9
100
AcDbSymbolTableRecord
100
AcDbRegAppTableRecord
  2
GENIUS_GENOLIS_13
 70
     0
  0
APPID
  5
2B6
330
9
100
AcDbSymbolTableRecord
100
AcDbRegAppTableRecord
  2
GENIUS_GENOENT_13
 70
     0
  0
APPID
  5
2B7
330
9
100
AcDbSymbolTableRecord
100
AcDbRegAppTableRecord
  2
GENIUS_GENOBJ-N-CRS_13
 70
     0
  0
APPID
  5
2B8
330
9
100
AcDbSymbolTableRecord
100
AcDbRegAppTableRecord
  2
GENIUS_GENODEF_13
 70
     0
  0
APPID
  5
2B9
330
9
100
AcDbSymbolTableRecord
100
AcDbRegAppTableRecord
  2
GENIUS_GENOREF_13
 70
     0
  0
APPID
  5
323
330
9
100
AcDbSymbolTableRecord
100
AcDbRegAppTableRecord
  2
GENIUS_GENDIM_13
 70
     0
  0
APPID
  5
324
330
9
100
AcDbSymbolTableRecord
100
AcDbRegAppTableRecord
  2
GENIUS_GENDTOL_13
 70
     0
  0
APPID
  5
325
330
9
100
AcDbSymbolTableRecord
100
AcDbRegAppTableRecord
  2
GENIUS_GE3DTOL_13
 70
     0
  0
APPID
  5
375
330
9
100
AcDbSymbolTableRecord
100
AcDbRegAppTableRecord
  2
ASURF_PCURVE_APPNAME
 70
     0
  0
APPID
  5
379
330
9
100
AcDbSymbolTableRecord
100
AcDbRegAppTableRecord
  2
AMG_3D2D_5.0
 70
     0
  0
APPID
  5
546
330
9
100
AcDbSymbolTableRecord
100
AcDbRegAppTableRecord
  2
SHEETFLAG
 70
     0
  0
APPID
  5
639
330
9
100
AcDbSymbolTableRecord
100
AcDbRegAppTableRecord
  2
ACAD_PSEXT
 70
     0
  0
APPID
  5
63A
330
9
100
AcDbSymbolTableRecord
100
AcDbRegAppTableRecord
  2
AcAecLayerStandard
 70
     0
  0
APPID
  5
1227
330
9
100
AcDbSymbolTableRecord
100
AcDbRegAppTableRecord
  2
GENIUS_GENREC_14
 70
     0
  0
APPID
  5
1228
330
9
100
AcDbSymbolTableRecord
100
AcDbRegAppTableRecord
  2
GENIUS_GENOBJ-N-REC_13
 70
     0
  0
APPID
  5
15F0
330
9
100
AcDbSymbolTableRecord
100
AcDbRegAppTableRecord
  2
GENIUS_GENOBJ-N-CEN_13
 70
     0
  0
APPID
  5
15F1
330
9
100
AcDbSymbolTableRecord
100
AcDbRegAppTableRecord
  2
GENIUS_GENCEN_19
 70
     0
  0
ENDTAB
  0
TABLE
  2
DIMSTYLE
  5
A
330
0
100
AcDbSymbolTable
 70
    16
100
AcDbDimStyleTable
 71
     1
340
81
  0
DIMSTYLE
105
81
330
A
100
AcDbSymbolTableRecord
100
AcDbDimStyleTableRecord
  2
AM_ISO
 70
     0
  4
"
 40
4.0
 41
3.5
 42
1.0
 43
10.0
 44
1.0
 47
0.1
 48
0.1
 73
     0
 74
     0
 77
     1
 78
     8
 79
     2
140
3.5
141
0.0
143
0.0393701
146
0.71
147
1.0
172
     1
176
   256
177
   256
178
   256
271
     2
272
     2
283
     0
284
     8
340
11
371
    -1
372
    -1
  0
DIMSTYLE
105
82
102
{ACAD_REACTORS
330
1834
330
1830
102
}
330
A
100
AcDbSymbolTableRecord
100
AcDbDimStyleTableRecord
  2
AM_ISO$3
 70
     0
  4
"
 40
4.0
 41
3.5
 42
1.0
 43
10.0
 44
1.0
 47
0.1
 48
0.1
 73
     0
 77
     1
 78
     8
 79
     2
140
3.5
141
0.0
143
0.0393701
146
0.71
147
1.0
176
   256
177
   256
178
   256
271
     2
272
     2
283
     0
284
     8
288
     1
289
     0
340
11
371
    -1
372
    -1
  0
DIMSTYLE
105
83
330
A
100
AcDbSymbolTableRecord
100
AcDbDimStyleTableRecord
  2
AM_ISO$4
 70
     0
  4
"
 40
4.0
 41
3.5
 42
1.0
 43
10.0
 44
1.0
 47
0.1
 48
0.1
 73
     0
 77
     1
 78
     8
 79
     2
140
3.5
141
0.0
143
0.0393701
146
0.71
147
1.0
176
   256
177
   256
178
   256
271
     2
272
     2
283
     0
284
     8
288
     1
289
     0
340
11
371
    -1
372
    -1
  0
DIMSTYLE
105
84
330
A
100
AcDbSymbolTableRecord
100
AcDbDimStyleTableRecord
  2
AM_ISO$6
 70
     0
  4
"
 40
4.0
 41
3.5
 42
1.0
 43
10.0
 44
1.0
 47
0.1
 48
0.1
 73
     0
 74
     0
 78
     8
 79
     2
140
3.5
141
0.0
143
0.0393701
146
0.71
147
1.0
172
     1
176
   256
177
   256
178
   256
271
     2
272
     2
283
     0
284
     8
340
11
371
    -1
372
    -1
  0
DIMSTYLE
105
85
330
A
100
AcDbSymbolTableRecord
100
AcDbDimStyleTableRecord
  2
AM_ISO$7
 70
     0
  4
"
 40
4.0
 41
3.5
 42
1.0
 43
10.0
 44
1.0
 47
0.1
 48
0.1
 73
     0
 74
     0
 77
     1
 78
     8
 79
     2
140
5.0
141
0.0
143
0.0393701
146
0.71
147
1.0
172
     1
176
   256
177
   256
178
   256
271
     2
272
     2
283
     0
284
     8
340
11
371
    -1
372
    -1
  0
DIMSTYLE
105
86
330
A
100
AcDbSymbolTableRecord
100
AcDbDimStyleTableRecord
  2
AM_ISO$SF
 70
     0
  4
"
 40
4.0
 41
2.5
 42
1.0
 43
10.0
 44
1.0
 47
0.1
 48
0.1
 73
     0
 74
     0
 75
     1
 76
     1
 77
     1
 78
     8
 79
     2
140
3.5
141
0.0
143
0.0393701
146
0.71
147
1.5
172
     1
176
   256
177
   256
178
     2
271
     2
272
     3
274
     4
283
     0
284
     8
340
11
371
    -1
372
    -1
  0
DIMSTYLE
105
8B
330
A
100
AcDbSymbolTableRecord
100
AcDbDimStyleTableRecord
  2
AM_ISO$SH
 70
     0
  4
"
 40
4.0
 41
2.5
 42
1.0
 43
10.0
 44
1.0
 47
0.1
 48
0.1
 73
     0
 74
     0
 75
     1
 76
     1
 77
     1
 78
     8
 79
     2
140
3.5
141
0.0
143
0.0393701
144
2.0
146
0.71
147
1.5
172
     1
173
     1
176
   256
177
   256
178
     2
271
     2
272
     3
274
     4
283
     0
284
     8
340
11
343
87
371
    -1
372
    -1
  0
DIMSTYLE
105
27B
102
{ACAD_REACTORS
330
135F
330
1360
330
1361
330
1362
330
1363
330
1364
330
1365
330
1366
330
1408
330
1411
330
1414
330
1417
330
163A
330
1631
330
1809
330
1814
330
180A
330
180B
330
180C
330
180D
102
}
330
A
100
AcDbSymbolTableRecord
100
AcDbDimStyleTableRecord
  2
AM_ISO$0
 70
     0
  4
"
 40
4.0
 41
3.5
 42
1.0
 43
10.0
 44
1.0
 47
0.1
 48
0.1
 73
     0
 74
     0
 77
     1
 78
     8
 79
     2
140
3.5
141
0.0
143
0.0393701
146
0.71
147
1.0
172
     1
176
   256
177
   256
178
   256
271
     2
272
     2
283
     0
284
     8
340
11
371
    -1
372
    -1
  0
DIMSTYLE
105
3B0
330
A
100
AcDbSymbolTableRecord
100
AcDbDimStyleTableRecord
  2
STANDARD
 70
     0
 40
4.0
 41
3.0
 42
1.5
 43
8.0
 44
2.0
 73
     0
 74
     0
 77
     1
 78
     8
 79
     2
140
3.0
141
0.0
146
0.7
147
1.0
176
   256
177
   256
178
   256
271
     2
272
     8
279
     2
284
     8
340
3A9
  0
DIMSTYLE
105
3B1
330
A
100
AcDbSymbolTableRecord
100
AcDbDimStyleTableRecord
  2
AM_ANSI
 70
     0
  4
mm
 40
4.0
 41
0.1
 42
0.05
 43
0.5
 44
0.1
 47
0.1
 48
0.1
 78
     7
 79
     2
140
0.12
141
0.0
146
0.71
147
0.06
176
   256
177
   256
178
     2
274
     4
284
     7
340
11
371
    -1
372
    -1
  0
DIMSTYLE
105
3B2
330
A
100
AcDbSymbolTableRecord
100
AcDbDimStyleTableRecord
  2
AM_ANSI$3
 70
     0
  4
mm
 40
4.0
 41
0.1
 42
0.05
 43
0.5
 44
0.1
 47
0.1
 48
0.1
 78
     7
 79
     2
140
0.12
141
0.0
146
0.71
147
0.06
176
   256
177
   256
178
     2
274
     4
284
     7
288
     1
289
     0
340
11
371
    -1
372
    -1
  0
DIMSTYLE
105
3B3
330
A
100
AcDbSymbolTableRecord
100
AcDbDimStyleTableRecord
  2
AM_ANSI$4
 70
     0
  4
mm
 40
4.0
 41
0.1
 42
0.05
 43
0.5
 44
0.1
 47
0.1
 48
0.1
 78
     7
 79
     2
140
0.12
141
0.0
146
0.71
147
0.06
176
   256
177
   256
178
     2
274
     4
284
     7
288
     1
289
     0
340
11
371
    -1
372
    -1
  0
DIMSTYLE
105
3B4
330
A
100
AcDbSymbolTableRecord
100
AcDbDimStyleTableRecord
  2
AM_ANSI$7
 70
     0
  4
mm
 40
4.0
 41
0.1
 42
0.05
 43
0.5
 44
0.1
 47
0.1
 48
0.1
 78
     7
 79
     2
140
0.24
141
0.0
146
0.71
147
0.06
176
   256
177
   256
178
     2
274
     4
284
     7
340
11
371
    -1
372
    -1
  0
DIMSTYLE
105
3B5
330
A
100
AcDbSymbolTableRecord
100
AcDbDimStyleTableRecord
  2
AM_ANSI$SF
 70
     0
  4
mm
 40
4.0
 41
0.1
 42
0.05
 43
0.5
 44
0.1
 47
0.1
 48
0.1
 75
     1
 76
     1
 78
     7
 79
     2
140
0.12
141
0.0
146
0.71
147
0.06
176
   256
177
   256
178
     2
274
     4
284
     7
340
11
371
    -1
372
    -1
  0
DIMSTYLE
105
3B6
330
A
100
AcDbSymbolTableRecord
100
AcDbDimStyleTableRecord
  2
AM_ANSI$SH
 70
     0
  4
mm
 40
4.0
 41
0.1
 42
0.05
 43
0.5
 44
0.1
 47
0.1
 48
0.1
 75
     1
 76
     1
 78
     7
 79
     2
140
0.12
141
0.0
146
0.71
147
0.06
173
     1
176
   256
177
   256
178
     2
274
     4
284
     7
340
11
343
87
371
    -1
372
    -1
  0
DIMSTYLE
105
3B7
330
A
100
AcDbSymbolTableRecord
100
AcDbDimStyleTableRecord
  2
STANDARD$0
 70
     0
 40
4.0
 41
3.0
 42
1.5
 43
8.0
 44
2.0
 73
     0
 74
     0
 77
     1
 78
     8
 79
     2
140
3.0
141
0.0
146
0.7
147
1.0
176
   256
177
   256
178
   256
271
     2
272
     8
279
     2
284
     8
340
3A9
  0
ENDTAB
  0
TABLE
  2
BLOCK_RECORD
  5
1
330
0
100
AcDbSymbolTable
 70
    41
  0
BLOCK_RECORD
  5
1F
102
{ACAD_XDICTIONARY
360
8F
102
}
330
1
100
AcDbSymbolTableRecord
100
AcDbBlockTableRecord
  2
*Model_Space
340
22
  0
BLOCK_RECORD
  5
1B
330
1
100
AcDbSymbolTableRecord
100
AcDbBlockTableRecord
  2
*Paper_Space
340
1E
  0
BLOCK_RECORD
  5
23
330
1
100
AcDbSymbolTableRecord
100
AcDbBlockTableRecord
  2
*Paper_Space0
340
26
  0
BLOCK_RECORD
  5
87
330
1
100
AcDbSymbolTableRecord
100
AcDbBlockTableRecord
  2
GENAXEH
340
0
  0
BLOCK_RECORD
  5
3B8
330
1
100
AcDbSymbolTableRecord
100
AcDbBlockTableRecord
  2
金器A4
340
0
  0
BLOCK_RECORD
  5
515
330
1
100
AcDbSymbolTableRecord
100
AcDbBlockTableRecord
  2
金器A4tzt
340
0
  0
BLOCK_RECORD
  5
548
102
{ACAD_XDICTIONARY
360
549
102
}
330
1
100
AcDbSymbolTableRecord
100
AcDbBlockTableRecord
  2
A$C68EF195C
340
0
102
{BLKREFS
331
140E
331
140F
102
}
  0
BLOCK_RECORD
  5
1487
330
1
100
AcDbSymbolTableRecord
100
AcDbBlockTableRecord
  2
*D8
340
0
  0
BLOCK_RECORD
  5
1495
330
1
100
AcDbSymbolTableRecord
100
AcDbBlockTableRecord
  2
*D9
340
0
  0
BLOCK_RECORD
  5
14A1
330
1
100
AcDbSymbolTableRecord
100
AcDbBlockTableRecord
  2
*D10
340
0
  0
BLOCK_RECORD
  5
14AD
330
1
100
AcDbSymbolTableRecord
100
AcDbBlockTableRecord
  2
*D11
340
0
  0
BLOCK_RECORD
  5
14B9
330
1
100
AcDbSymbolTableRecord
100
AcDbBlockTableRecord
  2
*D12
340
0
  0
BLOCK_RECORD
  5
14C5
330
1
100
AcDbSymbolTableRecord
100
AcDbBlockTableRecord
  2
*D13
340
0
  0
BLOCK_RECORD
  5
14D1
330
1
100
AcDbSymbolTableRecord
100
AcDbBlockTableRecord
  2
*D14
340
0
  0
BLOCK_RECORD
  5
14DD
330
1
100
AcDbSymbolTableRecord
100
AcDbBlockTableRecord
  2
*D15
340
0
  0
BLOCK_RECORD
  5
1535
330
1
100
AcDbSymbolTableRecord
100
AcDbBlockTableRecord
  2
*D16
340
0
  0
BLOCK_RECORD
  5
1541
330
1
100
AcDbSymbolTableRecord
100
AcDbBlockTableRecord
  2
*D17
340
0
  0
BLOCK_RECORD
  5
154F
330
1
100
AcDbSymbolTableRecord
100
AcDbBlockTableRecord
  2
*D18
340
0
  0
BLOCK_RECORD
  5
155B
330
1
100
AcDbSymbolTableRecord
100
AcDbBlockTableRecord
  2
*D19
340
0
  0
BLOCK_RECORD
  5
15BC
102
{ACAD_XDICTIONARY
360
15BD
102
}
330
1
100
AcDbSymbolTableRecord
100
AcDbBlockTableRecord
  2
A$C044A2EE0
340
0
102
{BLKREFS
331
162F
331
1630
102
}
  0
BLOCK_RECORD
  5
163E
330
1
100
AcDbSymbolTableRecord
100
AcDbBlockTableRecord
  2
*D23
340
0
  0
BLOCK_RECORD
  5
164A
330
1
100
AcDbSymbolTableRecord
100
AcDbBlockTableRecord
  2
*D24
340
0
  0
BLOCK_RECORD
  5
1837
330
1
100
AcDbSymbolTableRecord
100
AcDbBlockTableRecord
  2
*D33
340
0
  0
BLOCK_RECORD
  5
1840
330
1
100
AcDbSymbolTableRecord
100
AcDbBlockTableRecord
  2
*D34
340
0
  0
BLOCK_RECORD
  5
184C
330
1
100
AcDbSymbolTableRecord
100
AcDbBlockTableRecord
  2
*D35
340
0
  0
BLOCK_RECORD
  5
185A
330
1
100
AcDbSymbolTableRecord
100
AcDbBlockTableRecord
  2
*D36
340
0
  0
BLOCK_RECORD
  5
1866
330
1
100
AcDbSymbolTableRecord
100
AcDbBlockTableRecord
  2
*D37
340
0
  0
BLOCK_RECORD
  5
1874
330
1
100
AcDbSymbolTableRecord
100
AcDbBlockTableRecord
  2
*D38
340
0
  0
BLOCK_RECORD
  5
1880
330
1
100
AcDbSymbolTableRecord
100
AcDbBlockTableRecord
  2
*D39
340
0
  0
BLOCK_RECORD
  5
188C
330
1
100
AcDbSymbolTableRecord
100
AcDbBlockTableRecord
  2
*D40
340
0
  0
ENDTAB
  0
ENDSEC
  0
SECTION
  2
BLOCKS
  0
BLOCK
  5
20
330
1F
100
AcDbEntity
  8
0
100
AcDbBlockBegin
  2
*Model_Space
 70
     0
 10
0.0
 20
0.0
 30
0.0
  3
*Model_Space
  1

  0
ENDBLK
  5
21
330
1F
100
AcDbEntity
  8
0
100
AcDbBlockEnd
  0
BLOCK
  5
1C
330
1B
100
AcDbEntity
 67
     1
  8
0
100
AcDbBlockBegin
  2
*Paper_Space
 70
     0
 10
0.0
 20
0.0
 30
0.0
  3
*Paper_Space
  1

  0
ENDBLK
  5
1D
330
1B
100
AcDbEntity
 67
     1
  8
0
100
AcDbBlockEnd
  0
BLOCK
  5
24
330
23
100
AcDbEntity
  8
0
100
AcDbBlockBegin
  2
*Paper_Space0
 70
     0
 10
0.0
 20
0.0
 30
0.0
  3
*Paper_Space0
  1

  0
ENDBLK
  5
25
330
23
100
AcDbEntity
  8
0
100
AcDbBlockEnd
  0
BLOCK
  5
89
330
87
100
AcDbEntity
  8
0
100
AcDbBlockBegin
  2
GENAXEH
 70
     0
 10
0.0
 20
0.0
 30
0.0
  3
GENAXEH
  1

  0
LINE
  5
88
330
87
100
AcDbEntity
  8
0
100
AcDbLine
 10
-1.0
 20
0.0
 30
0.0
 11
1.0
 21
0.0
 31
0.0
  0
ENDBLK
  5
8A
330
87
100
AcDbEntity
  8
0
100
AcDbBlockEnd
  0
BLOCK
  5
4EA
330
3B8
100
AcDbEntity
  8
0
100
AcDbBlockBegin
  2
金器A4
 70
     0
 10
0.0
 20
0.0
 30
0.0
  3
金器A4
  1

  0
TEXT
  5
3B9
330
3B8
100
AcDbEntity
  8
0
 62
     5
100
AcDbText
 10
-271.648308153227
 20
273.2967709882672
 30
0.0
 40
2.0
  1
【E-04】A1
  7
標楷體
100
AcDbText
  0
TEXT
  5
3BA
330
3B8
100
AcDbEntity
  8
0
100
AcDbText
 10
-103.015
 20
272.7475342465755
 30
0.0
 40
3.5
  1
4
  7
CHINESET
 72
     4
 11
-101.765
 21
274.4975342465755
 31
0.0
100
AcDbText
  0
LINE
  5
3BB
330
3B8
100
AcDbEntity
  8
0
100
AcDbLine
 10
-123.64
 20
274.4975342465754
 30
0.0
 11
-123.64
 21
271.4975342465754
 31
0.0
  0
TEXT
  5
3BC
330
3B8
100
AcDbEntity
  8
0
100
AcDbText
 10
-146.6816666666666
 20
272.7475342465754
 30
0.0
 40
3.5
  1
3
  7
CHINESET
 72
     4
 11
-145.515
 21
274.4975342465754
 31
0.0
100
AcDbText
  0
TEXT
  5
3BD
330
3B8
100
AcDbEntity
  8
0
100
AcDbText
 10
-78.19369733072058
 20
247.8594063926941
 30
0.0
 40
3.5
  1
A
  7
CHINESET
 72
     4
 11
-76.86036399738725
 21
249.6094063926941
 31
0.0
100
AcDbText
  0
LINE
  5
3BE
330
3B8
100
AcDbEntity
  8
0
100
AcDbLine
 10
-79.89000000000004
 20
227.7212785388127
 30
0.0
 11
-76.89000000000004
 21
227.7212785388128
 31
0.0
  0
TEXT
  5
3BF
330
3B8
100
AcDbEntity
  8
0
100
AcDbText
 10
-78.02703066405396
 20
204.0831506849315
 30
0.0
 40
3.5
  1
B
  7
CHINESET
 72
     4
 11
-76.86036399738728
 21
205.8331506849315
 31
0.0
100
AcDbText
  0
LINE
  5
3C0
330
3B8
100
AcDbEntity
  8
0
100
AcDbLine
 10
-79.89000000000001
 20
183.9450228310502
 30
0.0
 11
-76.89000000000001
 21
183.9450228310502
 31
0.0
  0
TEXT
  5
3C1
330
3B8
100
AcDbEntity
  8
0
100
AcDbText
 10
-78.11036399738725
 20
160.3068949771689
 30
0.0
 40
3.5
  1
C
  7
CHINESET
 72
     4
 11
-76.86036399738725
 21
162.0568949771689
 31
0.0
100
AcDbText
  0
LINE
  5
3C2
330
3B8
100
AcDbEntity
  8
0
100
AcDbLine
 10
-79.89000000000001
 20
140.1687671232877
 30
0.0
 11
-76.89000000000001
 21
140.1687671232876
 31
0.0
  0
LINE
  5
3C3
330
3B8
100
AcDbEntity
  8
0
100
AcDbLine
 10
-167.39
 20
274.4975342465754
 30
0.0
 11
-167.3899999999999
 21
271.4975342465753
 31
0.0
  0
TEXT
  5
3C4
330
3B8
100
AcDbEntity
  8
0
100
AcDbText
 10
-190.4316666666666
 20
272.7475342465754
 30
0.0
 40
3.5
  1
2
  7
CHINESET
 72
     4
 11
-189.265
 21
274.4975342465754
 31
0.0
100
AcDbText
  0
LINE
  5
3C5
330
3B8
100
AcDbEntity
  8
0
100
AcDbLine
 10
-211.14
 20
274.4975342465753
 30
0.0
 11
-211.14
 21
271.4975342465753
 31
0.0
  0
TEXT
  5
3C6
330
3B8
100
AcDbEntity
  8
0
100
AcDbText
 10
-233.4316666666667
 20
272.7475342465753
 30
0.0
 40
3.5
  1
1
  7
CHINESET
 72
     4
 11
-233.015
 21
274.4975342465753
 31
0.0
100
AcDbText
  0
TEXT
  5
3C7
330
3B8
100
AcDbEntity
  8
0
 62
     5
100
AcDbText
 10
-267.8443863412443
 20
263.9077505426326
 30
0.0
 40
1.9
  1
1
  7
CYRILTLC
100
AcDbText
  0
TEXT
  5
3C8
330
3B8
100
AcDbEntity
  8
0
 62
     5
100
AcDbText
 10
-269.6244833712567
 20
257.7553695902517
 30
0.0
 40
1.9
  1
16
  7
CYRILTLC
100
AcDbText
  0
TEXT
  5
3C9
330
3B8
100
AcDbEntity
  8
0
 62
     5
100
AcDbText
 10
-267.8443863412443
 20
260.8315600664421
 30
0.0
 40
1.9
  1
4
  7
CYRILTLC
100
AcDbText
  0
TEXT
  5
3CA
330
3B8
100
AcDbEntity
  8
0
 62
     5
100
AcDbText
 10
-271.4120986056637
 20
245.4506076854898
 30
0.0
 40
1.9
  1
500
  7
CYRILTLC
100
AcDbText
  0
TEXT
  5
3CB
330
3B8
100
AcDbEntity
  8
0
 62
     5
100
AcDbText
 10
-271.4120986056637
 20
248.5267981616803
 30
0.0
 40
1.9
  1
250
  7
CYRILTLC
100
AcDbText
  0
TEXT
  5
3CC
330
3B8
100
AcDbEntity
  8
0
 62
     5
100
AcDbText
 10
-271.4120986056637
 20
251.6029886378708
 30
0.0
 40
1.9
  1
120
  7
CYRILTLC
100
AcDbText
  0
TEXT
  5
3CD
330
3B8
100
AcDbEntity
  8
0
 62
     5
100
AcDbText
 10
-269.6244833712567
 20
254.6791791140612
 30
0.0
 40
1.9
  1
50
  7
CYRILTLC
100
AcDbText
  0
TEXT
  5
3CE
330
3B8
100
AcDbEntity
  8
0
 62
     5
100
AcDbText
 10
-275.9253273889678
 20
235.6447191656742
 30
0.0
 40
2.0
  1
角度公差%%P0.5%%D
  7
標楷體
100
AcDbText
  0
TEXT
  5
3CF
330
3B8
100
AcDbEntity
  8
0
 62
     5
100
AcDbText
 10
-273.2386179209704
 20
239.2982267331089
 30
0.0
 40
1.9
  1
3000
  7
CYRILTLC
100
AcDbText
  0
TEXT
  5
3D0
330
3B8
100
AcDbEntity
  8
0
 62
     5
100
AcDbText
 10
-273.2386179209704
 20
242.3744172092994
 30
0.0
 40
1.9
  1
1000
  7
CYRILTLC
100
AcDbText
  0
LINE
  5
3D1
330
3B8
100
AcDbEntity
  8
0
100
AcDbLine
 10
-267.4103105381293
 20
224.0161766437992
 30
0.0
 11
-257.4103105381293
 21
225.0161766437992
 31
0.0
  0
TEXT
  5
3D2
330
3B8
100
AcDbEntity
  8
0
 62
     5
100
AcDbText
 10
-276.1312720269077
 20
232.234497128964
 30
0.0
 40
2.0
  1
孔間隔公差%%P0.25
 41
0.8
  7
標楷體
100
AcDbText
  0
LINE
  5
3D3
330
3B8
100
AcDbEntity
  8
0
100
AcDbLine
 10
-257.8900000000001
 20
227.7212785388127
 30
0.0
 11
-254.8900000000001
 21
227.7212785388127
 31
0.0
  0
TEXT
  5
3D4
330
3B8
100
AcDbEntity
  8
0
 62
     5
100
AcDbText
 10
-264.7645316306795
 20
262.7514847406908
 30
0.0
 40
1.9
  1
>%%p0.1
  7
ROMANT
100
AcDbText
  0
TEXT
  5
3D5
330
3B8
100
AcDbEntity
  8
0
 62
     5
100
AcDbText
 10
-264.7645316306795
 20
259.5666507763928
 30
0.0
 40
1.9
  1
>%%p0.2
  7
ROMANT
100
AcDbText
  0
TEXT
  5
3D6
330
3B8
100
AcDbEntity
  8
0
 62
     5
100
AcDbText
 10
-264.7645316306795
 20
256.4226477813196
 30
0.0
 40
1.9
  1
>%%p0.3
  7
ROMANT
100
AcDbText
  0
TEXT
  5
3D7
330
3B8
100
AcDbEntity
  8
0
 62
     5
100
AcDbText
 10
-264.7645316306795
 20
253.4011392243173
 30
0.0
 40
1.9
  1
>%%p0.4
  7
ROMANT
100
AcDbText
  0
TEXT
  5
3D8
330
3B8
100
AcDbEntity
  8
0
 62
     5
100
AcDbText
 10
-264.7645316306795
 20
250.2571362292441
 30
0.0
 40
1.9
  1
>%%p0.5
  7
ROMANT
100
AcDbText
  0
TEXT
  5
3D9
330
3B8
100
AcDbEntity
  8
0
 62
     5
100
AcDbText
 10
-264.7645316306795
 20
247.4218177081189
 30
0.0
 40
1.9
  1
>%%p0.6
  7
ROMANT
100
AcDbText
  0
TEXT
  5
3DA
330
3B8
100
AcDbEntity
  8
0
 62
     5
100
AcDbText
 10
-264.7645316306795
 20
244.4003091511167
 30
0.0
 40
1.9
  1
>%%p0.8
  7
ROMANT
100
AcDbText
  0
TEXT
  5
3DB
330
3B8
100
AcDbEntity
  8
0
 62
     5
100
AcDbText
 10
-264.7645316306795
 20
241.2563061560434
 30
0.0
 40
1.9
  1
>%%p1.0
  7
ROMANT
100
AcDbText
  0
TEXT
  5
3DC
330
3B8
100
AcDbEntity
  8
0
 62
     5
100
AcDbText
 10
-274.6970800525057
 20
268.0203103648859
 30
0.0
 40
3.324999999999999
  1
一般公差
  7
標楷體
100
AcDbText
  0
LINE
  5
3DD
330
3B8
100
AcDbEntity
  8
0
100
AcDbLine
 10
-267.4103105381293
 20
220.0161766437993
 30
0.0
 11
-257.4103105381293
 21
219.0161766437992
 31
0.0
  0
LINE
  5
3DE
330
3B8
100
AcDbEntity
  8
0
  6
CENTER2
 62
     1
 48
2.0
100
AcDbLine
 10
-268.2433185381293
 20
222.0161766437993
 30
0.0
 11
-256.3822955381293
 21
222.0161766437993
 31
0.0
  0
LINE
  5
3DF
330
3B8
100
AcDbEntity
  8
0
  6
CENTER2
 62
     1
 48
2.0
100
AcDbLine
 10
-277.7652905381292
 20
222.0161766437993
 30
0.0
 11
-269.7652905381293
 21
222.0161766437993
 31
0.0
  0
TEXT
  5
3E0
330
3B8
100
AcDbEntity
  8
0
100
AcDbText
 10
-259.0566666666667
 20
204.0831506849315
 30
0.0
 40
3.5
  1
B
  7
CHINESET
 72
     4
 11
-257.89
 21
205.8331506849315
 31
0.0
100
AcDbText
  0
TEXT
  5
3E1
330
3B8
100
AcDbEntity
  8
0
100
AcDbText
 10
-259.14
 20
160.3068949771689
 30
0.0
 40
3.5
  1
C
  7
CHINESET
 72
     4
 11
-257.89
 21
162.0568949771689
 31
0.0
100
AcDbText
  0
LINE
  5
3E2
330
3B8
100
AcDbEntity
  8
0
100
AcDbLine
 10
-257.89
 20
183.9450228310502
 30
0.0
 11
-254.89
 21
183.9450228310502
 31
0.0
  0
LINE
  5
3E3
330
3B8
100
AcDbEntity
  8
0
100
AcDbLine
 10
-257.89
 20
140.1687671232876
 30
0.0
 11
-254.89
 21
140.1687671232876
 31
0.0
  0
CIRCLE
  5
3E4
330
3B8
100
AcDbEntity
  8
0
100
AcDbCircle
 10
-273.7652905381292
 20
222.0161766437993
 30
0.0
 40
2.0
  0
CIRCLE
  5
3E5
330
3B8
100
AcDbEntity
  8
0
100
AcDbCircle
 10
-273.7652905381292
 20
222.0161766437993
 30
0.0
 40
3.0
  0
LINE
  5
3E6
330
3B8
100
AcDbEntity
  8
0
  6
CENTER2
 62
     1
 48
2.0
100
AcDbLine
 10
-273.7652905381292
 20
226.0161766437992
 30
0.0
 11
-273.7652905381292
 21
218.0161766437993
 31
0.0
  0
LINE
  5
3E7
330
3B8
100
AcDbEntity
  8
0
100
AcDbLine
 10
-267.4103105381293
 20
224.0161766437992
 30
0.0
 11
-267.4103105381293
 21
220.0161766437993
 31
0.0
  0
LINE
  5
3E8
330
3B8
100
AcDbEntity
  8
0
100
AcDbLine
 10
-257.4103105381293
 20
225.0161766437992
 30
0.0
 11
-257.4103105381293
 21
219.0161766437992
 31
0.0
  0
LINE
  5
3E9
330
3B8
100
AcDbEntity
  8
0
 62
   200
100
AcDbLine
 10
-254.89
 20
271.4975342465753
 30
0.0
 11
-79.88999999999998
 21
271.4975342465754
 31
0.0
  0
TEXT
  5
3EA
330
3B8
100
AcDbEntity
  8
0
 62
     5
100
AcDbText
 10
-268.9198933375542
 20
202.1384947053492
 30
-0.0000000000000127
 40
2.0
  1
500S
  7
CHINA
 72
     4
 11
-265.6191059359794
 21
203.1208219144481
 31
-0.0000000000000127
100
AcDbText
  0
TEXT
  5
3EB
330
3B8
100
AcDbEntity
  8
0
 62
     5
100
AcDbText
 10
-269.5086086984103
 20
206.1796411483214
 30
-0.0000000000000127
 40
2.2
  1
粗 度
  7
標楷體
 72
     4
 11
-265.6191059359794
 21
207.0790886621336
 31
-0.0000000000000127
100
AcDbText
  0
TEXT
  5
3EC
330
3B8
100
AcDbEntity
  8
0
 62
     5
100
AcDbText
 10
-277.1481688085603
 20
206.1553317560563
 30
-0.0000000000000127
 40
2.2
  1
記號
  7
標楷體
 72
     4
 11
-274.0365665986155
 21
207.0790886621336
 31
-0.0000000000000127
100
AcDbText
  0
LINE
  5
3ED
330
3B8
100
AcDbEntity
  8
0
 62
     5
100
AcDbLine
 10
-277.2574293236826
 20
204.870821914448
 30
-0.0000000000000127
 11
-260.6191059359794
 21
204.8708219144481
 31
-0.0000000000000127
  0
LINE
  5
3EE
330
3B8
100
AcDbEntity
  8
0
 62
     5
100
AcDbLine
 10
-277.2574293236826
 20
209.418289657842
 30
-0.0000000000000127
 11
-260.6191059359794
 21
209.418289657842
 31
-0.0000000000000127
  0
LINE
  5
3EF
330
3B8
100
AcDbEntity
  8
0
 62
     5
100
AcDbLine
 10
-270.6191059359794
 20
201.3708219144481
 30
-0.0000000000000127
 11
-260.6191059359794
 21
201.3708219144481
 31
-0.0000000000000127
  0
TEXT
  5
3F0
330
3B8
100
AcDbEntity
  8
0
 62
     5
100
AcDbText
 10
-268.9028329701001
 20
195.1138227893387
 30
-0.0000000000000127
 40
2.0
  1
320S
  7
CHINA
 72
     4
 11
-265.6191059359794
 21
196.1208219144481
 31
-0.0000000000000127
100
AcDbText
  0
TEXT
  5
3F1
330
3B8
100
AcDbEntity
  8
0
 62
     5
100
AcDbText
 10
-268.9004707653757
 20
191.6258962801524
 30
-0.0000000000000127
 40
2.0
  1
250S
  7
CHINA
 72
     4
 11
-265.6191059359794
 21
192.6208219144481
 31
-0.0000000000000127
100
AcDbText
  0
TEXT
  5
3F2
330
3B8
100
AcDbEntity
  8
0
 62
     5
100
AcDbText
 10
-271.367863770209
 20
190.3982880125914
 30
-0.0000000000000127
 40
5.0
  1
~
 50
90.0
  7
RUBONK
100
AcDbText
  0
LINE
  5
3F3
330
3B8
100
AcDbEntity
  8
0
 62
     5
100
AcDbLine
 10
-270.6191059359794
 20
190.870821914448
 30
-0.0000000000000127
 11
-260.6191059359793
 21
190.8708219144481
 31
-0.0000000000000127
  0
LINE
  5
3F4
330
3B8
100
AcDbEntity
  8
0
 62
     5
100
AcDbLine
 10
-270.6191059359794
 20
194.370821914448
 30
-0.0000000000000127
 11
-260.6191059359793
 21
194.3708219144481
 31
-0.0000000000000127
  0
LINE
  5
3F5
330
3B8
100
AcDbEntity
  8
0
 62
     5
100
AcDbLine
 10
-270.6191059359794
 20
197.870821914448
 30
-0.0000000000000127
 11
-260.6191059359793
 21
197.8708219144481
 31
-0.0000000000000127
  0
TEXT
  5
3F6
330
3B8
100
AcDbEntity
  8
0
 62
     5
100
AcDbText
 10
-268.8478023489278
 20
184.5901132530308
 30
-0.0000000000000127
 40
2.0
  1
160S
  7
CHINA
 72
     4
 11
-265.6191059359794
 21
185.6208219144481
 31
-0.0000000000000127
100
AcDbText
  0
TEXT
  5
3F7
330
3B8
100
AcDbEntity
  8
0
 62
     5
100
AcDbText
 10
-268.8478023489278
 20
181.1258962801524
 30
-0.0000000000000127
 40
2.0
  1
125S
  7
CHINA
 72
     4
 11
-265.6191059359794
 21
182.1208219144481
 31
-0.0000000000000127
100
AcDbText
  0
LINE
  5
3F8
330
3B8
100
AcDbEntity
  8
0
 62
     5
100
AcDbLine
 10
-277.2574293236825
 20
180.370821914448
 30
-0.0000000000000127
 11
-260.6191059359793
 21
180.3708219144481
 31
-0.0000000000000127
  0
LINE
  5
3F9
330
3B8
100
AcDbEntity
  8
0
 62
     5
100
AcDbLine
 10
-270.6191059359794
 20
183.870821914448
 30
-0.0000000000000127
 11
-260.6191059359793
 21
183.8708219144481
 31
-0.0000000000000127
  0
LINE
  5
3FA
330
3B8
100
AcDbEntity
  8
0
 62
     5
100
AcDbLine
 10
-270.6191059359794
 20
187.370821914448
 30
-0.0000000000000127
 11
-260.6191059359793
 21
187.3708219144481
 31
-0.0000000000000127
  0
TEXT
  5
3FB
330
3B8
100
AcDbEntity
  8
0
 62
     5
100
AcDbText
 10
-268.9004707653757
 20
188.0775148278339
 30
-0.0000000000000127
 40
2.0
  1
200S
  7
CHINA
 72
     4
 11
-265.6191059359794
 21
189.1208219144481
 31
-0.0000000000000127
100
AcDbText
  0
TEXT
  5
3FC
330
3B8
100
AcDbEntity
  8
0
 62
     5
100
AcDbText
 10
-268.9366912378166
 20
198.5901132530307
 30
-0.0000000000000127
 40
2.0
  1
400S
  7
CHINA
 72
     4
 11
-265.6191059359794
 21
199.6208219144481
 31
-0.0000000000000127
100
AcDbText
  0
TEXT
  5
3FD
330
3B8
100
AcDbEntity
  8
0
 62
     5
100
AcDbText
 10
-268.0537516052707
 20
174.1246714332582
 30
-0.0000000000000127
 40
2.0
  1
80S
  7
CHINA
 72
     4
 11
-265.6191059359794
 21
175.1208219144481
 31
-0.0000000000000127
100
AcDbText
  0
TEXT
  5
3FE
330
3B8
100
AcDbEntity
  8
0
 62
     5
100
AcDbText
 10
-268.1321418064956
 20
170.6181972425321
 30
-0.0000000000000127
 40
2.0
  1
63S
  7
CHINA
 72
     4
 11
-265.6191059359794
 21
171.6208219144481
 31
-0.0000000000000127
100
AcDbText
  0
LINE
  5
3FF
330
3B8
100
AcDbEntity
  8
0
 62
     5
100
AcDbLine
 10
-274.5985039672424
 20
168.5655442254647
 30
-0.0000000000000127
 11
-274.5985039672425
 21
170.9655442254647
 31
-0.0000000000000127
  0
LINE
  5
400
330
3B8
100
AcDbEntity
  8
0
 62
     5
100
AcDbLine
 10
-274.5985039672424
 20
168.5655442254647
 30
-0.0000000000000127
 11
-272.5200429981597
 21
169.7655442254647
 31
-0.0000000000000127
  0
LINE
  5
401
330
3B8
100
AcDbEntity
  8
0
 62
     5
100
AcDbLine
 10
-272.5200429981597
 20
169.7655442254647
 30
-0.0000000000000127
 11
-274.5985039672424
 21
170.9655442254647
 31
-0.0000000000000127
  0
LINE
  5
402
330
3B8
100
AcDbEntity
  8
0
 62
     5
100
AcDbLine
 10
-270.6191059359794
 20
169.870821914448
 30
-0.0000000000000127
 11
-260.6191059359793
 21
169.8708219144481
 31
-0.0000000000000127
  0
LINE
  5
403
330
3B8
100
AcDbEntity
  8
0
 62
     5
100
AcDbLine
 10
-270.6191059359794
 20
173.370821914448
 30
-0.0000000000000127
 11
-260.6191059359793
 21
173.3708219144481
 31
-0.0000000000000127
  0
LINE
  5
404
330
3B8
100
AcDbEntity
  8
0
 62
     5
100
AcDbLine
 10
-270.6191059359794
 20
176.870821914448
 30
-0.0000000000000127
 11
-260.6191059359793
 21
176.8708219144481
 31
-0.0000000000000127
  0
TEXT
  5
405
330
3B8
100
AcDbEntity
  8
0
 62
     5
100
AcDbText
 10
-268.1366912378166
 20
163.5901132530308
 30
-0.0000000000000127
 40
2.0
  1
40S
  7
CHINA
 72
     4
 11
-265.6191059359794
 21
164.6208219144481
 31
-0.0000000000000127
100
AcDbText
  0
TEXT
  5
406
330
3B8
100
AcDbEntity
  8
0
 62
     5
100
AcDbText
 10
-268.1004707653757
 20
156.6258962801524
 30
-0.0000000000000127
 40
2.0
  1
25S
  7
CHINA
 72
     4
 11
-265.6191059359794
 21
157.6208219144481
 31
-0.0000000000000127
100
AcDbText
  0
TEXT
  5
407
330
3B8
100
AcDbEntity
  8
0
 62
     5
100
AcDbText
 10
-268.1028329701002
 20
160.1138227893387
 30
-0.0000000000000127
 40
2.0
  1
32S
  7
CHINA
 72
     4
 11
-265.6191059359794
 21
161.1208219144481
 31
-0.0000000000000127
100
AcDbText
  0
LINE
  5
408
330
3B8
100
AcDbEntity
  8
0
 62
     5
100
AcDbLine
 10
-277.2574293236825
 20
159.370821914448
 30
-0.0000000000000127
 11
-260.6191059359793
 21
159.3708219144481
 31
-0.0000000000000127
  0
LINE
  5
409
330
3B8
100
AcDbEntity
  8
0
 62
     5
100
AcDbLine
 10
-270.6191059359794
 20
162.870821914448
 30
-0.0000000000000127
 11
-260.6191059359793
 21
162.8708219144481
 31
-0.0000000000000127
  0
LINE
  5
40A
330
3B8
100
AcDbEntity
  8
0
 62
     5
100
AcDbLine
 10
-270.6191059359794
 20
166.370821914448
 30
-0.0000000000000127
 11
-260.6191059359793
 21
166.3708219144481
 31
-0.0000000000000127
  0
TEXT
  5
40B
330
3B8
100
AcDbEntity
  8
0
 62
     5
100
AcDbText
 10
-268.1198933375542
 20
167.1384947053492
 30
-0.0000000000000127
 40
2.0
  1
50S
  7
CHINA
 72
     4
 11
-265.6191059359794
 21
168.1208219144481
 31
-0.0000000000000127
100
AcDbText
  0
TEXT
  5
40C
330
3B8
100
AcDbEntity
  8
0
 62
     5
100
AcDbText
 10
-268.1004707653757
 20
153.0775148278339
 30
-0.0000000000000127
 40
2.0
  1
20S
  7
CHINA
 72
     4
 11
-265.6191059359794
 21
154.1208219144481
 31
-0.0000000000000127
100
AcDbText
  0
TEXT
  5
40D
330
3B8
100
AcDbEntity
  8
0
 62
     5
100
AcDbText
 10
-269.1366912378167
 20
146.1258962801523
 30
-0.0000000000000127
 40
2.0
  1
12.5S
  7
CHINA
 72
     4
 11
-265.6191059359794
 21
147.1208219144481
 31
-0.0000000000000127
100
AcDbText
  0
TEXT
  5
40E
330
3B8
100
AcDbEntity
  8
0
 62
     5
100
AcDbText
 10
-268.0478023489278
 20
149.5901132530307
 30
-0.0000000000000127
 40
2.0
  1
16S
  7
CHINA
 72
     4
 11
-265.6191059359794
 21
150.6208219144481
 31
-0.0000000000000127
100
AcDbText
  0
LINE
  5
40F
330
3B8
100
AcDbEntity
  8
0
 62
     5
100
AcDbLine
 10
-274.5985039672424
 20
146.5354371087103
 30
-0.0000000000000127
 11
-274.5985039672425
 21
148.9354371087102
 31
-0.0000000000000127
  0
LINE
  5
410
330
3B8
100
AcDbEntity
  8
0
 62
     5
100
AcDbLine
 10
-274.5985039672424
 20
146.5354371087103
 30
-0.0000000000000127
 11
-272.5200429981597
 21
147.7354371087102
 31
-0.0000000000000127
  0
LINE
  5
411
330
3B8
100
AcDbEntity
  8
0
 62
     5
100
AcDbLine
 10
-272.5200429981597
 20
147.7354371087102
 30
-0.0000000000000127
 11
-274.5985039672424
 21
148.9354371087102
 31
-0.0000000000000127
  0
LINE
  5
412
330
3B8
100
AcDbEntity
  8
0
 62
     5
100
AcDbLine
 10
-274.5985039672425
 20
148.9354371087103
 30
-0.0000000000000127
 11
-272.5200429981597
 21
150.1354371087103
 31
-0.0000000000000127
  0
LINE
  5
413
330
3B8
100
AcDbEntity
  8
0
 62
     5
100
AcDbLine
 10
-272.5200429981597
 20
150.1354371087103
 30
-0.0000000000000127
 11
-274.5985039672425
 21
151.3354371087102
 31
-0.0000000000000127
  0
LINE
  5
414
330
3B8
100
AcDbEntity
  8
0
 62
     5
100
AcDbLine
 10
-274.5985039672425
 20
148.9354371087103
 30
-0.0000000000000127
 11
-274.5985039672425
 21
151.3354371087102
 31
-0.0000000000000127
  0
LINE
  5
415
330
3B8
100
AcDbEntity
  8
0
 62
     5
100
AcDbLine
 10
-270.6191059359794
 20
145.370821914448
 30
-0.0000000000000127
 11
-260.6191059359793
 21
145.3708219144481
 31
-0.0000000000000127
  0
LINE
  5
416
330
3B8
100
AcDbEntity
  8
0
 62
     5
100
AcDbLine
 10
-270.6191059359794
 20
148.870821914448
 30
-0.0000000000000127
 11
-260.6191059359793
 21
148.8708219144481
 31
-0.0000000000000127
  0
LINE
  5
417
330
3B8
100
AcDbEntity
  8
0
 62
     5
100
AcDbLine
 10
-270.6191059359794
 20
152.370821914448
 30
-0.0000000000000127
 11
-260.6191059359793
 21
152.3708219144481
 31
-0.0000000000000127
  0
LINE
  5
418
330
3B8
100
AcDbEntity
  8
0
 62
     5
100
AcDbLine
 10
-270.6191059359794
 20
155.870821914448
 30
-0.0000000000000127
 11
-260.6191059359793
 21
155.8708219144481
 31
-0.0000000000000127
  0
TEXT
  5
419
330
3B8
100
AcDbEntity
  8
0
 62
     5
100
AcDbText
 10
-269.1366912378167
 20
142.5901132530308
 30
-0.0000000000000127
 40
2.0
  1
10.0S
  7
CHINA
 72
     4
 11
-265.6191059359794
 21
143.6208219144481
 31
-0.0000000000000127
100
AcDbText
  0
TEXT
  5
41A
330
3B8
100
AcDbEntity
  8
0
 62
     5
100
AcDbText
 10
-268.4210306953845
 20
135.6181972425321
 30
-0.0000000000000127
 40
2.0
  1
6.3S
  7
CHINA
 72
     4
 11
-265.6191059359794
 21
136.6208219144481
 31
-0.0000000000000127
100
AcDbText
  0
TEXT
  5
41B
330
3B8
100
AcDbEntity
  8
0
 62
     5
100
AcDbText
 10
-268.3426404941597
 20
139.1246714332582
 30
-0.0000000000000127
 40
2.0
  1
8.0S
  7
CHINA
 72
     4
 11
-265.6191059359794
 21
140.1208219144481
 31
-0.0000000000000127
100
AcDbText
  0
LINE
  5
41C
330
3B8
100
AcDbEntity
  8
0
 62
     5
100
AcDbLine
 10
-277.2574293236826
 20
138.370821914448
 30
-0.0000000000000127
 11
-260.6191059359793
 21
138.3708219144481
 31
-0.0000000000000127
  0
LINE
  5
41D
330
3B8
100
AcDbEntity
  8
0
 62
     5
100
AcDbLine
 10
-270.6191059359794
 20
134.870821914448
 30
-0.0000000000000127
 11
-260.6191059359793
 21
134.8708219144481
 31
-0.0000000000000127
  0
LINE
  5
41E
330
3B8
100
AcDbEntity
  8
0
 62
     5
100
AcDbLine
 10
-270.6191059359794
 20
141.870821914448
 30
-0.0000000000000127
 11
-260.6191059359793
 21
141.8708219144481
 31
-0.0000000000000127
  0
TEXT
  5
41F
330
3B8
100
AcDbEntity
  8
0
 62
     5
100
AcDbText
 10
-268.8478023489278
 20
177.5901132530307
 30
-0.0000000000000127
 40
2.0
  1
100S
  7
CHINA
 72
     4
 11
-265.6191059359794
 21
178.6208219144481
 31
-0.0000000000000127
100
AcDbText
  0
TEXT
  5
420
330
3B8
100
AcDbEntity
  8
0
100
AcDbText
 10
-78.02703066405392
 20
116.5306392694064
 30
0.0
 40
3.5
  1
D
  7
CHINESET
 72
     4
 11
-76.86036399738725
 21
118.2806392694064
 31
0.0
100
AcDbText
  0
LINE
  5
421
330
3B8
100
AcDbEntity
  8
0
100
AcDbLine
 10
-79.89000000000001
 20
96.39251141552513
 30
0.0
 11
-76.89000000000001
 21
96.39251141552513
 31
0.0
  0
TEXT
  5
422
330
3B8
100
AcDbEntity
  8
0
100
AcDbText
 10
-77.94369733072058
 20
72.75438356164385
 30
0.0
 40
3.5
  1
E
  7
CHINESET
 72
     4
 11
-76.86036399738725
 21
74.50438356164385
 31
0.0
100
AcDbText
  0
LINE
  5
423
330
3B8
100
AcDbEntity
  8
0
100
AcDbLine
 10
-79.88999999999998
 20
52.61625570776257
 30
0.0
 11
-76.88999999999999
 21
52.61625570776257
 31
0.0
  0
TEXT
  5
424
330
3B8
100
AcDbEntity
  8
0
 62
     5
100
AcDbText
 10
-115.3837291884186
 20
50.75746792617393
 30
0.0
 40
2.5
  1
審核
  7
新細明體
 72
     4
 11
-111.6627989558604
 21
51.87665397268556
 31
0.0
100
AcDbText
  0
TEXT
  5
425
330
3B8
100
AcDbEntity
  8
0
100
AcDbText
 10
-77.94369733072058
 20
28.97812785388132
 30
0.0
 40
3.5
  1
F
  7
CHINESET
 72
     4
 11
-76.86036399738725
 21
30.72812785388132
 31
0.0
100
AcDbText
  0
TEXT
  5
426
330
3B8
100
AcDbEntity
  8
0
 62
     5
100
AcDbText
 10
-115.3837291884186
 20
38.75746792617393
 30
0.0
 40
2.5
  1
設計
  7
新細明體
 72
     4
 11
-111.6627989558604
 21
39.87665397268556
 31
0.0
100
AcDbText
  0
TEXT
  5
427
330
3B8
100
AcDbEntity
  8
0
 62
     5
100
AcDbText
 10
-115.3837291884186
 20
26.75746792617393
 30
0.0
 40
2.5
  1
材質
  7
新細明體
 72
     4
 11
-111.6627989558604
 21
27.87665397268556
 31
0.0
100
AcDbText
  0
TEXT
  5
428
330
3B8
100
AcDbEntity
  8
0
 62
     5
100
AcDbText
 10
-115.3837291884186
 20
32.77745339129021
 30
0.0
 40
2.5
  1
製圖
  7
新細明體
 72
     4
 11
-111.6627989558604
 21
33.87665397268556
 31
0.0
100
AcDbText
  0
LINE
  5
429
330
3B8
100
AcDbEntity
  8
0
 62
     7
100
AcDbLine
 10
-140.2366753175949
 20
30.84000000000006
 30
0.0
 11
-140.2366753175949
 21
36.84000000000006
 31
0.0
  0
TEXT
  5
42A
330
3B8
100
AcDbEntity
  8
0
 62
     5
100
AcDbText
 10
-113.3271215938075
 20
14.85771886837168
 30
0.0
 40
3.0
  1
4
  7
ROMANT
 72
     4
 11
-111.898550165236
 21
16.35771886837169
 31
0.0
100
AcDbText
  0
LINE
  5
42B
330
3B8
100
AcDbEntity
  8
0
 62
     7
100
AcDbLine
 10
-108.89
 20
8.840000000000042
 30
0.0
 11
-108.89
 21
18.84
 31
0.0
  0
LINE
  5
42C
330
3B8
100
AcDbEntity
  8
0
 62
     7
100
AcDbLine
 10
-114.89
 20
8.840000000000042
 30
0.0
 11
-114.89
 21
18.84000000000001
 31
0.0
  0
TEXT
  5
42D
330
3B8
100
AcDbEntity
  8
0
 62
     5
100
AcDbText
 10
-113.3271215938075
 20
9.857718868371687
 30
0.0
 40
3.0
  1
9
  7
ROMANT
 72
     4
 11
-111.898550165236
 21
11.35771886837169
 31
0.0
100
AcDbText
  0
TEXT
  5
42E
330
3B8
100
AcDbEntity
  8
0
 62
     5
100
AcDbText
 10
-148.3271215938074
 20
14.85771886837168
 30
0.0
 40
3.0
  1
3
  7
ROMANT
 72
     4
 11
-146.898550165236
 21
16.35771886837169
 31
0.0
100
AcDbText
  0
LINE
  5
42F
330
3B8
100
AcDbEntity
  8
0
 62
     7
100
AcDbLine
 10
-143.89
 20
8.840000000000042
 30
0.0
 11
-143.89
 21
18.84000000000001
 31
0.0
  0
TEXT
  5
430
330
3B8
100
AcDbEntity
  8
0
 62
     5
100
AcDbText
 10
-148.3271215938074
 20
9.857718868371687
 30
0.0
 40
3.0
  1
8
  7
ROMANT
 72
     4
 11
-146.898550165236
 21
11.35771886837169
 31
0.0
100
AcDbText
  0
TEXT
  5
431
330
3B8
100
AcDbEntity
  8
0
 62
     5
100
AcDbText
 10
-115.3837291884186
 20
20.75020048431346
 30
0.0
 40
2.5
  1
圖號
  7
新細明體
 72
     4
 11
-111.6627989558604
 21
21.87665397268556
 31
0.0
100
AcDbText
  0
LINE
  5
432
330
3B8
100
AcDbEntity
  8
0
 62
     7
100
AcDbLine
 10
-79.88999999999998
 20
24.84000000000004
 30
0.0
 11
-117.6616804817491
 21
24.84000000000004
 31
0.0
  0
LINE
  5
433
330
3B8
100
AcDbEntity
  8
0
 62
     7
100
AcDbLine
 10
-145.0567817051234
 20
36.84000000000005
 30
0.0
 11
-145.0567817051234
 21
54.84000000000003
 31
0.0
  0
LINE
  5
434
330
3B8
100
AcDbEntity
  8
0
 62
     7
100
AcDbLine
 10
-105.3572357472916
 20
18.84000000000004
 30
0.0
 11
-105.3572357472916
 21
54.84000000000005
 31
0.0
  0
LINE
  5
435
330
3B8
100
AcDbEntity
  8
0
 62
     7
100
AcDbLine
 10
-117.6616804817491
 20
18.84000000000004
 30
0.0
 11
-117.6616804817491
 21
54.84000000000005
 31
0.0
  0
TEXT
  5
436
330
3B8
100
AcDbEntity
  8
0
 62
     5
100
AcDbText
 10
-115.3837291884186
 20
44.75746792617393
 30
0.0
 40
2.5
  1
審校
  7
新細明體
 72
     4
 11
-111.6627989558604
 21
45.87665397268556
 31
0.0
100
AcDbText
  0
TEXT
  5
437
330
3B8
100
AcDbEntity
  8
0
100
AcDbText
 10
-259.0566666666667
 20
116.5306392694064
 30
0.0
 40
3.5
  1
D
  7
CHINESET
 72
     4
 11
-257.89
 21
118.2806392694064
 31
0.0
100
AcDbText
  0
TEXT
  5
438
330
3B8
100
AcDbEntity
  8
0
100
AcDbText
 10
-258.9733333333333
 20
72.75438356164385
 30
0.0
 40
3.5
  1
E
  7
CHINESET
 72
     4
 11
-257.89
 21
74.50438356164385
 31
0.0
100
AcDbText
  0
LINE
  5
439
330
3B8
100
AcDbEntity
  8
0
100
AcDbLine
 10
-257.89
 20
96.39251141552513
 30
0.0
 11
-254.89
 21
96.39251141552513
 31
0.0
  0
LINE
  5
43A
330
3B8
100
AcDbEntity
  8
0
100
AcDbLine
 10
-257.89
 20
52.61625570776257
 30
0.0
 11
-254.89
 21
52.61625570776257
 31
0.0
  0
LINE
  5
43B
330
3B8
100
AcDbEntity
  8
0
 62
     7
100
AcDbLine
 10
-149.89
 20
8.840000000000042
 30
0.0
 11
-149.89
 21
18.84000000000001
 31
0.0
  0
TEXT
  5
43C
330
3B8
100
AcDbEntity
  8
0
 62
     5
100
AcDbText
 10
-183.3271215938075
 20
14.85771886837168
 30
0.0
 40
3.0
  1
2
  7
ROMANT
 72
     4
 11
-181.898550165236
 21
16.35771886837169
 31
0.0
100
AcDbText
  0
TEXT
  5
43D
330
3B8
100
AcDbEntity
  8
0
100
AcDbText
 10
-190.4316666666666
 20
4.090000000000127
 30
0.0
 40
3.5
  1
2
  7
CHINESET
 72
     4
 11
-189.265
 21
5.840000000000127
 31
0.0
100
AcDbText
  0
LINE
  5
43E
330
3B8
100
AcDbEntity
  8
0
 62
     7
100
AcDbLine
 10
-178.89
 20
8.840000000000042
 30
0.0
 11
-178.89
 21
18.84000000000002
 31
0.0
  0
LINE
  5
43F
330
3B8
100
AcDbEntity
  8
0
 62
     7
100
AcDbLine
 10
-184.89
 20
8.840000000000042
 30
0.0
 11
-184.89
 21
18.84000000000003
 31
0.0
  0
TEXT
  5
440
330
3B8
100
AcDbEntity
  8
0
 62
     5
100
AcDbText
 10
-183.3271215938075
 20
9.857718868371687
 30
0.0
 40
3.0
  1
7
  7
ROMANT
 72
     4
 11
-181.898550165236
 21
11.35771886837169
 31
0.0
100
AcDbText
  0
TEXT
  5
441
330
3B8
100
AcDbEntity
  8
0
 62
     5
100
AcDbText
 10
-252.8609962567216
 20
26.71828302083334
 30
0.0
 40
2.5
  1
圖
  7
新細明體
100
AcDbText
  0
TEXT
  5
442
330
3B8
100
AcDbEntity
  8
0
 62
     5
100
AcDbText
 10
-218.5271215938075
 20
14.85771886837168
 30
0.0
 40
3.0
  1
1
  7
ROMANT
 72
     4
 11
-217.0985501652361
 21
16.35771886837169
 31
0.0
100
AcDbText
  0
LINE
  5
443
330
3B8
100
AcDbEntity
  8
0
100
AcDbLine
 10
-211.14
 20
8.840000000000042
 30
0.0
 11
-211.14
 21
5.840000000000042
 31
0.0
  0
LINE
  5
444
330
3B8
100
AcDbEntity
  8
0
 62
     7
100
AcDbLine
 10
-213.89
 20
8.840000000000042
 30
0.0
 11
-213.89
 21
18.84000000000003
 31
0.0
  0
LINE
  5
445
330
3B8
100
AcDbEntity
  8
0
 62
     7
100
AcDbLine
 10
-219.89
 20
8.840000000000042
 30
0.0
 11
-219.89
 21
18.84000000000003
 31
0.0
  0
TEXT
  5
446
330
3B8
100
AcDbEntity
  8
0
 62
     5
100
AcDbText
 10
-218.5271215938075
 20
9.857718868371687
 30
0.0
 40
3.0
  1
6
  7
ROMANT
 72
     4
 11
-217.0985501652361
 21
11.35771886837169
 31
0.0
100
AcDbText
  0
TEXT
  5
447
330
3B8
100
AcDbEntity
  8
0
100
AcDbText
 10
-233.4316666666667
 20
4.09000000000007
 30
0.0
 40
3.5
  1
1
  7
CHINESET
 72
     4
 11
-233.015
 21
5.84000000000007
 31
0.0
100
AcDbText
  0
LINE
  5
448
330
3B8
100
AcDbEntity
  8
0
 62
     7
100
AcDbLine
 10
-248.89
 20
8.840000000000042
 30
0.0
 11
-248.89
 21
13.84000000000004
 31
0.0
  0
TEXT
  5
449
330
3B8
100
AcDbEntity
  8
0
 62
     5
100
AcDbText
 10
-253.3271215938075
 20
9.857718868371687
 30
0.0
 40
3.0
  1
5
  7
ROMANT
 72
     4
 11
-251.8985501652361
 21
11.35771886837169
 31
0.0
100
AcDbText
  0
TEXT
  5
44A
330
3B8
100
AcDbEntity
  8
0
 62
     5
100
AcDbText
 10
-250.5132558139535
 20
15.22444767441865
 30
0.0
 40
2.5
  1
設變日期記錄欄
  7
新細明體
 72
     4
 11
-237.49
 21
16.34000000000004
 31
0.0
100
AcDbText
  0
LINE
  5
44B
330
3B8
100
AcDbEntity
  8
0
 62
     7
100
AcDbLine
 10
-246.3182453962353
 20
18.84000000000004
 30
0.0
 11
-246.3182453962353
 21
30.84000000000004
 31
0.0
  0
TEXT
  5
44C
330
3B8
100
AcDbEntity
  8
0
 62
     5
100
AcDbText
 10
-252.8609962567216
 20
21.03980087220254
 30
0.0
 40
2.5
  1
名
  7
新細明體
100
AcDbText
  0
TEXT
  5
44D
330
3B8
100
AcDbEntity
  8
0
100
AcDbText
 10
-258.9733333333333
 20
28.97812785388132
 30
0.0
 40
3.5
  1
F
  7
CHINESET
 72
     4
 11
-257.89
 21
30.72812785388132
 31
0.0
100
AcDbText
  0
LINE
  5
44E
330
3B8
100
AcDbEntity
  8
0
 62
     7
100
AcDbLine
 10
-157.3612264395809
 20
30.84000000000004
 30
0.0
 11
-157.3612264395809
 21
54.84000000000005
 31
0.0
  0
LINE
  5
44F
330
3B8
100
AcDbEntity
  8
0
 62
     7
100
AcDbLine
 10
-79.88999999999998
 20
18.84000000000004
 30
0.0
 11
-254.89
 21
18.84000000000004
 31
0.0
  0
LINE
  5
450
330
3B8
100
AcDbEntity
  8
0
 62
     7
100
AcDbLine
 10
-79.88999999999998
 20
54.84000000000005
 30
0.0
 11
-157.3612264395809
 21
54.84000000000005
 31
0.0
  0
LINE
  5
451
330
3B8
100
AcDbEntity
  8
0
 62
     7
100
AcDbLine
 10
-79.88999999999998
 20
48.84000000000004
 30
0.0
 11
-157.3612264395809
 21
48.84000000000004
 31
0.0
  0
LINE
  5
452
330
3B8
100
AcDbEntity
  8
0
 62
     7
100
AcDbLine
 10
-79.88999999999998
 20
42.84000000000005
 30
0.0
 11
-157.3612264395809
 21
42.84000000000005
 31
0.0
  0
LINE
  5
453
330
3B8
100
AcDbEntity
  8
0
 62
     7
100
AcDbLine
 10
-79.88999999999998
 20
36.84000000000005
 30
0.0
 11
-157.3612264395809
 21
36.84000000000005
 31
0.0
  0
LINE
  5
454
330
3B8
100
AcDbEntity
  8
0
 62
     7
100
AcDbLine
 10
-79.88999999999998
 20
30.84000000000004
 30
0.0
 11
-254.89
 21
30.84000000000004
 31
0.0
  0
LINE
  5
455
330
3B8
100
AcDbEntity
  8
0
 62
     7
100
AcDbLine
 10
-79.88999999999998
 20
13.84000000000004
 30
0.0
 11
-254.89
 21
13.84000000000004
 31
0.0
  0
LINE
  5
456
330
3B8
100
AcDbEntity
  8
0
 62
   200
100
AcDbLine
 10
-79.88999999999998
 20
8.840000000000042
 30
0.0
 11
-254.89
 21
8.840000000000042
 31
0.0
  0
TEXT
  5
457
330
3B8
100
AcDbEntity
  8
0
 62
     5
100
AcDbText
 10
-155.0832751462504
 20
50.742933042453
 30
0.0
 40
2.5
  1
處理
  7
新細明體
 72
     4
 11
-151.3623449136922
 21
51.87665397268556
 31
0.0
100
AcDbText
  0
TEXT
  5
458
330
3B8
100
AcDbEntity
  8
0
 62
     5
100
AcDbText
 10
-154.4514391256617
 20
32.85811650245726
 30
0.0
 40
2.5
  1
主加工
  7
新細明體
 72
     4
 11
-148.8700437768245
 21
33.97730254896889
 31
0.0
100
AcDbText
  0
TEXT
  5
459
330
3B8
100
AcDbEntity
  8
0
 62
     5
100
AcDbText
 10
-155.0832751462504
 20
44.76473536803439
 30
0.0
 40
2.5
  1
日期
  7
新細明體
 72
     4
 11
-151.3623449136922
 21
45.87665397268556
 31
0.0
100
AcDbText
  0
TEXT
  5
45A
330
3B8
100
AcDbEntity
  8
0
 62
     5
100
AcDbText
 10
-155.0832751462504
 20
38.74474990291812
 30
0.0
 40
2.5
  1
比例
  7
新細明體
 72
     4
 11
-151.3623449136922
 21
39.87665397268556
 31
0.0
100
AcDbText
  0
TEXT
  5
45B
330
3B8
100
AcDbEntity
  8
0
 62
     5
100
AcDbText
 10
-268.4255801267056
 20
128.5901132530308
 30
-0.0000000000000127
 40
2.0
  1
4.0S
  7
CHINA
 72
     4
 11
-265.6191059359794
 21
129.6208219144481
 31
-0.0000000000000127
100
AcDbText
  0
TEXT
  5
45C
330
3B8
100
AcDbEntity
  8
0
 62
     5
100
AcDbText
 10
-268.391721858989
 20
125.1138227893387
 30
-0.0000000000000127
 40
2.0
  1
3.2S
  7
CHINA
 72
     4
 11
-265.6191059359794
 21
126.1208219144481
 31
-0.0000000000000127
100
AcDbText
  0
LINE
  5
45D
330
3B8
100
AcDbEntity
  8
0
 62
     5
100
AcDbLine
 10
-272.5200429981598
 20
124.9387659440413
 30
-0.0000000000000127
 11
-274.5985039672425
 21
126.1387659440412
 31
-0.0000000000000127
  0
LINE
  5
45E
330
3B8
100
AcDbEntity
  8
0
 62
     5
100
AcDbLine
 10
-274.5985039672425
 20
123.7387659440413
 30
-0.0000000000000127
 11
-274.5985039672425
 21
126.1387659440412
 31
-0.0000000000000127
  0
LINE
  5
45F
330
3B8
100
AcDbEntity
  8
0
 62
     5
100
AcDbLine
 10
-274.5985039672425
 20
123.7387659440413
 30
-0.0000000000000127
 11
-272.5200429981598
 21
124.9387659440413
 31
-0.0000000000000127
  0
LINE
  5
460
330
3B8
100
AcDbEntity
  8
0
 62
     5
100
AcDbLine
 10
-270.6191059359794
 20
124.370821914448
 30
-0.0000000000000127
 11
-260.6191059359793
 21
124.3708219144481
 31
-0.0000000000000127
  0
LINE
  5
461
330
3B8
100
AcDbEntity
  8
0
 62
     5
100
AcDbLine
 10
-270.6191059359794
 20
131.370821914448
 30
-0.0000000000000127
 11
-260.6191059359794
 21
131.3708219144481
 31
-0.0000000000000127
  0
LINE
  5
462
330
3B8
100
AcDbEntity
  8
0
 62
     5
100
AcDbLine
 10
-270.6191059359794
 20
127.8708219144481
 30
-0.0000000000000127
 11
-260.6191059359793
 21
127.8708219144481
 31
-0.0000000000000127
  0
TEXT
  5
463
330
3B8
100
AcDbEntity
  8
0
 62
     5
100
AcDbText
 10
-268.3893596542646
 20
118.0775148278339
 30
-0.0000000000000127
 40
2.0
  1
2.0S
  7
CHINA
 72
     4
 11
-265.6191059359794
 21
119.1208219144481
 31
-0.0000000000000127
100
AcDbText
  0
TEXT
  5
464
330
3B8
100
AcDbEntity
  8
0
 62
     5
100
AcDbText
 10
-268.3366912378167
 20
114.5901132530308
 30
-0.0000000000000127
 40
2.0
  1
1.6S
  7
CHINA
 72
     4
 11
-265.6191059359794
 21
115.6208219144481
 31
-0.0000000000000127
100
AcDbText
  0
LINE
  5
465
330
3B8
100
AcDbEntity
  8
0
 62
     5
100
AcDbLine
 10
-274.5985039672424
 20
118.9387659440413
 30
-0.0000000000000127
 11
-274.5985039672425
 21
121.3387659440412
 31
-0.0000000000000127
  0
LINE
  5
466
330
3B8
100
AcDbEntity
  8
0
 62
     5
100
AcDbLine
 10
-274.5985039672425
 20
121.3387659440413
 30
-0.0000000000000127
 11
-272.5200429981597
 21
122.5387659440413
 31
-0.0000000000000127
  0
LINE
  5
467
330
3B8
100
AcDbEntity
  8
0
 62
     5
100
AcDbLine
 10
-274.5985039672424
 20
118.9387659440413
 30
-0.0000000000000127
 11
-272.5200429981597
 21
120.1387659440413
 31
-0.0000000000000127
  0
LINE
  5
468
330
3B8
100
AcDbEntity
  8
0
 62
     5
100
AcDbLine
 10
-272.5200429981597
 20
120.1387659440413
 30
-0.0000000000000127
 11
-274.5985039672424
 21
121.3387659440412
 31
-0.0000000000000127
  0
LINE
  5
469
330
3B8
100
AcDbEntity
  8
0
 62
     5
100
AcDbLine
 10
-270.6191059359794
 20
120.8708219144481
 30
-0.0000000000000127
 11
-260.6191059359793
 21
120.8708219144481
 31
-0.0000000000000127
  0
LINE
  5
46A
330
3B8
100
AcDbEntity
  8
0
 62
     5
100
AcDbLine
 10
-270.6191059359794
 20
117.370821914448
 30
-0.0000000000000127
 11
-260.6191059359793
 21
117.3708219144481
 31
-0.0000000000000127
  0
LINE
  5
46B
330
3B8
100
AcDbEntity
  8
0
 62
     5
100
AcDbLine
 10
-270.6191059359794
 20
113.870821914448
 30
-0.0000000000000127
 11
-260.6191059359793
 21
113.8708219144481
 31
-0.0000000000000127
  0
TEXT
  5
46C
330
3B8
100
AcDbEntity
  8
0
 62
     5
100
AcDbText
 10
-268.3893596542646
 20
121.6258962801524
 30
-0.0000000000000127
 40
2.0
  1
2.5S
  7
CHINA
 72
     4
 11
-265.6191059359794
 21
122.6208219144481
 31
-0.0000000000000127
100
AcDbText
  0
LINE
  5
46D
330
3B8
100
AcDbEntity
  8
0
 62
     5
100
AcDbLine
 10
-274.5985039672425
 20
121.3387659440413
 30
-0.0000000000000127
 11
-274.5985039672425
 21
123.7387659440412
 31
-0.0000000000000127
  0
LINE
  5
46E
330
3B8
100
AcDbEntity
  8
0
 62
     5
100
AcDbLine
 10
-272.5200429981597
 20
122.5387659440413
 30
-0.0000000000000127
 11
-274.5985039672425
 21
123.7387659440412
 31
-0.0000000000000127
  0
TEXT
  5
46F
330
3B8
100
AcDbEntity
  8
0
 62
     5
100
AcDbText
 10
-268.3366912378167
 20
107.5901132530308
 30
-0.0000000000000127
 40
2.0
  1
1.0S
  7
CHINA
 72
     4
 11
-265.6191059359794
 21
108.6208219144481
 31
-0.0000000000000127
100
AcDbText
  0
TEXT
  5
470
330
3B8
100
AcDbEntity
  8
0
 62
     5
100
AcDbText
 10
-269.2255801267056
 20
100.6181972425321
 30
-0.0000000000000127
 40
2.0
  1
0.63S
  7
CHINA
 72
     4
 11
-265.6191059359794
 21
101.6208219144481
 31
-0.0000000000000127
100
AcDbText
  0
TEXT
  5
471
330
3B8
100
AcDbEntity
  8
0
 62
     5
100
AcDbText
 10
-268.4033579044834
 20
104.1246714332582
 30
-0.0000000000000127
 40
2.0
  1
0.8S
  7
CHINA
 72
     4
 11
-265.6191059359794
 21
105.1208219144481
 31
-0.0000000000000127
100
AcDbText
  0
LINE
  5
472
330
3B8
100
AcDbEntity
  8
0
 62
     5
100
AcDbLine
 10
-277.2574293236825
 20
106.870821914448
 30
-0.0000000000000127
 11
-260.6191059359793
 21
106.8708219144481
 31
-0.0000000000000127
  0
LINE
  5
473
330
3B8
100
AcDbEntity
  8
0
 62
     5
100
AcDbLine
 10
-270.6191059359794
 20
103.3708219144481
 30
-0.0000000000000127
 11
-260.6191059359793
 21
103.3708219144481
 31
-0.0000000000000127
  0
LINE
  5
474
330
3B8
100
AcDbEntity
  8
0
 62
     5
100
AcDbLine
 10
-270.6191059359794
 20
110.370821914448
 30
-0.0000000000000127
 11
-260.6191059359793
 21
110.3708219144481
 31
-0.0000000000000127
  0
TEXT
  5
475
330
3B8
100
AcDbEntity
  8
0
 62
     5
100
AcDbText
 10
-269.2255801267056
 20
97.13849470534924
 30
-0.0000000000000127
 40
2.0
  1
0.50S
  7
CHINA
 72
     4
 11
-265.6191059359794
 21
98.12082191444812
 31
-0.0000000000000127
100
AcDbText
  0
TEXT
  5
476
330
3B8
100
AcDbEntity
  8
0
 62
     5
100
AcDbText
 10
-269.2255801267056
 20
90.11382278933872
 30
-0.0000000000000127
 40
2.0
  1
0.32S
  7
CHINA
 72
     4
 11
-265.6191059359794
 21
91.12082191444809
 31
-0.0000000000000127
100
AcDbText
  0
TEXT
  5
477
330
3B8
100
AcDbEntity
  8
0
 62
     5
100
AcDbText
 10
-269.2255801267056
 20
93.59011325303077
 30
-0.0000000000000127
 40
2.0
  1
0.40S
  7
CHINA
 72
     4
 11
-265.6191059359794
 21
94.62082191444808
 31
-0.0000000000000127
100
AcDbText
  0
LINE
  5
478
330
3B8
100
AcDbEntity
  8
0
 62
     5
100
AcDbLine
 10
-270.6191059359794
 20
99.87082191444805
 30
-0.0000000000000127
 11
-260.6191059359793
 21
99.87082191444812
 31
-0.0000000000000127
  0
LINE
  5
479
330
3B8
100
AcDbEntity
  8
0
 62
     5
100
AcDbLine
 10
-270.6191059359794
 20
96.37082191444809
 30
-0.0000000000000127
 11
-260.6191059359793
 21
96.37082191444811
 31
-0.0000000000000127
  0
LINE
  5
47A
330
3B8
100
AcDbEntity
  8
0
 62
     5
100
AcDbLine
 10
-270.6191059359794
 20
92.87082191444808
 30
-0.0000000000000127
 11
-260.6191059359793
 21
92.87082191444811
 31
-0.0000000000000127
  0
LINE
  5
47B
330
3B8
100
AcDbEntity
  8
0
 62
     5
100
AcDbLine
 10
-270.6191059359794
 20
89.37082191444808
 30
-0.0000000000000127
 11
-260.6191059359793
 21
89.37082191444812
 31
-0.0000000000000127
  0
TEXT
  5
47C
330
3B8
100
AcDbEntity
  8
0
 62
     5
100
AcDbText
 10
-269.1366912378167
 20
111.1258962801524
 30
-0.0000000000000127
 40
2.0
  1
1.25S
  7
CHINA
 72
     4
 11
-265.6191059359794
 21
112.1208219144481
 31
-0.0000000000000127
100
AcDbText
  0
TEXT
  5
47D
330
3B8
100
AcDbEntity
  8
0
 62
     5
100
AcDbText
 10
-269.2255801267056
 20
86.62589628015238
 30
-0.0000000000000127
 40
2.0
  1
0.25S
  7
CHINA
 72
     4
 11
-265.6191059359794
 21
87.62082191444809
 31
-0.0000000000000127
100
AcDbText
  0
TEXT
  5
47E
330
3B8
100
AcDbEntity
  8
0
 62
     5
100
AcDbText
 10
-269.9366912378167
 20
79.62589628015237
 30
-0.0000000000000127
 40
2.0
  1
0.125S
  7
CHINA
 72
     4
 11
-265.6191059359794
 21
80.62082191444808
 31
-0.0000000000000127
100
AcDbText
  0
TEXT
  5
47F
330
3B8
100
AcDbEntity
  8
0
 62
     5
100
AcDbText
 10
-269.2255801267056
 20
83.07751482783391
 30
-0.0000000000000127
 40
2.0
  1
0.20S
  7
CHINA
 72
     4
 11
-265.6191059359794
 21
84.12082191444808
 31
-0.0000000000000127
100
AcDbText
  0
LINE
  5
480
330
3B8
100
AcDbEntity
  8
0
 62
     5
100
AcDbLine
 10
-274.5985039672425
 20
86.39960026380554
 30
-0.0000000000000127
 11
-272.5200429981598
 21
87.59960026380552
 31
-0.0000000000000127
  0
LINE
  5
481
330
3B8
100
AcDbEntity
  8
0
 62
     5
100
AcDbLine
 10
-274.5985039672425
 20
86.39960026380554
 30
-0.0000000000000127
 11
-274.5985039672425
 21
88.79960026380551
 31
-0.0000000000000127
  0
LINE
  5
482
330
3B8
100
AcDbEntity
  8
0
 62
     5
100
AcDbLine
 10
-274.5985039672425
 20
83.99960026380556
 30
-0.0000000000000127
 11
-274.5985039672425
 21
86.39960026380554
 31
-0.0000000000000127
  0
LINE
  5
483
330
3B8
100
AcDbEntity
  8
0
 62
     5
100
AcDbLine
 10
-274.5985039672425
 20
83.99960026380556
 30
-0.0000000000000127
 11
-272.5200429981598
 21
85.19960026380555
 31
-0.0000000000000127
  0
LINE
  5
484
330
3B8
100
AcDbEntity
  8
0
 62
     5
100
AcDbLine
 10
-272.5200429981598
 20
85.19960026380555
 30
-0.0000000000000127
 11
-274.5985039672425
 21
86.39960026380554
 31
-0.0000000000000127
  0
LINE
  5
485
330
3B8
100
AcDbEntity
  8
0
 62
     5
100
AcDbLine
 10
-272.5200429981598
 20
87.59960026380552
 30
-0.0000000000000127
 11
-274.5985039672425
 21
88.79960026380551
 31
-0.0000000000000127
  0
LINE
  5
486
330
3B8
100
AcDbEntity
  8
0
 62
     5
100
AcDbLine
 10
-274.5985039672424
 20
79.19960026380555
 30
-0.0000000000000127
 11
-274.5985039672425
 21
81.59960026380552
 31
-0.0000000000000127
  0
LINE
  5
487
330
3B8
100
AcDbEntity
  8
0
 62
     5
100
AcDbLine
 10
-272.5200429981597
 20
80.39960026380553
 30
-0.0000000000000127
 11
-274.5985039672424
 21
81.59960026380552
 31
-0.0000000000000127
  0
LINE
  5
488
330
3B8
100
AcDbEntity
  8
0
 62
     5
100
AcDbLine
 10
-274.5985039672424
 20
79.19960026380555
 30
-0.0000000000000127
 11
-272.5200429981597
 21
80.39960026380553
 31
-0.0000000000000127
  0
LINE
  5
489
330
3B8
100
AcDbEntity
  8
0
 62
     5
100
AcDbLine
 10
-274.5985039672425
 20
81.59960026380556
 30
-0.0000000000000127
 11
-272.5200429981597
 21
82.79960026380555
 31
-0.0000000000000127
  0
LINE
  5
48A
330
3B8
100
AcDbEntity
  8
0
 62
     5
100
AcDbLine
 10
-274.5985039672425
 20
81.59960026380556
 30
-0.0000000000000127
 11
-274.5985039672425
 21
83.99960026380552
 31
-0.0000000000000127
  0
LINE
  5
48B
330
3B8
100
AcDbEntity
  8
0
 62
     5
100
AcDbLine
 10
-272.5200429981597
 20
82.79960026380555
 30
-0.0000000000000127
 11
-274.5985039672425
 21
83.99960026380552
 31
-0.0000000000000127
  0
LINE
  5
48C
330
3B8
100
AcDbEntity
  8
0
 62
     5
100
AcDbLine
 10
-270.6191059359794
 20
85.87082191444808
 30
-0.0000000000000127
 11
-260.6191059359793
 21
85.87082191444812
 31
-0.0000000000000127
  0
LINE
  5
48D
330
3B8
100
AcDbEntity
  8
0
 62
     5
100
AcDbLine
 10
-270.6191059359794
 20
82.37082191444809
 30
-0.0000000000000127
 11
-260.6191059359793
 21
82.37082191444811
 31
-0.0000000000000127
  0
LINE
  5
48E
330
3B8
100
AcDbEntity
  8
0
 62
     5
100
AcDbLine
 10
-270.6191059359794
 20
78.87082191444808
 30
-0.0000000000000127
 11
-260.6191059359793
 21
78.87082191444811
 31
-0.0000000000000127
  0
TEXT
  5
48F
330
3B8
100
AcDbEntity
  8
0
 62
     5
100
AcDbText
 10
-269.9366912378167
 20
76.09011325303079
 30
-0.0000000000000127
 40
2.0
  1
0.100S
  7
CHINA
 72
     4
 11
-265.6191059359794
 21
77.12082191444811
 31
-0.0000000000000127
100
AcDbText
  0
TEXT
  5
490
330
3B8
100
AcDbEntity
  8
0
 62
     5
100
AcDbText
 10
-270.0033579044833
 20
72.62467143325825
 30
-0.0000000000000127
 40
2.0
  1
0.080S
  7
CHINA
 72
     4
 11
-265.6191059359794
 21
73.62082191444812
 31
-0.0000000000000127
100
AcDbText
  0
TEXT
  5
491
330
3B8
100
AcDbEntity
  8
0
 62
     5
100
AcDbText
 10
-270.0255801267056
 20
69.11819724253208
 30
-0.0000000000000127
 40
2.0
  1
0.063S
  7
CHINA
 72
     4
 11
-265.6191059359794
 21
70.12082191444808
 31
-0.0000000000000127
100
AcDbText
  0
LINE
  5
492
330
3B8
100
AcDbEntity
  8
0
 62
     5
100
AcDbLine
 10
-270.6191059359794
 20
71.87082191444808
 30
-0.0000000000000127
 11
-260.6191059359793
 21
71.87082191444812
 31
-0.0000000000000127
  0
LINE
  5
493
330
3B8
100
AcDbEntity
  8
0
 62
     5
100
AcDbLine
 10
-270.6191059359794
 20
68.37082191444808
 30
-0.0000000000000127
 11
-260.6191059359793
 21
68.37082191444811
 31
-0.0000000000000127
  0
LINE
  5
494
330
3B8
100
AcDbEntity
  8
0
 62
     5
100
AcDbLine
 10
-270.6191059359794
 20
75.37082191444809
 30
-0.0000000000000127
 11
-260.6191059359793
 21
75.37082191444811
 31
-0.0000000000000127
  0
LINE
  5
495
330
3B8
100
AcDbEntity
  8
0
 62
     5
100
AcDbLine
 10
-277.2574293236825
 20
61.37082191444806
 30
-0.0000000000000127
 11
-260.6191059359793
 21
61.37082191444811
 31
-0.0000000000000127
  0
TEXT
  5
496
330
3B8
100
AcDbEntity
  8
0
 62
     5
100
AcDbText
 10
-270.0255801267056
 20
62.09011325303077
 30
-0.0000000000000127
 40
2.0
  1
0.040S
  7
CHINA
 72
     4
 11
-265.6191059359794
 21
63.12082191444808
 31
-0.0000000000000127
100
AcDbText
  0
LINE
  5
497
330
3B8
100
AcDbEntity
  8
0
 62
     5
100
AcDbLine
 10
-270.6191059359794
 20
64.87082191444809
 30
-0.0000000000000127
 11
-260.6191059359793
 21
64.87082191444812
 31
-0.0000000000000127
  0
TEXT
  5
498
330
3B8
100
AcDbEntity
  8
0
 62
     5
100
AcDbText
 10
-270.0255801267056
 20
65.63849470534922
 30
-0.0000000000000127
 40
2.0
  1
0.050S
  7
CHINA
 72
     4
 11
-265.6191059359794
 21
66.62082191444809
 31
-0.0000000000000127
100
AcDbText
  0
LINE
  5
499
330
3B8
100
AcDbEntity
  8
0
 62
   200
100
AcDbLine
 10
-79.88999999999998
 20
8.839999999999999
 30
0.0
 11
-79.88999999999998
 21
271.4975342465755
 31
0.0
  0
LINE
  5
49A
330
3B8
100
AcDbEntity
  8
0
 62
   200
100
AcDbLine
 10
-254.89
 20
8.840000000000042
 30
0.0
 11
-254.8900000000001
 21
271.4975342465753
 31
0.0
  0
LINE
  5
49B
330
3B8
100
AcDbEntity
  8
0
 62
     5
100
AcDbLine
 10
-270.6191059359794
 20
209.418289657842
 30
-0.0000000000000127
 11
-270.6191059359794
 21
61.37082191444808
 31
-0.0000000000000127
  0
LINE
  5
49C
330
3B8
100
AcDbEntity
  8
0
 62
     5
100
AcDbLine
 10
-260.6191059359794
 20
209.418289657842
 30
-0.0000000000000127
 11
-260.6191059359794
 21
61.37082191444811
 31
-0.0000000000000127
  0
LINE
  5
49D
330
3B8
100
AcDbEntity
  8
0
 62
     5
100
AcDbLine
 10
-277.2574293236826
 20
209.418289657842
 30
-0.0000000000000127
 11
-277.2574293236826
 21
61.37082191444803
 31
-0.0000000000000127
  0
TEXT
  5
49E
330
3B8
100
AcDbEntity
  8
0
 62
     5
100
AcDbText
 10
-268.4087822264431
 20
132.1384947053492
 30
-0.0000000000000127
 40
2.0
  1
5.0S
  7
CHINA
 72
     4
 11
-265.6191059359794
 21
133.1208219144481
 31
-0.0000000000000127
100
AcDbText
  0
TEXT
  5
49F
330
3B8
100
AcDbEntity
  8
0
 62
     5
100
AcDbText
 10
-159.8249859000716
 20
2.225374816835266
 30
0.0
 40
4.799999999999999
  1
金器工業股份有限公司
  7
文鼎中粗隸
100
AcDbText
  0
POLYLINE
  5
4A0
330
3B8
100
AcDbEntity
  8
0
 62
     5
100
AcDb2dPolyline
 66
     1
 10
0.0
 20
0.0
 30
0.0
 70
     1
  0
VERTEX
  5
4A1
330
4A0
100
AcDbEntity
  8
0
 62
     5
100
AcDbVertex
100
AcDb2dVertex
 10
-165.7206158533744
 20
1.080228136071994
 30
0.0
  0
VERTEX
  5
4A2
330
4A0
100
AcDbEntity
  8
0
 62
     5
100
AcDbVertex
100
AcDb2dVertex
 10
-165.720615853374
 20
0.9804031112922757
 30
0.0
  0
VERTEX
  5
4A3
330
4A0
100
AcDbEntity
  8
0
 62
     5
100
AcDbVertex
100
AcDb2dVertex
 10
-165.5209358533741
 20
0.9804031112922757
 30
0.0
  0
VERTEX
  5
4A4
330
4A0
100
AcDbEntity
  8
0
 62
     5
100
AcDbVertex
100
AcDb2dVertex
 10
-165.5209358533741
 20
2.278323111292223
 30
0.0
  0
VERTEX
  5
4A5
330
4A0
100
AcDbEntity
  8
0
 62
     5
100
AcDbVertex
100
AcDb2dVertex
 10
-165.720615853374
 20
2.278323111292223
 30
0.0
  0
VERTEX
  5
4A6
330
4A0
100
AcDbEntity
  8
0
 62
     5
100
AcDbVertex
100
AcDb2dVertex
 10
-165.7206158533744
 20
1.878978086512205
 30
0.0
 42
1.99987500859227
  0
SEQEND
  5
4A7
330
4A0
100
AcDbEntity
  8
0
 62
     5
  0
POLYLINE
  5
4A8
330
3B8
100
AcDbEntity
  8
0
 62
     5
100
AcDb2dPolyline
 66
     1
 10
0.0
 20
0.0
 30
0.0
 70
     1
  0
VERTEX
  5
4A9
330
4A8
100
AcDbEntity
  8
0
 62
     5
100
AcDbVertex
100
AcDb2dVertex
 10
-165.5209358533741
 20
2.278323111292223
 30
0.0
  0
VERTEX
  5
4AA
330
4A8
100
AcDbEntity
  8
0
 62
     5
100
AcDbVertex
100
AcDb2dVertex
 10
-165.720615853374
 20
2.278323111292223
 30
0.0
  0
VERTEX
  5
4AB
330
4A8
100
AcDbEntity
  8
0
 62
     5
100
AcDbVertex
100
AcDb2dVertex
 10
-165.7206158533744
 20
1.878978086512205
 30
0.0
 42
1.999875008592295
  0
VERTEX
  5
4AC
330
4A8
100
AcDbEntity
  8
0
 62
     5
100
AcDbVertex
100
AcDb2dVertex
 10
-165.7206158533744
 20
1.080228136072001
 30
0.0
  0
VERTEX
  5
4AD
330
4A8
100
AcDbEntity
  8
0
 62
     5
100
AcDbVertex
100
AcDb2dVertex
 10
-165.720615853374
 20
0.9804031112922757
 30
0.0
  0
VERTEX
  5
4AE
330
4A8
100
AcDbEntity
  8
0
 62
     5
100
AcDbVertex
100
AcDb2dVertex
 10
-165.5209358533741
 20
0.9804031112922757
 30
0.0
  0
SEQEND
  5
4AF
330
4A8
100
AcDbEntity
  8
0
 62
     5
  0
POLYLINE
  5
4B0
330
3B8
100
AcDbEntity
  8
0
 62
     5
100
AcDb2dPolyline
 66
     1
 10
0.0
 20
0.0
 30
0.0
 70
     1
  0
VERTEX
  5
4B1
330
4B0
100
AcDbEntity
  8
0
 62
     5
100
AcDbVertex
100
AcDb2dVertex
 10
-163.4575425733741
 20
1.479603111292192
 30
0.0
 42
1.000000057330635
  0
VERTEX
  5
4B2
330
4B0
100
AcDbEntity
  8
0
 62
     5
100
AcDbVertex
100
AcDb2dVertex
 10
-162.8585025733741
 20
1.479603111292192
 30
0.0
 42
1.000000057330635
  0
SEQEND
  5
4B3
330
4B0
100
AcDbEntity
  8
0
 62
     5
  0
CIRCLE
  5
4B4
330
3B8
100
AcDbEntity
  8
0
 62
     5
100
AcDbCircle
 10
-163.1580225733741
 20
1.479603111292192
 30
0.0
 40
0.29952
  0
POLYLINE
  5
4B5
330
3B8
100
AcDbEntity
  8
0
 62
     5
100
AcDb2dPolyline
 66
     1
 10
0.0
 20
0.0
 30
0.0
 70
     1
  0
VERTEX
  5
4B6
330
4B5
100
AcDbEntity
  8
0
 62
     5
100
AcDbVertex
100
AcDb2dVertex
 10
-166.3196358853741
 20
1.479603111292192
 30
0.0
 42
1.000000057330635
  0
VERTEX
  5
4B7
330
4B5
100
AcDbEntity
  8
0
 62
     5
100
AcDbVertex
100
AcDb2dVertex
 10
-165.7205958853742
 20
1.479603111292192
 30
0.0
 42
1.000000057330635
  0
SEQEND
  5
4B8
330
4B5
100
AcDbEntity
  8
0
 62
     5
  0
CIRCLE
  5
4B9
330
3B8
100
AcDbEntity
  8
0
 62
     5
100
AcDbCircle
 10
-166.0201158853741
 20
1.479603111292192
 30
0.0
 40
0.29952
  0
SOLID
  5
4BA
330
3B8
100
AcDbEntity
  8
0
 62
     5
100
AcDbTrace
 10
-169.0153158853742
 20
2.977203111292162
 30
0.0
 11
-168.4362438853743
 21
2.97720311129197
 31
0.0
 12
-166.0201158853741
 22
8.468403111292271
 32
0.0
 13
-165.4410438853742
 23
8.468403111291891
 33
0.0
  0
SOLID
  5
4BB
330
3B8
100
AcDbEntity
  8
0
 62
     5
100
AcDbTrace
 10
-168.1966278853739
 20
2.977203111292162
 30
0.0
 11
-167.617555885374
 21
2.977203111292162
 31
0.0
 12
-165.4410438853742
 22
8.029107111292066
 32
0.0
 13
-166.0201158853741
 23
5.90584311129195
 33
0.0
  0
SOLID
  5
4BC
330
3B8
100
AcDbEntity
  8
0
 62
     5
100
AcDbTrace
 10
-166.0201158853741
 20
2.977203111292162
 30
0.0
 11
-165.4410438853742
 21
2.977203111292162
 31
0.0
 12
-166.0201158853741
 22
5.90584311129195
 32
0.0
 13
-165.4410438853742
 23
8.029107111292066
 33
0.0
  0
SOLID
  5
4BD
330
3B8
100
AcDbEntity
  8
0
 62
     5
100
AcDbTrace
 10
-165.201427885374
 20
8.468403111291891
 30
0.0
 11
-164.6223558853741
 21
8.468403111292271
 31
0.0
 12
-165.201427885374
 22
3.416499111291983
 32
0.0
 13
-164.6223558853741
 23
5.539763111292103
 33
0.0
  0
SOLID
  5
4BE
330
3B8
100
AcDbEntity
  8
0
 62
     5
100
AcDbTrace
 10
-165.201427885374
 20
3.416499111291983
 30
0.0
 11
-164.6223558853741
 21
5.539763111292103
 31
0.0
 12
-162.4458438853743
 22
8.468403111292271
 32
0.0
 13
-163.0249158853742
 23
8.468403111292271
 33
0.0
  0
SOLID
  5
4BF
330
3B8
100
AcDbEntity
  8
0
 62
     5
100
AcDbTrace
 10
-165.201427885374
 20
2.977203111292162
 30
0.0
 11
-164.6223558853741
 21
2.977203111292162
 31
0.0
 12
-162.4458438853743
 22
8.029107111292066
 32
0.0
 13
-163.0249158853742
 23
5.90584311129195
 33
0.0
  0
SOLID
  5
4C0
330
3B8
100
AcDbEntity
  8
0
 62
     5
100
AcDbTrace
 10
-162.4458438853743
 20
8.029107111292066
 30
0.0
 11
-163.0249158853742
 21
5.90584311129195
 31
0.0
 12
-162.4458438853743
 22
2.97720311129197
 32
0.0
 13
-163.0249158853742
 23
2.97720311129197
 33
0.0
  0
SOLID
  5
4C1
330
3B8
100
AcDbEntity
  8
0
 62
     5
100
AcDbTrace
 10
-162.2062278853741
 20
2.97720311129197
 30
0.0
 11
-161.6271558853742
 21
2.97720311129197
 31
0.0
 12
-162.2062278853741
 22
8.468403111291891
 32
0.0
 13
-161.6271558853742
 23
8.468403111292271
 33
0.0
  0
SOLID
  5
4C2
330
3B8
100
AcDbEntity
  8
0
 62
     5
100
AcDbTrace
 10
-169.9437103072233
 20
0.9804031112922757
 30
0.0
 11
-169.7440303072232
 21
0.9804031112922757
 31
0.0
 12
-169.1817158853741
 22
1.978803111292123
 32
0.0
 13
-168.9820358853743
 23
1.978803111292123
 33
0.0
  0
SOLID
  5
4C3
330
3B8
100
AcDbEntity
  8
0
 62
     5
100
AcDbTrace
 10
-169.1817158853741
 20
1.978803111292123
 30
0.0
 11
-168.9820358853743
 21
1.978803111292123
 31
0.0
 12
-169.1817158853741
 22
0.9804031112922757
 32
0.0
 13
-168.9820358853743
 23
0.9804031112922757
 33
0.0
  0
SOLID
  5
4C4
330
3B8
100
AcDbEntity
  8
0
 62
     5
100
AcDbTrace
 10
-169.1817158853741
 20
0.9804031112922757
 30
0.0
 11
-168.9820358853743
 21
0.9804031112922757
 31
0.0
 12
-168.4197214635247
 22
1.978803111292123
 32
0.0
 13
-168.2200414635249
 23
1.978803111292123
 33
0.0
  0
SOLID
  5
4C5
330
3B8
100
AcDbEntity
  8
0
 62
     5
100
AcDbTrace
 10
-168.4197214635247
 20
1.978803111292123
 30
0.0
 11
-168.2200414635249
 21
1.978803111292123
 31
0.0
 12
-168.4197214635247
 22
0.9804031112922757
 32
0.0
 13
-168.2200414635249
 23
0.9804031112922757
 33
0.0
  0
SOLID
  5
4C6
330
3B8
100
AcDbEntity
  8
0
 62
     5
100
AcDbTrace
 10
-167.9836691653742
 20
2.118579111292035
 30
0.0
 11
-167.7839891653738
 21
2.118579111292035
 31
0.0
 12
-167.9836691653742
 22
2.278323111292223
 32
0.0
 13
-167.7839891653738
 23
2.278323111292223
 33
0.0
  0
SOLID
  5
4C7
330
3B8
100
AcDbEntity
  8
0
 62
     5
100
AcDbTrace
 10
-167.9836691653742
 20
1.978803111292123
 30
0.0
 11
-167.7839891653738
 21
1.978803111292123
 31
0.0
 12
-167.9836691653742
 22
0.980403111291892
 32
0.0
 13
-167.7839891653738
 23
0.9804031112922757
 33
0.0
  0
POLYLINE
  5
4C8
330
3B8
100
AcDbEntity
  8
0
 62
     5
100
AcDb2dPolyline
 66
     1
 10
0.0
 20
0.0
 30
0.0
 40
0.2
 41
0.2
  0
VERTEX
  5
4C9
330
4C8
100
AcDbEntity
  8
0
 62
     5
100
AcDbVertex
100
AcDb2dVertex
 10
-166.8516625093742
 20
1.579443111292107
 30
0.0
 42
1.0
  0
VERTEX
  5
4CA
330
4C8
100
AcDbEntity
  8
0
 62
     5
100
AcDbVertex
100
AcDb2dVertex
 10
-167.4516625093742
 20
1.579443111292107
 30
0.0
 42
1.0
  0
SEQEND
  5
4CB
330
4C8
100
AcDbEntity
  8
0
 62
     5
  0
SOLID
  5
4CC
330
3B8
100
AcDbEntity
  8
0
 62
     5
100
AcDbTrace
 10
-167.551022509374
 20
1.978803111292123
 30
0.0
 11
-167.3513425093742
 21
1.978803111292123
 31
0.0
 12
-167.551022509374
 22
0.9804031112922757
 32
0.0
 13
-167.3513425093742
 23
0.9804031112922757
 33
0.0
  0
SOLID
  5
4CD
330
3B8
100
AcDbEntity
  8
0
 62
     5
100
AcDbTrace
 10
-166.9519825093742
 20
1.579443111292107
 30
0.0
 11
-166.752302509374
 21
1.579443111292107
 31
0.0
 12
-166.9519825093742
 22
0.9804031112922757
 32
0.0
 13
-166.752302509374
 23
0.9804031112922757
 33
0.0
  0
POLYLINE
  5
4CE
330
3B8
100
AcDbEntity
  8
0
 62
     5
100
AcDb2dPolyline
 66
     1
 10
0.0
 20
0.0
 30
0.0
 70
     1
 40
0.2
 41
0.2
  0
VERTEX
  5
4CF
330
4CE
100
AcDbEntity
  8
0
 62
     5
100
AcDbVertex
100
AcDb2dVertex
 10
-166.4201158853742
 20
1.479603111292107
 30
0.0
 42
1.0
  0
VERTEX
  5
4D0
330
4CE
100
AcDbEntity
  8
0
 62
     5
100
AcDbVertex
100
AcDb2dVertex
 10
-165.6201158853743
 20
1.479603111292107
 30
0.0
 42
1.0
  0
SEQEND
  5
4D1
330
4CE
100
AcDbEntity
  8
0
 62
     5
  0
SOLID
  5
4D2
330
3B8
100
AcDbEntity
  8
0
 62
     5
100
AcDbTrace
 10
-165.720615853374
 20
2.278323111292223
 30
0.0
 11
-165.5209358533741
 21
2.278323111292223
 31
0.0
 12
-165.720615853374
 22
0.9804031112922757
 32
0.0
 13
-165.5209358533741
 23
0.9804031112922757
 33
0.0
  0
SOLID
  5
4D3
330
3B8
100
AcDbEntity
  8
0
 62
     5
100
AcDbTrace
 10
-165.2879691973738
 20
1.978803111292123
 30
0.0
 11
-165.088289197374
 21
1.978803111292123
 31
0.0
 12
-165.2879691973738
 22
0.9804031112922757
 32
0.0
 13
-165.088289197374
 23
0.9804031112922757
 33
0.0
  0
POLYLINE
  5
4D4
330
3B8
100
AcDbEntity
  8
0
 62
     5
100
AcDb2dPolyline
 66
     1
 10
0.0
 20
0.0
 30
0.0
 40
0.2
 41
0.2
  0
VERTEX
  5
4D5
330
4D4
100
AcDbEntity
  8
0
 62
     5
100
AcDbVertex
100
AcDb2dVertex
 10
-164.588609197374
 20
1.579443111292107
 30
0.0
 42
1.0
  0
VERTEX
  5
4D6
330
4D4
100
AcDbEntity
  8
0
 62
     5
100
AcDbVertex
100
AcDb2dVertex
 10
-165.188609197374
 20
1.579443111292107
 30
0.0
 42
1.0
  0
SEQEND
  5
4D7
330
4D4
100
AcDbEntity
  8
0
 62
     5
  0
POLYLINE
  5
4D8
330
3B8
100
AcDbEntity
  8
0
 62
     5
100
AcDb2dPolyline
 66
     1
 10
0.0
 20
0.0
 30
0.0
 40
0.2
 41
0.2
  0
VERTEX
  5
4D9
330
4D8
100
AcDbEntity
  8
0
 62
     5
100
AcDbVertex
100
AcDb2dVertex
 10
-163.9895691973741
 20
1.579443111292107
 30
0.0
 42
1.0
  0
VERTEX
  5
4DA
330
4D8
100
AcDbEntity
  8
0
 62
     5
100
AcDbVertex
100
AcDb2dVertex
 10
-164.5895691973742
 20
1.579443111292107
 30
0.0
 42
1.0
  0
SEQEND
  5
4DB
330
4D8
100
AcDbEntity
  8
0
 62
     5
  0
SOLID
  5
4DC
330
3B8
100
AcDbEntity
  8
0
 62
     5
100
AcDbTrace
 10
-164.688929197374
 20
1.579443111292107
 30
0.0
 11
-164.4892491973742
 21
1.579443111292107
 31
0.0
 12
-164.688929197374
 22
0.9804031112922757
 32
0.0
 13
-164.4892491973742
 23
0.9804031112922757
 33
0.0
  0
SOLID
  5
4DD
330
3B8
100
AcDbEntity
  8
0
 62
     5
100
AcDbTrace
 10
-164.0898891973742
 20
1.579443111292107
 30
0.0
 11
-163.8902091973743
 21
1.579443111292107
 31
0.0
 12
-164.0898891973742
 22
0.980403111291892
 32
0.0
 13
-163.8902091973743
 23
0.980403111291892
 33
0.0
  0
POLYLINE
  5
4DE
330
3B8
100
AcDbEntity
  8
0
 62
     5
100
AcDb2dPolyline
 66
     1
 10
0.0
 20
0.0
 30
0.0
 70
     1
 40
0.2
 41
0.2
  0
VERTEX
  5
4DF
330
4DE
100
AcDbEntity
  8
0
 62
     5
100
AcDbVertex
100
AcDb2dVertex
 10
-163.5580225733742
 20
1.479603111292107
 30
0.0
 42
1.0
  0
VERTEX
  5
4E0
330
4DE
100
AcDbEntity
  8
0
 62
     5
100
AcDbVertex
100
AcDb2dVertex
 10
-162.7580225733742
 20
1.479603111292107
 30
0.0
 42
1.0
  0
SEQEND
  5
4E1
330
4DE
100
AcDbEntity
  8
0
 62
     5
  0
LINE
  5
4E2
330
3B8
100
AcDbEntity
  8
0
 62
     5
100
AcDbLine
 10
-161.6271558853742
 20
0.9804031112922757
 30
0.0
 11
-161.6271558853742
 21
1.579443111292107
 31
0.0
  0
POLYLINE
  5
4E3
330
3B8
100
AcDbEntity
  8
0
 62
     5
100
AcDb2dPolyline
 66
     1
 10
0.0
 20
0.0
 30
0.0
 40
0.2
 41
0.2
  0
VERTEX
  5
4E4
330
4E3
100
AcDbEntity
  8
0
 62
     5
100
AcDbVertex
100
AcDb2dVertex
 10
-161.726515885374
 20
1.579443111292107
 30
0.0
 42
1.0
  0
VERTEX
  5
4E5
330
4E3
100
AcDbEntity
  8
0
 62
     5
100
AcDbVertex
100
AcDb2dVertex
 10
-162.326515885374
 20
1.579443111292107
 30
0.0
 42
1.0
  0
SEQEND
  5
4E6
330
4E3
100
AcDbEntity
  8
0
 62
     5
  0
SOLID
  5
4E7
330
3B8
100
AcDbEntity
  8
0
 62
     5
100
AcDbTrace
 10
-162.8585225413738
 20
1.978803111292123
 30
0.0
 11
-162.658842541374
 21
1.978803111292123
 31
0.0
 12
-162.8585225413738
 22
0.9804031112922757
 32
0.0
 13
-162.658842541374
 23
0.9804031112922757
 33
0.0
  0
SOLID
  5
4E8
330
3B8
100
AcDbEntity
  8
0
 62
     5
100
AcDbTrace
 10
-162.4258758853742
 20
0.9804031112922757
 30
0.0
 11
-162.226195885374
 21
0.9804031112922757
 31
0.0
 12
-162.4258758853742
 22
1.978803111292123
 32
0.0
 13
-162.226195885374
 23
1.978803111292123
 33
0.0
  0
SOLID
  5
4E9
330
3B8
100
AcDbEntity
  8
0
 62
     5
100
AcDbTrace
 10
-161.826835885374
 20
1.579443111292107
 30
0.0
 11
-161.6271558853742
 21
1.579443111292079
 31
0.0
 12
-161.826835885374
 22
0.9804031112922757
 32
0.0
 13
-161.6271558853742
 23
0.9804031112922757
 33
0.0
  0
ENDBLK
  5
4EB
330
3B8
100
AcDbEntity
  8
0
100
AcDbBlockEnd
  0
BLOCK
  5
52A
330
515
100
AcDbEntity
  8
0
100
AcDbBlockBegin
  2
金器A4tzt
 70
     2
 10
0.0
 20
0.0
 30
0.0
  3
金器A4tzt
  1

  0
ATTDEF
  5
516
330
515
100
AcDbEntity
  8
0
 62
     5
100
AcDbText
 10
-131.3592407248731
 20
51.84000937008658
 30
0.0
 40
3.5
  1

 41
0.7
  7
標楷體
 72
     4
 11
-131.3592407248731
 21
51.84000937008658
 31
0.0
100
AcDbAttributeDefinition
  3
處理
  2
處理
 70
     0
  0
ATTDEF
  5
517
330
515
100
AcDbEntity
  8
0
 62
     5
100
AcDbText
 10
-137.5470860287404
 20
38.20603146953409
 30
0.0
 40
3.5
  1
SCALE
  7
標楷體
 72
     4
 11
-131.359240724873
 21
39.84000937008658
 31
0.0
100
AcDbAttributeDefinition
  3
比例
  2
比例
 70
     0
  0
ATTDEF
  5
518
330
515
100
AcDbEntity
  8
0
 62
     5
100
AcDbText
 10
-133.8994637742027
 20
32.39215025406447
 30
0.0
 40
3.5
  1
▽▽
  7
標楷體
 72
     4
 11
-128.9491875311088
 21
33.84000937008657
 31
0.0
100
AcDbAttributeDefinition
  3
主加工
  2
主加工
 70
     0
  0
ATTDEF
  5
519
330
515
100
AcDbEntity
  8
0
 62
     5
100
AcDbText
 10
-141.9997611650297
 20
14.77589969197475
 30
0.0
 40
2.5
  1

  7
CHINESET
100
AcDbAttributeDefinition
  3
#3設變日期
  2
#3設變日期
 70
     0
  0
ATTDEF
  5
51A
330
515
100
AcDbEntity
  8
0
 62
     5
100
AcDbText
 10
-141.9997611650297
 20
9.77589969197475
 30
0.0
 40
2.5
  1

  7
CHINESET
100
AcDbAttributeDefinition
  3
#8設變日期
  2
#8設變日期
 70
     0
  0
ATTDEF
  5
51B
330
515
100
AcDbEntity
  8
0
 62
     5
100
AcDbText
 10
-100.0490418697234
 20
38.3317220772689
 30
0.0
 40
3.5
  1
蕭吉良
  7
標楷體
 72
     4
 11
-92.62362750508259
 21
39.84000937008658
 31
0.0
100
AcDbAttributeDefinition
  3
設計
  2
設計
 70
     0
  0
ATTDEF
  5
51C
330
515
100
AcDbEntity
  8
0
 62
     5
100
AcDbText
 10
-100.0490418697234
 20
32.3317220772689
 30
0.0
 40
3.5
  1
蕭吉良
  7
標楷體
 72
     4
 11
-92.62362750508259
 21
33.84000937008658
 31
0.0
100
AcDbAttributeDefinition
  3
製圖
  2
製圖
 70
     0
  0
ATTDEF
  5
51D
330
515
100
AcDbEntity
  8
0
 62
     5
100
AcDbText
 10
-92.62362750508259
 20
27.84000937008658
 30
0.0
 40
3.5
  1

  7
標楷體
 72
     4
 11
-92.62362750508259
 21
27.84000937008658
 31
0.0
100
AcDbAttributeDefinition
  3
材質
  2
材質
 70
     0
  0
ATTDEF
  5
51E
330
515
100
AcDbEntity
  8
0
 62
     5
100
AcDbText
 10
-92.62362750508259
 20
21.84000937008657
 30
0.0
 40
3.5
  1

  7
標楷體
 72
     4
 11
-92.62362750508259
 21
21.84000937008657
 31
0.0
100
AcDbAttributeDefinition
  3
圖號
  2
圖號
 70
     0
  0
ATTDEF
  5
51F
330
515
100
AcDbEntity
  8
0
 62
     5
100
AcDbText
 10
-106.4197611650297
 20
14.77589969197475
 30
0.0
 40
2.5
  1

  7
CHINESET
100
AcDbAttributeDefinition
  3
#4設變日期
  2
#4設變日期
 70
     0
  0
ATTDEF
  5
520
330
515
100
AcDbEntity
  8
0
 62
     5
100
AcDbText
 10
-106.4197611650297
 20
9.77589969197475
 30
0.0
 40
2.5
  1

  7
CHINESET
100
AcDbAttributeDefinition
  3
#9設變日期
  2
#9設變日期
 70
     0
  0
ATTDEF
  5
521
330
515
100
AcDbEntity
  8
0
 62
     5
100
AcDbText
 10
-131.359240724873
 20
45.84000937008657
 30
0.0
 40
3.5
  1

  7
標楷體
 72
     4
 11
-131.359240724873
 21
45.84000937008657
 31
0.0
100
AcDbAttributeDefinition
  3
日期
  2
日期
 70
     0
  0
ATTDEF
  5
522
330
515
100
AcDbEntity
  8
0
 62
     5
100
AcDbText
 10
-176.9997611650297
 20
14.77589969197475
 30
0.0
 40
2.5
  1

  7
CHINESET
100
AcDbAttributeDefinition
  3
#2設變日期
  2
#2設變日期
 70
     0
  0
ATTDEF
  5
523
330
515
100
AcDbEntity
  8
0
 62
     5
100
AcDbText
 10
-176.9997611650297
 20
9.77589969197475
 30
0.0
 40
2.5
  1

  7
CHINESET
100
AcDbAttributeDefinition
  3
#7設變日期
  2
#7設變日期
 70
     0
  0
ATTDEF
  5
524
330
515
100
AcDbEntity
  8
0
 62
     5
100
AcDbText
 10
-244.4010913482711
 20
22.81696450977229
 30
0.0
 40
4.0
  1

  7
CHINESET
100
AcDbAttributeDefinition
  3
圖名(中)
  2
圖名(中)
 70
     0
  0
ATTDEF
  5
525
330
515
100
AcDbEntity
  8
0
 62
     5
100
AcDbText
 10
-244.4010913482711
 20
25.81696450977229
 30
0.0
 40
4.0
  1

  7
CHINESET
100
AcDbAttributeDefinition
  3
圖名(上)
  2
圖名(上)
 70
     0
  0
ATTDEF
  5
526
330
515
100
AcDbEntity
  8
0
 62
     5
100
AcDbText
 10
-247.5010913482711
 20
9.77589969197475
 30
0.0
 40
2.5
  1

  7
CHINESET
100
AcDbAttributeDefinition
  3
#5設變日期
  2
#5設變日期
 70
     0
  0
ATTDEF
  5
527
330
515
100
AcDbEntity
  8
0
 62
     5
100
AcDbText
 10
-244.4010913482711
 20
19.81696450977229
 30
0.0
 40
4.0
  1

  7
CHINESET
100
AcDbAttributeDefinition
  3
圖名(下)
  2
圖名(下)
 70
     0
  0
ATTDEF
  5
528
330
515
100
AcDbEntity
  8
0
 62
     5
100
AcDbText
 10
-211.5810913482711
 20
14.77589969197475
 30
0.0
 40
2.5
  1

  7
CHINESET
100
AcDbAttributeDefinition
  3
#1設變日期
  2
#1設變日期
 70
     0
  0
ATTDEF
  5
529
330
515
100
AcDbEntity
  8
0
 62
     5
100
AcDbText
 10
-211.5810913482711
 20
9.77589969197475
 30
0.0
 40
2.5
  1

  7
CHINESET
100
AcDbAttributeDefinition
  3
#6設變日期
  2
#6設變日期
 70
     0
  0
ENDBLK
  5
52B
330
515
100
AcDbEntity
  8
0
100
AcDbBlockEnd
  0
BLOCK
  5
54A
330
548
100
AcDbEntity
  8
0
100
AcDbBlockBegin
  2
A$C68EF195C
 70
     0
 10
0.0
 20
0.0
 30
0.0
  3
A$C68EF195C
  1

  0
LINE
  5
54B
330
548
100
AcDbEntity
  8
0
100
AcDbLine
 10
16.34268158382792
 20
3.153027476499346
 30
0.0
 11
8.491741336899622
 21
6.306054513659205
 31
0.0
  0
LINE
  5
54C
330
548
100
AcDbEntity
  8
0
100
AcDbLine
 10
8.491741336899622
 20
4.306054513659205
 30
0.0
 11
-0.0000000000002274
 21
4.306054513659205
 31
0.0
  0
LINE
  5
54D
330
548
100
AcDbEntity
  8
0
100
AcDbLine
 10
-0.0000000000002274
 20
4.306054513659205
 30
0.0
 11
-0.0000000000002274
 21
2.000000439339487
 31
0.0
  0
LINE
  5
54E
330
548
100
AcDbEntity
  8
0
100
AcDbLine
 10
8.491741336899622
 20
2.000000439339487
 30
0.0
 11
-0.0000000000002274
 21
2.000000439339487
 31
0.0
  0
LINE
  5
54F
330
548
100
AcDbEntity
  8
0
100
AcDbLine
 10
8.491741336899622
 20
4.306054513659205
 30
0.0
 11
8.491741336899622
 21
6.306054513659205
 31
0.0
  0
LINE
  5
550
330
548
100
AcDbEntity
  8
0
100
AcDbLine
 10
16.34268158382792
 20
3.15302747649946
 30
0.0
 11
8.491741336899622
 21
0.0000004393394875
 31
0.0
  0
LINE
  5
551
330
548
100
AcDbEntity
  8
0
100
AcDbLine
 10
8.491741336899622
 20
2.000000439339487
 30
0.0
 11
8.491741336899622
 21
0.0000004393394875
 31
0.0
  0
ENDBLK
  5
552
330
548
100
AcDbEntity
  8
0
100
AcDbBlockEnd
  0
BLOCK
  5
1493
330
1487
100
AcDbEntity
  8
0
100
AcDbBlockBegin
  2
*D8
 70
     1
 10
0.0
 20
0.0
 30
0.0
  3
*D8
  1

  0
LINE
  5
16E6
330
1487
100
AcDbEntity
  8
AM_5
100
AcDbLine
 10
268.0984785655773
 20
656.2855407344048
 30
0.0
 11
354.5038531642486
 21
656.2855407344048
 31
0.0
  0
LINE
  5
16E7
330
1487
100
AcDbEntity
  8
AM_5
100
AcDbLine
 10
308.0984785655774
 20
641.2855407344047
 30
0.0
 11
354.5038531642486
 21
641.2855407344047
 31
0.0
  0
LINE
  5
16E8
330
1487
100
AcDbEntity
  8
AM_5
100
AcDbLine
 10
352.5038531642486
 20
634.2855407344047
 30
0.0
 11
352.5038531642486
 21
627.2855407344048
 31
0.0
  0
LINE
  5
16E9
330
1487
100
AcDbEntity
  8
AM_5
100
AcDbLine
 10
352.5038531642487
 20
663.2855407344047
 30
0.0
 11
352.5038531642487
 21
700.5967212881897
 31
0.0
  0
LINE
  5
16EA
330
1487
100
AcDbEntity
  8
AM_5
100
AcDbLine
 10
352.5038531642487
 20
641.2855407344047
 30
0.0
 11
352.5038531642487
 21
656.2855407344048
 31
0.0
  0
SOLID
  5
16EB
330
1487
100
AcDbEntity
  8
AM_5
100
AcDbTrace
 10
351.3371864975819
 20
634.2855407344047
 30
0.0
 11
353.6705198309153
 21
634.2855407344047
 31
0.0
 12
352.5038531642487
 22
641.2855407344047
 32
0.0
 13
352.5038531642487
 23
641.2855407344047
 33
0.0
  0
SOLID
  5
16EC
330
1487
100
AcDbEntity
  8
AM_5
100
AcDbTrace
 10
351.337186497582
 20
663.2855407344047
 30
0.0
 11
353.6705198309153
 21
663.2855407344047
 31
0.0
 12
352.5038531642487
 22
656.2855407344048
 32
0.0
 13
352.5038531642487
 23
656.2855407344048
 33
0.0
  0
MTEXT
  5
16ED
330
1487
100
AcDbEntity
  8
AM_5
100
AcDbMText
 10
347.0038531642485
 20
695.3017465413593
 30
0.0
 40
7.0
 41
0.0
 71
     5
 72
     1
  1
15
 11
0.0000000000000001
 21
1.0
 31
0.0
 73
     1
 44
1.0
1001
ACAD
1000
MTEXTBEGIN
1070
    73
1070
     1
1070
    44
1040
1.0
1070
    74
1070
     0
1000
MTEXTEND
  0
POINT
  5
16EE
330
1487
100
AcDbEntity
  8
Defpoints
 62
     0
100
AcDbPoint
 10
266.0984785655774
 20
656.2855407344048
 30
0.0
  0
POINT
  5
16EF
330
1487
100
AcDbEntity
  8
Defpoints
 62
     0
100
AcDbPoint
 10
306.0984785655774
 20
641.2855407344047
 30
0.0
  0
POINT
  5
16F0
330
1487
100
AcDbEntity
  8
Defpoints
 62
     0
100
AcDbPoint
 10
352.5038531642487
 20
641.2855407344047
 30
0.0
  0
ENDBLK
  5
1494
330
1487
100
AcDbEntity
  8
0
100
AcDbBlockEnd
  0
BLOCK
  5
149F
330
1495
100
AcDbEntity
  8
0
100
AcDbBlockBegin
  2
*D9
 70
     1
 10
0.0
 20
0.0
 30
0.0
  3
*D9
  1

  0
LINE
  5
16F1
330
1495
100
AcDbEntity
  8
AM_5
100
AcDbLine
 10
308.0984785655774
 20
641.2855407344047
 30
0.0
 11
354.5038531642486
 21
641.2855407344047
 31
0.0
  0
LINE
  5
16F2
330
1495
100
AcDbEntity
  8
AM_5
100
AcDbLine
 10
308.0984785655774
 20
551.2855407344049
 30
0.0
 11
354.5038531642485
 21
551.2855407344049
 31
0.0
  0
LINE
  5
16F3
330
1495
100
AcDbEntity
  8
AM_5
100
AcDbLine
 10
352.5038531642485
 20
634.2855407344047
 30
0.0
 11
352.5038531642485
 21
558.2855407344048
 31
0.0
  0
SOLID
  5
16F4
330
1495
100
AcDbEntity
  8
AM_5
100
AcDbTrace
 10
351.3371864975819
 20
634.2855407344047
 30
0.0
 11
353.6705198309152
 21
634.2855407344047
 31
0.0
 12
352.5038531642486
 22
641.2855407344047
 32
0.0
 13
352.5038531642486
 23
641.2855407344047
 33
0.0
  0
SOLID
  5
16F5
330
1495
100
AcDbEntity
  8
AM_5
100
AcDbTrace
 10
351.3371864975819
 20
558.2855407344048
 30
0.0
 11
353.6705198309152
 21
558.2855407344048
 31
0.0
 12
352.5038531642485
 22
551.2855407344049
 32
0.0
 13
352.5038531642485
 23
551.2855407344049
 33
0.0
  0
MTEXT
  5
16F6
330
1495
100
AcDbEntity
  8
AM_5
100
AcDbMText
 10
347.0038531642485
 20
596.285540734405
 30
0.0
 40
7.0
 41
0.0
 71
     5
 72
     1
  1
90
 11
0.0000000000000001
 21
1.0
 31
0.0
 73
     1
 44
1.0
1001
ACAD
1000
MTEXTBEGIN
1070
    73
1070
     1
1070
    44
1040
1.0
1070
    74
1070
     0
1000
MTEXTEND
  0
POINT
  5
16F7
330
1495
100
AcDbEntity
  8
Defpoints
 62
     0
100
AcDbPoint
 10
306.0984785655774
 20
641.2855407344047
 30
0.0
  0
POINT
  5
16F8
330
1495
100
AcDbEntity
  8
Defpoints
 62
     0
100
AcDbPoint
 10
306.0984785655774
 20
551.2855407344049
 30
0.0
  0
POINT
  5
16F9
330
1495
100
AcDbEntity
  8
Defpoints
 62
     0
100
AcDbPoint
 10
352.5038531642485
 20
551.2855407344049
 30
0.0
  0
ENDBLK
  5
14A0
330
1495
100
AcDbEntity
  8
0
100
AcDbBlockEnd
  0
BLOCK
  5
14AB
330
14A1
100
AcDbEntity
  8
0
100
AcDbBlockBegin
  2
*D10
 70
     1
 10
0.0
 20
0.0
 30
0.0
  3
*D10
  1

  0
LINE
  5
16FA
330
14A1
100
AcDbEntity
  8
AM_5
100
AcDbLine
 10
268.0984785655773
 20
656.2855407344048
 30
0.0
 11
382.7200914844226
 21
656.2855407344048
 31
0.0
  0
LINE
  5
16FB
330
14A1
100
AcDbEntity
  8
AM_5
100
AcDbLine
 10
247.8384785655771
 20
155.285540734405
 30
0.0
 11
382.7200914844226
 21
155.285540734405
 31
0.0
  0
LINE
  5
16FC
330
14A1
100
AcDbEntity
  8
AM_5
100
AcDbLine
 10
380.7200914844226
 20
649.2855407344047
 30
0.0
 11
380.7200914844226
 21
162.285540734405
 31
0.0
  0
SOLID
  5
16FD
330
14A1
100
AcDbEntity
  8
AM_5
100
AcDbTrace
 10
379.553424817756
 20
649.2855407344047
 30
0.0
 11
381.8867581510894
 21
649.2855407344047
 31
0.0
 12
380.7200914844226
 22
656.2855407344048
 32
0.0
 13
380.7200914844226
 23
656.2855407344048
 33
0.0
  0
SOLID
  5
16FE
330
14A1
100
AcDbEntity
  8
AM_5
100
AcDbTrace
 10
379.5534248177558
 20
162.285540734405
 30
0.0
 11
381.8867581510892
 21
162.285540734405
 31
0.0
 12
380.7200914844226
 22
155.285540734405
 32
0.0
 13
380.7200914844226
 23
155.285540734405
 33
0.0
  0
MTEXT
  5
16FF
330
14A1
100
AcDbEntity
  8
AM_5
100
AcDbMText
 10
374.8700914844225
 20
404.9523011531822
 30
0.0
 40
7.0
 41
0.0
 71
     5
 72
     1
  1
(501)
 11
0.0000000000000001
 21
1.0
 31
0.0
 73
     1
 44
1.0
1001
ACAD
1000
MTEXTBEGIN
1070
    73
1070
     1
1070
    44
1040
1.0
1070
    74
1070
     0
1000
MTEXTEND
  0
POINT
  5
1700
330
14A1
100
AcDbEntity
  8
Defpoints
 62
     0
100
AcDbPoint
 10
266.0984785655774
 20
656.2855407344048
 30
0.0
  0
POINT
  5
1701
330
14A1
100
AcDbEntity
  8
Defpoints
 62
     0
100
AcDbPoint
 10
245.8384785655771
 20
155.285540734405
 30
0.0
  0
POINT
  5
1702
330
14A1
100
AcDbEntity
  8
Defpoints
 62
     0
100
AcDbPoint
 10
380.7200914844226
 20
155.285540734405
 30
0.0
  0
ENDBLK
  5
14AC
330
14A1
100
AcDbEntity
  8
0
100
AcDbBlockEnd
  0
BLOCK
  5
14B7
330
14AD
100
AcDbEntity
  8
0
100
AcDbBlockBegin
  2
*D11
 70
     1
 10
0.0
 20
0.0
 30
0.0
  3
*D11
  1

  0
LINE
  5
1703
330
14AD
100
AcDbEntity
  8
AM_5
100
AcDbLine
 10
263.0984785655773
 20
333.2855407344051
 30
0.0
 11
354.5038531642485
 21
333.2855407344051
 31
0.0
  0
LINE
  5
1704
330
14AD
100
AcDbEntity
  8
AM_5
100
AcDbLine
 10
308.0984785655774
 20
551.2855407344049
 30
0.0
 11
354.5038531642485
 21
551.2855407344049
 31
0.0
  0
LINE
  5
1705
330
14AD
100
AcDbEntity
  8
AM_5
100
AcDbLine
 10
352.5038531642485
 20
340.2855407344051
 30
0.0
 11
352.5038531642485
 21
544.2855407344048
 31
0.0
  0
SOLID
  5
1706
330
14AD
100
AcDbEntity
  8
AM_5
100
AcDbTrace
 10
351.3371864975818
 20
340.2855407344051
 30
0.0
 11
353.6705198309152
 21
340.2855407344051
 31
0.0
 12
352.5038531642485
 22
333.2855407344051
 32
0.0
 13
352.5038531642485
 23
333.2855407344051
 33
0.0
  0
SOLID
  5
1707
330
14AD
100
AcDbEntity
  8
AM_5
100
AcDbTrace
 10
351.3371864975819
 20
544.2855407344048
 30
0.0
 11
353.6705198309152
 21
544.2855407344048
 31
0.0
 12
352.5038531642485
 22
551.2855407344049
 32
0.0
 13
352.5038531642485
 23
551.2855407344049
 33
0.0
  0
MTEXT
  5
1708
330
14AD
100
AcDbEntity
  8
AM_5
100
AcDbMText
 10
347.0031641878705
 20
442.2855407344051
 30
0.0
 40
7.0
 41
0.0
 71
     5
 72
     1
  1
218
 11
0.0000000000000001
 21
1.0
 31
0.0
 73
     1
 44
1.0
1001
ACAD
1000
MTEXTBEGIN
1070
    73
1070
     1
1070
    44
1040
1.0
1070
    74
1070
     0
1000
MTEXTEND
  0
POINT
  5
1709
330
14AD
100
AcDbEntity
  8
Defpoints
 62
     0
100
AcDbPoint
 10
261.0984785655773
 20
333.2855407344051
 30
0.0
  0
POINT
  5
170A
330
14AD
100
AcDbEntity
  8
Defpoints
 62
     0
100
AcDbPoint
 10
306.0984785655774
 20
551.2855407344049
 30
0.0
  0
POINT
  5
170B
330
14AD
100
AcDbEntity
  8
Defpoints
 62
     0
100
AcDbPoint
 10
352.5038531642485
 20
551.2855407344049
 30
0.0
  0
ENDBLK
  5
14B8
330
14AD
100
AcDbEntity
  8
0
100
AcDbBlockEnd
  0
BLOCK
  5
14C3
330
14B9
100
AcDbEntity
  8
0
100
AcDbBlockBegin
  2
*D12
 70
     1
 10
0.0
 20
0.0
 30
0.0
  3
*D12
  1

  0
LINE
  5
170C
330
14B9
100
AcDbEntity
  8
AM_5
100
AcDbLine
 10
258.0984785655774
 20
323.2855407344048
 30
0.0
 11
354.5038531642486
 21
323.2855407344048
 31
0.0
  0
LINE
  5
170D
330
14B9
100
AcDbEntity
  8
AM_5
100
AcDbLine
 10
247.8384785655771
 20
155.285540734405
 30
0.0
 11
354.5038531642486
 21
155.285540734405
 31
0.0
  0
LINE
  5
170E
330
14B9
100
AcDbEntity
  8
AM_5
100
AcDbLine
 10
352.5038531642486
 20
316.2855407344048
 30
0.0
 11
352.5038531642486
 21
162.285540734405
 31
0.0
  0
SOLID
  5
170F
330
14B9
100
AcDbEntity
  8
AM_5
100
AcDbTrace
 10
351.3371864975819
 20
316.2855407344048
 30
0.0
 11
353.6705198309153
 21
316.2855407344048
 31
0.0
 12
352.5038531642486
 22
323.2855407344048
 32
0.0
 13
352.5038531642486
 23
323.2855407344048
 33
0.0
  0
SOLID
  5
1710
330
14B9
100
AcDbEntity
  8
AM_5
100
AcDbTrace
 10
351.3371864975819
 20
162.285540734405
 30
0.0
 11
353.6705198309153
 21
162.285540734405
 31
0.0
 12
352.5038531642486
 22
155.285540734405
 32
0.0
 13
352.5038531642486
 23
155.285540734405
 33
0.0
  0
MTEXT
  5
1711
330
14B9
100
AcDbEntity
  8
AM_5
100
AcDbMText
 10
347.0038531642485
 20
237.5092011891163
 30
0.0
 40
7.0
 41
0.0
 71
     5
 72
     1
  1
168
 11
0.0000000000000001
 21
1.0
 31
0.0
 73
     1
 44
1.0
1001
ACAD
1000
MTEXTBEGIN
1070
    73
1070
     1
1070
    44
1040
1.0
1070
    74
1070
     0
1000
MTEXTEND
  0
POINT
  5
1712
330
14B9
100
AcDbEntity
  8
Defpoints
 62
     0
100
AcDbPoint
 10
256.0984785655774
 20
323.2855407344048
 30
0.0
  0
POINT
  5
1713
330
14B9
100
AcDbEntity
  8
Defpoints
 62
     0
100
AcDbPoint
 10
245.8384785655771
 20
155.285540734405
 30
0.0
  0
POINT
  5
1714
330
14B9
100
AcDbEntity
  8
Defpoints
 62
     0
100
AcDbPoint
 10
352.5038531642486
 20
155.285540734405
 30
0.0
  0
ENDBLK
  5
14C4
330
14B9
100
AcDbEntity
  8
0
100
AcDbBlockEnd
  0
BLOCK
  5
14CF
330
14C5
100
AcDbEntity
  8
0
100
AcDbBlockBegin
  2
*D13
 70
     1
 10
0.0
 20
0.0
 30
0.0
  3
*D13
  1

  0
LINE
  5
1715
330
14C5
100
AcDbEntity
  8
AM_5
100
AcDbLine
 10
176.0984785655773
 20
643.2855407344048
 30
0.0
 11
176.0984785655773
 21
678.793308626962
 31
0.0
  0
LINE
  5
1716
330
14C5
100
AcDbEntity
  8
AM_5
100
AcDbLine
 10
306.0984785655774
 20
643.2855407344048
 30
0.0
 11
306.0984785655774
 21
678.793308626962
 31
0.0
  0
LINE
  5
1717
330
14C5
100
AcDbEntity
  8
AM_5
100
AcDbLine
 10
183.0984785655773
 20
676.793308626962
 30
0.0
 11
299.0984785655773
 21
676.793308626962
 31
0.0
  0
SOLID
  5
1718
330
14C5
100
AcDbEntity
  8
AM_5
100
AcDbTrace
 10
183.0984785655773
 20
677.9599752936286
 30
0.0
 11
183.0984785655773
 21
675.6266419602954
 31
0.0
 12
176.0984785655773
 22
676.793308626962
 32
0.0
 13
176.0984785655773
 23
676.793308626962
 33
0.0
  0
SOLID
  5
1719
330
14C5
100
AcDbEntity
  8
AM_5
100
AcDbTrace
 10
299.0984785655773
 20
677.9599752936286
 30
0.0
 11
299.0984785655773
 21
675.6266419602954
 31
0.0
 12
306.0984785655774
 22
676.793308626962
 32
0.0
 13
306.0984785655774
 23
676.793308626962
 33
0.0
  0
MTEXT
  5
171A
330
14C5
100
AcDbEntity
  8
AM_5
100
AcDbMText
 10
241.0984785655774
 20
682.293308626962
 30
0.0
 40
7.0
 41
0.0
 71
     5
 72
     1
  1
%%c130
 73
     1
 44
1.0
1001
ACAD
1000
MTEXTBEGIN
1070
    73
1070
     1
1070
    44
1040
1.0
1070
    74
1070
     0
1000
MTEXTEND
  0
POINT
  5
171B
330
14C5
100
AcDbEntity
  8
Defpoints
 62
     0
100
AcDbPoint
 10
176.0984785655773
 20
641.2855407344047
 30
0.0
  0
POINT
  5
171C
330
14C5
100
AcDbEntity
  8
Defpoints
 62
     0
100
AcDbPoint
 10
306.0984785655774
 20
641.2855407344047
 30
0.0
  0
POINT
  5
171D
330
14C5
100
AcDbEntity
  8
Defpoints
 62
     0
100
AcDbPoint
 10
306.0984785655774
 20
676.793308626962
 30
0.0
  0
ENDBLK
  5
14D0
330
14C5
100
AcDbEntity
  8
0
100
AcDbBlockEnd
  0
BLOCK
  5
14DB
330
14D1
100
AcDbEntity
  8
0
100
AcDbBlockBegin
  2
*D14
 70
     1
 10
0.0
 20
0.0
 30
0.0
  3
*D14
  1

  0
LINE
  5
171E
330
14D1
100
AcDbEntity
  8
AM_5
100
AcDbLine
 10
181.0984785655773
 20
553.2855407344048
 30
0.0
 11
181.0984785655773
 21
568.5114672649582
 31
0.0
  0
LINE
  5
171F
330
14D1
100
AcDbEntity
  8
AM_5
100
AcDbLine
 10
301.0984785655773
 20
553.2855407344048
 30
0.0
 11
301.0984785655773
 21
568.5114672649582
 31
0.0
  0
LINE
  5
1720
330
14D1
100
AcDbEntity
  8
AM_5
100
AcDbLine
 10
188.0984785655773
 20
566.5114672649582
 30
0.0
 11
294.0984785655773
 21
566.5114672649582
 31
0.0
  0
SOLID
  5
1721
330
14D1
100
AcDbEntity
  8
AM_5
100
AcDbTrace
 10
188.0984785655773
 20
567.6781339316248
 30
0.0
 11
188.0984785655773
 21
565.3448005982916
 31
0.0
 12
181.0984785655773
 22
566.5114672649582
 32
0.0
 13
181.0984785655773
 23
566.5114672649582
 33
0.0
  0
SOLID
  5
1722
330
14D1
100
AcDbEntity
  8
AM_5
100
AcDbTrace
 10
294.0984785655773
 20
567.6781339316248
 30
0.0
 11
294.0984785655773
 21
565.3448005982916
 31
0.0
 12
301.0984785655773
 22
566.5114672649582
 32
0.0
 13
301.0984785655773
 23
566.5114672649582
 33
0.0
  0
MTEXT
  5
1723
330
14D1
100
AcDbEntity
  8
AM_5
100
AcDbMText
 10
241.0984785655774
 20
572.0121562413362
 30
0.0
 40
7.0
 41
0.0
 71
     5
 72
     1
  1
%%c120
 73
     1
 44
1.0
1001
ACAD
1000
MTEXTBEGIN
1070
    73
1070
     1
1070
    44
1040
1.0
1070
    74
1070
     0
1000
MTEXTEND
  0
POINT
  5
1724
330
14D1
100
AcDbEntity
  8
Defpoints
 62
     0
100
AcDbPoint
 10
181.0984785655773
 20
551.2855407344049
 30
0.0
  0
POINT
  5
1725
330
14D1
100
AcDbEntity
  8
Defpoints
 62
     0
100
AcDbPoint
 10
301.0984785655773
 20
551.2855407344049
 30
0.0
  0
POINT
  5
1726
330
14D1
100
AcDbEntity
  8
Defpoints
 62
     0
100
AcDbPoint
 10
301.0984785655773
 20
566.5114672649582
 30
0.0
  0
ENDBLK
  5
14DC
330
14D1
100
AcDbEntity
  8
0
100
AcDbBlockEnd
  0
BLOCK
  5
14E8
330
14DD
100
AcDbEntity
  8
0
100
AcDbBlockBegin
  2
*D15
 70
     1
 10
0.0
 20
0.0
 30
0.0
  3
*D15
  1

  0
LINE
  5
1727
330
14DD
100
AcDbEntity
  8
AM_5
100
AcDbLine
 10
200.0984785655774
 20
278.2855407344051
 30
0.0
 11
200.0984785655774
 21
265.756925509906
 31
0.0
  0
LINE
  5
1728
330
14DD
100
AcDbEntity
  8
AM_5
100
AcDbLine
 10
282.0984785655774
 20
278.2855407344051
 30
0.0
 11
282.0984785655774
 21
265.756925509906
 31
0.0
  0
LINE
  5
1729
330
14DD
100
AcDbEntity
  8
AM_5
100
AcDbLine
 10
275.0984785655774
 20
267.756925509906
 30
0.0
 11
207.0984785655773
 21
267.756925509906
 31
0.0
  0
LINE
  5
172A
330
14DD
100
AcDbEntity
  8
AM_5
100
AcDbLine
 10
200.0984785655774
 20
267.756925509906
 30
0.0
 11
158.4678584868371
 21
267.756925509906
 31
0.0
  0
SOLID
  5
172B
330
14DD
100
AcDbEntity
  8
AM_5
100
AcDbTrace
 10
275.0984785655774
 20
268.9235921765727
 30
0.0
 11
275.0984785655774
 21
266.5902588432393
 31
0.0
 12
282.0984785655774
 22
267.756925509906
 32
0.0
 13
282.0984785655774
 23
267.756925509906
 33
0.0
  0
SOLID
  5
172C
330
14DD
100
AcDbEntity
  8
AM_5
100
AcDbTrace
 10
207.0984785655773
 20
268.9235921765727
 30
0.0
 11
207.0984785655773
 21
266.5902588432393
 31
0.0
 12
200.0984785655774
 22
267.756925509906
 32
0.0
 13
200.0984785655774
 23
267.756925509906
 33
0.0
  0
MTEXT
  5
172D
330
14DD
100
AcDbEntity
  8
AM_5
100
AcDbMText
 10
167.6780651797505
 20
273.2576144862839
 30
0.0
 40
7.0
 41
0.0
 71
     5
 72
     1
  1
%%c82
 73
     1
 44
1.0
1001
ACAD
1000
MTEXTBEGIN
1070
    73
1070
     1
1070
    44
1040
1.0
1070
    74
1070
     0
1000
MTEXTEND
  0
POINT
  5
172E
330
14DD
100
AcDbEntity
  8
Defpoints
 62
     0
100
AcDbPoint
 10
200.0984785655774
 20
280.2855407344051
 30
0.0
  0
POINT
  5
172F
330
14DD
100
AcDbEntity
  8
Defpoints
 62
     0
100
AcDbPoint
 10
282.0984785655774
 20
280.2855407344051
 30
0.0
  0
POINT
  5
1730
330
14DD
100
AcDbEntity
  8
Defpoints
 62
     0
100
AcDbPoint
 10
282.0984785655774
 20
267.756925509906
 30
0.0
  0
ENDBLK
  5
14E9
330
14DD
100
AcDbEntity
  8
0
100
AcDbBlockEnd
  0
BLOCK
  5
153F
330
1535
100
AcDbEntity
  8
0
100
AcDbBlockBegin
  2
*D16
 70
     1
 10
0.0
 20
0.0
 30
0.0
  3
*D16
  1

  0
LINE
  5
1731
330
1535
100
AcDbEntity
  8
AM_5
100
AcDbLine
 10
214.0984785655774
 20
656.2855407344048
 30
0.0
 11
131.8461403481409
 21
656.2855407344048
 31
0.0
  0
LINE
  5
1732
330
1535
100
AcDbEntity
  8
AM_5
100
AcDbLine
 10
172.0984785655773
 20
621.2855407344047
 30
0.0
 11
131.8461403481409
 21
621.2855407344047
 31
0.0
  0
LINE
  5
1733
330
1535
100
AcDbEntity
  8
AM_5
100
AcDbLine
 10
133.8461403481409
 20
649.2855407344047
 30
0.0
 11
133.8461403481409
 21
628.2855407344047
 31
0.0
  0
SOLID
  5
1734
330
1535
100
AcDbEntity
  8
AM_5
100
AcDbTrace
 10
132.6794736814742
 20
649.2855407344047
 30
0.0
 11
135.0128070148076
 21
649.2855407344047
 31
0.0
 12
133.8461403481409
 22
656.2855407344048
 32
0.0
 13
133.8461403481409
 23
656.2855407344048
 33
0.0
  0
SOLID
  5
1735
330
1535
100
AcDbEntity
  8
AM_5
100
AcDbTrace
 10
132.6794736814742
 20
628.2855407344047
 30
0.0
 11
135.0128070148076
 21
628.2855407344047
 31
0.0
 12
133.8461403481409
 22
621.2855407344047
 32
0.0
 13
133.8461403481409
 23
621.2855407344047
 33
0.0
  0
MTEXT
  5
1736
330
1535
100
AcDbEntity
  8
AM_5
100
AcDbMText
 10
128.3461403481408
 20
638.7855407344048
 30
0.0
 40
7.0
 41
0.0
 71
     5
 72
     1
  1
35
 11
0.0000000000000001
 21
1.0
 31
0.0
 73
     1
 44
1.0
1001
ACAD
1000
MTEXTBEGIN
1070
    73
1070
     1
1070
    44
1040
1.0
1070
    74
1070
     0
1000
MTEXTEND
  0
POINT
  5
1737
330
1535
100
AcDbEntity
  8
Defpoints
 62
     0
100
AcDbPoint
 10
216.0984785655774
 20
656.2855407344048
 30
0.0
  0
POINT
  5
1738
330
1535
100
AcDbEntity
  8
Defpoints
 62
     0
100
AcDbPoint
 10
174.0984785655773
 20
621.2855407344047
 30
0.0
  0
POINT
  5
1739
330
1535
100
AcDbEntity
  8
Defpoints
 62
     0
100
AcDbPoint
 10
133.8461403481409
 20
621.2855407344047
 30
0.0
  0
ENDBLK
  5
1540
330
1535
100
AcDbEntity
  8
0
100
AcDbBlockEnd
  0
BLOCK
  5
154D
330
1541
100
AcDbEntity
  8
0
100
AcDbBlockBegin
  2
*D17
 70
     1
 10
0.0
 20
0.0
 30
0.0
  3
*D17
  1

  0
LINE
  5
173A
330
1541
100
AcDbEntity
  8
AM_5
100
AcDbLine
 10
267.0984785655774
 20
777.8448698002269
 30
0.0
 11
347.6273058457161
 21
777.8448698002269
 31
0.0
  0
LINE
  5
173B
330
1541
100
AcDbEntity
  8
AM_5
100
AcDbLine
 10
267.0984785655774
 20
797.8448698002268
 30
0.0
 11
347.6273058457161
 21
797.8448698002268
 31
0.0
  0
LINE
  5
173C
330
1541
100
AcDbEntity
  8
AM_5
100
AcDbLine
 10
343.6273058457161
 20
763.8448698002268
 30
0.0
 11
343.6273058457161
 21
749.8448698002269
 31
0.0
  0
LINE
  5
173D
330
1541
100
AcDbEntity
  8
AM_5
100
AcDbLine
 10
343.6273058457161
 20
811.8448698002268
 30
0.0
 11
343.6273058457161
 21
849.6114052332977
 31
0.0
  0
LINE
  5
173E
330
1541
100
AcDbEntity
  8
AM_5
100
AcDbLine
 10
343.6273058457161
 20
777.8448698002269
 30
0.0
 11
343.6273058457161
 21
797.8448698002268
 31
0.0
  0
SOLID
  5
173F
330
1541
100
AcDbEntity
  8
AM_5
100
AcDbTrace
 10
341.2939725123828
 20
763.8448698002268
 30
0.0
 11
345.9606391790495
 21
763.8448698002268
 31
0.0
 12
343.6273058457161
 22
777.8448698002269
 32
0.0
 13
343.6273058457161
 23
777.8448698002269
 33
0.0
  0
SOLID
  5
1740
330
1541
100
AcDbEntity
  8
AM_5
100
AcDbTrace
 10
341.2939725123828
 20
811.8448698002268
 30
0.0
 11
345.9606391790495
 21
811.8448698002268
 31
0.0
 12
343.6273058457161
 22
797.8448698002268
 32
0.0
 13
343.6273058457161
 23
797.8448698002268
 33
0.0
  0
MTEXT
  5
1741
330
1541
100
AcDbEntity
  8
AM_5
100
AcDbMText
 10
332.6259278929601
 20
837.7281375167624
 30
0.0
 40
14.0
 41
0.0
 71
     5
 72
     1
  1
20
 11
0.0000000000000001
 21
1.0
 31
0.0
 73
     1
 44
1.0
1001
ACAD
1000
MTEXTBEGIN
1070
    73
1070
     1
1070
    44
1040
1.0
1070
    74
1070
     0
1000
MTEXTEND
  0
POINT
  5
1742
330
1541
100
AcDbEntity
  8
Defpoints
 62
     0
100
AcDbPoint
 10
263.0984785655773
 20
777.8448698002269
 30
0.0
  0
POINT
  5
1743
330
1541
100
AcDbEntity
  8
Defpoints
 62
     0
100
AcDbPoint
 10
263.0984785655773
 20
797.8448698002268
 30
0.0
  0
POINT
  5
1744
330
1541
100
AcDbEntity
  8
Defpoints
 62
     0
100
AcDbPoint
 10
343.6273058457161
 20
797.8448698002268
 30
0.0
  0
ENDBLK
  5
154E
330
1541
100
AcDbEntity
  8
0
100
AcDbBlockEnd
  0
BLOCK
  5
1559
330
154F
100
AcDbEntity
  8
0
100
AcDbBlockBegin
  2
*D18
 70
     1
 10
0.0
 20
0.0
 30
0.0
  3
*D18
  1

  0
LINE
  5
1745
330
154F
100
AcDbEntity
  8
AM_5
100
AcDbLine
 10
216.0984785655774
 20
798.8448698002269
 30
0.0
 11
216.0984785655774
 21
872.3218177916887
 31
0.0
  0
LINE
  5
1746
330
154F
100
AcDbEntity
  8
AM_5
100
AcDbLine
 10
266.0984785655774
 20
798.8448698002269
 30
0.0
 11
266.0984785655774
 21
872.3218177916887
 31
0.0
  0
LINE
  5
1747
330
154F
100
AcDbEntity
  8
AM_5
100
AcDbLine
 10
230.0984785655773
 20
868.3218177916886
 30
0.0
 11
252.0984785655774
 21
868.3218177916886
 31
0.0
  0
SOLID
  5
1748
330
154F
100
AcDbEntity
  8
AM_5
100
AcDbTrace
 10
230.0984785655773
 20
870.655151125022
 30
0.0
 11
230.0984785655773
 21
865.9884844583553
 31
0.0
 12
216.0984785655774
 22
868.3218177916886
 32
0.0
 13
216.0984785655774
 23
868.3218177916886
 33
0.0
  0
SOLID
  5
1749
330
154F
100
AcDbEntity
  8
AM_5
100
AcDbTrace
 10
252.0984785655774
 20
870.655151125022
 30
0.0
 11
252.0984785655774
 21
865.9884844583553
 31
0.0
 12
266.0984785655774
 22
868.3218177916886
 32
0.0
 13
266.0984785655774
 23
868.3218177916886
 33
0.0
  0
MTEXT
  5
174A
330
154F
100
AcDbEntity
  8
AM_5
100
AcDbMText
 10
241.0984785655774
 20
879.3218177916886
 30
0.0
 40
14.0
 41
0.0
 71
     5
 72
     1
  1
50
 73
     1
 44
1.0
1001
ACAD
1000
MTEXTBEGIN
1070
    73
1070
     1
1070
    44
1040
1.0
1070
    74
1070
     0
1000
MTEXTEND
  0
POINT
  5
174B
330
154F
100
AcDbEntity
  8
Defpoints
 62
     0
100
AcDbPoint
 10
216.0984785655774
 20
794.8448698002269
 30
0.0
  0
POINT
  5
174C
330
154F
100
AcDbEntity
  8
Defpoints
 62
     0
100
AcDbPoint
 10
266.0984785655774
 20
794.8448698002269
 30
0.0
  0
POINT
  5
174D
330
154F
100
AcDbEntity
  8
Defpoints
 62
     0
100
AcDbPoint
 10
266.0984785655774
 20
868.3218177916886
 30
0.0
  0
ENDBLK
  5
155A
330
154F
100
AcDbEntity
  8
0
100
AcDbBlockEnd
  0
BLOCK
  5
1567
330
155B
100
AcDbEntity
  8
0
100
AcDbBlockBegin
  2
*D19
 70
     1
 10
0.0
 20
0.0
 30
0.0
  3
*D19
  1

  0
LINE
  5
174E
330
155B
100
AcDbEntity
  8
AM_5
100
AcDbLine
 10
265.0984785655774
 20
656.2855407344048
 30
0.0
 11
326.0414759544338
 21
656.2855407344048
 31
0.0
  0
LINE
  5
174F
330
155B
100
AcDbEntity
  8
AM_5
100
AcDbLine
 10
293.0984785655773
 20
646.2855407344047
 30
0.0
 11
326.0414759544338
 21
646.2855407344047
 31
0.0
  0
LINE
  5
1750
330
155B
100
AcDbEntity
  8
AM_5
100
AcDbLine
 10
324.0414759544338
 20
639.2855407344048
 30
0.0
 11
324.0414759544338
 21
632.2855407344047
 31
0.0
  0
LINE
  5
1751
330
155B
100
AcDbEntity
  8
AM_5
100
AcDbLine
 10
324.0414759544338
 20
663.2855407344047
 30
0.0
 11
324.0414759544338
 21
699.7438084509401
 31
0.0
  0
LINE
  5
1752
330
155B
100
AcDbEntity
  8
AM_5
100
AcDbLine
 10
324.0414759544338
 20
646.2855407344047
 30
0.0
 11
324.0414759544338
 21
656.2855407344048
 31
0.0
  0
SOLID
  5
1753
330
155B
100
AcDbEntity
  8
AM_5
100
AcDbTrace
 10
322.8748092877671
 20
639.2855407344048
 30
0.0
 11
325.2081426211005
 21
639.2855407344048
 31
0.0
 12
324.0414759544338
 22
646.2855407344047
 32
0.0
 13
324.0414759544338
 23
646.2855407344047
 33
0.0
  0
SOLID
  5
1754
330
155B
100
AcDbEntity
  8
AM_5
100
AcDbTrace
 10
322.8748092877672
 20
663.2855407344047
 30
0.0
 11
325.2081426211006
 21
663.2855407344047
 31
0.0
 12
324.0414759544338
 22
656.2855407344048
 32
0.0
 13
324.0414759544338
 23
656.2855407344048
 33
0.0
  0
MTEXT
  5
1755
330
155B
100
AcDbEntity
  8
AM_5
100
AcDbMText
 10
318.5414759544337
 20
694.5910525454285
 30
0.0
 40
7.0
 41
0.0
 71
     5
 72
     1
  1
10
 11
0.0000000000000001
 21
1.0
 31
0.0
 73
     1
 44
1.0
1001
ACAD
1000
MTEXTBEGIN
1070
    73
1070
     1
1070
    44
1040
1.0
1070
    74
1070
     0
1000
MTEXTEND
  0
POINT
  5
1756
330
155B
100
AcDbEntity
  8
Defpoints
 62
     0
100
AcDbPoint
 10
263.0984785655773
 20
656.2855407344048
 30
0.0
  0
POINT
  5
1757
330
155B
100
AcDbEntity
  8
Defpoints
 62
     0
100
AcDbPoint
 10
291.0984785655774
 20
646.2855407344047
 30
0.0
  0
POINT
  5
1758
330
155B
100
AcDbEntity
  8
Defpoints
 62
     0
100
AcDbPoint
 10
324.0414759544338
 20
646.2855407344047
 30
0.0
  0
ENDBLK
  5
1568
330
155B
100
AcDbEntity
  8
0
100
AcDbBlockEnd
  0
BLOCK
  5
15BE
330
15BC
100
AcDbEntity
  8
0
100
AcDbBlockBegin
  2
A$C044A2EE0
 70
     0
 10
0.0
 20
0.0
 30
0.0
  3
A$C044A2EE0
  1

  0
LINE
  5
15BF
330
15BC
100
AcDbEntity
  8
AM_7
100
AcDbLine
 10
-0.000000126849045
 20
22.49999996848692
 30
0.0
 11
33.00497973576057
 21
22.49999996848692
 31
0.0
  0
LINE
  5
15C0
330
15BC
100
AcDbEntity
  8
AM_4
 62
     7
100
AcDbLine
 10
29.99999987315096
 20
39.14999996848701
 30
0.0
 11
29.99999987315096
 21
5.84999996848694
 31
0.0
  0
SPLINE
  5
15C1
330
15BC
100
AcDbEntity
  8
AM_VIS
100
AcDbSpline
210
0.0
220
0.0
230
1.0
 70
    12
 71
     2
 72
     6
 73
     3
 74
     0
 42
0.0000000001
 43
0.0000000001
 40
0.0
 40
0.0
 40
0.0
 40
4.348428537076242
 40
4.348428537076242
 40
4.348428537076242
 10
26.99999987315095
 20
16.01925927007903
 30
0.0
 41
1.0
 10
26.58863812757704
 20
14.65455761923033
 30
0.0
 41
1.016096595792473
 10
25.99999987315094
 20
13.22638147299119
 30
0.0
 41
1.028292529756556
  0
LINE
  5
15C2
330
15BC
100
AcDbEntity
  8
AM_VIS
100
AcDbLine
 10
6.999999873150954
 20
31.77361846398265
 30
0.0
 11
25.99999987315096
 21
31.77361846398265
 31
0.0
  0
LINE
  5
15C3
330
15BC
100
AcDbEntity
  8
AM_VIS
100
AcDbLine
 10
25.99999987315096
 20
13.22638147299119
 30
0.0
 11
6.999999873150954
 21
13.22638147299119
 31
0.0
  0
SPLINE
  5
15C4
330
15BC
100
AcDbEntity
  8
AM_VIS
100
AcDbSpline
210
0.0
220
0.0
230
1.0
 70
    12
 71
     2
 72
     6
 73
     3
 74
     0
 42
0.0000000001
 43
0.0000000001
 40
31.54029987527506
 40
31.54029987527506
 40
31.54029987527506
 40
35.8887284123513
 40
35.8887284123513
 40
35.8887284123513
 10
25.99999987315096
 20
31.77361846398264
 30
0.0
 41
1.028292529756556
 10
26.58863812757704
 20
30.34544231774362
 30
0.0
 41
1.016096595792473
 10
26.99999987315095
 20
28.9807406668948
 30
0.0
 41
1.0
  0
LINE
  5
15C5
330
15BC
100
AcDbEntity
  8
AM_VIS
100
AcDbLine
 10
26.99999987315095
 20
28.9807406668948
 30
0.0
 11
26.99999987315095
 21
16.01925927007903
 31
0.0
  0
LINE
  5
15C6
330
15BC
100
AcDbEntity
  8
AM_VIS
100
AcDbLine
 10
1.999999873150954
 20
0.999999968486918
 30
0.0
 11
2.999999873150954
 21
-0.0000000315130819
 31
0.0
  0
LINE
  5
15C7
330
15BC
100
AcDbEntity
  8
AM_VIS
100
AcDbLine
 10
1.999999873150954
 20
43.99999996848691
 30
0.0
 11
2.999999873150954
 21
44.99999996848692
 31
0.0
  0
LINE
  5
15C8
330
15BC
100
AcDbEntity
  8
AM_VIS
100
AcDbLine
 10
26.99999987315095
 20
0.999999968486918
 30
0.0
 11
25.99999987315096
 21
-0.0000000315130819
 31
0.0
  0
LINE
  5
15C9
330
15BC
100
AcDbEntity
  8
AM_VIS
100
AcDbLine
 10
2.999999873150954
 20
-0.0000000315130819
 30
0.0
 11
25.99999987315096
 21
-0.0000000315130819
 31
0.0
  0
LINE
  5
15CA
330
15BC
100
AcDbEntity
  8
AM_VIS
100
AcDbLine
 10
2.999999873150954
 20
44.99999996848692
 30
0.0
 11
25.99999987315096
 21
44.99999996848692
 31
0.0
  0
LINE
  5
15CB
330
15BC
100
AcDbEntity
  8
AM_VIS
100
AcDbLine
 10
26.99999987315095
 20
43.99999996848691
 30
0.0
 11
25.99999987315096
 21
44.99999996848692
 31
0.0
  0
LINE
  5
15CC
330
15BC
100
AcDbEntity
  8
AM_VIS
100
AcDbLine
 10
27.99999987315096
 20
5.84999996848694
 30
0.0
 11
29.99999987315084
 21
5.84999996848694
 31
0.0
  0
LINE
  5
15CD
330
15BC
100
AcDbEntity
  8
AM_VIS
100
AcDbLine
 10
27.99999987315096
 20
39.14999996848701
 30
0.0
 11
29.99999987315084
 21
39.1499999684869
 31
0.0
  0
LINE
  5
15CE
330
15BC
100
AcDbEntity
  8
AM_VIS
100
AcDbLine
 10
1.999999873150954
 20
0.999999968486918
 30
0.0
 11
1.999999873150954
 21
43.99999996848691
 31
0.0
  0
LINE
  5
15CF
330
15BC
100
AcDbEntity
  8
AM_VIS
100
AcDbLine
 10
6.999999873150954
 20
31.77361846398265
 30
0.0
 11
6.999999873150954
 21
13.2263814729913
 31
0.0
  0
LINE
  5
15D0
330
15BC
100
AcDbEntity
  8
AM_VIS
100
AcDbLine
 10
26.99999987315095
 20
16.01925927007903
 30
0.0
 11
26.99999987315095
 21
0.999999968486918
 31
0.0
  0
LINE
  5
15D1
330
15BC
100
AcDbEntity
  8
AM_VIS
100
AcDbLine
 10
26.99999987315095
 20
43.99999996848691
 30
0.0
 11
26.99999987315095
 21
28.9807406668948
 31
0.0
  0
ARC
  5
15D2
330
15BC
100
AcDbEntity
  8
AM_VIS
100
AcDbCircle
 10
27.99999987315096
 20
4.84999996848694
 30
0.0
 40
1.0
100
AcDbArc
 50
90.0
 51
180.0
  0
ARC
  5
15D3
330
15BC
100
AcDbEntity
  8
AM_VIS
100
AcDbCircle
 10
27.99999987315096
 20
40.149999968487
 30
0.0
 40
1.0
100
AcDbArc
 50
180.0
 51
270.0
  0
LINE
  5
15D4
330
15BC
100
AcDbEntity
  8
0
100
AcDbLine
 10
26.53427354376982
 20
30.38943170830635
 30
0.0
 11
6.999999873150954
 21
13.2263814729913
 31
0.0
  0
LINE
  5
15D5
330
15BC
100
AcDbEntity
  8
0
100
AcDbLine
 10
6.999999873150954
 20
31.77361846398265
 30
0.0
 11
26.5342732126112
 21
14.61056730665734
 31
0.0
  0
ENDBLK
  5
15D6
330
15BC
100
AcDbEntity
  8
0
100
AcDbBlockEnd
  0
BLOCK
  5
1648
330
163E
100
AcDbEntity
  8
0
100
AcDbBlockBegin
  2
*D23
 70
     1
 10
0.0
 20
0.0
 30
0.0
  3
*D23
  1

  0
LINE
  5
16D2
330
163E
100
AcDbEntity
  8
AM_5
100
AcDbLine
 10
493.6855536058983
 20
821.5241272269233
 30
0.0
 11
493.6855536058983
 21
852.0578339774134
 31
0.0
  0
LINE
  5
16D3
330
163E
100
AcDbEntity
  8
AM_5
100
AcDbLine
 10
688.6855536058983
 20
821.5241272269233
 30
0.0
 11
688.6855536058983
 21
852.0578339774134
 31
0.0
  0
LINE
  5
16D4
330
163E
100
AcDbEntity
  8
AM_5
100
AcDbLine
 10
497.1855536058983
 20
851.0578339774134
 30
0.0
 11
685.1855536058983
 21
851.0578339774134
 31
0.0
  0
SOLID
  5
16D5
330
163E
100
AcDbEntity
  8
AM_5
100
AcDbTrace
 10
497.1855536058983
 20
851.6411673107468
 30
0.0
 11
497.1855536058983
 21
850.4745006440801
 31
0.0
 12
493.6855536058983
 22
851.0578339774134
 32
0.0
 13
493.6855536058983
 23
851.0578339774134
 33
0.0
  0
SOLID
  5
16D6
330
163E
100
AcDbEntity
  8
AM_5
100
AcDbTrace
 10
685.1855536058983
 20
851.6411673107468
 30
0.0
 11
685.1855536058983
 21
850.4745006440801
 31
0.0
 12
688.6855536058983
 22
851.0578339774134
 32
0.0
 13
688.6855536058983
 23
851.0578339774134
 33
0.0
  0
MTEXT
  5
16D7
330
163E
100
AcDbEntity
  8
AM_5
100
AcDbMText
 10
591.1855536058983
 20
853.9836798556979
 30
0.0
 40
3.5
 41
0.0
 71
     5
 72
     1
  1
(195)
 73
     1
 44
1.0
1001
ACAD
1000
MTEXTBEGIN
1070
    73
1070
     1
1070
    44
1040
1.0
1070
    74
1070
     0
1000
MTEXTEND
  0
POINT
  5
16D8
330
163E
100
AcDbEntity
  8
Defpoints
 62
     0
100
AcDbPoint
 10
493.6855536058983
 20
820.5241272269232
 30
0.0
  0
POINT
  5
16D9
330
163E
100
AcDbEntity
  8
Defpoints
 62
     0
100
AcDbPoint
 10
688.6855536058983
 20
820.5241272269232
 30
0.0
  0
POINT
  5
16DA
330
163E
100
AcDbEntity
  8
Defpoints
 62
     0
100
AcDbPoint
 10
688.6855536058983
 20
851.0578339774134
 30
0.0
  0
ENDBLK
  5
1649
330
163E
100
AcDbEntity
  8
0
100
AcDbBlockEnd
  0
BLOCK
  5
1654
330
164A
100
AcDbEntity
  8
0
100
AcDbBlockBegin
  2
*D24
 70
     1
 10
0.0
 20
0.0
 30
0.0
  3
*D24
  1

  0
LINE
  5
16DB
330
164A
100
AcDbEntity
  8
AM_5
100
AcDbLine
 10
688.6855536058983
 20
776.5241272269232
 30
0.0
 11
703.6855546058982
 21
776.5241272269232
 31
0.0
  0
LINE
  5
16DC
330
164A
100
AcDbEntity
  8
AM_5
100
AcDbLine
 10
688.6855536058983
 20
821.5241272269233
 30
0.0
 11
703.6855546058982
 21
821.5241272269233
 31
0.0
  0
LINE
  5
16DD
330
164A
100
AcDbEntity
  8
AM_5
100
AcDbLine
 10
702.6855546058982
 20
780.0241272269232
 30
0.0
 11
702.6855546058982
 21
818.0241272269233
 31
0.0
  0
SOLID
  5
16DE
330
164A
100
AcDbEntity
  8
AM_5
100
AcDbTrace
 10
702.1022212725648
 20
780.0241272269232
 30
0.0
 11
703.2688879392316
 21
780.0241272269232
 31
0.0
 12
702.6855546058982
 22
776.5241272269232
 32
0.0
 13
702.6855546058982
 23
776.5241272269232
 33
0.0
  0
SOLID
  5
16DF
330
164A
100
AcDbEntity
  8
AM_5
100
AcDbTrace
 10
702.1022212725648
 20
818.0241272269233
 30
0.0
 11
703.2688879392316
 21
818.0241272269233
 31
0.0
 12
702.6855546058982
 22
821.5241272269233
 32
0.0
 13
702.6855546058982
 23
821.5241272269233
 33
0.0
  0
MTEXT
  5
16E0
330
164A
100
AcDbEntity
  8
AM_5
100
AcDbMText
 10
699.9355546058979
 20
799.0241272269233
 30
0.0
 40
3.5
 41
0.0
 71
     5
 72
     1
  1
%%c45
 11
0.0000000000000001
 21
1.0
 31
0.0
 73
     1
 44
1.0
1001
ACAD
1000
MTEXTBEGIN
1070
    73
1070
     1
1070
    44
1040
1.0
1070
    74
1070
     0
1000
MTEXTEND
  0
POINT
  5
16E1
330
164A
100
AcDbEntity
  8
Defpoints
 62
     0
100
AcDbPoint
 10
687.6855536058983
 20
776.5241272269232
 30
0.0
  0
POINT
  5
16E2
330
164A
100
AcDbEntity
  8
Defpoints
 62
     0
100
AcDbPoint
 10
687.6855536058983
 20
821.5241272269233
 30
0.0
  0
POINT
  5
16E3
330
164A
100
AcDbEntity
  8
Defpoints
 62
     0
100
AcDbPoint
 10
702.6855546058982
 20
821.5241272269233
 30
0.0
  0
ENDBLK
  5
1655
330
164A
100
AcDbEntity
  8
0
100
AcDbBlockEnd
  0
BLOCK
  5
183E
330
1837
100
AcDbEntity
  8
0
100
AcDbBlockBegin
  2
*D33
 70
     1
 10
0.0
 20
0.0
 30
0.0
  3
*D33
  1

  0
LINE
  5
1A1E
330
1837
100
AcDbEntity
  8
AM_5
100
AcDbLine
 10
573.103142856369
 20
559.0506430333048
 30
0.0
 11
609.047120537633
 21
574.8520720326332
 31
0.0
  0
MTEXT
  5
1A1F
330
1837
100
AcDbEntity
  8
AM_5
100
AcDbMText
 10
580.9229109926029
 20
568.4970675559363
 30
0.0
 40
7.0
 41
0.0
 71
     5
 72
     1
  1
\U+2205122
 11
0.9154456844595767
 21
0.4024415470653313
 31
0.0
 73
     1
 44
1.0
1001
ACAD
1000
MTEXTBEGIN
1070
    73
1070
     1
1070
    44
1040
1.0
1070
    74
1070
     0
1000
MTEXTEND
  0
SOLID
  5
1A20
330
1837
100
AcDbEntity
  8
AM_5
100
AcDbTrace
 10
608.57760539939
 20
575.9200919978361
 30
0.0
 11
609.5166356758758
 21
573.7840520674303
 31
0.0
 12
615.4552403288501
 22
577.6691628620906
 32
0.0
 13
615.4552403288501
 23
577.6691628620906
 33
0.0
  0
POINT
  5
1A21
330
1837
100
AcDbEntity
  8
Defpoints
 62
     0
100
AcDbPoint
 10
615.4552403288501
 20
577.6691628620906
 30
0.0
  0
POINT
  5
1A22
330
1837
100
AcDbEntity
  8
Defpoints
 62
     0
100
AcDbPoint
 10
503.7708668247809
 20
528.5712941201198
 30
0.0
  0
ENDBLK
  5
183F
330
1837
100
AcDbEntity
  8
0
100
AcDbBlockEnd
  0
BLOCK
  5
184A
330
1840
100
AcDbEntity
  8
0
100
AcDbBlockBegin
  2
*D34
 70
     1
 10
0.0
 20
0.0
 30
0.0
  3
*D34
  1

  0
LINE
  5
19E6
330
1840
100
AcDbEntity
  8
AM_5
100
AcDbLine
 10
467.6130535768156
 20
428.2898236068799
 30
0.0
 11
467.6130535768156
 21
383.28982360688
 31
0.0
  0
LINE
  5
19E7
330
1840
100
AcDbEntity
  8
AM_5
100
AcDbLine
 10
651.6130535768156
 20
428.2898236068799
 30
0.0
 11
651.6130535768156
 21
383.28982360688
 31
0.0
  0
LINE
  5
19E8
330
1840
100
AcDbEntity
  8
AM_5
100
AcDbLine
 10
474.6130535768156
 20
385.28982360688
 30
0.0
 11
644.6130535768157
 21
385.28982360688
 31
0.0
  0
SOLID
  5
19E9
330
1840
100
AcDbEntity
  8
AM_5
100
AcDbTrace
 10
474.6130535768156
 20
386.4564902735466
 30
0.0
 11
474.6130535768156
 21
384.1231569402133
 31
0.0
 12
467.6130535768156
 22
385.28982360688
 32
0.0
 13
467.6130535768156
 23
385.28982360688
 33
0.0
  0
SOLID
  5
19EA
330
1840
100
AcDbEntity
  8
AM_5
100
AcDbTrace
 10
644.6130535768157
 20
386.4564902735466
 30
0.0
 11
644.6130535768157
 21
384.1231569402133
 31
0.0
 12
651.6130535768156
 22
385.28982360688
 32
0.0
 13
651.6130535768156
 23
385.28982360688
 33
0.0
  0
MTEXT
  5
19EB
330
1840
100
AcDbEntity
  8
AM_5
100
AcDbMText
 10
561.1717273851268
 20
390.78982360688
 30
0.0
 40
7.0
 41
0.0
 71
     5
 72
     1
  1
184
 73
     1
 44
1.0
1001
ACAD
1000
MTEXTBEGIN
1070
    73
1070
     1
1070
    44
1040
1.0
1070
    74
1070
     0
1000
MTEXTEND
  0
POINT
  5
19EC
330
1840
100
AcDbEntity
  8
Defpoints
 62
     0
100
AcDbPoint
 10
467.6130535768156
 20
430.2898236068799
 30
0.0
  0
POINT
  5
19ED
330
1840
100
AcDbEntity
  8
Defpoints
 62
     0
100
AcDbPoint
 10
651.6130535768156
 20
430.2898236068799
 30
0.0
  0
POINT
  5
19EE
330
1840
100
AcDbEntity
  8
Defpoints
 62
     0
100
AcDbPoint
 10
651.6130535768156
 20
385.28982360688
 30
0.0
  0
ENDBLK
  5
184B
330
1840
100
AcDbEntity
  8
0
100
AcDbBlockEnd
  0
BLOCK
  5
1858
330
184C
100
AcDbEntity
  8
0
100
AcDbBlockBegin
  2
*D35
 70
     1
 10
0.0
 20
0.0
 30
0.0
  3
*D35
  1

  0
LINE
  5
19F8
330
184C
100
AcDbEntity
  8
AM_5
100
AcDbLine
 10
653.6130535768156
 20
430.2898236068799
 30
0.0
 11
689.8747116115615
 21
430.2898236068799
 31
0.0
  0
LINE
  5
19F9
330
184C
100
AcDbEntity
  8
AM_5
100
AcDbLine
 10
653.6130535768156
 20
462.2898236068797
 30
0.0
 11
689.8747116115615
 21
462.2898236068797
 31
0.0
  0
LINE
  5
19FA
330
184C
100
AcDbEntity
  8
AM_5
100
AcDbLine
 10
687.8747116115615
 20
437.2898236068799
 30
0.0
 11
687.8747116115615
 21
455.2898236068797
 31
0.0
  0
SOLID
  5
19FB
330
184C
100
AcDbEntity
  8
AM_5
100
AcDbTrace
 10
686.7080449448949
 20
437.2898236068799
 30
0.0
 11
689.0413782782282
 21
437.2898236068799
 31
0.0
 12
687.8747116115615
 22
430.2898236068799
 32
0.0
 13
687.8747116115615
 23
430.2898236068799
 33
0.0
  0
SOLID
  5
19FC
330
184C
100
AcDbEntity
  8
AM_5
100
AcDbTrace
 10
686.7080449448949
 20
455.2898236068797
 30
0.0
 11
689.0413782782282
 21
455.2898236068797
 31
0.0
 12
687.8747116115615
 22
462.2898236068797
 32
0.0
 13
687.8747116115615
 23
462.2898236068797
 33
0.0
  0
MTEXT
  5
19FD
330
184C
100
AcDbEntity
  8
AM_5
100
AcDbMText
 10
682.3740226351834
 20
446.28982360688
 30
0.0
 40
7.0
 41
0.0
 71
     5
 72
     1
  1
32
 11
0.0000000000000001
 21
1.0
 31
0.0
 73
     1
 44
1.0
1001
ACAD
1000
MTEXTBEGIN
1070
    73
1070
     1
1070
    44
1040
1.0
1070
    74
1070
     0
1000
MTEXTEND
  0
POINT
  5
19FE
330
184C
100
AcDbEntity
  8
Defpoints
 62
     0
100
AcDbPoint
 10
651.6130535768156
 20
430.2898236068799
 30
0.0
  0
POINT
  5
19FF
330
184C
100
AcDbEntity
  8
Defpoints
 62
     0
100
AcDbPoint
 10
651.6130535768156
 20
462.2898236068797
 30
0.0
  0
POINT
  5
1A00
330
184C
100
AcDbEntity
  8
Defpoints
 62
     0
100
AcDbPoint
 10
687.8747116115615
 20
462.2898236068797
 30
0.0
  0
ENDBLK
  5
1859
330
184C
100
AcDbEntity
  8
0
100
AcDbBlockEnd
  0
BLOCK
  5
1864
330
185A
100
AcDbEntity
  8
0
100
AcDbBlockBegin
  2
*D36
 70
     1
 10
0.0
 20
0.0
 30
0.0
  3
*D36
  1

  0
LINE
  5
1A01
330
185A
100
AcDbEntity
  8
AM_5
100
AcDbLine
 10
627.1130535768157
 20
553.1202284911041
 30
0.0
 11
689.8747116115615
 21
553.1202284911041
 31
0.0
  0
LINE
  5
1A02
330
185A
100
AcDbEntity
  8
AM_5
100
AcDbLine
 10
653.6130535768156
 20
492.1202284911041
 30
0.0
 11
689.8747116115615
 21
492.1202284911041
 31
0.0
  0
LINE
  5
1A03
330
185A
100
AcDbEntity
  8
AM_5
100
AcDbLine
 10
687.8747116115614
 20
546.1202284911041
 30
0.0
 11
687.8747116115614
 21
499.1202284911041
 31
0.0
  0
SOLID
  5
1A04
330
185A
100
AcDbEntity
  8
AM_5
100
AcDbTrace
 10
686.7080449448948
 20
546.1202284911041
 30
0.0
 11
689.0413782782281
 21
546.1202284911041
 31
0.0
 12
687.8747116115614
 22
553.1202284911041
 32
0.0
 13
687.8747116115614
 23
553.1202284911041
 33
0.0
  0
SOLID
  5
1A05
330
185A
100
AcDbEntity
  8
AM_5
100
AcDbTrace
 10
686.7080449448948
 20
499.1202284911041
 30
0.0
 11
689.0413782782281
 21
499.1202284911041
 31
0.0
 12
687.8747116115614
 22
492.1202284911041
 32
0.0
 13
687.8747116115614
 23
492.1202284911041
 33
0.0
  0
MTEXT
  5
1A06
330
185A
100
AcDbEntity
  8
AM_5
100
AcDbMText
 10
682.3747116115613
 20
522.6202284911042
 30
0.0
 40
7.0
 41
0.0
 71
     5
 72
     1
  1
61
 11
0.0000000000000001
 21
1.0
 31
0.0
 73
     1
 44
1.0
1001
ACAD
1000
MTEXTBEGIN
1070
    73
1070
     1
1070
    44
1040
1.0
1070
    74
1070
     0
1000
MTEXTEND
  0
POINT
  5
1A07
330
185A
100
AcDbEntity
  8
Defpoints
 62
     0
100
AcDbPoint
 10
625.1130535768156
 20
553.1202284911041
 30
0.0
  0
POINT
  5
1A08
330
185A
100
AcDbEntity
  8
Defpoints
 62
     0
100
AcDbPoint
 10
651.6130535768156
 20
492.1202284911041
 30
0.0
  0
POINT
  5
1A09
330
185A
100
AcDbEntity
  8
Defpoints
 62
     0
100
AcDbPoint
 10
687.8747116115614
 20
492.1202284911041
 30
0.0
  0
ENDBLK
  5
1865
330
185A
100
AcDbEntity
  8
0
100
AcDbBlockEnd
  0
BLOCK
  5
1872
330
1866
100
AcDbEntity
  8
0
100
AcDbBlockBegin
  2
*D37
 70
     1
 10
0.0
 20
0.0
 30
0.0
  3
*D37
  1

  0
LINE
  5
1A0A
330
1866
100
AcDbEntity
  8
AM_5
100
AcDbLine
 10
653.6130535768156
 20
492.1202284911041
 30
0.0
 11
671.8747116115614
 21
492.1202284911041
 31
0.0
  0
LINE
  5
1A0B
330
1866
100
AcDbEntity
  8
AM_5
100
AcDbLine
 10
653.6130535768156
 20
493.6202284911042
 30
0.0
 11
671.8747116115614
 21
493.6202284911042
 31
0.0
  0
LINE
  5
1A0C
330
1866
100
AcDbEntity
  8
AM_5
100
AcDbLine
 10
669.8747116115614
 20
485.1202284911042
 30
0.0
 11
669.8747116115614
 21
478.1202284911041
 31
0.0
  0
LINE
  5
1A0D
330
1866
100
AcDbEntity
  8
AM_5
100
AcDbLine
 10
669.8747116115614
 20
500.6202284911041
 30
0.0
 11
669.8747116115614
 21
515.0183977824427
 31
0.0
  0
LINE
  5
1A0E
330
1866
100
AcDbEntity
  8
AM_5
100
AcDbLine
 10
669.8747116115614
 20
492.1202284911041
 30
0.0
 11
669.8747116115614
 21
493.6202284911042
 31
0.0
  0
SOLID
  5
1A0F
330
1866
100
AcDbEntity
  8
AM_5
100
AcDbTrace
 10
668.7080449448948
 20
485.1202284911042
 30
0.0
 11
671.041378278228
 21
485.1202284911042
 31
0.0
 12
669.8747116115614
 22
492.1202284911041
 32
0.0
 13
669.8747116115614
 23
492.1202284911041
 33
0.0
  0
SOLID
  5
1A10
330
1866
100
AcDbEntity
  8
AM_5
100
AcDbTrace
 10
668.7080449448948
 20
500.6202284911041
 30
0.0
 11
671.041378278228
 21
500.6202284911041
 31
0.0
 12
669.8747116115614
 22
493.6202284911042
 32
0.0
 13
669.8747116115614
 23
493.6202284911042
 33
0.0
  0
MTEXT
  5
1A11
330
1866
100
AcDbEntity
  8
AM_5
100
AcDbMText
 10
664.3740226351833
 20
511.3193131367736
 30
0.0
 40
7.0
 41
0.0
 71
     5
 72
     1
  1
2
 11
0.0000000000000001
 21
1.0
 31
0.0
 73
     1
 44
1.0
1001
ACAD
1000
MTEXTBEGIN
1070
    73
1070
     1
1070
    44
1040
1.0
1070
    74
1070
     0
1000
MTEXTEND
  0
POINT
  5
1A12
330
1866
100
AcDbEntity
  8
Defpoints
 62
     0
100
AcDbPoint
 10
651.6130535768156
 20
492.1202284911041
 30
0.0
  0
POINT
  5
1A13
330
1866
100
AcDbEntity
  8
Defpoints
 62
     0
100
AcDbPoint
 10
651.6130535768156
 20
493.6202284911042
 30
0.0
  0
POINT
  5
1A14
330
1866
100
AcDbEntity
  8
Defpoints
 62
     0
100
AcDbPoint
 10
669.8747116115614
 20
493.6202284911042
 30
0.0
  0
ENDBLK
  5
1873
330
1866
100
AcDbEntity
  8
0
100
AcDbBlockEnd
  0
BLOCK
  5
187E
330
1874
100
AcDbEntity
  8
0
100
AcDbBlockBegin
  2
*D38
 70
     1
 10
0.0
 20
0.0
 30
0.0
  3
*D38
  1

  0
LINE
  5
1A15
330
1874
100
AcDbEntity
  8
AM_5
100
AcDbLine
 10
653.6130535768156
 20
492.1202284911041
 30
0.0
 11
713.5679219545496
 21
492.1202284911041
 31
0.0
  0
LINE
  5
1A16
330
1874
100
AcDbEntity
  8
AM_5
100
AcDbLine
 10
561.6130535768157
 20
615.6202284911041
 30
0.0
 11
713.5679219545496
 21
615.6202284911041
 31
0.0
  0
LINE
  5
1A17
330
1874
100
AcDbEntity
  8
AM_5
100
AcDbLine
 10
711.5679219545496
 20
499.1202284911041
 30
0.0
 11
711.5679219545496
 21
608.6202284911041
 31
0.0
  0
SOLID
  5
1A18
330
1874
100
AcDbEntity
  8
AM_5
100
AcDbTrace
 10
710.401255287883
 20
499.1202284911041
 30
0.0
 11
712.7345886212163
 21
499.1202284911041
 31
0.0
 12
711.5679219545496
 22
492.1202284911041
 32
0.0
 13
711.5679219545496
 23
492.1202284911041
 33
0.0
  0
SOLID
  5
1A19
330
1874
100
AcDbEntity
  8
AM_5
100
AcDbTrace
 10
710.401255287883
 20
608.6202284911041
 30
0.0
 11
712.7345886212163
 21
608.6202284911041
 31
0.0
 12
711.5679219545496
 22
615.6202284911041
 32
0.0
 13
711.5679219545496
 23
615.6202284911041
 33
0.0
  0
MTEXT
  5
1A1A
330
1874
100
AcDbEntity
  8
AM_5
100
AcDbMText
 10
706.0672329781715
 20
554.3937607909542
 30
0.0
 40
7.0
 41
0.0
 71
     5
 72
     1
  1
124
 11
0.0000000000000001
 21
1.0
 31
0.0
 73
     1
 44
1.0
1001
ACAD
1000
MTEXTBEGIN
1070
    73
1070
     1
1070
    44
1040
1.0
1070
    74
1070
     0
1000
MTEXTEND
  0
POINT
  5
1A1B
330
1874
100
AcDbEntity
  8
Defpoints
 62
     0
100
AcDbPoint
 10
651.6130535768156
 20
492.1202284911041
 30
0.0
  0
POINT
  5
1A1C
330
1874
100
AcDbEntity
  8
Defpoints
 62
     0
100
AcDbPoint
 10
559.6130535768156
 20
615.6202284911041
 30
0.0
  0
POINT
  5
1A1D
330
1874
100
AcDbEntity
  8
Defpoints
 62
     0
100
AcDbPoint
 10
711.5679219545496
 20
615.6202284911041
 30
0.0
  0
ENDBLK
  5
187F
330
1874
100
AcDbEntity
  8
0
100
AcDbBlockEnd
  0
BLOCK
  5
188A
330
1880
100
AcDbEntity
  8
0
100
AcDbBlockBegin
  2
*D39
 70
     1
 10
0.0
 20
0.0
 30
0.0
  3
*D39
  1

  0
LINE
  5
19EF
330
1880
100
AcDbEntity
  8
AM_5
100
AcDbLine
 10
479.6130535768156
 20
436.7898236068799
 30
0.0
 11
479.6130535768156
 21
401.2898236068799
 31
0.0
  0
LINE
  5
19F0
330
1880
100
AcDbEntity
  8
AM_5
100
AcDbLine
 10
639.6130535768157
 20
436.7898236068799
 30
0.0
 11
639.6130535768157
 21
401.2898236068799
 31
0.0
  0
LINE
  5
19F1
330
1880
100
AcDbEntity
  8
AM_5
100
AcDbLine
 10
486.6130535768157
 20
403.2898236068799
 30
0.0
 11
632.6130535768156
 21
403.2898236068799
 31
0.0
  0
SOLID
  5
19F2
330
1880
100
AcDbEntity
  8
AM_5
100
AcDbTrace
 10
486.6130535768157
 20
404.4564902735466
 30
0.0
 11
486.6130535768157
 21
402.1231569402132
 31
0.0
 12
479.6130535768156
 22
403.2898236068799
 32
0.0
 13
479.6130535768156
 23
403.2898236068799
 33
0.0
  0
SOLID
  5
19F3
330
1880
100
AcDbEntity
  8
AM_5
100
AcDbTrace
 10
632.6130535768156
 20
404.4564902735466
 30
0.0
 11
632.6130535768156
 21
402.1231569402132
 31
0.0
 12
639.6130535768157
 22
403.2898236068799
 32
0.0
 13
639.6130535768157
 23
403.2898236068799
 33
0.0
  0
MTEXT
  5
19F4
330
1880
100
AcDbEntity
  8
AM_5
100
AcDbMText
 10
559.6130535768156
 20
408.78982360688
 30
0.0
 40
7.0
 41
0.0
 71
     5
 72
     1
  1
160
 73
     1
 44
1.0
1001
ACAD
1000
MTEXTBEGIN
1070
    73
1070
     1
1070
    44
1040
1.0
1070
    74
1070
     0
1000
MTEXTEND
  0
POINT
  5
19F5
330
1880
100
AcDbEntity
  8
Defpoints
 62
     0
100
AcDbPoint
 10
479.6130535768156
 20
438.7898236068799
 30
0.0
  0
POINT
  5
19F6
330
1880
100
AcDbEntity
  8
Defpoints
 62
     0
100
AcDbPoint
 10
639.6130535768157
 20
438.7898236068799
 30
0.0
  0
POINT
  5
19F7
330
1880
100
AcDbEntity
  8
Defpoints
 62
     0
100
AcDbPoint
 10
639.6130535768157
 20
403.2898236068799
 30
0.0
  0
ENDBLK
  5
188B
330
1880
100
AcDbEntity
  8
0
100
AcDbBlockEnd
  0
BLOCK
  5
1893
330
188C
100
AcDbEntity
  8
0
100
AcDbBlockBegin
  2
*D40
 70
     1
 10
0.0
 20
0.0
 30
0.0
  3
*D40
  1

  0
LINE
  5
1A23
330
188C
100
AcDbEntity
  8
AM_5
100
AcDbLine
 10
616.5361726066926
 20
488.6760813296254
 30
0.0
 11
633.6359665433786
 21
457.2681855336301
 31
0.0
  0
LINE
  5
1A24
330
188C
100
AcDbEntity
  8
AM_5
100
AcDbLine
 10
645.5901406102539
 20
435.3114616801273
 30
0.0
 11
648.9373093489787
 21
429.1635790011472
 31
0.0
  0
MTEXT
  5
1A25
330
188C
100
AcDbEntity
  8
AM_5
100
AcDbMText
 10
625.0007207707924
 20
484.6311555728736
 30
0.0
 40
7.0
 41
0.0
 71
     5
 72
     1
  1
\U+220511
 11
0.4781669626749686
 21
-0.8782689541400149
 31
0.0
 73
     1
 44
1.0
1001
ACAD
1000
MTEXTBEGIN
1070
    73
1070
     1
1070
    44
1040
1.0
1070
    74
1070
     0
1000
MTEXTEND
  0
LINE
  5
1A26
330
188C
100
AcDbEntity
  8
AM_5
100
AcDbLine
 10
642.2429718715292
 20
441.4593443591074
 30
0.0
 11
636.9831352821034
 21
451.12030285465
 31
0.0
  0
SOLID
  5
1A27
330
188C
100
AcDbEntity
  8
AM_5
100
AcDbTrace
 10
646.6147877234172
 20
435.8693231365814
 30
0.0
 11
644.5654934970906
 21
434.7536002236732
 31
0.0
 12
642.2429718715292
 22
441.4593443591074
 32
0.0
 13
642.2429718715292
 23
441.4593443591074
 33
0.0
  0
SOLID
  5
1A28
330
188C
100
AcDbEntity
  8
AM_5
100
AcDbTrace
 10
634.6606136565419
 20
457.8260469900842
 30
0.0
 11
632.6113194302153
 21
456.710324077176
 31
0.0
 12
636.9831352821034
 22
451.12030285465
 32
0.0
 13
636.9831352821034
 23
451.12030285465
 33
0.0
  0
POINT
  5
1A29
330
188C
100
AcDbEntity
  8
Defpoints
 62
     0
100
AcDbPoint
 10
636.9831352821034
 20
451.12030285465
 30
0.0
  0
POINT
  5
1A2A
330
188C
100
AcDbEntity
  8
Defpoints
 62
     0
100
AcDbPoint
 10
642.2429718715292
 20
441.4593443591074
 30
0.0
  0
ENDBLK
  5
1894
330
188C
100
AcDbEntity
  8
0
100
AcDbBlockEnd
  0
ENDSEC
  0
SECTION
  2
ENTITIES
  0
LINE
  5
135B
330
1F
100
AcDbEntity
  8
AM_7
100
AcDbLine
 10
241.0984785655774
 20
152.2855407344049
 30
0.0
 11
241.0984785655774
 21
345.8049708564154
 31
0.0
  0
LINE
  5
135C
330
1F
100
AcDbEntity
  8
AM_7
100
AcDbLine
 10
262.0984785655774
 20
321.8862907344054
 30
0.0
 11
262.0984785655774
 21
305.286290734405
 31
0.0
  0
LINE
  5
135D
330
1F
100
AcDbEntity
  8
AM_7
100
AcDbLine
 10
308.0984785655774
 20
621.2855407344047
 30
0.0
 11
287.0984785655774
 21
621.2855407344047
 31
0.0
  0
LINE
  5
135E
102
{ACAD_REACTORS
330
140A
102
}
330
1F
100
AcDbEntity
  8
AM_7
100
AcDbLine
 10
174.0984785655773
 20
621.2855407344047
 30
0.0
 11
195.0984785655773
 21
621.2855407344047
 31
0.0
  0
DIMENSION
  5
135F
330
1F
100
AcDbEntity
  8
AM_5
100
AcDbDimension
  2
*D8
 10
352.5038531642487
 20
641.2855407344047
 30
0.0
 11
352.5038531642485
 21
695.3017465413593
 31
0.0
 70
   160
 71
     5
 42
15.0
  3
AM_ISO$0
100
AcDbAlignedDimension
 13
266.0984785655774
 23
656.2855407344048
 33
0.0
 14
306.0984785655774
 24
641.2855407344047
 34
0.0
 50
90.0
100
AcDbRotatedDimension
1001
ACAD
1000
DSTYLE
1002
{
1070
    40
1040
2.0
1070
   271
1070
     0
1002
}
  0
DIMENSION
  5
1360
330
1F
100
AcDbEntity
  8
AM_5
100
AcDbDimension
  2
*D9
 10
352.5038531642485
 20
551.2855407344049
 30
0.0
 11
347.0038531642485
 21
596.285540734405
 31
0.0
 70
    32
 71
     5
 42
89.99999999999989
  3
AM_ISO$0
100
AcDbAlignedDimension
 13
306.0984785655774
 23
641.2855407344047
 33
0.0
 14
306.0984785655774
 24
551.2855407344049
 34
0.0
 50
90.0
100
AcDbRotatedDimension
1001
ACAD
1000
DSTYLE
1002
{
1070
    40
1040
2.0
1070
   271
1070
     0
1002
}
  0
DIMENSION
  5
1361
330
1F
100
AcDbEntity
  8
AM_5
100
AcDbDimension
  2
*D10
 10
380.7200914844226
 20
155.285540734405
 30
0.0
 11
380.7200914844225
 21
404.9523011531822
 31
0.0
 70
   160
  1
(<>)
 71
     5
 42
500.9999999999998
  3
AM_ISO$0
100
AcDbAlignedDimension
 13
266.0984785655774
 23
656.2855407344048
 33
0.0
 14
245.8384785655771
 24
155.285540734405
 34
0.0
 50
90.0
100
AcDbRotatedDimension
1001
ACAD
1000
DSTYLE
1002
{
1070
    40
1040
2.0
1070
   271
1070
     0
1002
}
  0
DIMENSION
  5
1362
330
1F
100
AcDbEntity
  8
AM_5
100
AcDbDimension
  2
*D11
 10
352.5038531642485
 20
551.2855407344049
 30
0.0
 11
347.0031641878705
 21
442.2855407344051
 31
0.0
 70
    32
 71
     5
 42
217.9999999999998
  3
AM_ISO$0
100
AcDbAlignedDimension
 13
261.0984785655773
 23
333.2855407344051
 33
0.0
 14
306.0984785655774
 24
551.2855407344049
 34
0.0
 50
90.0
100
AcDbRotatedDimension
1001
ACAD
1000
DSTYLE
1002
{
1070
    40
1040
2.0
1070
   271
1070
     0
1002
}
  0
DIMENSION
  5
1363
330
1F
100
AcDbEntity
  8
AM_5
100
AcDbDimension
  2
*D12
 10
352.5038531642486
 20
155.285540734405
 30
0.0
 11
352.5038531642485
 21
237.5092011891163
 31
0.0
 70
   160
 71
     5
 42
167.9999999999997
  3
AM_ISO$0
100
AcDbAlignedDimension
 13
256.0984785655774
 23
323.2855407344048
 33
0.0
 14
245.8384785655771
 24
155.285540734405
 34
0.0
 50
90.0
100
AcDbRotatedDimension
1001
ACAD
1000
DSTYLE
1002
{
1070
    40
1040
2.0
1070
   271
1070
     0
1002
}
  0
DIMENSION
  5
1364
330
1F
100
AcDbEntity
  8
AM_5
100
AcDbDimension
  2
*D13
 10
306.0984785655774
 20
676.793308626962
 30
0.0
 11
241.0984785655774
 21
682.293308626962
 31
0.0
 70
    32
  1
%%c<>
 71
     5
 42
130.0
  3
AM_ISO$0
100
AcDbAlignedDimension
 13
176.0984785655773
 23
641.2855407344047
 33
0.0
 14
306.0984785655774
 24
641.2855407344047
 34
0.0
100
AcDbRotatedDimension
1001
ACAD
1000
DSTYLE
1002
{
1070
    40
1040
2.0
1070
   271
1070
     0
1002
}
  0
DIMENSION
  5
1365
330
1F
100
AcDbEntity
  8
AM_5
100
AcDbDimension
  2
*D14
 10
301.0984785655773
 20
566.5114672649582
 30
0.0
 11
241.0984785655774
 21
566.5114672649582
 31
0.0
 70
   160
  1
%%c<>
 71
     5
 42
120.0
  3
AM_ISO$0
100
AcDbAlignedDimension
 13
181.0984785655773
 23
551.2855407344049
 33
0.0
 14
301.0984785655773
 24
551.2855407344049
 34
0.0
100
AcDbRotatedDimension
1001
ACAD
1000
DSTYLE
1002
{
1070
    40
1040
2.0
1070
   271
1070
     0
1002
}
  0
DIMENSION
  5
1366
330
1F
100
AcDbEntity
  8
AM_5
100
AcDbDimension
  2
*D15
 10
282.0984785655774
 20
267.756925509906
 30
0.0
 11
167.6780651797505
 21
267.756925509906
 31
0.0
 70
   160
  1
%%c<>
 71
     5
 42
82.0
  3
AM_ISO$0
100
AcDbAlignedDimension
 13
200.0984785655774
 23
280.2855407344051
 33
0.0
 14
282.0984785655774
 24
280.2855407344051
 34
0.0
100
AcDbRotatedDimension
1001
ACAD
1000
DSTYLE
1002
{
1070
    40
1040
2.0
1070
   271
1070
     0
1002
}
  0
LINE
  5
1367
330
1F
100
AcDbEntity
  8
AM_7
100
AcDbLine
 10
241.0984785655774
 20
787.8448698002268
 30
0.0
 11
241.0984785655774
 21
787.8448698002268
 31
0.0
  0
LINE
  5
1368
330
1F
100
AcDbEntity
  8
AM_7
100
AcDbLine
 10
241.0984785655774
 20
787.8448698002268
 30
0.0
 11
241.0984785655774
 21
787.8448698002268
 31
0.0
  0
LINE
  5
1369
330
1F
100
AcDbEntity
  8
AM_7
100
AcDbLine
 10
173.0984785655773
 20
787.8448698002268
 30
0.0
 11
309.0984785655773
 21
787.8448698002268
 31
0.0
  0
LINE
  5
136A
330
1F
100
AcDbEntity
  8
AM_7
100
AcDbLine
 10
241.0984785655774
 20
719.8448698002269
 30
0.0
 11
241.0984785655774
 21
855.8448698002269
 31
0.0
  0
ARC
  5
136B
330
1F
100
AcDbEntity
  8
AM_VIS
100
AcDbCircle
 10
223.0984785655774
 20
197.2855407328913
 30
0.0
 40
7.0
100
AcDbArc
 50
180.0000000123892
 51
0.0000000123892019
  0
LINE
  5
136C
330
1F
100
AcDbEntity
  8
AM_VIS
100
AcDbLine
 10
252.0984785655774
 20
198.2855407344049
 30
0.0
 11
252.0984785655774
 21
197.2855407344049
 31
0.0
  0
LINE
  5
136D
330
1F
100
AcDbEntity
  8
AM_VIS
100
AcDbLine
 10
252.0984785655774
 20
198.2855407344049
 30
0.0
 11
252.0984785655774
 21
265.2855407344048
 31
0.0
  0
ARC
  5
136E
330
1F
100
AcDbEntity
  8
AM_VIS
100
AcDbCircle
 10
259.0984785655773
 20
265.2854458933167
 30
0.0
 40
7.000000000642487
100
AcDbArc
 50
0.0007762843666646
 51
179.9992237151252
  0
ARC
  5
136F
330
1F
100
AcDbEntity
  8
AM_VIS
100
AcDbCircle
 10
259.0984785655773
 20
197.2855407338962
 30
0.0
 40
7.0
100
AcDbArc
 50
180.0000000041623
 51
0.0000000041623029
  0
LINE
  5
1370
330
1F
100
AcDbEntity
  8
AM_VIS
100
AcDbLine
 10
266.0984785655774
 20
265.2855407344048
 30
0.0
 11
266.0984785655774
 21
198.2855407344049
 31
0.0
  0
LINE
  5
1371
330
1F
100
AcDbEntity
  8
AM_VIS
100
AcDbLine
 10
266.0984785655774
 20
198.2855407344049
 30
0.0
 11
266.0984785655774
 21
197.2855407344049
 31
0.0
  0
ARC
  5
1372
330
1F
100
AcDbEntity
  8
AM_VIS
100
AcDbCircle
 10
223.0984785655774
 20
265.2854457176098
 30
0.0
 40
7.000000000644757
100
AcDbArc
 50
0.0007777228884951
 51
179.999222276877
  0
LINE
  5
1373
330
1F
100
AcDbEntity
  8
AM_VIS
100
AcDbLine
 10
216.0984785655774
 20
198.2855407344049
 30
0.0
 11
216.0984785655774
 21
197.2855407344049
 31
0.0
  0
LINE
  5
1374
330
1F
100
AcDbEntity
  8
AM_VIS
100
AcDbLine
 10
216.0984785655774
 20
198.2855407344049
 30
0.0
 11
216.0984785655774
 21
265.2855407344048
 31
0.0
  0
LINE
  5
1375
330
1F
100
AcDbEntity
  8
AM_VIS
100
AcDbLine
 10
230.0984785655773
 20
265.2855407344048
 30
0.0
 11
230.0984785655773
 21
198.2855407344049
 31
0.0
  0
LINE
  5
1376
330
1F
100
AcDbEntity
  8
AM_VIS
100
AcDbLine
 10
230.0984785655773
 20
198.2855407344049
 30
0.0
 11
230.0984785655773
 21
197.2855407344049
 31
0.0
  0
LINE
  5
1377
330
1F
100
AcDbEntity
  8
AM_VIS
100
AcDbLine
 10
281.0984785655774
 20
280.2855407344048
 30
0.0
 11
281.0984785655774
 21
295.2855407344048
 31
0.0
  0
LINE
  5
1378
330
1F
100
AcDbEntity
  8
AM_VIS
100
AcDbLine
 10
201.0984785655773
 20
295.2855407344048
 30
0.0
 11
201.0984785655773
 21
280.2855407344048
 31
0.0
  0
LINE
  5
1379
330
1F
100
AcDbEntity
  8
AM_VIS
100
AcDbLine
 10
232.0984785655773
 20
290.2855407344048
 30
0.0
 11
232.0984785655773
 21
295.2855407344048
 31
0.0
  0
LINE
  5
137A
330
1F
100
AcDbEntity
  8
AM_VIS
100
AcDbLine
 10
232.0984785655773
 20
295.2855407344048
 30
0.0
 11
250.0984785655774
 21
295.2855407344048
 31
0.0
  0
LINE
  5
137B
330
1F
100
AcDbEntity
  8
AM_VIS
100
AcDbLine
 10
250.0984785655774
 20
295.2855407344048
 30
0.0
 11
250.0984785655774
 21
290.2855407344048
 31
0.0
  0
LINE
  5
137C
330
1F
100
AcDbEntity
  8
AM_VIS
100
AcDbLine
 10
232.0984785655773
 20
290.2855407344048
 30
0.0
 11
241.0984785655774
 21
293.2855407344048
 31
0.0
  0
LINE
  5
137D
330
1F
100
AcDbEntity
  8
AM_VIS
100
AcDbLine
 10
241.0984785655774
 20
293.2855407344048
 30
0.0
 11
250.0984785655774
 21
290.2855407344048
 31
0.0
  0
LINE
  5
137E
330
1F
100
AcDbEntity
  8
AM_VIS
100
AcDbLine
 10
232.0984785655773
 20
280.2855407344048
 30
0.0
 11
232.0984785655773
 21
290.2855407344048
 31
0.0
  0
LINE
  5
137F
330
1F
100
AcDbEntity
  8
AM_VIS
100
AcDbLine
 10
250.0984785655774
 20
290.2855407344048
 30
0.0
 11
232.0984785655773
 21
290.2855407344048
 31
0.0
  0
LINE
  5
1380
330
1F
100
AcDbEntity
  8
AM_VIS
100
AcDbLine
 10
250.0984785655774
 20
290.2855407344048
 30
0.0
 11
250.0984785655774
 21
280.2855407344048
 31
0.0
  0
LINE
  5
1381
330
1F
100
AcDbEntity
  8
AM_VIS
100
AcDbLine
 10
226.0984787622228
 20
323.2855407344048
 30
0.0
 11
226.0984787622228
 21
321.9457951308967
 31
0.0
  0
LINE
  5
1382
330
1F
100
AcDbEntity
  8
AM_VIS
100
AcDbLine
 10
204.4108908881581
 20
290.2855407344048
 30
0.0
 11
204.4108908881581
 21
280.2855407344048
 31
0.0
  0
LINE
  5
1383
330
1F
100
AcDbEntity
  8
AM_VIS
100
AcDbLine
 10
201.6016432493134
 20
280.2855407344048
 30
0.0
 11
201.6016432493134
 21
290.2855407344048
 31
0.0
  0
LINE
  5
1384
330
1F
100
AcDbEntity
  8
AM_VIS
100
AcDbLine
 10
228.0990195525819
 20
290.2855407344048
 30
0.0
 11
228.0990195525819
 21
280.2855407344048
 31
0.0
  0
LINE
  5
1385
330
1F
100
AcDbEntity
  8
AM_VIS
100
AcDbLine
 10
220.9481730710913
 20
280.2855407344048
 30
0.0
 11
220.9481730710913
 21
290.2855407344048
 31
0.0
  0
LINE
  5
1386
330
1F
100
AcDbEntity
  8
AM_VIS
100
AcDbLine
 10
259.4020550033047
 20
290.2855407344048
 30
0.0
 11
259.4020550033047
 21
280.2855407344048
 31
0.0
  0
LINE
  5
1387
330
1F
100
AcDbEntity
  8
AM_VIS
100
AcDbLine
 10
252.0984785655774
 20
280.2855407344048
 30
0.0
 11
252.0984785655774
 21
290.2855407344048
 31
0.0
  0
LINE
  5
1388
330
1F
100
AcDbEntity
  8
AM_VIS
100
AcDbLine
 10
279.9831036167388
 20
290.2855407344048
 30
0.0
 11
279.9831036167388
 21
280.2855407344048
 31
0.0
  0
LINE
  5
1389
330
1F
100
AcDbEntity
  8
AM_VIS
100
AcDbLine
 10
276.8051332461664
 20
280.2855407344048
 30
0.0
 11
276.8051332461664
 21
290.2855407344048
 31
0.0
  0
LINE
  5
138A
330
1F
100
AcDbEntity
  8
AM_VIS
100
AcDbLine
 10
206.8745518895876
 20
280.2855407344048
 30
0.0
 11
206.8745518895876
 21
290.2855407344048
 31
0.0
  0
LINE
  5
138B
330
1F
100
AcDbEntity
  8
AM_VIS
100
AcDbLine
 10
210.3536972679985
 20
290.2855407344048
 30
0.0
 11
210.3536972679985
 21
280.2855407344048
 31
0.0
  0
LINE
  5
138C
330
1F
100
AcDbEntity
  8
AM_VIS
100
AcDbLine
 10
213.8840724636693
 20
280.2855407344048
 30
0.0
 11
213.8840724636693
 21
290.2855407344048
 31
0.0
  0
LINE
  5
138D
330
1F
100
AcDbEntity
  8
AM_VIS
100
AcDbLine
 10
218.4217325250675
 20
290.2855407344048
 30
0.0
 11
218.4217325250675
 21
280.2855407344048
 31
0.0
  0
LINE
  5
138E
330
1F
100
AcDbEntity
  8
AM_VIS
100
AcDbLine
 10
263.6755209510748
 20
280.2855407344048
 30
0.0
 11
263.6755209510748
 21
290.2855407344048
 31
0.0
  0
LINE
  5
138F
330
1F
100
AcDbEntity
  8
AM_VIS
100
AcDbLine
 10
268.2233458088294
 20
290.2855407344048
 30
0.0
 11
268.2233458088294
 21
280.2855407344048
 31
0.0
  0
LINE
  5
1390
330
1F
100
AcDbEntity
  8
AM_VIS
100
AcDbLine
 10
271.7640309088902
 20
280.2855407344048
 30
0.0
 11
271.7640309088902
 21
290.2855407344048
 31
0.0
  0
LINE
  5
1391
330
1F
100
AcDbEntity
  8
AM_VIS
100
AcDbLine
 10
275.2564233078219
 20
290.2855407344048
 30
0.0
 11
275.2564233078219
 21
280.2855407344048
 31
0.0
  0
LINE
  5
1392
330
1F
100
AcDbEntity
  8
AM_VIS
100
AcDbLine
 10
256.0984785983501
 20
323.2855407344048
 30
0.0
 11
256.0984785983501
 21
321.945794868703
 31
0.0
  0
SPLINE
  5
1393
330
1F
100
AcDbEntity
  8
AM_VIS
100
AcDbSpline
210
0.0
220
0.0000000000001697
230
1.0
 70
    12
 71
     2
 72
     6
 73
     3
 74
     0
 42
0.0000000001
 43
0.0000000001
 40
13.59864481359987
 40
13.59864481359987
 40
13.59864481359987
 40
23.01938164714779
 40
23.01938164714779
 40
23.01938164714779
 10
248.5984783689318
 20
323.2855407344048
 30
0.0
 41
1.0
 10
245.1177163303587
 20
323.2855407344047
 30
0.0
 41
1.055507143872967
 10
241.0984785655769
 20
321.9457950216487
 30
0.0000000000002274
 41
1.034106889696072
  0
SPLINE
  5
1394
330
1F
100
AcDbEntity
  8
AM_VIS
100
AcDbSpline
210
0.0
220
0.0
230
1.0
 70
    12
 71
     2
 72
     6
 73
     3
 74
     0
 42
0.0000000001
 43
0.0000000001
 40
4.177907453215747
 40
4.177907453215747
 40
4.177907453215747
 40
13.59864481359987
 40
13.59864481359987
 40
13.59864481359987
 10
256.0984786311246
 20
321.9457948687028
 30
0.0
 41
1.034106887302553
 10
252.0792405919249
 20
323.2855407344051
 30
0.0
 41
1.05550714697712
 10
248.5984783689318
 20
323.2855407344048
 30
0.0
 41
1.0
  0
LINE
  5
1395
330
1F
100
AcDbEntity
  8
AM_VIS
100
AcDbLine
 10
256.0984786311246
 20
309.286290734405
 30
0.0
 11
256.0984786311246
 21
321.945794868703
 31
0.0
  0
LINE
  5
1396
330
1F
100
AcDbEntity
  8
AM_VIS
100
AcDbLine
 10
226.0984787622228
 20
309.286290734405
 30
0.0
 11
226.0984787622228
 21
321.9457951308967
 31
0.0
  0
SPLINE
  5
1397
330
1F
100
AcDbEntity
  8
AM_VIS
100
AcDbSpline
210
0.0
220
-0.0000000000001697
230
1.0
 70
    12
 71
     2
 72
     6
 73
     3
 74
     0
 42
0.0000000001
 43
0.0000000001
 40
13.59864512279584
 40
13.59864512279584
 40
13.59864512279584
 40
23.01938221340325
 40
23.01938221340325
 40
23.01938221340325
 10
233.5984785000282
 20
323.2855407344048
 30
0.0
 41
1.0
 10
230.117715985526
 20
323.2855407344049
 30
0.0
 41
1.055507317645056
 10
226.0984787622231
 20
321.9457951308964
 30
-0.0000000000002274
 41
1.034106996122101
  0
SPLINE
  5
1398
330
1F
100
AcDbEntity
  8
AM_VIS
100
AcDbSpline
210
0.0
220
0.0
230
1.0
 70
    12
 71
     2
 72
     6
 73
     3
 74
     0
 42
0.0000000001
 43
0.0000000001
 40
4.177907655876841
 40
4.177907655876841
 40
4.177907655876841
 40
13.59864512279584
 40
13.59864512279584
 40
13.59864512279584
 10
241.0984785655778
 20
321.9457950216491
 30
0.0
 41
1.034106994412429
 10
237.079241146258
 20
323.2855407344048
 30
0.0
 41
1.055507319862299
 10
233.5984785000282
 20
323.2855407344048
 30
0.0
 41
1.0
  0
LINE
  5
1399
330
1F
100
AcDbEntity
  8
AM_VIS
100
AcDbLine
 10
241.0984785655774
 20
309.286290734405
 30
0.0
 11
241.0984785655774
 21
321.9457950216491
 31
0.0
  0
ARC
  5
139A
330
1F
100
AcDbEntity
  8
AM_VIS
100
AcDbCircle
 10
225.0984787622229
 20
309.286290734405
 30
0.0
 40
1.0
100
AcDbArc
 50
270.0
 51
0.0
  0
ARC
  5
139B
330
1F
100
AcDbEntity
  8
AM_VIS
100
AcDbCircle
 10
257.0984786311246
 20
309.286290734405
 30
0.0
 40
0.9999999999999998
100
AcDbArc
 50
180.0
 51
270.0
  0
LINE
  5
139C
330
1F
100
AcDbEntity
  8
AM_VIS
100
AcDbLine
 10
247.0984785655773
 20
165.2855407344049
 30
0.0
 11
247.0984785655773
 21
167.3855407344048
 31
0.0
  0
LINE
  5
139D
330
1F
100
AcDbEntity
  8
AM_VIS
100
AcDbLine
 10
235.0984785655774
 20
165.2855407344049
 30
0.0
 11
235.0984785655774
 21
167.3855407344048
 31
0.0
  0
LINE
  5
139E
330
1F
100
AcDbEntity
  8
AM_VIS
100
AcDbLine
 10
245.8384785655771
 20
155.2855407344049
 30
0.0
 11
245.8384785655771
 21
165.2855407344049
 31
0.0
  0
LINE
  5
139F
330
1F
100
AcDbEntity
  8
AM_VIS
100
AcDbLine
 10
236.3584785655776
 20
155.2855407344049
 30
0.0
 11
236.3584785655776
 21
165.2855407344049
 31
0.0
  0
LINE
  5
13A0
330
1F
100
AcDbEntity
  8
AM_VIS
100
AcDbLine
 10
215.0984785655774
 20
308.286290734405
 30
0.0
 11
201.0984785655773
 21
299.2855407344048
 31
0.0
  0
LINE
  5
13A1
330
1F
100
AcDbEntity
  8
AM_VIS
100
AcDbLine
 10
267.0984785655774
 20
308.286290734405
 30
0.0
 11
281.0984785655774
 21
299.2855407344048
 31
0.0
  0
LINE
  5
13A2
330
1F
100
AcDbEntity
  8
AM_VIS
100
AcDbLine
 10
281.0984785655774
 20
297.2855407344053
 30
0.0
 11
281.0984785655774
 21
299.2855407344048
 31
0.0
  0
LINE
  5
13A3
330
1F
100
AcDbEntity
  8
AM_VIS
100
AcDbLine
 10
201.0984785655773
 20
297.2855407344053
 30
0.0
 11
201.0984785655773
 21
299.2855407344048
 31
0.0
  0
LINE
  5
13A4
330
1F
100
AcDbEntity
  8
AM_VIS
100
AcDbLine
 10
276.1523371869998
 20
295.2855407344048
 30
0.0
 11
276.1523371869998
 21
297.2855407344048
 31
0.0
  0
LINE
  5
13A5
330
1F
100
AcDbEntity
  8
AM_VIS
100
AcDbLine
 10
206.0446199441549
 20
295.2855407344048
 30
0.0
 11
206.0446199441549
 21
297.2855407344048
 31
0.0
  0
LINE
  5
13A6
330
1F
100
AcDbEntity
  8
AM_VIS
100
AcDbLine
 10
272.9981422377159
 20
277.5833913163672
 30
0.0
 11
282.0984785655774
 21
279.3389630984196
 31
0.0
  0
LINE
  5
13A7
330
1F
100
AcDbEntity
  8
AM_VIS
100
AcDbLine
 10
209.1988148934388
 20
277.5833913163672
 30
0.0
 11
200.0984785655774
 21
279.3389630984196
 31
0.0
  0
LINE
  5
13A8
330
1F
100
AcDbEntity
  8
AM_VIS
100
AcDbLine
 10
250.998478565577
 20
171.2855407344049
 30
0.0
 11
251.3871735655766
 21
172.362966734405
 31
0.0
  0
LINE
  5
13A9
330
1F
100
AcDbEntity
  8
AM_VIS
100
AcDbLine
 10
231.1984785655759
 20
171.2855407344049
 30
0.0
 11
230.8097835655762
 21
172.362966734405
 31
0.0
  0
LINE
  5
13AA
330
1F
100
AcDbEntity
  8
AM_VIS
100
AcDbLine
 10
250.998478565577
 20
167.3855407344048
 30
0.0
 11
250.998478565577
 21
171.2855407344049
 31
0.0
  0
LINE
  5
13AB
330
1F
100
AcDbEntity
  8
AM_VIS
100
AcDbLine
 10
231.1984785655759
 20
167.3855407344048
 30
0.0
 11
231.1984785655759
 21
171.2855407344049
 31
0.0
  0
LINE
  5
13AC
330
1F
100
AcDbEntity
  8
AM_VIS
100
AcDbLine
 10
272.9981422377159
 20
198.2855407344049
 30
0.0
 11
272.9981422377159
 21
277.5833913163672
 31
0.0
  0
LINE
  5
13AD
330
1F
100
AcDbEntity
  8
AM_VIS
100
AcDbLine
 10
209.198814893437
 20
198.2855407344049
 30
0.0
 11
209.198814893437
 21
277.5833913163672
 31
0.0
  0
LINE
  5
13AE
330
1F
100
AcDbEntity
  8
AM_VIS
100
AcDbLine
 10
282.0984785655774
 20
279.3389630984196
 30
0.0
 11
282.0984785655774
 21
280.2855407344048
 31
0.0
  0
LINE
  5
13AF
330
1F
100
AcDbEntity
  8
AM_VIS
100
AcDbLine
 10
200.0984785655774
 20
279.3389630984196
 30
0.0
 11
200.0984785655774
 21
280.2855407344048
 31
0.0
  0
LINE
  5
13B0
330
1F
100
AcDbEntity
  8
AM_VIS
100
AcDbLine
 10
258.5984785655774
 20
309.786290734405
 30
0.0
 11
258.5984785655774
 21
308.286290734405
 31
0.0
  0
LINE
  5
13B1
330
1F
100
AcDbEntity
  8
AM_VIS
100
AcDbLine
 10
265.5984785655773
 20
309.786290734405
 30
0.0
 11
265.5984785655773
 21
308.286290734405
 31
0.0
  0
LINE
  5
13B2
330
1F
100
AcDbEntity
  8
AM_VIS
100
AcDbLine
 10
260.5625805655773
 20
312.3862907344054
 30
0.0
 11
260.5625805655773
 21
309.786290734405
 31
0.0
  0
LINE
  5
13B3
330
1F
100
AcDbEntity
  8
AM_VIS
100
AcDbLine
 10
263.6343765655774
 20
312.3862907344054
 30
0.0
 11
263.6343765655774
 21
309.786290734405
 31
0.0
  0
LINE
  5
13B4
330
1F
100
AcDbEntity
  8
AM_VIS
100
AcDbLine
 10
259.5984785655773
 20
319.3862907344053
 30
0.0
 11
259.0984785655773
 21
318.8862907344053
 31
0.0
  0
LINE
  5
13B5
330
1F
100
AcDbEntity
  8
AM_VIS
100
AcDbLine
 10
264.5984785655774
 20
319.3862907344053
 30
0.0
 11
265.0984785655774
 21
318.8862907344053
 31
0.0
  0
LINE
  5
13B6
330
1F
100
AcDbEntity
  8
AM_VIS
100
AcDbLine
 10
259.0984785655773
 20
318.8862907344053
 30
0.0
 11
259.0984785655773
 21
312.8862907344053
 31
0.0
  0
LINE
  5
13B7
330
1F
100
AcDbEntity
  8
AM_VIS
100
AcDbLine
 10
265.0984785655774
 20
318.8862907344053
 30
0.0
 11
265.0984785655774
 21
312.8862907344053
 31
0.0
  0
LINE
  5
13B8
330
1F
100
AcDbEntity
  8
AM_VIS
100
AcDbLine
 10
264.5984785655774
 20
312.3862907344054
 30
0.0
 11
265.0984785655774
 21
312.8862907344053
 31
0.0
  0
LINE
  5
13B9
330
1F
100
AcDbEntity
  8
AM_VIS
100
AcDbLine
 10
259.5984785655773
 20
312.3862907344054
 30
0.0
 11
259.0984785655773
 21
312.8862907344053
 31
0.0
  0
LINE
  5
13BA
330
1F
100
AcDbEntity
  8
AM_VIS
100
AcDbLine
 10
247.0984785655773
 20
165.2855407344049
 30
0.0
 11
235.0984785655774
 21
165.2855407344049
 31
0.0
  0
LINE
  5
13BB
330
1F
100
AcDbEntity
  8
AM_VIS
100
AcDbLine
 10
245.8384785655771
 20
155.2855407344049
 30
0.0
 11
236.3584785655776
 21
155.2855407344049
 31
0.0
  0
LINE
  5
13BC
330
1F
100
AcDbEntity
  8
AM_VIS
100
AcDbLine
 10
281.0984785655774
 20
299.2855407344048
 30
0.0
 11
201.0984785655773
 21
299.2855407344048
 31
0.0
  0
LINE
  5
13BD
330
1F
100
AcDbEntity
  8
AM_VIS
100
AcDbLine
 10
281.0984785655774
 20
297.2855407344053
 30
0.0
 11
201.0984785655773
 21
297.2855407344053
 31
0.0
  0
LINE
  5
13BE
330
1F
100
AcDbEntity
  8
AM_VIS
100
AcDbLine
 10
250.998478565577
 20
171.2855407344049
 30
0.0
 11
231.1984785655759
 21
171.2855407344049
 31
0.0
  0
LINE
  5
13BF
330
1F
100
AcDbEntity
  8
AM_VIS
100
AcDbLine
 10
250.998478565577
 20
167.3855407344048
 30
0.0
 11
231.1984785655759
 21
167.3855407344048
 31
0.0
  0
LINE
  5
13C0
330
1F
100
AcDbEntity
  8
AM_VIS
100
AcDbLine
 10
272.9981422377159
 20
277.5833913163672
 30
0.0
 11
209.1988148934388
 21
277.5833913163672
 31
0.0
  0
LINE
  5
13C1
330
1F
100
AcDbEntity
  8
AM_VIS
100
AcDbLine
 10
258.0984785655774
 20
172.362966734405
 30
0.0
 11
224.0984785655773
 21
172.362966734405
 31
0.0
  0
LINE
  5
13C2
330
1F
100
AcDbEntity
  8
AM_VIS
100
AcDbLine
 10
282.0984785655774
 20
279.3389630984196
 30
0.0
 11
200.0984785655774
 21
279.3389630984196
 31
0.0
  0
LINE
  5
13C3
330
1F
100
AcDbEntity
  8
AM_VIS
100
AcDbLine
 10
232.0984785655773
 20
295.2855407344048
 30
0.0
 11
201.0984785655773
 21
295.2855407344048
 31
0.0
  0
LINE
  5
13C4
330
1F
100
AcDbEntity
  8
AM_VIS
100
AcDbLine
 10
232.0984785655773
 20
280.2855407344048
 30
0.0
 11
250.0984785655774
 21
280.2855407344048
 31
0.0
  0
LINE
  5
13C5
330
1F
100
AcDbEntity
  8
AM_VIS
100
AcDbLine
 10
281.0984785655774
 20
295.2855407344048
 30
0.0
 11
250.0984785655774
 21
295.2855407344048
 31
0.0
  0
LINE
  5
13C6
330
1F
100
AcDbEntity
  8
AM_VIS
100
AcDbLine
 10
281.0984785655774
 20
280.2855407344048
 30
0.0
 11
282.0984785655774
 21
280.2855407344048
 31
0.0
  0
LINE
  5
13C7
330
1F
100
AcDbEntity
  8
AM_VIS
100
AcDbLine
 10
200.0984785655774
 20
280.2855407344048
 30
0.0
 11
201.0984785655773
 21
280.2855407344048
 31
0.0
  0
LINE
  5
13C8
330
1F
100
AcDbEntity
  8
AM_VIS
100
AcDbLine
 10
256.0984785655774
 20
323.2855407344048
 30
0.0
 11
248.5984783689318
 21
323.2855407344048
 31
0.0
  0
LINE
  5
13C9
330
1F
100
AcDbEntity
  8
AM_VIS
100
AcDbLine
 10
248.5984783689318
 20
323.2855407344048
 30
0.0
 11
233.5984783689319
 21
323.2855407344048
 31
0.0
  0
LINE
  5
13CA
330
1F
100
AcDbEntity
  8
AM_VIS
100
AcDbLine
 10
233.5984783689319
 20
323.2855407344048
 30
0.0
 11
226.0984785655773
 21
323.2855407344048
 31
0.0
  0
LINE
  5
13CB
330
1F
100
AcDbEntity
  8
AM_VIS
100
AcDbLine
 10
201.6016432493134
 20
280.2855407344048
 30
0.0
 11
204.4108908881581
 21
280.2855407344048
 31
0.0
  0
LINE
  5
13CC
330
1F
100
AcDbEntity
  8
AM_VIS
100
AcDbLine
 10
204.4108908881581
 20
290.2855407344048
 30
0.0
 11
201.6016432493134
 21
290.2855407344048
 31
0.0
  0
LINE
  5
13CD
330
1F
100
AcDbEntity
  8
AM_VIS
100
AcDbLine
 10
220.9481730710913
 20
280.2855407344048
 30
0.0
 11
228.0990195525819
 21
280.2855407344048
 31
0.0
  0
LINE
  5
13CE
330
1F
100
AcDbEntity
  8
AM_VIS
100
AcDbLine
 10
228.0990195525819
 20
290.2855407344048
 30
0.0
 11
220.9481730710913
 21
290.2855407344048
 31
0.0
  0
LINE
  5
13CF
330
1F
100
AcDbEntity
  8
AM_VIS
100
AcDbLine
 10
252.0984785655774
 20
280.2855407344048
 30
0.0
 11
259.4020550033047
 21
280.2855407344048
 31
0.0
  0
LINE
  5
13D0
330
1F
100
AcDbEntity
  8
AM_VIS
100
AcDbLine
 10
259.4020550033047
 20
290.2855407344048
 30
0.0
 11
252.0984785655774
 21
290.2855407344048
 31
0.0
  0
LINE
  5
13D1
330
1F
100
AcDbEntity
  8
AM_VIS
100
AcDbLine
 10
276.8051332461664
 20
280.2855407344048
 30
0.0
 11
279.9831036167388
 21
280.2855407344048
 31
0.0
  0
LINE
  5
13D2
330
1F
100
AcDbEntity
  8
AM_VIS
100
AcDbLine
 10
279.9831036167388
 20
290.2855407344048
 30
0.0
 11
276.8051332461664
 21
290.2855407344048
 31
0.0
  0
LINE
  5
13D3
330
1F
100
AcDbEntity
  8
AM_VIS
100
AcDbLine
 10
210.3536972679985
 20
290.2855407344048
 30
0.0
 11
206.8745518895876
 21
290.2855407344048
 31
0.0
  0
LINE
  5
13D4
330
1F
100
AcDbEntity
  8
AM_VIS
100
AcDbLine
 10
206.8745518895876
 20
280.2855407344048
 30
0.0
 11
210.3536972679985
 21
280.2855407344048
 31
0.0
  0
LINE
  5
13D5
330
1F
100
AcDbEntity
  8
AM_VIS
100
AcDbLine
 10
218.4217325250675
 20
290.2855407344048
 30
0.0
 11
213.8840724636693
 21
290.2855407344048
 31
0.0
  0
LINE
  5
13D6
330
1F
100
AcDbEntity
  8
AM_VIS
100
AcDbLine
 10
213.8840724636693
 20
280.2855407344048
 30
0.0
 11
218.4217325250675
 21
280.2855407344048
 31
0.0
  0
LINE
  5
13D7
330
1F
100
AcDbEntity
  8
AM_VIS
100
AcDbLine
 10
268.2233458088294
 20
290.2855407344048
 30
0.0
 11
263.6755209510748
 21
290.2855407344048
 31
0.0
  0
LINE
  5
13D8
330
1F
100
AcDbEntity
  8
AM_VIS
100
AcDbLine
 10
263.6755209510748
 20
280.2855407344048
 30
0.0
 11
268.2233458088294
 21
280.2855407344048
 31
0.0
  0
LINE
  5
13D9
330
1F
100
AcDbEntity
  8
AM_VIS
100
AcDbLine
 10
275.2564233078219
 20
290.2855407344048
 30
0.0
 11
271.7640309088902
 21
290.2855407344048
 31
0.0
  0
LINE
  5
13DA
330
1F
100
AcDbEntity
  8
AM_VIS
100
AcDbLine
 10
271.7640309088902
 20
280.2855407344048
 30
0.0
 11
275.2564233078219
 21
280.2855407344048
 31
0.0
  0
LINE
  5
13DB
330
1F
100
AcDbEntity
  8
AM_VIS
100
AcDbLine
 10
267.0984785655774
 20
308.286290734405
 30
0.0
 11
215.0984785655774
 21
308.286290734405
 31
0.0
  0
LINE
  5
13DC
330
1F
100
AcDbEntity
  8
AM_VIS
100
AcDbLine
 10
258.5984785655774
 20
309.786290734405
 30
0.0
 11
265.5984785655773
 21
309.786290734405
 31
0.0
  0
LINE
  5
13DD
330
1F
100
AcDbEntity
  8
AM_VIS
100
AcDbLine
 10
259.5984785655773
 20
319.3862907344053
 30
0.0
 11
264.5984785655774
 21
319.3862907344053
 31
0.0
  0
LINE
  5
13DE
330
1F
100
AcDbEntity
  8
AM_VIS
100
AcDbLine
 10
265.0984785655774
 20
318.8862907344053
 30
0.0
 11
259.0984785655773
 21
318.8862907344053
 31
0.0
  0
LINE
  5
13DF
330
1F
100
AcDbEntity
  8
AM_VIS
100
AcDbLine
 10
264.5984785655774
 20
312.3862907344054
 30
0.0
 11
259.5984785655773
 21
312.3862907344054
 31
0.0
  0
LINE
  5
13E0
330
1F
100
AcDbEntity
  8
AM_VIS
100
AcDbLine
 10
259.0984785655773
 20
312.8862907344053
 30
0.0
 11
265.0984785655774
 21
312.8862907344053
 31
0.0
  0
ARC
  5
13E1
330
1F
100
AcDbEntity
  8
AM_VIS
100
AcDbCircle
 10
239.1988148934388
 20
198.2855407344049
 30
0.0
 40
30.0
100
AcDbArc
 50
180.0
 51
239.7784789423079
  0
ARC
  5
13E2
330
1F
100
AcDbEntity
  8
AM_VIS
100
AcDbCircle
 10
242.9981422377159
 20
198.2855407344049
 30
0.0
 40
30.0
100
AcDbArc
 50
300.2215210576921
 51
0.0
  0
LINE
  5
13E3
330
1F
100
AcDbEntity
  8
AM_VIS
100
AcDbLine
 10
216.0984785655774
 20
656.2855407344048
 30
0.0
 11
216.0984785655774
 21
646.2855407344047
 31
0.0
  0
LINE
  5
13E4
330
1F
100
AcDbEntity
  8
AM_VIS
100
AcDbLine
 10
263.0984785655773
 20
656.2855407344048
 30
0.0
 11
219.0984785655774
 21
656.2855407344048
 31
0.0
  0
LINE
  5
13E5
330
1F
100
AcDbEntity
  8
AM_VIS
100
AcDbLine
 10
266.0984785655774
 20
646.2855407344047
 30
0.0
 11
266.0984785655774
 21
656.2855407344048
 31
0.0
  0
SPLINE
  5
13E6
330
1F
100
AcDbEntity
  8
AM_VIS
100
AcDbSpline
210
0.0
220
0.0
230
1.0
 70
     8
 71
     3
 72
    58
 73
    54
 74
     0
 42
0.0000000001
 43
0.0000000001
 40
0.0
 40
0.0
 40
0.0
 40
0.0
 40
1.711250053328894
 40
1.711250053328894
 40
3.42250010665779
 40
3.42250010665779
 40
4.894736261980033
 40
4.894736261980033
 40
6.366972417302276
 40
6.366972417302276
 40
8.682473294021379
 40
8.682473294021379
 40
10.82485389990395
 40
10.82485389990395
 40
12.87601887668259
 40
12.87601887668259
 40
14.87573258470266
 40
14.87573258470266
 40
16.86892230273893
 40
16.86892230273893
 40
18.90166332247292
 40
18.90166332247292
 40
21.01161882775863
 40
21.01161882775863
 40
23.18981336318567
 40
23.18981336318567
 40
25.41759052252916
 40
25.41759052252916
 40
27.67112180305376
 40
27.67112180305376
 40
29.92734599925993
 40
29.92734599925993
 40
32.18269977250175
 40
32.18269977250175
 40
34.44092810582394
 40
34.44092810582394
 40
36.70639559641532
 40
36.70639559641532
 40
38.97978666117417
 40
38.97978666117417
 40
41.25638993706018
 40
41.25638993706018
 40
43.53268484176925
 40
43.53268484176925
 40
45.80505959816224
 40
45.80505959816224
 40
48.06941572917399
 40
48.06941572917399
 40
50.3276701341945
 40
50.3276701341945
 40
52.58421688405716
 40
52.58421688405716
 40
53.02285262913095
 40
53.02285262913095
 40
53.02285262913095
 40
53.02285262913095
 10
306.0984785655774
 20
638.2855407344047
 30
0.0
 10
306.0984785655774
 20
638.2855407344047
 30
0.0
 10
306.0951247566018
 20
638.2731244053977
 30
0.0
 10
306.0806589757894
 20
638.2193873864086
 30
0.0
 10
306.0695722288847
 20
638.1781820353523
 30
0.0
 10
306.0386156417544
 20
638.0623573054925
 30
0.0
 10
306.0200706211372
 20
637.9927883245584
 30
0.0
 10
305.9712228455073
 20
637.8078147539542
 30
0.0
 10
305.9409975684839
 20
637.6927048106426
 30
0.0
 10
305.8474486520927
 20
637.3313880337721
 30
0.0
 10
305.7749370779793
 20
637.0474646686273
 30
0.0
 10
305.6107577327775
 20
636.3805553140216
 30
0.0
 10
305.5207417672436
 20
636.0058178382384
 30
0.0
 10
305.327809735435
 20
635.1638965462345
 30
0.0
 10
305.2256825853101
 20
634.7014293628896
 30
0.0
 10
305.0172568927274
 20
633.69926815973
 30
0.0
 10
304.9112094001857
 20
633.1619042026327
 30
0.0
 10
304.7030059223225
 20
632.0245927129815
 30
0.0
 10
304.6009175353929
 20
631.4249665662662
 30
0.0
 10
304.4076980126147
 20
630.1775889622965
 30
0.0
 10
304.3170672832266
 20
629.5309653622987
 30
0.0
 10
304.1514434068367
 20
628.195297891227
 30
0.0
 10
304.077037851951
 20
627.5047841523972
 30
0.0
 10
303.9488691488377
 20
626.0892576678416
 30
0.0
 10
303.8958357993424
 20
625.3638108089444
 30
0.0
 10
303.8146801174107
 20
623.8896797062552
 30
0.0
 10
303.7871420561796
 20
623.1407876582445
 30
0.0
 10
303.7596995957856
 20
621.6321486371259
 30
0.0
 10
303.7601333332123
 20
620.8718503585362
 30
0.0
 10
303.7893554522298
 20
619.3558424515038
 30
0.0
 10
303.8182012093866
 20
618.6005850232024
 30
0.0
 10
303.9021672063745
 20
617.1110401665539
 30
0.0
 10
303.957268389725
 20
616.3768136232268
 30
0.0
 10
304.0894960680644
 20
614.9428566310237
 30
0.0
 10
304.1666267123937
 20
614.2432219008703
 30
0.0
 10
304.3371310414595
 20
612.8905750282008
 30
0.0
 10
304.4305156466444
 20
612.2378102152226
 30
0.0
 10
304.6268373697412
 20
610.9894683044647
 30
0.0
 10
304.7298106293738
 20
610.3939804781678
 30
0.0
 10
304.9379407763181
 20
609.2710737730588
 30
0.0
 10
305.0430830032155
 20
608.7437764957023
 30
0.0
 10
305.2480374519191
 20
607.7671210115838
 30
0.0
 10
305.3478343933066
 20
607.3177630758855
 30
0.0
 10
305.535065193687
 20
606.5052635108943
 30
0.0
 10
305.6225321351749
 20
606.1418820029828
 30
0.0
 10
305.7788763909675
 20
605.5085531354482
 30
0.0
 10
305.847787781674
 20
605.238362326854
 30
0.0
 10
305.9622007159041
 20
604.796504490391
 30
0.0
 10
306.0077500348989
 20
604.6245951037983
 30
0.0
 10
306.0724293087414
 20
604.3819510351891
 30
0.0
 10
306.091579212397
 20
604.3111223352441
 30
0.0
 10
306.0979591091373
 20
604.287465945051
 30
0.0
 10
306.0984758991935
 20
604.2855428865857
 30
0.0
 10
306.0984785655774
 20
604.2855407344036
 30
0.0
  0
SPLINE
  5
13E7
330
1F
100
AcDbEntity
  8
AM_VIS
100
AcDbSpline
210
0.0
220
0.0
230
1.0
 70
     8
 71
     3
 72
    56
 73
    52
 74
     0
 42
0.0000000001
 43
0.0000000001
 40
53.02285262913134
 40
53.02285262913134
 40
53.02285262913134
 40
53.02285262913134
 40
54.84179289516799
 40
54.84179289516799
 40
57.09864486185125
 40
57.09864486185125
 40
59.35571466512236
 40
59.35571466512236
 40
61.61722527318048
 40
61.61722527318048
 40
63.88663400395147
 40
63.88663400395147
 40
66.16188682378496
 40
66.16188682378496
 40
68.43874476623451
 40
68.43874476623451
 40
70.71391574245139
 40
70.71391574245139
 40
72.98287430654557
 40
72.98287430654557
 40
75.24349832064899
 40
75.24349832064899
 40
77.49940072190771
 40
77.49940072190771
 40
79.75505626502737
 40
79.75505626502737
 40
82.01159191799233
 40
82.01159191799233
 40
84.25218866577116
 40
84.25218866577116
 40
86.45081603645342
 40
86.45081603645342
 40
88.58514337096281
 40
88.58514337096281
 40
90.63921784367225
 40
90.63921784367225
 40
92.63827913355335
 40
92.63827913355335
 40
94.63193049088173
 40
94.63193049088173
 40
96.66394466816486
 40
96.66394466816486
 40
98.77422740281954
 40
98.77422740281954
 40
100.9997232851987
 40
100.9997232851987
 40
102.2612187784646
 40
102.2612187784646
 40
103.5227142717305
 40
103.5227142717305
 40
106.0457052582624
 40
106.0457052582624
 40
106.0457052582624
 40
106.0457052582624
 10
176.0984785655773
 20
638.2855407344061
 30
0.0
 10
176.0984954411715
 20
638.2855266330345
 30
0.0
 10
176.1074411145173
 20
638.2524080622022
 30
0.0
 10
176.1471899418256
 20
638.1042632649789
 30
0.0
 10
176.1827432321251
 20
637.9714025972455
 30
0.0
 10
176.2784738805412
 20
637.6066163795297
 30
0.0
 10
176.3386437633589
 20
637.3746888050678
 30
0.0
 10
176.4793835711634
 20
636.8164186008428
 30
0.0
 10
176.5599723453024
 20
636.4899315849473
 30
0.0
 10
176.7359827317805
 20
635.7485698584225
 30
0.0
 10
176.8314418971231
 20
635.3334132050642
 30
0.0
 10
177.030722340337
 20
634.4213690199892
 30
0.0
 10
177.134551219845
 20
633.9242753408436
 30
0.0
 10
177.3432197020329
 20
632.857089995545
 30
0.0
 10
177.4480424408166
 20
632.2869664630768
 30
0.0
 10
177.6511557621024
 20
631.0836938038089
 30
0.0
 10
177.7494358107515
 20
630.4506162349041
 30
0.0
 10
177.9322720934678
 20
629.1322575716019
 30
0.0
 10
178.0168462068641
 20
628.447057997578
 30
0.0
 10
178.1657802650998
 20
627.0378375605348
 30
0.0
 10
178.2301861177884
 20
626.3140107378131
 30
0.0
 10
178.3339706742617
 20
624.8411862963942
 30
0.0
 10
178.3733859326557
 20
624.0923075614553
 30
0.0
 10
178.4243431428867
 20
622.5828161320276
 30
0.0
 10
178.4358919849101
 20
621.8223067971459
 30
0.0
 10
178.4303088423485
 20
620.3022080546995
 30
0.0
 10
178.4132140111296
 20
619.5422263657485
 30
0.0
 10
178.3511377716431
 20
618.0328909769002
 30
0.0
 10
178.3063463095141
 20
617.2834402202091
 30
0.0
 10
178.1915326421213
 20
615.8094366788361
 30
0.0
 10
178.121982070018
 20
615.08462769486
 30
0.0
 10
177.9624672291438
 20
613.6747071400978
 30
0.0
 10
177.8731400246388
 20
612.9890117070256
 30
0.0
 10
177.6807573256237
 20
611.6720144184721
 30
0.0
 10
177.5783484581598
 20
611.0402990177496
 30
0.0
 10
177.3696342282028
 20
609.8533844304163
 30
0.0
 10
177.2635906564401
 20
609.2967033250517
 30
0.0
 10
177.0555112423162
 20
608.2652813574729
 30
0.0
 10
176.9535432008479
 20
607.7904061004983
 30
0.0
 10
176.7603390955364
 20
606.926189583424
 30
0.0
 10
176.6694103514592
 20
606.5387247165934
 30
0.0
 10
176.5034217187376
 20
605.8505265251767
 30
0.0
 10
176.4287999141897
 20
605.5523954133234
 30
0.0
 10
176.3000795133967
 20
605.0468653512973
 30
0.0
 10
176.2477311052107
 20
604.8468275860996
 30
0.0
 10
176.1870769521747
 20
604.616769111685
 30
0.0
 10
176.1694922021752
 20
604.5506192501372
 30
0.0
 10
176.1412497850388
 20
604.4447006365974
 30
0.0
 10
176.1304744546769
 20
604.4045035198067
 30
0.0
 10
176.1055392462303
 20
604.3116268892466
 30
0.0
 10
176.0984785655773
 20
604.2855407344047
 30
0.0
 10
176.0984785655773
 20
604.2855407344047
 30
0.0
  0
LINE
  5
13E8
330
1F
100
AcDbEntity
  8
AM_VIS
100
AcDbLine
 10
221.0984785655774
 20
343.2855407344049
 30
0.0
 11
221.0984785655774
 21
333.2855407344049
 31
0.0
  0
LINE
  5
13E9
330
1F
100
AcDbEntity
  8
AM_VIS
100
AcDbLine
 10
224.0984785655773
 20
333.2855407344049
 30
0.0
 11
258.0984785655774
 21
333.2855407344049
 31
0.0
  0
LINE
  5
13EA
330
1F
100
AcDbEntity
  8
AM_VIS
100
AcDbLine
 10
261.0984785655773
 20
333.2855407344049
 30
0.0
 11
261.0984785655773
 21
343.2855407344049
 31
0.0
  0
LINE
  5
13EB
330
1F
100
AcDbEntity
  8
AM_VIS
100
AcDbLine
 10
181.0984785655773
 20
551.2855407344049
 30
0.0
 11
181.0984785655773
 21
343.2855407344049
 31
0.0
  0
LINE
  5
13EC
330
1F
100
AcDbEntity
  8
AM_VIS
100
AcDbLine
 10
301.0984785655773
 20
551.2855407344049
 30
0.0
 11
301.0984785655773
 21
343.2855407344049
 31
0.0
  0
LINE
  5
13ED
330
1F
100
AcDbEntity
  8
AM_VIS
100
AcDbLine
 10
291.0984785655774
 20
641.2855407344047
 30
0.0
 11
291.0984785655774
 21
646.2855407344047
 31
0.0
  0
LINE
  5
13EE
330
1F
100
AcDbEntity
  8
AM_VIS
100
AcDbLine
 10
191.0984785655773
 20
641.2855407344047
 30
0.0
 11
191.0984785655773
 21
646.2855407344047
 31
0.0
  0
LINE
  5
13EF
330
1F
100
AcDbEntity
  8
AM_VIS
100
AcDbLine
 10
176.0984785655773
 20
604.2855407344047
 30
0.0
 11
176.0984785655773
 21
551.2855407344049
 31
0.0
  0
LINE
  5
13F0
330
1F
100
AcDbEntity
  8
AM_VIS
100
AcDbLine
 10
176.0984785655773
 20
641.2855407344047
 30
0.0
 11
176.0984785655773
 21
638.2855407344061
 31
0.0
  0
LINE
  5
13F1
330
1F
100
AcDbEntity
  8
AM_VIS
100
AcDbLine
 10
306.0984785655774
 20
604.2855407344034
 30
0.0
 11
306.0984785655774
 21
551.2855407344049
 31
0.0
  0
LINE
  5
13F2
330
1F
100
AcDbEntity
  8
AM_VIS
100
AcDbLine
 10
306.0984785655774
 20
641.2855407344047
 30
0.0
 11
306.0984785655774
 21
638.2855407344047
 31
0.0
  0
LINE
  5
13F3
330
1F
100
AcDbEntity
  8
AM_VIS
100
AcDbLine
 10
233.5984785655774
 20
333.2855407344049
 30
0.0
 11
233.5984785655774
 21
323.2855407344048
 31
0.0
  0
LINE
  5
13F4
330
1F
100
AcDbEntity
  8
AM_VIS
100
AcDbLine
 10
248.5984785655773
 20
333.2855407344049
 30
0.0
 11
248.5984785655773
 21
323.2855407344048
 31
0.0
  0
LINE
  5
13F5
330
1F
100
AcDbEntity
  8
AM_VIS
100
AcDbLine
 10
301.0984785655773
 20
343.2855407344049
 30
0.0
 11
181.0984785655773
 21
343.2855407344049
 31
0.0
  0
LINE
  5
13F6
102
{ACAD_REACTORS
330
1419
102
}
330
1F
100
AcDbEntity
  8
AM_VIS
100
AcDbLine
 10
191.0984785655773
 20
646.2855407344047
 30
0.0
 11
291.0984785655774
 21
646.2855407344047
 31
0.0
  0
LINE
  5
13F7
102
{ACAD_REACTORS
330
1419
102
}
330
1F
100
AcDbEntity
  8
AM_VIS
100
AcDbLine
 10
263.0984785655773
 20
656.2855407344048
 30
0.0
 11
266.0984785655774
 21
656.2855407344048
 31
0.0
  0
LINE
  5
13F8
102
{ACAD_REACTORS
330
140A
102
}
330
1F
100
AcDbEntity
  8
AM_VIS
100
AcDbLine
 10
216.0984785655774
 20
656.2855407344048
 30
0.0
 11
219.0984785655774
 21
656.2855407344048
 31
0.0
  0
LINE
  5
13F9
330
1F
100
AcDbEntity
  8
AM_VIS
100
AcDbLine
 10
306.0984785655774
 20
641.2855407344047
 30
0.0
 11
176.0984785655773
 21
641.2855407344047
 31
0.0
  0
LINE
  5
13FA
330
1F
100
AcDbEntity
  8
AM_VIS
100
AcDbLine
 10
306.0984785655774
 20
551.2855407344049
 30
0.0
 11
176.0984785655773
 21
551.2855407344049
 31
0.0
  0
LINE
  5
13FB
330
1F
100
AcDbEntity
  8
AM_VIS
100
AcDbLine
 10
224.0984785655773
 20
333.2855407344049
 30
0.0
 11
221.0984785655774
 21
333.2855407344049
 31
0.0
  0
LINE
  5
13FC
330
1F
100
AcDbEntity
  8
AM_VIS
100
AcDbLine
 10
261.0984785655773
 20
333.2855407344049
 30
0.0
 11
258.0984785655774
 21
333.2855407344049
 31
0.0
  0
LINE
  5
13FD
102
{ACAD_REACTORS
330
1413
102
}
330
1F
100
AcDbEntity
  8
AM_VIS
100
AcDbLine
 10
263.0984785655773
 20
777.8448698002269
 30
0.0
 11
219.0984785655774
 21
777.8448698002269
 31
0.0
  0
LINE
  5
13FE
102
{ACAD_REACTORS
330
1416
102
}
330
1F
100
AcDbEntity
  8
AM_VIS
100
AcDbLine
 10
216.0984785655774
 20
780.8448698002268
 30
0.0
 11
216.0984785655774
 21
794.8448698002269
 31
0.0
  0
LINE
  5
13FF
102
{ACAD_REACTORS
330
1413
102
}
330
1F
100
AcDbEntity
  8
AM_VIS
100
AcDbLine
 10
219.0984785655774
 20
797.8448698002268
 30
0.0
 11
263.0984785655773
 21
797.8448698002268
 31
0.0
  0
LINE
  5
1400
102
{ACAD_REACTORS
330
1416
102
}
330
1F
100
AcDbEntity
  8
AM_VIS
100
AcDbLine
 10
266.0984785655774
 20
794.8448698002269
 30
0.0
 11
266.0984785655774
 21
780.8448698002268
 31
0.0
  0
CIRCLE
  5
1401
330
1F
100
AcDbEntity
  8
AM_VIS
100
AcDbCircle
 10
241.0984785655774
 20
787.8448698002268
 30
0.0
 40
50.0
  0
ARC
  5
1402
330
1F
100
AcDbEntity
  8
AM_VIS
100
AcDbCircle
 10
263.0984785655773
 20
780.8448698002268
 30
0.0
 40
2.999999999999999
100
AcDbArc
 50
270.0
 51
0.0
  0
ARC
  5
1403
330
1F
100
AcDbEntity
  8
AM_VIS
100
AcDbCircle
 10
219.0984785655774
 20
780.8448698002268
 30
0.0
 40
3.0
100
AcDbArc
 50
180.0
 51
270.0
  0
ARC
  5
1404
330
1F
100
AcDbEntity
  8
AM_VIS
100
AcDbCircle
 10
219.0984785655774
 20
794.8448698002269
 30
0.0
 40
3.0
100
AcDbArc
 50
90.0
 51
180.0
  0
ARC
  5
1405
330
1F
100
AcDbEntity
  8
AM_VIS
100
AcDbCircle
 10
263.0984785655773
 20
794.8448698002269
 30
0.0
 40
3.0
100
AcDbArc
 50
0.0
 51
90.0
  0
CIRCLE
  5
1406
330
1F
100
AcDbEntity
  8
AM_VIS
100
AcDbCircle
 10
241.0984785655774
 20
787.8448698002268
 30
0.0
 40
65.0
  0
DIMENSION
  5
1408
102
{ACAD_XDICTIONARY
360
1409
102
}
102
{ACAD_REACTORS
330
140A
102
}
330
1F
100
AcDbEntity
  8
AM_5
100
AcDbDimension
  2
*D16
 10
133.8461403481409
 20
621.2855407344047
 30
0.0
 11
133.8461403481408
 21
638.7855407344048
 31
0.0
 70
   160
 71
     5
 42
35.0
  3
AM_ISO$0
100
AcDbAlignedDimension
 13
216.0984785655774
 23
656.2855407344048
 33
0.0
 14
174.0984785655773
 24
621.2855407344047
 34
0.0
 50
90.0
100
AcDbRotatedDimension
1001
ACAD
1000
DSTYLE
1002
{
1070
    40
1040
2.0
1070
   271
1070
     0
1002
}
  0
LINE
  5
140B
330
1F
100
AcDbEntity
  8
AM_VIS
100
AcDbLine
 10
237.3584785655776
 20
155.2855407344049
 30
0.0
 11
237.3584785655776
 21
165.2855407344049
 31
0.0
  0
LINE
  5
140C
330
1F
100
AcDbEntity
  8
AM_VIS
100
AcDbLine
 10
244.8384785655771
 20
155.2855407344049
 30
0.0
 11
244.8384785655771
 21
165.2855407344049
 31
0.0
  0
MTEXT
  5
140D
330
1F
100
AcDbEntity
  8
0
100
AcDbMText
 10
144.7282935897756
 20
616.3882925253062
 30
0.0
 40
6.0
 41
28.90783782997869
 71
     1
 72
     5
  1
AIR IN
  7
Arial
 73
     1
 44
1.0
1001
ACAD
1000
MTEXTBEGIN
1070
    73
1070
     1
1070
    44
1040
1.0
1070
    74
1070
     0
1000
MTEXTEND
  0
INSERT
  5
140E
330
1F
100
AcDbEntity
  8
0
100
AcDbBlockReference
  2
A$C68EF195C
 10
149.6976763155116
 20
602.2546800314314
 30
0.0
  0
INSERT
  5
140F
330
1F
100
AcDbEntity
  8
0
100
AcDbBlockReference
  2
A$C68EF195C
 10
316.6718171283419
 20
602.4579066391136
 30
0.0
  0
MTEXT
  5
1410
330
1F
100
AcDbEntity
  8
0
100
AcDbMText
 10
307.5577052522886
 20
616.7947433660008
 30
0.0
 40
6.0
 41
53.03429105703049
 71
     1
 72
     5
  1
AIR OUT
  7
Arial
 73
     1
 44
1.0
1001
ACAD
1000
MTEXTBEGIN
1070
    73
1070
     1
1070
    44
1040
1.0
1070
    74
1070
     0
1000
MTEXTEND
  0
DIMENSION
  5
1411
102
{ACAD_XDICTIONARY
360
1412
102
}
102
{ACAD_REACTORS
330
1413
102
}
330
1F
100
AcDbEntity
  8
AM_5
100
AcDbDimension
  2
*D17
 10
343.6273058457161
 20
797.8448698002268
 30
0.0
 11
332.6259278929601
 21
837.7281375167624
 31
0.0
 70
    32
 71
     5
 42
20.0
  3
AM_ISO$0
100
AcDbAlignedDimension
 13
263.0984785655773
 23
777.8448698002269
 33
0.0
 14
263.0984785655773
 24
797.8448698002268
 34
0.0
 50
90.0
100
AcDbRotatedDimension
  0
DIMENSION
  5
1414
102
{ACAD_XDICTIONARY
360
1415
102
}
102
{ACAD_REACTORS
330
1416
102
}
330
1F
100
AcDbEntity
  8
AM_5
100
AcDbDimension
  2
*D18
 10
266.0984785655774
 20
868.3218177916886
 30
0.0
 11
241.0984785655774
 21
879.3218177916886
 31
0.0
 70
    32
 71
     5
 42
50.0
  3
AM_ISO$0
100
AcDbAlignedDimension
 13
216.0984785655774
 23
794.8448698002269
 33
0.0
 14
266.0984785655774
 24
794.8448698002269
 34
0.0
100
AcDbRotatedDimension
  0
DIMENSION
  5
1417
102
{ACAD_XDICTIONARY
360
1418
102
}
102
{ACAD_REACTORS
330
1419
102
}
330
1F
100
AcDbEntity
  8
AM_5
100
AcDbDimension
  2
*D19
 10
324.0414759544338
 20
646.2855407344047
 30
0.0
 11
324.0414759544337
 21
694.5910525454285
 31
0.0
 70
   160
 71
     5
 42
10.0
  3
AM_ISO$0
100
AcDbAlignedDimension
 13
263.0984785655773
 23
656.2855407344048
 33
0.0
 14
291.0984785655774
 24
646.2855407344047
 34
0.0
 50
90.0
100
AcDbRotatedDimension
1001
ACAD
1000
DSTYLE
1002
{
1070
    40
1040
2.0
1070
   271
1070
     0
1002
}
  0
LINE
  5
141A
330
1F
100
AcDbEntity
  8
0
  6
ASVLTYPE
 62
     6
100
AcDbLine
 10
234.2113287575444
 20
343.2855407344049
 30
0.0
 11
234.2113287575444
 21
333.2855407344049
 31
0.0
  0
LINE
  5
141B
330
1F
100
AcDbEntity
  8
0
  6
ASVLTYPE
 62
     6
100
AcDbLine
 10
233.2113287575444
 20
343.2855407344049
 30
0.0
 11
233.2113287575444
 21
333.2855407344049
 31
0.0
  0
LINE
  5
141C
330
1F
100
AcDbEntity
  8
0
  6
ASVLTYPE
 62
     6
100
AcDbLine
 10
247.9856283736103
 20
343.2855407344049
 30
0.0
 11
247.9856283736103
 21
333.2855407344049
 31
0.0
  0
LINE
  5
141D
330
1F
100
AcDbEntity
  8
0
  6
ASVLTYPE
 62
     6
100
AcDbLine
 10
248.9856283736103
 20
343.2855407344049
 30
0.0
 11
248.9856283736103
 21
333.2855407344049
 31
0.0
  0
LEADER
  5
141E
330
1F
100
AcDbEntity
  8
AM_5
100
AcDbLeader
  3
AM_ISO$7
 73
     0
 75
     1
 40
5.0
 41
16.0
 76
     3
 10
235.6239217012846
 20
158.3806627944463
 30
0.0
 10
219.3183017934195
 20
142.4889457147523
 30
0.0
 10
212.3183017934195
 20
142.4889457147523
 30
0.0
213
-5.074227932964731
223
1.548378659791978
233
0.0
1001
ACAD
1000
DSTYLE
1002
{
1070
    40
1040
2.0
1070
   140
1040
3.0
1002
}
  0
MTEXT
  5
141F
102
{ACAD_REACTORS
330
141E
102
}
330
1F
100
AcDbEntity
  8
AM_5
100
AcDbMText
 10
214.3925297263843
 20
143.9405670549603
 30
0.0
 40
6.0
 41
0.0
 71
     9
 72
     1
  1
PT1/8
 73
     1
 44
1.0
1001
ACAD
1000
MTEXTBEGIN
1070
    73
1070
     1
1070
    44
1040
1.0
1070
    74
1070
     0
1000
MTEXTEND
  0
LEADER
  5
1420
330
1F
100
AcDbEntity
  8
AM_5
100
AcDbLeader
  3
AM_ISO$7
 73
     0
 74
     0
 75
     1
 40
7.0
 41
27.99999999999999
 76
     3
 10
178.4331173659056
 20
621.2855407344047
 30
0.0
 10
168.3844773920818
 20
581.4325065815956
 30
0.0
 10
161.3844773920818
 20
581.4325065815956
 30
0.0
211
-1.0
221
0.0000000000000001
231
0.0
213
-3.573287685194827
223
-1.33873553942476
233
0.0
1001
ACAD
1000
DSTYLE
1002
{
1070
    40
1040
2.0
1070
   140
1040
3.5
1002
}
  0
MTEXT
  5
1421
102
{ACAD_REACTORS
330
1420
102
}
330
1F
100
AcDbEntity
  8
AM_5
100
AcDbMText
 10
144.14332120475
 20
583.4978173225112
 30
0.0
 40
7.0
 41
0.0
 71
     7
 72
     1
  1
Rc 1"
 73
     1
 44
1.0
1001
ACAD
1000
MTEXTBEGIN
1070
    73
1070
     1
1070
    44
1040
1.0
1070
    74
1070
     0
1000
MTEXTEND
  0
LWPOLYLINE
  5
1422
330
1F
100
AcDbEntity
  8
LOGO
 62
     4
100
AcDbPolyline
 90
        4
 70
     1
 43
0.0
 10
95.83136789305104
 20
121.9701470960807
 10
730.871367893051
 20
121.9701470960807
 10
730.871367893051
 20
931.6553422454008
 10
95.83136789305104
 20
931.6553422454008
1001
GENIUS_GENREC_14
1002
{
1000
PYDIR
1011
95.83136789305104
1021
931.6553422454008
1031
0.0
1002
}
1002
{
1000
PXDIR
1011
730.871367893051
1021
121.9701470960807
1031
0.0
1002
}
1002
{
1000
PORI
1011
95.83136789305104
1021
121.9701470960807
1031
0.0
1002
}
1002
{
1000
PINS
1011
95.83136789305104
1021
121.9701470960807
1031
0.0
1002
}
1002
{
1000
PINS2
1011
730.871367893051
1021
931.6553422454008
1031
0.0
1002
}
1002
{
1000
C
1070
     1
1002
}
1001
GENIUS_GENODEF_13
1002
{
1000
HIER
1070
     0
1002
}
1002
{
1000
MANEDIT
1070
     0
1002
}
1002
{
1000
NOSEL
1070
     0
1002
}
1002
{
1000
BEHIND
1070
     0
1002
}
1002
{
1000
OTHER
1070
     0
1002
}
1002
{
1000
REACTOR
1002
}
1001
GENIUS_GENOBJ-N-REC_13
1002
{
1000
OWNER
1000
GEN
1002
}
  0
LWPOLYLINE
  5
1423
330
1F
100
AcDbEntity
  8
LOGO
 62
     4
100
AcDbPolyline
 90
        4
 70
     1
 43
0.0
 10
95.83136789305104
 20
121.9701470960807
 10
730.871367893051
 20
121.9701470960807
 10
730.8713678930505
 20
76.61671505988079
 10
95.83136789305104
 20
76.61671505988079
1001
GENIUS_GENREC_14
1002
{
1000
PYDIR
1011
95.83136789305104
1021
76.61671505988079
1031
0.0
1002
}
1002
{
1000
PXDIR
1011
730.871367893051
1021
121.9701470960807
1031
0.0
1002
}
1002
{
1000
PORI
1011
95.83136789305104
1021
121.9701470960807
1031
0.0
1002
}
1002
{
1000
PINS
1011
95.83136789305104
1021
121.9701470960807
1031
0.0
1002
}
1002
{
1000
PINS2
1011
730.8713678930505
1021
76.61671505988079
1031
0.0
1002
}
1002
{
1000
C
1070
     1
1002
}
1001
GENIUS_GENOBJ-N-REC_13
1002
{
1000
OWNER
1000
GEN
1002
}
1001
GENIUS_GENODEF_13
1002
{
1000
HIER
1070
     0
1002
}
1002
{
1000
MANEDIT
1070
     0
1002
}
1002
{
1000
NOSEL
1070
     0
1002
}
1002
{
1000
BEHIND
1070
     0
1002
}
1002
{
1000
OTHER
1070
     0
1002
}
1002
{
1000
REACTOR
1002
}
  0
TEXT
  5
1424
330
1F
100
AcDbEntity
  8
LOGO
 62
     7
100
AcDbText
 10
198.2364143793193
 20
102.1015802756141
 30
0.0
 40
6.047124271493212
  1
Order example:
 41
0.8
  7
CHINESET
100
AcDbText
  0
TEXT
  5
1425
330
1F
100
AcDbEntity
  8
LOGO
 62
     7
100
AcDbText
 10
199.3213184813087
 20
110.6146791768199
 30
0.0
 40
9.070686407239819
  1
訂購代號：
  7
CHINESET
100
AcDbText
  0
LINE
  5
1426
330
1F
100
AcDbEntity
  8
LOGO
 62
     4
100
AcDbLine
 10
195.6089183726892
 20
76.61671505988135
 30
0.0
 11
195.6089183726892
 21
121.9701470960806
 31
0.0
  0
TEXT
  5
1427
330
1F
100
AcDbEntity
  8
LOGO
  6
Continuous
100
AcDbText
 10
112.1225245480752
 20
85.52632833909598
 30
0.0
 40
6.803014805429863
  1
金器工業股份有限公司
  7
CHINESET
100
AcDbText
  0
TEXT
  5
1428
330
1F
100
AcDbEntity
  8
LOGO
  6
Continuous
100
AcDbText
 10
99.62673226060656
 20
78.7219806761413
 30
0.0
 40
4.535343203619909
  1
MINDMAN INDUSTRIAL CO., LTD.
 41
0.85
  7
CHINESET
100
AcDbText
  0
LINE
  5
1429
330
1F
100
AcDbEntity
  8
LOGO
 62
     4
100
AcDbLine
 10
195.6089183726892
 20
112.8994606888408
 30
0.0
 11
129.0905513862633
 21
112.8994606888408
 31
0.0
  0
LINE
  5
142A
330
1F
100
AcDbEntity
  8
LOGO
 62
     4
100
AcDbLine
 10
195.6089183726892
 20
103.828774281601
 30
0.0
 11
129.0905513862633
 21
103.828774281601
 31
0.0
  0
LINE
  5
142B
330
1F
100
AcDbEntity
  8
LOGO
 62
     4
100
AcDbLine
 10
195.6089183726892
 20
94.75808787436154
 30
0.0
 11
95.83136789305104
 21
94.75808787436154
 31
0.0
  0
LINE
  5
142C
330
1F
100
AcDbEntity
  8
LOGO
 62
     4
100
AcDbLine
 10
129.0905513862633
 20
94.75808787436154
 30
0.0
 11
129.0905513862633
 21
121.9701470960806
 31
0.0
  0
TEXT
  5
142D
330
1F
100
AcDbEntity
  8
LOGO
100
AcDbText
 10
174.5527156023859
 20
97.02575947617075
 30
0.0
 40
4.535343203619909
  1
mm
  7
CHINESET
 72
     1
 11
180.1679024259154
 21
99.2934310779807
 31
0.0
100
AcDbText
 73
     2
  0
TEXT
  5
142E
330
1F
100
AcDbEntity
  8
LOGO
100
AcDbText
 10
172.177059638585
 20
115.1671322906505
 30
0.0
 40
4.535343203619909
  1
1 : 1
  7
CHINESET
 72
     1
 11
180.1679024259154
 21
117.4348038924605
 31
0.0
100
AcDbText
 73
     2
  0
LINE
  5
142F
330
1F
100
AcDbEntity
  8
LOGO
 62
     4
100
AcDbLine
 10
165.373297015223
 20
94.75808787436154
 30
0.0
 11
165.373297015223
 21
121.9701470960806
 31
0.0
  0
CIRCLE
  5
1430
330
1F
100
AcDbEntity
  8
LOGO
  6
Continuous
100
AcDbCircle
 10
173.7710522284853
 20
108.3738186175223
 30
0.0
 40
2.633327013967191
  0
CIRCLE
  5
1431
330
1F
100
AcDbEntity
  8
LOGO
  6
Continuous
100
AcDbCircle
 10
173.7710522284853
 20
108.3738186175223
 30
0.0
 40
1.542896514933574
  0
LINE
  5
1432
330
1F
100
AcDbEntity
  8
LOGO
100
AcDbLine
 10
190.3191847426003
 20
105.7404916035545
 30
0.0
 11
190.3191847426003
 21
111.00714563149
 31
0.0
  0
LINE
  5
1433
330
1F
100
AcDbEntity
  8
LOGO
100
AcDbLine
 10
182.0638557139968
 20
106.830922102589
 30
0.0
 11
182.0638557139968
 21
109.9167151324562
 31
0.0
  0
LINE
  5
1434
330
1F
100
AcDbEntity
  8
LOGO
  6
Continuous
100
AcDbLine
 10
182.0638557139968
 20
109.9167151324562
 30
0.0
 11
190.3191847426003
 21
111.00714563149
 31
0.0
  0
LINE
  5
1435
330
1F
100
AcDbEntity
  8
LOGO
  6
Continuous
100
AcDbLine
 10
182.0638557139968
 20
106.830922102589
 30
0.0
 11
190.3191847426003
 21
105.7404916035545
 31
0.0
  0
TEXT
  5
1436
330
1F
100
AcDbEntity
  8
LOGO
100
AcDbText
 10
132.8301848224626
 20
115.1693642508885
 30
297.2389220237929
 40
4.535343203619909
  1
比例 Scale:
 41
0.9
  7
CHINESET
 72
     4
 11
147.2319242007431
 21
117.4348038924605
 31
297.2389220237929
100
AcDbText
  0
TEXT
  5
1437
330
1F
100
AcDbEntity
  8
LOGO
100
AcDbText
 10
132.568997646897
 20
106.1602427468802
 30
297.2389220237929
 40
4.535343203619909
  1
投影  View:
 41
0.9
  7
CHINESET
 72
     4
 11
147.2319242007431
 21
108.3641174852206
 31
297.2389220237929
100
AcDbText
  0
TEXT
  5
1438
330
1F
100
AcDbEntity
  8
LOGO
100
AcDbText
 10
133.0124084333223
 20
97.02575947617075
 30
297.2389220237929
 40
4.535343203619909
  1
單位  Unit:
 41
0.9
  7
CHINESET
 72
     4
 11
147.2319242007431
 21
99.2934310779807
 31
297.2389220237929
100
AcDbText
  0
SOLID
  5
1439
330
1F
100
AcDbEntity
  8
LOGO
 62
     5
100
AcDbTrace
 10
100.5368592535285
 20
102.2974503951088
 30
0.0
 11
102.4978226473681
 21
102.2974503951083
 31
0.0
 12
110.6797733595949
 22
120.8927929228984
 32
0.0
 13
112.6407367534355
 23
120.8927929228974
 33
0.0
  0
SOLID
  5
143A
330
1F
100
AcDbEntity
  8
LOGO
 62
     5
100
AcDbTrace
 10
103.3092557758557
 20
102.2974503951088
 30
0.0
 11
105.2702191696951
 21
102.2974503951088
 31
0.0
 12
112.6407367534355
 22
119.4051655206745
 32
0.0
 13
110.6797733595949
 23
112.2149664099292
 33
0.0
  0
SOLID
  5
143B
330
1F
100
AcDbEntity
  8
LOGO
 62
     2
100
AcDbTrace
 10
102.4978226473681
 20
102.2974503951083
 30
0.0
 11
103.3092557758557
 21
102.2974503951088
 31
0.0
 12
112.6407367534355
 22
120.8927929228974
 32
0.0
 13
113.4521698819219
 23
120.8927929228974
 33
0.0
  0
SOLID
  5
143C
330
1F
100
AcDbEntity
  8
LOGO
 62
     5
100
AcDbTrace
 10
97.39295404607425
 20
95.53550765773151
 30
0.0
 11
98.06914831981272
 21
95.53550765773151
 31
0.0
 12
99.97336402541442
 22
98.9164790264199
 32
0.0
 13
100.6495582991508
 23
98.9164790264199
 33
0.0
  0
SOLID
  5
143D
330
1F
100
AcDbEntity
  8
LOGO
 62
     5
100
AcDbTrace
 10
99.97336402541442
 20
98.9164790264199
 30
0.0
 11
100.6495582991508
 21
98.9164790264199
 31
0.0
 12
99.97336402541442
 22
95.53550765773151
 32
0.0
 13
100.6495582991508
 23
95.53550765773151
 33
0.0
  0
SOLID
  5
143E
330
1F
100
AcDbEntity
  8
LOGO
 62
     5
100
AcDbTrace
 10
99.97336402541442
 20
95.53550765773151
 30
0.0
 11
100.6495582991508
 21
95.53550765773151
 31
0.0
 12
102.5537740047555
 22
98.9164790264199
 32
0.0
 13
103.229968278493
 23
98.9164790264199
 33
0.0
  0
SOLID
  5
143F
330
1F
100
AcDbEntity
  8
LOGO
 62
     5
100
AcDbTrace
 10
102.5537740047555
 20
98.9164790264199
 30
0.0
 11
103.229968278493
 21
98.9164790264199
 31
0.0
 12
102.5537740047555
 22
95.53550765773151
 32
0.0
 13
103.229968278493
 23
95.53550765773151
 33
0.0
  0
POLYLINE
  5
1440
330
1F
100
AcDbEntity
  8
LOGO
 62
     5
100
AcDb2dPolyline
 66
     1
 10
0.0
 20
0.0
 30
0.0
 40
0.6772779184072397
 41
0.6772779184072397
  0
VERTEX
  5
1441
330
1440
100
AcDbEntity
  8
LOGO
 62
     5
100
AcDbVertex
100
AcDb2dVertex
 10
125.2195757119636
 20
97.56409047894443
 30
0.0
 42
1.0
  0
VERTEX
  5
1442
330
1440
100
AcDbEntity
  8
LOGO
 62
     5
100
AcDbVertex
100
AcDb2dVertex
 10
123.1877419567413
 20
97.56409047894443
 30
0.0
 42
1.0
  0
SEQEND
  5
1443
330
1440
100
AcDbEntity
  8
LOGO
 62
     5
  0
POLYLINE
  5
1444
330
1F
100
AcDbEntity
  8
LOGO
 62
     5
100
AcDb2dPolyline
 66
     1
 10
0.0
 20
0.0
 30
0.0
 70
     1
  0
VERTEX
  5
1445
330
1444
100
AcDbEntity
  8
LOGO
 62
     5
100
AcDbVertex
100
AcDb2dVertex
 10
119.3576449521817
 20
97.22599334207513
 30
0.0
 42
1.000000057330635
  0
VERTEX
  5
1446
330
1444
100
AcDbEntity
  8
LOGO
 62
     5
100
AcDbVertex
100
AcDb2dVertex
 10
121.3862277733954
 20
97.22599334207513
 30
0.0
 42
1.000000057330635
  0
SEQEND
  5
1447
330
1444
100
AcDbEntity
  8
LOGO
 62
     5
  0
CIRCLE
  5
1448
330
1F
100
AcDbEntity
  8
LOGO
 62
     5
100
AcDbCircle
 10
120.3719363627901
 20
97.22599334207513
 30
0.0
 40
1.014291410606682
  0
POLYLINE
  5
1449
330
1F
100
AcDbEntity
  8
LOGO
 62
     5
100
AcDb2dPolyline
 66
     1
 10
0.0
 20
0.0
 30
0.0
 70
     1
 40
0.6772779184072397
 41
0.6772779184072397
  0
VERTEX
  5
144A
330
1449
100
AcDbEntity
  8
LOGO
 62
     5
100
AcDbVertex
100
AcDb2dVertex
 10
119.0173805259746
 20
97.22599334207513
 30
0.0
 42
1.0
  0
VERTEX
  5
144B
330
1449
100
AcDbEntity
  8
LOGO
 62
     5
100
AcDbVertex
100
AcDb2dVertex
 10
121.7264921996036
 20
97.22599334207513
 30
0.0
 42
1.0
  0
SEQEND
  5
144C
330
1449
100
AcDbEntity
  8
LOGO
 62
     5
  0
LINE
  5
144D
330
1F
100
AcDbEntity
  8
LOGO
100
AcDbLine
 10
125.556047381827
 20
95.53550765773151
 30
0.0
 11
125.556047381827
 21
97.56409047894443
 31
0.0
  0
SOLID
  5
144E
330
1F
100
AcDbEntity
  8
LOGO
 62
     5
100
AcDbTrace
 10
121.3861601539709
 20
98.9164790264199
 30
0.0
 11
122.0623544277075
 21
98.9164790264199
 31
0.0
 12
121.3861601539709
 22
95.53550765773151
 32
0.0
 13
122.0623544277075
 23
95.53550765773151
 33
0.0
  0
SOLID
  5
144F
330
1F
100
AcDbEntity
  8
LOGO
 62
     5
100
AcDbTrace
 10
122.8512702868759
 20
95.53550765773151
 30
0.0
 11
123.5274645606143
 21
95.53550765773151
 31
0.0
 12
122.8512702868759
 22
98.9164790264199
 32
0.0
 13
123.5274645606143
 23
98.9164790264199
 33
0.0
  0
SOLID
  5
1450
330
1F
100
AcDbEntity
  8
LOGO
 62
     5
100
AcDbTrace
 10
124.8798531080904
 20
97.56409047894443
 30
0.0
 11
125.556047381827
 21
97.56409047894443
 31
0.0
 12
124.8798531080904
 22
95.53550765773151
 32
0.0
 13
125.556047381827
 23
95.53550765773151
 33
0.0
  0
SOLID
  5
1451
330
1F
100
AcDbEntity
  8
LOGO
 62
     5
100
AcDbTrace
 10
122.7836508595021
 20
119.4051655206745
 30
0.0
 11
120.8226874656636
 21
112.2149664099292
 31
0.0
 12
122.7836508595021
 22
102.2974503951083
 32
0.0
 13
120.8226874656636
 23
102.2974503951083
 33
0.0
  0
SOLID
  5
1452
330
1F
100
AcDbEntity
  8
LOGO
 62
     5
100
AcDbTrace
 10
123.5950839879885
 20
102.2974503951083
 30
0.0
 11
125.556047381827
 21
102.2974503951083
 31
0.0
 12
123.5950839879885
 22
120.8927929228974
 32
0.0
 13
125.556047381827
 23
120.8927929228984
 33
0.0
  0
SOLID
  5
1453
330
1F
100
AcDbEntity
  8
LOGO
 62
     2
100
AcDbTrace
 10
122.7836508595021
 20
120.8927929228984
 30
0.0
 11
123.5950839879885
 21
120.8927929228974
 31
0.0
 12
122.7836508595021
 22
102.2974503951083
 32
0.0
 13
123.5950839879885
 23
102.2974503951083
 33
0.0
  0
POLYLINE
  5
1454
330
1F
100
AcDbEntity
  8
LOGO
 62
     5
100
AcDb2dPolyline
 66
     1
 10
0.0
 20
0.0
 30
0.0
 40
0.6772779184072397
 41
0.6772779184072397
  0
VERTEX
  5
1455
330
1454
100
AcDbEntity
  8
LOGO
 62
     5
100
AcDbVertex
100
AcDb2dVertex
 10
115.5274127087705
 20
97.56409047894443
 30
0.0
 42
1.0
  0
VERTEX
  5
1456
330
1454
100
AcDbEntity
  8
LOGO
 62
     5
100
AcDbVertex
100
AcDb2dVertex
 10
113.4955789535484
 20
97.56409047894443
 30
0.0
 42
1.0
  0
SEQEND
  5
1457
330
1454
100
AcDbEntity
  8
LOGO
 62
     5
  0
POLYLINE
  5
1458
330
1F
100
AcDbEntity
  8
LOGO
 62
     5
100
AcDb2dPolyline
 66
     1
 10
0.0
 20
0.0
 30
0.0
 40
0.6772779184072397
 41
0.6772779184072397
  0
VERTEX
  5
1459
330
1458
100
AcDbEntity
  8
LOGO
 62
     5
100
AcDbVertex
100
AcDb2dVertex
 10
117.5559955299818
 20
97.56409047894443
 30
0.0
 42
1.0
  0
VERTEX
  5
145A
330
1458
100
AcDbEntity
  8
LOGO
 62
     5
100
AcDbVertex
100
AcDb2dVertex
 10
115.5241617747608
 20
97.56409047894443
 30
0.0
 42
1.0
  0
SEQEND
  5
145B
330
1458
100
AcDbEntity
  8
LOGO
 62
     5
  0
POLYLINE
  5
145C
330
1F
100
AcDbEntity
  8
LOGO
 62
     5
100
AcDb2dPolyline
 66
     1
 10
0.0
 20
0.0
 30
0.0
 40
0.6772779184072397
 41
0.6772779184072397
  0
VERTEX
  5
145D
330
145C
100
AcDbEntity
  8
LOGO
 62
     5
100
AcDbVertex
100
AcDb2dVertex
 10
107.8638325267889
 20
97.56409047894443
 30
0.0
 42
1.0
  0
VERTEX
  5
145E
330
145C
100
AcDbEntity
  8
LOGO
 62
     5
100
AcDbVertex
100
AcDb2dVertex
 10
105.8319987715679
 20
97.56409047894443
 30
0.0
 42
1.0
  0
SEQEND
  5
145F
330
145C
100
AcDbEntity
  8
LOGO
 62
     5
  0
SOLID
  5
1460
330
1F
100
AcDbEntity
  8
LOGO
 62
     5
100
AcDbTrace
 10
105.4955271017034
 20
98.9164790264199
 30
0.0
 11
106.1717213754398
 21
98.9164790264199
 31
0.0
 12
105.4955271017034
 22
95.53550765773151
 32
0.0
 13
106.1717213754398
 23
95.53550765773151
 33
0.0
  0
SOLID
  5
1461
330
1F
100
AcDbEntity
  8
LOGO
 62
     5
100
AcDbTrace
 10
107.5241099229167
 20
97.56409047894443
 30
0.0
 11
108.2003041966552
 21
97.56409047894443
 31
0.0
 12
107.5241099229167
 22
95.53550765773151
 32
0.0
 13
108.2003041966552
 23
95.53550765773151
 33
0.0
  0
POLYLINE
  5
1462
330
1F
100
AcDbEntity
  8
LOGO
 62
     5
100
AcDb2dPolyline
 66
     1
 10
0.0
 20
0.0
 30
0.0
 70
     1
 40
0.6772779184072397
 41
0.6772779184072397
  0
VERTEX
  5
1463
330
1462
100
AcDbEntity
  8
LOGO
 62
     5
100
AcDbVertex
100
AcDb2dVertex
 10
109.3252175227805
 20
97.22599334207513
 30
0.0
 42
1.0
  0
VERTEX
  5
1464
330
1462
100
AcDbEntity
  8
LOGO
 62
     5
100
AcDbVertex
100
AcDb2dVertex
 10
112.0343291964104
 20
97.22599334207513
 30
0.0
 42
1.0
  0
SEQEND
  5
1465
330
1462
100
AcDbEntity
  8
LOGO
 62
     5
  0
SOLID
  5
1466
330
1F
100
AcDbEntity
  8
LOGO
 62
     5
100
AcDbTrace
 10
111.6939971507759
 20
99.93077043702715
 30
0.0
 11
112.3701914245132
 21
99.93077043702715
 31
0.0
 12
111.6939971507759
 22
95.53550765773151
 32
0.0
 13
112.3701914245132
 23
95.53550765773151
 33
0.0
  0
SOLID
  5
1467
330
1F
100
AcDbEntity
  8
LOGO
 62
     5
100
AcDbTrace
 10
113.159107283685
 20
98.9164790264199
 30
0.0
 11
113.8353015574214
 21
98.9164790264199
 31
0.0
 12
113.159107283685
 22
95.53550765773151
 32
0.0
 13
113.8353015574214
 23
95.53550765773151
 33
0.0
  0
SOLID
  5
1468
330
1F
100
AcDbEntity
  8
LOGO
 62
     5
100
AcDbTrace
 10
115.1876901048965
 20
97.56409047894443
 30
0.0
 11
115.863884378635
 21
97.56409047894443
 31
0.0
 12
115.1876901048965
 22
95.53550765773151
 32
0.0
 13
115.863884378635
 23
95.53550765773151
 33
0.0
  0
SOLID
  5
1469
330
1F
100
AcDbEntity
  8
LOGO
 62
     5
100
AcDbTrace
 10
117.2162729261099
 20
97.56409047894443
 30
0.0
 11
117.8924671998472
 21
97.56409047894443
 31
0.0
 12
117.2162729261099
 22
95.53550765773048
 32
0.0
 13
117.8924671998472
 23
95.53550765773048
 33
0.0
  0
SOLID
  5
146A
330
1F
100
AcDbEntity
  8
LOGO
 62
     5
100
AcDbTrace
 10
104.0304169687954
 20
99.38981501803652
 30
0.0
 11
104.7066112425348
 21
99.38981501803652
 31
0.0
 12
104.0304169687954
 22
99.93077043702715
 32
0.0
 13
104.7066112425348
 23
99.93077043702715
 33
0.0
  0
SOLID
  5
146B
330
1F
100
AcDbEntity
  8
LOGO
 62
     5
100
AcDbTrace
 10
104.0304169687954
 20
98.9164790264199
 30
0.0
 11
104.7066112425348
 21
98.9164790264199
 31
0.0
 12
104.0304169687954
 22
95.53550765773048
 32
0.0
 13
104.7066112425348
 23
95.53550765773151
 33
0.0
  0
SOLID
  5
146C
330
1F
100
AcDbEntity
  8
LOGO
 62
     5
100
AcDbTrace
 10
110.6797733595949
 20
102.2974503951088
 30
0.0
 11
112.6407367534355
 21
102.2974503951088
 31
0.0
 12
110.6797733595949
 22
112.2149664099292
 32
0.0
 13
112.6407367534355
 23
119.4051655206745
 33
0.0
  0
SOLID
  5
146D
330
1F
100
AcDbEntity
  8
LOGO
 62
     5
100
AcDbTrace
 10
113.4521698819219
 20
120.8927929228974
 30
0.0
 11
115.4131332757604
 21
120.8927929228984
 31
0.0
 12
113.4521698819219
 22
103.7850777973317
 32
0.0
 13
115.4131332757604
 23
110.975276908077
 33
0.0
  0
SOLID
  5
146E
330
1F
100
AcDbEntity
  8
LOGO
 62
     2
100
AcDbTrace
 10
112.6407367534355
 20
120.8927929228974
 30
0.0
 11
113.4521698819219
 21
120.8927929228974
 31
0.0
 12
112.6407367534355
 22
102.2974503951088
 32
0.0
 13
113.4521698819219
 23
102.2974503951088
 33
0.0
  0
SOLID
  5
146F
330
1F
100
AcDbEntity
  8
LOGO
 62
     5
100
AcDbTrace
 10
113.4521698819219
 20
103.7850777973317
 30
0.0
 11
115.4131332757604
 21
110.975276908077
 31
0.0
 12
122.7836508595021
 22
120.8927929228984
 32
0.0
 13
120.8226874656636
 23
120.8927929228984
 33
0.0
  0
SOLID
  5
1470
330
1F
100
AcDbEntity
  8
LOGO
 62
     5
100
AcDbTrace
 10
113.4521698819219
 20
102.2974503951088
 30
0.0
 11
115.4131332757604
 21
102.2974503951088
 31
0.0
 12
122.7836508595021
 22
119.4051655206745
 32
0.0
 13
120.8226874656636
 23
112.2149664099292
 33
0.0
  0
SOLID
  5
1471
330
1F
100
AcDbEntity
  8
LOGO
 62
     2
100
AcDbTrace
 10
112.6407367534355
 20
102.2974503951088
 30
0.0
 11
113.4521698819219
 21
102.2974503951088
 31
0.0
 12
122.7836508595021
 22
120.8927929228984
 32
0.0
 13
123.5950839879885
 23
120.8927929228974
 33
0.0
  0
LINE
  5
1472
330
1F
100
AcDbEntity
  8
LOGO
 62
     4
100
AcDbLine
 10
301.8153153361275
 20
97.0257594761717
 30
0.0
 11
301.8153153361275
 21
80.39616772956447
 31
0.0
  0
LINE
  5
1473
330
1F
100
AcDbEntity
  8
LOGO
 62
     4
100
AcDbLine
 10
271.5796939786612
 20
97.0257594761717
 30
0.0
 11
271.5796939786612
 21
80.39616772956447
 31
0.0
  0
LINE
  5
1474
330
1F
100
AcDbEntity
  8
LOGO
 62
     4
100
AcDbLine
 10
301.8153153361275
 20
80.39616772956447
 30
0.0
 11
271.5796939786612
 21
80.39616772956447
 31
0.0
  0
LINE
  5
1475
330
1F
100
AcDbEntity
  8
LOGO
 62
     4
100
AcDbLine
 10
313.2107757425738
 20
117.4348038924605
 30
0.0
 11
257.9905512509829
 21
117.4348038924605
 31
0.0
  0
LINE
  5
1476
330
1F
100
AcDbEntity
  8
LOGO
 62
     4
100
AcDbLine
 10
313.2107757425738
 20
103.828774281601
 30
0.0
 11
257.9905512509829
 21
103.828774281601
 31
0.0
  0
LINE
  5
1477
330
1F
100
AcDbEntity
  8
LOGO
 62
     4
100
AcDbLine
 10
257.9905512509829
 20
117.4348038924605
 30
0.0
 11
257.9905512509829
 21
103.828774281601
 31
0.0
  0
LINE
  5
1478
330
1F
100
AcDbEntity
  8
LOGO
 62
     4
100
AcDbLine
 10
313.2107757425738
 20
117.4348038924605
 30
0.0
 11
313.2107757425738
 21
103.828774281601
 31
0.0
  0
LINE
  5
1479
330
1F
100
AcDbEntity
  8
LOGO
 62
     4
100
AcDbLine
 10
288.2750446672346
 20
103.828774281601
 30
0.0
 11
288.2750446672346
 21
97.0257594761717
 31
0.0
  0
TEXT
  5
147A
330
1F
100
AcDbEntity
  8
LOGO
  6
Continuous
100
AcDbText
 10
260.4081296233019
 20
107.6739820492967
 30
0.0
 40
6.479999999999999
  1
MWC-4000
  7
CHINESET
100
AcDbText
  0
LINE
  5
147B
330
1F
100
AcDbEntity
  8
LOGO
 62
     4
100
AcDbLine
 10
301.8153153361275
 20
97.0257594761717
 30
0.0
 11
271.5796939786612
 21
97.0257594761717
 31
0.0
  0
TEXT
  5
147C
330
1F
100
AcDbEntity
  8
LOGO
  6
Continuous
100
AcDbText
 10
281.2822091477517
 20
82.74339934072964
 30
297.2389220237929
 40
3.401999999999999
  1
Model
 41
0.8
  7
CHINESET
100
AcDbText
  0
TEXT
  5
147D
330
1F
100
AcDbEntity
  8
LOGO
100
AcDbText
 10
280.3767073399697
 20
89.04997415740092
 30
297.2389220237929
 40
5.669999999999999
  1
型號
  7
CHINESET
100
AcDbText
  0
TEXT
  5
147E
330
1F
100
AcDbEntity
  8
LOGO
100
AcDbText
 10
198.0127010936161
 20
79.02949974349496
 30
0.0
 40
4.535999999999999
  1
1120731B
 41
0.7
  7
CHINESET
 72
     1
 11
208.747901093616
 21
79.02949974349496
 31
0.0
100
AcDbText
  0
LINE
  5
147F
330
1F
100
AcDbEntity
  8
LOGO
 62
     4
100
AcDbLine
 10
222.8249183726871
 20
85.68740146712229
 30
0.0
 11
222.8249183726891
 21
76.61671505988187
 31
0.0
  0
LINE
  5
1480
330
1F
100
AcDbEntity
  8
LOGO
 62
     4
100
AcDbLine
 10
222.8249183726871
 20
85.68740146712229
 30
0.0
 11
195.6089183726892
 21
85.68740146712229
 31
0.0
  0
LINE
  5
1481
330
1F
100
AcDbEntity
  8
LOGO
  6
AM_ISO08W050x2
 48
0.3
100
AcDbLine
 10
170.1409715087647
 20
108.3738186175223
 30
0.0
 11
177.4011329482064
 21
108.3738186175223
 31
0.0
1001
GENIUS_GENOREF_13
1005
1486
  0
LINE
  5
1482
330
1F
100
AcDbEntity
  8
LOGO
  6
AM_ISO08W050x2
 48
0.3
100
AcDbLine
 10
173.7710522284853
 20
104.7437378978015
 30
0.0
 11
173.7710522284853
 21
112.0038993372431
 31
0.0
1001
GENIUS_GENOREF_13
1005
1485
  0
LINE
  5
1483
330
1F
100
AcDbEntity
  8
LOGO
  6
CENTER
 48
0.5
100
AcDbLine
 10
181.4036588475053
 20
108.3738186175223
 30
0.0
 11
191.1504696519027
 21
108.3738186175223
 31
0.0
1001
GENIUS_GENOREF_13
1005
1484
  0
POINT
  5
1484
330
1F
100
AcDbEntity
  8
0
 60
     1
100
AcDbPoint
 10
-2440.272867446428
 20
-799.3905499356233
 30
0.0
1001
GENIUS_GENOBJ-N-CRS_13
1002
{
1000
OWNER
1000
GEN
1002
}
1001
GENIUS_GENOLIS_13
1002
{
1000
ENT
1005
0
1005
0
1005
0
1005
1483
1002
}
1001
GENIUS_GENOENT_13
1002
{
1000
MYREF
1005
1484
1002
}
1002
{
1000
GRP
1005
0
1002
}
1001
GENIUS_GENODEF_13
1002
{
1000
HIER
1070
    10
1002
}
1002
{
1000
MANEDIT
1070
     1
1002
}
1002
{
1000
NOSEL
1070
     0
1002
}
1002
{
1000
BEHIND
1070
     0
1002
}
1002
{
1000
OTHER
1070
     0
1002
}
1002
{
1000
REACTOR
1002
}
  0
POINT
  5
1485
330
1F
100
AcDbEntity
  8
0
 60
     1
100
AcDbPoint
 10
-2451.597452669283
 20
-790.5149634569871
 30
0.0
1001
GENIUS_GENOBJ-N-CRS_13
1002
{
1000
OWNER
1000
GEN
1002
}
1001
GENIUS_GENOLIS_13
1002
{
1000
ENT
1005
0
1005
0
1005
0
1005
1482
1002
}
1001
GENIUS_GENOENT_13
1002
{
1000
MYREF
1005
1485
1002
}
1002
{
1000
GRP
1005
0
1002
}
1001
GENIUS_GENODEF_13
1002
{
1000
HIER
1070
    10
1002
}
1002
{
1000
MANEDIT
1070
     1
1002
}
1002
{
1000
NOSEL
1070
     0
1002
}
1002
{
1000
BEHIND
1070
     0
1002
}
1002
{
1000
OTHER
1070
     0
1002
}
1002
{
1000
REACTOR
1002
}
  0
POINT
  5
1486
330
1F
100
AcDbEntity
  8
0
 60
     1
100
AcDbPoint
 10
-2445.238778971446
 20
-799.3905499356233
 30
0.0
1001
GENIUS_GENOBJ-N-CRS_13
1002
{
1000
OWNER
1000
GEN
1002
}
1001
GENIUS_GENOLIS_13
1002
{
1000
ENT
1005
0
1005
0
1005
0
1005
1481
1002
}
1001
GENIUS_GENOENT_13
1002
{
1000
MYREF
1005
1486
1002
}
1002
{
1000
GRP
1005
0
1002
}
1001
GENIUS_GENODEF_13
1002
{
1000
HIER
1070
    10
1002
}
1002
{
1000
MANEDIT
1070
     1
1002
}
1002
{
1000
NOSEL
1070
     0
1002
}
1002
{
1000
BEHIND
1070
     0
1002
}
1002
{
1000
OTHER
1070
     0
1002
}
1002
{
1000
REACTOR
1002
}
  0
LINE
  5
161B
330
1F
100
AcDbEntity
  8
AM_7
100
AcDbLine
 10
660.6855536058983
 20
799.0241272269234
 30
0.0
 11
650.6149471523408
 21
799.0241272269234
 31
0.0
  0
LINE
  5
161C
330
1F
100
AcDbEntity
  8
AM_VIS
100
AcDbLine
 10
566.1855536058983
 20
834.0241272269235
 30
0.0
 11
566.1855536058983
 21
824.0241272269235
 31
0.0
  0
LINE
  5
161D
330
1F
100
AcDbEntity
  8
AM_VIS
100
AcDbLine
 10
613.1855536058983
 20
834.0241272269235
 30
0.0
 11
569.1855536058983
 21
834.0241272269235
 31
0.0
  0
LINE
  5
161E
330
1F
100
AcDbEntity
  8
AM_VIS
100
AcDbLine
 10
616.1855536058983
 20
824.0241272269235
 30
0.0
 11
616.1855536058983
 21
834.0241272269235
 31
0.0
  0
SPLINE
  5
161F
330
1F
100
AcDbEntity
  8
AM_VIS
100
AcDbSpline
210
0.0
220
0.0
230
1.0
 70
     8
 71
     3
 72
    58
 73
    54
 74
     0
 42
0.0000000001
 43
0.0000000001
 40
0.0
 40
0.0
 40
0.0
 40
0.0
 40
1.711250053328894
 40
1.711250053328894
 40
3.42250010665779
 40
3.42250010665779
 40
4.894736261980033
 40
4.894736261980033
 40
6.366972417302276
 40
6.366972417302276
 40
8.682473294021379
 40
8.682473294021379
 40
10.82485389990395
 40
10.82485389990395
 40
12.87601887668259
 40
12.87601887668259
 40
14.87573258470266
 40
14.87573258470266
 40
16.86892230273893
 40
16.86892230273893
 40
18.90166332247292
 40
18.90166332247292
 40
21.01161882775863
 40
21.01161882775863
 40
23.18981336318567
 40
23.18981336318567
 40
25.41759052252916
 40
25.41759052252916
 40
27.67112180305376
 40
27.67112180305376
 40
29.92734599925993
 40
29.92734599925993
 40
32.18269977250175
 40
32.18269977250175
 40
34.44092810582394
 40
34.44092810582394
 40
36.70639559641532
 40
36.70639559641532
 40
38.97978666117417
 40
38.97978666117417
 40
41.25638993706018
 40
41.25638993706018
 40
43.53268484176925
 40
43.53268484176925
 40
45.80505959816224
 40
45.80505959816224
 40
48.06941572917399
 40
48.06941572917399
 40
50.3276701341945
 40
50.3276701341945
 40
52.58421688405716
 40
52.58421688405716
 40
53.02285262913095
 40
53.02285262913095
 40
53.02285262913095
 40
53.02285262913095
 10
656.1855536058983
 20
816.0241272269235
 30
0.0
 10
656.1855536058983
 20
816.0241272269235
 30
0.0
 10
656.1821997969227
 20
816.0117108979164
 30
0.0
 10
656.1677340161104
 20
815.9579738789274
 30
0.0
 10
656.1566472692057
 20
815.9167685278712
 30
0.0
 10
656.1256906820753
 20
815.8009437980112
 30
0.0
 10
656.1071456614581
 20
815.7313748170771
 30
0.0
 10
656.0582978858283
 20
815.5464012464729
 30
0.0
 10
656.0280726088048
 20
815.4312913031613
 30
0.0
 10
655.9345236924136
 20
815.0699745262908
 30
0.0
 10
655.8620121183003
 20
814.786051161146
 30
0.0
 10
655.6978327730985
 20
814.1191418065403
 30
0.0
 10
655.6078168075646
 20
813.7444043307572
 30
0.0
 10
655.414884775756
 20
812.9024830387532
 30
0.0
 10
655.3127576256311
 20
812.4400158554085
 30
0.0
 10
655.1043319330483
 20
811.4378546522488
 30
0.0
 10
654.9982844405067
 20
810.9004906951515
 30
0.0
 10
654.7900809626435
 20
809.7631792055002
 30
0.0
 10
654.6879925757139
 20
809.1635530587849
 30
0.0
 10
654.4947730529356
 20
807.9161754548152
 30
0.0
 10
654.4041423235475
 20
807.2695518548174
 30
0.0
 10
654.2385184471577
 20
805.9338843837457
 30
0.0
 10
654.1641128922719
 20
805.2433706449159
 30
0.0
 10
654.0359441891587
 20
803.8278441603603
 30
0.0
 10
653.9829108396634
 20
803.1023973014631
 30
0.0
 10
653.9017551577317
 20
801.6282661987739
 30
0.0
 10
653.8742170965006
 20
800.8793741507632
 30
0.0
 10
653.8467746361066
 20
799.3707351296446
 30
0.0
 10
653.8472083735332
 20
798.6104368510549
 30
0.0
 10
653.8764304925507
 20
797.0944289440225
 30
0.0
 10
653.9052762497076
 20
796.3391715157212
 30
0.0
 10
653.9892422466955
 20
794.8496266590726
 30
0.0
 10
654.0443434300459
 20
794.1154001157455
 30
0.0
 10
654.1765711083853
 20
792.6814431235424
 30
0.0
 10
654.2537017527147
 20
791.9818083933891
 30
0.0
 10
654.4242060817805
 20
790.6291615207195
 30
0.0
 10
654.5175906869653
 20
789.9763967077413
 30
0.0
 10
654.7139124100622
 20
788.7280547969834
 30
0.0
 10
654.8168856696947
 20
788.1325669706865
 30
0.0
 10
655.0250158166391
 20
787.0096602655775
 30
0.0
 10
655.1301580435365
 20
786.482362988221
 30
0.0
 10
655.3351124922401
 20
785.5057075041026
 30
0.0
 10
655.4349094336275
 20
785.0563495684042
 30
0.0
 10
655.6221402340079
 20
784.2438500034131
 30
0.0
 10
655.7096071754958
 20
783.8804684955015
 30
0.0
 10
655.8659514312885
 20
783.2471396279669
 30
0.0
 10
655.934862821995
 20
782.9769488193727
 30
0.0
 10
656.0492757562251
 20
782.5350909829097
 30
0.0
 10
656.0948250752199
 20
782.363181596317
 30
0.0
 10
656.1595043490624
 20
782.1205375277078
 30
0.0
 10
656.1786542527179
 20
782.0497088277628
 30
0.0
 10
656.1850341494582
 20
782.0260524375697
 30
0.0
 10
656.1855509395145
 20
782.0241293791045
 30
0.0
 10
656.1855536058983
 20
782.0241272269223
 30
0.0
  0
SPLINE
  5
1620
330
1F
100
AcDbEntity
  8
AM_VIS
100
AcDbSpline
210
0.0
220
0.0
230
1.0
 70
     8
 71
     3
 72
    56
 73
    52
 74
     0
 42
0.0000000001
 43
0.0000000001
 40
53.02285262913134
 40
53.02285262913134
 40
53.02285262913134
 40
53.02285262913134
 40
54.84179289516799
 40
54.84179289516799
 40
57.09864486185125
 40
57.09864486185125
 40
59.35571466512236
 40
59.35571466512236
 40
61.61722527318048
 40
61.61722527318048
 40
63.88663400395147
 40
63.88663400395147
 40
66.16188682378496
 40
66.16188682378496
 40
68.43874476623451
 40
68.43874476623451
 40
70.71391574245139
 40
70.71391574245139
 40
72.98287430654557
 40
72.98287430654557
 40
75.24349832064899
 40
75.24349832064899
 40
77.49940072190771
 40
77.49940072190771
 40
79.75505626502737
 40
79.75505626502737
 40
82.01159191799233
 40
82.01159191799233
 40
84.25218866577116
 40
84.25218866577116
 40
86.45081603645342
 40
86.45081603645342
 40
88.58514337096281
 40
88.58514337096281
 40
90.63921784367225
 40
90.63921784367225
 40
92.63827913355335
 40
92.63827913355335
 40
94.63193049088173
 40
94.63193049088173
 40
96.66394466816486
 40
96.66394466816486
 40
98.77422740281954
 40
98.77422740281954
 40
100.9997232851987
 40
100.9997232851987
 40
102.2612187784646
 40
102.2612187784646
 40
103.5227142717305
 40
103.5227142717305
 40
106.0457052582624
 40
106.0457052582624
 40
106.0457052582624
 40
106.0457052582624
 10
526.1855536058983
 20
816.0241272269248
 30
0.0
 10
526.1855704814925
 20
816.0241131255533
 30
0.0
 10
526.1945161548383
 20
815.9909945547209
 30
0.0
 10
526.2342649821467
 20
815.8428497574977
 30
0.0
 10
526.2698182724461
 20
815.7099890897642
 30
0.0
 10
526.3655489208622
 20
815.3452028720483
 30
0.0
 10
526.42571880368
 20
815.1132752975865
 30
0.0
 10
526.5664586114844
 20
814.5550050933614
 30
0.0
 10
526.6470473856234
 20
814.228518077466
 30
0.0
 10
526.8230577721014
 20
813.4871563509413
 30
0.0
 10
526.918516937444
 20
813.071999697583
 30
0.0
 10
527.117797380658
 20
812.1599555125079
 30
0.0
 10
527.2216262601659
 20
811.6628618333624
 30
0.0
 10
527.4302947423539
 20
810.5956764880637
 30
0.0
 10
527.5351174811375
 20
810.0255529555955
 30
0.0
 10
527.7382308024234
 20
808.8222802963276
 30
0.0
 10
527.8365108510724
 20
808.1892027274228
 30
0.0
 10
528.0193471337888
 20
806.8708440641206
 30
0.0
 10
528.1039212471851
 20
806.1856444900966
 30
0.0
 10
528.2528553054207
 20
804.7764240530536
 30
0.0
 10
528.3172611581094
 20
804.0525972303317
 30
0.0
 10
528.4210457145827
 20
802.5797727889129
 30
0.0
 10
528.4604609729767
 20
801.8308940539739
 30
0.0
 10
528.5114181832077
 20
800.3214026245462
 30
0.0
 10
528.522967025231
 20
799.5608932896646
 30
0.0
 10
528.5173838826694
 20
798.0407945472182
 30
0.0
 10
528.5002890514506
 20
797.2808128582673
 30
0.0
 10
528.4382128119641
 20
795.7714774694189
 30
0.0
 10
528.393421349835
 20
795.0220267127278
 30
0.0
 10
528.2786076824423
 20
793.5480231713548
 30
0.0
 10
528.209057110339
 20
792.8232141873787
 30
0.0
 10
528.0495422694648
 20
791.4132936326165
 30
0.0
 10
527.9602150649598
 20
790.7275981995443
 30
0.0
 10
527.7678323659447
 20
789.4106009109909
 30
0.0
 10
527.6654234984808
 20
788.7788855102684
 30
0.0
 10
527.4567092685238
 20
787.591970922935
 30
0.0
 10
527.3506656967611
 20
787.0352898175704
 30
0.0
 10
527.1425862826372
 20
786.0038678499916
 30
0.0
 10
527.0406182411688
 20
785.528992593017
 30
0.0
 10
526.8474141358574
 20
784.6647760759427
 30
0.0
 10
526.7564853917802
 20
784.2773112091121
 30
0.0
 10
526.5904967590586
 20
783.5891130176954
 30
0.0
 10
526.5158749545107
 20
783.2909819058421
 30
0.0
 10
526.3871545537177
 20
782.7854518438161
 30
0.0
 10
526.3348061455316
 20
782.5854140786183
 30
0.0
 10
526.2741519924957
 20
782.3553556042037
 30
0.0
 10
526.2565672424962
 20
782.2892057426559
 30
0.0
 10
526.2283248253598
 20
782.1832871291161
 30
0.0
 10
526.2175494949978
 20
782.1430900123254
 30
0.0
 10
526.1926142865513
 20
782.0502133817653
 30
0.0
 10
526.1855536058983
 20
782.0241272269234
 30
0.0
 10
526.1855536058983
 20
782.0241272269234
 30
0.0
  0
LINE
  5
1621
330
1F
100
AcDbEntity
  8
AM_VIS
100
AcDbLine
 10
531.1855536058983
 20
729.0241272269234
 30
0.0
 11
531.1855536058983
 21
704.1956067866382
 31
0.0
  0
LINE
  5
1622
330
1F
100
AcDbEntity
  8
AM_VIS
100
AcDbLine
 10
651.1855536058983
 20
729.0241272269234
 30
0.0
 11
651.1855536058983
 21
699.3112911957304
 31
0.0
  0
LINE
  5
1623
330
1F
100
AcDbEntity
  8
AM_VIS
100
AcDbLine
 10
641.1855536058983
 20
819.0241272269235
 30
0.0
 11
641.1855536058983
 21
824.0241272269235
 31
0.0
  0
LINE
  5
1624
330
1F
100
AcDbEntity
  8
AM_VIS
100
AcDbLine
 10
541.1855536058983
 20
819.0241272269235
 30
0.0
 11
541.1855536058983
 21
824.0241272269235
 31
0.0
  0
LINE
  5
1625
330
1F
100
AcDbEntity
  8
AM_VIS
100
AcDbLine
 10
526.1855536058983
 20
782.0241272269234
 30
0.0
 11
526.1855536058983
 21
729.0241272269234
 31
0.0
  0
LINE
  5
1626
330
1F
100
AcDbEntity
  8
AM_VIS
100
AcDbLine
 10
526.1855536058983
 20
819.0241272269235
 30
0.0
 11
526.1855536058983
 21
816.0241272269248
 31
0.0
  0
LINE
  5
1627
330
1F
100
AcDbEntity
  8
AM_VIS
100
AcDbLine
 10
656.1855536058983
 20
782.0241272269221
 30
0.0
 11
656.1855536058983
 21
729.0241272269234
 31
0.0
  0
LINE
  5
1628
330
1F
100
AcDbEntity
  8
AM_VIS
100
AcDbLine
 10
656.1855536058983
 20
819.0241272269235
 30
0.0
 11
656.1855536058983
 21
816.0241272269235
 31
0.0
  0
LINE
  5
1629
330
1F
100
AcDbEntity
  8
AM_VIS
100
AcDbLine
 10
541.1855536058983
 20
824.0241272269235
 30
0.0
 11
641.1855536058983
 21
824.0241272269235
 31
0.0
  0
LINE
  5
162A
330
1F
100
AcDbEntity
  8
AM_VIS
100
AcDbLine
 10
613.1855536058983
 20
834.0241272269235
 30
0.0
 11
616.1855536058983
 21
834.0241272269235
 31
0.0
  0
LINE
  5
162B
330
1F
100
AcDbEntity
  8
AM_VIS
100
AcDbLine
 10
566.1855536058983
 20
834.0241272269235
 30
0.0
 11
569.1855536058983
 21
834.0241272269235
 31
0.0
  0
LINE
  5
162C
330
1F
100
AcDbEntity
  8
AM_VIS
100
AcDbLine
 10
656.1855536058983
 20
819.0241272269235
 30
0.0
 11
526.1855536058983
 21
819.0241272269235
 31
0.0
  0
LINE
  5
162D
330
1F
100
AcDbEntity
  8
AM_VIS
100
AcDbLine
 10
656.1855536058983
 20
729.0241272269234
 30
0.0
 11
526.1855536058983
 21
729.0241272269234
 31
0.0
  0
LINE
  5
162E
330
1F
100
AcDbEntity
  8
AM_7
100
AcDbLine
 10
591.1855536058983
 20
840.2623315039299
 30
0.0
 11
591.1855536058978
 21
692.9800803383544
 31
0.0
1001
GENIUS_GENODEF_13
1002
{
1000
HIER
1070
     0
1002
}
1002
{
1000
MANEDIT
1070
     0
1002
}
1002
{
1000
NOSEL
1070
     0
1002
}
1002
{
1000
BEHIND
1070
     0
1002
}
1002
{
1000
OTHER
1070
     0
1002
}
1002
{
1000
REACTOR
1002
}
1001
GENIUS_GENOBJ-N-CEN_13
1002
{
1000
OWNER
1000
GEN
1002
}
1001
GENIUS_GENCEN_19
1002
{
1040
2.0
1002
}
  0
INSERT
  5
162F
330
1F
100
AcDbEntity
  8
0
100
AcDbBlockReference
  2
A$C044A2EE0
 10
491.6855537327474
 20
776.5241272584363
 30
0.0
  0
INSERT
  5
1630
102
{ACAD_REACTORS
330
163C
102
}
330
1F
100
AcDbEntity
  8
0
100
AcDbBlockReference
  2
A$C044A2EE0
 10
690.6855534790492
 20
776.5241272584363
 30
0.0
 41
-1.0
  0
DIMENSION
  5
1631
330
1F
100
AcDbEntity
  8
AM_5
100
AcDbDimension
  2
*D23
 10
688.6855536058983
 20
851.0578339774134
 30
0.0
 11
591.1855536058983
 21
853.9836798556979
 31
0.0
 70
    32
  1
(<>)
 71
     5
 42
195.0
  3
AM_ISO$0
100
AcDbAlignedDimension
 13
493.6855536058983
 23
820.5241272269232
 33
0.0
 14
688.6855536058983
 24
820.5241272269232
 34
0.0
100
AcDbRotatedDimension
1001
ACAD
1000
DSTYLE
1002
{
1070
    40
1040
1.0
1070
   144
1040
1.0
1070
   272
1070
     8
1002
}
  0
SPLINE
  5
1633
330
1F
100
AcDbEntity
  8
0
100
AcDbSpline
210
0.0
220
0.0
230
1.0
 70
     8
 71
     3
 72
    11
 73
     7
 74
     0
 42
0.0000000001
 43
0.0000000001
 40
18.29182790579905
 40
18.29182790579905
 40
18.29182790579905
 40
18.29182790579905
 40
40.7074493577508
 40
71.10769619577675
 40
90.261471344498
 40
139.9521310317987
 40
139.9521310317987
 40
139.9521310317987
 40
139.9521310317987
 10
531.1855536058987
 20
704.1956067866193
 30
0.0
 10
538.653987113787
 20
704.3228977280758
 30
0.0
 10
556.2648095316653
 20
703.7301217218984
 30
0.0
 10
580.3596843328564
 20
696.5438405511009
 30
0.0
 10
612.0975540054728
 20
709.7393346952648
 30
0.0
 10
634.7494845067999
 20
704.7943204727658
 30
0.0
 10
651.1855536058942
 20
699.3112911957231
 30
0.0
  0
TEXT
  5
1634
330
1F
100
AcDbEntity
  8
0
100
AcDbText
 10
450.8356345213023
 20
905.4340188067953
 30
0.0
 40
9.728000000000001
  1
G & NPT thread
 41
0.75
  7
CHINESET
100
AcDbText
  0
LINE
  5
1635
330
1F
100
AcDbEntity
  8
0
100
AcDbLine
 10
660.6855536058983
 20
782.3741272269233
 30
0.0
 11
656.092029592974
 21
782.3741272269233
 31
0.0
  0
LINE
  5
1636
330
1F
100
AcDbEntity
  8
0
100
AcDbLine
 10
660.6855536058983
 20
815.6741272269233
 30
0.0
 11
656.092029592974
 21
815.6741272269233
 31
0.0
  0
LINE
  5
1637
330
1F
100
AcDbEntity
  8
0
100
AcDbLine
 10
521.6855536058988
 20
782.3741272269233
 30
0.0
 11
526.2790776188226
 21
782.3741272269233
 31
0.0
  0
LINE
  5
1638
330
1F
100
AcDbEntity
  8
0
100
AcDbLine
 10
521.6855536058988
 20
815.6741272269233
 30
0.0
 11
526.2790776188226
 21
815.6741272269233
 31
0.0
  0
LINE
  5
1639
330
1F
100
AcDbEntity
  8
AM_7
100
AcDbLine
 10
521.6855536058988
 20
799.0241272269234
 30
0.0
 11
531.7561600594558
 21
799.0241272269234
 31
0.0
  0
DIMENSION
  5
163A
102
{ACAD_XDICTIONARY
360
163B
102
}
102
{ACAD_REACTORS
330
163C
102
}
330
1F
100
AcDbEntity
  8
AM_5
100
AcDbDimension
  2
*D24
 10
702.6855546058982
 20
821.5241272269233
 30
0.0
 11
699.9355546058979
 21
799.0241272269233
 31
0.0
 70
    32
  1
%%c<>
 71
     5
 42
45.0
  3
AM_ISO$0
100
AcDbAlignedDimension
 13
687.6855536058983
 23
776.5241272269232
 33
0.0
 14
687.6855536058983
 24
821.5241272269233
 34
0.0
 50
90.0
100
AcDbRotatedDimension
1001
ACAD
1000
DSTYLE
1002
{
1070
    40
1040
1.0
1070
   144
1040
1.0
1070
   272
1070
     8
1002
}
  0
LWPOLYLINE
  5
16E5
330
1F
100
AcDbEntity
  8
LOGO
 62
     4
100
AcDbPolyline
 90
        4
 70
     1
 43
0.0
 10
433.9604553612566
 20
674.3312613289081
 10
730.8713678930509
 20
674.3312613289081
 10
730.871367893051
 20
931.6553422454008
 10
433.9604553612566
 20
931.6553422454008
1001
GENIUS_GENREC_14
1002
{
1000
PYDIR
1011
433.9604553612566
1021
931.6553422454008
1031
0.0
1002
}
1002
{
1000
PXDIR
1011
730.8713678930509
1021
674.3312613289081
1031
0.0
1002
}
1002
{
1000
PORI
1011
433.9604553612566
1021
674.3312613289081
1031
0.0
1002
}
1002
{
1000
PINS
1011
433.9604553612566
1021
674.3312613289081
1031
0.0
1002
}
1002
{
1000
PINS2
1011
730.871367893051
1021
931.6553422454008
1031
0.0
1002
}
1002
{
1000
C
1070
     1
1002
}
1001
GENIUS_GENODEF_13
1002
{
1000
HIER
1070
     0
1002
}
1002
{
1000
MANEDIT
1070
     0
1002
}
1002
{
1000
NOSEL
1070
     0
1002
}
1002
{
1000
BEHIND
1070
     0
1002
}
1002
{
1000
OTHER
1070
     0
1002
}
1002
{
1000
REACTOR
1002
}
1001
GENIUS_GENOBJ-N-REC_13
1002
{
1000
OWNER
1000
GEN
1002
}
  0
LWPOLYLINE
  5
175B
330
1F
100
AcDbEntity
  8
LOGO
 62
     4
100
AcDbPolyline
 90
        4
 70
     1
 43
0.0
 10
433.9604553612565
 20
346.7073513094624
 10
730.8713678930506
 20
346.7073513094624
 10
730.871367893051
 20
674.3312613289081
 10
433.9604553612566
 20
674.3312613289081
1001
GENIUS_GENREC_14
1002
{
1000
PYDIR
1011
433.9604553612566
1021
674.3312613289081
1031
0.0
1002
}
1002
{
1000
PXDIR
1011
730.8713678930506
1021
346.7073513094624
1031
0.0
1002
}
1002
{
1000
PORI
1011
433.9604553612565
1021
346.7073513094624
1031
0.0
1002
}
1002
{
1000
PINS
1011
433.9604553612565
1021
346.7073513094624
1031
0.0
1002
}
1002
{
1000
PINS2
1011
730.871367893051
1021
674.3312613289081
1031
0.0
1002
}
1002
{
1000
C
1070
     1
1002
}
1001
GENIUS_GENODEF_13
1002
{
1000
HIER
1070
     0
1002
}
1002
{
1000
MANEDIT
1070
     0
1002
}
1002
{
1000
NOSEL
1070
     0
1002
}
1002
{
1000
BEHIND
1070
     0
1002
}
1002
{
1000
OTHER
1070
     0
1002
}
1002
{
1000
REACTOR
1002
}
1001
GENIUS_GENOBJ-N-REC_13
1002
{
1000
OWNER
1000
GEN
1002
}
  0
LINE
  5
17FC
330
1F
100
AcDbEntity
  8
AM_7
100
AcDbLine
 10
559.6130535768156
 20
465.2898236068797
 30
0.0
 11
559.6130535768156
 21
427.2898236068799
 31
0.0
  0
LINE
  5
17FD
330
1F
100
AcDbEntity
  8
AM_7
100
AcDbLine
 10
479.6130535768156
 20
446.28982360688
 30
0.0
 11
479.6130535768156
 21
446.28982360688
 31
0.0
  0
LINE
  5
17FE
330
1F
100
AcDbEntity
  8
AM_7
100
AcDbLine
 10
479.6130535768156
 20
446.28982360688
 30
0.0
 11
479.6130535768156
 21
446.28982360688
 31
0.0
  0
LINE
  5
17FF
330
1F
100
AcDbEntity
  8
AM_7
100
AcDbLine
 10
472.1130535768156
 20
446.28982360688
 30
0.0
 11
479.6130535768156
 21
446.28982360688
 31
0.0
  0
LINE
  5
1800
330
1F
100
AcDbEntity
  8
AM_7
100
AcDbLine
 10
479.6130535768156
 20
446.28982360688
 30
0.0
 11
487.1130535768156
 21
446.28982360688
 31
0.0
  0
LINE
  5
1801
330
1F
100
AcDbEntity
  8
AM_7
100
AcDbLine
 10
479.6130535768156
 20
438.7898236068799
 30
0.0
 11
479.6130535768156
 21
446.28982360688
 31
0.0
  0
LINE
  5
1802
330
1F
100
AcDbEntity
  8
AM_7
100
AcDbLine
 10
479.6130535768156
 20
446.28982360688
 30
0.0
 11
479.6130535768156
 21
453.7898236068797
 31
0.0
  0
LINE
  5
1803
330
1F
100
AcDbEntity
  8
AM_7
100
AcDbLine
 10
559.6130535768156
 20
553.1202284911041
 30
0.0
 11
559.6130535768156
 21
553.1202284911041
 31
0.0
  0
LINE
  5
1804
330
1F
100
AcDbEntity
  8
AM_7
100
AcDbLine
 10
559.6130535768156
 20
553.1202284911041
 30
0.0
 11
559.6130535768156
 21
553.1202284911041
 31
0.0
  0
LINE
  5
1805
330
1F
100
AcDbEntity
  8
AM_7
100
AcDbLine
 10
494.1130535768157
 20
553.1202284911041
 30
0.0
 11
559.6130535768156
 21
553.1202284911041
 31
0.0
  0
LINE
  5
1806
330
1F
100
AcDbEntity
  8
AM_7
100
AcDbLine
 10
559.6130535768156
 20
553.1202284911041
 30
0.0
 11
625.1130535768156
 21
553.1202284911041
 31
0.0
  0
LINE
  5
1807
330
1F
100
AcDbEntity
  8
AM_7
100
AcDbLine
 10
559.6130535768156
 20
487.6202284911041
 30
0.0
 11
559.6130535768156
 21
553.1202284911041
 31
0.0
  0
LINE
  5
1808
330
1F
100
AcDbEntity
  8
AM_7
100
AcDbLine
 10
559.6130535768156
 20
553.1202284911041
 30
0.0
 11
559.6130535768156
 21
618.6202284911042
 31
0.0
  0
DIMENSION
  5
1809
330
1F
100
AcDbEntity
  8
AM_5
100
AcDbDimension
  2
*D34
 10
651.6130535768156
 20
385.28982360688
 30
0.0
 11
561.1717273851268
 21
385.28982360688
 31
0.0
 70
   160
 71
     5
 42
184.0
  3
AM_ISO$0
100
AcDbAlignedDimension
 13
467.6130535768156
 23
430.2898236068799
 33
0.0
 14
651.6130535768156
 24
430.2898236068799
 34
0.0
100
AcDbRotatedDimension
1001
ACAD
1000
DSTYLE
1002
{
1070
    40
1040
2.0
1070
   271
1070
     0
1002
}
  0
DIMENSION
  5
180A
330
1F
100
AcDbEntity
  8
AM_5
100
AcDbDimension
  2
*D35
 10
687.8747116115615
 20
462.2898236068797
 30
0.0
 11
687.8747116115614
 21
446.28982360688
 31
0.0
 70
   160
 71
     5
 42
31.99999999999977
  3
AM_ISO$0
100
AcDbAlignedDimension
 13
651.6130535768156
 23
430.2898236068799
 33
0.0
 14
651.6130535768156
 24
462.2898236068797
 34
0.0
 50
90.0
100
AcDbRotatedDimension
1001
ACAD
1000
DSTYLE
1002
{
1070
    40
1040
2.0
1070
   271
1070
     0
1002
}
  0
DIMENSION
  5
180B
330
1F
100
AcDbEntity
  8
AM_5
100
AcDbDimension
  2
*D36
 10
687.8747116115614
 20
492.1202284911041
 30
0.0
 11
682.3747116115613
 21
522.6202284911042
 31
0.0
 70
    32
  1
<>
 71
     5
 42
60.99999999999994
  3
AM_ISO$0
100
AcDbAlignedDimension
 13
625.1130535768156
 23
553.1202284911041
 33
0.0
 14
651.6130535768156
 24
492.1202284911041
 34
0.0
 50
90.0
100
AcDbRotatedDimension
1001
ACAD
1000
DSTYLE
1002
{
1070
    40
1040
2.0
1070
   271
1070
     0
1002
}
  0
DIMENSION
  5
180C
330
1F
100
AcDbEntity
  8
AM_5
100
AcDbDimension
  2
*D37
 10
669.8747116115614
 20
493.6202284911042
 30
0.0
 11
664.3740226351833
 21
511.3193131367736
 31
0.0
 70
    32
  1
<>
 71
     5
 42
1.5
  3
AM_ISO$0
100
AcDbAlignedDimension
 13
651.6130535768156
 23
492.1202284911041
 33
0.0
 14
651.6130535768156
 24
493.6202284911042
 34
0.0
 50
90.0
100
AcDbRotatedDimension
1001
ACAD
1000
DSTYLE
1002
{
1070
    40
1040
2.0
1070
   271
1070
     0
1002
}
  0
DIMENSION
  5
180D
330
1F
100
AcDbEntity
  8
AM_5
100
AcDbDimension
  2
*D38
 10
711.5679219545496
 20
615.6202284911041
 30
0.0
 11
711.5679219545495
 21
554.3937607909542
 31
0.0
 70
   160
 71
     5
 42
123.4999999999999
  3
AM_ISO$0
100
AcDbAlignedDimension
 13
651.6130535768156
 23
492.1202284911041
 33
0.0
 14
559.6130535768156
 24
615.6202284911041
 34
0.0
 50
90.0
100
AcDbRotatedDimension
1001
ACAD
1000
DSTYLE
1002
{
1070
    40
1040
2.0
1070
   271
1070
     0
1002
}
  0
LINE
  5
180E
330
1F
100
AcDbEntity
  8
AM_7
100
AcDbLine
 10
639.6130535768157
 20
446.28982360688
 30
0.0
 11
639.6130535768157
 21
446.28982360688
 31
0.0
  0
LINE
  5
180F
330
1F
100
AcDbEntity
  8
AM_7
100
AcDbLine
 10
639.6130535768157
 20
446.28982360688
 30
0.0
 11
639.6130535768157
 21
446.28982360688
 31
0.0
  0
LINE
  5
1810
330
1F
100
AcDbEntity
  8
AM_7
100
AcDbLine
 10
632.1130535768157
 20
446.28982360688
 30
0.0
 11
639.6130535768157
 21
446.28982360688
 31
0.0
  0
LINE
  5
1811
330
1F
100
AcDbEntity
  8
AM_7
100
AcDbLine
 10
639.6130535768157
 20
446.28982360688
 30
0.0
 11
647.1130535768156
 21
446.28982360688
 31
0.0
  0
LINE
  5
1812
330
1F
100
AcDbEntity
  8
AM_7
100
AcDbLine
 10
639.6130535768157
 20
438.7898236068799
 30
0.0
 11
639.6130535768157
 21
446.28982360688
 31
0.0
  0
LINE
  5
1813
330
1F
100
AcDbEntity
  8
AM_7
100
AcDbLine
 10
639.6130535768157
 20
446.28982360688
 30
0.0
 11
639.6130535768157
 21
453.7898236068797
 31
0.0
  0
DIMENSION
  5
1814
330
1F
100
AcDbEntity
  8
AM_5
100
AcDbDimension
  2
*D39
 10
639.6130535768157
 20
403.2898236068799
 30
0.0
 11
559.6130535768156
 21
408.78982360688
 31
0.0
 70
    32
 71
     5
 42
160.0
  3
AM_ISO$0
100
AcDbAlignedDimension
 13
479.6130535768156
 23
438.7898236068799
 33
0.0
 14
639.6130535768157
 24
438.7898236068799
 34
0.0
100
AcDbRotatedDimension
1001
ACAD
1000
DSTYLE
1002
{
1070
    40
1040
2.0
1070
   271
1070
     0
1002
}
  0
LINE
  5
1815
330
1F
100
AcDbEntity
  8
AM_VIS
100
AcDbLine
 10
651.6130535768156
 20
462.2898236068797
 30
0.0
 11
620.6130535768156
 21
462.2898236068797
 31
0.0
  0
LINE
  5
1816
330
1F
100
AcDbEntity
  8
AM_VIS
100
AcDbLine
 10
620.6130535768156
 20
430.2898236068799
 30
0.0
 11
651.6130535768156
 21
430.2898236068799
 31
0.0
  0
LINE
  5
1817
330
1F
100
AcDbEntity
  8
AM_VIS
100
AcDbLine
 10
620.6130535768156
 20
462.2898236068797
 30
0.0
 11
620.6130535768156
 21
430.2898236068799
 31
0.0
  0
LINE
  5
1818
330
1F
100
AcDbEntity
  8
AM_VIS
100
AcDbLine
 10
498.6130535768157
 20
462.2898236068797
 30
0.0
 11
467.6130535768156
 21
462.2898236068797
 31
0.0
  0
LINE
  5
1819
330
1F
100
AcDbEntity
  8
AM_VIS
100
AcDbLine
 10
498.6130535768157
 20
462.2898236068797
 30
0.0
 11
498.6130535768157
 21
430.2898236068799
 31
0.0
  0
LINE
  5
181A
330
1F
100
AcDbEntity
  8
AM_VIS
100
AcDbLine
 10
467.6130535768156
 20
430.2898236068799
 30
0.0
 11
498.6130535768157
 21
430.2898236068799
 31
0.0
  0
LINE
  5
181B
330
1F
100
AcDbEntity
  8
AM_VIS
100
AcDbLine
 10
467.6130535768156
 20
462.2898236068797
 30
0.0
 11
467.6130535768156
 21
430.2898236068799
 31
0.0
  0
LINE
  5
181C
330
1F
100
AcDbEntity
  8
AM_VIS
100
AcDbLine
 10
651.6130535768156
 20
462.2898236068797
 30
0.0
 11
651.6130535768156
 21
430.2898236068799
 31
0.0
  0
LINE
  5
181D
330
1F
100
AcDbEntity
  8
AM_VIS
100
AcDbLine
 10
620.6130535768156
 20
462.2898236068797
 30
0.0
 11
498.6130535768157
 21
462.2898236068797
 31
0.0
  0
LINE
  5
181E
330
1F
100
AcDbEntity
  8
AM_VIS
100
AcDbLine
 10
498.6130535768157
 20
430.2898236068799
 30
0.0
 11
620.6130535768156
 21
430.2898236068799
 31
0.0
  0
LINE
  5
181F
330
1F
100
AcDbEntity
  8
AM_VIS
100
AcDbLine
 10
651.6130535768156
 20
492.1202284911041
 30
0.0
 11
620.6130535768156
 21
492.1202284911041
 31
0.0
  0
LINE
  5
1820
330
1F
100
AcDbEntity
  8
AM_VIS
100
AcDbLine
 10
620.6130535768156
 20
492.1202284911041
 30
0.0
 11
620.6130535768156
 21
553.1202284911041
 31
0.0
  0
LINE
  5
1821
330
1F
100
AcDbEntity
  8
AM_VIS
100
AcDbLine
 10
498.6130535768157
 20
553.1202284911041
 30
0.0
 11
498.6130535768157
 21
492.1202284911041
 31
0.0
  0
LINE
  5
1822
330
1F
100
AcDbEntity
  8
AM_VIS
100
AcDbLine
 10
498.6130535768157
 20
492.1202284911041
 30
0.0
 11
467.6130535768156
 21
492.1202284911041
 31
0.0
  0
LINE
  5
1823
330
1F
100
AcDbEntity
  8
AM_VIS
100
AcDbLine
 10
467.6130535768156
 20
492.1202284911041
 30
0.0
 11
467.6130535768156
 21
493.6202284911042
 31
0.0
  0
LINE
  5
1824
330
1F
100
AcDbEntity
  8
AM_VIS
100
AcDbLine
 10
467.6130535768156
 20
493.6202284911042
 30
0.0
 11
497.1130535768156
 21
493.6202284911042
 31
0.0
  0
LINE
  5
1825
330
1F
100
AcDbEntity
  8
AM_VIS
100
AcDbLine
 10
497.1130535768156
 20
493.6202284911042
 30
0.0
 11
497.1130535768156
 21
553.1202284911041
 31
0.0
  0
LINE
  5
1826
330
1F
100
AcDbEntity
  8
AM_VIS
100
AcDbLine
 10
622.1130535768156
 20
553.1202284911041
 30
0.0
 11
622.1130535768156
 21
493.6202284911042
 31
0.0
  0
LINE
  5
1827
330
1F
100
AcDbEntity
  8
AM_VIS
100
AcDbLine
 10
622.1130535768156
 20
493.6202284911042
 30
0.0
 11
651.6130535768156
 21
493.6202284911042
 31
0.0
  0
LINE
  5
1828
330
1F
100
AcDbEntity
  8
AM_VIS
100
AcDbLine
 10
651.6130535768156
 20
493.6202284911042
 30
0.0
 11
651.6130535768156
 21
492.1202284911041
 31
0.0
  0
ARC
  5
1829
330
1F
100
AcDbEntity
  8
AM_VIS
100
AcDbCircle
 10
559.6130535768156
 20
553.1202284911041
 30
0.0
 40
61.0
100
AcDbArc
 50
0.0
 51
180.0
  0
ARC
  5
182A
330
1F
100
AcDbEntity
  8
AM_VIS
100
AcDbCircle
 10
559.6130535768156
 20
553.1202284911041
 30
0.0
 40
62.5
100
AcDbArc
 50
0.0
 51
180.0
  0
ARC
  5
182D
330
1F
100
AcDbEntity
  8
AM_7
100
AcDbCircle
 10
559.6130535768156
 20
553.1202284911046
 30
0.0
 40
61.0
100
AcDbArc
 50
180.0
 51
0.0
  0
CIRCLE
  5
182E
102
{ACAD_REACTORS
330
1832
102
}
330
1F
100
AcDbEntity
  8
AM_VIS
100
AcDbCircle
 10
639.6130535768157
 20
446.28982360688
 30
0.0
 40
5.5
  0
CIRCLE
  5
182F
330
1F
100
AcDbEntity
  8
AM_VIS
100
AcDbCircle
 10
479.6130535768156
 20
446.28982360688
 30
0.0
 40
5.5
  0
DIMENSION
  5
1830
102
{ACAD_XDICTIONARY
360
1831
102
}
102
{ACAD_REACTORS
330
1832
102
}
330
1F
100
AcDbEntity
  8
AM_5
100
AcDbDimension
  2
*D40
 10
642.2429718715292
 20
441.4593443591074
 30
0.0
 11
620.1702415230223
 21
482.0012372781612
 31
0.0
 70
   163
 71
     5
 42
11.00000000000273
  3
AM_ISO$3
100
AcDbDiametricDimension
 15
636.9831352821034
 25
451.12030285465
 35
0.0
 40
0.0
1001
ACAD
1000
DSTYLE
1002
{
1070
    40
1040
2.0
1070
    74
1070
     0
1070
   172
1070
     1
1070
   271
1070
     0
1070
   288
1070
     0
1070
   289
1070
     3
1002
}
  0
DIMENSION
  5
1834
330
1F
100
AcDbEntity
  8
AM_5
100
AcDbDimension
  2
*D33
 10
503.7708668247809
 20
528.5712941201198
 30
0.0
 11
583.1366167741816
 21
563.4614855709568
 31
0.0
 70
   163
 71
     5
 42
122.0000000000009
  3
AM_ISO$3
100
AcDbDiametricDimension
 15
615.4552403288501
 25
577.6691628620906
 35
0.0
 40
0.0
1001
ACAD
1000
DSTYLE
1002
{
1070
    40
1040
2.0
1070
    74
1070
     0
1070
   172
1070
     1
1070
   271
1070
     0
1070
   288
1070
     0
1070
   289
1070
     3
1002
}
  0
TEXT
  5
196D
330
1F
100
AcDbEntity
  8
0
100
AcDbText
 10
450.8356345213023
 20
648.1099378903027
 30
0.0
 40
9.728000000000001
  1
Bracket
 41
0.75
  7
CHINESET
100
AcDbText
  0
ENDSEC
  0
SECTION
  2
OBJECTS
  0
DICTIONARY
  5
C
330
0
100
AcDbDictionary
281
     1
  3
ACAD_COLOR
350
BE
  3
ACAD_GROUP
350
D
  3
ACAD_LAYOUT
350
1A
  3
ACAD_MATERIAL
350
BD
  3
ACAD_MLINESTYLE
350
17
  3
ACAD_PLOTSETTINGS
350
19
  3
ACAD_PLOTSTYLENAME
350
E
  3
ACAD_TABLESTYLE
350
11A
  3
ACDBHEADERROUNDTRIPXREC
350
1A2F
  3
AcDbVariableDictionary
350
94
  3
AcmDictionary
350
5B
  3
AMG
350
41
  3
AMGSNAPSETTINGS
350
1B8
  3
DWGPROPS
350
1A2E
  3
MAPISURF_MODULE
350
378
  0
DICTIONARY
  5
63B
330
2
100
AcDbDictionary
280
     1
281
     1
  3
ACAD_LAYERFILTERS
360
1057
  3
ACAD_LAYERSTATES
360
63C
  3
ACLYDICTIONARY
360
1056
  0
DICTIONARY
  5
8F
330
1F
100
AcDbDictionary
280
     1
281
     1
  3
ACAD_INDEX
360
1185
  0
DICTIONARY
  5
549
330
548
100
AcDbDictionary
280
     1
281
     1
  0
DICTIONARY
  5
15BD
330
15BC
100
AcDbDictionary
280
     1
281
     1
  0
DICTIONARY
  5
1409
330
1408
100
AcDbDictionary
280
     1
281
     1
  3
ACAD_DIMASSOC
360
140A
  0
DICTIONARY
  5
1412
330
1411
100
AcDbDictionary
280
     1
281
     1
  3
ACAD_DIMASSOC
360
1413
  0
DICTIONARY
  5
1415
330
1414
100
AcDbDictionary
280
     1
281
     1
  3
ACAD_DIMASSOC
360
1416
  0
DICTIONARY
  5
1418
330
1417
100
AcDbDictionary
280
     1
281
     1
  3
ACAD_DIMASSOC
360
1419
  0
DICTIONARY
  5
163B
330
163A
100
AcDbDictionary
280
     1
281
     1
  3
ACAD_DIMASSOC
360
163C
  0
DICTIONARY
  5
1831
330
1830
100
AcDbDictionary
280
     1
281
     1
  3
ACAD_DIMASSOC
360
1832
  0
DICTIONARY
  5
BE
102
{ACAD_REACTORS
330
C
102
}
330
C
100
AcDbDictionary
281
     1
  0
DICTIONARY
  5
D
102
{ACAD_REACTORS
330
C
102
}
330
C
100
AcDbDictionary
281
     1
  0
DICTIONARY
  5
1A
102
{ACAD_REACTORS
330
C
102
}
330
C
100
AcDbDictionary
281
     1
  3
Model
350
22
  3
配置1
350
1E
  3
配置2
350
26
  0
DICTIONARY
  5
BD
102
{ACAD_REACTORS
330
C
102
}
330
C
100
AcDbDictionary
281
     1
  0
DICTIONARY
  5
17
102
{ACAD_REACTORS
330
C
102
}
330
C
100
AcDbDictionary
281
     1
  3
Standard
350
18
  0
DICTIONARY
  5
19
102
{ACAD_REACTORS
330
C
102
}
330
C
100
AcDbDictionary
281
     1
  0
ACDBDICTIONARYWDFLT
  5
E
102
{ACAD_REACTORS
330
C
102
}
330
C
100
AcDbDictionary
281
     1
  3
Normal
350
F
100
AcDbDictionaryWithDefault
340
F
  0
DICTIONARY
  5
11A
102
{ACAD_REACTORS
330
C
102
}
330
C
100
AcDbDictionary
281
     1
  3
Standard
350
11B
  0
DICTIONARY
  5
1A2F
102
{ACAD_REACTORS
330
C
102
}
330
C
100
AcDbDictionary
281
     1
  0
DICTIONARY
  5
94
102
{ACAD_REACTORS
330
C
102
}
330
C
100
AcDbDictionary
281
     1
  3
CTABLESTYLE
350
138
  3
DIMASSOC
350
96
  3
INDEXCTL
350
95
  3
PROJECTNAME
350
1A2C
  0
DICTIONARY
  5
5B
102
{ACAD_REACTORS
330
C
102
}
330
C
100
AcDbDictionary
281
     1
  3
AcmBOM
350
1B5
  3
AcmStdDictionary
350
61
  3
AMDTSECTSYM_ARROWCOLOR
350
123
  0
DICTIONARY
  5
41
102
{ACAD_REACTORS
330
C
102
}
330
C
100
AcDbDictionary
281
     1
  3
AcMgSettings
350
42
  0
DICTIONARY
  5
1B8
102
{ACAD_REACTORS
330
C
102
}
330
C
100
AcDbDictionary
281
     1
  3
DIMENSION
350
1BD
  3
FEA
350
1BC
  3
HATCH (1)
350
1B9
  3
HATCH (2)
350
1BA
  3
SIMPLE WELD
350
1BE
  3
SYMBOLS
350
1BB
  0
XRECORD
  5
1A2E
102
{ACAD_REACTORS
330
C
102
}
330
C
100
AcDbXrecord
280
     1
  1
DWGPROPS COOKIE
  2

  3

  4

  6

  7

  8

  9

300
AmdtFileType=84
301
=
302
=
303
=
304
=
305
=
306
=
307
=
308
=
309
=
 40
0.0850790509259259
 41
2453616.443301678
 42
2456140.450237627
  1

 90
        1
  0
DICTIONARY
  5
1057
102
{ACAD_REACTORS
330
63B
102
}
330
63B
100
AcDbDictionary
281
     1
  0
DICTIONARY
  5
63C
102
{ACAD_REACTORS
330
63B
102
}
330
63B
100
AcDbDictionary
281
     1
  0
DICTIONARY
  5
1056
102
{ACAD_REACTORS
330
63B
102
}
330
63B
100
AcDbDictionary
281
     1
1001
ACAD
1000
<All
  0
DICTIONARY
  5
1185
102
{ACAD_REACTORS
330
8F
102
}
330
8F
100
AcDbDictionary
281
     1
  3
*A1
350
1186
  0
DIMASSOC
  5
140A
102
{ACAD_REACTORS
330
1409
102
}
330
1409
100
AcDbDimAssoc
330
1408
 90
        3
 70
     0
 71
     0
  1
AcDbOsnapPointRef
 72
    13
331
13F8
 73
     0
 91
        0
 40
0.0
 10
0.0
 20
0.0
 30
2.000000000000000E+50
 75
     0
  1
AcDbOsnapPointRef
 72
    13
331
135E
 73
     0
 91
        0
 40
0.0
 10
0.0
 20
0.0
 30
2.000000000000000E+50
 75
     0
  0
DIMASSOC
  5
1413
102
{ACAD_REACTORS
330
1412
102
}
330
1412
100
AcDbDimAssoc
330
1411
 90
        3
 70
     0
 71
     0
  1
AcDbOsnapPointRef
 72
    13
331
13FD
 73
     0
 91
        0
 40
0.0
 10
0.0
 20
0.0
 30
2.000000000000000E+50
 75
     0
  1
AcDbOsnapPointRef
 72
     1
331
13FF
 73
     0
 91
        0
 40
0.0
 10
0.0
 20
0.0
 30
2.000000000000000E+50
 75
     0
  0
DIMASSOC
  5
1416
102
{ACAD_REACTORS
330
1415
102
}
330
1415
100
AcDbDimAssoc
330
1414
 90
        3
 70
     0
 71
     0
  1
AcDbOsnapPointRef
 72
     1
331
13FE
 73
     0
 91
        0
 40
0.0
 10
0.0
 20
0.0
 30
2.000000000000000E+50
 75
     0
  1
AcDbOsnapPointRef
 72
    13
331
1400
 73
     0
 91
        0
 40
0.0
 10
0.0
 20
0.0
 30
2.000000000000000E+50
 75
     0
  0
DIMASSOC
  5
1419
102
{ACAD_REACTORS
330
1418
102
}
330
1418
100
AcDbDimAssoc
330
1417
 90
        3
 70
     0
 71
     0
  1
AcDbOsnapPointRef
 72
    13
331
13F7
 73
     0
 91
        0
 40
0.0
 10
0.0
 20
0.0
 30
2.000000000000000E+50
 75
     0
  1
AcDbOsnapPointRef
 72
     1
331
13F6
 73
     0
 91
        0
 40
0.0
 10
0.0
 20
0.0
 30
2.000000000000000E+50
 75
     0
  0
DIMASSOC
  5
163C
102
{ACAD_REACTORS
330
163B
102
}
330
163B
100
AcDbDimAssoc
330
163A
 90
        3
 70
     0
 71
     0
  1
AcDbOsnapPointRef
 72
     1
331
1630
331
15C6
 73
     0
 91
        0
 40
0.0
 10
0.0
 20
0.0
 30
2.000000000000000E+50
 75
     0
  1
AcDbOsnapPointRef
 72
     1
331
1630
331
15C7
 73
     0
 91
        0
 40
0.0
 10
0.0
 20
0.0
 30
2.000000000000000E+50
 75
     0
  0
DIMASSOC
  5
1832
102
{ACAD_REACTORS
330
1831
102
}
330
1831
100
AcDbDimAssoc
330
1830
 90
        2
 70
     0
 71
     0
  1
AcDbOsnapPointRef
 72
     3
331
182E
 73
     2
 91
        0
 40
0.0
 10
0.0
 20
0.0
 30
0.0
 75
     0
  0
LAYOUT
  5
22
102
{ACAD_XDICTIONARY
360
1A32
102
}
102
{ACAD_REACTORS
330
1A
102
}
330
1A
100
AcDbPlotSettings
  1

  2
none_device
  4
ISO_A4_(210.00_x_297.00_MM)
  6

 40
7.5
 41
20.0
 42
7.5
 43
20.0
 44
210.0
 45
297.0
 46
0.0
 47
0.0
 48
0.0
 49
0.0
140
0.0
141
0.0
142
1.0
143
5.703149091718081
 70
 11952
 72
     1
 73
     1
 74
     0
  7

 75
     0
147
0.1753417250571558
148
602.0744114135664
149
17.81001685690012
100
AcDbLayout
  1
Model
 70
     1
 71
     0
 10
0.0
 20
0.0
 11
12.0
 21
9.0
 12
0.0
 22
0.0
 32
0.0
 14
0.0
 24
0.0
 34
0.0
 15
0.0
 25
0.0
 35
0.0
146
0.0
 13
0.0
 23
0.0
 33
0.0
 16
1.0
 26
0.0
 36
0.0
 17
0.0
 27
1.0
 37
0.0
 76
     0
330
1F
1001
ACAD_PSEXT
1000
無
1000
無
1000
不適用
1000
除非另選一新建的繪圖機規劃名稱，否則配置將不會出圖。
1070
     0
  0
LAYOUT
  5
1E
102
{ACAD_XDICTIONARY
360
1A30
102
}
102
{ACAD_REACTORS
330
1A
102
}
330
1A
100
AcDbPlotSettings
  1

  2

  4

  6

 40
0.0
 41
0.0
 42
0.0
 43
0.0
 44
0.0
 45
0.0
 46
0.0
 47
0.0
 48
0.0
 49
0.0
140
0.0
141
0.0
142
1.0
143
1.0
 70
   688
 72
     0
 73
     0
 74
     5
  7

 75
    16
147
1.0
148
0.0
149
0.0
100
AcDbLayout
  1
配置1
 70
     1
 71
     1
 10
0.0
 20
0.0
 11
420.0
 21
297.0
 12
0.0
 22
0.0
 32
0.0
 14
1.000000000000000E+20
 24
1.000000000000000E+20
 34
1.000000000000000E+20
 15
-1.000000000000000E+20
 25
-1.000000000000000E+20
 35
-1.000000000000000E+20
146
0.0
 13
0.0
 23
0.0
 33
0.0
 16
1.0
 26
0.0
 36
0.0
 17
0.0
 27
1.0
 37
0.0
 76
     0
330
1B
  0
LAYOUT
  5
26
102
{ACAD_XDICTIONARY
360
1A34
102
}
102
{ACAD_REACTORS
330
1A
102
}
330
1A
100
AcDbPlotSettings
  1

  2

  4

  6

 40
0.0
 41
0.0
 42
0.0
 43
0.0
 44
0.0
 45
0.0
 46
0.0
 47
0.0
 48
0.0
 49
0.0
140
0.0
141
0.0
142
1.0
143
1.0
 70
   688
 72
     0
 73
     0
 74
     5
  7

 75
    16
147
1.0
148
0.0
149
0.0
100
AcDbLayout
  1
配置2
 70
     1
 71
     2
 10
0.0
 20
0.0
 11
12.0
 21
9.0
 12
0.0
 22
0.0
 32
0.0
 14
0.0
 24
0.0
 34
0.0
 15
0.0
 25
0.0
 35
0.0
146
0.0
 13
0.0
 23
0.0
 33
0.0
 16
1.0
 26
0.0
 36
0.0
 17
0.0
 27
1.0
 37
0.0
 76
     0
330
23
  0
MLINESTYLE
  5
18
102
{ACAD_REACTORS
330
17
102
}
330
17
100
AcDbMlineStyle
  2
STANDARD
 70
     0
  3

 62
   256
 51
90.0
 52
90.0
 71
     2
 49
0.5
 62
   256
  6
BYLAYER
 49
-0.5
 62
   256
  6
BYLAYER
  0
ACDBPLACEHOLDER
  5
F
102
{ACAD_REACTORS
330
E
102
}
330
E
  0
TABLESTYLE
  5
11B
102
{ACAD_REACTORS
330
11A
102
}
330
11A
100
AcDbTableStyle
  3
Standard
 70
     0
 71
     0
 40
1.5
 41
1.5
280
     0
281
     0
  7
STANDARD
140
4.5
170
     2
 62
     0
 63
     7
283
     0
274
    -2
284
     1
 64
     0
275
    -2
285
     1
 65
     0
276
    -2
286
     1
 66
     0
277
    -2
287
     1
 67
     0
278
    -2
288
     1
 68
     0
279
    -2
289
     1
 69
     0
  7
STANDARD
140
6.0
170
     5
 62
     0
 63
     7
283
     0
274
    -2
284
     1
 64
     0
275
    -2
285
     1
 65
     0
276
    -2
286
     1
 66
     0
277
    -2
287
     1
 67
     0
278
    -2
288
     1
 68
     0
279
    -2
289
     1
 69
     0
  7
STANDARD
140
4.5
170
     5
 62
     0
 63
     7
283
     0
274
    -2
284
     1
 64
     0
275
    -2
285
     1
 65
     0
276
    -2
286
     1
 66
     0
277
    -2
287
     1
 67
     0
278
    -2
288
     1
 68
     0
279
    -2
289
     1
 69
     0
  0
DICTIONARYVAR
  5
138
102
{ACAD_REACTORS
330
94
102
}
330
94
100
DictionaryVariables
280
     0
  1
STANDARD
  0
DICTIONARYVAR
  5
96
102
{ACAD_REACTORS
330
94
102
}
330
94
100
DictionaryVariables
280
     0
  1
2
  0
DICTIONARYVAR
  5
95
102
{ACAD_REACTORS
330
94
102
}
330
94
100
DictionaryVariables
280
     0
  1
1
  0
DICTIONARYVAR
  5
1A2C
102
{ACAD_REACTORS
330
94
102
}
330
94
100
DictionaryVariables
280
     0
  1

  0
DICTIONARY
  5
1B5
102
{ACAD_REACTORS
330
5B
102
}
330
5B
100
AcDbDictionary
281
     1
  0
DICTIONARY
  5
61
102
{ACAD_REACTORS
330
5B
102
}
330
5B
100
AcDbDictionary
281
     1
  0
XRECORD
  5
123
102
{ACAD_REACTORS
330
5B
102
}
330
5B
100
AcDbXrecord
280
     1
 90
-1023410169
  0
DICTIONARY
  5
42
102
{ACAD_REACTORS
330
41
102
}
330
41
100
AcDbDictionary
281
     1
  3
DWGSETTINGS
350
43
  3
FEM
350
AA
  3
Shaft
350
A7
  3
TRANSSETTINGS
350
44
  0
ACAMGFILTERDAT
  5
1BD
102
{ACAD_REACTORS
330
1B8
102
}
330
1B8
100
AcAmgFilterDat
 70
    15
  1
DIMENSION,AMDT_*_DIM
  2
*
  3
*
  4
*
  5
*
290
     1
  0
ACAMGFILTERDAT
  5
1BC
102
{ACAD_REACTORS
330
1B8
102
}
330
1B8
100
AcAmgFilterDat
 70
    15
  1
*
  2
AM_FEA-AM_*
  3
*
  4
*
  5
*
290
     1
  0
ACAMGFILTERDAT
  5
1B9
102
{ACAD_REACTORS
330
1B8
102
}
330
1B8
100
AcAmgFilterDat
 70
    15
  1
HATCH
  2
*
  3
*
  4
*
  5
*
290
     1
  0
ACAMGFILTERDAT
  5
1BA
102
{ACAD_REACTORS
330
1B8
102
}
330
1B8
100
AcAmgFilterDat
 70
    15
  1
LINE
  2
8,8N,*-8,*-8N,AM_8,AM_8N,*-AM_8,*-AM_8N
  3
*
  4
*
  5
INSERT,STDPART2D
290
     1
  0
ACAMGFILTERDAT
  5
1BE
102
{ACAD_REACTORS
330
1B8
102
}
330
1B8
100
AcAmgFilterDat
 70
    15
  1
ARC
  2
AM_5
  3
*
  4
2
  5
INSERT
290
     0
  0
ACAMGFILTERDAT
  5
1BB
102
{ACAD_REACTORS
330
1B8
102
}
330
1B8
100
AcAmgFilterDat
 70
    15
  1
ACMFCFRAME,ACMDATUMTARGET,ACMDATUMID,ACMWELDSYM,ACMSURFSYM,ACMFEATID,ACMPARTREF,ACMBALLOON,AMDTEDGESYM,AMGSCREWCALCTABLE
  2
*
  3
*
  4
*
  5
*
290
     1
  0
LAYER_INDEX
  5
1186
102
{ACAD_REACTORS
330
1185
102
}
330
1185
100
AcDbIndex
 40
2456140.450237627
100
AcDbLayerIndex
  8
0
360
1187
 90
       20
  8
BORDER
360
1188
 90
        0
  8
AM_CL
360
1189
 90
        0
  8
AM_5
360
118A
 90
       28
  8
Defpoints
360
118B
 90
        0
  8
AM_7
360
118C
 90
       31
  8
AM_VIS
360
118D
 90
      200
  8
底
360
118E
 90
        0
  8
LOGO
360
1569
 90
       79
  8
AM_4
360
1759
 90
        0
  0
DICTIONARY
  5
1A32
330
22
100
AcDbDictionary
280
     1
281
     1
  3
ACAD_XREC_ROUNDTRIP
360
1A33
  0
DICTIONARY
  5
1A30
330
1E
100
AcDbDictionary
280
     1
281
     1
  3
ACAD_XREC_ROUNDTRIP
360
1A31
  0
DICTIONARY
  5
1A34
330
26
100
AcDbDictionary
280
     1
281
     1
  3
ACAD_XREC_ROUNDTRIP
360
1A35
  0
IDBUFFER
  5
1187
330
0
100
AcDbIdBuffer
330
196D
330
140D
330
140E
330
140F
330
1410
330
141A
330
141B
330
141C
330
141D
330
1484
330
1485
330
1486
330
162F
330
1630
330
1633
330
1634
330
1635
330
1636
330
1637
330
1638
  0
IDBUFFER
  5
1188
330
0
100
AcDbIdBuffer
  0
IDBUFFER
  5
1189
330
0
100
AcDbIdBuffer
  0
IDBUFFER
  5
118A
330
0
100
AcDbIdBuffer
330
1809
330
180A
330
180B
330
180C
330
180D
330
1814
330
1830
330
1834
330
135F
330
1360
330
1361
330
1362
330
1363
330
1364
330
1365
330
1366
330
1408
330
1411
330
1414
330
1417
330
141E
330
141F
330
1420
330
1421
330
1631
330
1632
330
163A
330
163D
  0
IDBUFFER
  5
118B
330
0
100
AcDbIdBuffer
  0
IDBUFFER
  5
118C
330
0
100
AcDbIdBuffer
330
17FC
330
17FD
330
17FE
330
17FF
330
1800
330
1801
330
1802
330
1803
330
1804
330
1805
330
1806
330
1807
330
1808
330
180E
330
180F
330
1810
330
1811
330
1812
330
1813
330
182D
330
135B
330
135C
330
135D
330
135E
330
1367
330
1368
330
1369
330
136A
330
161B
330
162E
330
1639
  0
IDBUFFER
  5
118D
330
0
100
AcDbIdBuffer
330
1815
330
1816
330
1817
330
1818
330
1819
330
181A
330
181B
330
181C
330
181D
330
181E
330
181F
330
1820
330
1821
330
1822
330
1823
330
1824
330
1825
330
1826
330
1827
330
1828
330
1829
330
182A
330
182E
330
182F
330
136B
330
136C
330
136D
330
136E
330
136F
330
1370
330
1371
330
1372
330
1373
330
1374
330
1375
330
1376
330
1377
330
1378
330
1379
330
137A
330
137B
330
137C
330
137D
330
137E
330
137F
330
1380
330
1381
330
1382
330
1383
330
1384
330
1385
330
1386
330
1387
330
1388
330
1389
330
138A
330
138B
330
138C
330
138D
330
138E
330
138F
330
1390
330
1391
330
1392
330
1393
330
1394
330
1395
330
1396
330
1397
330
1398
330
1399
330
139A
330
139B
330
139C
330
139D
330
139E
330
139F
330
13A0
330
13A1
330
13A2
330
13A3
330
13A4
330
13A5
330
13A6
330
13A7
330
13A8
330
13A9
330
13AA
330
13AB
330
13AC
330
13AD
330
13AE
330
13AF
330
13B0
330
13B1
330
13B2
330
13B3
330
13B4
330
13B5
330
13B6
330
13B7
330
13B8
330
13B9
330
13BA
330
13BB
330
13BC
330
13BD
330
13BE
330
13BF
330
13C0
330
13C1
330
13C2
330
13C3
330
13C4
330
13C5
330
13C6
330
13C7
330
13C8
330
13C9
330
13CA
330
13CB
330
13CC
330
13CD
330
13CE
330
13CF
330
13D0
330
13D1
330
13D2
330
13D3
330
13D4
330
13D5
330
13D6
330
13D7
330
13D8
330
13D9
330
13DA
330
13DB
330
13DC
330
13DD
330
13DE
330
13DF
330
13E0
330
13E1
330
13E2
330
13E3
330
13E4
330
13E5
330
13E6
330
13E7
330
13E8
330
13E9
330
13EA
330
13EB
330
13EC
330
13ED
330
13EE
330
13EF
330
13F0
330
13F1
330
13F2
330
13F3
330
13F4
330
13F5
330
13F6
330
13F7
330
13F8
330
13F9
330
13FA
330
13FB
330
13FC
330
13FD
330
13FE
330
13FF
330
1400
330
1401
330
1402
330
1403
330
1404
330
1405
330
1406
330
140B
330
140C
330
161C
330
161D
330
161E
330
161F
330
1620
330
1621
330
1622
330
1623
330
1624
330
1625
330
1626
330
1627
330
1628
330
1629
330
162A
330
162B
330
162C
330
162D
  0
IDBUFFER
  5
118E
330
0
100
AcDbIdBuffer
  0
IDBUFFER
  5
1569
330
0
100
AcDbIdBuffer
330
175B
330
1422
330
1423
330
1424
330
1425
330
1426
330
1427
330
1428
330
1429
330
142A
330
142B
330
142C
330
142D
330
142E
330
142F
330
1430
330
1431
330
1432
330
1433
330
1434
330
1435
330
1436
330
1437
330
1438
330
1439
330
143A
330
143B
330
143C
330
143D
330
143E
330
143F
330
1440
330
1444
330
1448
330
1449
330
144D
330
144E
330
144F
330
1450
330
1451
330
1452
330
1453
330
1454
330
1458
330
145C
330
1460
330
1461
330
1462
330
1466
330
1467
330
1468
330
1469
330
146A
330
146B
330
146C
330
146D
330
146E
330
146F
330
1470
330
1471
330
1472
330
1473
330
1474
330
1475
330
1476
330
1477
330
1478
330
1479
330
147A
330
147B
330
147C
330
147D
330
147E
330
147F
330
1480
330
1481
330
1482
330
1483
330
16E5
  0
IDBUFFER
  5
1759
330
0
100
AcDbIdBuffer
  0
XRECORD
  5
1A33
102
{ACAD_REACTORS
330
1A32
102
}
330
1A32
100
AcDbXrecord
280
     1
102
SHADEPLOT
 70
     0
102
SHADEPLOTRESLEVEL
 70
     2
102
SHADEPLOTCUSTOMDPI
 70
   300
  0
XRECORD
  5
1A31
102
{ACAD_REACTORS
330
1A30
102
}
330
1A30
100
AcDbXrecord
280
     1
102
SHADEPLOT
 70
     0
102
SHADEPLOTRESLEVEL
 70
     2
102
SHADEPLOTCUSTOMDPI
 70
   300
  0
XRECORD
  5
1A35
102
{ACAD_REACTORS
330
1A34
102
}
330
1A34
100
AcDbXrecord
280
     1
102
SHADEPLOT
 70
     0
102
SHADEPLOTRESLEVEL
 70
     2
102
SHADEPLOTCUSTOMDPI
 70
   300
  0
ENDSEC
  0
EOF
