  0
SECTION
  2
HEADER
  9
$ACADVER
  1
AC1015
  9
$ACADMAINTVER
 70
    20
  9
$DWGCODEPAGE
  3
ANSI_950
  9
$INSBASE
 10
0.0
 20
0.0
 30
0.0
  9
$EXTMIN
 10
1.000000000000000E+20
 20
1.000000000000000E+20
 30
1.000000000000000E+20
  9
$EXTMAX
 10
-1.000000000000000E+20
 20
-1.000000000000000E+20
 30
-1.000000000000000E+20
  9
$LIMMIN
 10
0.0
 20
0.0
  9
$LIMMAX
 10
420.0
 20
297.0
  9
$ORTHOMODE
 70
     0
  9
$REGENMODE
 70
     1
  9
$FILLMODE
 70
     1
  9
$QTEXTMODE
 70
     0
  9
$MIRRTEXT
 70
     1
  9
$LTSCALE
 40
1.0
  9
$ATTMODE
 70
     1
  9
$TEXTSIZE
 40
1.0
  9
$TRACEWID
 40
1.0
  9
$TEXTSTYLE
  7
STANDARD
  9
$CLAYER
  8
0
  9
$CELTYPE
  6
BYLAYER
  9
$CECOLOR
 62
     6
  9
$CELTSCALE
 40
1.0
  9
$DISPSILH
 70
     0
  9
$DIMSCALE
 40
1.0
  9
$DIMASZ
 40
3.0
  9
$DIMEXO
 40
1.0
  9
$DIMDLI
 40
8.0
  9
$DIMRND
 40
0.0
  9
$DIMDLE
 40
0.0
  9
$DIMEXE
 40
1.0
  9
$DIMTP
 40
0.1
  9
$DIMTM
 40
0.1
  9
$DIMTXT
 40
3.5
  9
$DIMCEN
 40
0.0
  9
$DIMTSZ
 40
0.0
  9
$DIMTOL
 70
     0
  9
$DIMLIM
 70
     0
  9
$DIMTIH
 70
     0
  9
$DIMTOH
 70
     0
  9
$DIMSE1
 70
     0
  9
$DIMSE2
 70
     0
  9
$DIMTAD
 70
     1
  9
$DIMZIN
 70
     8
  9
$DIMBLK
  1

  9
$DIMASO
 70
     1
  9
$DIMSHO
 70
     1
  9
$DIMPOST
  1

  9
$DIMAPOST
  1
"
  9
$DIMALT
 70
     0
  9
$DIMALTD
 70
     2
  9
$DIMALTF
 40
0.0393701
  9
$DIMLFAC
 40
1.0
  9
$DIMTOFL
 70
     1
  9
$DIMTVP
 40
0.0
  9
$DIMTIX
 70
     0
  9
$DIMSOXD
 70
     0
  9
$DIMSAH
 70
     0
  9
$DIMBLK1
  1

  9
$DIMBLK2
  1

  9
$DIMSTYLE
  2
AM_ISO
  9
$DIMCLRD
 70
   256
  9
$DIMCLRE
 70
   256
  9
$DIMCLRT
 70
   256
  9
$DIMTFAC
 40
0.71
  9
$DIMGAP
 40
1.0
  9
$DIMJUST
 70
     0
  9
$DIMSD1
 70
     0
  9
$DIMSD2
 70
     0
  9
$DIMTOLJ
 70
     0
  9
$DIMTZIN
 70
     8
  9
$DIMALTZ
 70
     8
  9
$DIMALTTZ
 70
     0
  9
$DIMUPT
 70
     0
  9
$DIMDEC
 70
     2
  9
$DIMTDEC
 70
     2
  9
$DIMALTU
 70
     2
  9
$DIMALTTD
 70
     2
  9
$DIMTXSTY
  7
STANDARD
  9
$DIMAUNIT
 70
     0
  9
$DIMADEC
 70
     0
  9
$DIMALTRND
 40
0.0
  9
$DIMAZIN
 70
     2
  9
$DIMDSEP
 70
    46
  9
$DIMATFIT
 70
     3
  9
$DIMFRAC
 70
     0
  9
$DIMLDRBLK
  1

  9
$DIMLUNIT
 70
     2
  9
$DIMLWD
 70
    -1
  9
$DIMLWE
 70
    -1
  9
$DIMTMOVE
 70
     0
  9
$LUNITS
 70
     2
  9
$LUPREC
 70
     2
  9
$SKETCHINC
 40
1.0
  9
$FILLETRAD
 40
2.5
  9
$AUNITS
 70
     0
  9
$AUPREC
 70
     0
  9
$MENU
  1
.
  9
$ELEVATION
 40
0.0
  9
$PELEVATION
 40
0.0
  9
$THICKNESS
 40
0.0
  9
$LIMCHECK
 70
     0
  9
$CHAMFERA
 40
2.5
  9
$CHAMFERB
 40
2.5
  9
$CHAMFERC
 40
20.0
  9
$CHAMFERD
 40
0.0
  9
$SKPOLY
 70
     0
  9
$TDCREATE
 40
2454805.686441575
  9
$TDUCREATE
 40
2454805.353108241
  9
$TDUPDATE
 40
2456051.707568716
  9
$TDUUPDATE
 40
2456051.374235382
  9
$TDINDWG
 40
0.1769654514
  9
$TDUSRTIMER
 40
0.1769652662
  9
$USRTIMER
 70
     1
  9
$ANGBASE
 50
0.0
  9
$ANGDIR
 70
     0
  9
$PDMODE
 70
     0
  9
$PDSIZE
 40
0.0
  9
$PLINEWID
 40
0.0
  9
$SPLFRAME
 70
     0
  9
$SPLINETYPE
 70
     6
  9
$SPLINESEGS
 70
     8
  9
$HANDSEED
  5
C4E
  9
$SURFTAB1
 70
     6
  9
$SURFTAB2
 70
     6
  9
$SURFTYPE
 70
     6
  9
$SURFU
 70
     6
  9
$SURFV
 70
     6
  9
$UCSBASE
  2

  9
$UCSNAME
  2

  9
$UCSORG
 10
0.0
 20
0.0
 30
0.0
  9
$UCSXDIR
 10
1.0
 20
0.0
 30
0.0
  9
$UCSYDIR
 10
0.0
 20
1.0
 30
0.0
  9
$UCSORTHOREF
  2

  9
$UCSORTHOVIEW
 70
     0
  9
$UCSORGTOP
 10
0.0
 20
0.0
 30
0.0
  9
$UCSORGBOTTOM
 10
0.0
 20
0.0
 30
0.0
  9
$UCSORGLEFT
 10
0.0
 20
0.0
 30
0.0
  9
$UCSORGRIGHT
 10
0.0
 20
0.0
 30
0.0
  9
$UCSORGFRONT
 10
0.0
 20
0.0
 30
0.0
  9
$UCSORGBACK
 10
0.0
 20
0.0
 30
0.0
  9
$PUCSBASE
  2

  9
$PUCSNAME
  2

  9
$PUCSORG
 10
0.0
 20
0.0
 30
0.0
  9
$PUCSXDIR
 10
1.0
 20
0.0
 30
0.0
  9
$PUCSYDIR
 10
0.0
 20
1.0
 30
0.0
  9
$PUCSORTHOREF
  2

  9
$PUCSORTHOVIEW
 70
     0
  9
$PUCSORGTOP
 10
0.0
 20
0.0
 30
0.0
  9
$PUCSORGBOTTOM
 10
0.0
 20
0.0
 30
0.0
  9
$PUCSORGLEFT
 10
0.0
 20
0.0
 30
0.0
  9
$PUCSORGRIGHT
 10
0.0
 20
0.0
 30
0.0
  9
$PUCSORGFRONT
 10
0.0
 20
0.0
 30
0.0
  9
$PUCSORGBACK
 10
0.0
 20
0.0
 30
0.0
  9
$USERI1
 70
     0
  9
$USERI2
 70
     0
  9
$USERI3
 70
     0
  9
$USERI4
 70
     0
  9
$USERI5
 70
     0
  9
$USERR1
 40
0.0
  9
$USERR2
 40
0.0
  9
$USERR3
 40
0.0
  9
$USERR4
 40
0.0
  9
$USERR5
 40
0.0
  9
$WORLDVIEW
 70
     1
  9
$SHADEDGE
 70
     3
  9
$SHADEDIF
 70
    70
  9
$TILEMODE
 70
     0
  9
$MAXACTVP
 70
    48
  9
$PINSBASE
 10
0.0
 20
0.0
 30
0.0
  9
$PLIMCHECK
 70
     0
  9
$PEXTMIN
 10
34.03759947960046
 20
3.570060687026728
 30
0.0
  9
$PEXTMAX
 10
381.5000994796005
 20
256.2700606870265
 30
165.5914364978229
  9
$PLIMMIN
 10
-7.5
 20
-20.0
  9
$PLIMMAX
 10
412.5
 20
277.0
  9
$UNITMODE
 70
     0
  9
$VISRETAIN
 70
     1
  9
$PLINEGEN
 70
     0
  9
$PSLTSCALE
 70
     1
  9
$TREEDEPTH
 70
  3020
  9
$CMLSTYLE
  2
STANDARD
  9
$CMLJUST
 70
     0
  9
$CMLSCALE
 40
1.0
  9
$PROXYGRAPHICS
 70
     1
  9
$MEASUREMENT
 70
     1
  9
$CELWEIGHT
370
    -1
  9
$ENDCAPS
280
     0
  9
$JOINSTYLE
280
     0
  9
$LWDISPLAY
290
     0
  9
$INSUNITS
 70
     4
  9
$HYPERLINKBASE
  1

  9
$STYLESHEET
  1

  9
$XEDIT
290
     1
  9
$CEPSNTYPE
380
     0
  9
$PSTYLEMODE
290
     1
  9
$FINGERPRINTGUID
  2
{D6685D79-2C54-4304-A5AD-85D6D41B2B23}
  9
$VERSIONGUID
  2
{FC6868E6-BB95-46E3-8C45-88FDED012EAD}
  9
$EXTNAMES
290
     1
  9
$PSVPSCALE
 40
0.0
  9
$OLESTARTUP
290
     0
  0
ENDSEC
  0
SECTION
  2
CLASSES
  0
CLASS
  1
DICTIONARYVAR
  2
AcDbDictionaryVar
  3
ObjectDBX Classes
 90
        0
280
     0
281
     0
  0
CLASS
  1
ACMESTATEMGR
  2
AcMeStateMgr
  3
AcMeServices
 90
        0
280
     0
281
     0
  0
CLASS
  1
ACMESCOPE
  2
AcMeScope
  3
AcMeServices
 90
        0
280
     0
281
     0
  0
CLASS
  1
ACMECOMMANDHISTORY
  2
AcMeCommandHistory
  3
AcMeServices
 90
        0
280
     0
281
     0
  0
CLASS
  1
ACRFINSADJUSTERMGR
  2
AcRfInsAdjusterMgr
  3
AcMeServices
 90
        0
280
     0
281
     0
  0
CLASS
  1
ACMEDRAWINGMAN
  2
AcMeDrawingMan
  3
AcMeServices
 90
        0
280
     0
281
     0
  0
CLASS
  1
AMATTR
  2
AcMeAttribute
  3
AcMeServices
 90
    32768
280
     0
281
     0
  0
CLASS
  1
ACMEBOMCOLUMN
  2
AcMeBOMColumn
  3
AcMeServices
 90
    32768
280
     0
281
     0
  0
CLASS
  1
ACMEBOMCONF
  2
AcMeBOMConf
  3
AcMeServices
 90
    32768
280
     0
281
     0
  0
CLASS
  1
ACMEBOMTABLE
  2
AcMeBOMTable
  3
AcMeServices
 90
    32768
280
     0
281
     0
  0
CLASS
  1
ACMEBOMENTRY
  2
AcMeBOMEntry
  3
AcMeServices
 90
    32768
280
     0
281
     0
  0
CLASS
  1
ACMEVIEW
  2
AcMeView
  3
AcMeServices
 90
        0
280
     0
281
     0
  0
CLASS
  1
ACGREFMASTER
  2
AcGrefMaster
  3
AcAttribServices
 90
        0
280
     0
281
     0
  0
CLASS
  1
AMIMASTER
  2
AmiMaster
  3
AmiServices
 90
        0
280
     0
281
     0
  0
CLASS
  1
ACASGREFMASTER
  2
AcAsGrefMaster
  3
AutoSurfResolverServices
 90
        0
280
     0
281
     0
  0
CLASS
  1
ADAPPL
  2
AcAdAppl
  3
DesignerServices
 90
        0
280
     0
281
     0
  0
CLASS
  1
DEPMGR
  2
AcAdDepMgr
  3
DesignerServices
 90
        0
280
     0
281
     0
  0
CLASS
  1
PARAMMGR
  2
AcAdParamMgr
  3
DesignerServices
 90
        0
280
     0
281
     0
  0
CLASS
  1
PARAMSCOPE
  2
AcAdParamScope
  3
DesignerServices
 90
        0
280
     0
281
     0
  0
CLASS
  1
ACIMSYSVARMAN
  2
AcImSysVarManager
  3
AcMeServices
 90
        0
280
     0
281
     0
  0
CLASS
  1
ACIMINTSYSVAR
  2
AcImIntSysVar
  3
AcMeServices
 90
        0
280
     0
281
     0
  0
CLASS
  1
ACIMREALSYSVAR
  2
AcImRealSysVar
  3
AcMeServices
 90
        0
280
     0
281
     0
  0
CLASS
  1
ACIMSTRSYSVAR
  2
AcImStrSysVar
  3
AcMeServices
 90
        0
280
     0
281
     0
  0
CLASS
  1
NAMEDAPPL
  2
AcAdNamedAppl
  3
DesignerServices
 90
        0
280
     0
281
     0
  0
CLASS
  1
ADHNTMPLT
  2
AdHoleNoteTemplateMgr
  3
DesignerServices
 90
    32768
280
     0
281
     0
  0
CLASS
  1
AM_HNTEMPLATE_MGR_NAME
  2
AdHoleNoteTemplateMgrName
  3
DesignerServices
 90
    32768
280
     0
281
     0
  0
CLASS
  1
ACADGREFMODULE
  2
AcAdGrefModule
  3
AdGrefServices
 90
        0
280
     0
281
     0
  0
CLASS
  1
AM_DRAWING_MGR
  2
AcDmDwgMgr
  3
AcMechDwgViewMgmt
 90
        0
280
     0
281
     0
  0
CLASS
  1
AM_DWG_DOCUMENT
  2
AcDmDwgDocument
  3
AcMechDwgViewMgmt
 90
        0
280
     0
281
     0
  0
CLASS
  1
AM_DWG_SHEET
  2
AcDmSheet
  3
AcMechDwgViewMgmt
 90
        0
280
     0
281
     0
  0
CLASS
  1
AM_VIEWDIMPARMAP
  2
AcDmViewDimParMap
  3
AcMechDwgViewMgmt
 90
        0
280
     0
281
     0
  0
CLASS
  1
AM_DWGMGR_NAME
  2
AcDmDwgMgrName
  3
AcMechDwgViewMgmt
 90
        0
280
     0
281
     0
  0
CLASS
  1
ACAMPROJECT
  2
AcAmProject
  3
DesignerAssemblies
 90
        0
280
     0
281
     0
  0
CLASS
  1
ACAMGRCOMPSET
  2
AcAmGrCompSet
  3
DesignerAssemblies
 90
    32768
280
     1
281
     0
  0
CLASS
  1
ACAMGRCOMPDEFSET
  2
AcAmGrCompDefSet
  3
DesignerAssemblies
 90
        0
280
     0
281
     0
  0
CLASS
  1
ACAMGRCOMPDEF
  2
AcAmGrCompDef
  3
DesignerAssemblies
 90
        0
280
     0
281
     0
  0
CLASS
  1
ACCMCONTEXT
  2
AcCmContext
  3
DesignerAssemblies
 90
        0
280
     0
281
     0
  0
CLASS
  1
ACAMCOMPDEF
  2
AcAmCompDef
  3
DesignerAssemblies
 90
        0
280
     0
281
     0
  0
CLASS
  1
ACAMCOMPDEFMGR
  2
AcAmCompDefMgr
  3
DesignerAssemblies
 90
        0
280
     0
281
     0
  0
CLASS
  1
AMCONTEXTMGR
  2
AcAmContextMgr
  3
DesignerAssemblies
 90
        0
280
     0
281
     0
  0
CLASS
  1
ACAMCONTEXTMODELER
  2
AcAmContextModeler
  3
DesignerAssemblies
 90
        0
280
     0
281
     0
  0
CLASS
  1
ACDMVIEWGEOM
  2
AcDmViewGeometry
  3
AcMechDwgViewMgmt
 90
    32768
280
     0
281
     1
  0
CLASS
  1
CBROWSERAPPOBJECT
  2
CBrowserAppObject
  3
McadcomServices
 90
        0
280
     0
281
     0
  0
CLASS
  1
IM_STATIC_MAN
  2
AcImStaticVarManager
  3
AcMeServices
 90
        0
280
     0
281
     0
  0
CLASS
  1
ASAPP
  2
AcAsAppObject
  3
AutoSurfServices
 90
        0
280
     0
281
     0
  0
CLASS
  1
ACIMDBLSTATICVAR
  2
AcImDblStaticVar
  3
AcMeServices
 90
        0
280
     0
281
     0
  0
CLASS
  1
ACIMSTRSTATICVAR
  2
AcImStrStaticVar
  3
AcMeServices
 90
        0
280
     0
281
     0
  0
CLASS
  1
ACIMINTSTATICVAR
  2
AcImIntStaticVar
  3
AcMeServices
 90
        0
280
     0
281
     0
  0
CLASS
  1
CATALOGSTATE
  2
AcAmCatalogState
  3
DesignerAssemblies
 90
        0
280
     0
281
     0
  0
CLASS
  1
DM_PLACEHOLDER
  2
AcDmSelsetPlaceholder
  3
AcMechDwgViewMgmt
 90
        0
280
     0
281
     0
  0
CLASS
  1
LAYER_INDEX
  2
AcDbLayerIndex
  3
ObjectDBX Classes
 90
        0
280
     0
281
     0
  0
CLASS
  1
IDBUFFER
  2
AcDbIdBuffer
  3
ObjectDBX Classes
 90
        0
280
     0
281
     0
  0
CLASS
  1
ACMSTANDARDJIS
  2
AcmStandardJIS
  3
"Amdt_StdImp|Product Description: AutoCAD Mechanical 2004 DX|Company: Autodesk"
 90
    32768
280
     0
281
     0
  0
CLASS
  1
ACMSTANDARDANSI
  2
AcmStandardANSI
  3
"Amdt_StdImp|Product Description: AutoCAD Mechanical 2004 DX|Company: Autodesk"
 90
    32768
280
     0
281
     0
  0
CLASS
  1
ACMSTANDARDBSI
  2
AcmStandardBSI
  3
"Amdt_StdImp|Product Description: AutoCAD Mechanical 2004 DX|Company: Autodesk"
 90
    32768
280
     0
281
     0
  0
CLASS
  1
ACMSTANDARDDIN
  2
AcmStandardDIN
  3
"Amdt_StdImp|Product Description: AutoCAD Mechanical 2004 DX|Company: Autodesk"
 90
    32768
280
     0
281
     0
  0
CLASS
  1
ACMSTANDARDISO
  2
AcmStandardISO
  3
"Amdt_StdImp|Product Description: AutoCAD Mechanical 2004 DX|Company: Autodesk"
 90
        0
280
     0
281
     0
  0
CLASS
  1
ACDBDICTIONARYWDFLT
  2
AcDbDictionaryWithDefault
  3
ObjectDBX Classes
 90
        0
280
     0
281
     0
  0
CLASS
  1
ACDBPLACEHOLDER
  2
AcDbPlaceHolder
  3
ObjectDBX Classes
 90
        0
280
     0
281
     0
  0
CLASS
  1
LAYOUT
  2
AcDbLayout
  3
ObjectDBX Classes
 90
        0
280
     0
281
     0
  0
CLASS
  1
ACME_DOCUMENT
  2
AcMeDbDoc
  3
AcMeServices
 90
        0
280
     0
281
     0
  0
CLASS
  1
AMGSETTINGSOBJ
  2
AmgSettingsObj
  3
"AcadM|Product Description: AutoCAD Mechanical 2000|Company: Autodesk"
 90
        0
280
     0
281
     0
  0
CLASS
  1
AMGOBJPROPCFG
  2
AmgObjPropCfg
  3
"AmgLay|Product Description: AutoCAD Mechanical 2000|Company: Autodesk"
 90
        1
280
     0
281
     0
  0
CLASS
  1
ACDBENTITYCACHE
  2
AcMeEntityCache
  3
AcMeServices
 90
        0
280
     0
281
     0
  0
CLASS
  1
GSMANAGER
  2
AcMeGSManager
  3
AcMeServices
 90
        0
280
     0
281
     0
  0
CLASS
  1
AMDTINTERNALREACTOR
  2
AmdtInternalReactor
  3
AcMeServices
 90
        0
280
     0
281
     0
  0
CLASS
  1
ACME_DATABASE
  2
AcMeDbDatabase
  3
AcMeServices
 90
        0
280
     0
281
     0
  0
CLASS
  1
ACGREFACADMASTER
  2
AcGrefacadMaster
  3
AcGrefServices
 90
        0
280
     0
281
     0
  0
CLASS
  1
AMDTMENUSTATEMGR
  2
AmdtMenuStateMgr
  3
McadcomServices
 90
        0
280
     0
281
     0
  0
CLASS
  1
AMDTMCOMMENUSTATE
  2
AmdtMcomMenuState
  3
McadcomServices
 90
        0
280
     0
281
     0
  0
CLASS
  1
MAPIADMODULE
  2
MApiAdModule
  3
MApiAdServices
 90
        0
280
     0
281
     0
  0
CLASS
  1
AMDTDMMENUSTATE
  2
AmdtDmMenuState
  3
AcMechDwgViewMgmt
 90
        0
280
     0
281
     0
  0
CLASS
  1
AMDTADMENUSTATE
  2
AmdtAdMenuState
  3
DesignerServices
 90
        0
280
     0
281
     0
  0
CLASS
  1
AMDTAMMENUSTATE
  2
AmdtAmMenuState
  3
DesignerAssemblies
 90
        0
280
     0
281
     0
  0
CLASS
  1
ACMDATADICTIONARY
  2
AcmDataDictionary
  3
"AcmSymBB|Product Description: AutoCAD Mechanical 2004 DX|Company: Autodesk"
 90
        0
280
     0
281
     0
  0
CLASS
  1
ACMDATAENTRYBLOCK
  2
AcmDataEntryBlock
  3
"AcmSymBB|Product Description: AutoCAD Mechanical 2004 DX|Company: Autodesk"
 90
        0
280
     0
281
     0
  0
CLASS
  1
ACMSURFSTANDARDJIS
  2
AcmSurfTextStdJIS
  3
"Amdt_StdImp|Product Description: AutoCAD Mechanical 2004 DX|Company: Autodesk"
 90
    32768
280
     0
281
     0
  0
CLASS
  1
ACMFCFSTANDARDJIS
  2
AcmFCFStdJIS
  3
"Amdt_StdImp|Product Description: AutoCAD Mechanical 2004 DX|Company: Autodesk"
 90
    32768
280
     0
281
     0
  0
CLASS
  1
ACMWELDSTANDARDJIS
  2
AcmWeldingStdJIS
  3
"Amdt_StdImp|Product Description: AutoCAD Mechanical 2004 DX|Company: Autodesk"
 90
    32768
280
     0
281
     0
  0
CLASS
  1
ACMIDSTANDARDJIS
  2
AcmIdStdJIS
  3
"Amdt_StdImp|Product Description: AutoCAD Mechanical 2004 DX|Company: Autodesk"
 90
    32768
280
     0
281
     0
  0
CLASS
  1
ACMDATUMSTANDARDJIS
  2
AcmDatumStdJIS
  3
"Amdt_StdImp|Product Description: AutoCAD Mechanical 2004 DX|Company: Autodesk"
 90
    32768
280
     0
281
     0
  0
CLASS
  1
ACMBOMSTANDARDJIS
  2
AcmBOMStdJIS
  3
"Amdt_StdImp|Product Description: AutoCAD Mechanical 2004 DX|Company: Autodesk"
 90
    32768
280
     0
281
     0
  0
CLASS
  1
ACMSURFSTANDARDANSI
  2
AcmSurfTextStdANSI
  3
"Amdt_StdImp|Product Description: AutoCAD Mechanical 2004 DX|Company: Autodesk"
 90
    32768
280
     0
281
     0
  0
CLASS
  1
ACMFCFSTANDARDANSI
  2
AcmFCFStdANSI
  3
"Amdt_StdImp|Product Description: AutoCAD Mechanical 2004 DX|Company: Autodesk"
 90
    32768
280
     0
281
     0
  0
CLASS
  1
ACMWELDSTANDARDANSI
  2
AcmWeldingStdANSI
  3
"Amdt_StdImp|Product Description: AutoCAD Mechanical 2004 DX|Company: Autodesk"
 90
    32768
280
     0
281
     0
  0
CLASS
  1
ACMIDSTANDARDANSI
  2
AcmIdStdANSI
  3
"Amdt_StdImp|Product Description: AutoCAD Mechanical 2004 DX|Company: Autodesk"
 90
    32768
280
     0
281
     0
  0
CLASS
  1
ACMDATUMSTANDARDANSI
  2
AcmDatumStdANSI
  3
"Amdt_StdImp|Product Description: AutoCAD Mechanical 2004 DX|Company: Autodesk"
 90
    32768
280
     0
281
     0
  0
CLASS
  1
ACMBOMSTANDARDANSI
  2
AcmBOMStdANSI
  3
"Amdt_StdImp|Product Description: AutoCAD Mechanical 2004 DX|Company: Autodesk"
 90
    32768
280
     0
281
     0
  0
CLASS
  1
ACMSURFSTANDARDBSI
  2
AcmSurfTextStdBSI
  3
"Amdt_StdImp|Product Description: AutoCAD Mechanical 2004 DX|Company: Autodesk"
 90
    32768
280
     0
281
     0
  0
CLASS
  1
ACMFCFSTANDARDBSI
  2
AcmFCFStdBSI
  3
"Amdt_StdImp|Product Description: AutoCAD Mechanical 2004 DX|Company: Autodesk"
 90
    32768
280
     0
281
     0
  0
CLASS
  1
ACMWELDSTANDARDBSI
  2
AcmWeldingStdBSI
  3
"Amdt_StdImp|Product Description: AutoCAD Mechanical 2004 DX|Company: Autodesk"
 90
    32768
280
     0
281
     0
  0
CLASS
  1
ACMIDSTANDARDBSI
  2
AcmIdStdBSI
  3
"Amdt_StdImp|Product Description: AutoCAD Mechanical 2004 DX|Company: Autodesk"
 90
    32768
280
     0
281
     0
  0
CLASS
  1
ACMDATUMSTANDARDBSI
  2
AcmDatumStdBSI
  3
"Amdt_StdImp|Product Description: AutoCAD Mechanical 2004 DX|Company: Autodesk"
 90
    32768
280
     0
281
     0
  0
CLASS
  1
ACMBOMSTANDARDBSI
  2
AcmBOMStdBSI
  3
"Amdt_StdImp|Product Description: AutoCAD Mechanical 2004 DX|Company: Autodesk"
 90
    32768
280
     0
281
     0
  0
CLASS
  1
AMDTEDGESTANDARDDIN
  2
AmdtEdgeStdDIN
  3
"Amdt_StdImp|Product Description: AutoCAD Mechanical 2004 DX|Company: Autodesk"
 90
    32768
280
     0
281
     0
  0
CLASS
  1
ACMSURFSTANDARDDIN
  2
AcmSurfTextStdDIN
  3
"Amdt_StdImp|Product Description: AutoCAD Mechanical 2004 DX|Company: Autodesk"
 90
    32768
280
     0
281
     0
  0
CLASS
  1
ACMFCFSTANDARDDIN
  2
AcmFCFStdDIN
  3
"Amdt_StdImp|Product Description: AutoCAD Mechanical 2004 DX|Company: Autodesk"
 90
    32768
280
     0
281
     0
  0
CLASS
  1
ACMWELDSTANDARDDIN
  2
AcmWeldingStdDIN
  3
"Amdt_StdImp|Product Description: AutoCAD Mechanical 2004 DX|Company: Autodesk"
 90
    32768
280
     0
281
     0
  0
CLASS
  1
ACMIDSTANDARDDIN
  2
AcmIdStdDIN
  3
"Amdt_StdImp|Product Description: AutoCAD Mechanical 2004 DX|Company: Autodesk"
 90
    32768
280
     0
281
     0
  0
CLASS
  1
ACMDATUMSTANDARDDIN
  2
AcmDatumStdDIN
  3
"Amdt_StdImp|Product Description: AutoCAD Mechanical 2004 DX|Company: Autodesk"
 90
    32768
280
     0
281
     0
  0
CLASS
  1
ACMBOMSTANDARDDIN
  2
AcmBOMStdDIN
  3
"Amdt_StdImp|Product Description: AutoCAD Mechanical 2004 DX|Company: Autodesk"
 90
    32768
280
     0
281
     0
  0
CLASS
  1
ACMSURFSTANDARDISO
  2
AcmSurfTextStdISO
  3
"Amdt_StdImp|Product Description: AutoCAD Mechanical 2004 DX|Company: Autodesk"
 90
        0
280
     0
281
     0
  0
CLASS
  1
ACMFCFSTANDARDISO
  2
AcmFCFStdISO
  3
"Amdt_StdImp|Product Description: AutoCAD Mechanical 2004 DX|Company: Autodesk"
 90
        0
280
     0
281
     0
  0
CLASS
  1
ACMWELDSTANDARDISO
  2
AcmWeldingStdISO
  3
"Amdt_StdImp|Product Description: AutoCAD Mechanical 2004 DX|Company: Autodesk"
 90
        0
280
     0
281
     0
  0
CLASS
  1
ACMIDSTANDARDISO
  2
AcmIdStdISO
  3
"Amdt_StdImp|Product Description: AutoCAD Mechanical 2004 DX|Company: Autodesk"
 90
        0
280
     0
281
     0
  0
CLASS
  1
ACMDATUMSTANDARDISO
  2
AcmDatumStdISO
  3
"Amdt_StdImp|Product Description: AutoCAD Mechanical 2004 DX|Company: Autodesk"
 90
        0
280
     0
281
     0
  0
CLASS
  1
ACMBOMSTANDARDISO
  2
AcmBOMStdISO
  3
"Amdt_StdImp|Product Description: AutoCAD Mechanical 2004 DX|Company: Autodesk"
 90
        0
280
     0
281
     0
  0
CLASS
  1
AMDTBROWSERDBTAB
  2
AmdtBrowserDbTab
  3
McadcomServices
 90
        0
280
     0
281
     0
  0
CLASS
  1
ACAMGFILTERDAT
  2
AcAmgFilterDat
  3
"AcadM|Product Description: AutoCAD Mechanical 2000|Company: Autodesk"
 90
    32768
280
     0
281
     0
  0
CLASS
  1
MAPIAMMOUDLE
  2
MApiAmModule
  3
MApiAmServices
 90
        0
280
     0
281
     0
  0
CLASS
  1
AMDTMAPISURFMOUDULE
  2
AmdtMApiSurfModule
  3
MApiSurfServices
 90
        0
280
     0
281
     0
  0
CLASS
  1
ACAMGLAYSTD
  2
AcAmgLayStd
  3
"AcAmgLayStd|Product Description: AutoCAD Mechanical 2000|Company: Autodesk"
 90
        0
280
     0
281
     0
  0
CLASS
  1
ACAMGDIMSTD
  2
AcAmgDimStd
  3
"AcAmgDimStd|Product Description: AutoCAD Mechanical 2000|Company: Autodesk"
 90
        0
280
     0
281
     0
  0
CLASS
  1
ACAMGTITLESTD
  2
AcAmgTitleStd
  3
"TITLEAPP"
 90
        0
280
     0
281
     0
  0
CLASS
  1
ACMDETAILSTANDARDJIS
  2
AmdtDetailSymStdJIS
  3
"Amdt_StdImp|Product Description: AutoCAD Mechanical 2004 DX|Company: Autodesk"
 90
    32768
280
     0
281
     0
  0
CLASS
  1
ACMSECTIONSTANDARDJIS
  2
AmdtSectionSymStdJIS
  3
"Amdt_StdImp|Product Description: AutoCAD Mechanical 2004 DX|Company: Autodesk"
 90
    32768
280
     0
281
     0
  0
CLASS
  1
ACMCENTERLINESTANDARDJIS
  2
AmdtCenterLineStdJIS
  3
"Amdt_StdImp|Product Description: AutoCAD Mechanical 2004 DX|Company: Autodesk"
 90
    32768
280
     0
281
     0
  0
CLASS
  1
ACMTHREADLINESTANDARDJIS
  2
AmdtThreadLineStdJIS
  3
"Amdt_StdImp|Product Description: AutoCAD Mechanical 2004 DX|Company: Autodesk"
 90
    32768
280
     0
281
     0
  0
CLASS
  1
ACMDETAILSTANDARDANSI
  2
AmdtDetailSymStdANSI
  3
"Amdt_StdImp|Product Description: AutoCAD Mechanical 2004 DX|Company: Autodesk"
 90
    32768
280
     0
281
     0
  0
CLASS
  1
ACMSECTIONSTANDARDANSI
  2
AmdtSectionSymStdANSI
  3
"Amdt_StdImp|Product Description: AutoCAD Mechanical 2004 DX|Company: Autodesk"
 90
    32768
280
     0
281
     0
  0
CLASS
  1
ACMCENTERLINESTANDARDANSI
  2
AmdtCenterLineStdANSI
  3
"Amdt_StdImp|Product Description: AutoCAD Mechanical 2004 DX|Company: Autodesk"
 90
    32768
280
     0
281
     0
  0
CLASS
  1
ACMTHREADLINESTANDARDANSI
  2
AmdtThreadLineStdANSI
  3
"Amdt_StdImp|Product Description: AutoCAD Mechanical 2004 DX|Company: Autodesk"
 90
    32768
280
     0
281
     0
  0
CLASS
  1
ACMDETAILSTANDARDBSI
  2
AmdtDetailSymStdBSI
  3
"Amdt_StdImp|Product Description: AutoCAD Mechanical 2004 DX|Company: Autodesk"
 90
    32768
280
     0
281
     0
  0
CLASS
  1
ACMSECTIONSTANDARDBSI
  2
AmdtSectionSymStdBSI
  3
"Amdt_StdImp|Product Description: AutoCAD Mechanical 2004 DX|Company: Autodesk"
 90
    32768
280
     0
281
     0
  0
CLASS
  1
ACMCENTERLINESTANDARDBSI
  2
AmdtCenterLineStdBSI
  3
"Amdt_StdImp|Product Description: AutoCAD Mechanical 2004 DX|Company: Autodesk"
 90
    32768
280
     0
281
     0
  0
CLASS
  1
ACMTHREADLINESTANDARDBSI
  2
AmdtThreadLineStdBSI
  3
"Amdt_StdImp|Product Description: AutoCAD Mechanical 2004 DX|Company: Autodesk"
 90
    32768
280
     0
281
     0
  0
CLASS
  1
ACMDETAILSTANDARDDIN
  2
AmdtDetailSymStdDIN
  3
"Amdt_StdImp|Product Description: AutoCAD Mechanical 2004 DX|Company: Autodesk"
 90
    32768
280
     0
281
     0
  0
CLASS
  1
ACMSECTIONSTANDARDDIN
  2
AmdtSectionSymStdDIN
  3
"Amdt_StdImp|Product Description: AutoCAD Mechanical 2004 DX|Company: Autodesk"
 90
    32768
280
     0
281
     0
  0
CLASS
  1
ACMCENTERLINESTANDARDDIN
  2
AmdtCenterLineStdDIN
  3
"Amdt_StdImp|Product Description: AutoCAD Mechanical 2004 DX|Company: Autodesk"
 90
    32768
280
     0
281
     0
  0
CLASS
  1
ACMTHREADLINESTANDARDDIN
  2
AmdtThreadLineStdDIN
  3
"Amdt_StdImp|Product Description: AutoCAD Mechanical 2004 DX|Company: Autodesk"
 90
    32768
280
     0
281
     0
  0
CLASS
  1
AMDTEDGESTANDARDISO
  2
AmdtEdgeStdISO
  3
"Amdt_StdImp|Product Description: AutoCAD Mechanical 2004 DX|Company: Autodesk"
 90
    32768
280
     0
281
     0
  0
CLASS
  1
ACMDETAILSTANDARDISO
  2
AmdtDetailSymStdISO
  3
"Amdt_StdImp|Product Description: AutoCAD Mechanical 2004 DX|Company: Autodesk"
 90
        0
280
     0
281
     0
  0
CLASS
  1
ACMSECTIONSTANDARDISO
  2
AmdtSectionSymStdISO
  3
"Amdt_StdImp|Product Description: AutoCAD Mechanical 2004 DX|Company: Autodesk"
 90
        0
280
     0
281
     0
  0
CLASS
  1
ACMCENTERLINESTANDARDISO
  2
AmdtCenterLineStdISO
  3
"Amdt_StdImp|Product Description: AutoCAD Mechanical 2004 DX|Company: Autodesk"
 90
        0
280
     0
281
     0
  0
CLASS
  1
ACMTHREADLINESTANDARDISO
  2
AmdtThreadLineStdISO
  3
"Amdt_StdImp|Product Description: AutoCAD Mechanical 2004 DX|Company: Autodesk"
 90
        0
280
     0
281
     0
  0
CLASS
  1
ACMNOTESTANDARDISO
  2
AmdtNoteStdISO
  3
"Amdt_StdImp|Product Description: AutoCAD Mechanical 2004 DX|Company: Autodesk"
 90
        0
280
     0
281
     0
  0
CLASS
  1
ACAMGHOLECHARTSTDISO
  2
AcAmgHoleChartStdISO
  3
ACMSYMBB_MODULE_NAME
 90
        0
280
     0
281
     0
  0
CLASS
  1
ACMNOTESTANDARDANSI
  2
AmdtNoteStdANSI
  3
"Amdt_StdImp|Product Description: AutoCAD Mechanical 2004 DX|Company: Autodesk"
 90
    32768
280
     0
281
     0
  0
CLASS
  1
AMDTNOTETEMPLATEDB
  2
AmdtNoteTemplateDB
  3
AMDT_STDIMP_MODULE_NAME
 90
        0
280
     0
281
     0
  0
CLASS
  1
ACAMGHOLECHARTSTDANSI
  2
AcAmgHoleChartStdANSI
  3
ACMSYMBB_MODULE_NAME
 90
    32768
280
     0
281
     0
  0
CLASS
  1
TABLESTYLE
  2
AcDbTableStyle
  3
ObjectDBX Classes
 90
     2047
280
     0
281
     0
  0
CLASS
  1
ACMBOM
  2
AcmBom
  3
"AcmSymBB|Product Description: AutoCAD Mechanical 2004 DX|Company: Autodesk"
 90
    32768
280
     0
281
     0
  0
CLASS
  1
AMDTFORMULAUPDATEDISPATCHER
  2
AmdtFormulaUpdateDispatcher
  3
AcMeServices
 90
    32768
280
     0
281
     0
  0
CLASS
  1
ACMPARTLIST
  2
AcmPartList
  3
"AcmSymBB|Product Description: AutoCAD Mechanical 2004 DX|Company: Autodesk"
 90
    33791
280
     0
281
     1
  0
CLASS
  1
VAACXREFPANELOBJECT
  2
VaAcXREFPanelObject
  3
VAAC_ADDIN
 90
    32768
280
     1
281
     0
  0
CLASS
  1
VAACIMAGEINVENTORY
  2
VaAcImageInventory
  3
VAAC_ADDIN
 90
    32768
280
     1
281
     0
  0
CLASS
  1
ACAMCONTEXTPARTMODELER
  2
AcAmContextPartModeler
  3
DesignerAssemblies
 90
    32768
280
     0
281
     0
  0
CLASS
  1
ADPART
  2
AcAdPart
  3
DesignerServices
 90
    32768
280
     0
281
     1
  0
CLASS
  1
ADBASE
  2
AcAdBase
  3
DesignerServices
 90
    32768
280
     0
281
     0
  0
CLASS
  1
BODYID
  2
AcAdBodyId
  3
DesignerServices
 90
    32768
280
     0
281
     0
  0
CLASS
  1
WORKPLANEDISPLAYMGR
  2
AcAdDisplayMgr
  3
DesignerServices
 90
    32768
280
     0
281
     0
  0
CLASS
  1
ACCMBODY
  2
AcCmBody
  3
DesignerAssemblies
 90
    32768
280
     0
281
     0
  0
CLASS
  1
ACAMCOMPENT
  2
AcAmCompEnt
  3
DesignerAssemblies
 90
    32768
280
     0
281
     1
  0
CLASS
  1
ACAMCOMPFEEDBACK
  2
AcAmCompFeedback
  3
DesignerAssemblies
 90
    32768
280
     0
281
     0
  0
CLASS
  1
ACAMGROUNDEDBASECOMP
  2
AcAmGroundedBaseComp
  3
DesignerAssemblies
 90
    32768
280
     0
281
     0
  0
CLASS
  1
ACAMCOMPENTCLONE
  2
AcAmCompEntClone
  3
DesignerAssemblies
 90
    32768
280
     0
281
     1
  0
CLASS
  1
ACAMCLONEREACTOR
  2
AcAmGrCompCloneReactor
  3
DesignerAssemblies
 90
    32768
280
     0
281
     0
  0
CLASS
  1
ADDATUMPLANEABS
  2
AcAdDatumPlaneAbs
  3
DesignerServices
 90
    32768
280
     0
281
     0
  0
CLASS
  1
ADDATUMAXISABS
  2
AcAdDatumAxisAbs
  3
DesignerServices
 90
    32768
280
     0
281
     0
  0
CLASS
  1
ADDATUMORIENTEDPLANE
  2
AcAdDatumOrientedPlane
  3
DesignerServices
 90
    32768
280
     0
281
     0
  0
CLASS
  1
ACAD_CIRCLE
  2
AcAdCircle
  3
DesignerServices
 90
    32768
280
     0
281
     1
  0
CLASS
  1
ACADCIRCLEACAD
  2
AcAdVirtualCircleAcad
  3
DesignerServices
 90
    32768
280
     0
281
     0
  0
CLASS
  1
ACADREFLINEACAD
  2
AcAdVirtualReferenceLine
  3
DesignerServices
 90
    32768
280
     0
281
     0
  0
CLASS
  1
ACADCONSLINE
  2
AcAdConstrainedLine
  3
DesignerServices
 90
    32768
280
     0
281
     0
  0
CLASS
  1
ACADCONSGROUP
  2
AcAdConstraintGroup
  3
DesignerServices
 90
    32768
280
     0
281
     0
  0
CLASS
  1
ACADCONSCIRCLE
  2
AcAdConstrainedCircle
  3
DesignerServices
 90
    32768
280
     0
281
     0
  0
CLASS
  1
ACADCONSPOINT
  2
AcAdConstrainedPoint
  3
DesignerServices
 90
    32768
280
     0
281
     0
  0
CLASS
  1
ACADIMPPTACAD
  2
AcAdVirtualImplicitPoint
  3
DesignerServices
 90
    32768
280
     0
281
     0
  0
CLASS
  1
ADCTRPTCNS
  2
AcAdCenterPointConstr
  3
DesignerServices
 90
    32768
280
     0
281
     0
  0
CLASS
  1
ADCLPROF2D
  2
AcAdClosedProfile2d
  3
DesignerServices
 90
    32768
280
     0
281
     0
  0
CLASS
  1
ACAD_FIXCONSTRAINT
  2
AcAdFixedConstraint
  3
DesignerServices
 90
    32768
280
     0
281
     0
  0
CLASS
  1
ACMELINEARARROW
  2
AcImLinearArrowDisplay
  3
AcMeServices
 90
    32768
280
     0
281
     1
  0
CLASS
  1
PARAM
  2
AcAdParam
  3
DesignerServices
 90
    32768
280
     0
281
     0
  0
CLASS
  1
ACADVOLFEATWITHTRIM
  2
AcAdVolFeatWithTrim
  3
DesignerServices
 90
    32768
280
     0
281
     0
  0
CLASS
  1
DEPEDGEFEATUREORDERING
  2
AcAdDepEdgeFeatureOrdering
  3
DesignerServices
 90
    32768
280
     0
281
     0
  0
CLASS
  1
ADPLANEID
  2
AcAdPlaneId
  3
DesignerServices
 90
    32768
280
     0
281
     0
  0
CLASS
  1
ADDATUMPLANEFACE
  2
AcAdDatumPlaneFace
  3
DesignerServices
 90
    32768
280
     0
281
     0
  0
CLASS
  1
ACMEPLINE
  2
AcImPlineDisplay
  3
AcMeServices
 90
    32768
280
     0
281
     1
  0
CLASS
  1
ACMETEXT
  2
AcImTextDisplay
  3
AcMeServices
 90
    32768
280
     0
281
     1
  0
CLASS
  1
DATUMAXISDISPLAY
  2
AcAdDatumAxisDisplay
  3
DesignerServices
 90
    32768
280
     0
281
     1
  0
CLASS
  1
ADDATUMAXISCENTER
  2
AcAdDatumAxisCenter
  3
DesignerServices
 90
    32768
280
     0
281
     0
  0
CLASS
  1
ADSURFGEOMID
  2
AcAdSurfGeomId
  3
DesignerServices
 90
    32768
280
     0
281
     0
  0
CLASS
  1
ACAD_LINE
  2
AcAdLine
  3
DesignerServices
 90
    32768
280
     0
281
     1
  0
CLASS
  1
ACADLINEACAD
  2
AcAdVirtualBoundedLineAcad
  3
DesignerServices
 90
    32768
280
     0
281
     0
  0
CLASS
  1
ADPCURCNS
  2
AcAdPointCurveConstr
  3
DesignerServices
 90
    32768
280
     0
281
     0
  0
CLASS
  1
ADHORCNS
  2
AcAdHorizontalConstr
  3
DesignerServices
 90
    32768
280
     0
281
     0
  0
CLASS
  1
ADVERCNS
  2
AcAdVerticalConstr
  3
DesignerServices
 90
    32768
280
     0
281
     0
  0
CLASS
  1
ACDBLINERES
  2
AcDbLineRes
  3
AcGrefServices
 90
    32768
280
     0
281
     0
  0
CLASS
  1
ACADSKETCHLINERES
  2
AcAdSketchLineRes
  3
DesignerServices
 90
    32768
280
     0
281
     0
  0
CLASS
  1
ADVDISTCNS
  2
AcAdVerticalDistanceConstr
  3
DesignerServices
 90
    32768
280
     0
281
     0
  0
CLASS
  1
ACADSKETCHPOINTRES
  2
AcAdSketchPointRes
  3
DesignerServices
 90
    32768
280
     0
281
     0
  0
CLASS
  1
ADHDISTCNS
  2
AcAdHorizontalDistanceConstr
  3
DesignerServices
 90
    32768
280
     0
281
     0
  0
CLASS
  1
ACADPARTAXISRES
  2
AcAdPartAxisRes
  3
AdGrefServices
 90
    32768
280
     0
281
     0
  0
CLASS
  1
EDGEID
  2
AcAdEdgeId
  3
DesignerServices
 90
    32768
280
     0
281
     0
  0
CLASS
  1
ACADPARTCIRCEDGRES
  2
AcAdPartCircEdgRes
  3
AdGrefServices
 90
    32768
280
     0
281
     0
  0
CLASS
  1
CIRREFID
  2
AcAdCircleRefId
  3
DesignerServices
 90
    32768
280
     0
281
     0
  0
CLASS
  1
ACADCIRCDEPID
  2
AcAdVirtualCircleDepId
  3
DesignerServices
 90
    32768
280
     0
281
     0
  0
CLASS
  1
ACDBCIRCARCRES
  2
AcDbCircArcRes
  3
AcGrefServices
 90
    32768
280
     0
281
     0
  0
CLASS
  1
ACADSKETCHCIRCARCRES
  2
AcAdSketchCircArcRes
  3
DesignerServices
 90
    32768
280
     0
281
     0
  0
CLASS
  1
ADACADDIACNS
  2
AcAdAcadDiameterConstr
  3
DesignerServices
 90
    32768
280
     0
281
     0
  0
CLASS
  1
ADFEATUREDISPLAY
  2
AcImFeatureDisplay
  3
ACME_MODULE_NAME
 90
    32768
280
     0
281
     1
  0
CLASS
  1
ACMEAXIS
  2
AcImAxisDisplay
  3
AcMeServices
 90
    32768
280
     0
281
     1
  0
CLASS
  1
ACMEROTATIONARROW
  2
AcImRotationArrowDisplay
  3
AcMeServices
 90
    32768
280
     0
281
     1
  0
CLASS
  1
DEPEDGEPATTERNFEATURE
  2
AcAdDepEdgePatternFeature
  3
DesignerServices
 90
    32768
280
     0
281
     0
  0
CLASS
  1
ACADPATTNFEAT
  2
AcAdPatternFeat
  3
DesignerServices
 90
    32768
280
     0
281
     0
  0
CLASS
  1
ADFILLET
  2
AcAdFillet
  3
DesignerServices
 90
    32768
280
     0
281
     0
  0
CLASS
  1
ADCONSTDSP
  2
AcAdConstraintDisplayTag
  3
DesignerServices
 90
    32768
280
     0
281
     1
  0
CLASS
  1
ADCONCCNS
  2
AcAdConcentricConstr
  3
DesignerServices
 90
    32768
280
     0
281
     0
  0
CLASS
  1
ADCONSDISP
  2
AcAdConstraintDisplay
  3
DesignerServices
 90
    32768
280
     0
281
     1
  0
CLASS
  1
DATUMPLANEDISPLAY
  2
AcAdDatumPlaneDisplay
  3
DesignerServices
 90
    32768
280
     0
281
     1
  0
CLASS
  1
ADDATUMPLANEAXISPLANE
  2
AcAdDatumPlaneAxisPlane
  3
DesignerServices
 90
    32768
280
     0
281
     0
  0
CLASS
  1
ACADPARTDATUMPLANERES
  2
AcAdPartDatumPlaneRes
  3
AdGrefServices
 90
    32768
280
     0
281
     0
  0
CLASS
  1
ADCOLNCNS
  2
AcAdColinearConstr
  3
DesignerServices
 90
    32768
280
     0
281
     0
  0
CLASS
  1
STREFID
  2
AcAdStraightRefId
  3
DesignerServices
 90
    32768
280
     0
281
     0
  0
CLASS
  1
ACADLINEDEPID
  2
AcAdVirtualLineDepId
  3
DesignerServices
 90
    32768
280
     0
281
     0
  0
CLASS
  1
ACADBOUNDEDLINEDATUMID
  2
AcAdVirtualBoundedLineDatumId
  3
DesignerServices
 90
    32768
280
     0
281
     0
  0
CLASS
  1
CNRREFID
  2
AcAdCornerId
  3
DesignerServices
 90
    32768
280
     0
281
     0
  0
CLASS
  1
ACADPARTPOINTRES
  2
AcAdPartPointRes
  3
AdGrefServices
 90
    32768
280
     0
281
     0
  0
CLASS
  1
DEPEDGESECONDARYDEPID
  2
AcAdDepEdgeSecondaryDepId
  3
DesignerServices
 90
    32768
280
     0
281
     0
  0
CLASS
  1
DEPEDGEPATTERNINSTANCE
  2
AcAdDepEdgePatternInstance
  3
DesignerServices
 90
    32768
280
     0
281
     0
  0
CLASS
  1
ACADPARTLINEDGRES
  2
AcAdPartLinEdgRes
  3
AdGrefServices
 90
    32768
280
     0
281
     0
  0
CLASS
  1
ACADPARTSPLINEEDGERES
  2
AcAdPartSplineEdgeRes
  3
AdGrefServices
 90
    32768
280
     0
281
     0
  0
CLASS
  1
ACAD_ARC
  2
AcAdArc
  3
DesignerServices
 90
    32768
280
     0
281
     1
  0
CLASS
  1
ACADARCACAD
  2
AcAdVirtualArcAcad
  3
DesignerServices
 90
    32768
280
     0
281
     0
  0
CLASS
  1
ADTANCNS
  2
AcAdTangentConstr
  3
DesignerServices
 90
    32768
280
     0
281
     0
  0
CLASS
  1
ACADPOINTDEPID
  2
AcAdVirtualPointDepId
  3
DesignerServices
 90
    32768
280
     0
281
     0
  0
CLASS
  1
ADACADRADCNS
  2
AcAdAcadRadiusConstr
  3
DesignerServices
 90
    32768
280
     0
281
     0
  0
CLASS
  1
AMDT_RADIAL_DIM
  2
AmdtRadialDimension
  3
AcMeServices
 90
    32768
280
     0
281
     1
  0
CLASS
  1
SORTENTSTABLE
  2
AcDbSortentsTable
  3
ObjectDBX Classes
 90
    32768
280
     0
281
     0
  0
CLASS
  1
ADACADANGCNS
  2
AcAdAcadAngleConstr
  3
DesignerServices
 90
    32768
280
     0
281
     0
  0
CLASS
  1
AMACTIVEPARTSELECTFILTER
  2
AcDmActivePartViewEntFilter
  3
DesignerServices
 90
    32768
280
     0
281
     0
  0
CLASS
  1
FACEID
  2
AcAdFaceId
  3
DesignerServices
 90
    32768
280
     0
281
     0
  0
CLASS
  1
ACADPARTPLANARFACERES
  2
AcAdPartPlanarFaceRes
  3
AdGrefServices
 90
    32768
280
     0
281
     0
  0
CLASS
  1
AM_GREF_PLANE
  2
AcDmGrefPlnDef
  3
AcMechDwgViewMgmt
 90
    32768
280
     0
281
     0
  0
CLASS
  1
AM_ABS_AXIS
  2
AcDmAbsAxisDef
  3
AcMechDwgViewMgmt
 90
    32768
280
     0
281
     0
  0
CLASS
  1
AM_BASE_VIEW_ORIENT
  2
AcDmBaseViewOr
  3
AcMechDwgViewMgmt
 90
    32768
280
     0
281
     0
  0
CLASS
  1
AM_DWG_VIEWPORT
  2
AcDmViewport
  3
AcMechDwgViewMgmt
 90
    32768
280
     0
281
     0
  0
CLASS
  1
AM_VIEW_DISPLAY
  2
AcDmDwgViewDisplay
  3
AcMechDwgViewMgmt
 90
    32768
280
     0
281
     0
  0
CLASS
  1
AM_CLDFLTS
  2
AcDmClDflts
  3
AcMechDwgViewMgmt
 90
    32768
280
     0
281
     0
  0
CLASS
  1
AM_BASE_VIEW
  2
AcDmBaseView
  3
AcMechDwgViewMgmt
 90
    32768
280
     0
281
     0
  0
CLASS
  1
ACDMPARTVIEWDATA
  2
AcDmPartViewData
  3
AcMechDwgViewMgmt
 90
    32768
280
     0
281
     0
  0
CLASS
  1
ACDMDISPLAYATTRIBS
  2
AcDmDisplayAttribs
  3
AcMechDwgViewMgmt
 90
    32768
280
     0
281
     0
  0
CLASS
  1
ACDMBODYINSTANCEDATA
  2
AcDmBodyInstanceData
  3
AcMechDwgViewMgmt
 90
    32768
280
     0
281
     0
  0
CLASS
  1
ACDMVWEDLINE
  2
AcDmViewEdgeLine
  3
AcMechDwgViewMgmt
 90
    32768
280
     0
281
     1
  0
CLASS
  1
ACDMVWEDSPLINE
  2
AcDmViewEdgeSpline
  3
AcMechDwgViewMgmt
 90
    32768
280
     0
281
     1
  0
CLASS
  1
ACDMVWEDELLIPSE
  2
AcDmViewEdgeEllipse
  3
AcMechDwgViewMgmt
 90
    32768
280
     0
281
     1
  0
CLASS
  1
ACDMVWEDARC
  2
AcDmViewEdgeArc
  3
AcMechDwgViewMgmt
 90
    32768
280
     0
281
     1
  0
CLASS
  1
ACADPARTSKETCHPLANEAXISRES
  2
AcAdPartSketchPlaneAxisRes
  3
DesignerServices
 90
    32768
280
     0
281
     0
  0
CLASS
  1
AM_VIEWDIMPARALLEL
  2
AcDmViewDimParallel
  3
AcMechDwgViewMgmt
 90
    32768
280
     0
281
     0
  0
CLASS
  1
AMDTDMPARMAPDATA
  2
AmdtDmDimParMapData
  3
AcMechDwgViewMgmt
 90
    32768
280
     0
281
     0
  0
CLASS
  1
AM_VIEWDIMLINEAR
  2
AcDmViewDimLinear
  3
AcMechDwgViewMgmt
 90
    32768
280
     0
281
     0
  0
CLASS
  1
AM_VIEWDIMDIAMETER
  2
AcDmViewDimDiameter
  3
AcMechDwgViewMgmt
 90
    32768
280
     0
281
     0
  0
CLASS
  1
AM_ADLINCTRLINE
  2
AcAdLineCl
  3
DesignerServices
 90
    32768
280
     0
281
     0
  0
CLASS
  1
AM_ORTHO_VIEW_ORIENT
  2
AcDmOrthoViewOr
  3
AcMechDwgViewMgmt
 90
    32768
280
     0
281
     0
  0
CLASS
  1
AM_ORTHO_VIEW
  2
AcDmOrthoView
  3
AcMechDwgViewMgmt
 90
    32768
280
     0
281
     0
  0
CLASS
  1
AM_VIEWDIMRADIUS
  2
AcDmViewDimRadius
  3
AcMechDwgViewMgmt
 90
    32768
280
     0
281
     0
  0
CLASS
  1
AM_VIEWDIMANGULAR
  2
AcDmViewDimAngular
  3
AcMechDwgViewMgmt
 90
    32768
280
     0
281
     0
  0
CLASS
  1
ADDATUMPLANEOFFSET
  2
AcAdDatumPlaneOffset
  3
DesignerServices
 90
    32768
280
     0
281
     0
  0
CLASS
  1
ADPROJCNS
  2
AcAdProjectionConstr
  3
DesignerServices
 90
    32768
280
     0
281
     0
  0
CLASS
  1
ACMEPOINT
  2
AcImPointDisplay
  3
AcMeServices
 90
    32768
280
     0
281
     1
  0
CLASS
  1
ADWORKPOINTDISPLAY
  2
AcAdWorkPointDisplay
  3
DesignerServices
 90
    32768
280
     0
281
     1
  0
CLASS
  1
ADVIRTUALPOINTWORKPOINTFREE
  2
AcAdVirtualPointWorkPointFree
  3
DesignerServices
 90
    32768
280
     0
281
     0
  0
CLASS
  1
ADWORKPOINTSKETCH
  2
AcAdWorkPointSketch
  3
DesignerServices
 90
    32768
280
     0
281
     0
  0
CLASS
  1
ACADPARTDATUMPOINTRES
  2
AcAdPartDatumPointRes
  3
AdGrefServices
 90
    32768
280
     0
281
     0
  0
CLASS
  1
ADHOLEFEAT
  2
AcAdHoleFeat
  3
DesignerServices
 90
    32768
280
     0
281
     0
  0
CLASS
  1
ADDATUMPOINTAXISPLANE
  2
AcAdDatumPointAxisPlane
  3
DesignerServices
 90
    32768
280
     0
281
     0
  0
CLASS
  1
ACDMVWEDCIRC
  2
AcDmViewEdgeCircle
  3
AcMechDwgViewMgmt
 90
    32768
280
     0
281
     1
  0
CLASS
  1
AM_ADCIRCTRLINE
  2
AcAdBullsEyeCl
  3
DesignerServices
 90
    32768
280
     0
281
     0
  0
CLASS
  1
ACRFDMINSADJ
  2
AcRfDMInsAdjuster
  3
AcMechDwgViewMgmt
 90
    32768
280
     0
281
     0
  0
CLASS
  1
AM_GREF_POINT
  2
AcDmGrefPntDef
  3
AcMechDwgViewMgmt
 90
    32768
280
     0
281
     0
  0
CLASS
  1
AM_FULLPOINTSECTION
  2
AcDmFullPointSection
  3
AcMechDwgViewMgmt
 90
    32768
280
     0
281
     0
  0
CLASS
  1
AMDTSECTIONSYM
  2
AmdtSectionSym
  3
"AcmSymBB|Product Description: AutoCAD Mechanical 2004 DX|Company: Autodesk"
 90
    33791
280
     0
281
     1
  0
CLASS
  1
AM_VWNOTEADAPTER
  2
AcDmViewAnnotAdapter
  3
AcMechDwgViewMgmt
 90
    32768
280
     0
281
     0
  0
CLASS
  1
AMDTSECTIONSYMLABEL
  2
AmdtSectionSymLabel
  3
"AcmSymBB|Product Description: AutoCAD Mechanical 2004 DX|Company: Autodesk"
 90
    33791
280
     0
281
     1
  0
CLASS
  1
AD_LINETAPH
  2
AcAdTapHoleLineDisp
  3
DesignerServices
 90
    32768
280
     0
281
     0
  0
CLASS
  1
SILEDGEID
  2
AcAdSilhouetteEdgeId
  3
DesignerServices
 90
    32768
280
     0
281
     0
  0
CLASS
  1
ACADPARTCYLINDERFACERES
  2
AcAdPartCylinderFaceRes
  3
AdGrefServices
 90
    32768
280
     0
281
     0
  0
CLASS
  1
ACDMGREFEDIT
  2
AcDmViewEntityGeomrefEdit
  3
AcMechDwgViewMgmt
 90
    32768
280
     0
281
     0
  0
CLASS
  1
ACDMVIEWLINEDGERES
  2
AcDmViewLinEdgeRes
  3
AcMechDwgViewMgmt
 90
    32768
280
     0
281
     0
  0
CLASS
  1
AMDTEDGESTANDARDISO13715
  2
AmdtEdgeStdISO13715
  3
"Amdt_StdImp|Product Description: AutoCAD Mechanical 2004 DX|Company: Autodesk"
 90
        0
280
     0
281
     0
  0
ENDSEC
  0
SECTION
  2
TABLES
  0
TABLE
  2
VPORT
  5
1F
330
0
100
AcDbSymbolTable
 70
     1
  0
VPORT
  5
20
330
1F
100
AcDbSymbolTableRecord
100
AcDbViewportTableRecord
  2
*Active
 70
     0
 10
0.0
 20
0.0
 11
1.0
 21
1.0
 12
0.0
 22
0.0
 13
0.0
 23
0.0
 14
2.5
 24
2.5
 15
10.0
 25
10.0
 16
0.0
 26
0.0
 36
1.0
 17
0.0
 27
0.0
 37
0.0
 40
2.000000000000000E+20
 41
1.0
 42
50.0
 43
0.0
 44
0.0
 50
0.0
 51
0.0
 71
     0
 72
   100
 73
     1
 74
     1
 75
     0
 76
     0
 77
     0
 78
     0
281
     0
 65
     0
110
0.0
120
0.0
130
0.0
111
1.0
121
0.0
131
0.0
112
0.0
122
1.0
132
0.0
 79
     0
146
0.0
  0
ENDTAB
  0
TABLE
  2
LTYPE
  5
1A
330
0
100
AcDbSymbolTable
 70
    16
  0
LTYPE
  5
1B
330
1A
100
AcDbSymbolTableRecord
100
AcDbLinetypeTableRecord
  2
BYBLOCK
 70
     0
  3

 72
    65
 73
     0
 40
0.0
  0
LTYPE
  5
1C
330
1A
100
AcDbSymbolTableRecord
100
AcDbLinetypeTableRecord
  2
BYLAYER
 70
     0
  3

 72
    65
 73
     0
 40
0.0
  0
LTYPE
  5
9
330
1A
100
AcDbSymbolTableRecord
100
AcDbLinetypeTableRecord
  2
CONTINUOUS
 70
     0
  3
Solid line
 72
    65
 73
     0
 40
0.0
  0
LTYPE
  5
4A
330
1A
100
AcDbSymbolTableRecord
100
AcDbLinetypeTableRecord
  2
AM_ISO02W050
 70
     0
  3
__ __ __ __ __ __ __ __ __ __ __ __ __ __ __
 72
    65
 73
     2
 40
7.5
 49
6.0
 74
     0
 49
-1.5
 74
     0
  0
LTYPE
  5
C2
330
1A
100
AcDbSymbolTableRecord
100
AcDbLinetypeTableRecord
  2
AM_ISO02W050x2
 70
     0
  3
 _ _ _ _ _ _ _ _ _ _ _ _
 72
    65
 73
     2
 40
3.75
 49
3.0
 74
     0
 49
-0.75
 74
     0
  0
LTYPE
  5
38
330
1A
100
AcDbSymbolTableRecord
100
AcDbLinetypeTableRecord
  2
AM_ISO08W050x2
 70
     0
  3
__ . __ . __ . __ . __ . __
 72
    65
 73
     4
 40
9.0
 49
6.0
 74
     0
 49
-0.75
 74
     0
 49
1.5
 74
     0
 49
-0.75
 74
     0
  0
LTYPE
  5
127
330
1A
100
AcDbSymbolTableRecord
100
AcDbLinetypeTableRecord
  2
HIDDEN
 70
     0
  3
Hidden __ __ __ __ __ __ __ __ __ __ __ __ __ _
 72
    65
 73
     2
 40
9.524999999999998
 49
6.349999999999999
 74
     0
 49
-3.174999999999999
 74
     0
  0
LTYPE
  5
128
330
1A
100
AcDbSymbolTableRecord
100
AcDbLinetypeTableRecord
  2
PHANTOM2
 70
     0
  3
Phantom (.5x) ___ _ _ ___ _ _ ___ _ _ ___ _ _
 72
    65
 73
     6
 40
31.75
 49
15.875
 74
     0
 49
-3.174999999999999
 74
     0
 49
3.174999999999999
 74
     0
 49
-3.174999999999999
 74
     0
 49
3.174999999999999
 74
     0
 49
-3.174999999999999
 74
     0
  0
LTYPE
  5
129
330
1A
100
AcDbSymbolTableRecord
100
AcDbLinetypeTableRecord
  2
CENTER
 70
     0
  3
Center ____ _ ____ _ ____ _ ____ _ ____ _ ____
 72
    65
 73
     4
 40
50.8
 49
31.75
 74
     0
 49
-6.349999999999999
 74
     0
 49
6.349999999999999
 74
     0
 49
-6.349999999999999
 74
     0
  0
LTYPE
  5
15D
330
1A
100
AcDbSymbolTableRecord
100
AcDbLinetypeTableRecord
  2
AM_ISO08W050
 70
     0
  3
____ . ____ . ____ . ____ . ____ . ____ . ____
 72
    65
 73
     4
 40
18.0
 49
12.0
 74
     0
 49
-1.5
 74
     0
 49
3.0
 74
     0
 49
-1.5
 74
     0
  0
LTYPE
  5
15E
330
1A
100
AcDbSymbolTableRecord
100
AcDbLinetypeTableRecord
  2
AM_ISO09W050
 70
     0
  3
_____ . . _____ . . _____ . . ____ .. ____
 72
    65
 73
     6
 40
22.5
 49
12.0
 74
     0
 49
-1.5
 74
     0
 49
3.0
 74
     0
 49
-1.5
 74
     0
 49
3.0
 74
     0
 49
-1.5
 74
     0
  0
LTYPE
  5
15F
330
1A
100
AcDbSymbolTableRecord
100
AcDbLinetypeTableRecord
  2
Amconstr
 70
     0
  3
_______________________
 72
    65
 73
     2
 40
9999.0
 49
9999.0
 74
     0
 49
0.0
 74
     0
  0
LTYPE
  5
162
330
1A
100
AcDbSymbolTableRecord
100
AcDbLinetypeTableRecord
  2
Amzigzag
 70
     0
  3
/\/-/\/-/\/-/\/-/\/-/\/
 72
    65
 73
     2
 40
11.0001
 49
0.0001
 74
     4
 75
   135
340
161
 46
0.04
 50
0.0
 44
0.0
 45
0.0
 49
-11.0
 74
     0
  0
LTYPE
  5
171
330
1A
100
AcDbSymbolTableRecord
100
AcDbLinetypeTableRecord
  2
ACISOWELD
 70
     0
  3
_ _ _ _ _
 72
    65
 73
     2
 40
2.0
 49
2.0
 74
     0
 49
-1.0
 74
     0
  0
LTYPE
  5
172
330
1A
100
AcDbSymbolTableRecord
100
AcDbLinetypeTableRecord
  2
ACISOTGB
 70
     0
  3
__ . . __ . .
 72
    65
 73
     6
 40
9.0
 49
4.0
 74
     0
 49
-1.0
 74
     0
 49
1.0
 74
     0
 49
-1.0
 74
     0
 49
1.0
 74
     0
 49
-1.0
 74
     0
  0
LTYPE
  5
173
330
1A
100
AcDbSymbolTableRecord
100
AcDbLinetypeTableRecord
  2
ACISOTGL
 70
     0
  3
_ _ _ _ _
 72
    65
 73
     2
 40
3.0
 49
2.0
 74
     0
 49
-1.0
 74
     0
  0
LTYPE
  5
BE4
330
1A
100
AcDbSymbolTableRecord
100
AcDbLinetypeTableRecord
  2
ASULTYPE
 70
     0
  3
實線
 72
    65
 73
     2
 40
3.0
 49
2.5
 74
     0
 49
0.5
 74
     0
  0
LTYPE
  5
BE5
330
1A
100
AcDbSymbolTableRecord
100
AcDbLinetypeTableRecord
  2
ASVLTYPE
 70
     0
  3
__ __ __ __ __ __ __ __ __ __ __ __ __ __ __ __ __ __ __ __ __
 72
    65
 73
     2
 40
0.75
 49
0.5
 74
     0
 49
-0.25
 74
     0
  0
ENDTAB
  0
TABLE
  2
LAYER
  5
14
102
{ACAD_XDICTIONARY
360
15
102
}
330
0
100
AcDbSymbolTable
 70
     8
  0
LAYER
  5
5
330
14
100
AcDbSymbolTableRecord
100
AcDbLayerTableRecord
  2
0
 70
     0
 62
     7
  6
CONTINUOUS
370
    -3
390
6
  0
LAYER
  5
59
330
14
100
AcDbSymbolTableRecord
100
AcDbLayerTableRecord
  2
Defpoints
 70
     0
 62
     7
  6
CONTINUOUS
290
     0
370
    -3
390
6
  0
LAYER
  5
85
330
14
100
AcDbSymbolTableRecord
100
AcDbLayerTableRecord
  2
AM_VIS
 70
     0
 62
     7
  6
CONTINUOUS
370
    50
390
6
  0
LAYER
  5
C1
330
14
100
AcDbSymbolTableRecord
100
AcDbLayerTableRecord
  2
AM_HID
 70
     0
 62
     3
  6
AM_ISO02W050x2
370
    25
390
6
  0
LAYER
  5
37
330
14
100
AcDbSymbolTableRecord
100
AcDbLayerTableRecord
  2
AM_7
 70
     0
 62
     1
  6
AM_ISO08W050x2
370
    25
390
6
  0
LAYER
  5
49
330
14
100
AcDbSymbolTableRecord
100
AcDbLayerTableRecord
  2
AM_4
 70
     0
 62
     3
  6
CONTINUOUS
370
    25
390
6
  0
LAYER
  5
19E
330
14
100
AcDbSymbolTableRecord
100
AcDbLayerTableRecord
  2
AM_5
 70
     0
 62
     5
  6
CONTINUOUS
370
    25
390
6
  0
LAYER
  5
37C
330
14
100
AcDbSymbolTableRecord
100
AcDbLayerTableRecord
  2
LOGO
 70
     0
 62
     7
  6
CONTINUOUS
370
    -3
390
6
  0
ENDTAB
  0
TABLE
  2
STYLE
  5
17
330
0
100
AcDbSymbolTable
 70
     5
  0
STYLE
  5
18
330
17
100
AcDbSymbolTableRecord
100
AcDbTextStyleTableRecord
  2
STANDARD
 70
     0
 40
0.0
 41
1.0
 50
0.0
 71
     0
 42
1.0
  3
ISOCP.SHX
  4
CHINESET.SHX
  0
STYLE
  5
161
330
17
100
AcDbSymbolTableRecord
100
AcDbTextStyleTableRecord
  2

 70
     1
 40
0.0
 41
1.0
 50
0.0
 71
     0
 42
1.0
  3
ltypeshp.shx
  4

  0
STYLE
  5
163
330
17
100
AcDbSymbolTableRecord
100
AcDbTextStyleTableRecord
  2
ACISOTS
 70
     0
 40
1.0
 41
1.0
 50
0.0
 71
     0
 42
1.0
  3
isocp.shx
  4
chineset.shx
  0
STYLE
  5
170
330
17
100
AcDbSymbolTableRecord
100
AcDbTextStyleTableRecord
  2
ACISOGDT
 70
     0
 40
0.0
 41
1.0
 50
0.0
 71
     0
 42
1.0
  3
amgdt.shx
  4

  0
STYLE
  5
37D
330
17
100
AcDbSymbolTableRecord
100
AcDbTextStyleTableRecord
  2
CHINESET
 70
     0
 40
0.0
 41
1.0
 50
0.0
 71
     0
 42
3.0
  3
simplex.shx
  4
CHINESET.SHX
  0
ENDTAB
  0
TABLE
  2
VIEW
  5
1D
330
0
100
AcDbSymbolTable
 70
     0
  0
ENDTAB
  0
TABLE
  2
UCS
  5
1E
330
0
100
AcDbSymbolTable
 70
     0
  0
ENDTAB
  0
TABLE
  2
APPID
  5
21
330
0
100
AcDbSymbolTable
 70
    27
  0
APPID
  5
22
330
21
100
AcDbSymbolTableRecord
100
AcDbRegAppTableRecord
  2
ACAD
 70
     0
  0
APPID
  5
13
330
21
100
AcDbSymbolTableRecord
100
AcDbRegAppTableRecord
  2
ACAD_PSEXT
 70
     0
  0
APPID
  5
FA
330
21
100
AcDbSymbolTableRecord
100
AcDbRegAppTableRecord
  2
MCAD_NO_VIS
 70
     0
  0
APPID
  5
FB
330
21
100
AcDbSymbolTableRecord
100
AcDbRegAppTableRecord
  2
ACAD_TEMP_GRAPHIC
 70
     0
  0
APPID
  5
12B
330
21
100
AcDbSymbolTableRecord
100
AcDbRegAppTableRecord
  2
AD_DRAW
 70
     0
  0
APPID
  5
12E
330
21
100
AcDbSymbolTableRecord
100
AcDbRegAppTableRecord
  2
ACATTRIBSERVICES
 70
     0
  0
APPID
  5
14C
330
21
100
AcDbSymbolTableRecord
100
AcDbRegAppTableRecord
  2
DESIGNERASSEMBLIES
 70
     0
  0
APPID
  5
152
330
21
100
AcDbSymbolTableRecord
100
AcDbRegAppTableRecord
  2
ACADM_DIM_EDIT
 70
     0
  0
APPID
  5
153
330
21
100
AcDbSymbolTableRecord
100
AcDbRegAppTableRecord
  2
AMDT_DM_ADJ
 70
     0
  0
APPID
  5
1B5
330
21
100
AcDbSymbolTableRecord
100
AcDbRegAppTableRecord
  2
ACAD_DSTYLE_DIMTEXT_FILL
 70
     0
  0
APPID
  5
37F
330
21
100
AcDbSymbolTableRecord
100
AcDbRegAppTableRecord
  2
GENIUS_GENOENT_13
 70
     0
  0
APPID
  5
380
330
21
100
AcDbSymbolTableRecord
100
AcDbRegAppTableRecord
  2
GENIUS_GENOBJ-N-CRS_13
 70
     0
  0
APPID
  5
381
330
21
100
AcDbSymbolTableRecord
100
AcDbRegAppTableRecord
  2
GENIUS_GENOLIS_13
 70
     0
  0
APPID
  5
382
330
21
100
AcDbSymbolTableRecord
100
AcDbRegAppTableRecord
  2
GENIUS_GENODEF_13
 70
     0
  0
APPID
  5
383
330
21
100
AcDbSymbolTableRecord
100
AcDbRegAppTableRecord
  2
GENIUS_GENOREF_13
 70
     0
  0
APPID
  5
384
330
21
100
AcDbSymbolTableRecord
100
AcDbRegAppTableRecord
  2
ACAD_DSTYLE_DIMEXT_LENGTH
 70
     0
  0
APPID
  5
385
330
21
100
AcDbSymbolTableRecord
100
AcDbRegAppTableRecord
  2
ACAD_DSTYLE_DIMEXT_ENABLED
 70
     0
  0
APPID
  5
386
330
21
100
AcDbSymbolTableRecord
100
AcDbRegAppTableRecord
  2
ACAD_DSTYLE_DIM_EXT1_LINETYPE
 70
     0
  0
APPID
  5
387
330
21
100
AcDbSymbolTableRecord
100
AcDbRegAppTableRecord
  2
ACAD_DSTYLE_DIMJOGGED_JOGANGLE_SYMBOL
 70
     0
  0
APPID
  5
388
330
21
100
AcDbSymbolTableRecord
100
AcDbRegAppTableRecord
  2
ACAD_DSTYLE_DIMARC_LENGTH_SYMBOL
 70
     0
  0
APPID
  5
389
330
21
100
AcDbSymbolTableRecord
100
AcDbRegAppTableRecord
  2
GENIUS_GENREC_14
 70
     0
  0
APPID
  5
38A
330
21
100
AcDbSymbolTableRecord
100
AcDbRegAppTableRecord
  2
GENIUS_GENOBJ-N-REC_13
 70
     0
  0
APPID
  5
B66
330
21
100
AcDbSymbolTableRecord
100
AcDbRegAppTableRecord
  2
GENIUS_GENDIM_13
 70
     0
  0
APPID
  5
B67
330
21
100
AcDbSymbolTableRecord
100
AcDbRegAppTableRecord
  2
GENIUS_GENDTOL_13
 70
     0
  0
APPID
  5
B68
330
21
100
AcDbSymbolTableRecord
100
AcDbRegAppTableRecord
  2
GENIUS_GE3DTOL_13
 70
     0
  0
APPID
  5
BE6
330
21
100
AcDbSymbolTableRecord
100
AcDbRegAppTableRecord
  2
ASURF_PCURVE_APPNAME
 70
     0
  0
APPID
  5
BEB
330
21
100
AcDbSymbolTableRecord
100
AcDbRegAppTableRecord
  2
AMG_3D2D_5.0
 70
     0
  0
ENDTAB
  0
TABLE
  2
DIMSTYLE
  5
23
330
0
100
AcDbSymbolTable
 70
     8
100
AcDbDimStyleTable
 71
     3
340
24
340
25
340
26
  0
DIMSTYLE
105
24
330
23
100
AcDbSymbolTableRecord
100
AcDbDimStyleTableRecord
  2
AM_ISO
 70
     0
  4
"
 41
3.0
 42
1.0
 43
8.0
 44
1.0
 47
0.1
 48
0.1
 73
     0
 74
     0
 77
     1
 78
     8
 79
     2
140
3.5
141
0.0
143
0.0393701
146
0.71
147
1.0
172
     1
176
   256
177
   256
178
   256
271
     2
272
     2
283
     0
284
     8
285
     8
340
18
371
    -1
372
    -1
  0
DIMSTYLE
105
25
330
23
100
AcDbSymbolTableRecord
100
AcDbDimStyleTableRecord
  2
AM_ISO$SF
 70
     0
  4
"
 41
2.5
 42
1.0
 43
10.0
 44
1.0
 47
0.1
 48
0.1
 73
     0
 74
     0
 75
     1
 76
     1
 77
     1
 78
     8
 79
     2
140
3.5
141
0.0
143
0.0393701
146
0.71
147
1.0
172
     1
176
   256
177
   256
178
   256
271
     2
272
     2
283
     0
284
     8
340
18
371
    -1
372
    -1
  0
DIMSTYLE
105
26
330
23
100
AcDbSymbolTableRecord
100
AcDbDimStyleTableRecord
  2
AM_ISO$SH
 70
     0
  4
"
 41
2.5
 42
1.0
 43
10.0
 44
1.0
 47
0.1
 48
0.1
 73
     0
 74
     0
 75
     1
 76
     1
 77
     1
 78
     8
 79
     2
140
3.5
141
0.0
143
0.0393701
144
2.0
146
0.71
147
1.0
172
     1
173
     1
176
   256
177
   256
178
   256
271
     2
272
     2
283
     0
284
     8
340
18
343
27
371
    -1
372
    -1
  0
DIMSTYLE
105
4F
102
{ACAD_REACTORS
330
19F
330
77
330
6A
330
5D
330
4D
330
231
330
247
330
281
330
2A1
330
2C0
330
2D6
330
333
330
95F
102
}
330
23
100
AcDbSymbolTableRecord
100
AcDbDimStyleTableRecord
  2
AM_ISO$0
 70
     0
  4
"
 41
3.0
 42
1.0
 43
8.0
 44
1.0
 47
0.1
 48
0.1
 73
     0
 74
     0
 77
     1
 78
     8
 79
     2
140
3.5
141
0.0
143
0.0393701
146
0.71
147
1.0
172
     1
176
   256
177
   256
178
   256
271
     2
272
     2
283
     0
284
     8
285
     8
340
18
371
    -1
372
    -1
  0
DIMSTYLE
105
17C
330
23
100
AcDbSymbolTableRecord
100
AcDbDimStyleTableRecord
  2
AM_ISO$3
 70
     0
  4
"
 41
3.0
 42
1.0
 43
8.0
 44
1.0
 47
0.1
 48
0.1
 73
     0
 77
     1
 78
     8
 79
     2
140
3.5
141
0.0
143
0.0393701
146
0.71
147
1.0
176
   256
177
   256
178
   256
271
     2
272
     2
283
     0
284
     8
285
     8
288
     1
289
     0
340
18
371
    -1
372
    -1
  0
DIMSTYLE
105
17D
330
23
100
AcDbSymbolTableRecord
100
AcDbDimStyleTableRecord
  2
AM_ISO$4
 70
     0
  4
"
 41
3.0
 42
1.0
 43
8.0
 44
1.0
 47
0.1
 48
0.1
 73
     0
 77
     1
 78
     8
 79
     2
140
3.5
141
0.0
143
0.0393701
146
0.71
147
1.0
176
   256
177
   256
178
   256
271
     2
272
     2
283
     0
284
     8
285
     8
288
     1
289
     0
340
18
371
    -1
372
    -1
  0
DIMSTYLE
105
17E
330
23
100
AcDbSymbolTableRecord
100
AcDbDimStyleTableRecord
  2
AM_ISO$6
 70
     0
  4
"
 41
3.0
 42
1.0
 43
8.0
 44
1.0
 47
0.1
 48
0.1
 73
     0
 74
     0
 78
     8
 79
     2
140
3.5
141
0.0
143
0.0393701
146
0.71
147
1.0
172
     1
176
   256
177
   256
178
   256
271
     2
272
     2
283
     0
284
     8
285
     8
340
18
371
    -1
372
    -1
  0
DIMSTYLE
105
17F
102
{ACAD_REACTORS
330
2F2
102
}
330
23
100
AcDbSymbolTableRecord
100
AcDbDimStyleTableRecord
  2
AM_ISO$7
 70
     0
  4
"
 41
2.5
 42
1.0
 43
8.0
 44
1.0
 47
0.1
 48
0.1
 73
     0
 74
     0
 77
     1
 78
     8
 79
     2
140
5.0
141
0.0
143
0.0393701
146
0.71
147
1.5
172
     1
176
   256
177
   256
178
   256
271
     2
272
     2
283
     0
284
     8
285
     8
340
18
371
    -1
372
    -1
  0
ENDTAB
  0
TABLE
  2
BLOCK_RECORD
  5
1
330
0
100
AcDbSymbolTable
 70
    15
  0
BLOCK_RECORD
  5
2
102
{ACAD_XDICTIONARY
360
3
102
}
330
1
100
AcDbSymbolTableRecord
100
AcDbBlockTableRecord
  2
*MODEL_SPACE
340
B
  0
BLOCK_RECORD
  5
D
330
1
100
AcDbSymbolTableRecord
100
AcDbBlockTableRecord
  2
*PAPER_SPACE
340
10
  0
BLOCK_RECORD
  5
27
330
1
100
AcDbSymbolTableRecord
100
AcDbBlockTableRecord
  2
GENAXEH
340
0
  0
BLOCK_RECORD
  5
189
330
1
100
AcDbSymbolTableRecord
100
AcDbBlockTableRecord
  2
*D1
340
0
  0
BLOCK_RECORD
  5
1A0
330
1
100
AcDbSymbolTableRecord
100
AcDbBlockTableRecord
  2
*D2
340
0
  0
BLOCK_RECORD
  5
1BE
330
1
100
AcDbSymbolTableRecord
100
AcDbBlockTableRecord
  2
*D3
340
0
  0
BLOCK_RECORD
  5
1D3
330
1
100
AcDbSymbolTableRecord
100
AcDbBlockTableRecord
  2
*D4
340
0
  0
BLOCK_RECORD
  5
1DF
330
1
100
AcDbSymbolTableRecord
100
AcDbBlockTableRecord
  2
*D5
340
0
  0
BLOCK_RECORD
  5
232
330
1
100
AcDbSymbolTableRecord
100
AcDbBlockTableRecord
  2
*D6
340
0
  0
BLOCK_RECORD
  5
248
330
1
100
AcDbSymbolTableRecord
100
AcDbBlockTableRecord
  2
*D7
340
0
  0
BLOCK_RECORD
  5
282
330
1
100
AcDbSymbolTableRecord
100
AcDbBlockTableRecord
  2
*D8
340
0
  0
BLOCK_RECORD
  5
2A2
330
1
100
AcDbSymbolTableRecord
100
AcDbBlockTableRecord
  2
*D9
340
0
  0
BLOCK_RECORD
  5
2C1
330
1
100
AcDbSymbolTableRecord
100
AcDbBlockTableRecord
  2
*D10
340
0
  0
BLOCK_RECORD
  5
2D7
330
1
100
AcDbSymbolTableRecord
100
AcDbBlockTableRecord
  2
*D11
340
0
  0
BLOCK_RECORD
  5
334
330
1
100
AcDbSymbolTableRecord
100
AcDbBlockTableRecord
  2
*D12
340
0
  0
BLOCK_RECORD
  5
960
330
1
100
AcDbSymbolTableRecord
100
AcDbBlockTableRecord
  2
*D13
340
0
  0
ENDTAB
  0
ENDSEC
  0
SECTION
  2
BLOCKS
  0
BLOCK
  5
4
330
2
100
AcDbEntity
  8
0
100
AcDbBlockBegin
  2
*MODEL_SPACE
 70
     0
 10
0.0
 20
0.0
 30
0.0
  3
*MODEL_SPACE
  1

  0
ENDBLK
  5
A
330
2
100
AcDbEntity
  8
0
100
AcDbBlockEnd
  0
BLOCK
  5
E
330
D
100
AcDbEntity
 67
     1
  8
0
100
AcDbBlockBegin
  2
*PAPER_SPACE
 70
     0
 10
0.0
 20
0.0
 30
0.0
  3
*PAPER_SPACE
  1

  0
ENDBLK
  5
F
330
D
100
AcDbEntity
 67
     1
  8
0
100
AcDbBlockEnd
  0
BLOCK
  5
28
330
27
100
AcDbEntity
  8
0
100
AcDbBlockBegin
  2
GENAXEH
 70
     0
 10
0.0
 20
0.0
 30
0.0
  3
GENAXEH
  1

  0
LINE
  5
29
330
27
100
AcDbEntity
  8
0
100
AcDbLine
 10
-1.0
 20
0.0
 30
0.0
 11
1.0
 21
0.0
 31
0.0
  0
ENDBLK
  5
2A
330
27
100
AcDbEntity
  8
0
100
AcDbBlockEnd
  0
BLOCK
  5
193
330
189
100
AcDbEntity
  8
0
 62
     6
100
AcDbBlockBegin
  2
*D1
 70
     1
 10
0.0
 20
0.0
 30
0.0
  3
*D1
  1

  0
LINE
  5
AE9
330
189
100
AcDbEntity
  8
AM_5
100
AcDbLine
 10
194.6525258263957
 20
106.2384599547412
 30
0.0
 11
213.066349482756
 21
106.2384599547412
 31
0.0
  0
LINE
  5
AEA
330
189
100
AcDbEntity
  8
AM_5
100
AcDbLine
 10
201.6525258263957
 20
163.2384599547412
 30
0.0
 11
213.066349482756
 21
163.2384599547412
 31
0.0
  0
LINE
  5
AEB
330
189
100
AcDbEntity
  8
AM_5
100
AcDbLine
 10
212.066349482756
 20
109.2384599547412
 30
0.0
 11
212.066349482756
 21
160.2384599547412
 31
0.0
  0
SOLID
  5
AEC
330
189
100
AcDbEntity
  8
AM_5
100
AcDbTrace
 10
211.566349482756
 20
109.2384599547412
 30
0.0
 11
212.5663494827561
 21
109.2384599547412
 31
0.0
 12
212.066349482756
 22
106.2384599547412
 32
0.0
 13
212.066349482756
 23
106.2384599547412
 33
0.0
  0
SOLID
  5
AED
330
189
100
AcDbEntity
  8
AM_5
100
AcDbTrace
 10
211.566349482756
 20
160.2384599547412
 30
0.0
 11
212.5663494827561
 21
160.2384599547412
 31
0.0
 12
212.066349482756
 22
163.2384599547412
 32
0.0
 13
212.066349482756
 23
163.2384599547412
 33
0.0
  0
MTEXT
  5
AEE
330
189
100
AcDbEntity
  8
AM_5
100
AcDbMText
 10
209.316349482756
 20
134.7384599547413
 30
0.0
 40
3.5
 41
0.0
 71
     5
 72
     1
  1
57
 11
0.0000000000000001
 21
1.0
 31
0.0
 73
     1
 44
1.0
1001
ACAD
1000
MTEXTBEGIN
1070
    73
1070
     1
1070
    44
1040
1.0
1070
    74
1070
     0
1000
MTEXTEND
  0
POINT
  5
AEF
330
189
100
AcDbEntity
  8
Defpoints
 62
     0
100
AcDbPoint
 10
193.6525258263957
 20
106.2384599547412
 30
0.0
  0
POINT
  5
AF0
330
189
100
AcDbEntity
  8
Defpoints
 62
     0
100
AcDbPoint
 10
200.6525258263957
 20
163.2384599547412
 30
0.0
  0
POINT
  5
AF1
330
189
100
AcDbEntity
  8
Defpoints
 62
     0
100
AcDbPoint
 10
212.066349482756
 20
163.2384599547412
 30
0.0
  0
ENDBLK
  5
194
330
189
100
AcDbEntity
  8
0
 62
     6
100
AcDbBlockEnd
  0
BLOCK
  5
1AA
330
1A0
100
AcDbEntity
  8
0
 62
     6
100
AcDbBlockBegin
  2
*D2
 70
     1
 10
0.0
 20
0.0
 30
0.0
  3
*D2
  1

  0
LINE
  5
B04
330
1A0
100
AcDbEntity
  8
AM_5
100
AcDbLine
 10
164.1525258263957
 20
139.2384599547412
 30
0.0
 11
159.7123753951737
 21
139.2384599547412
 31
0.0
  0
LINE
  5
B05
330
1A0
100
AcDbEntity
  8
AM_5
100
AcDbLine
 10
168.6525258263957
 20
106.2384599547412
 30
0.0
 11
159.7123753951737
 21
106.2384599547412
 31
0.0
  0
LINE
  5
B06
330
1A0
100
AcDbEntity
  8
AM_5
100
AcDbLine
 10
160.7123753951737
 20
136.2384599547412
 30
0.0
 11
160.7123753951737
 21
109.2384599547412
 31
0.0
  0
SOLID
  5
B07
330
1A0
100
AcDbEntity
  8
AM_5
100
AcDbTrace
 10
160.2123753951737
 20
136.2384599547412
 30
0.0
 11
161.2123753951737
 21
136.2384599547412
 31
0.0
 12
160.7123753951737
 22
139.2384599547412
 32
0.0
 13
160.7123753951737
 23
139.2384599547412
 33
0.0
  0
SOLID
  5
B08
330
1A0
100
AcDbEntity
  8
AM_5
100
AcDbTrace
 10
160.2123753951737
 20
109.2384599547412
 30
0.0
 11
161.2123753951737
 21
109.2384599547412
 31
0.0
 12
160.7123753951737
 22
106.2384599547412
 32
0.0
 13
160.7123753951737
 23
106.2384599547412
 33
0.0
  0
MTEXT
  5
B09
330
1A0
100
AcDbEntity
  8
AM_5
100
AcDbMText
 10
157.9623753951736
 20
122.7384599547412
 30
0.0
 40
3.5
 41
0.0
 71
     5
 72
     1
  1
33
 11
0.0000000000000001
 21
1.0
 31
0.0
 73
     1
 44
1.0
1001
ACAD
1000
MTEXTBEGIN
1070
    73
1070
     1
1070
    44
1040
1.0
1070
    74
1070
     0
1000
MTEXTEND
  0
POINT
  5
B0A
330
1A0
100
AcDbEntity
  8
Defpoints
 62
     0
100
AcDbPoint
 10
165.1525258263957
 20
139.2384599547412
 30
0.0
  0
POINT
  5
B0B
330
1A0
100
AcDbEntity
  8
Defpoints
 62
     0
100
AcDbPoint
 10
169.6525258263957
 20
106.2384599547412
 30
0.0
  0
POINT
  5
B0C
330
1A0
100
AcDbEntity
  8
Defpoints
 62
     0
100
AcDbPoint
 10
160.7123753951737
 20
106.2384599547412
 30
0.0
  0
ENDBLK
  5
1AB
330
1A0
100
AcDbEntity
  8
0
 62
     6
100
AcDbBlockEnd
  0
BLOCK
  5
1C8
330
1BE
100
AcDbEntity
  8
0
 62
     6
100
AcDbBlockBegin
  2
*D3
 70
     1
 10
0.0
 20
0.0
 30
0.0
  3
*D3
  1

  0
LINE
  5
ADE
330
1BE
100
AcDbEntity
  8
AM_5
100
AcDbLine
 10
194.6525258263957
 20
106.2384599547412
 30
0.0
 11
205.066349482756
 21
106.2384599547412
 31
0.0
  0
LINE
  5
ADF
330
1BE
100
AcDbEntity
  8
AM_5
100
AcDbLine
 10
194.6525258263957
 20
114.2384599547412
 30
0.0
 11
205.066349482756
 21
114.2384599547412
 31
0.0
  0
LINE
  5
AE0
330
1BE
100
AcDbEntity
  8
AM_5
100
AcDbLine
 10
204.0663494827561
 20
103.2384599547412
 30
0.0
 11
204.0663494827561
 21
100.2384599547412
 31
0.0
  0
LINE
  5
AE1
330
1BE
100
AcDbEntity
  8
AM_5
100
AcDbLine
 10
204.0663494827561
 20
117.2384599547412
 30
0.0
 11
204.0663494827561
 21
120.2384599547412
 31
0.0
  0
LINE
  5
AE2
330
1BE
100
AcDbEntity
  8
AM_5
100
AcDbLine
 10
204.0663494827561
 20
106.2384599547412
 30
0.0
 11
204.0663494827561
 21
114.2384599547412
 31
0.0
  0
SOLID
  5
AE3
330
1BE
100
AcDbEntity
  8
AM_5
100
AcDbTrace
 10
203.566349482756
 20
103.2384599547412
 30
0.0
 11
204.566349482756
 21
103.2384599547412
 31
0.0
 12
204.0663494827561
 22
106.2384599547412
 32
0.0
 13
204.0663494827561
 23
106.2384599547412
 33
0.0
  0
SOLID
  5
AE4
330
1BE
100
AcDbEntity
  8
AM_5
100
AcDbTrace
 10
203.566349482756
 20
117.2384599547412
 30
0.0
 11
204.566349482756
 21
117.2384599547412
 31
0.0
 12
204.0663494827561
 22
114.2384599547412
 32
0.0
 13
204.0663494827561
 23
114.2384599547412
 33
0.0
  0
MTEXT
  5
AE5
330
1BE
100
AcDbEntity
  8
AM_5
100
AcDbMText
 10
201.316349482756
 20
110.2384599547413
 30
0.0
 40
3.5
 41
0.0
 71
     5
 72
     1
  1
8
 11
0.0000000000000001
 21
1.0
 31
0.0
 73
     1
 44
1.0
1001
ACAD
1000
MTEXTBEGIN
1070
    73
1070
     1
1070
    44
1040
1.0
1070
    74
1070
     0
1000
MTEXTEND
  0
POINT
  5
AE6
330
1BE
100
AcDbEntity
  8
Defpoints
 62
     0
100
AcDbPoint
 10
193.6525258263957
 20
106.2384599547412
 30
0.0
  0
POINT
  5
AE7
330
1BE
100
AcDbEntity
  8
Defpoints
 62
     0
100
AcDbPoint
 10
193.6525258263957
 20
114.2384599547412
 30
0.0
  0
POINT
  5
AE8
330
1BE
100
AcDbEntity
  8
Defpoints
 62
     0
100
AcDbPoint
 10
204.0663494827561
 20
114.2384599547412
 30
0.0
  0
ENDBLK
  5
1C9
330
1BE
100
AcDbEntity
  8
0
 62
     6
100
AcDbBlockEnd
  0
BLOCK
  5
1DD
330
1D3
100
AcDbEntity
  8
0
 62
     6
100
AcDbBlockBegin
  2
*D4
 70
     1
 10
0.0
 20
0.0
 30
0.0
  3
*D4
  1

  0
LINE
  5
AF2
330
1D3
100
AcDbEntity
  8
AM_5
100
AcDbLine
 10
194.6525258263957
 20
106.2384599547412
 30
0.0
 11
221.066349482756
 21
106.2384599547412
 31
0.0
  0
LINE
  5
AF3
330
1D3
100
AcDbEntity
  8
AM_5
100
AcDbLine
 10
182.6525258263957
 20
180.2384599547412
 30
0.0
 11
221.066349482756
 21
180.2384599547412
 31
0.0
  0
LINE
  5
AF4
330
1D3
100
AcDbEntity
  8
AM_5
100
AcDbLine
 10
220.066349482756
 20
109.2384599547412
 30
0.0
 11
220.066349482756
 21
177.2384599547412
 31
0.0
  0
SOLID
  5
AF5
330
1D3
100
AcDbEntity
  8
AM_5
100
AcDbTrace
 10
219.566349482756
 20
109.2384599547412
 30
0.0
 11
220.5663494827561
 21
109.2384599547412
 31
0.0
 12
220.066349482756
 22
106.2384599547412
 32
0.0
 13
220.066349482756
 23
106.2384599547412
 33
0.0
  0
SOLID
  5
AF6
330
1D3
100
AcDbEntity
  8
AM_5
100
AcDbTrace
 10
219.566349482756
 20
177.2384599547412
 30
0.0
 11
220.5663494827561
 21
177.2384599547412
 31
0.0
 12
220.066349482756
 22
180.2384599547412
 32
0.0
 13
220.066349482756
 23
180.2384599547412
 33
0.0
  0
MTEXT
  5
AF7
330
1D3
100
AcDbEntity
  8
AM_5
100
AcDbMText
 10
217.316349482756
 20
143.2384599547412
 30
0.0
 40
3.5
 41
0.0
 71
     5
 72
     1
  1
74
 11
0.0000000000000001
 21
1.0
 31
0.0
 73
     1
 44
1.0
1001
ACAD
1000
MTEXTBEGIN
1070
    73
1070
     1
1070
    44
1040
1.0
1070
    74
1070
     0
1000
MTEXTEND
  0
POINT
  5
AF8
330
1D3
100
AcDbEntity
  8
Defpoints
 62
     0
100
AcDbPoint
 10
193.6525258263957
 20
106.2384599547412
 30
0.0
  0
POINT
  5
AF9
330
1D3
100
AcDbEntity
  8
Defpoints
 62
     0
100
AcDbPoint
 10
181.6525258263957
 20
180.2384599547412
 30
0.0
  0
POINT
  5
AFA
330
1D3
100
AcDbEntity
  8
Defpoints
 62
     0
100
AcDbPoint
 10
220.066349482756
 20
180.2384599547412
 30
0.0
  0
ENDBLK
  5
1DE
330
1D3
100
AcDbEntity
  8
0
 62
     6
100
AcDbBlockEnd
  0
BLOCK
  5
1E9
330
1DF
100
AcDbEntity
  8
0
 62
     6
100
AcDbBlockBegin
  2
*D5
 70
     1
 10
0.0
 20
0.0
 30
0.0
  3
*D5
  1

  0
LINE
  5
AFB
330
1DF
100
AcDbEntity
  8
AM_5
100
AcDbLine
 10
169.1525258263957
 20
105.7384599547412
 30
0.0
 11
169.1525258263957
 21
85.23845995474127
 31
0.0
  0
LINE
  5
AFC
330
1DF
100
AcDbEntity
  8
AM_5
100
AcDbLine
 10
194.1525258263957
 20
105.7384599547412
 30
0.0
 11
194.1525258263957
 21
85.23845995474127
 31
0.0
  0
LINE
  5
AFD
330
1DF
100
AcDbEntity
  8
AM_5
100
AcDbLine
 10
172.1525258263957
 20
86.23845995474127
 30
0.0
 11
191.1525258263957
 21
86.23845995474127
 31
0.0
  0
SOLID
  5
AFE
330
1DF
100
AcDbEntity
  8
AM_5
100
AcDbTrace
 10
172.1525258263957
 20
86.73845995474128
 30
0.0
 11
172.1525258263957
 21
85.73845995474128
 31
0.0
 12
169.1525258263957
 22
86.23845995474127
 32
0.0
 13
169.1525258263957
 23
86.23845995474127
 33
0.0
  0
SOLID
  5
AFF
330
1DF
100
AcDbEntity
  8
AM_5
100
AcDbTrace
 10
191.1525258263957
 20
86.73845995474128
 30
0.0
 11
191.1525258263957
 21
85.73845995474128
 31
0.0
 12
194.1525258263957
 22
86.23845995474127
 32
0.0
 13
194.1525258263957
 23
86.23845995474127
 33
0.0
  0
MTEXT
  5
B00
330
1DF
100
AcDbEntity
  8
AM_5
100
AcDbMText
 10
180.7647620119804
 20
88.98880444293025
 30
0.0
 40
3.5
 41
0.0
 71
     5
 72
     1
  1
25
 73
     1
 44
1.0
1001
ACAD
1000
MTEXTBEGIN
1070
    73
1070
     1
1070
    44
1040
1.0
1070
    74
1070
     0
1000
MTEXTEND
  0
POINT
  5
B01
330
1DF
100
AcDbEntity
  8
Defpoints
 62
     0
100
AcDbPoint
 10
169.1525258263957
 20
106.7384599547412
 30
0.0
  0
POINT
  5
B02
330
1DF
100
AcDbEntity
  8
Defpoints
 62
     0
100
AcDbPoint
 10
194.1525258263957
 20
106.7384599547412
 30
0.0
  0
POINT
  5
B03
330
1DF
100
AcDbEntity
  8
Defpoints
 62
     0
100
AcDbPoint
 10
194.1525258263957
 20
86.23845995474127
 30
0.0
  0
ENDBLK
  5
1EA
330
1DF
100
AcDbEntity
  8
0
 62
     6
100
AcDbBlockEnd
  0
BLOCK
  5
23C
330
232
100
AcDbEntity
  8
0
 62
     6
100
AcDbBlockBegin
  2
*D6
 70
     1
 10
0.0
 20
0.0
 30
0.0
  3
*D6
  1

  0
LINE
  5
B0D
330
232
100
AcDbEntity
  8
AM_5
100
AcDbLine
 10
255.03473923639
 20
179.7303933395709
 30
0.0
 11
255.03473923639
 21
191.7303933395709
 31
0.0
  0
LINE
  5
B0E
330
232
100
AcDbEntity
  8
AM_5
100
AcDbLine
 10
269.03473923639
 20
179.7303933395709
 30
0.0
 11
269.03473923639
 21
191.7303933395709
 31
0.0
  0
LINE
  5
B0F
330
232
100
AcDbEntity
  8
AM_5
100
AcDbLine
 10
258.03473923639
 20
190.7303933395709
 30
0.0
 11
266.03473923639
 21
190.7303933395709
 31
0.0
  0
SOLID
  5
B10
330
232
100
AcDbEntity
  8
AM_5
100
AcDbTrace
 10
258.03473923639
 20
191.2303933395709
 30
0.0
 11
258.03473923639
 21
190.2303933395709
 31
0.0
 12
255.03473923639
 22
190.7303933395709
 32
0.0
 13
255.03473923639
 23
190.7303933395709
 33
0.0
  0
SOLID
  5
B11
330
232
100
AcDbEntity
  8
AM_5
100
AcDbTrace
 10
266.03473923639
 20
191.2303933395709
 30
0.0
 11
266.03473923639
 21
190.2303933395709
 31
0.0
 12
269.03473923639
 22
190.7303933395709
 32
0.0
 13
269.03473923639
 23
190.7303933395709
 33
0.0
  0
MTEXT
  5
B12
330
232
100
AcDbEntity
  8
AM_5
100
AcDbMText
 10
262.03473923639
 20
193.4803933395709
 30
0.0
 40
3.5
 41
0.0
 71
     5
 72
     1
  1
14
 73
     1
 44
1.0
1001
ACAD
1000
MTEXTBEGIN
1070
    73
1070
     1
1070
    44
1040
1.0
1070
    74
1070
     0
1000
MTEXTEND
  0
POINT
  5
B13
330
232
100
AcDbEntity
  8
Defpoints
 62
     0
100
AcDbPoint
 10
255.03473923639
 20
178.7303933395709
 30
0.0
  0
POINT
  5
B14
330
232
100
AcDbEntity
  8
Defpoints
 62
     0
100
AcDbPoint
 10
269.03473923639
 20
178.7303933395709
 30
0.0
  0
POINT
  5
B15
330
232
100
AcDbEntity
  8
Defpoints
 62
     0
100
AcDbPoint
 10
269.03473923639
 20
190.7303933395709
 30
0.0
  0
ENDBLK
  5
23D
330
232
100
AcDbEntity
  8
0
 62
     6
100
AcDbBlockEnd
  0
BLOCK
  5
252
330
248
100
AcDbEntity
  8
0
 62
     6
100
AcDbBlockBegin
  2
*D7
 70
     1
 10
0.0
 20
0.0
 30
0.0
  3
*D7
  1

  0
LINE
  5
B16
330
248
100
AcDbEntity
  8
AM_5
100
AcDbLine
 10
252.53473923639
 20
172.6669829570234
 30
0.0
 11
252.53473923639
 21
199.7303933395709
 31
0.0
  0
LINE
  5
B17
330
248
100
AcDbEntity
  8
AM_5
100
AcDbLine
 10
271.53473923639
 20
172.6669829570234
 30
0.0
 11
271.53473923639
 21
199.7303933395709
 31
0.0
  0
LINE
  5
B18
330
248
100
AcDbEntity
  8
AM_5
100
AcDbLine
 10
255.53473923639
 20
198.7303933395709
 30
0.0
 11
268.53473923639
 21
198.7303933395709
 31
0.0
  0
SOLID
  5
B19
330
248
100
AcDbEntity
  8
AM_5
100
AcDbTrace
 10
255.53473923639
 20
199.2303933395709
 30
0.0
 11
255.53473923639
 21
198.2303933395709
 31
0.0
 12
252.53473923639
 22
198.7303933395709
 32
0.0
 13
252.53473923639
 23
198.7303933395709
 33
0.0
  0
SOLID
  5
B1A
330
248
100
AcDbEntity
  8
AM_5
100
AcDbTrace
 10
268.53473923639
 20
199.2303933395709
 30
0.0
 11
268.53473923639
 21
198.2303933395709
 31
0.0
 12
271.53473923639
 22
198.7303933395709
 32
0.0
 13
271.53473923639
 23
198.7303933395709
 33
0.0
  0
MTEXT
  5
B1B
330
248
100
AcDbEntity
  8
AM_5
100
AcDbMText
 10
262.03473923639
 20
201.4803933395709
 30
0.0
 40
3.5
 41
0.0
 71
     5
 72
     1
  1
19
 73
     1
 44
1.0
1001
ACAD
1000
MTEXTBEGIN
1070
    73
1070
     1
1070
    44
1040
1.0
1070
    74
1070
     0
1000
MTEXTEND
  0
POINT
  5
B1C
330
248
100
AcDbEntity
  8
Defpoints
 62
     0
100
AcDbPoint
 10
252.53473923639
 20
171.6669829570234
 30
0.0
  0
POINT
  5
B1D
330
248
100
AcDbEntity
  8
Defpoints
 62
     0
100
AcDbPoint
 10
271.53473923639
 20
171.6669829570234
 30
0.0
  0
POINT
  5
B1E
330
248
100
AcDbEntity
  8
Defpoints
 62
     0
100
AcDbPoint
 10
271.53473923639
 20
198.7303933395709
 30
0.0
  0
ENDBLK
  5
253
330
248
100
AcDbEntity
  8
0
 62
     6
100
AcDbBlockEnd
  0
BLOCK
  5
28C
330
282
100
AcDbEntity
  8
0
 62
     6
100
AcDbBlockBegin
  2
*D8
 70
     1
 10
0.0
 20
0.0
 30
0.0
  3
*D8
  1

  0
LINE
  5
B1F
330
282
100
AcDbEntity
  8
AM_5
100
AcDbLine
 10
251.53473923639
 20
156.2384599547412
 30
0.0
 11
243.972188133231
 21
156.2384599547412
 31
0.0
  0
LINE
  5
B20
330
282
100
AcDbEntity
  8
AM_5
100
AcDbLine
 10
251.53473923639
 20
170.2384599547412
 30
0.0
 11
243.972188133231
 21
170.2384599547412
 31
0.0
  0
LINE
  5
B21
330
282
100
AcDbEntity
  8
AM_5
100
AcDbLine
 10
244.972188133231
 20
159.2384599547412
 30
0.0
 11
244.972188133231
 21
167.2384599547412
 31
0.0
  0
SOLID
  5
B22
330
282
100
AcDbEntity
  8
AM_5
100
AcDbTrace
 10
244.4721881332311
 20
159.2384599547412
 30
0.0
 11
245.472188133231
 21
159.2384599547412
 31
0.0
 12
244.972188133231
 22
156.2384599547412
 32
0.0
 13
244.972188133231
 23
156.2384599547412
 33
0.0
  0
SOLID
  5
B23
330
282
100
AcDbEntity
  8
AM_5
100
AcDbTrace
 10
244.4721881332311
 20
167.2384599547412
 30
0.0
 11
245.472188133231
 21
167.2384599547412
 31
0.0
 12
244.972188133231
 22
170.2384599547412
 32
0.0
 13
244.972188133231
 23
170.2384599547412
 33
0.0
  0
MTEXT
  5
B24
330
282
100
AcDbEntity
  8
AM_5
100
AcDbMText
 10
242.222188133231
 20
163.2384599547412
 30
0.0
 40
3.5
 41
0.0
 71
     5
 72
     1
  1
%%c14
 11
0.0000000000000001
 21
1.0
 31
0.0
 73
     1
 44
1.0
1001
ACAD
1000
MTEXTBEGIN
1070
    73
1070
     1
1070
    44
1040
1.0
1070
    74
1070
     0
1000
MTEXTEND
  0
POINT
  5
B25
330
282
100
AcDbEntity
  8
Defpoints
 62
     0
100
AcDbPoint
 10
252.53473923639
 20
156.2384599547412
 30
0.0
  0
POINT
  5
B26
330
282
100
AcDbEntity
  8
Defpoints
 62
     0
100
AcDbPoint
 10
252.53473923639
 20
170.2384599547412
 30
0.0
  0
POINT
  5
B27
330
282
100
AcDbEntity
  8
Defpoints
 62
     0
100
AcDbPoint
 10
244.972188133231
 20
170.2384599547412
 30
0.0
  0
ENDBLK
  5
28D
330
282
100
AcDbEntity
  8
0
 62
     6
100
AcDbBlockEnd
  0
BLOCK
  5
2AC
330
2A2
100
AcDbEntity
  8
0
 62
     6
100
AcDbBlockBegin
  2
*D9
 70
     1
 10
0.0
 20
0.0
 30
0.0
  3
*D9
  1

  0
LINE
  5
B28
330
2A2
100
AcDbEntity
  8
AM_5
100
AcDbLine
 10
272.53473923639
 20
154.809936952459
 30
0.0
 11
284.53473923639
 21
154.809936952459
 31
0.0
  0
LINE
  5
B29
330
2A2
100
AcDbEntity
  8
AM_5
100
AcDbLine
 10
272.53473923639
 20
171.6669829570234
 30
0.0
 11
284.53473923639
 21
171.6669829570234
 31
0.0
  0
LINE
  5
B2A
330
2A2
100
AcDbEntity
  8
AM_5
100
AcDbLine
 10
283.53473923639
 20
157.809936952459
 30
0.0
 11
283.53473923639
 21
168.6669829570234
 31
0.0
  0
SOLID
  5
B2B
330
2A2
100
AcDbEntity
  8
AM_5
100
AcDbTrace
 10
283.03473923639
 20
157.809936952459
 30
0.0
 11
284.03473923639
 21
157.809936952459
 31
0.0
 12
283.53473923639
 22
154.809936952459
 32
0.0
 13
283.53473923639
 23
154.809936952459
 33
0.0
  0
SOLID
  5
B2C
330
2A2
100
AcDbEntity
  8
AM_5
100
AcDbTrace
 10
283.03473923639
 20
168.6669829570234
 30
0.0
 11
284.03473923639
 21
168.6669829570234
 31
0.0
 12
283.53473923639
 22
171.6669829570234
 32
0.0
 13
283.53473923639
 23
171.6669829570234
 33
0.0
  0
MTEXT
  5
B2D
330
2A2
100
AcDbEntity
  8
AM_5
100
AcDbMText
 10
280.78473923639
 20
163.2384599547412
 30
0.0
 40
3.5
 41
0.0
 71
     5
 72
     1
  1
%%c16.86
 11
0.0000000000000001
 21
1.0
 31
0.0
 73
     1
 44
1.0
1001
ACAD
1000
MTEXTBEGIN
1070
    73
1070
     1
1070
    44
1040
1.0
1070
    74
1070
     0
1000
MTEXTEND
  0
POINT
  5
B2E
330
2A2
100
AcDbEntity
  8
Defpoints
 62
     0
100
AcDbPoint
 10
271.53473923639
 20
154.809936952459
 30
0.0
  0
POINT
  5
B2F
330
2A2
100
AcDbEntity
  8
Defpoints
 62
     0
100
AcDbPoint
 10
271.53473923639
 20
171.6669829570234
 30
0.0
  0
POINT
  5
B30
330
2A2
100
AcDbEntity
  8
Defpoints
 62
     0
100
AcDbPoint
 10
283.53473923639
 20
171.6669829570234
 30
0.0
  0
ENDBLK
  5
2AD
330
2A2
100
AcDbEntity
  8
0
 62
     6
100
AcDbBlockEnd
  0
BLOCK
  5
2CB
330
2C1
100
AcDbEntity
  8
0
 62
     6
100
AcDbBlockBegin
  2
*D10
 70
     1
 10
0.0
 20
0.0
 30
0.0
  3
*D10
  1

  0
LINE
  5
B31
330
2C1
100
AcDbEntity
  8
AM_5
100
AcDbLine
 10
274.03473923639
 20
106.2384599547412
 30
0.0
 11
280.84230813367
 21
106.2384599547412
 31
0.0
  0
LINE
  5
B32
330
2C1
100
AcDbEntity
  8
AM_5
100
AcDbLine
 10
270.23773923639
 20
133.2384599547412
 30
0.0
 11
280.84230813367
 21
133.2384599547412
 31
0.0
  0
LINE
  5
B33
330
2C1
100
AcDbEntity
  8
AM_5
100
AcDbLine
 10
279.84230813367
 20
109.2384599547412
 30
0.0
 11
279.84230813367
 21
130.2384599547412
 31
0.0
  0
SOLID
  5
B34
330
2C1
100
AcDbEntity
  8
AM_5
100
AcDbTrace
 10
279.34230813367
 20
109.2384599547412
 30
0.0
 11
280.3423081336699
 21
109.2384599547412
 31
0.0
 12
279.84230813367
 22
106.2384599547412
 32
0.0
 13
279.84230813367
 23
106.2384599547412
 33
0.0
  0
SOLID
  5
B35
330
2C1
100
AcDbEntity
  8
AM_5
100
AcDbTrace
 10
279.34230813367
 20
130.2384599547412
 30
0.0
 11
280.3423081336701
 21
130.2384599547412
 31
0.0
 12
279.84230813367
 22
133.2384599547412
 32
0.0
 13
279.84230813367
 23
133.2384599547412
 33
0.0
  0
MTEXT
  5
B36
330
2C1
100
AcDbEntity
  8
AM_5
100
AcDbMText
 10
277.091963645481
 20
119.7384599547413
 30
0.0
 40
3.5
 41
0.0
 71
     5
 72
     1
  1
27
 11
0.0000000000000001
 21
1.0
 31
0.0
 73
     1
 44
1.0
1001
ACAD
1000
MTEXTBEGIN
1070
    73
1070
     1
1070
    44
1040
1.0
1070
    74
1070
     0
1000
MTEXTEND
  0
POINT
  5
B37
330
2C1
100
AcDbEntity
  8
Defpoints
 62
     0
100
AcDbPoint
 10
273.03473923639
 20
106.2384599547412
 30
0.0
  0
POINT
  5
B38
330
2C1
100
AcDbEntity
  8
Defpoints
 62
     0
100
AcDbPoint
 10
269.23773923639
 20
133.2384599547412
 30
0.0
  0
POINT
  5
B39
330
2C1
100
AcDbEntity
  8
Defpoints
 62
     0
100
AcDbPoint
 10
279.84230813367
 20
133.2384599547412
 30
0.0
  0
ENDBLK
  5
2CC
330
2C1
100
AcDbEntity
  8
0
 62
     6
100
AcDbBlockEnd
  0
BLOCK
  5
2E1
330
2D7
100
AcDbEntity
  8
0
 62
     6
100
AcDbBlockBegin
  2
*D11
 70
     1
 10
0.0
 20
0.0
 30
0.0
  3
*D11
  1

  0
LINE
  5
B3A
330
2D7
100
AcDbEntity
  8
AM_5
100
AcDbLine
 10
251.03473923639
 20
105.2384599547412
 30
0.0
 11
251.03473923639
 21
93.23845995474142
 31
0.0
  0
LINE
  5
B3B
330
2D7
100
AcDbEntity
  8
AM_5
100
AcDbLine
 10
273.03473923639
 20
105.2384599547412
 30
0.0
 11
273.03473923639
 21
93.23845995474142
 31
0.0
  0
LINE
  5
B3C
330
2D7
100
AcDbEntity
  8
AM_5
100
AcDbLine
 10
254.03473923639
 20
94.23845995474142
 30
0.0
 11
270.03473923639
 21
94.23845995474142
 31
0.0
  0
SOLID
  5
B3D
330
2D7
100
AcDbEntity
  8
AM_5
100
AcDbTrace
 10
254.03473923639
 20
94.73845995474141
 30
0.0
 11
254.03473923639
 21
93.73845995474141
 31
0.0
 12
251.03473923639
 22
94.23845995474142
 32
0.0
 13
251.03473923639
 23
94.23845995474142
 33
0.0
  0
SOLID
  5
B3E
330
2D7
100
AcDbEntity
  8
AM_5
100
AcDbTrace
 10
270.03473923639
 20
94.73845995474141
 30
0.0
 11
270.03473923639
 21
93.73845995474141
 31
0.0
 12
273.03473923639
 22
94.23845995474142
 32
0.0
 13
273.03473923639
 23
94.23845995474142
 33
0.0
  0
MTEXT
  5
B3F
330
2D7
100
AcDbEntity
  8
AM_5
100
AcDbMText
 10
262.03473923639
 20
96.98880444293038
 30
0.0
 40
3.5
 41
0.0
 71
     5
 72
     1
  1
22
 73
     1
 44
1.0
1001
ACAD
1000
MTEXTBEGIN
1070
    73
1070
     1
1070
    44
1040
1.0
1070
    74
1070
     0
1000
MTEXTEND
  0
POINT
  5
B40
330
2D7
100
AcDbEntity
  8
Defpoints
 62
     0
100
AcDbPoint
 10
251.03473923639
 20
106.2384599547412
 30
0.0
  0
POINT
  5
B41
330
2D7
100
AcDbEntity
  8
Defpoints
 62
     0
100
AcDbPoint
 10
273.03473923639
 20
106.2384599547412
 30
0.0
  0
POINT
  5
B42
330
2D7
100
AcDbEntity
  8
Defpoints
 62
     0
100
AcDbPoint
 10
273.03473923639
 20
94.23845995474142
 30
0.0
  0
ENDBLK
  5
2E2
330
2D7
100
AcDbEntity
  8
0
 62
     6
100
AcDbBlockEnd
  0
BLOCK
  5
33E
330
334
100
AcDbEntity
  8
0
 62
     6
100
AcDbBlockBegin
  2
*D12
 70
     1
 10
0.0
 20
0.0
 30
0.0
  3
*D12
  1

  0
LINE
  5
B43
330
334
100
AcDbEntity
  8
AM_5
100
AcDbLine
 10
171.6525258263957
 20
113.2384599547412
 30
0.0
 11
171.6525258263957
 21
93.23845995474128
 31
0.0
  0
LINE
  5
B44
330
334
100
AcDbEntity
  8
AM_5
100
AcDbLine
 10
191.6525258263957
 20
113.2384599547412
 30
0.0
 11
191.6525258263957
 21
93.23845995474128
 31
0.0
  0
LINE
  5
B45
330
334
100
AcDbEntity
  8
AM_5
100
AcDbLine
 10
174.6525258263957
 20
94.23845995474128
 30
0.0
 11
188.6525258263957
 21
94.23845995474128
 31
0.0
  0
SOLID
  5
B46
330
334
100
AcDbEntity
  8
AM_5
100
AcDbTrace
 10
174.6525258263957
 20
94.73845995474126
 30
0.0
 11
174.6525258263957
 21
93.73845995474127
 31
0.0
 12
171.6525258263957
 22
94.23845995474128
 32
0.0
 13
171.6525258263957
 23
94.23845995474128
 33
0.0
  0
SOLID
  5
B47
330
334
100
AcDbEntity
  8
AM_5
100
AcDbTrace
 10
188.6525258263957
 20
94.73845995474126
 30
0.0
 11
188.6525258263957
 21
93.73845995474127
 31
0.0
 12
191.6525258263957
 22
94.23845995474128
 32
0.0
 13
191.6525258263957
 23
94.23845995474128
 33
0.0
  0
MTEXT
  5
B48
330
334
100
AcDbEntity
  8
AM_5
100
AcDbMText
 10
181.6525258263957
 20
96.98880444293024
 30
0.0
 40
3.5
 41
0.0
 71
     5
 72
     1
  1
%%c20
 73
     1
 44
1.0
1001
ACAD
1000
MTEXTBEGIN
1070
    73
1070
     1
1070
    44
1040
1.0
1070
    74
1070
     0
1000
MTEXTEND
  0
POINT
  5
B49
330
334
100
AcDbEntity
  8
Defpoints
 62
     0
100
AcDbPoint
 10
171.6525258263957
 20
114.2384599547412
 30
0.0
  0
POINT
  5
B4A
330
334
100
AcDbEntity
  8
Defpoints
 62
     0
100
AcDbPoint
 10
191.6525258263957
 20
114.2384599547412
 30
0.0
  0
POINT
  5
B4B
330
334
100
AcDbEntity
  8
Defpoints
 62
     0
100
AcDbPoint
 10
191.6525258263957
 20
94.23845995474128
 30
0.0
  0
ENDBLK
  5
33F
330
334
100
AcDbEntity
  8
0
 62
     6
100
AcDbBlockEnd
  0
BLOCK
  5
96A
330
960
100
AcDbEntity
  8
0
 62
     6
100
AcDbBlockBegin
  2
*D13
 70
     1
 10
0.0
 20
0.0
 30
0.0
  3
*D13
  1

  0
LINE
  5
B4C
330
960
100
AcDbEntity
  8
AM_5
100
AcDbLine
 10
164.6525258263957
 20
164.2384599547412
 30
0.0
 11
164.6525258263957
 21
191.7303933395709
 31
0.0
  0
LINE
  5
B4D
330
960
100
AcDbEntity
  8
AM_5
100
AcDbLine
 10
198.6525258263957
 20
164.2384599547412
 30
0.0
 11
198.6525258263957
 21
191.7303933395709
 31
0.0
  0
LINE
  5
B4E
330
960
100
AcDbEntity
  8
AM_5
100
AcDbLine
 10
167.6525258263957
 20
190.7303933395709
 30
0.0
 11
195.6525258263957
 21
190.7303933395709
 31
0.0
  0
SOLID
  5
B4F
330
960
100
AcDbEntity
  8
AM_5
100
AcDbTrace
 10
167.6525258263957
 20
191.2303933395709
 30
0.0
 11
167.6525258263957
 21
190.2303933395709
 31
0.0
 12
164.6525258263957
 22
190.7303933395709
 32
0.0
 13
164.6525258263957
 23
190.7303933395709
 33
0.0
  0
SOLID
  5
B50
330
960
100
AcDbEntity
  8
AM_5
100
AcDbTrace
 10
195.6525258263957
 20
191.2303933395709
 30
0.0
 11
195.6525258263957
 21
190.2303933395709
 31
0.0
 12
198.6525258263957
 22
190.7303933395709
 32
0.0
 13
198.6525258263957
 23
190.7303933395709
 33
0.0
  0
MTEXT
  5
B51
330
960
100
AcDbEntity
  8
AM_5
100
AcDbMText
 10
181.6525258263957
 20
193.4803933395709
 30
0.0
 40
3.5
 41
0.0
 71
     5
 72
     1
  1
34
 73
     1
 44
1.0
1001
ACAD
1000
MTEXTBEGIN
1070
    73
1070
     1
1070
    44
1040
1.0
1070
    74
1070
     0
1000
MTEXTEND
  0
POINT
  5
B52
330
960
100
AcDbEntity
  8
Defpoints
 62
     0
100
AcDbPoint
 10
164.6525258263957
 20
163.2384599547412
 30
0.0
  0
POINT
  5
B53
330
960
100
AcDbEntity
  8
Defpoints
 62
     0
100
AcDbPoint
 10
198.6525258263957
 20
163.2384599547412
 30
0.0
  0
POINT
  5
B54
330
960
100
AcDbEntity
  8
Defpoints
 62
     0
100
AcDbPoint
 10
198.6525258263957
 20
190.7303933395709
 30
0.0
  0
ENDBLK
  5
96B
330
960
100
AcDbEntity
  8
0
 62
     6
100
AcDbBlockEnd
  0
ENDSEC
  0
SECTION
  2
ENTITIES
  0
LINE
  5
36
330
D
100
AcDbEntity
 67
     1
  8
AM_7
100
AcDbLine
 10
181.6525258263957
 20
156.2384599547412
 30
0.0
 11
181.6525258263957
 21
103.7384599547412
 31
0.0
  0
LINE
  5
39
330
D
100
AcDbEntity
 67
     1
  8
AM_7
100
AcDbLine
 10
174.6525258263957
 20
139.2384599547412
 30
0.0
 11
165.1525258263957
 21
139.2384599547412
 31
0.0
  0
LINE
  5
3A
330
D
100
AcDbEntity
 67
     1
  8
AM_7
100
AcDbLine
 10
181.6525258263957
 20
163.2384599547412
 30
0.0
 11
181.6525258263957
 21
163.2384599547412
 31
0.0
  0
LINE
  5
3B
330
D
100
AcDbEntity
 67
     1
  8
AM_7
100
AcDbLine
 10
181.6525258263957
 20
163.2384599547412
 30
0.0
 11
181.6525258263957
 21
163.2384599547412
 31
0.0
  0
LINE
  5
3D
330
D
100
AcDbEntity
 67
     1
  8
AM_7
100
AcDbLine
 10
163.6525258263957
 20
163.2384599547412
 30
0.0
 11
200.6525258263957
 21
163.2384599547412
 31
0.0
  0
LINE
  5
3E
330
D
100
AcDbEntity
 67
     1
  8
AM_7
100
AcDbLine
 10
181.6525258263957
 20
153.2384599547412
 30
0.0
 11
181.6525258263957
 21
181.2384599547412
 31
0.0
  0
LINE
  5
40
330
D
100
AcDbEntity
 67
     1
  8
AM_7
100
AcDbLine
 10
262.03473923639
 20
156.2384599547412
 30
0.0
 11
262.03473923639
 21
103.2384599547412
 31
0.0
  0
LINE
  5
41
330
D
100
AcDbEntity
 67
     1
  8
AM_7
100
AcDbLine
 10
249.53473923639
 20
163.2384599547412
 30
0.0
 11
274.53473923639
 21
163.2384599547412
 31
0.0
  0
LINE
  5
42
330
D
100
AcDbEntity
 67
     1
  8
AM_7
100
AcDbLine
 10
262.03473923639
 20
139.2384599547412
 30
0.0
 11
262.03473923639
 21
139.2384599547412
 31
0.0
  0
LINE
  5
43
330
D
100
AcDbEntity
 67
     1
  8
AM_7
100
AcDbLine
 10
262.03473923639
 20
139.2384599547412
 30
0.0
 11
262.03473923639
 21
139.2384599547412
 31
0.0
  0
LINE
  5
44
330
D
100
AcDbEntity
 67
     1
  8
AM_7
100
AcDbLine
 10
256.53473923639
 20
139.2384599547412
 30
0.0
 11
262.03473923639
 21
139.2384599547412
 31
0.0
  0
LINE
  5
45
330
D
100
AcDbEntity
 67
     1
  8
AM_7
100
AcDbLine
 10
262.03473923639
 20
139.2384599547412
 30
0.0
 11
267.53473923639
 21
139.2384599547412
 31
0.0
  0
LINE
  5
46
330
D
100
AcDbEntity
 67
     1
  8
AM_7
100
AcDbLine
 10
262.03473923639
 20
133.7384599547412
 30
0.0
 11
262.03473923639
 21
139.2384599547412
 31
0.0
  0
LINE
  5
47
330
D
100
AcDbEntity
 67
     1
  8
AM_7
100
AcDbLine
 10
262.03473923639
 20
139.2384599547412
 30
0.0
 11
262.03473923639
 21
144.7384599547412
 31
0.0
  0
LINE
  5
48
330
D
100
AcDbEntity
 67
     1
  8
AM_4
  6
AM_ISO02W050
100
AcDbLine
 10
269.23773923639
 20
106.2854599547412
 30
0.0
 11
269.23773923639
 21
133.2384599547412
 31
0.0
  0
LINE
  5
4B
330
D
100
AcDbEntity
 67
     1
  8
AM_4
  6
AM_ISO02W050
100
AcDbLine
 10
254.83173923639
 20
106.2854599547412
 30
0.0
 11
254.83173923639
 21
133.2384599547412
 31
0.0
  0
LINE
  5
4C
330
D
100
AcDbEntity
 67
     1
  8
AM_4
  6
AM_ISO02W050
100
AcDbLine
 10
269.23773923639
 20
133.2384599547412
 30
0.0
 11
254.83173923639
 21
133.2384599547412
 31
0.0
  0
DIMENSION
  5
4D
330
D
100
AcDbEntity
 67
     1
  8
AM_5
100
AcDbDimension
  2
*D3
 10
204.0663494827561
 20
114.2384599547412
 30
0.0
 11
201.316349482756
 21
110.2384599547413
 31
0.0
 70
    32
 71
     5
 42
8.0
  3
AM_ISO$0
100
AcDbAlignedDimension
 13
193.6525258263957
 23
106.2384599547412
 33
0.0
 14
193.6525258263957
 24
114.2384599547412
 34
0.0
 50
90.0
100
AcDbRotatedDimension
  0
DIMENSION
  5
5D
330
D
100
AcDbEntity
 67
     1
  8
AM_5
100
AcDbDimension
  2
*D1
 10
212.066349482756
 20
163.2384599547412
 30
0.0
 11
209.316349482756
 21
134.7384599547413
 31
0.0
 70
    32
 71
     5
 42
57.00000000000001
  3
AM_ISO$0
100
AcDbAlignedDimension
 13
193.6525258263957
 23
106.2384599547412
 33
0.0
 14
200.6525258263957
 24
163.2384599547412
 34
0.0
 50
90.0
100
AcDbRotatedDimension
  0
DIMENSION
  5
6A
330
D
100
AcDbEntity
 67
     1
  8
AM_5
100
AcDbDimension
  2
*D4
 10
220.066349482756
 20
180.2384599547412
 30
0.0
 11
217.316349482756
 21
143.2384599547412
 31
0.0
 70
    32
 71
     5
 42
73.99999999999998
  3
AM_ISO$0
100
AcDbAlignedDimension
 13
193.6525258263957
 23
106.2384599547412
 33
0.0
 14
181.6525258263957
 24
180.2384599547412
 34
0.0
 50
90.0
100
AcDbRotatedDimension
  0
DIMENSION
  5
77
330
D
100
AcDbEntity
 67
     1
  8
AM_5
100
AcDbDimension
  2
*D5
 10
194.1525258263957
 20
86.23845995474127
 30
0.0
 11
180.7647620119804
 21
86.23845995474127
 31
0.0
 70
   160
 71
     5
 42
25.0
  3
AM_ISO$0
100
AcDbAlignedDimension
 13
169.1525258263957
 23
106.7384599547412
 33
0.0
 14
194.1525258263957
 24
106.7384599547412
 34
0.0
100
AcDbRotatedDimension
  0
LINE
  5
84
330
D
100
AcDbEntity
 67
     1
  8
AM_VIS
100
AcDbLine
 10
186.4483573497084
 20
106.2384599547412
 30
0.0
 11
176.856694303083
 21
106.2384599547412
 31
0.0
  0
SPLINE
  5
86
330
D
100
AcDbEntity
 67
     1
  8
AM_VIS
100
AcDbSpline
210
0.0
220
0.0
230
1.0
 70
    12
 71
     2
 72
     6
 73
     3
 74
     0
 42
0.0000000001
 43
0.0000000001
 40
0.0
 40
0.0
 40
0.0
 40
1.246211713445917
 40
1.246211713445917
 40
1.246211713445917
 10
176.856694303083
 20
106.2384599547412
 30
0.0
 41
1.0
 10
176.2976708646146
 20
106.4618751404477
 30
0.0
 41
1.001086863805942
 10
175.7153547828768
 20
106.7384599547412
 30
0.0
 41
1.0
  0
LINE
  5
87
330
D
100
AcDbEntity
 67
     1
  8
AM_VIS
100
AcDbLine
 10
175.7153547828768
 20
106.7384599547412
 30
0.0
 11
175.7153547828768
 21
113.7384599547412
 31
0.0
  0
SPLINE
  5
88
330
D
100
AcDbEntity
 67
     1
  8
AM_VIS
100
AcDbSpline
210
0.0
220
0.0
230
1.0
 70
    12
 71
     2
 72
     6
 73
     3
 74
     0
 42
0.0000000001
 43
0.0000000001
 40
0.0
 40
0.0
 40
0.0
 40
1.246211713445917
 40
1.246211713445917
 40
1.246211713445917
 10
175.7153547828768
 20
113.7384599547412
 30
0.0
 41
1.0
 10
176.2976708646145
 20
114.0150447690347
 30
0.0
 41
1.001086863806178
 10
176.856694303083
 20
114.2384599547412
 30
0.0
 41
1.0
  0
LINE
  5
89
330
D
100
AcDbEntity
 67
     1
  8
AM_VIS
100
AcDbLine
 10
176.856694303083
 20
114.2384599547412
 30
0.0
 11
186.4483573497084
 21
114.2384599547412
 31
0.0
  0
SPLINE
  5
8A
330
D
100
AcDbEntity
 67
     1
  8
AM_VIS
100
AcDbSpline
210
0.0
220
0.0
230
1.0
 70
    12
 71
     2
 72
     6
 73
     3
 74
     0
 42
0.0000000001
 43
0.0000000001
 40
0.0
 40
0.0
 40
0.0
 40
1.246211713445916
 40
1.246211713445916
 40
1.246211713445916
 10
186.4483573497084
 20
114.2384599547412
 30
0.0
 41
1.0
 10
187.0073807881769
 20
114.0150447690349
 30
0.0
 41
1.001086863805886
 10
187.5896968699147
 20
113.7384599547412
 30
0.0
 41
1.0
  0
LINE
  5
8B
330
D
100
AcDbEntity
 67
     1
  8
AM_VIS
100
AcDbLine
 10
187.5896968699147
 20
113.7384599547412
 30
0.0
 11
187.5896968699147
 21
106.7384599547412
 31
0.0
  0
SPLINE
  5
8C
330
D
100
AcDbEntity
 67
     1
  8
AM_VIS
100
AcDbSpline
210
0.0
220
0.0
230
1.0
 70
    12
 71
     2
 72
     6
 73
     3
 74
     0
 42
0.0000000001
 43
0.0000000001
 40
0.0
 40
0.0
 40
0.0
 40
1.246211713445917
 40
1.246211713445917
 40
1.246211713445917
 10
187.5896968699147
 20
106.7384599547412
 30
0.0
 41
1.0
 10
187.0073807881768
 20
106.4618751404477
 30
0.0
 41
1.001086863805966
 10
186.4483573497084
 20
106.2384599547412
 30
0.0
 41
1.0
  0
ARC
  5
8D
330
D
100
AcDbEntity
 67
     1
  8
AM_VIS
100
AcDbCircle
 10
158.347485391178
 20
139.4355134824384
 30
0.0
 40
17.94849093244186
100
AcDbArc
 50
25.76882003917397
 51
50.26695577402173
  0
ARC
  5
8E
330
D
100
AcDbEntity
 67
     1
  8
AM_VIS
100
AcDbCircle
 10
204.9575662616134
 20
139.4355134824385
 30
0.0
 40
17.94849093244179
100
AcDbArc
 50
129.7330442259782
 51
154.2311799608261
  0
LINE
  5
8F
330
D
100
AcDbEntity
 67
     1
  8
AM_VIS
100
AcDbLine
 10
188.7939542549385
 20
147.2384599547412
 30
0.0
 11
174.5110973978529
 21
147.2384599547412
 31
0.0
  0
ELLIPSE
  5
90
330
D
100
AcDbEntity
 67
     1
  8
AM_VIS
100
AcDbEllipse
 10
181.6525258263957
 20
159.3628156077234
 30
0.0
 11
-0.0000000000000012
 21
-17.3205080756888
 31
0.0
210
0.0
220
0.0
230
1.0
 40
0.5773502691896249
 41
5.487786476995442
 42
7.078584137363731
  0
LINE
  5
91
330
D
100
AcDbEntity
 67
     1
  8
AM_VIS
100
AcDbLine
 10
193.6525258263957
 20
114.2384599547412
 30
0.0
 11
194.1525258263957
 21
113.7384599547412
 31
0.0
  0
LINE
  5
92
330
D
100
AcDbEntity
 67
     1
  8
AM_VIS
100
AcDbLine
 10
194.1525258263957
 20
113.7384599547412
 30
0.0
 11
194.1525258263957
 21
106.7384599547412
 31
0.0
  0
LINE
  5
93
330
D
100
AcDbEntity
 67
     1
  8
AM_VIS
100
AcDbLine
 10
193.6525258263957
 20
106.2384599547412
 30
0.0
 11
194.1525258263957
 21
106.7384599547412
 31
0.0
  0
LINE
  5
94
330
D
100
AcDbEntity
 67
     1
  8
AM_VIS
100
AcDbLine
 10
169.6525258263957
 20
114.2384599547412
 30
0.0
 11
169.1525258263957
 21
113.7384599547412
 31
0.0
  0
LINE
  5
95
330
D
100
AcDbEntity
 67
     1
  8
AM_VIS
100
AcDbLine
 10
169.1525258263957
 20
113.7384599547412
 30
0.0
 11
169.1525258263957
 21
106.7384599547412
 31
0.0
  0
LINE
  5
96
330
D
100
AcDbEntity
 67
     1
  8
AM_VIS
100
AcDbLine
 10
169.6525258263957
 20
106.2384599547412
 30
0.0
 11
169.1525258263957
 21
106.7384599547412
 31
0.0
  0
LINE
  5
97
330
D
100
AcDbEntity
 67
     1
  8
AM_VIS
100
AcDbLine
 10
191.6525258263957
 20
114.2384599547412
 30
0.0
 11
191.6525258263957
 21
147.2384599547412
 31
0.0
  0
LINE
  5
98
330
D
100
AcDbEntity
 67
     1
  8
AM_VIS
100
AcDbLine
 10
171.6525258263957
 20
114.2384599547412
 30
0.0
 11
171.6525258263957
 21
136.7384599547412
 31
0.0
  0
LINE
  5
99
330
D
100
AcDbEntity
 67
     1
  8
AM_VIS
100
AcDbLine
 10
171.6525258263957
 20
141.7384599547412
 30
0.0
 11
171.6525258263957
 21
147.2384599547412
 31
0.0
  0
LINE
  5
9A
330
D
100
AcDbEntity
 67
     1
  8
AM_VIS
100
AcDbLine
 10
171.6525258263957
 20
141.7384599547412
 30
0.0
 11
170.1525258263957
 21
141.7384599547412
 31
0.0
  0
LINE
  5
9B
330
D
100
AcDbEntity
 67
     1
  8
AM_VIS
100
AcDbLine
 10
171.6525258263957
 20
136.7384599547412
 30
0.0
 11
170.1525258263957
 21
136.7384599547412
 31
0.0
  0
LINE
  5
9C
330
D
100
AcDbEntity
 67
     1
  8
AM_VIS
100
AcDbLine
 10
170.1525258263957
 20
140.9884599547412
 30
0.0
 11
168.1525258263957
 21
140.9884599547412
 31
0.0
  0
LINE
  5
9D
330
D
100
AcDbEntity
 67
     1
  8
AM_VIS
100
AcDbLine
 10
170.1525258263957
 20
137.4884599547412
 30
0.0
 11
168.1525258263957
 21
137.4884599547412
 31
0.0
  0
LINE
  5
9E
330
D
100
AcDbEntity
 67
     1
  8
AM_VIS
100
AcDbLine
 10
194.1525258263957
 20
113.7384599547412
 30
0.0
 11
187.5896968699147
 21
113.7384599547412
 31
0.0
  0
LINE
  5
9F
330
D
100
AcDbEntity
 67
     1
  8
AM_VIS
100
AcDbLine
 10
187.5896968699147
 20
106.7384599547412
 30
0.0
 11
194.1525258263957
 21
106.7384599547412
 31
0.0
  0
LINE
  5
A0
330
D
100
AcDbEntity
 67
     1
  8
AM_VIS
100
AcDbLine
 10
186.4483573497084
 20
114.2384599547412
 30
0.0
 11
193.6525258263957
 21
114.2384599547412
 31
0.0
  0
LINE
  5
A1
330
D
100
AcDbEntity
 67
     1
  8
AM_VIS
100
AcDbLine
 10
169.6525258263957
 20
114.2384599547412
 30
0.0
 11
176.856694303083
 21
114.2384599547412
 31
0.0
  0
LINE
  5
A2
330
D
100
AcDbEntity
 67
     1
  8
AM_VIS
100
AcDbLine
 10
175.7153547828768
 20
113.7384599547412
 30
0.0
 11
169.1525258263957
 21
113.7384599547412
 31
0.0
  0
LINE
  5
A3
330
D
100
AcDbEntity
 67
     1
  8
AM_VIS
100
AcDbLine
 10
169.1525258263957
 20
106.7384599547412
 30
0.0
 11
175.7153547828768
 21
106.7384599547412
 31
0.0
  0
LINE
  5
A4
330
D
100
AcDbEntity
 67
     1
  8
AM_VIS
100
AcDbLine
 10
193.6525258263957
 20
106.2384599547412
 30
0.0
 11
186.4483573497084
 21
106.2384599547412
 31
0.0
  0
LINE
  5
A5
330
D
100
AcDbEntity
 67
     1
  8
AM_VIS
100
AcDbLine
 10
176.856694303083
 20
106.2384599547412
 30
0.0
 11
169.6525258263957
 21
106.2384599547412
 31
0.0
  0
LINE
  5
A6
330
D
100
AcDbEntity
 67
     1
  8
AM_VIS
100
AcDbLine
 10
193.4846853925949
 20
153.2384599547412
 30
0.0
 11
195.4002529112632
 21
153.2384599547412
 31
0.0
  0
LINE
  5
A7
330
D
100
AcDbEntity
 67
     1
  8
AM_VIS
100
AcDbLine
 10
167.9047987415282
 20
153.2384599547412
 30
0.0
 11
169.8203662601965
 21
153.2384599547412
 31
0.0
  0
LINE
  5
A8
330
D
100
AcDbEntity
 67
     1
  8
AM_VIS
100
AcDbLine
 10
188.7939542549385
 20
147.2384599547412
 30
0.0
 11
191.6525258263957
 21
147.2384599547412
 31
0.0
  0
LINE
  5
A9
330
D
100
AcDbEntity
 67
     1
  8
AM_VIS
100
AcDbLine
 10
171.6525258263957
 20
147.2384599547412
 30
0.0
 11
174.5110973978529
 21
147.2384599547412
 31
0.0
  0
ARC
  5
AA
330
D
100
AcDbEntity
 67
     1
  8
AM_VIS
100
AcDbCircle
 10
181.6525258263957
 20
163.2384599547412
 30
0.0
 40
15.49193338482966
100
AcDbArc
 50
319.7970341134302
 51
220.2029658865698
  0
CIRCLE
  5
AB
330
D
100
AcDbEntity
 67
     1
  8
AM_VIS
100
AcDbCircle
 10
181.6525258263957
 20
163.2384599547412
 30
0.0
 40
10.59669759878048
  0
CIRCLE
  5
AC
330
D
100
AcDbEntity
 67
     1
  8
AM_VIS
100
AcDbCircle
 10
181.6525258263957
 20
163.2384599547412
 30
0.0
 40
8.428523002282194
  0
CIRCLE
  5
AD
330
D
100
AcDbEntity
 67
     1
  8
AM_VIS
100
AcDbCircle
 10
181.6525258263957
 20
163.2384599547412
 30
0.0
 40
7.0
  0
LINE
  5
AE
330
D
100
AcDbEntity
 67
     1
  8
AM_VIS
100
AcDbLine
 10
171.6525258263957
 20
141.7384599547412
 30
0.0
 11
171.6525258263957
 21
136.7384599547412
 31
0.0
  0
LINE
  5
AF
330
D
100
AcDbEntity
 67
     1
  8
AM_VIS
100
AcDbLine
 10
170.1525258263957
 20
136.7384599547412
 30
0.0
 11
170.1525258263957
 21
141.7384599547412
 31
0.0
  0
LINE
  5
B0
330
D
100
AcDbEntity
 67
     1
  8
AM_VIS
100
AcDbLine
 10
167.1525258263957
 20
138.4884599547412
 30
0.0
 11
167.1525258263957
 21
139.9884599547412
 31
0.0
  0
ARC
  5
B1
330
D
100
AcDbEntity
 67
     1
  8
AM_VIS
100
AcDbCircle
 10
181.6525258263957
 20
163.2384599547412
 30
0.0
 40
17.0
100
AcDbArc
 50
323.9681209275295
 51
216.0318790724705
  0
ARC
  5
B2
330
D
100
AcDbEntity
 67
     1
  8
AM_VIS
100
AcDbCircle
 10
205.8897565834767
 20
142.5160389263251
 30
0.0
 40
15.0
100
AcDbArc
 50
134.3708894706751
 51
161.6495652348321
  0
ARC
  5
B3
330
D
100
AcDbEntity
 67
     1
  8
AM_VIS
100
AcDbCircle
 10
157.4152950693147
 20
142.5160389263251
 30
0.0
 40
15.0
100
AcDbArc
 50
18.35043476516786
 51
45.62911052932483
  0
ARC
  5
B4
330
D
100
AcDbEntity
 67
     1
  8
AM_VIS
100
AcDbCircle
 10
168.1525258263957
 20
139.9884599547412
 30
0.0
 40
1.0
100
AcDbArc
 50
90.0
 51
180.0
  0
ARC
  5
B5
330
D
100
AcDbEntity
 67
     1
  8
AM_VIS
100
AcDbCircle
 10
168.1525258263957
 20
138.4884599547412
 30
0.0
 40
1.0
100
AcDbArc
 50
180.0
 51
270.0
  0
LINE
  5
B6
330
D
100
AcDbEntity
 67
     1
  8
AM_VIS
100
AcDbLine
 10
273.03473923639
 20
106.7384599547412
 30
0.0
 11
273.03473923639
 21
106.2384599547412
 31
0.0
  0
LINE
  5
B7
330
D
100
AcDbEntity
 67
     1
  8
AM_VIS
100
AcDbLine
 10
273.03473923639
 20
106.7384599547412
 30
0.0
 11
273.03473923639
 21
113.7384599547412
 31
0.0
  0
LINE
  5
B8
330
D
100
AcDbEntity
 67
     1
  8
AM_VIS
100
AcDbLine
 10
273.03473923639
 20
114.2384599547412
 30
0.0
 11
273.03473923639
 21
113.7384599547412
 31
0.0
  0
LINE
  5
B9
330
D
100
AcDbEntity
 67
     1
  8
AM_VIS
100
AcDbLine
 10
251.03473923639
 20
114.2384599547412
 30
0.0
 11
251.03473923639
 21
113.7384599547412
 31
0.0
  0
LINE
  5
BA
330
D
100
AcDbEntity
 67
     1
  8
AM_VIS
100
AcDbLine
 10
251.03473923639
 20
113.7384599547412
 30
0.0
 11
251.03473923639
 21
106.7384599547412
 31
0.0
  0
LINE
  5
BB
330
D
100
AcDbEntity
 67
     1
  8
AM_VIS
100
AcDbLine
 10
251.03473923639
 20
106.7384599547412
 30
0.0
 11
251.03473923639
 21
106.2384599547412
 31
0.0
  0
LINE
  5
BC
330
D
100
AcDbEntity
 67
     1
  8
AM_VIS
100
AcDbLine
 10
269.03473923639
 20
153.2384599547412
 30
0.0
 11
269.03473923639
 21
147.2384599547412
 31
0.0
  0
LINE
  5
BD
330
D
100
AcDbEntity
 67
     1
  8
AM_VIS
100
AcDbLine
 10
269.03473923639
 20
147.2384599547412
 30
0.0
 11
272.03473923639
 21
142.0423075320346
 31
0.0
  0
LINE
  5
BE
330
D
100
AcDbEntity
 67
     1
  8
AM_VIS
100
AcDbLine
 10
255.03473923639
 20
153.2384599547412
 30
0.0
 11
255.03473923639
 21
147.2384599547412
 31
0.0
  0
LINE
  5
BF
330
D
100
AcDbEntity
 67
     1
  8
AM_VIS
100
AcDbLine
 10
252.03473923639
 20
142.0423075320346
 30
0.0
 11
255.03473923639
 21
147.2384599547412
 31
0.0
  0
LINE
  5
C0
330
D
100
AcDbEntity
 67
     1
  8
AM_HID
100
AcDbLine
 10
262.03473923639
 20
136.7384599547412
 30
0.0
 11
262.03473923639
 21
141.7384599547412
 31
0.0
  0
LINE
  5
C3
330
D
100
AcDbEntity
 67
     1
  8
AM_VIS
100
AcDbLine
 10
272.03473923639
 20
114.2384599547412
 30
0.0
 11
272.03473923639
 21
142.0423075320346
 31
0.0
  0
LINE
  5
C4
330
D
100
AcDbEntity
 67
     1
  8
AM_VIS
100
AcDbLine
 10
252.03473923639
 20
114.2384599547412
 30
0.0
 11
252.03473923639
 21
142.0423075320346
 31
0.0
  0
LINE
  5
C5
330
D
100
AcDbEntity
 67
     1
  8
AM_HID
100
AcDbLine
 10
263.53473923639
 20
139.1454236295965
 30
0.0
 11
263.53473923639
 21
153.2384599547412
 31
0.0
  0
LINE
  5
C6
330
D
100
AcDbEntity
 67
     1
  8
AM_HID
100
AcDbLine
 10
260.53473923639
 20
139.1454236295965
 30
0.0
 11
260.53473923639
 21
153.2384599547412
 31
0.0
  0
LINE
  5
C7
330
D
100
AcDbEntity
 67
     1
  8
AM_HID
100
AcDbLine
 10
252.53473923639
 20
156.2384599547412
 30
0.0
 11
271.53473923639
 21
156.2384599547412
 31
0.0
  0
LINE
  5
C8
330
D
100
AcDbEntity
 67
     1
  8
AM_HID
100
AcDbLine
 10
252.53473923639
 20
170.2384599547412
 30
0.0
 11
271.53473923639
 21
170.2384599547412
 31
0.0
  0
LINE
  5
C9
330
D
100
AcDbEntity
 67
     1
  8
AM_HID
100
AcDbLine
 10
268.37273923639
 20
107.1504599547412
 30
0.0
 11
268.37273923639
 21
136.2384599547412
 31
0.0
  0
LINE
  5
CA
330
D
100
AcDbEntity
 67
     1
  8
AM_HID
100
AcDbLine
 10
255.69673923639
 20
107.1504599547412
 30
0.0
 11
255.69673923639
 21
136.2384599547412
 31
0.0
  0
LINE
  5
CB
330
D
100
AcDbEntity
 67
     1
  8
AM_HID
100
AcDbLine
 10
255.69673923639
 20
107.1504599547412
 30
0.0
 11
254.78473923639
 21
106.2384599547412
 31
0.0
  0
LINE
  5
CC
330
D
100
AcDbEntity
 67
     1
  8
AM_HID
100
AcDbLine
 10
268.37273923639
 20
107.1504599547412
 30
0.0
 11
269.28473923639
 21
106.2384599547412
 31
0.0
  0
LINE
  5
CD
330
D
100
AcDbEntity
 67
     1
  8
AM_HID
100
AcDbLine
 10
260.53473923639
 20
139.1454236295965
 30
0.0
 11
255.69673923639
 21
136.2384599547412
 31
0.0
  0
LINE
  5
CE
330
D
100
AcDbEntity
 67
     1
  8
AM_HID
100
AcDbLine
 10
263.53473923639
 20
139.1454236295965
 30
0.0
 11
268.37273923639
 21
136.2384599547412
 31
0.0
  0
LINE
  5
CF
330
D
100
AcDbEntity
 67
     1
  8
AM_VIS
100
AcDbLine
 10
273.03473923639
 20
113.7384599547412
 30
0.0
 11
251.03473923639
 21
113.7384599547412
 31
0.0
  0
LINE
  5
D0
330
D
100
AcDbEntity
 67
     1
  8
AM_VIS
100
AcDbLine
 10
251.03473923639
 20
106.7384599547412
 30
0.0
 11
273.03473923639
 21
106.7384599547412
 31
0.0
  0
LINE
  5
D1
330
D
100
AcDbEntity
 67
     1
  8
AM_VIS
100
AcDbLine
 10
251.03473923639
 20
114.2384599547412
 30
0.0
 11
273.03473923639
 21
114.2384599547412
 31
0.0
  0
LINE
  5
D2
330
D
100
AcDbEntity
 67
     1
  8
AM_VIS
100
AcDbLine
 10
273.03473923639
 20
106.2384599547412
 30
0.0
 11
251.03473923639
 21
106.2384599547412
 31
0.0
  0
LINE
  5
D3
330
D
100
AcDbEntity
 67
     1
  8
AM_VIS
100
AcDbLine
 10
269.03473923639
 20
178.7303933395709
 30
0.0
 11
269.03473923639
 21
153.2384599547412
 31
0.0
  0
LINE
  5
D4
330
D
100
AcDbEntity
 67
     1
  8
AM_VIS
100
AcDbLine
 10
255.03473923639
 20
153.2384599547412
 30
0.0
 11
269.03473923639
 21
153.2384599547412
 31
0.0
  0
LINE
  5
D5
330
D
100
AcDbEntity
 67
     1
  8
AM_VIS
100
AcDbLine
 10
255.03473923639
 20
147.2384599547412
 30
0.0
 11
269.03473923639
 21
147.2384599547412
 31
0.0
  0
LINE
  5
D6
330
D
100
AcDbEntity
 67
     1
  8
AM_VIS
100
AcDbLine
 10
255.03473923639
 20
153.2384599547412
 30
0.0
 11
255.03473923639
 21
178.7303933395709
 31
0.0
  0
LINE
  5
D7
330
D
100
AcDbEntity
 67
     1
  8
AM_VIS
100
AcDbLine
 10
271.53473923639
 20
171.6669829570234
 30
0.0
 11
271.53473923639
 21
154.809936952459
 31
0.0
  0
LINE
  5
D8
330
D
100
AcDbEntity
 67
     1
  8
AM_VIS
100
AcDbLine
 10
252.53473923639
 20
154.809936952459
 30
0.0
 11
252.53473923639
 21
171.6669829570234
 31
0.0
  0
LINE
  5
D9
330
D
100
AcDbEntity
 67
     1
  8
AM_HID
100
AcDbLine
 10
268.37273923639
 20
107.1504599547412
 30
0.0
 11
255.69673923639
 21
107.1504599547412
 31
0.0
  0
LINE
  5
DA
330
D
100
AcDbEntity
 67
     1
  8
AM_HID
100
AcDbLine
 10
268.37273923639
 20
136.2384599547412
 30
0.0
 11
255.69673923639
 21
136.2384599547412
 31
0.0
  0
LINE
  5
DB
330
D
100
AcDbEntity
 67
     1
  8
AM_HID
100
AcDbLine
 10
260.53473923639
 20
139.1454236295965
 30
0.0
 11
263.53473923639
 21
139.1454236295965
 31
0.0
  0
ARC
  5
DC
330
D
100
AcDbEntity
 67
     1
  8
AM_HID
100
AcDbCircle
 10
262.03473923639
 20
139.2384599547412
 30
0.0
 40
2.5
100
AcDbArc
 50
90.00000000000007
 51
269.9999999999999
  0
ARC
  5
DD
330
D
100
AcDbEntity
 67
     1
  8
AM_HID
100
AcDbCircle
 10
262.03473923639
 20
139.2384599547412
 30
0.0
 40
2.5
100
AcDbArc
 50
269.9999999999999
 51
90.00000000000007
  0
CIRCLE
  5
DE
330
D
100
AcDbEntity
 67
     1
  8
AM_HID
100
AcDbCircle
 10
262.03473923639
 20
139.2384599547412
 30
0.0
 40
1.75
  0
ARC
  5
DF
330
D
100
AcDbEntity
 67
     1
  8
AM_VIS
100
AcDbCircle
 10
262.03473923639
 20
163.2384599547412
 30
0.0
 40
17.0
100
AcDbArc
 50
65.6842608288235
 51
114.3157391711765
  0
ARC
  5
E0
330
D
100
AcDbEntity
 67
     1
  8
AM_VIS
100
AcDbCircle
 10
262.03473923639
 20
163.2384599547412
 30
0.0
 40
12.7
100
AcDbArc
 50
123.4480793133332
 51
138.4201465200096
  0
ARC
  5
E1
330
D
100
AcDbEntity
 67
     1
  8
AM_VIS
100
AcDbCircle
 10
262.03473923639
 20
163.2384599547412
 30
0.0
 40
12.7
100
AcDbArc
 50
221.5798534799903
 51
236.5519206866667
  0
ARC
  5
E2
330
D
100
AcDbEntity
 67
     1
  8
AM_VIS
100
AcDbCircle
 10
262.03473923639
 20
163.2384599547412
 30
0.0
 40
12.7
100
AcDbArc
 50
303.4480793133332
 51
318.4201465200097
  0
ARC
  5
E3
330
D
100
AcDbEntity
 67
     1
  8
AM_VIS
100
AcDbCircle
 10
262.03473923639
 20
163.2384599547412
 30
0.0
 40
12.7
100
AcDbArc
 50
41.57985347999034
 51
56.55192068666679
  0
VIEWPORT
  5
F3
102
{ACAD_XDICTIONARY
360
C4C
102
}
330
D
100
AcDbEntity
 67
     1
  8
0
 62
     6
100
AcDbViewport
 10
224.7180636096243
 20
119.3616111540274
 30
0.0
 40
411.2747722520232
 41
317.4054818734183
 68
     1
 69
     1
 12
224.7180636096243
 22
119.3616111540274
 13
0.0
 23
0.0
 14
1.0
 24
1.0
 15
0.0
 25
0.0
 16
0.0
 26
0.0
 36
1.0
 17
0.0
 27
0.0
 37
0.0
 42
50.0
 43
0.0
 44
0.0
 45
317.4054818734183
 50
0.0
 51
0.0
 72
  1000
 90
    32800
  1

281
     0
 71
     1
 74
     0
110
0.0
120
0.0
130
0.0
111
1.0
121
0.0
131
0.0
112
0.0
122
1.0
132
0.0
 79
     0
146
0.0
  0
DIMENSION
  5
19F
330
D
100
AcDbEntity
 67
     1
  8
AM_5
100
AcDbDimension
  2
*D2
 10
160.7123753951737
 20
106.2384599547412
 30
0.0
 11
157.9623753951736
 21
122.7384599547412
 31
0.0
 70
    32
 71
     5
 42
32.99999999999999
  3
AM_ISO$0
100
AcDbAlignedDimension
 13
165.1525258263957
 23
139.2384599547412
 33
0.0
 14
169.6525258263957
 24
106.2384599547412
 34
0.0
 50
90.0
100
AcDbRotatedDimension
1001
ACAD
1000
DSTYLE
1002
{
1070
    40
1040
1.0
1070
   144
1040
1.0
1002
}
  0
DIMENSION
  5
231
330
D
100
AcDbEntity
 67
     1
  8
AM_5
100
AcDbDimension
  2
*D6
 10
269.03473923639
 20
190.7303933395709
 30
0.0
 11
262.03473923639
 21
193.4803933395709
 31
0.0
 70
    32
 71
     5
 42
14.0
  3
AM_ISO$0
100
AcDbAlignedDimension
 13
255.03473923639
 23
178.7303933395709
 33
0.0
 14
269.03473923639
 24
178.7303933395709
 34
0.0
100
AcDbRotatedDimension
1001
ACAD
1000
DSTYLE
1002
{
1070
    40
1040
1.0
1070
   144
1040
1.0
1002
}
  0
DIMENSION
  5
247
330
D
100
AcDbEntity
 67
     1
  8
AM_5
100
AcDbDimension
  2
*D7
 10
271.53473923639
 20
198.7303933395709
 30
0.0
 11
262.03473923639
 21
201.4803933395709
 31
0.0
 70
    32
 71
     5
 42
19.0
  3
AM_ISO$0
100
AcDbAlignedDimension
 13
252.53473923639
 23
171.6669829570234
 33
0.0
 14
271.53473923639
 24
171.6669829570234
 34
0.0
100
AcDbRotatedDimension
1001
ACAD
1000
DSTYLE
1002
{
1070
    40
1040
1.0
1070
   144
1040
1.0
1002
}
  0
DIMENSION
  5
281
330
D
100
AcDbEntity
 67
     1
  8
AM_5
100
AcDbDimension
  2
*D8
 10
244.972188133231
 20
170.2384599547412
 30
0.0
 11
242.222188133231
 21
163.2384599547412
 31
0.0
 70
    32
  1
%%c<>
 71
     5
 42
14.0
  3
AM_ISO$0
100
AcDbAlignedDimension
 13
252.53473923639
 23
156.2384599547412
 33
0.0
 14
252.53473923639
 24
170.2384599547412
 34
0.0
 50
90.0
100
AcDbRotatedDimension
1001
ACAD
1000
DSTYLE
1002
{
1070
    40
1040
1.0
1070
   144
1040
1.0
1002
}
  0
DIMENSION
  5
2A1
330
D
100
AcDbEntity
 67
     1
  8
AM_5
100
AcDbDimension
  2
*D9
 10
283.53473923639
 20
171.6669829570234
 30
0.0
 11
280.78473923639
 21
163.2384599547412
 31
0.0
 70
    32
  1
%%c<>
 71
     5
 42
16.85704600456438
  3
AM_ISO$0
100
AcDbAlignedDimension
 13
271.53473923639
 23
154.809936952459
 33
0.0
 14
271.53473923639
 24
171.6669829570234
 34
0.0
 50
90.0
100
AcDbRotatedDimension
1001
ACAD
1000
DSTYLE
1002
{
1070
    40
1040
1.0
1070
   144
1040
1.0
1002
}
  0
DIMENSION
  5
2C0
330
D
100
AcDbEntity
 67
     1
  8
AM_5
100
AcDbDimension
  2
*D10
 10
279.84230813367
 20
133.2384599547412
 30
0.0
 11
277.091963645481
 21
119.7384599547413
 31
0.0
 70
    32
 71
     5
 42
27.0
  3
AM_ISO$0
100
AcDbAlignedDimension
 13
273.03473923639
 23
106.2384599547412
 33
0.0
 14
269.23773923639
 24
133.2384599547412
 34
0.0
 50
90.0
100
AcDbRotatedDimension
1001
ACAD
1000
DSTYLE
1002
{
1070
    40
1040
1.0
1070
   144
1040
1.0
1002
}
  0
DIMENSION
  5
2D6
330
D
100
AcDbEntity
 67
     1
  8
AM_5
100
AcDbDimension
  2
*D11
 10
273.03473923639
 20
94.23845995474142
 30
0.0
 11
262.03473923639
 21
96.98880444293038
 31
0.0
 70
    32
 71
     5
 42
22.0
  3
AM_ISO$0
100
AcDbAlignedDimension
 13
251.03473923639
 23
106.2384599547412
 33
0.0
 14
273.03473923639
 24
106.2384599547412
 34
0.0
100
AcDbRotatedDimension
1001
ACAD
1000
DSTYLE
1002
{
1070
    40
1040
1.0
1070
   144
1040
1.0
1002
}
  0
LEADER
  5
2F2
330
D
100
AcDbEntity
 67
     1
  8
AM_5
100
AcDbLeader
  3
AM_ISO$7
 73
     0
 75
     1
 40
3.5
 41
14.49497474683058
 76
     3
 10
254.83173923639
 20
116.770172625875
 30
0.0
 10
247.023298503197
 20
131.1311888158865
 30
0.0
 10
244.0232985031971
 20
131.1311888158865
 30
0.0
340
2F3
213
-1.390841025911242
223
0.347376234192609
233
0.0
1001
ACAD
1000
DSTYLE
1002
{
1070
    41
1040
3.0
1070
   140
1040
3.5
1070
   147
1040
1.0
1002
}
  0
MTEXT
  5
2F3
102
{ACAD_REACTORS
330
2F2
102
}
330
D
100
AcDbEntity
 67
     1
  8
AM_5
100
AcDbMText
 10
244.4141395291083
 20
131.7838125816939
 30
0.0
 40
3.5
 41
0.0
 71
     9
 72
     1
  1
M14*1.5
 73
     1
 44
1.0
1001
ACAD
1000
MTEXTBEGIN
1070
    73
1070
     1
1070
    44
1040
1.0
1070
    74
1070
     0
1000
MTEXTEND
  0
DIMENSION
  5
333
330
D
100
AcDbEntity
 67
     1
  8
AM_5
100
AcDbDimension
  2
*D12
 10
191.6525258263957
 20
94.23845995474128
 30
0.0
 11
181.6525258263957
 21
96.98880444293024
 31
0.0
 70
    32
  1
%%c<>
 71
     5
 42
20.0
  3
AM_ISO$0
100
AcDbAlignedDimension
 13
171.6525258263957
 23
114.2384599547412
 33
0.0
 14
191.6525258263957
 24
114.2384599547412
 34
0.0
100
AcDbRotatedDimension
1001
ACAD
1000
DSTYLE
1002
{
1070
    40
1040
1.0
1070
   144
1040
1.0
1002
}
  0
TEXT
  5
3F6
330
D
100
AcDbEntity
 67
     1
  8
LOGO
 62
     7
100
AcDbText
 10
91.08732445111721
 20
17.76764763591525
 30
0.0
 40
3.368845466063347
  1
Order example:
 41
0.8
  7
CHINESET
100
AcDbText
  0
TEXT
  5
3F7
330
D
100
AcDbEntity
 67
     1
  8
LOGO
 62
     7
100
AcDbText
 10
91.69172318694762
 20
22.51028452377831
 30
0.0
 40
5.053268199095021
  1
訂購代號：
  7
CHINESET
100
AcDbText
  0
LINE
  5
3F8
330
D
100
AcDbEntity
 67
     1
  8
LOGO
 62
     4
100
AcDbLine
 10
89.62354966964582
 20
3.570060687027009
 30
0.0
 11
89.62354966964582
 21
28.83640168250229
 31
0.0
  0
TEXT
  5
3F9
330
D
100
AcDbEntity
 67
     1
  8
LOGO
  6
Continuous
100
AcDbText
 10
43.11338273957545
 20
8.533595245354973
 30
0.0
 40
3.789951149321266
  1
金器工業股份有限公司
  7
CHINESET
100
AcDbText
  0
TEXT
  5
3FA
330
D
100
AcDbEntity
 67
     1
  8
LOGO
  6
Continuous
100
AcDbText
 10
36.15199228313077
 20
4.742901562752152
 30
0.0
 40
2.52663409954751
  1
MINDMAN INDUSTRIAL CO., LTD.
 41
0.85
  7
CHINESET
100
AcDbText
  0
LINE
  5
3FB
330
D
100
AcDbEntity
 67
     1
  8
LOGO
 62
     4
100
AcDbLine
 10
89.62354966964582
 20
23.78313348340723
 30
0.0
 11
52.56624954294875
 21
23.78313348340723
 31
0.0
  0
LINE
  5
3FC
330
D
100
AcDbEntity
 67
     1
  8
LOGO
 62
     4
100
AcDbLine
 10
89.62354966964582
 20
18.72986528431215
 30
0.0
 11
52.56624954294875
 21
18.72986528431215
 31
0.0
  0
LINE
  5
3FD
330
D
100
AcDbEntity
 67
     1
  8
LOGO
 62
     4
100
AcDbLine
 10
89.62354966964582
 20
13.67659708521742
 30
0.0
 11
34.03759947960046
 21
13.67659708521742
 31
0.0
  0
LINE
  5
3FE
330
D
100
AcDbEntity
 67
     1
  8
LOGO
 62
     4
100
AcDbLine
 10
52.56624954294875
 20
13.67659708521742
 30
0.0
 11
52.56624954294875
 21
28.83640168250229
 31
0.0
  0
TEXT
  5
3FF
330
D
100
AcDbEntity
 67
     1
  8
LOGO
100
AcDbText
 10
77.89316510162194
 20
14.93991413499073
 30
0.0
 40
2.52663409954751
  1
mm
  7
CHINESET
 72
     1
 11
81.02137874868077
 21
16.20323118476449
 31
0.0
100
AcDbText
 73
     2
  0
TEXT
  5
400
330
D
100
AcDbEntity
 67
     1
  8
LOGO
100
AcDbText
 10
76.56969009709706
 20
25.04645053318087
 30
0.0
 40
2.52663409954751
  1
1 : 1
  7
CHINESET
 72
     1
 11
81.02137874868077
 21
26.30976758295462
 31
0.0
100
AcDbText
 73
     2
  0
LINE
  5
401
330
D
100
AcDbEntity
 67
     1
  8
LOGO
 62
     4
100
AcDbLine
 10
72.77932233932898
 20
13.67659708521742
 30
0.0
 11
72.77932233932898
 21
28.83640168250229
 31
0.0
  0
TEXT
  5
402
330
D
100
AcDbEntity
 67
     1
  8
LOGO
100
AcDbText
 10
54.64959471342391
 20
25.04769395547395
 30
165.5914364978229
 40
2.52663409954751
  1
比例 Scale:
 41
0.9
  7
CHINESET
 72
     4
 11
62.67278594113884
 21
26.30976758295462
 31
165.5914364978229
100
AcDbText
  0
TEXT
  5
403
330
D
100
AcDbEntity
 67
     1
  8
LOGO
100
AcDbText
 10
54.50408766036961
 20
20.02872348796309
 30
165.5914364978229
 40
2.52663409954751
  1
投影  View:
 41
0.9
  7
CHINESET
 72
     4
 11
62.67278594113884
 21
21.25649938385952
 31
165.5914364978229
100
AcDbText
  0
TEXT
  5
404
330
D
100
AcDbEntity
 67
     1
  8
LOGO
100
AcDbText
 10
54.75111126206645
 20
14.93991413499073
 30
165.5914364978229
 40
2.52663409954751
  1
單位  Unit:
 41
0.9
  7
CHINESET
 72
     4
 11
62.67278594113884
 21
16.20323118476449
 31
165.5914364978229
100
AcDbText
  0
LWPOLYLINE
  5
405
330
D
100
AcDbEntity
 67
     1
  8
LOGO
 62
     4
100
AcDbPolyline
 90
        4
 70
     1
 43
0.0
 10
34.03759947960051
 20
28.83640168250229
 10
381.5000994796005
 20
28.83640168250229
 10
381.5000994796005
 20
256.2700606870265
 10
34.03759947960051
 20
256.2700606870265
1001
GENIUS_GENREC_14
1002
{
1000
PYDIR
1011
34.03759947960051
1021
256.2700606870265
1031
0.0
1002
}
1002
{
1000
PXDIR
1011
381.5000994796005
1021
28.83640168250229
1031
0.0
1002
}
1002
{
1000
PORI
1011
34.03759947960051
1021
28.83640168250229
1031
0.0
1002
}
1002
{
1000
PINS
1011
34.03759947960051
1021
28.83640168250229
1031
0.0
1002
}
1002
{
1000
PINS2
1011
381.5000994796005
1021
256.2700606870265
1031
0.0
1002
}
1002
{
1000
C
1070
     1
1002
}
1001
GENIUS_GENODEF_13
1002
{
1000
HIER
1070
     0
1002
}
1002
{
1000
MANEDIT
1070
     0
1002
}
1002
{
1000
NOSEL
1070
     0
1002
}
1002
{
1000
BEHIND
1070
     0
1002
}
1002
{
1000
OTHER
1070
     0
1002
}
1002
{
1000
REACTOR
1002
}
1001
GENIUS_GENOBJ-N-REC_13
1002
{
1000
OWNER
1000
GEN
1002
}
  0
SOLID
  5
406
330
D
100
AcDbEntity
 67
     1
  8
LOGO
 62
     5
100
AcDbTrace
 10
36.65902290727397
 20
17.87676663767075
 30
0.0
 11
37.75147319303954
 21
17.87676663767048
 31
0.0
 12
42.30962783364737
 22
28.23620900268935
 32
0.0
 13
43.40207811941351
 23
28.23620900268877
 33
0.0
  0
SOLID
  5
407
330
D
100
AcDbEntity
 67
     1
  8
LOGO
 62
     5
100
AcDbTrace
 10
38.20352158715059
 20
17.87676663767075
 30
0.0
 11
39.29597187291611
 21
17.87676663767075
 31
0.0
 12
43.40207811941351
 22
27.40745361348745
 32
0.0
 13
42.30962783364737
 23
23.40180256568027
 33
0.0
  0
SOLID
  5
408
330
D
100
AcDbEntity
 67
     1
  8
LOGO
 62
     2
100
AcDbTrace
 10
37.75147319303954
 20
17.87676663767048
 30
0.0
 11
38.20352158715059
 21
17.87676663767075
 31
0.0
 12
43.40207811941351
 22
28.23620900268877
 32
0.0
 13
43.85412651352402
 23
28.23620900268877
 33
0.0
  0
SOLID
  5
409
330
D
100
AcDbEntity
 67
     1
  8
LOGO
 62
     5
100
AcDbTrace
 10
34.90755719756558
 20
14.10969668675524
 30
0.0
 11
35.28426419265751
 21
14.10969668675524
 31
0.0
 12
36.34510041136463
 22
15.99323166221285
 32
0.0
 13
36.72180740645547
 23
15.99323166221285
 33
0.0
  0
SOLID
  5
40A
330
D
100
AcDbEntity
 67
     1
  8
LOGO
 62
     5
100
AcDbTrace
 10
36.34510041136463
 20
15.99323166221285
 30
0.0
 11
36.72180740645547
 21
15.99323166221285
 31
0.0
 12
36.34510041136463
 22
14.10969668675524
 32
0.0
 13
36.72180740645547
 23
14.10969668675524
 33
0.0
  0
SOLID
  5
40B
330
D
100
AcDbEntity
 67
     1
  8
LOGO
 62
     5
100
AcDbTrace
 10
36.34510041136463
 20
14.10969668675524
 30
0.0
 11
36.72180740645547
 21
14.10969668675524
 31
0.0
 12
37.7826436251643
 22
15.99323166221285
 32
0.0
 13
38.15935062025571
 23
15.99323166221285
 33
0.0
  0
SOLID
  5
40C
330
D
100
AcDbEntity
 67
     1
  8
LOGO
 62
     5
100
AcDbTrace
 10
37.7826436251643
 20
15.99323166221285
 30
0.0
 11
38.15935062025571
 21
15.99323166221285
 31
0.0
 12
37.7826436251643
 22
14.10969668675524
 32
0.0
 13
38.15935062025571
 23
14.10969668675524
 33
0.0
  0
POLYLINE
  5
40D
330
D
100
AcDbEntity
 67
     1
  8
LOGO
 62
     5
100
AcDb2dPolyline
 66
     1
 10
0.0
 20
0.0
 30
0.0
 40
0.3773106921990949
 41
0.3773106921990949
  0
VERTEX
  5
40E
330
40D
100
AcDbEntity
 67
     1
  8
LOGO
 62
     5
100
AcDbVertex
100
AcDb2dVertex
 10
50.40973377377858
 20
15.23981767202977
 30
0.0
 42
1.0
  0
VERTEX
  5
40F
330
40D
100
AcDbEntity
 67
     1
  8
LOGO
 62
     5
100
AcDbVertex
100
AcDb2dVertex
 10
49.2778016971811
 20
15.23981767202977
 30
0.0
 42
1.0
  0
SEQEND
  5
410
330
40D
100
AcDbEntity
 67
     1
  8
LOGO
 62
     5
  0
POLYLINE
  5
411
330
D
100
AcDbEntity
 67
     1
  8
LOGO
 62
     5
100
AcDb2dPolyline
 66
     1
 10
0.0
 20
0.0
 30
0.0
 70
     1
  0
VERTEX
  5
412
330
411
100
AcDbEntity
 67
     1
  8
LOGO
 62
     5
100
AcDbVertex
100
AcDb2dVertex
 10
47.14405938445577
 20
15.05146417448377
 30
0.0
 42
1.000000057330635
  0
VERTEX
  5
413
330
411
100
AcDbEntity
 67
     1
  8
LOGO
 62
     5
100
AcDbVertex
100
AcDb2dVertex
 10
48.27418036973057
 20
15.05146417448377
 30
0.0
 42
1.000000057330635
  0
SEQEND
  5
414
330
411
100
AcDbEntity
 67
     1
  8
LOGO
 62
     5
  0
CIRCLE
  5
415
330
D
100
AcDbEntity
 67
     1
  8
LOGO
 62
     5
100
AcDbCircle
 10
47.70911987709403
 20
15.05146417448377
 30
0.0
 40
0.5650604926373647
  0
POLYLINE
  5
416
330
D
100
AcDbEntity
 67
     1
  8
LOGO
 62
     5
100
AcDb2dPolyline
 66
     1
 10
0.0
 20
0.0
 30
0.0
 70
     1
 40
0.3773106921990949
 41
0.3773106921990949
  0
VERTEX
  5
417
330
416
100
AcDbEntity
 67
     1
  8
LOGO
 62
     5
100
AcDbVertex
100
AcDb2dVertex
 10
46.95449849269531
 20
15.05146417448377
 30
0.0
 42
1.0
  0
VERTEX
  5
418
330
416
100
AcDbEntity
 67
     1
  8
LOGO
 62
     5
100
AcDbVertex
100
AcDb2dVertex
 10
48.46374126149163
 20
15.05146417448377
 30
0.0
 42
1.0
  0
SEQEND
  5
419
330
416
100
AcDbEntity
 67
     1
  8
LOGO
 62
     5
  0
LINE
  5
41A
330
D
100
AcDbEntity
 67
     1
  8
LOGO
100
AcDbLine
 10
50.59718172566235
 20
14.10969668675524
 30
0.0
 11
50.59718172566235
 21
15.23981767202977
 31
0.0
  0
SOLID
  5
41B
330
D
100
AcDbEntity
 67
     1
  8
LOGO
 62
     5
100
AcDbTrace
 10
48.27414269903272
 20
15.99323166221285
 30
0.0
 11
48.65084969412354
 21
15.99323166221285
 31
0.0
 12
48.27414269903272
 22
14.10969668675524
 32
0.0
 13
48.65084969412354
 23
14.10969668675524
 33
0.0
  0
SOLID
  5
41C
330
D
100
AcDbEntity
 67
     1
  8
LOGO
 62
     5
100
AcDbTrace
 10
49.09035374529614
 20
14.10969668675524
 30
0.0
 11
49.46706074038814
 21
14.10969668675524
 31
0.0
 12
49.09035374529614
 22
15.99323166221285
 32
0.0
 13
49.46706074038814
 23
15.99323166221285
 33
0.0
  0
SOLID
  5
41D
330
D
100
AcDbEntity
 67
     1
  8
LOGO
 62
     5
100
AcDbTrace
 10
50.22047473057151
 20
15.23981767202977
 30
0.0
 11
50.59718172566235
 21
15.23981767202977
 31
0.0
 12
50.22047473057151
 22
14.10969668675524
 32
0.0
 13
50.59718172566235
 23
14.10969668675524
 33
0.0
  0
SOLID
  5
41E
330
D
100
AcDbEntity
 67
     1
  8
LOGO
 62
     5
100
AcDbTrace
 10
49.05268304578689
 20
27.40745361348745
 30
0.0
 11
47.96023276002194
 21
23.40180256568027
 31
0.0
 12
49.05268304578689
 22
17.87676663767048
 32
0.0
 13
47.96023276002194
 23
17.87676663767048
 33
0.0
  0
SOLID
  5
41F
330
D
100
AcDbEntity
 67
     1
  8
LOGO
 62
     5
100
AcDbTrace
 10
49.50473143989739
 20
17.87676663767048
 30
0.0
 11
50.59718172566235
 21
17.87676663767048
 31
0.0
 12
49.50473143989739
 22
28.23620900268877
 32
0.0
 13
50.59718172566235
 23
28.23620900268935
 33
0.0
  0
SOLID
  5
420
330
D
100
AcDbEntity
 67
     1
  8
LOGO
 62
     2
100
AcDbTrace
 10
49.05268304578689
 20
28.23620900268935
 30
0.0
 11
49.50473143989739
 21
28.23620900268877
 31
0.0
 12
49.05268304578689
 22
17.87676663767048
 32
0.0
 13
49.50473143989739
 23
17.87676663767048
 33
0.0
  0
POLYLINE
  5
421
330
D
100
AcDbEntity
 67
     1
  8
LOGO
 62
     5
100
AcDb2dPolyline
 66
     1
 10
0.0
 20
0.0
 30
0.0
 40
0.3773106921990949
 41
0.3773106921990949
  0
VERTEX
  5
422
330
421
100
AcDbEntity
 67
     1
  8
LOGO
 62
     5
100
AcDbVertex
100
AcDb2dVertex
 10
45.01024173033312
 20
15.23981767202977
 30
0.0
 42
1.0
  0
VERTEX
  5
423
330
421
100
AcDbEntity
 67
     1
  8
LOGO
 62
     5
100
AcDbVertex
100
AcDb2dVertex
 10
43.87830965373558
 20
15.23981767202977
 30
0.0
 42
1.0
  0
SEQEND
  5
424
330
421
100
AcDbEntity
 67
     1
  8
LOGO
 62
     5
  0
POLYLINE
  5
425
330
D
100
AcDbEntity
 67
     1
  8
LOGO
 62
     5
100
AcDb2dPolyline
 66
     1
 10
0.0
 20
0.0
 30
0.0
 40
0.3773106921990949
 41
0.3773106921990949
  0
VERTEX
  5
426
330
425
100
AcDbEntity
 67
     1
  8
LOGO
 62
     5
100
AcDbVertex
100
AcDb2dVertex
 10
46.14036271560673
 20
15.23981767202977
 30
0.0
 42
1.0
  0
VERTEX
  5
427
330
425
100
AcDbEntity
 67
     1
  8
LOGO
 62
     5
100
AcDbVertex
100
AcDb2dVertex
 10
45.00843063900979
 20
15.23981767202977
 30
0.0
 42
1.0
  0
SEQEND
  5
428
330
425
100
AcDbEntity
 67
     1
  8
LOGO
 62
     5
  0
POLYLINE
  5
429
330
D
100
AcDbEntity
 67
     1
  8
LOGO
 62
     5
100
AcDb2dPolyline
 66
     1
 10
0.0
 20
0.0
 30
0.0
 40
0.3773106921990949
 41
0.3773106921990949
  0
VERTEX
  5
42A
330
429
100
AcDbEntity
 67
     1
  8
LOGO
 62
     5
100
AcDbVertex
100
AcDb2dVertex
 10
40.74087067216123
 20
15.23981767202977
 30
0.0
 42
1.0
  0
VERTEX
  5
42B
330
429
100
AcDbEntity
 67
     1
  8
LOGO
 62
     5
100
AcDbVertex
100
AcDb2dVertex
 10
39.6089385955643
 20
15.23981767202977
 30
0.0
 42
1.0
  0
SEQEND
  5
42C
330
429
100
AcDbEntity
 67
     1
  8
LOGO
 62
     5
  0
SOLID
  5
42D
330
D
100
AcDbEntity
 67
     1
  8
LOGO
 62
     5
100
AcDbTrace
 10
39.42149064367993
 20
15.99323166221285
 30
0.0
 11
39.79819763877078
 21
15.99323166221285
 31
0.0
 12
39.42149064367993
 22
14.10969668675524
 32
0.0
 13
39.79819763877078
 23
14.10969668675524
 33
0.0
  0
SOLID
  5
42E
330
D
100
AcDbEntity
 67
     1
  8
LOGO
 62
     5
100
AcDbTrace
 10
40.55161162895475
 20
15.23981767202977
 30
0.0
 11
40.92831862404676
 21
15.23981767202977
 31
0.0
 12
40.55161162895475
 22
14.10969668675524
 32
0.0
 13
40.92831862404676
 23
14.10969668675524
 33
0.0
  0
POLYLINE
  5
42F
330
D
100
AcDbEntity
 67
     1
  8
LOGO
 62
     5
100
AcDb2dPolyline
 66
     1
 10
0.0
 20
0.0
 30
0.0
 70
     1
 40
0.3773106921990949
 41
0.3773106921990949
  0
VERTEX
  5
430
330
42F
100
AcDbEntity
 67
     1
  8
LOGO
 62
     5
100
AcDbVertex
100
AcDb2dVertex
 10
41.55500644924919
 20
15.05146417448377
 30
0.0
 42
1.0
  0
VERTEX
  5
431
330
42F
100
AcDbEntity
 67
     1
  8
LOGO
 62
     5
100
AcDbVertex
100
AcDb2dVertex
 10
43.06424921804608
 20
15.05146417448377
 30
0.0
 42
1.0
  0
SEQEND
  5
432
330
42F
100
AcDbEntity
 67
     1
  8
LOGO
 62
     5
  0
SOLID
  5
433
330
D
100
AcDbEntity
 67
     1
  8
LOGO
 62
     5
100
AcDbTrace
 10
42.87465065558606
 20
16.55829215485055
 30
0.0
 11
43.2513576506775
 21
16.55829215485055
 31
0.0
 12
42.87465065558606
 22
14.10969668675524
 32
0.0
 13
43.2513576506775
 23
14.10969668675524
 33
0.0
  0
SOLID
  5
434
330
D
100
AcDbEntity
 67
     1
  8
LOGO
 62
     5
100
AcDbTrace
 10
43.69086170185181
 20
15.99323166221285
 30
0.0
 11
44.06756869694262
 21
15.99323166221285
 31
0.0
 12
43.69086170185181
 22
14.10969668675524
 32
0.0
 13
44.06756869694262
 23
14.10969668675524
 33
0.0
  0
SOLID
  5
435
330
D
100
AcDbEntity
 67
     1
  8
LOGO
 62
     5
100
AcDbTrace
 10
44.82098268712545
 20
15.23981767202977
 30
0.0
 11
45.1976896822174
 21
15.23981767202977
 31
0.0
 12
44.82098268712545
 22
14.10969668675524
 32
0.0
 13
45.1976896822174
 23
14.10969668675524
 33
0.0
  0
SOLID
  5
436
330
D
100
AcDbEntity
 67
     1
  8
LOGO
 62
     5
100
AcDbTrace
 10
45.95110367240025
 20
15.23981767202977
 30
0.0
 11
46.32781066749169
 21
15.23981767202977
 31
0.0
 12
45.95110367240025
 22
14.10969668675466
 32
0.0
 13
46.32781066749169
 23
14.10969668675466
 33
0.0
  0
SOLID
  5
437
330
D
100
AcDbEntity
 67
     1
  8
LOGO
 62
     5
100
AcDbTrace
 10
38.60527959741481
 20
16.25692655877708
 30
0.0
 11
38.98198659250736
 21
16.25692655877708
 31
0.0
 12
38.60527959741481
 22
16.55829215485055
 32
0.0
 13
38.98198659250736
 23
16.55829215485055
 33
0.0
  0
SOLID
  5
438
330
D
100
AcDbEntity
 67
     1
  8
LOGO
 62
     5
100
AcDbTrace
 10
38.60527959741481
 20
15.99323166221285
 30
0.0
 11
38.98198659250736
 21
15.99323166221285
 31
0.0
 12
38.60527959741481
 22
14.10969668675466
 32
0.0
 13
38.98198659250736
 23
14.10969668675524
 33
0.0
  0
SOLID
  5
439
330
D
100
AcDbEntity
 67
     1
  8
LOGO
 62
     5
100
AcDbTrace
 10
42.30962783364737
 20
17.87676663767075
 30
0.0
 11
43.40207811941351
 21
17.87676663767075
 31
0.0
 12
42.30962783364737
 22
23.40180256568027
 32
0.0
 13
43.40207811941351
 23
27.40745361348745
 33
0.0
  0
SOLID
  5
43A
330
D
100
AcDbEntity
 67
     1
  8
LOGO
 62
     5
100
AcDbTrace
 10
43.85412651352402
 20
28.23620900268877
 30
0.0
 11
44.94657679928898
 21
28.23620900268935
 31
0.0
 12
43.85412651352402
 22
18.70552202687209
 32
0.0
 13
44.94657679928898
 23
22.71117307467922
 33
0.0
  0
SOLID
  5
43B
330
D
100
AcDbEntity
 67
     1
  8
LOGO
 62
     2
100
AcDbTrace
 10
43.40207811941351
 20
28.23620900268877
 30
0.0
 11
43.85412651352402
 21
28.23620900268877
 31
0.0
 12
43.40207811941351
 22
17.87676663767075
 32
0.0
 13
43.85412651352402
 23
17.87676663767075
 33
0.0
  0
SOLID
  5
43C
330
D
100
AcDbEntity
 67
     1
  8
LOGO
 62
     5
100
AcDbTrace
 10
43.85412651352402
 20
18.70552202687209
 30
0.0
 11
44.94657679928898
 21
22.71117307467922
 31
0.0
 12
49.05268304578689
 22
28.23620900268935
 32
0.0
 13
47.96023276002194
 23
28.23620900268935
 33
0.0
  0
SOLID
  5
43D
330
D
100
AcDbEntity
 67
     1
  8
LOGO
 62
     5
100
AcDbTrace
 10
43.85412651352402
 20
17.87676663767075
 30
0.0
 11
44.94657679928898
 21
17.87676663767075
 31
0.0
 12
49.05268304578689
 22
27.40745361348745
 32
0.0
 13
47.96023276002194
 23
23.40180256568027
 33
0.0
  0
SOLID
  5
43E
330
D
100
AcDbEntity
 67
     1
  8
LOGO
 62
     2
100
AcDbTrace
 10
43.40207811941351
 20
17.87676663767075
 30
0.0
 11
43.85412651352402
 21
17.87676663767075
 31
0.0
 12
49.05268304578689
 22
28.23620900268935
 32
0.0
 13
49.50473143989739
 23
28.23620900268877
 33
0.0
  0
LWPOLYLINE
  5
43F
330
D
100
AcDbEntity
 67
     1
  8
LOGO
 62
     4
100
AcDbPolyline
 90
        4
 70
     1
 43
0.0
 10
34.03759947960051
 20
28.83640168250229
 10
381.5000994796005
 20
28.83640168250229
 10
381.5000994796005
 20
3.570060687026728
 10
34.03759947960051
 20
3.570060687026728
1001
GENIUS_GENREC_14
1002
{
1000
PYDIR
1011
34.03759947960051
1021
3.570060687026728
1031
0.0
1002
}
1002
{
1000
PXDIR
1011
381.5000994796005
1021
28.83640168250229
1031
0.0
1002
}
1002
{
1000
PORI
1011
34.03759947960051
1021
28.83640168250229
1031
0.0
1002
}
1002
{
1000
PINS
1011
34.03759947960051
1021
28.83640168250229
1031
0.0
1002
}
1002
{
1000
PINS2
1011
381.5000994796005
1021
3.570060687026728
1031
0.0
1002
}
1002
{
1000
C
1070
     1
1002
}
1001
GENIUS_GENOBJ-N-REC_13
1002
{
1000
OWNER
1000
GEN
1002
}
1001
GENIUS_GENODEF_13
1002
{
1000
HIER
1070
     0
1002
}
1002
{
1000
MANEDIT
1070
     0
1002
}
1002
{
1000
NOSEL
1070
     0
1002
}
1002
{
1000
BEHIND
1070
     0
1002
}
1002
{
1000
OTHER
1070
     0
1002
}
1002
{
1000
REACTOR
1002
}
  0
LINE
  5
440
330
D
100
AcDbEntity
 67
     1
  8
LOGO
 62
     4
100
AcDbLine
 10
144.674452129347
 20
14.93991413499127
 30
0.0
 11
144.674452129347
 21
5.675589103316525
 31
0.0
  0
LINE
  5
441
330
D
100
AcDbEntity
 67
     1
  8
LOGO
 62
     4
100
AcDbLine
 10
127.8302247990302
 20
14.93991413499127
 30
0.0
 11
127.8302247990302
 21
5.675589103316525
 31
0.0
  0
LINE
  5
442
330
D
100
AcDbEntity
 67
     1
  8
LOGO
 62
     4
100
AcDbLine
 10
144.674452129347
 20
5.675589103316525
 30
0.0
 11
127.8302247990302
 21
5.675589103316525
 31
0.0
  0
LINE
  5
443
330
D
100
AcDbEntity
 67
     1
  8
LOGO
 62
     4
100
AcDbLine
 10
149.0049369413777
 20
26.30976758295462
 30
0.0
 11
124.3762803317816
 21
26.30976758295462
 31
0.0
  0
LINE
  5
444
330
D
100
AcDbEntity
 67
     1
  8
LOGO
 62
     4
100
AcDbLine
 10
149.0049369413777
 20
18.72986528431215
 30
0.0
 11
124.3762803317816
 21
18.72986528431215
 31
0.0
  0
LINE
  5
445
330
D
100
AcDbEntity
 67
     1
  8
LOGO
 62
     4
100
AcDbLine
 10
124.3762803317816
 20
26.30976758295462
 30
0.0
 11
124.3762803317816
 21
18.72986528431215
 31
0.0
  0
LINE
  5
446
330
D
100
AcDbEntity
 67
     1
  8
LOGO
 62
     4
100
AcDbLine
 10
149.0049369413777
 20
26.30976758295462
 30
0.0
 11
149.0049369413777
 21
18.72986528431215
 31
0.0
  0
LINE
  5
447
330
D
100
AcDbEntity
 67
     1
  8
LOGO
 62
     4
100
AcDbLine
 10
137.1311840560903
 20
18.72986528431215
 30
0.0
 11
137.1311840560903
 21
14.93991413499127
 31
0.0
  0
TEXT
  5
448
330
D
100
AcDbEntity
 67
     1
  8
LOGO
  6
Continuous
100
AcDbText
 10
125.431036309508
 20
20.31215880733778
 30
0.0
 40
4.0
  1
PHS-14
  7
CHINESET
100
AcDbText
  0
LINE
  5
449
330
D
100
AcDbEntity
 67
     1
  8
LOGO
 62
     4
100
AcDbLine
 10
144.674452129347
 20
14.93991413499127
 30
0.0
 11
127.8302247990302
 21
14.93991413499127
 31
0.0
  0
TEXT
  5
44A
330
D
100
AcDbEntity
 67
     1
  8
LOGO
  6
Continuous
100
AcDbText
 10
133.2354840213166
 20
6.983228936079783
 30
165.5914364978229
 40
1.895249999999999
  1
Model
 41
0.8
  7
CHINESET
100
AcDbText
  0
TEXT
  5
44B
330
D
100
AcDbEntity
 67
     1
  8
LOGO
100
AcDbText
 10
132.7310300821048
 20
10.49661398055254
 30
165.5914364978229
 40
3.158749999999999
  1
型號
  7
CHINESET
100
AcDbText
  0
TEXT
  5
44C
330
D
100
AcDbEntity
 67
     1
  8
LOGO
100
AcDbText
 10
91.13116072250795
 20
4.914220055521639
 30
0.0
 40
2.526999999999999
  1
01104110
 41
0.7
  7
CHINESET
 72
     1
 11
96.94326072250795
 21
4.914220055521639
 31
0.0
100
AcDbText
  0
LINE
  5
44D
330
D
100
AcDbEntity
 67
     1
  8
LOGO
 62
     4
100
AcDbLine
 10
104.7855496696446
 20
8.623328886122621
 30
0.0
 11
104.7855496696458
 21
3.570060687027265
 31
0.0
  0
LINE
  5
44E
330
D
100
AcDbEntity
 67
     1
  8
LOGO
 62
     4
100
AcDbLine
 10
104.7855496696446
 20
8.623328886122621
 30
0.0
 11
89.62354966964582
 21
8.623328886122621
 31
0.0
  0
CIRCLE
  5
44F
330
D
100
AcDbEntity
 67
     1
  8
LOGO
  6
Continuous
100
AcDbCircle
 10
77.45770140103855
 20
21.26190387268817
 30
0.0
 40
1.467023228460117
  0
CIRCLE
  5
450
330
D
100
AcDbEntity
 67
     1
  8
LOGO
  6
Continuous
100
AcDbCircle
 10
77.45770140103855
 20
21.26190387268817
 30
0.0
 40
0.8595457436589818
  0
LINE
  5
451
330
D
100
AcDbEntity
 67
     1
  8
LOGO
100
AcDbLine
 10
86.67664559485869
 20
19.79488064422776
 30
0.0
 11
86.67664559485869
 21
22.72892710114857
 31
0.0
  0
LINE
  5
452
330
D
100
AcDbEntity
 67
     1
  8
LOGO
100
AcDbLine
 10
82.0776119847879
 20
20.40235812902934
 30
0.0
 11
82.0776119847879
 21
22.12144961634728
 31
0.0
  0
LINE
  5
453
330
D
100
AcDbEntity
 67
     1
  8
LOGO
  6
Continuous
100
AcDbLine
 10
82.0776119847879
 20
22.12144961634728
 30
0.0
 11
86.67664559485869
 21
22.72892710114857
 31
0.0
  0
LINE
  5
454
330
D
100
AcDbEntity
 67
     1
  8
LOGO
  6
Continuous
100
AcDbLine
 10
82.0776119847879
 20
20.40235812902934
 30
0.0
 11
86.67664559485869
 21
19.79488064422776
 31
0.0
  0
LINE
  5
455
330
D
100
AcDbEntity
 67
     1
  8
LOGO
  6
AM_ISO08W050x2
 48
0.3
100
AcDbLine
 10
75.43538791366322
 20
21.26190387268817
 30
0.0
 11
79.48001488841384
 21
21.26190387268817
 31
0.0
1001
GENIUS_GENOREF_13
1005
45B
  0
LINE
  5
456
330
D
100
AcDbEntity
 67
     1
  8
LOGO
  6
AM_ISO08W050x2
 48
0.3
100
AcDbLine
 10
77.45770140103855
 20
19.23959038531282
 30
0.0
 11
77.45770140103855
 21
23.28421736006348
 31
0.0
1001
GENIUS_GENOREF_13
1005
45A
  0
LINE
  5
457
330
D
100
AcDbEntity
 67
     1
  8
LOGO
  6
CENTER
 48
0.5
100
AcDbLine
 10
81.70981712552331
 20
21.26190387268817
 30
0.0
 11
87.13975339155343
 21
21.26190387268817
 31
0.0
1001
GENIUS_GENOREF_13
1005
459
  0
POINT
  5
459
330
D
100
AcDbEntity
 67
     1
  8
0
 60
     1
100
AcDbPoint
 10
-1733.361559116115
 20
-932.8292440464405
 30
0.0
1001
GENIUS_GENOBJ-N-CRS_13
1002
{
1000
OWNER
1000
GEN
1002
}
1001
GENIUS_GENOLIS_13
1002
{
1000
ENT
1005
0
1005
0
1005
0
1005
457
1002
}
1001
GENIUS_GENOENT_13
1002
{
1000
MYREF
1005
459
1002
}
1002
{
1000
GRP
1005
0
1002
}
1001
GENIUS_GENODEF_13
1002
{
1000
HIER
1070
    10
1002
}
1002
{
1000
MANEDIT
1070
     1
1002
}
1002
{
1000
NOSEL
1070
     0
1002
}
1002
{
1000
BEHIND
1070
     0
1002
}
1002
{
1000
OTHER
1070
     0
1002
}
1002
{
1000
REACTOR
1002
}
  0
POINT
  5
45A
330
D
100
AcDbEntity
 67
     1
  8
0
 60
     1
100
AcDbPoint
 10
-1744.68614433897
 20
-923.9536575678043
 30
0.0
1001
GENIUS_GENOBJ-N-CRS_13
1002
{
1000
OWNER
1000
GEN
1002
}
1001
GENIUS_GENOLIS_13
1002
{
1000
ENT
1005
0
1005
0
1005
0
1005
456
1002
}
1001
GENIUS_GENOENT_13
1002
{
1000
MYREF
1005
45A
1002
}
1002
{
1000
GRP
1005
0
1002
}
1001
GENIUS_GENODEF_13
1002
{
1000
HIER
1070
    10
1002
}
1002
{
1000
MANEDIT
1070
     1
1002
}
1002
{
1000
NOSEL
1070
     0
1002
}
1002
{
1000
BEHIND
1070
     0
1002
}
1002
{
1000
OTHER
1070
     0
1002
}
1002
{
1000
REACTOR
1002
}
  0
POINT
  5
45B
330
D
100
AcDbEntity
 67
     1
  8
0
 60
     1
100
AcDbPoint
 10
-1738.327470641133
 20
-932.8292440464405
 30
0.0
1001
GENIUS_GENOBJ-N-CRS_13
1002
{
1000
OWNER
1000
GEN
1002
}
1001
GENIUS_GENOLIS_13
1002
{
1000
ENT
1005
0
1005
0
1005
0
1005
455
1002
}
1001
GENIUS_GENOENT_13
1002
{
1000
MYREF
1005
45B
1002
}
1002
{
1000
GRP
1005
0
1002
}
1001
GENIUS_GENODEF_13
1002
{
1000
HIER
1070
    10
1002
}
1002
{
1000
MANEDIT
1070
     1
1002
}
1002
{
1000
NOSEL
1070
     0
1002
}
1002
{
1000
BEHIND
1070
     0
1002
}
1002
{
1000
OTHER
1070
     0
1002
}
1002
{
1000
REACTOR
1002
}
  0
DIMENSION
  5
95F
330
D
100
AcDbEntity
 67
     1
  8
AM_5
100
AcDbDimension
  2
*D13
 10
198.6525258263957
 20
190.7303933395709
 30
0.0
 11
181.6525258263957
 21
193.4803933395709
 31
0.0
 70
    32
 71
     5
 42
34.0
  3
AM_ISO$0
100
AcDbAlignedDimension
 13
164.6525258263957
 23
163.2384599547412
 33
0.0
 14
198.6525258263957
 24
163.2384599547412
 34
0.0
 50
0.0000000000000114
100
AcDbRotatedDimension
1001
ACAD
1000
DSTYLE
1002
{
1070
    40
1040
1.0
1070
   144
1040
1.0
1002
}
  0
ENDSEC
  0
SECTION
  2
OBJECTS
  0
DICTIONARY
  5
8
330
0
100
AcDbDictionary
281
     1
  3
ACAD_COLOR
350
31
  3
ACAD_GROUP
350
2D
  3
ACAD_LAYOUT
350
C
  3
ACAD_MATERIAL
350
30
  3
ACAD_MLINESTYLE
350
2E
  3
ACAD_PLOTSETTINGS
350
2F
  3
ACAD_PLOTSTYLENAME
350
7
  3
ACAD_TABLESTYLE
350
32
  3
AcadDim
350
95C
  3
ACDBHEADERROUNDTRIPXREC
350
C48
  3
AcDbVariableDictionary
350
E9
  3
AcmDictionary
350
14D
  3
AMG
350
F5
  3
AMGSNAPSETTINGS
350
182
  3
DWGPROPS
350
C47
  3
MAPISURF_MODULE
350
BE9
  0
DICTIONARY
  5
15
330
14
100
AcDbDictionary
280
     1
281
     1
  3
ACAD_LAYERFILTERS
360
21A
  3
ACAD_LAYERSTATES
360
16
  3
ACLYDICTIONARY
360
219
  0
DICTIONARY
  5
3
330
2
100
AcDbDictionary
280
     1
281
     1
  3
ACAD_INDEX
360
C3C
  0
DICTIONARY
  5
C4C
330
F3
100
AcDbDictionary
280
     1
281
     1
  3
ACAD_XREC_ROUNDTRIP
360
C4D
  0
DICTIONARY
  5
31
102
{ACAD_REACTORS
330
8
102
}
330
8
100
AcDbDictionary
281
     1
  0
DICTIONARY
  5
2D
102
{ACAD_REACTORS
330
8
102
}
330
8
100
AcDbDictionary
281
     1
  0
DICTIONARY
  5
C
102
{ACAD_REACTORS
330
8
102
}
330
8
100
AcDbDictionary
281
     1
  3
Model
350
B
  3
配置1
350
10
  0
DICTIONARY
  5
30
102
{ACAD_REACTORS
330
8
102
}
330
8
100
AcDbDictionary
281
     1
  0
DICTIONARY
  5
2E
102
{ACAD_REACTORS
330
8
102
}
330
8
100
AcDbDictionary
281
     1
  3
STANDARD
350
33
  0
DICTIONARY
  5
2F
102
{ACAD_REACTORS
330
8
102
}
330
8
100
AcDbDictionary
281
     1
  0
ACDBDICTIONARYWDFLT
  5
7
102
{ACAD_REACTORS
330
8
102
}
330
8
100
AcDbDictionary
281
     1
  3
Normal
350
6
100
AcDbDictionaryWithDefault
340
6
  0
DICTIONARY
  5
32
102
{ACAD_REACTORS
330
8
102
}
330
8
100
AcDbDictionary
281
     1
  3
Standard
350
34
  0
XRECORD
  5
95C
102
{ACAD_REACTORS
330
8
102
}
330
8
100
AcDbXrecord
280
     1
 90
   990106
  3

 60
     0
 61
     0
 62
     4
 63
     4
 64
     1
 65
     0
 66
     0
 67
     3
 68
     0
 69
     0
 70
     0
 71
     0
 72
     0
 40
0.0
170
     2
340
0
  0
DICTIONARY
  5
C48
102
{ACAD_REACTORS
330
8
102
}
330
8
100
AcDbDictionary
281
     1
  0
DICTIONARY
  5
E9
102
{ACAD_REACTORS
330
8
102
}
330
8
100
AcDbDictionary
281
     1
  3
CTABLESTYLE
350
EA
  3
DIMASSOC
350
EC
  3
HIDETEXT
350
EB
  3
INDEXCTL
350
C46
  3
PROJECTNAME
350
ED
  0
DICTIONARY
  5
14D
102
{ACAD_REACTORS
330
8
102
}
330
8
100
AcDbDictionary
281
     1
  3
AcmStdDictionary
350
15A
  3
AMDTSECTSYM_ARROWCOLOR
350
174
  0
DICTIONARY
  5
F5
102
{ACAD_REACTORS
330
8
102
}
330
8
100
AcDbDictionary
281
     1
  3
AcMgSettings
350
B64
  0
DICTIONARY
  5
182
102
{ACAD_REACTORS
330
8
102
}
330
8
100
AcDbDictionary
281
     1
  0
XRECORD
  5
C47
102
{ACAD_REACTORS
330
8
102
}
330
8
100
AcDbXrecord
280
     1
  1
DWGPROPS COOKIE
  2

  3

  4

  6

  7

  8

  9

300
AmdtFileType=84
301
=
302
=
303
=
304
=
305
=
306
=
307
=
308
=
309
=
 40
0.1769654513888889
 41
2454805.686441575
 42
2456051.707568716
  1

 90
        1
  0
DICTIONARY
  5
21A
102
{ACAD_REACTORS
330
15
102
}
330
15
100
AcDbDictionary
281
     1
  0
DICTIONARY
  5
16
102
{ACAD_REACTORS
330
15
102
}
330
15
100
AcDbDictionary
281
     1
  0
DICTIONARY
  5
219
102
{ACAD_REACTORS
330
15
102
}
330
15
100
AcDbDictionary
281
     1
1001
ACAD
1000
<All
  0
DICTIONARY
  5
C3C
102
{ACAD_REACTORS
330
3
102
}
330
3
100
AcDbDictionary
281
     1
  3
*A1
350
C3D
  0
XRECORD
  5
C4D
102
{ACAD_REACTORS
330
C4C
102
}
330
C4C
100
AcDbXrecord
280
     1
102
SHADEPLOT
 70
     0
  0
LAYOUT
  5
B
102
{ACAD_XDICTIONARY
360
C49
102
}
102
{ACAD_REACTORS
330
C
102
}
330
C
100
AcDbPlotSettings
  1

  2
\\NOVIBDC\HPLJ4-TPUB
  4

  6

 40
0.0
 41
0.0
 42
0.0
 43
0.0
 44
0.0
 45
0.0
 46
0.0
 47
0.0
 48
0.0
 49
0.0
140
0.0
141
0.0
142
1.0
143
1.0
 70
  1712
 72
     0
 73
     0
 74
     0
  7

 75
     0
147
1.0
148
0.0
149
0.0
100
AcDbLayout
  1
Model
 70
     1
 71
     0
 10
0.0
 20
0.0
 11
12.0
 21
9.0
 12
0.0
 22
0.0
 32
0.0
 14
0.0
 24
0.0
 34
0.0
 15
0.0
 25
0.0
 35
0.0
146
0.0
 13
0.0
 23
0.0
 33
0.0
 16
1.0
 26
0.0
 36
0.0
 17
0.0
 27
1.0
 37
0.0
 76
     0
330
2
  0
LAYOUT
  5
10
102
{ACAD_XDICTIONARY
360
11
102
}
102
{ACAD_REACTORS
330
C
102
}
330
C
100
AcDbPlotSettings
  1

  2
none_device
  4
ISO_A3_(420.00_x_297.00_MM)
  6

 40
7.5
 41
20.0
 42
7.5
 43
20.0
 44
420.0
 45
297.0
 46
0.0
 47
0.0
 48
0.0
 49
0.0
140
0.0
141
0.0
142
1.0
143
1.0
 70
   688
 72
     1
 73
     0
 74
     5
  7

 75
    16
147
1.0
148
0.0
149
0.0
100
AcDbLayout
  1
配置1
 70
     1
 71
     1
 10
-7.5
 20
-20.0
 11
412.5
 21
277.0
 12
0.0
 22
0.0
 32
0.0
 14
34.03759947960046
 24
3.570060687026728
 34
0.0
 15
381.5000994796005
 25
256.2700606870265
 35
165.5914364978229
146
0.0
 13
0.0
 23
0.0
 33
0.0
 16
1.0
 26
0.0
 36
0.0
 17
0.0
 27
1.0
 37
0.0
 76
     0
330
D
331
F3
1001
ACAD_PSEXT
1000
無
1000
無
1000
不適用
1000
除非另選一新建的繪圖機規劃名稱，否則配置將不會出圖。
1070
     0
  0
MLINESTYLE
  5
33
102
{ACAD_REACTORS
330
2E
102
}
330
2E
100
AcDbMlineStyle
  2
STANDARD
 70
     0
  3

 62
     0
 51
90.0
 52
90.0
 71
     2
 49
0.5
 62
   256
  6
BYLAYER
 49
-0.5
 62
   256
  6
BYLAYER
  0
ACDBPLACEHOLDER
  5
6
102
{ACAD_REACTORS
330
7
102
}
330
7
  0
TABLESTYLE
  5
34
102
{ACAD_REACTORS
330
32
102
}
330
32
100
AcDbTableStyle
  3
Standard
 70
     0
 71
     0
 40
1.5
 41
1.5
280
     0
281
     0
  7
STANDARD
140
4.5
170
     2
 62
     0
 63
     7
283
     0
274
    -2
284
     1
 64
     0
275
    -2
285
     1
 65
     0
276
    -2
286
     1
 66
     0
277
    -2
287
     1
 67
     0
278
    -2
288
     1
 68
     0
279
    -2
289
     1
 69
     0
  7
STANDARD
140
6.0
170
     5
 62
     0
 63
     7
283
     0
274
    -2
284
     1
 64
     0
275
    -2
285
     1
 65
     0
276
    -2
286
     1
 66
     0
277
    -2
287
     1
 67
     0
278
    -2
288
     1
 68
     0
279
    -2
289
     1
 69
     0
  7
STANDARD
140
4.5
170
     5
 62
     0
 63
     7
283
     0
274
    -2
284
     1
 64
     0
275
    -2
285
     1
 65
     0
276
    -2
286
     1
 66
     0
277
    -2
287
     1
 67
     0
278
    -2
288
     1
 68
     0
279
    -2
289
     1
 69
     0
  0
DICTIONARYVAR
  5
EA
102
{ACAD_REACTORS
330
E9
102
}
330
E9
100
DictionaryVariables
280
     0
  1
STANDARD
  0
DICTIONARYVAR
  5
EC
102
{ACAD_REACTORS
330
E9
102
}
330
E9
100
DictionaryVariables
280
     0
  1
1
  0
DICTIONARYVAR
  5
EB
102
{ACAD_REACTORS
330
E9
102
}
330
E9
100
DictionaryVariables
280
     0
  1
1
  0
DICTIONARYVAR
  5
C46
102
{ACAD_REACTORS
330
E9
102
}
330
E9
100
DictionaryVariables
280
     0
  1
1
  0
DICTIONARYVAR
  5
ED
102
{ACAD_REACTORS
330
E9
102
}
330
E9
100
DictionaryVariables
280
     0
  1

  0
DICTIONARY
  5
15A
102
{ACAD_REACTORS
330
14D
102
}
330
14D
100
AcDbDictionary
281
     1
  0
XRECORD
  5
174
102
{ACAD_REACTORS
330
14D
102
}
330
14D
100
AcDbXrecord
280
     1
 90
-1023410169
  0
DICTIONARY
  5
B64
102
{ACAD_REACTORS
330
F5
102
}
330
F5
100
AcDbDictionary
281
     1
  3
DWGSETTINGS
350
B65
  3
TRANSSETTINGS
350
B69
  0
LAYER_INDEX
  5
C3D
102
{ACAD_REACTORS
330
C3C
102
}
330
C3C
100
AcDbIndex
 40
2456051.707568716
100
AcDbLayerIndex
  8
0
360
C3E
 90
        0
  8
Defpoints
360
C3F
 90
        0
  8
AM_VIS
360
C40
 90
        0
  8
AM_HID
360
C41
 90
        0
  8
AM_7
360
C42
 90
        0
  8
AM_4
360
C43
 90
        0
  8
AM_5
360
C44
 90
        0
  8
LOGO
360
C45
 90
        0
  0
DICTIONARY
  5
C49
330
B
100
AcDbDictionary
280
     1
281
     1
  3
ACAD_XREC_ROUNDTRIP
360
C4A
  0
DICTIONARY
  5
11
330
10
100
AcDbDictionary
280
     1
281
     1
  3
ACAD_XREC_ROUNDTRIP
360
C4B
  3
ADSK_XREC_LAYOUTTHUMBNAIL
360
12
  0
IDBUFFER
  5
C3E
330
0
100
AcDbIdBuffer
  0
IDBUFFER
  5
C3F
330
0
100
AcDbIdBuffer
  0
IDBUFFER
  5
C40
330
0
100
AcDbIdBuffer
  0
IDBUFFER
  5
C41
330
0
100
AcDbIdBuffer
  0
IDBUFFER
  5
C42
330
0
100
AcDbIdBuffer
  0
IDBUFFER
  5
C43
330
0
100
AcDbIdBuffer
  0
IDBUFFER
  5
C44
330
0
100
AcDbIdBuffer
  0
IDBUFFER
  5
C45
330
0
100
AcDbIdBuffer
  0
XRECORD
  5
C4A
102
{ACAD_REACTORS
330
C49
102
}
330
C49
100
AcDbXrecord
280
     1
102
SHADEPLOT
 70
     0
102
SHADEPLOTRESLEVEL
 70
     2
102
SHADEPLOTCUSTOMDPI
 70
   300
  0
XRECORD
  5
C4B
102
{ACAD_REACTORS
330
11
102
}
330
11
100
AcDbXrecord
280
     1
102
SHADEPLOT
 70
     0
102
SHADEPLOTRESLEVEL
 70
     2
102
SHADEPLOTCUSTOMDPI
 70
   300
  0
XRECORD
  5
12
102
{ACAD_REACTORS
330
11
102
}
330
11
100
AcDbXrecord
280
     1
310
28000000B40000007F00000001000800000000004C590000000000000000000000010000000000000000000000000000FFFFFF000000000000000000000000000000000000000000000000000000000000000000330000006600000099000000CC000000FF00000000330000333300006633000099330000CC330000FF3300
310
0000660000336600006666000099660000CC660000FF66000000990000339900006699000099990000CC990000FF99000000CC000033CC000066CC000099CC0000CCCC0000FFCC000000FF000033FF000066FF000099FF0000CCFF0000FFFF000000003300330033006600330099003300CC003300FF003300003333003333
310
33006633330099333300CC333300FF33330000663300336633006666330099663300CC663300FF66330000993300339933006699330099993300CC993300FF99330000CC330033CC330066CC330099CC3300CCCC3300FFCC330000FF330033FF330066FF330099FF3300CCFF3300FFFF330000006600330066006600660099
310
006600CC006600FF00660000336600333366006633660099336600CC336600FF33660000666600336666006666660099666600CC666600FF66660000996600339966006699660099996600CC996600FF99660000CC660033CC660066CC660099CC6600CCCC6600FFCC660000FF660033FF660066FF660099FF6600CCFF6600
310
FFFF660000009900330099006600990099009900CC009900FF00990000339900333399006633990099339900CC339900FF33990000669900336699006666990099669900CC669900FF66990000999900339999006699990099999900CC999900FF99990000CC990033CC990066CC990099CC9900CCCC9900FFCC990000FF99
310
0033FF990066FF990099FF9900CCFF9900FFFF99000000CC003300CC006600CC009900CC00CC00CC00FF00CC000033CC003333CC006633CC009933CC00CC33CC00FF33CC000066CC003366CC006666CC009966CC00CC66CC00FF66CC000099CC003399CC006699CC009999CC00CC99CC00FF99CC0000CCCC0033CCCC0066CC
310
CC0099CCCC00CCCCCC00FFCCCC0000FFCC0033FFCC0066FFCC0099FFCC00CCFFCC00FFFFCC000000FF003300FF006600FF009900FF00CC00FF00FF00FF000033FF003333FF006633FF009933FF00CC33FF00FF33FF000066FF003366FF006666FF009966FF00CC66FF00FF66FF000099FF003399FF006699FF009999FF00CC
310
99FF00FF99FF0000CCFF0033CCFF0066CCFF0099CCFF00CCCCFF00FFCCFF0000FFFF0033FFFF0066FFFF0099FFFF00CCFFFF00FFFFFF00000000000D0D0D001A1A1A00282828003535350043434300505050005D5D5D006B6B6B00787878008686860093939300A1A1A100AEAEAE00BBBBBB00C9C9C900D6D6D600E4E4E400
310
F1F1F100FFFFFF0000000000000000000000000000000000000000000000000000000000000000000000000000000000F5F5F5F5F5F5F5F5F5F5F5F5F5F5F5F5F5F5F5F5F5F5F5F5F5F5F5F5F5F5F5F5F5F5F5F5F5F5F5F5F5F5F5F5F5F5F5F5F5F5F5F5F5F5F5F5F5F5F5F5F5F5F5F5F5F5F5F5F5F5F5F5F5F5F5F5F5F5F5
310
F5F5F5F5F5F5F5F5F5F5F5F5F5F5F5F5F5F5F5F5F5F5F5F5F5F5F5F5F5F5F5F5F5F5F5F5F5F5F5F5F5F5F5F5F5F5F5F5F5F5F5F5F5F5F5F5F5F5F5F5F5F5F5F5F5F5F5F5F5F5F5F5F5F5F5F5F5F5F5F5F5F5F5F5F5F5F5F5F5F5F5F5F5F5F5F5F5F5F5F5F5F5E2E2E2E2E2E2E2E2E2E2E2E2E2E2E2E2E2E2E2E2E2E2E2E2E2
310
E2E2E2E2E2E2E2E2E2E2E2E2E2E2E2E2E2E2E2E2E2E2E2E2E2E2E2E2E2E2E2E2E2E2E2E2E2E2E2E2E2E2E2E2E2E2E2E2E2E2E2E2E2E2E2E2E2E2E2E2E2E2E2E2E2E2E2E2E2E2E2E2E2E2E2E2E2E2E2E2E2E2E2E2E2E2E2E2E2E2E2E2E2E2E2E2E2E2E2E2E2E2E2E2E2E2E2E2E2E2E2E2E2E2E2E2E2E2E2E2E2E2E2E2E2E2E2
310
E2E2E2E2E2E2E2E2E2E2E2E2E2E2E2E2E2E2E2E2E2E2E2E2E2E2F5F5E2E2E2E2E2E2E2E2E2E2E2E2E2E2E2E2E2E2E2E2E2E2E2E2E2E2E2E2E2E2E2E2E2E2E2E2E2E2E2E2E2E2E2E2E2E2E2E2E2E2E2E2E2E2E2E2E2E2E2E2E2E2E2E2E2E2E2E2E2E2E2E2E2E2E2E2E2E2E2E2E2E2E2E2E2E2E2E2E2E2E2E2E2E2E2E2E2E2E2
310
E2E2E2E2E2E2E2E2E2E2E2E2E2E2E2E2E2E2E2E2E2E2E2E2E2E2E2E2E2E2E2E2E2E2E2E2E2E2E2E2E2E2E2E2E2E2E2E2E2E2E2E2E2E2E2E2E2E2E2E2E2E2E2E2E2E2E2E2E2E2E2E2E2E2E2E2E2E2E2F5F5E2E2E2E2E2E2E2E2E2E2E2E2E2E2E2E2E2E2E2E2E2E2E2E2E2E2E2E2E2E2E2E2E2E2E2E2E2E2E2E2E2E2E2E2E2E2
310
E2E2E2E2E2E2E2E2E2E2E2E2E2E2E2E2E2E2E2E2E2E2E2E2E2E2E2E2E2E2E2E2E2E2E2E2E2E2E2E2E2E2E2E2E2E2E2E2E2E2E2E2E2E2E2E2E2E2E2E2E2E2E2E2E2E2E2E2E2E2E2E2E2E2E2E2E2E2E2E2E2E2E2E2E2E2E2E2E2E2E2E2E2E2E2E2E2E2E2E2E2E2E2E2E2E2E2E2E2E2E2E2E2E2E2E2E2E2E2E2E2E2E2E2E2E2E2
310
E2E2E2E2E2F5F5E2E2E2E2E2E2E2E2E2E2E2E2E2E2E2E2E2E2E2E2E2E2E2E2E2E2E2E2E2E2E2E2E2E2E2E2E2E2E2E2E2E2E2E2E2E2E2E2E2E2E2E2E2E2E2E2E2E2E2E2E2E2E2E2E2E2E2E2E2E2E2E2E2E2E2E2E2E2E2E2E2E2E2E2E2E2E2E2E2E2E2E2E2E2E2E2E2E2E2E2E2E2E2E2E2E2E2E2E2E2E2E2E2E2E2E2E2E2E2E2
310
E2E2E2E2E2E2E2E2E2E2E2E2E2E2E2E2E2E2E2E2E2E2E2E2E2E2E2E2E2E2E2E2E2E2E2E2E2E2E2E2E2E2E2E2E2E2E2E2E2E2E2E2E2E2E2E2E2E2F5F5E2E2E2E2E2E2E2E2E2E2E2E2E2E2E2E2E2E2E2E2E2E2E2E2E2E2E2E2E2E2E2E2E2E2E2E2E2E2E2E2E2E2E2E2E2E2E2E2E2E2E2E2E2E2E2E2E2E2E2E2E2E2E2E2E2E2E2
310
E2E2E2E2E2E2E2E2E2E2E2E2E2E2E2E2E2E2E2E2E2E2E2E2E2E2E2E2E2E2E2E2E2E2E2E2E2E2E2E2E2E2E2E2E2E2E2E2E2E2E2E2E2E2E2E2E2E2E2E2E2E2E2E2E2E2E2E2E2E2E2E2E2E2E2E2E2E2E2E2E2E2E2E2E2E2E2E2E2E2E2E2E2E2E2E2E2E2E2E2E2E2E2E2E2E2E2E2E2E2E2F5F5E2E2E2E2E2E2E2E2E2E2E2E2E2E2
310
E2E2E2E2E2E2E2E2E2E2E2E2E2E2E2E2E2E2E2E2E2E2E2E2E2E2E2E2E2E2E2E2E2E2E2E2E2E2E2E2E2E2E2E2E2E2E2E2E2E2E2E2E2E2E2E2E2E2E2E2E2E2E2E2E2E2E2E2E2E2E2E2E2E2E2E2E2E2E2E2E2E2E2E2E2E2E2E2E2E2E2E2E2E2E2E2E2E2E2E2E2E2E2E2E2E2E2E2E2E2E2E2E2E2E2E2E2E2E2E2E2E2E2E2E2E2E2
310
E2E2E2E2E2E2E2E2E2E2E2E2E2E2E2E2E2E2E2E2E2E2E2E2E2E2E2E2E2E2E2E2E2E2E2E2E2F5F5E2E2E2E2E2E2E2E2E2E2E2E2E2E2E2E2E2E2E2E2E2E2E2E2E2E2E2E2E2E2E2E2E2E2E2E2E2E2E2E2E2E2E2E2E2E2E2E2E2E2E2E2E2E2E2E2E2E2E2E2E2E2E2E2E2E2E2E2E2E2E2E2E2E2E2E2E2E2E2E2E2E2E2E2E2E2E2E2
310
E2E2E2E2E2E2E2E2E2E2E2E2E2E2E2E2E2E2E2E2E2E2E2E2E2E2E2E2E2E2E2E2E2E2E2E2E2E2E2E2E2E2E2E2E2E2E2E2E2E2E2E2E2E2E2E2E2E2E2E2E2E2E2E2E2E2E2E2E2E2E2E2E2E2E2E2E2E2E2E2E2E2E2E2E2E2E2E2E2E2F5F5E2E2E2F5F5F5F5F5F5F5F5E2E2E2E2E2E2E2E2E2F5F5F5F5F5F5F5F5F5F5F5F5F5F5F5
310
F5E2E2E2E2E2E2E2E2E2F5F5F5F5F5F5F5F5F5F5F5F5F5F5F5E2E2E2E2E2E2E2E2E2F5F5F5F5F5F5F5F5F5F5F5F5F5F5F5F5E2E2E2E2E2E2E2E2F5F5F5F5F5F5F5F5F5F5F5F5F5F5F5F5E2E2E2E2E2E2E2E2E2F5F5F5F5F5F5F5F5F5F5F5F5F5F5F5E2E2E2E2E2E2E2E2E2F5F5F5F5F5F5F5F5F5F5F5F5F5F5F5F5E2E2E2E2
310
E2E2E2E2E2F5F5F5F5F5F5F5F5E2E2E2F5F5E2E2E2F5E2E2E2E2E2E2E2E2E2E2E2E2E2E2E2E2E2E2E2E2E2E2E2E2E2E2E2E2E2E2E2E2E2E2E2E2E2E2E2E2E2E2E2E2E2E2E2E2E2E2E2E2E2E2E2E2E2E2E2E2E2E2E2E2E2E2E2E2E2E2E2E2E2E2E2E2E2E2E2E2E2E2E2E2E2E2E2E2E2E2E2E2E2E2E2E2E2E2E2E2E2E2E2E2E2
310
E2E2E2E2E2E2E2E2E2E2E2E2E2E2E2E2E2E2E2E2E2E2E2E2E2E2E2E2E2E2E2E2E2E2E2E2E2E2E2E2E2E2E2E2E2E2E2E2E2E2E2E2E2E2E2E2E2E2E2E2E2E2E2E2E2F5E2E2E2F5F5E2E2E2F5E2E2E2E2E2E2E2E2E2E2E2E2E22D2D2D2D2D2D2D2D2D2D2D2D2D2D2D2D2D2D2D2D2D2D2D2DF5F5F5F5F5F52D2D2D2D2D2D2D2D2D
310
2D2D2D2D2D2D2D2D2D2D2D2D2D2D2D2D2D2D2D2D2D2D2D2D2D2D2D2D2D2D2D2D2D2D2D2D2D2D2D2D2D2D2D2D2D2D2D2D2D2D2D2D2D2D2D2D2D2D2D2D2D2D2D2D2D2D2D2D2D2D2D2D2D2D2D2D2D2D2D2D2D2D2D2D2D2D2D2D2D2D2D2D2D2D2D2D2D2D2D2D2D2D2D2D2D2D2D2D2DE2E2E2E2E2E2E2E2E2F5E2E2E2F5F5E2E2E2
310
F5E2E2E2E2E2E2E2E2E2E2E2E2E22DF5F5F5F5F5F5F5F5F5F5F5F5F5F5F5E2F5F5E2F5F5F5E2F5F5F5F5F5F52DE2E2E2E2E2E2E2E2E22D2DF5F5F5F52D2DE2E2E2E2E2E2E2E2E2E2E2E2E2E2E2E2E2E2E2E2E2E2E2E2E2E2E2E2E2E2E2E2E2E2E2E2E2E2E2E2E2E2E2E2E2E2E2E2E2E2E2E2E2E2E2E2E2E2E2E2E2E2E2E2E2
310
E2E2E2E2E2E2E2E2E2E2E2E2E2E2E2E2E2E2E2E2E2E2E2E2E2E2E2E2E2E2E2E2E2E22DE2E2E2E2E2E2E2E2E2F5E2E2E2F5F5E2E2E2F5E2E2E2E2E2E2E2E2E2E2E2E2E22DE2E2E2F5F5F5F5F5F5F5F5F5F5F5F5F5F5F5F5F5E2E2E22D2D2D2D2D2D2DE2E2E2E2E2E2E2E2E22DE2F5F5F5F5E22DE2E2E2E2E2E2E2E2E2E2E2E2
310
E2E2E2E2E2E2E2E2E2E2E2E2E2E2E2E2E2E2E2E2E2E2E2E2E2E2E2E2E2E2E2E2E2E2E2E2E2E2E2E2E2E2E2E2E2E2E2E2E2E2E2E2E2E2E2E2E2E2E2E2E2E2E2E2E2E2E2E2E2E2E2E2E2E2E2E2E2E2E2E2E2E2E2E2E2E2E22DE2E2E2E2E2E2E2E2E2F5E2E2E2F5F5E2E2E2F5E2E2E2E2E2E2E2E2E2E2E2E2E22DE2E2E2F5F5F5
310
F5F5F5F5F5F5F5F5F5F5F5F5F5F5E2E2E22DE2E2E2E2E2E2E2E2E2E2E2E2E2E2E22DE2F5F5F5F5E22DE2E2E2E2E2E2E2E2E2E2E2E2E2E2E2E2E2E2E2E2E2E2E2E2E2E2E2E2E2E2E2E2E2E2E2E2E2E2E2E2E2E2E2E2E2E2E2E2E2E2E2E2E2E2E2E2E2E2E2E2E2E2E2E2E2E2E2E2E2E2E2E2E2E2E2E2E2E2E2E2E2E2E2E2E2E2
310
E2E2E2E2E2E2E2E2E2E2E2E2E22DE2E2E2E2E2E2E2E2E2F5E2E2E2F5F5E2E2E2F5E2E2E2E2E2E2E2E2E2E2E2E2E22D0F0F0F0F0F0F0F2D2D2D2D2D2D2D2D2D2D2D2D2D2D2D2D2DE2E2E2E2E2E2E2E2E2E2E2E2E2E2E22DE2F5F5F5F5E22DE2E2E2E2E2E2E2E2E2E2E2E2E2E2E2E2E2E2E2E2E2E2E2E2E2E2E2E2E2E2E2E2E2
310
E2E2E2E2E2E2E2E2E2E2E2E2E2E2E2E2E2E2E2E2E2E2E2E2E2E2E2E2E2E2E2E2E2E2E2E2E2E2E2E2E2E2E2E2E2E2E2E2E2E2E2E2E2E2E2E2E2E2E2E2E2E2E2E2E2E22DE2E2E2E2E2E2E2E2E2F5E2E2E2F5F5E2E2E2F5E2E2E2E2E2E2E2E2E2E2E2E2E22D0F0F0F0F0F0F0F2DF5F5F5E2F5F5F5F52DE2F5F5F5E2E22DE2E2E2
310
E2E2E2E2E2E2F5E2E2E2E2E22D2D2D2D2D2D2D2DE2E2E2E2E2E2E2E2E2E2E2E2E2E2E2E2E2E2E2E2E2E2E2E2E2E2E2E2E2E2E2E2E2E2E2E2E2E2E2E2E2E2E2E2E2E2E2E2E2E2E2E2E2E2E2E2E2E2E2E2E2E2E2E2E2E2E2E2E2E2E2E2E2E2E2E2E2E2E2E2E2E2E2E2E2E2E2E2E2E2E2E2E2E2E2E2E2E2E22DE2E2E2E2E2E2E2
310
E2E2F5E2E2E2F5F5E2E2E2F5E2E2E2E2E2E2E2E2E2E2E2E2E22D0FDCE2DC0FDCDC2DF5F52D2DF5F5F52D2DF52D2D2D2D2D2DF5F5F5F5E2F5F5F5F5F5F5F5F52D2D2D2D2D2D2D2D2D2D2D2DE2E2E2E2E2E2E2E2E2E2E2E2E2E2E2E2E2E2E2E2E2E2E2E2E2E2E2E2E2E2E2E2E2E2E2E2E2E2E2E2E2E2E2E2E2E2E2E2E2E2E2E2
310
E2E2E2E2E2E2E2E2E2E2E2E2E2E2E2E2E2E2E2E2E2E2E2E2E2E2E2E2E2E2E2E2E2E2E2E2E2E2E2E2E2E2E2E2E22DE2E2E2E2E2E2E2E2E2F5E2E2E2F5F5E2E2E2E2E2E2E2E2E2E2E2E2E2E2E2E2E22DE20FDCDCDC0FDC2DF5F5F5E2F5F5F5F52DF5F5F5F5F5F52DF5F5F5F5F5F5F5F5F5F5F5F5F52DE2F5F5E2F5F5F5E2E2E2
310
2DE2E2E2E2E2E2E2E2E2E2E2E2E2E2E2E2E2E2E2E2E2E2E2E2E2E2E2E2E2E2E2E2E2E2E2E2E2E2E2E2E2E2E2E2E2E2E2E2E2E2E2E2E2E2E2E2E2E2E2E2E2E2E2E2E2E2E2E2E2E2E2E2E2E2E2E2E2E2E2E2E2E2E2E2E2E2E2E2E2E2E2E2E2E2E2E2E22DE2E2E2E2E2E2E2E2E2E2E2E2E2F5F5E2E2E2E2E2E2E2E2E2E2E2E2E2
310
E2E2E2E22DE2E2DCDCDCDCDC2DF5F5F5F5F52D2D2D2DF5F5F5F5F52D2DF5F5F5F5F5F5F5F5F5F5E2E2E22DE2F5F5F5F5F5F5E2F5F52DE2E2E2E2E2E2E2E2E2E2E2E2E2E2E2E2E2E2E2E2E2E2E2E2E2E2E2E2E2E2E2E2E2E2E2E2E2E2E2E2E2E2E2E2E2E2E2E2E2E2E2E2E2E2E2E2E2E2E2E2E2E2E2E2E2E2E2E2E2E2E2E2E2
310
E2E2E2E2E2E2E2E2E2E2E2E2E2E2E2E2E2E2E2E2E2E2E2E22DE2E2E2E2E2E2E2E2E2E2E2E2E2F5F5E2E2E2E2E2E2E2E2E2E2E2E2E2E2E2E2E22DE2E20FDC0FDCDC2DF5F5F5F5F5F5F5F52DF5E2F5E2F5E22DF5F5F5F5F5F5F5F5F5F5E2E2E22D2DF5F52DF5F5F52DF52D2DE2E2E2E2E2E2E2E2E2E2E2E2E2E2E2E2E2E2E2E2
310
E2E2E2E2E2E2E2E2E2E2E2E2E2E2E2E2E2E2E2E2E2E2E2E2E2E2E2E2E2E2E2E2E2E2E2E2E2E2E2E2E2E2E2E2E2E2E2E2E2E2E2E2E2E2E2E2E2E2E2E2E2E2E2E2E2E2E2E2E2E2E2E2E2E2E2E2E22DE2E2E2E2E2E2E2E2E2E2E2E2E2F5F5E2E2E2E2E2E2E2E2E2E2E2E2E2E2E2E2E22D2D2D2D2D2D2D2D2D2D2D2D2D2D2D2D2D
310
2D2D2D2D2D2D2D2D2D2D2D2D2D2D2D2D2D2D2D2D2D2D2D2D2D2D2D2D2D2D2D2D2D2D2D2D2D2D2D2D2D2D2D2D2D2D2D2D2D2D2D2D2D2D2D2D2D2D2D2D2D2D2D2D2D2D2D2D2D2D2D2D2D2D2D2D2D2D2D2D2D2D2D2D2D2D2D2D2D2D2D2D2D2D2D2D2D2D2D2D2D2D2D2D2D2D2D2D2D2D2D2D2D2D2D2D2D2D2D2D2D2D2D2D2D2D2D
310
2D2D2D2DE2E2E2E2E2E2E2E2E2E2E2E2E2F5F5E2E2E2E2E2E2E2E2E2E2E2E2E2E2E2E2E22DE2E2E2E2E2E2E2E2E2E2E2E2E2E2E2E2E2E2E2E2E2E2E2E2E2E2E2E2E2E2E2E2E2E2E2E2E2E2E2E2E2E2E2E2E2E2E2E2E2E2E2E2E2E2E2E2E2E2E2E2E2E2E2E2E2E2E2E2E2E2E2E2E22DE2E2E2E2E2E2E2E2E2E2E2E2E2E2E2E2
310
E2E2E2E2E2E2E2E2E2E2E2E2E2E2E2E2E2E2E2E2E2E2E2E2E2E2E2E2E2E2E2E2E2E2E2E2E2E2E2E2E2E2E2E2E2E2E2E2E2E2E2E2E2E2E2E22DE2E2E2E2E2E2E2E2E2E2E2E2E2F5F5E2E2E2E2E2E2E2E2E2E2E2E2E2E2E2E2E22DE2E2E2E2E2E2E2E2E2E2E2E2E2E2E2E2E2E2E2E2E2E2E2E2E2E2E2E2E2E2E2E2E2E2E2E2E2
310
E2E2E2E2E2E2E2E2E2E2E2E2E2E2E2E2E2E2E2E2E2E2E2E2E2E2E2E2E2E2E2E2E2E2E2E22DE2E2E2E2E2E2E2E2E2E2E2E2E2E2E2E2E2E2E2E2E2E2E2E2E2E2E2E2E2E2E2E2E2E2E2E2E2E2E2E2E2E2E2E2E2E2E2E2E2E2E2E2E2E2E2E2E2E2E2E2E2E2E2E2E2E2E2E2E2E2E2E22DE2E2E2E2E2E2E2E2E2E2E2E2E2F5F5E2E2
310
E2E2E2E2E2E2E2E2E2E2E2E2E2E2E22DE2E2E2E2E2E2E2E2E2E2E2E2E2E2E2E2E2E2E2E2E2E2E2E2E2E2E2E2E2E2E2E2E2E2E2E2E2E2E2E2E2E2E2E2E2E2E2E2E2E2E2E2E2E2E2E2E2E2E2E2E2E2E2E2E2E2E2E2E2E2E2E2E22DE2E2E2E2E2E2E2E2E2E2E2E2E2E2E2E2E2E2E2E2E2E2E2E2E2E2E2E2E2E2E2E2E2E2E2E2E2
310
E2E2E2E2E2E2E2E2E2E2E2E2E2E2E2E2E2E2E2E2E2E2E2E2E2E2E2E2E2E2E2E2E2E2E22DE2E2E2E2E2E2E2E2E2E2E2E2E2F5F5E2E2E2E2E2E2E2E2E2E2E2E2E2E2E2E2E22DE2E2E2E2E2E2E2E2E2E2E2E2E2E2E2E2E2E2E2E2E2E2E2E2E2E2E2E2E2E2E2E2E2E2E2E2E2E2E2E2E2E2E2E2E2E2E2E2E2E2E2E2E2E2E2E2E2E2
310
E2E2E2E2E2E2E2E2E2E2E2E2E2E2E22DE2E2E2E2E2E2E2E2E2E2E2E2E2E2E2E2E2E2E2E2E2E2E2E2E2E2E2E2E2E2E2E2E2E2E2E2E2E2E2E2E2E2E2E2E2E2E2E2E2E2E2E2E2E2E2E2E2E2E2E2E2E2E2E2E2E2E2E2E2E2E2E22DE2E2E2E2E2E2E2E2E2E2E2E2E2F5F5E2E2E2E2E2E2E2E2E2E2E2E2E2E2E2E2E22DE2E2E2E2E2
310
E2E2E2E2E2E2E2E2E2E2E2E2E2E2E2E2E2E2E2E2E2E2E2E2E2E2E2E2E2E2E2E2E2E2E2E2E2E2E2E2E2E2E2E2E2E2E2E2E2E2E2E2E2E2E2E2E2E2E2E2E2E2E2E2E2E2E2E22DE2E2E2E2E2E2E2E2E2E2E2E2E2E2E2E2E2E2E2E2E2E2E2E2E2E2E2E2E2E2E2E2E2E2E2E2E2E2E2E2E2E2E2E2E2E2E2E2E2E2E2E2E2E2E2E2E2E2
310
E2E2E2E2E2E2E2E2E2E2E2E2E2E22DE2E2E2E2E2E2E2E2E2E2E2E2E2F5F5E2E2E2E2E2E2E2E2E2E2E2E2E2E2E2E2E22DE2E2E2E2E2E2E2E2E2E2E2E2E2E2E2E2E2E2E2E2E2E2E2E2E2E2E2E2E2E2E2E2E2E2E2E2E2E2E2E2E2E2E2E2E2E2E2E2E2E2E2E2E2E2E2E2E2E2E2E2E2E2E2E2E2E2E2E2E2E2E2E2E22DE2E2E2E2E2
310
E2E2E2E2E2E2E2E2E2E2E2E2E2E2E2E2E2E2E2E2E2E2E2E2E2E2E2E2E2E2E2E2E2E2E2E2E2E2E2E2E2E2E2E2E2E2E2E2E2E2E2E2E2E2E2E2E2E2E2E2E2E2E2E2E2E2E22DE2E2E2E2E2E2E2E2E2E2E2E2E2F5F5E2E2E2F5E2E2E2E2E2E2E2E2E2E2E2E2E22DE2E2E2E2E2E2E2E2E2E2E2E2E2E2E2E2E2E2E2E2E2E2E2E2E2E2
310
E2E2E2E2E2E2E2E2E2E2E2E2E2E2E2E2E2E2E2E2E2E2E2E2E2E2E2E2E2E2E2E2E2E2E2E2E2E2E2E2E2E2E2E2E2E2E22DE2E2E2E2E2E2E2E2E2E2E2E2E2E2E2E2E2E2E2E2E2E2E2E2E2E2E2E2E2E2E2E2E2E2E2E2E2E2E2E2E2E2E2E2E2E2E2E2E2E2E2E2E2E2E2E2E2E2E2E2E2E2E2E2E2E2E2E2E2E2E2E22DE2E2E2E2E2E2
310
E2E2E2F5E2E2E2F5F5E2E2E2F5E2E2E2E2E2E2E2E2E2E2E2E2E22DE2E2E2E2E2E2E2E2E2E2E2E2E2E2E2E2E2E2E2E2E2E2E2E2E2E2E2E2E2E2E2E2E2E2E2E2E2E2E2E2E2E2E2E2E2E2E2E2E2E2E2E2E2E2E2E2E2E2E2E2E2E2E2E2E2E2E2E2E2E2E2E2E22DE2E2E2E2E2E2E2E2E2E2E2E2E2E2E2E2E2E2E2E2E2E2E2E2E2E2
310
E2E2E2E2E2E2E2E2E2E2E2E2E2E2E2E2E2E2E2E2E2E2E2E2E2E2E2E2E2E2E2E2E2E2E2E2E2E2E2E2E2E2E2E2E2E22DE2E2E2E2E2E2E2E2E2F5E2E2E2F5F5E2E2E2F5E2E2E2E2E2E2E2E2E2E2E2E2E22DE2E2E2E2E2E2E2E2E2E2E2E2E2E2E2E2E2E2E2E2E2E2E2E2E2E2E2E2E2E2E2E2E2E2E2E2E2E2E2E2E2E2E2E2E2E2E2
310
E2E2E2E2E2E2E2E2E2E2E2E2E2E2E2E2E2E2E2E2E2E2E2E2E2E22DE2E2E2E2E2E2E2E2E2E2E2E2E2E2E2E2E2E2E2E2E2E2E2E2E2E2E2E2E2E2E2E2E2E2E2E2E2E2E2E2E2E2E2E2E2E2E2E2E2E2E2E2E2E2E2E2E2E2E2E2E2E2E2E2E2E2E2E2E2E2E2E22DE2E2E2E2E2E2E2E2E2F5E2E2E2F5F5E2E2E2F5E2E2E2E2E2E2E2E2
310
E2E2E2E2E22DE2E2E2E2E2E2E2E2E2E2E2E2E2E2E2E2E2E2E2E2E2E2E2E2E2E2E2E2E2E2E2E2E2E2E2E2E2E2E2E2E2E2E2E2E2E2E2E2E2E2E2E2E2E2E2E2E2E2E2E2E2E2E2E2E2E2E2E2E2E2E2E2E22DE2E2E2E2E2E2E2E2E2E2E2E2E2E2E2E2E2E2E2E2E2E2E2E2E2E2E2E2E2E2E2E2E2E2E2E2E2E2E2E2E2E2E2E2E2E2E2
310
E2E2E2E2E2E2E2E2E2E2E2E2E2E2E2E2E2E2E2E2E2E2E2E2E22DE2E2E2E2E2E2E2E2E2F5E2E2E2F5F5E2E2E2F5E2E2E2E2E2E2E2E2E2E2E2E2E22DE2E2E2E2E2E2E2E2E2E2E2E2E2E2E2E2E2E2E2E2E2E2E2E2E2E2E2E2E2E2E2E2E2E2E2E2E2E2E2E2E2E2E2E2E2E2E2E2E2E2E2E2E2E2E2E2E2E2E2E2E2E2E2E2E2E2E2E2
310
E2E2E2E2E22DE2E2E2E2E2E2E2E2E2E2E2E2E2E2E2E2E2E2E2E2E2E2E2E2E2E2E2E2E2E2E2E2E2E2E2E2E2E2E2E2E2E2E2E2E2E2E2E2E2E2E2E2E2E2E2E2E2E2E2E2E2E2E2E2E2E2E2E2E2E2E2E22DE2E2E2E2E2E2E2E2E2F5E2E2E2F5F5E2E2E2F5E2E2E2E2E2E2E2E2E2E2E2E2E22DE2E2E2E2E2E2E2E2E2E2E2E2E2E2E2
310
E2E2E2E2E2E2E2E2E2E2E2E2E2E2E2E2E2E2E2E2E2E2E2E2E2E2E2E2E2E2E2E2E2E2E2E2E2E2E2E2E2E2E2E2E2E2E2E2E2E2E2E2E2E2E2E2E2E22DE2E2E2E2E2E2E2E2E2E2E2E2E2E2E2E2E2E2E2E2E2E2E2E2E2E2E2E2E2E2E2E2E2E2E2E2E2E2E2E2E2E2E2E2E2E2E2E2E2E2E2E2E2E2E2E2E2E2E2E2E2E2E2E2E2E2E2E2
310
E2E2E2E22DE2E2E2E2E2E2E2E2E2F5E2E2E2F5F5E2E2E2F5E2E2E2E2E2E2E2E2E2E2E2E2E22DE2E2E2E2E2E2E2E2E2E2E2E2E2E2E2E2E2E2E2E2E2E2E2E2E2E2E2E2E2E2E2E2E2E2E2E2E2E2E2E2E2E2E2E2E2E2E2E2E2E2E2E2E2E2E2E2E2E2E2E2E2E2E2E2E2E2E2E2E2E2E2E2E22DE2E2E2E2E2E2E2E2E2E2E2E2E2E2E2
310
E2E2E2E2E2E2E2E2E2E2E2E2E2E2E2E2E2E2E2E2E2E2E2E2E2E2E2E2E2E2E2E2E2E2E2E2E2E2E2E2E2E2E2E2E2E2E2E2E2E2E2E2E2E2E2E2E22DE2E2E2E2E2E2E2E2E2F5E2E2E2F5F5E2E2E2F5E2E2E2E2E2E2E2E2E2E2E2E2E22DE2E2E2E2E2E2E2E2E2E2E2E2E2E2E2E2E2E2E2E2E2E2E2E2E2E2E2E2E2E2E2E2E2E2E2E2
310
E2E2E2E2E2E2E2E2E2E2E2E2E2E2E2E2E2E2E2E2E2E2E2E2E2E2E2E2E2E2E2E2E2E2E2E2E22DE2E2E2E2E2E2E2E2E2E2E2E2E2E2E2E2E2E2E2E2E2E2E2E2E2E2E2E2E2E2E2E2E2E2E2E2E2E2E2E2E2E2E2E2E2E2E2E2E2E2E2E2E2E2E2E2E2E2E2E2E2E2E2E2E2E2E2E2E2E2E2E22DE2E2E2E2E2E2E2E2E2F5E2E2E2F5F5E2
310
E2E2F5E2E2E2E2E2E2E2E2E2E2E2E2E22DE2E2E2E2E2E2E2E2E2E2E2E2E2E2E2E2E2E2E2E2E2E2E2E2E2E2E2E2E2E2E2E2E2E2E2E2E2E2E2E2E2E2E2E2E2E2E2E2E2E2E2E2E2E2E2E2E2E2E2E2E2E2E2E2E2E2E2E2E2E2E2E2E22DE2E2E2E2E2E2E2E2E2E2E2E2E2E2E2E2E2E2E2E2E2E2E2E2E2E2E2E2E2E2E2E2E2E2E2E2
310
E2E2E2E2E2E2E2E2E2E2E2E2E2E2E2E2E2E2E2E2E2E2E2E2E2E2E2E2E2E2E2E2E2E2E2E22DE2E2E2E2E2E2E2E2E2F5E2E2E2F5F5E2E2E2F5E2E2E2E2E2E2E2E2E2E2E2E2E22DE2E2E2E2E2E2E2E2E2E2E2E2E2E2E2E2E2E2E2E2E2E2E2E2E2E2E2E2E2E2E2E2E2E2E2E2E2E2E2E2E2E2E2E2E2E2E2E2E2E2E2E2E2E2E2E2E2
310
E2E2E2E2E2E2E2E2E2E2E2E2E2E2E2E22DE2E2E2E2E2E2E2E2E2E2E2E2E2E2E2E2E2E2E2E2E2E2E2E2E2E2E2E2E2E2E2E2E2E2E2E2E2E2E2E2E2E2E2E2E2E2E2E2E2E2E2E2E2E2E2E2E2E2E2E2E2E2E2E2E2E2E2E2E2E2E2E22DE2E2E2E2E2E2E2E2E2F5E2E2E2F5F5E2E2E2F5E2E2E2E2E2E2E2E2E2E2E2E2E22DE2E2E2E2
310
E2E2E2E2E2E2E2E2E2E2E2E2E2E2E2E2E2E2E2E2E2E2E2E2E2E2E2E2E2E2E2E2E2E2E2E2E2E2E2E2E2E2E2E2E2E2E2E2E2E2E2E2E2E2E2E2E2E2E2E2E2E2E2E2E2E2E2E2E22DE2E2E2E2E2E2E2E2E2E2E2E2E2E2E2E2E2E2E2E2E2E2E2E2E2E2E2E2E2E2E2E2E2E2E2E2E2E2E2E2E2E2E2E2E2E2E2E2E2E2E2E2E2E2E2E2E2
310
E2E2E2E2E2E2E2E2E2E2E2E2E2E2E22DE2E2E2E2E2E2E2E2E2F5E2E2E2F5F5E2E2E2F5E2E2E2E2E2E2E2E2E2E2E2E2E22DE2E2E2E2E2E2E2E2E2E2E2E2E2E2E2E2E2E2E2E2E2E2E2E2E2E2E2E2E2E2E2E2E2E2E2E2E2E2E2E2E2E2E2E2E2E2E2E2E2E2E2E2E2E2E2E2E2E2E2E2E2E2E2E2E2E2E2E2E2E2E2E2E22DE2E2E2E2
310
E2E2E2E2E2E2E2E2E2E2E2E2E2E2E2E2E2E2E2E2E2E2E2E2E2E2E2E2E2E2E2E2E2E2E2E2E2E2E2E2E2E2E2E2E2E2E2E2E2E2E2E2E2E2E2E2E2E2E2E2E2E2E2E2E2E2E2E22DE2E2E2E2E2E2E2E2E2F5E2E2E2F5F5E2E2E2F5E2E2E2E2E2E2E2E2E2E2E2E2E22DE2E2E2E2E2E2E2E2E2E2E2E2E2E2E2E2E2E2E2E2E2E2E2E2E2
310
E2E2E2E2E2E2E2E2E2E2E2E2E2E2E2E2E2E2E2E2E2E2E2E2E2E2E2E2E2E2E2E2E2E2E2E2E2E2E2E2E2E2E2E2E2E2E2E22DE2E2E2E2E2E2E2E2E2E2E2E2E2E2E2E2E2E2E2E2E2E2E2E2E2E2E2E2E2E2E2E2E2E2E2E2E2E2E2E2E2E2E2E2E2E2E2E2E2E2E2E2E2E2E2E2E2E2E2E2E2E2E2E2E2E2E2E2E2E2E2E22DE2E2E2E2E2
310
E2E2E2E2F5E2E2E2F5F5E2E2E2F5E2E2E2E2E2E2E2E2E2E2E2E2E22DE2E2E2E2E2E2E2E2E2E2E2E2E2E2E2E2E2E2E2E2E2E2E2E2E2E2E2E2E2E2E2E2E2E2E2E2E2E2E2E2E2E2E2E2E2E2E2E2E2E2E2E2E2E2E2E2E2E2E2E2E2E2E2E2E2E2E2E2E2E2E2E2E22DE2E2E2E2E2E2E2E2E2E2E2E2E2E2E2E2E2E2E2E2E2E2E2E2E2
310
E2E2E2E2E2E2E2E2E2E2E2E2E2E2E2E2E2E2E2E2E2E2E2E2E2E2E2E2E2E2E2E2E2E2E2E2E2E2E2E2E2E2E2E2E2E2E22DE2E2E2E2E2E2E2E2E2F5E2E2E2F5F5E2E2E2F5E2E2E2E2E2E2E2E2E2E2E2E2E22DE2E2E2E2E2E2E2E2E2E2E2E2E2E2E2E2E2E2E2E2E2E2E2E2E2E2E2E2E2E2E2E2E2E2E2E2E2E2E2E2E2E2E2E2E2E2
310
E2E2E2E2E2E2E2E2E2E2E2E2E2E2E2E2E2E2E2E2E2E2E2E2E2E2E22DE2E2E2E2E2E2E2E2E2E2E2E2E2E2E2E2E2E2E2E2E2E2E2E2E2E2E2E2E2E2E2E2E2E2E2E2E2E2E2E2E2E2E2E2E2E2E2E2E2E2E2E2E2E2E2E2E2E2E2E2E2E2E2E2E2E2E2E2E2E2E2E22DE2E2E2E2E2E2E2E2E2F5E2E2E2F5F5E2E2E2F5E2E2E2E2E2E2E2
310
E2E2E2E2E2E22DE2E2E2E2E2E2E2E2E2E2E2E2E2E2E2E2E2E2E2E2E2E2E2E2E2E2E2E2E2E2E2E2E2E2E2E2E2E2E2E2E2E2E2E2E2E2E2E2E2E2E2E2E2E2E2E2E2E2E2E2E2E2E2E2E2E2E2E2E2E2E2E2E22DE2E2E2E2E2E2E2E2E2E2E2E2E2E2E2E2E2E2E2E2E2E2E2E2E2E2E2E2E2E2E2E2E2E2E2E2E2E2E2E2E2E2E2E2E2E2
310
E2E2E2E2E2E2E2E2E2E2E2E2E2E2E2E2E2E2E2E2E2E2E2E2E2E22DE2E2E2E2E2E2E2E2E2F5E2E2E2F5F5E2E2E2F5E2E2E2E2E2E2E2E2E2E2E2E2E22DE2E2E2E2E2E2E2E2E2E2E2E2E2E2E2E2E2E2E2E2E2E2E2E2E2E2E2E2E2E2E2E2E2E2E2E2E2E2E2E2E2E2E2E2E2E2E2E2E2E2E2E2E2E2E2E2E2E2E2E2E2E2E2E2E2E2E2
310
E2E2E2E2E2E22DE2E2E2E2E2E2E2E2E2E2E2E2E2E2E2E2E2E2E2E2E2E2E2E2E2E2E2E2E2E2E2E2E2E2E2E2E2E2E2E2E2E2E2E2E2E2E2E2E2E2E2E2E2E2E2E2E2E2E2E2E2E2E2E2E2E2E2E2E2E2E2E22DE2E2E2E2E2E2E2E2E2F5E2E2E2F5F5E2E2E2E2E2E2E2E2E2E2E2E2E2E2E2E2E22DE2E2E2E2E2E2E2E2E2E20FE20FE2
310
E2E2E2E2E2E20F0FE2E2E2E2E2E2E2E2E2E2E2E2E2E2E2E2E2E2E2E2E2E2E2E2E2E2E2E2E2E2E2E2E2E2E2E2E2E2E2E2E2E2E2E2E2E2E2E2E2E2E22DE2E2E2E2E2E2E2E2E2E2E20F0F0F0F0F0F0F0F0F0F0F0F0F0F0FE2E2E2E2E2E2E2E2E2E2E2E2E2E2E2E2E2E2E2E2E2E2E2E2E2E2E2E2E2E2E2E2E2E2E2E2E2E2E2E2E2
310
E2E2E2E2E22DE2E2E2E2E2E2E2E2E2E2E2E2E2F5F5E2E2E2E2E2E2E2E2E2E2E2E2E2E2E2E2E22DE2E2E2E2E2E2E2E2E2E20F0F0F0F0F0F0F0F0F0F0F0FE2E2E2E2E2E2E2E2E2E2E2E2E2E2E2E2E2E2E2E2E2E2E2E2E2E2E2E2E2E2E2E2E2E2E2E2E2E2E2E2E2E2E2E2E2E2E2E2E2E2E22DE2E2E2E2E2E2E2E2E2E2E20FE2E2
310
E2E2E20F0F0FE2E2E2E2E20FE2E2E2E2E2E2E2E2E2E2E2E2E2E2E2E2E2E2E2E2E2E2E2E2E2E2E2E2E2E2E2E2E2E2E2E2E2E2E2E2E2E2E2E2E2E22DE2E2E2E2E2E2E2E2E2E2E2E2E2F5F5E2E2E2E2E2E2E2E2E2E2E2E2E2E2E2E2E22DE2E2E2E2E2E2E2E2E2E20FE2E2E20F0F0FE2E2E2E20FE2E2E2E2E2E2E2E2E2E2E2E2E2
310
E2E2E2E2E2E2E2E2E2E2E2E2E2E2E2E2E2E2E2E2E2E2E2E2E2E2E2E2E2E2E2E2E2E2E2E2E2E22DE2E2E2E2E2E2E2E2E2E2E20FE2E2E2E2E20F0F0FE2E2E2E2E20FE2E2E2E2E2E2E2E2E2E2E2E2E2E2E2E2E2E2E2E2E2E2E2E2E2E2E2E2E2E2E2E2E2E2E2E2E2E2E2E2E2E2E2E2E2E22DE2E2E2E2E2E2E2E2E2E2E2E2E2F5F5
310
E2E2E2E2E2E2E2E2E2E2E2E2E2E2E2E2E22DE2E2E2E2E2E2E2E2E2E20FE2E2E2E2E2E2E2E2E2E20FE2E2E2E2E2E2E2E2E2E2E2E2E2E2E2E2E2E2E2E2E2E2E2E2E2E2E2E2E2E2E2E2E2E2E2E2E2E2E2E2E2E2E2E2E2E2E2E2E2E2E22DE2E2E2E2E2E2E2E2E2E2E20FE20F0F0F0F0F0F0F0F0F0F0FE20FE2E2E2E2E2E2E2E2E2
310
E2E2E2E2E2E2E2E2E2E2E2E2E2E20F0F0F0F0F0F0F0F0F0F0F0FE2E2E2E2E2E2E2E2E2E2E22DE2E2E2E2E2E2E2E2E2E2E2E2E2F5F5E2E2E2E2E2E2E2E2E2E2E2E2E2E2E2E2E22DE2E2E2E2E2E2E2E2E2E20F0F0F0F0F0F0F0F0F0F0F0FE2E2E2E2E2E2E2E2E2E2E2E2E2E2E2E2E2E2E2E2E2E2E20F0F0F0F0F0F0F0F0F0FE2
310
E2E2E2E2E2E2E2E2E2E2E2E2E2E2E2E2E22DE2E2E2E2E2E2E2E2E2E2E20FE20F0FE2E20F0F0FE2E20F0FE20FE2E2E2E2E2E2E2E2E2E2E2E2E2E2E2E2E2E2E2E2E2E2E20F0FE2E2E20F0FE2E2E20F0FE2E2E2E2E2E2E2E2E2E2E22DE2E2E2E2E2E2E2E2E2E2E2E2E2F5F5E2E2E2E2E2E2E2E2E2E2E2E2E2E2E2E2E22DE2E2E2
310
E2E2E2E2E2E2E20F0FE2E20F0F0F0FE2E20F0FE2E2E2E2E2E2E2E2E2E2E2E2E2E2E2E2E2E2E2E2E2E2E20FE2E2E20F0FE2E2E20FE2E2E2E2E2E2E2E2E2E2E2E2E2E2E2E2E2E22DE2E2E2E2E2E2E2E2E2E2E20FE20FE2E20F0F0F0FE2E2E20FE20FE2E2E2E2E2E2E2E2E2E2E2E2E2E2E2E2E2E2E2E2E2E2E20FE2E2E2E20F0F
310
E2E2E2E20FE2E2E2E2E2E2E2E2E2E2E22DE2E2E2E2E2E2E2E2E2E2E2E2E2F5F5E2E2E2E2E2E2E2E2E2E2E2E2E2E2E2E2E22DE2E2E2E2E2E2E2E2E2E20F0FE2E20F0F0F0FE2E20F0FE2E2E2E2E2E2E2E2E2E2E2E2E2E2E2E2E2E2E2E2E2E2E20FE2E2E20F0FE2E2E20FE2E2E2E2E2E2E2E2E2E2E2E2E2E2E2E2E2E22DE2E2E2
310
E2E2E2E2E2E2E2E20FE20FE2E2E2E2E2E2E2E2E20FE20FE2E2E2E2E2E2E2E2E2E2E2E2E2E2E2E2E2E2E2E2E2E2E20FE2E2E2E2E2E2E2E2E2E20FE2E2E2E2E2E2E2E2E2E2E22DE2E2E2E2E2E2E2E2E2E2E2E2E2F5F5E2E2E2E2E2E2E2E2E2E2E2E2E2E2E2E2E22DE2E2E2E2E2E2E2E2E2E20F0FE2E2E2E2E2E2E2E20F0FE2E2
310
E20FE2E2E2E2E2E2E2E2E2E2E2E2E2E2E2E2E2E2E20FE2E2E2E2E2E2E2E20FE2E2E2E2E2E2E2E2E2E2E2E2E2E2E2E2E2E22DE2E2E2E2E2E2E2E2E2E2E20FE20FE2E2E2E2BEE2E2E2E20FE20FE2E2E2E2E2E2E2E2E2E2E2E2E2E2E2E2E2E2E2E2E2E2E20FE2E2E2E2E2BEE2E2E2E20FE2E2E2E2E2E2E2E2E2E2E22DE2E2E2E2
310
E2E2E2E2E2E2E2E2E2F5F5E2E2E2E2E2E2E2E2E2E2E2E2E2E2E2E2E22DE2E2E2E2E2E2E2E2E2E20F0FE2E2E2E2BEE2E2E20F0FE2E2E20FE2E2E2E2E2E2E2E2E2E2E2E2E2E2E2E2E2E2E20FE2E2E2E2BEE2E2E20FE2E2E2E2E2E2E2E2E2E2E2E2E2E2E2E2E2E22DE2E2E2E2E20F0F0F0F0F0F0F0F0FF5F5F5F5BEF5F5F5F50F
310
0F0F0F0F0F0F0F0F0F0F0F0F0FE2E2E2E2E2E2E2E2E2E2E2E20FF5F5F5F5F5F5F5F5F5F50F0F0F0F0F0FE2E2E2E2E2E22DE2E2E2E2E2E2E2E2E2E2E2E2E2F5F5E2E2E2E2E2E2E2E2E2E2E2E2E2E2E2E2E22DE2E2E2E2E2E20F0F0F0F0F0FF5F5F5F5F5F5F5F50FF50F0F0F0F0F0F0F0F0F0F0FE2E2E2E2E2E2E2E2E2E2E2E2
310
0FF5282828282828F50F0F0F0F0FE2E2E2E2E2E2E2E2E2E2E2E2E2E22DE2E2E2E2E20F0FE2E2E2E2F5E20FE2F5E2E2BEE2E2F5E20FE2F5E2E20F0FE2E20FE2E20FE2E2E2E2E2E2E2E2E2E2E2E2E2F5E22828282828282828E2F5E2E2E20F0FE2E2E2E2E2E22DE2E2E2E2E2E2E2E2E2E2E2E2E2F5F5E2E2E2F5E2E2E2E2E2E2
310
E2E2E2E2E2E2E22DE2E2E2E2E2E20F0FE2E2F50FE2F5E2E2BEE2F5E20FF5E2E20F0FE2E20F0FE2E20FE2E2E2E2E2E2E2E2E2E2E2E2F5E228E2E2BEE22828F5E2E20FE2E2E2E2E2E2E2E2E2E2E2E2E2E2E22DE2E2E2E2E2E20FE2E2E2E2F5E20FE2F5E2E2BEE2E2F5E20FE2F5E20F0FE2E2E20FE2E20FE2E2E2E2E2E2E2E2E2
310
E2E2E2E2F5E228E2E2E2BEE2E228E2F5E2E2E2E20FE2E2E2E2E2E22DE2E2E2E2E2E2E2E2E2F5E2E2E2F5F5E2E2E2F5E2E2E2E2E2E2E2E2E2E2E2E2E22DE2E2E2E2E2E2E20FE2E2F50FE2F5E2E2BEE2F5E20FF5E20F0F0FE2E20FE2E2E20FE2E2E2E2E2E2E2E2E2E2E2E2F5E228E2E2BEE22828F5E2E20FE2E2E2E2E2E2E2E2
310
E2E2E2E2E2E2E22DE2E2E2E2E2E20FE2E2E2E2F5E20FE2F5E2E2BEE2E2F5E20FE2F5E20F0F0FE2E20FE2E20FE2E2E2E2E2E2E2E2E2E2E2E2E2F5E228E2E2E2BEE2E228E2F5E2E2E2E20FE2E2E2E2E2E22DE2E2E2E2E2E2E2E2E2F5E2E2E2F5F5E2E2E2F5E2E2E2E2E2E2E2E2E2E2E2E2E22DE2E2E2E2E2E2E20FE2E2F50FF5
310
F5F5F5F5F5F5F50FF50F0F0F0FE2E20FE2E2E20FE2E2E2E2E2E2E2E2E2E2E2E2F5F5F5F5F5F5F5F5F5F5E2E20FE2E2E2E2E2E2E2E2E2E2E2E2E2E2E22DE2E2E2E2E2E20FE2E2E2E2F5F50FF5F5F5F5BEF5F5F5F50F0F0F0F0F0F0FE2E20FE2E20FE2E2E2E2E2E2E2E2E2E2E2E2E2F5F5F5F5F5F5F5F5F5F5F5F5E2E2E2E20F
310
E2E2E2E2E2E22DE2E2E2E2E2E2E2E2E2F5E2E2E2F5F5E2E2E2F5E2E2E2E2E2E2E2E2E2E2E2E2E22DE2E2E2E2E2E2E20FE2E2E2F5E2E2E2E2BEE2E2E2F5E2E2E2E20FE2E20FE2E2E20FE2E2E2E2E2E2E2E2E2E2E2E2F5E228E2E2BEE22828F5E2E20FE2E2E2E2E2E2E2E2E2E2E2E2E2E2E22DE2E2E2E2E2E20FE2E2E2E2E2E2
310
F5E2E2E2E2BEE2E2E2E2F5E2E2E2E2E2E2E2E20FE2E20FE2E2E2E2E2E2E2E2E2E2E2E2E2F5E228E2E2E2BEE2E228E2F5E2E2E2E20FE2E2E2E2E2E22DE2E2E2E2E2E2E2E2E2F5E2E2E2F5F5E2E2E2F5E2E2E2E2E2E2E2E2E2E2E2E2E22DE2E2E2E2E2E2E20FE2E2E2F5E2E2E2E2BEE2E2E2F5E2E2E2E20FE2E20FE2E2E20FE2
310
E2E2E2E2E2E2E2E2E2E2E2F5E20FE2E2BEE22828F50F0F0FE2E2E2E2E2E2E2E2E2E2E2E2E2E2E22DE2E2E2E2E2E20FE2E2E2E2E2E2F5E2E2E2E2BEE2E2E2E2F5E2E2E2E2E2E2E2E20FE2E20FE2E2E2E2E2E2E2E2E2E2E2E2E2F5E228E2E2E2BEE2E228E2F5E2E2E2E20FE2E2E2E2E2E22DE2E2E2E2E2E2E2E2E2F5E2E2E2F5
310
F5E2E2E2F5E2E2E2E2E2E2E2E2E2E2E2E2E22DE2E2E2E2E20F0F0FE2E2E2F5E2E2E2E2BEE2E2E2F5E2E2E2E20FE2E20FE2E2E20FE2E2E2E2E2E2E2E2E2E2E2E2F50F28E2E2BEE22828F50F0F0FE2E2E2E2E2E2E2E2E2E2E2E2E2E2E22DE2E2E2E2E20F0FE2E2E2E2E2E2F5E2E2E2E2BEE2E2E2E2F5E2E2E2E2E2E2E2E20FE2
310
E20FE2E2E2E2E2E2E2E2E2E2E2E2E2F5E228E2E2E2BEE2E228E2F5E2E20F0F0FE2E2E2E2E2E22DE2E2E2E2E2E2E2E2E2F5E2E2E2F5F5E2E2E2F5E2E2E2E2E2E2E2E2E2E2E2E2E22DE2E2E2E2E20F0F0FE2E2E2F5E2E2E2E2BEE2E2E2F5E2E2E2E2E2E2E20FE2E2E20FE2E2E2E2E2E2E2E2E2E2E2E20FE228E2E2BEE22828F5
310
0F0F0FE2E2E2E2E2E2E2E2E2E2E2E2E2E2E22DE2E2E2E20F0F0FE2E2E2E2E2E2F5E2E2E2E2BEE2E2E2E2F5E2E2E2E2E2E2E2E20FE2E20FE2E2E2E2E2E2E2E2E2E2E2E2E2F5E20FE2E2E2BEE2E228E2F5E2E20F0F0FE2E2E2E2E2E22DE2E2E2E2E2E2E2E2E2F5E2E2E2F5F5E2E2E2F5E2E2E2E2E2E2E2E2E2E2E2E2E22DE2E2
310
E2E2E20F0F0FE2E2E2F5E2E2E2E2BEE2E2E2F5E2E2E2E2E2E2E20FE2E2E20FE2E2E2E2E2E2E2E2E2E2E2E20FE228E2E2BEE22828F5E2E20FE2E2E2E2E2E2E2E2E2E2E2E2E2E2E22DE2E2E2E20F0F0FE2E2E2E2E2E2F5E2E2E2E2BEE2E2E2E2F5E2E2E2E2E2E2E2E20FE2E20FE2E2E2E2E2E2E2E2E2E2E2E2E2F50F28E2E2E2
310
BEE2E228E2F5E2E2E2E20FE2E2E2E2E2E22DE2E2E2E2E2E2E2E2E2F5E2E2E2F5F5E2E2E2F5E2E2E2E2E2E2E2E2E2E2E2E2E22DE2E2E2E2E2E2E20FE2E2E2F5E2E2E2E2BEE2E2E2F5E2E2E2E2E2E2E20FE2E2E20FE2E2E2E2E2E2E2E2E2E2E20FF5E228E2E2BEE22828F5E2E20FE2E2E2E2E2E2E2E2E2E2E2E2E2E2E22DE2E2
310
E2E20F0F0FE2E2E2E2E2E2F5E2E2E2E2BEE2E2E2E2F5E2E2E2E2E2E2E2E20FE2E20FE2E2E2E2E2E2E2E2E2E2E2E2E20FE228E2E2E2BEE2E228E2F5E2E2E2E20FE2E2E2E2E2E22DE2E2E2E2E2E2E2E2E2F5E2E2E2F5F5E2E2E2F5E2E2E2E2E2E2E2E2E2E2E2E2E22DE2E2E2E2E2E2E20FE2E2E2F5E2E2E2E2BEE2E2E2F5E2E2
310
E2E2E2E2E20FE2E2E20FE2E2E2E2E2E2E2E2E2E2E20FF5E228E2E2BEE22828F5E2E20FE2E2E2E2E2E2E2E2E2E2E2E2E2E2E22DE2E2E2E2E2E20FE2E2E2E2E2E2F5E2E2E2E2BEE2E2E2E2F5E2E2E2E2E2E2E2E20FE2E20FE2E2E2E2E2E2E2E2E2E2E2E2E20FE228E2E2E2BEE2E228E2F5E2E2E2E20FE2E2E2E2E2E22DE2E2E2
310
E2E2E2E2E2E2F5E2E2E2F5F5E2E2E2F5E2E2E2E2E2E2E2E2E2E2E2E2E22DE2E2E2E2E2E2E20FE2E2E2F5E2E2E2E2BEE2E2E2F5E2E2E2E2E2E20F0FE2E2E20FE2E20F0F0F0F0F0F0F0F0FE2F5E22828282828280F0F0F0F0F0FE2E2E2E2E2E2E2E2E2E2E2E2E2E22DE2E2E2E2E2E20FE2E2E2E2E2E2F5E2E2E2E2BEE2E2E2E2
310
F5E2E2E2E2E2E2E2E20FE2E20FE2E2E2E2E20F0F0F0F0F0F0F0FF5E228E2E2E2BEE2E228E2F5E2E2E2E20FE2E2E2E2E2E22DE2E2E2E2E2E2E2E2E2F5E2E2E2F5F5E2E2E2F5E2E2E2E2E2E2E2E2E2E2E2E2E22DE2E2E2E2E2E2E20FE2E2E2F5E2E2E2E2BEE2E2E2F5E2E2E2E2E2E20F0FE2E2E20FE2E2E20F0F0F0F0F0F0FE2
310
E2F5E228E2E2BEE228E2F5E2E2E2E2E2E2E2E2E2E2E2E2E2E2E2E2E2E22DE2E2E2E2E2E20FE2E2E2E2E2E2F5E2E2E2E2BEE2E2E2E2F5E2E2E2E2E2E2E2E20FE2E20FE2E2E2E2E20F0F0F0F0F0F0FE2F5E228E2E2E2BEE2E228E2F5E2E2E2E20FE2E2E2E2E2E22DE2E2E2E2E2E2E2E2E2F5E2E2E2F5F5E2E2E2F5E2E2E2E2E2
310
E2E2E2E2E2E2E2E22DE2E2E2E2E2E20F0FE2E2F5F5E2E2E2E2BEE2E2E2F5E2E2E2E2E2E20F0FE2E2E20FE2E2E2E2E2E2E2E2E2E2E2E2F5E2282828282828E2F5E2E2E2E2E2E2E2E2E2E2E2E2E2E2E2E2E2E22DE2E2E2E2E2E20FE2E2E2E2E2E2F5E2E2E2E2BEE2E2E2E2F5E2E2E2E2E2E20FE20FE2E20FE2E2E2E2E20F0F0F
310
0F0F0F0FE2F5E228E2E2E2BEE2E228E2F5E2E2E20F0FE2E2E2E2E2E22DE2E2E2E2E2E2E2E2E2F5E2E2E2F5F5E2E2E2F5E2E2E2E2E2E2E2E2E2E2E2E2E22DE2E2E2E2E2E20F0F0F0FBEF5BEBEE2E2BEE2E2E2F5E2E2E2E2E2E2E20FE2E2E20FE2E2E2E2E2E2E2E2E2E2E2E2F5E2BEBE282828BEE2F5E2E2E2E2E2E2E2E2E2E2
310
E2E2E2E2E2E2E2E22DE2E2E2E2E2E20FE2E2E2E2E2E2F5E2E2E2E2BEE2E2E2E2F5E2E2E2E2E2E20F0F0FE2E20FE2E2E2E2E2E2E2E2E2E2E2E2E2F5E2282828282828280F0F0F0F0F0F0F0FE2E2E2E2E2E22DE2E2E2E2E2E2E2E2E2F5E2E2E2F5F5E2E2E2F5E2E2E2E2E2E2E2E2E2E2E2E2E22DE2E2E2E2E2E2E2E2E2F5F5F5
310
E2E2F5F5F5F5E2E2F5E2E2E2E2E2E2E20FE20F0F0FE2E2E2E2E2E2E2E2E2E2E2E2F5E2E2E2282828E2E2F5E2E2E2E2E2E2E2E2E2E2E2E2E2E2E2E2E2E22DE2E2E2E2E20F0FE2E2E2E2E2E2F5E2E2E2E2BEE2E2E2E2F5E2E2E2E2E2E20F0F0FE2E20FE2E2E2E2E2E2E2E2E2E2E2E2E2F5E228E2E2E2BEE2E228E2F5E2E2E2E2
310
E2E2E2E2E2E2E22DE2E2E2E2E2E2E2E2E2F5E2E2E2F5F5E2E2E2F5E2E2E2E2E2E2E2E2E2E2E2E2E22DE2E2E2E2E2E2E2E2E2E2E2F5E2F5F5E2BEF5F5E2F5E2E2E2E2E2E2E20FE20F0F0FE2E2E2E2E2E2E2E2E2E2E2E2E2F5E2E22828E2E2E2F5E2E2E2E2E2E2E2E2E2E2E2E2E2E2E2E2E2E22DE2E2E2E2E2E20FE2E2E2E2F5
310
F5F5E2E2E2E2BEE2E2E2E2F5E2E2E2E2E2E2E2E20FE2E20FE2E2E2E2E2E2E2E2E2E2E2E2E2F5E22828282828282828E2F5E2E2E2E2E2E2E2E2E2E2E22DE2E2E2E2E2E2E2E2E2F5E2E2E2F5F5E2E2E2F5E2E2E2E2E2E2E2E2E2E2E2E2E22DE2E2E2E2E2E2E2E2E2E2E2F5F5F5F5F5F5F5F5F5F5E2E2E2E2E2E2E20FE2E20F0F
310
E2E2E2E2E2E2E2E2E2E2E2E2E2E2F5F5F5F5F5F5F5E2E2E2E2E2E2E2E2E2E2E2E2E2E2E2E2E2E2E22DE2E2E2E2E20F0F0F0F0F0FF5F5F5BEE2E2E2BEE2E2E2E2F5E2E2E2E2E2E2E2E20FE2E20FE2E2E2E2E2E2E2E2E2E2E2E2E2F5E2E2BE28282828BEE2E2F5E2E2E2E2E2E2E2E2E2E2E22DE2E2E2E2E2E2E2E2E2F5E2E2E2
310
F5F5E2E2E2F5E2E2E2E2E2E2E2E2E2E2E2E2E22DE2E2E2E2E2E2E2E2E2E2E2F5F5E2E2E2BEE2E2F5F5E2E2E2E2E2E2E20FE2E2E20FE2E2E2E2E2E2E2E2E2E2E2E2E2E2F5E22828E2E2F5E2E2E2E2E2E2E2E2E2E2E2E2E2E2E2E2E2E2E22DE2E2E2E2E2E2E2E2E2E2E2E2F5F5E2E2E2E2BEE2E2E2E2F5E2E2E2E2E2E2E2E20F
310
0F0F0FE2E2E2E2E2E2E2E2E2E2E2E2E2F5E2E2E2E22828E2E2E2E2F5E2E2E2E2E2E2E2E2E2E2E22DE2E2E2E2E2E2E2E2E2F5E2E2E2F5F5E2E2E2E2E2E2E2E2E2E2E2E2E2E2E2E2E22DE2E2E2E2E2E2E2E2E2E2F5F5F5E2E2E2BEE2E2F5F5F5E2E2E2E2E2E20FE2E2E20FE2E2E2E2E2E2E2E2E2E2E2E2E2E2F5E22828E2E2F5
310
E2E2E2E2E2E2E2E2E2E2E2E2E2E2E2E2E2E2E22DE2E2E2E2E2E2E2E2E2E2E2E2E2F5E2E2F5F5BEF5F5E2E2F5E2E2E2E2E2E2E2E20F0F0F0FE2E2E2E2E2E2E2E2E2E2E2E2E2F5E2E2E2E22828E2E2E2E2F5E2E2E2E2E2E2E2E2E2E2E22DE2E2E2E2E2E2E2E2E2E2E2E2E2F5F5E2E2E2E2E2E2E2E2E2E2E2E2E2E2E2E2E22DE2
310
E2E2E2E2E2E2E2E2E2F5F5E2F5F5F5F5F5F5E2E2F5E2E2E2E2E2E20FE2E2E20FE2E2E2E2E2E2E2E2E2E2E2E2E2F5F5F5F5F5F5F5F5E2E2E2E2E2E2E2E2E2E2E2E2E2E2E2E2E2E2E22DE2E2E2E2E2E2E2E2E2E2E2E2E2F5E2F5E2E2BEE2E2F5E2F5E2E2E2E2E2E2E2E20FE2E20FE2E2E2E2E2E2E2E2E2E2E2E2E2E2F5E2E2E2
310
2828E2E2E2F5E2E2E2E2E2E2E2E2E2E2E2E22DE2E2E2E2E2E2E2E2E2E2E2E2E2F5F5E2E2E2E2E2E2E2E2E2E2E2E2E2E2E2E2E22DE2E2E2E2E2E2E2E2E2F5F5E2F5F5F5F5F5F5F5F5E2F5F5E2E2E2E2E20FE2E2E20FE2E2E2E2E2E2E2E2E20F0F0F0F0FF52828282828F50F0F0F0F0F0FE2E2E2E2E2E2E2E2E2E2E2E2E22DE2
310
E2E2E2E2E2E2E2E2E2E2E2E2F5F5F5F5F5BEF5F5F5F5F5E2E2E2E2E2E2E2E20FE2E20FE2E2E2E2E2E2E2E2E2E2E2E2E2E2E2F5F5F5F5F5F5F5F5E2E2E2E2E2E2E2E2E2E2E2E2E22DE2E2E2E2E2E2E2E2E2E2E2E2E2F5F5E2E2E2E2E2E2E2E2E2E2E2E2E2E2E2E2E22DE2E2E2E2E2E2E2E2E2F5E2F5F5F5F5E2BEF5F5F5F5E2
310
F5F5E2E2E2E20FE2E2E20FE2E2E2E2E2E2E2E2E20F0FE2E2F5F5E2E2E2E2E2F5F5E2E20F0F0FE2E2E2E2E2E2E2E2E2E2E2E2E22DE2E2E2E2E2E2E2E2E2E2E2E2E2F5E2E2E2E2BEE2E2E2E2F5F5E2E2E2E2E2E2E20FE2E20FE2E2E2E2E2E2E2E2E2E2E2E2E2E2E2F5E2E22828E2E2F5E2E2E2E2E2E2E2E2E2E2E2E2E22DE2E2
310
E2E2E2E2E2E2E2E2E2E2E2F5F5E2E2E2E2E2E2E2E2E2E2E2E2E2E2E2E2E22DE2E2E2E2E2E2E2E2F5F5E2F5F5F5E2E2BEE2F5F5F5E2F5F5E2E2E2E20F0FE2E20FE2E2E2E2E2E2E2E20F0FE2E2E2F5F5E2E2E2E2E2F5F5E2E20F0F0FE2E2E2E2E2E2E2E2E2E2E2E2E22DE2E2E2E2E2E2E2E2E2E2E2E2F5F5E2E2E2F5BEF5E2E2
310
E2F5F5E2E2E2E2E2E2E20FE2E20FE2E2E2E2E2E2E2E2E2E2E2E2E2E2E2F5E2E22828E2E2F5E2E2E2E2E2E2E2E2E2E2E2E2E22DE2E2E2E2E2E2E2E2E2E2E2E2E2F5F5E2E2E2E2E2E2E2E2E2E2E2E2E2E2E2E2E22DE2E2E2E2E2E2E2E20FF5BEF5F5F5BEBEBEBEF5F5F5BEF50F0F0F0F0F0F0FE2E20FE2E2E2E2E2E2E2E20F0F
310
E2BEBEF5F5BEBEBEBEBEF5F5BEE20F0F0FE2E2E2E2E2E2E2E2E2E2E2E2E22DE2E2E2E2E2E2E2E2E2E2E2F5F5E2E2F5F5F5BEF5F5F5E2E2F5F5E2E2E2E2E2E20FE2E20FE2E2E2E2E2E2E2E2E2E2E2E2E2E2F5F5E2E22828E2E2F50F0F0F0F0F0F0FE2E2E2E2E2E22DE2E2E2E2E2E2E2E2E2E2E2E2E2F5F5E2E2E2E2E2E2E2E2
310
E2E2E2E2E2E2E2E2E22DE2E2E2E2E2E2E2E20FF5E2F5F5F5E2E2BEE2F5F5F5E2F50FE2E2E2E2E2E2E2E20FE2E2E2E2E2E2E2E20F0FE2E2E2F5F5E2E2E2E2E2F5F5E2E20F0F0FE2E2E2E2E2E2E2E2E2E2E2E2E22DE2E2E2E2E2E2E2E2E2E2E2F5F5E2F5F5F5F5BEF5F5F5F5E2F5F5E2E2E2E2E2E20FE2E20FE2E2E2E2E2E2E2
310
E2E2E20F0F0F0F0F2828282828282828F5E2E2E2E2E20FE2E2E2E2E2E22DE2E2E2E2E2E2E2E2E2E2E2E2E2F5F5E2E2E2E2E2E2E2E2E2E2E2E2E2E2E2E2E22DE2E2E2E2E2E2E2E20FF5E2F5F5F5E2E2BEE2F5F5F5E2F50FE2E2E2E2E2E2E2E20FE2E2E2E2E2E2E2E2E20F0FE2E2F5F5E2E2E2E2E2F5F5E2E20F0F0FE2E2E2E2
310
E2E2E2E2E2E2E2E2E22DE2E2E2E2E2E2E2E2E2E2F5F5E2F5F5F5F5E2BEE2F5F5F5F5E2F5F5E2E2E2E2E20FE2E20FE2E2E2E2E2E2E2E2E2E20F0FE2E2F5F5F5F5F5F5F5F5F5F5E2E2E20F0F0FE2E2E2E2E2E22DE2E2E2E2E2E2E2E2E2E2E2E2E2F5F5E2E2E2E2E2E2E2E2E2E2E2E2E2E2E2E2E22DE2E2E2E2E2E2E2E20FF5F5
310
E2F5F5F5F5F5F5F5F5E2F5F50FE2E2E2E2E2E2E2E20FE2E2E2E2E2E2E2E2E20F0F0F0F0FF52828282828F5F5E2E20F0F0FE2E2E2E2E2E2E2E2E2E2E2E2E22DE2E2E2E2E2E2E2E2E2F5F5E2E2F5F5F5E2E2BEE2E2F5F5F5E2E2F5F5E2E2E2E20FE2E20FE2E2E2E2E2E2E2E2E2E20FE2E2E2F5F5E2E2E2BEE2E2F5F5E2E2E20F
310
0F0FE2E2E2E2E2E22DE2E2E2E2E2E2E2E2E2E2E2E2E2F5F5E2E2E2E2E2E2E2E2E2E2E2E2E2E2E2E2E22DE2E2E2E2E2E2E2E20FF5F5E2E2F5F5F5F5F5F5E2E2F5F50FE2E2E2E2E2E2E2E20FE2E2E2E2E2E2E2E2E2E2E2E2E20FF5E2E2E2E2E2F50F0F0F0F0F0FE2E2E2E2E2E2E2E2E2E2E2E2E22DE2E2E2E2E2E2E2E2E2F5F5
310
E2F5F5F5E2E2E2BEE2E2E2F5F5F5E2F5F5E2E2E2E20FE2E20FE2E2E2E2E2E2E2E2E20F0FE2E2E2F5F5E2E2E2E2E2E2F5F5E2E2E20F0F0FE2E2E2E2E2E22DE2E2E2E2E2E2E2E2E2E2E2E2E2F5F5E2E2E2F5E2E2E2E2E2E2E2E2E2E2E2E2E22DE2E2E2E2E2E2E2E20FE2F5F5E2E2E2F5F5E2E2E2F5F5E20FE2E2E2E2E2E2E2E2
310
0FE2E2E2E2E2E2E2E2E2E2E2E2E20FF5E2E2E2E2E2F50FE2E2E2E2E2E2E2E2E2E2E2E2E2E2E2E2E2E22DE2E2E2E2E2E2E2E2BE0FBEBEBEBEBEBEBEBEBEBEBEBEBEBEBEBEBE0F0F0F0F0F0FE2E20FE2E2E2E2E2E2E2E2E20F0FE2BEBEF5F5BEBEBEBEBEBEF5F5BEBEE20F0F0FE2E2E2E2E2E22DE2E2E2E2E2E2E2E2E2F5E2E2
310
E2F5F5E2E2E2F5E2E2E2E2E2E2E2E2E2E2E2E2E22DE2E2E2E2E2E2E2E20FE2E2F5F5F5F5E2BEF5F5F5F5E2E20FE2E2E2E2E2E2E2E20FE2E2E2E2E2E2E2E2E2E2E2E2E20FF5E2E2E2E2E2F50FE2E2E2E2E2E2E2E2E2E2E2E2E2E2E2E2E2E22DE2E2E2E2E2E2E2E2E20FF5E2F5F5F5E2E2E2BEE2E2E2F5F5F5E2F50FE2E2E2E2
310
E2E2E20FE2E2E2E2E2E2E2E2E20F0FE2E2E2F5F5E2E2E2E2E2E2F5F5E2E2E20F0F0FE2E2E2E2E2E22DE2E2E2E2E2E2E2E2E2F5E2E2E2F5F5E2E2E2F5E2E2E2E2E2E2E2E2E2E2E2E2E22DE2E2E2E2E2E2E2E20FE2E2E2F5F5F5F5F5F5F5F50F0F0F0F0F0F0F0F0F0F0F0F0FE2E2E2E2E2E2E2E2E2E2E2E2E20F0FF5F5F5F5F5
310
0F0FE2E2E2E2E2E2E2E2E2E2E2E2E2E2E2E2E2E22DE2E2E2E2E2E2E2E2E20FF5E2E2F5F5F5E2E2BEE2E2F5F5F5E2E2F50FE2E2E2E2E2E2E20FE2E2E2E2E2E2E2E2E2E20FE2E2E2F5F5E2E2E2E2E2E2F5F5E2E2E20F0F0FE2E2E2E2E2E22DE2E2E2E2E2E2E2E2E2F5E2E2E2F5F5E2E2E2F5E2E2E2E2E2E2E2E2E2E2E2E2E22D
310
E2E2E2E2E2E2E2E20FE2E2E2E2E2E2E2BEE2E2E2E2E2E20FE2E2E2E2E2E2E2E2E2E2E2E2E2E2E2E2E2E2E2E2E2E20F0FE2E2E2E2E20F0FE2E2E2E2E2E2E2E2E2E2E2E2E2E2E2E2E2E22DE2E2E2E2E2E2E2E2E20FF5F5E2F5F5F5F5E2BEE2F5F5F5F5E2F5F50FE2E2E2E2E2E2E20FE2E2E2E2E2E2E2E2E2E20F0FE2E2F5F5E2
310
E2E2E2E2E2F5F5E2E2E20F0F0FE2E2E2E2E2E22DE2E2E2E2E2E2E2E2E2F5E2E2E2F5F5E2E2E2F5E2E2E2E2E2E2E2E2E2E2E2E2E22DE2E2E2E2E2E2E2E20FE2E2E2E2E2E2E2E2E2E2E2E2E2E20FE2E2E2E2E2E2E2E2E2E2E2E2E2E2E2E2E2E2E2E2E2E20F0FE2E2E2E2E20F0FE2E2E2E2E2E2E2E2E2E2E2E2E2E2E2E2E2E22D
310
E2E2E2E2E2E2E2E2E20FF5F5E2E2F5F5F5F5BEF5F5F5F5E2E2F5F50FE2E2E2E2E2E2E20FE2E2E2E2E2E2E2E2E2E20F0F0F0F0FF5282828282828F5F5E2E2E2E2E20FE2E2E2E2E2E22DE2E2E2E2E2E2E2E2E2F5E2E2E2F5F5E2E2E2F5E2E2E2E2E2E2E2E2E2E2E2E2E22DE2E2E2E2E2E2E2E20FE2E2E2E2E2E2E2E2E2E2E2E2
310
E2E20FE2E2E2E2E2E2E2E2E2E2E2E2E2E2E2E2E2E2E2E2E2E20F0FE2E2E2E2E20F0FE2E2E2E2E2E2E2E2E2E2E2E2E2E2E2E2E2E22DE2E2E2E2E2E2E2E2E20FE2F5F5E2E2F5F5F5BEF5F5F5E2E2F5F5E20FE2E2E2E2E2E2E20FE2E2E2E2E2E2E2E2E2E2E2E2E2E20FF5E2E2E2E2E2E2F50F0F0F0F0F0F0FE2E2E2E2E2E22DE2
310
E2E2E2E2E2E2E2E2F5E2E2E2F5F5E2E2E2F5E2E2E2E2E2E2E2E2E2E2E2E2E22DE2E2E2E2E2E2E2E20FE2E2E2E2E2E2E2E2E2E2E2E2E2E20FE2E2E2E2E2E2E2E2E2E2E2E2E2E2E2E2E2E2E2E2E2E20F0FE2E2E2E2E20F0FE2E2E2E2E2E2E2E2E2E2E2E2E2E2E2E2E2E22DE2E2E2E2E2E2E2E2E20FE2F5F5F5E2E2E2F5BEF5E2
310
E2E2F5F5F5E20FE2E2E2E2E2E2E20FE2E2E2E2E2E2E2E2E2E2E2E2E2E20FF5E2E2E2E2E2E2F50FE2E2E2E2E2E2E2E2E2E2E2E22DE2E2E2E2E2E2E2E2E2F5E2E2E2F5F5E2E2E2F5E2E2E2E2E2E2E2E2E2E2E2E2E22DE2E2E2E2E2E2E2E20F0F0F0F0F0F0F0F0F0F0F0F0F0F0F0FE2E2E2E2E2E2E2E2E2E2E2E2E2E2E2E2E2E2
310
E2E2E2E20F0F0F0F0F0F0F0F0FE2E2E2E2E2E2E2E2E2E2E2E2E2E2E2E2E2E22DE2E2E2E2E2E2E2E2E20FE2E2F5F5F5F5E2E2BEE2E2F5F5F5F5E2E20FE2E2E2E2E2E2E20FE2E2E2E2E2E2E2E2E2E2E2E2E2E20FF5E2E2E2E2E2E2F50FE2E2E2E2E2E2E2E2E2E2E2E22DE2E2E2E2E2E2E2E2E2F5E2E2E2F5F5E2E2E2F5E2E2E2
310
E2E2E2E2E2E2E2E2E2E22DE2E2E2E2E2E2E2E2E2E2E2E2E2E2E20F0FE2E2E2E2E2E2E2E2E2E2E2E2E2E2E2E2E2E2E2E2E2E2E2E2E2E2E2E2E20FE2E20F0FE2E2E20FE2E2E2E2E2E2E2E2E2E2E2E2E2E2E2E2E2E22DE2E2E2E2E2E2E2E2E20FE2E2E2E2F5F5F5F5BEF5F5F5F5E2E2E2E20FE2E2E2E2E2E2E20FE2E2E2E2E2E2
310
E2E2E2E2E2E2E2E20F0FF5E2E2E2E2F50F0FE2E2E2E2E2E2E2E2E2E2E2E22DE2E2E2E2E2E2E2E2E2F5E2E2E2F5F5E2E2E2F5E2E2E2E2E2E2E2E2E2E2E2E2E22DE2E2E2E2E2E2E2E2E2E2E2E2E2E2E20F0FE2E2E2E2E2E2E2E2E2E2E2E2E2E2E2E2E2E2E2E2E2E2E2E2E2E2E2E2E20FE2E20F0FE2E2E20FE2E2E2E2E2E2E2E2
310
E2E2E2E2E2E2E2E2E2E22DE2E2E2E2E2E2E2E2E20FE2E2E2E2E2E2F5F5BE0F0F0F0F0F0F0F0F0F0F0F0F0F0F0F0F0F0FE2E2E2E2E2E2E2E2E2E2E2E2E20F0FE2F5F5F5F5F50F0FE2E2E2E2E2E2E2E2E2E2E2E22DE2E2E2E2E2E2E2E2E2F5E2E2E2F5F5E2E2E2F5E2E2E2E2E2E2E2E2E2E2E2E2E22DE2E2E2E2E2E2E2E2E2E2
310
E2E2E2E2E2E2E2E2E2E2E2E2E2E2E2E2E2E2E2E2E2E2E2E2E2E2E2E2E2E2E2E2E2E2E2E20F0F0F0F0F0F0F0F0FE2E2E2E2E2E2E2E2E2E2E2E2E2E2E2E2E2E22DE2E2E2E2E2E2E2E2E20FE2E2E2E2E2E2E2E2E2E2E2E2E2E2E2E2E20FE2E2E2E2E2E2E2E2E2E2E2E2E2E2E2E2E2E2E2E2E2E20F0FE2E2E2E2E2E20F0FE2E2E2
310
E2E2E2E2E2E2E2E2E22DE2E2E2E2E2E2E2E2E2F5E2E2E2F5F5E2E2E2F5E2E2E2E2E2E2E2E2E2E2E2E2E22DE2E2E2E2E2E2E2E2E2E2E2E2E2E2E2E2E2E2E2E2E2E2E2E2E2E2E2E2E2E2E2E2E2E2E2E2E2E2E2E2E2E2E2E2E2E20FE2E20F0FE2E2E20FE2E2E2E2E2E2E2E2E2E2E2E2E2E2E2E2E2E22DE2E2E2E2E2E2E2E2E20F
310
E2E2E2E2E2E2E2E2E2E2E2E2E2E2E2E2E20FE2E2E2E2E2E2E2E2E2E2E2E2E2E2E2E2E2E2E2E2E2E20F0FE2E2E2E2E2E20F0FE2E2E2E2E2E2E2E2E2E2E2E22DE2E2E2E2E2E2E2E2E2F5E2E2E2F5F5E2E2E2F5E2E2E2E2E2E2E2E2E2E2E2E2E22DE2E2E2E2E2E2E2E2E2E2E2E2E2E2E2E2E2E2E2E2E2E2E2E2E2E2E2E2E2E2E2
310
E2E2E2E2E2E2E2E2E2E2E2E2E2E2E2E2E2E20F0FE2E2E2E2E2E2E2E2E2E2E2E2E2E2E2E2E2E2E2E2E2E22DE2E2E2E2E2E2E2E2E20FE2E2E2E2E2E2E2E2E2E2E2E2E2E2E2E2E20FE2E2E2E2E2E2E2E2E2E2E2E2E2E2E2E2E2E2E2E2E2E20F0FE2E2E2E2E2E20F0FE2E2E2E2E2E2E2E2E2E2E2E22DE2E2E2E2E2E2E2E2E2F5E2
310
E2E2F5F5E2E2E2F5E2E2E2E2E2E2E2E2E2E2E2E2E22DE2E2E2E2E2E2E2E2E2E2E2E2E2E2E2E2E2E2E2E2E2E2E2E2E2E2E2E2E2E2E2E2E2E2E2E2E2E2E2E2E2E2E2E2E2E2E2E2E2E2E2E2E2E2E2E2E2E2E2E2E2E2E2E2E2E2E2E2E2E2E2E2E22DE2E2E2E2E2E2E2E2E20F0F0F0F0F0F0F0F0F0F0F0F0F0F0F0F0F0F0FE2E2E2
310
E2E2E2E2E2E2E2E2E2E2E2E2E2E2E2E2E2E2E20F0F0F0F0F0F0F0F0F0FE2E2E2E2E2E2E2E2E2E2E2E22DE2E2E2E2E2E2E2E2E2F5E2E2E2F5F5E2E2E2F5E2E2E2E2E2E2E2E2E2E2E2E2E22DE2E2E2E2E2E2E2E2E2E2E2E2E2E2E2E2E2E2E2E2E2E2E2E2E2E2E2E2E2E2E2E2E2E2E2E2E2E2E2E2E2E2E2E2E2E2E2E2E2E2E2E2
310
E2E2E2E2E2E2E2E2E2E2E2E2E2E2E2E2E2E2E2E2E22DE2E2E2E2E2E2E2E2E20FE2E2E2E2E2E2E20F0F0FE2E2E2E2E2E2E20FE2E2E2E2E2E2E2E2E2E2E2E2E2E2E2E2E2E2E2E2E2E20F0FE2E20F0FE2E20F0FE2E2E2E2E2E2E2E2E2E2E2E22DE2E2E2E2E2E2E2E2E2F5E2E2E2F5F5E2E2E2F5E2E2E2E2E2E2E2E2E2E2E2E2E2
310
2DE2E2E2E2E2E2E2E2E2E2E2E2E2E2E2E2E2E2E2E2E2E2E2E2E2E2E2E2E2E2E2E2E2E2E2E2E2E2E2E2E2E2E2E2E2E2E2E2E2E2E2E2E2E2E2E2E2E2E2E2E2E2E2E2E2E2E2E2E2E2E2E2E22DE2E2E2E2E2E2E2E2E2E2E2E2E2E2E2E2E20F0F0FE2E2E2E2E2E2E2E2E2E2E2E2E2E2E2E2E2E2E2E2E2E2E2E2E2E2E2E2E2E20FE2
310
E2E20F0FE2E2E20FE2E2E2E2E2E2E2E2E2E2E2E22DE2E2E2E2E2E2E2E2E2F5E2E2E2F5F5E2E2E2F5E2E2E2E2E2E2E2E2E2E2E2E2E22DE2E2E2E2E2E2E2E2E2E2E2E2E2E2E2E2E2E2E2E2E2E2E2E2E2E2E2E2E2E2E2E2E2E2E2E2E2E2E2E2E2E2E2E2E2E2E2E2E2E2E2E2E2E2E2E2E2E2E2E2E2E2E2E2E2E2E2E2E2E2E2E2E2
310
2DE2E2E2E2E2E2E2E2E2E2E2E2E2E2E2E2E2E2E2E2E2E2E2E2E2E2E2E2E2E2E2E2E2E2E2E2E2E2E2E2E2E2E2E2E2E2E2E2E2E20F0FE2E2E2E2E2E20F0FE2E2E2E2E2E2E2E2E2E2E2E22DE2E2E2E2E2E2E2E2E2F5E2E2E2F5F5E2E2E2E2E2E2E2E2E2E2E2E2E2E2E2E2E22DE2E2E2E2E2E2E2E2E2E2E2E2E2E2E2E2E2E2E2E2
310
E2E2E2E2E2E2E2E2E2E2E2E2E2E2E2E2E2E2E2E2E2E2E2E2E2E2E2E2E2E2E2E2E2E2E2E2E2E2E2E2E2E2E2E2E2E2E2E2E2E2E2E2E22DE2E2E2E2E2E2E2E2E2E2E2E2E2E2E2E2E2E2E2E2E2E2E2E2E2E2E2E2E2E2E2E2E2E2E2E2E2E2E2E2E2E2E2E2E2E2E2E2E2E20F0F0F0F0F0F0F0F0F0FE2E2E2E2E2E2E2E2E2E2E2E22D
310
E2E2E2E2E2E2E2E2E2E2E2E2E2F5F5E2E2E2E2E2E2E2E2E2E2E2E2E2E2E2E2E22DE2E2E2E2E2E2E2E2E2E2E2E2E2E2E2E2E2E2E2E2E2E2E2E2E2E2E2E2E2E2E2E2E2E2E2E2E2E2E2E2E2E2E2E2E2E2E2E2E2E2E2E2E2E2E2E2E2E2E2E2E2E2E2E2E2E2E2E2E2E2E2E2E22DE2E2E2E2E2E2E2E2E2E2E2E2E2E2E2E2E2E2E2E2
310
E2E2E2E2E2E2E2E2E2E2E2E2E2E2E2E2E2E2E2E2E2E2E2E2E2E2E2E2E2E2E2E2E2E20F0FE2E2E2E2E2E2E2E2E2E2E2E2E2E2E2E22DE2E2E2E2E2E2E2E2E2E2E2E2E2F5F5E2E2E2E2E2E2E2E2E2E2E2E2E2E2E2E2E22DE2E2E2E2E2E2E2F5E2F5F5F5E2F5F5F5F5F5E2E2E2E2E2E2E2E2E2E2E2E2E2E2E2E2E2E2E2E2E2E2E2
310
E2E2E2E2E2E2E2E2E2E2E2E2E2E2E2E2E2E2E2E2E2E2E2E2E2E2E2E2E2E2E2E22DE2E2E2E2F5F5F5F5E2F5F5F5E2E2E2E2E2E2E2E2E2E2E2E2E2E2E2E2E2E2E2E2E2E2E2E2E2E2E2E2E2E2E2E2E2E2E2E2E2E2E2E2E2E2E2E2E2E2E2E2E2E2E2E2E2E2E2E2E2E2E2E22DE2E2E2E2E2E2E2E2E2E2E2E2E2F5F5E2E2E2E2E2E2
310
E2E2E2E2E2E2E2E2E2E2E22DE2E2E2E2E2E2E2F5F5F5F5F5E2F5F5F5F5F5E2E2E2E2E2E2E2E2E2E2E2E2E2E2E2E2E2E2E2E2E2E2E2E2E2E2E2E2E2E2E2E2E2E2E2E2E2E2E2E2E2E2E2E2E2E2E2E2E2E2E2E2E2E2E22DE2E2E2E2F5F5F5F5E2F5F5F5E2E2E2E2E2E2E2E2E2E2E2E2E2E2E2E2E2E2E2E2E2E2E2E2E2E2E2E2E2
310
E2E2E2E2E2E2E2E2E2E2E2E2E2E2E2E2E2E2E2E2E2E2E2E2E2E2E2E2E2E2E22DE2E2E2E2E2E2E2E2E2E2E2E2E2F5F5E2E2E2E2E2E2E2E2E2E2E2E2E2E2E2E2E22DE2E2E2E2E2E2E2F5F5F5F5F5E2F5F5F5F5F5E2E2E2E2E2E2E2E2E2E2E2E2E2E2E2E2E2E2E2E2E2E2E2E2E2E2E2E2E2E2E2E2E2E2E2E2E2E2E2E2E2E2E2E2
310
E2E2E2E2E2E2E2E2E2E2E22DE2E2E2E2F5F5F5F5E2F5F5F5E2E2E2E2E2E2E2E2E2E2E2E2E2E2E2E2E2E2E2E2E2E2E2E2E2E2E2E2E2E2E2E2E2E2E2E2E2E2E2E2E2E2E2E2E2E2E2E2E2E2E2E2E2E2E2E2E2E2E2E22DE2E2E2E2E2E2E2E2E2E2E2E2E2F5F5E2E2E2E2E2E2E2E2E2E2E2E2E2E2E2E2E22DE2E2E2E2E2E2E2E2E2
310
E2E2E2E2E2E2E2E2E2E2E2E2E2E2E2E2E2E2E2E2E2E2E2E2E2E2E2E2E2E2E2E2E2E2E2E2E2E2E2E2E2E2E2E2E2E2E2E2E2E2E2E2E2E2E2E2E2E2E2E2E2E2E2E22DE2E2E2E2E2E2E2E2E2E2E2E2E2E2E2E2E2E2E2E2E2E2E2E2E2E2E2E2E2E2E2E2E2E2E2E2E2E2E2E2E2E2E2E2E2E2E2E2E2E2E2E2E2E2E2E2E2E2E2E2E2E2
310
E2E2E2E2E2E2E2E2E2E22DE2E2E2E2E2E2E2E2E2E2E2E2E2F5F5E2E2E2E2E2E2E2E2E2E2E2E2E2E2E2E2E22DE2E2E2E2E2E2E2E2E2E2E2E2E2E2E2E2E2E2E2E2E2E2E2E2E2E2E2E2E2E2E2E2E2E2E2E2E2E2E2E2E2E2E2E2E2E2E2E2E2E2E2E2E2E2E2E2E2E2E2E2E2E2E2E2E2E2E2E2E2E2E2E2E22DE2E2E2E2E2E2E2E2E2
310
E2E2E2E2E2E2E2E2E2E2E2E2E2E2E2E2E2E2E2E2E2E2E2E2E2E2E2E2E2E2E2E2E2E2E2E2E2E2E2E2E2E2E2E2E2E2E2E2E2E2E2E2E2E2E2E2E2E2E2E2E2E2E22DE2E2E2E2E2E2E2E2E2E2E2E2E2F5F5E2E2E2E2E2E2E2E2E2E2E2E2E2E2E2E2E22DE2E2E2E2E2E2E2E2E2E2E2E2E2E2E2E2E2E2E2E2E2E2E2E2E2E2E2E2E2E2
310
E2E2E2E2E2E2E2E2E2E2E2E2E2E2E2E2E2E2E2E2E2E2E2E2E2E2E2E2E2E2E2E2E2E2E2E2E2E2E2E2E2E2E22DE2E2E2E2E2E2E2E2E2E2E2E2E2E2E2E2E2E2E2E2E2E2E2E2E2E2E2E2E2E2E2E2E2E2E2E2E2E2E2E2E2E2E2E2E2E2E2E2E2E2E2E2E2E2E2E2E2E2E2E2E2E2E2E2E2E2E2E2E2E2E2E22DE2E2E2E2E2E2E2E2E2E2
310
E2E2E2F5F5E2E2E2E2E2E2E2E2E2E2E2E2E2E2E2E2E22DE2E2E2E2E2E2E2E2E2E2E2E2E2E2E2E2E2E2E2E2E2E2E2E2E2E2E2E2E2E2E2E2E2E2E2E2E2E2E2E2E2E2E2E2E2E2E2E2E2E2E2E2E2E2E2E2E2E2E2E2E2E2E2E2E2E2E2E2E2E2E2E2E22DE2E2E2E2E2E2E2E2E2E2E2E2E2E2E2E2E2E2E2E2E2E2E2E2E2E2E2E2E2E2
310
E2E2E2E2E2E2E2E2E2E2E2E2E2E2E2E2E2E2E2E2E2E2E2E2E2E2E2E2E2E2E2E2E2E2E2E2E2E2E2E2E2E22DE2E2E2E2E2E2E2E2E2E2E2E2E2F5F5E2E2E2E2E2E2E2E2E2E2E2E2E2E2E2E2E22DE2E2E2E2E2E2E2E2E2E2E2E2E2E2E2E2E2E2E2E2E2E2E2E2E2E2E2E2E2E2E2E2E2E2E2E2E2E2E2E2E2E2E2E2E2E2E2E2E2E2E2
310
E2E2E2E2E2E2E2E2E2E2E2E2E2E2E2E2E2E2E2E2E2E22DE2E2E2E2E2E2E2E2E2E2E2E2E2E2E2E2E2E2E2E2E2E2E2E2E2E2E2E2E2E2E2E2E2E2E2E2E2E2E2E2E2E2E2E2E2E2E2E2E2E2E2E2E2E2E2E2E2E2E2E2E2E2E2E2E2E2E2E2E2E2E2E22DE2E2E2E2E2E2E2E2E2E2E2E2E2F5F5E2E2E2F5E2E2E2E2E2E2E2E2E2E2E2E2
310
E22DE2E2E2E2E2E2E2E2E2E2E2E2E2E2E2E2E2E2E2E2E2E2E2E2E2E2E2E2E2E2E2E2E2E2E2E2E2E2E2E2E2E2E2E2E2E2E2E2E2E2E2E2E2E2E2E2E2E2E2E2E2E2E2E2E2E2E2E2E2E2E2E2E22DE2E2E2E2E2E2E2E2E2E2E2E2E2E2E2E2E2E2E2E2E2E2E2E2E2E2E2E2E2E2E2E2E2E2E2E2E2E2E2E2E2E2E2E2E2E2E2E2E2E2E2
310
E2E2E2E2E2E2E2E2E2E2E2E2E2E2E2E2E2E2E2E2E22DE2E2E2E2E2E2E2E2E2F5E2E2E2F5F5E2E2E2F5E2E2E2E2E2E2E2E2E2E2E2E2E22DE2E2E2E2E2E2E2E2E2E2E2E2E2E2E2E2E2E2E2E2E2E2E2E2E2E2E2E2E2E2E2E2E2E2E2E2E2E2E2E2E2E2E2E2E2E2E2E2E2E2E2E2E2E2E2E2E2E2E2E2E2E2E2E2E2E2E2E2E2E2E2E2
310
E22DE2E2E2E2E2E2E2E2E2E2E2E2E2E2E2E2E2E2E2E2E2E2E2E2E2E2E2E2E2E2E2E2E2E2E2E2E2E2E2E2E2E2E2E2E2E2E2E2E2E2E2E2E2E2E2E2E2E2E2E2E2E2E2E2E2E2E2E2E2E2E2E22DE2E2E2E2E2E2E2E2E2F5E2E2E2F5F5E2E2E2F5E2E2E2E2E2E2E2E2E2E2E2E2E22DE2E2E2E2E2E2E2E2E2E2E2E2E2E2E2E2E2E2E2
310
E2E2E2E2E2E2E2E2E2E2E2E2E2E2E2E2E2E2E2E2E2E2E2E2E2E2E2E2E2E2E2E2E2E2E2E2E2E2E2E2E2E2E2E2E2E2E2E2E2E2E2E2E2E22DE2E2E2E2E2E2E2E2E2E2E2E2E2E2E2E2E2E2E2E2E2E2E2E2E2E2E2E2E2E2E2E2E2E2E2E2E2E2E2E2E2E2E2E2E2E2E2E2E2E2E2E2E2E2E2E2E2E2E2E2E2E2E2E2E2E2E2E2E2E2E2E2
310
2DE2E2E2E2E2E2E2E2E2F5E2E2E2F5F5E2E2E2F5E2E2E2E2E2E2E2E2E2E2E2E2E22DE2E2E2E2E2E2E2E2E2E2E2E2E2E2E2E2E2E2E2E2E2E2E2E2E2E2E2E2E2E2E2E2E2E2E2E2E2E2E2E2E2E2E2E2E2E2E2E2E2E2E2E2E2E2E2E2E2E2E2E2E2E2E2E2E2E2E2E2E2E2E2E2E22DE2E2E2E2E2E2E2E2E2E2E2E2E2E2E2E2E2E2E2
310
E2E2E2E2E2E2E2E2E2E2E2E2E2E2E2E2E2E2E2E2E2E2E2E2E2E2E2E2E2E2E2E2E2E2E2E2E2E2E2E2E2E2E2E2E2E2E2E2E2E2E2E2E22DE2E2E2E2E2E2E2E2E2F5E2E2E2F5F5E2E2E2F5E2E2E2E2E2E2E2E2E2E2E2E2E22DE2E2E2E2E2E2E2E2E2E2E2E2E2E2E2E2E2E2E2E2E2E2E2E2E2E2E2E2E2E2E2E2E2E2E2E2E2E2E2E2
310
E2E2E2E2E2E2E2E2E2E2E2E2E2E2E2E2E2E2E2E2E2E2E2E2E2E2E2E2E2E2E2E2E22DE2E2E2E2E2E2E2E2E2E2E2E2E2E2E2E2E2E2E2E2E2E2E2E2E2E2E2E2E2E2E2E2E2E2E2E2E2E2E2E2E2E2E2E2E2E2E2E2E2E2E2E2E2E2E2E2E2E2E2E2E2E2E2E2E2E2E2E2E2E2E2E22DE2E2E2E2E2E2E2E2E2F5E2E2E2F5F5E2E2E2F5E2
310
E2E2E2E2E2E2E2E2E2E2E2E22DE2E2E2E2E2E2E2E2E2E2E2E2E2E2E2E2E2E2E2E2E2E2E2E2E2E2E2E2E2E2E2E2E2E2E2E2E2E2E2E2E2E2E2E2E2E2E2E2E2E2E2E2E2E2E2E2E2E2E2E2E2E2E2E2E2E2E2E2E2E2E2E2E22DE2E2E2E2E2E2E2E2E2E2E2E2E2E2E2E2E2E2E2E2E2E2E2E2E2E2E2E2E2E2E2E2E2E2E2E2E2E2E2E2
310
E2E2E2E2E2E2E2E2E2E2E2E2E2E2E2E2E2E2E2E2E2E2E2E2E2E2E2E2E2E2E2E22DE2E2E2E2E2E2E2E2E2F5E2E2E2F5F5E2E2E2F5E2E2E2E2E2E2E2E2E2E2E2E2E22DE2E2E2E2E2E2E2E2E2E2E2E2E2E2E2E2E2E2E2E2E2E2E2E2E2E2E2E2E2E2E2E2E2E2E2E2E2E2E2E2E2E2E2E2E2E2E2E2E2E2E2E2E2E2E2E2E2E2E2E2E2
310
E2E2E2E2E2E2E2E2E2E2E2E22DE2E2E2E2E2E2E2E2E2E2E2E2E2E2E2E2E2E2E2E2E2E2E2E2E2E2E2E2E2E2E2E2E2E2E2E2E2E2E2E2E2E2E2E2E2E2E2E2E2E2E2E2E2E2E2E2E2E2E2E2E2E2E2E2E2E2E2E2E2E2E2E22DE2E2E2E2E2E2E2E2E2F5E2E2E2F5F5E2E2E2F5E2E2E2E2E2E2E2E2E2E2E2E2E22D2D2D2D2D2D2D2D2D
310
2D2D2D2D2D2D2D2D2D2D2D2D2D2D2D2D2D2D2D2D2D2D2D2D2D2D2D2D2D2D2D2D2D2D2D2D2D2D2D2D2D2D2D2D2D2D2D2D2D2D2D2D2D2D2D2D2D2D2D2D2D2D2D2D2D2D2D2D2D2D2D2D2D2D2D2D2D2D2D2D2D2D2D2D2D2D2D2D2D2D2D2D2D2D2D2D2D2D2D2D2D2D2D2D2D2D2D2D2D2D2D2D2D2D2D2D2D2D2D2D2D2D2D2D2D2D2D
310
2D2D2D2D2D2D2D2D2D2D2D2DE2E2E2E2E2E2E2E2E2F5E2E2E2F5F5E2E2E2F5F5F5F5F5F5F5F5E2E2E2E2E2E2E2E2E2F5F5F5F5F5F5F5F5F5F5F5F5F5F5F5F5E2E2E2E2E2E2E2E2E2F5F5F5F5F5F5F5F5F5F5F5F5F5F5F5E2E2E2E2E2E2E2E2E2F5F5F5F5F5F5F5F5F5F5F5F5F5F5F5F5E2E2E2E2E2E2E2E2F5F5F5F5F5F5F5
310
F5F5F5F5F5F5F5F5F5E2E2E2E2E2E2E2E2E2F5F5F5F5F5F5F5F5F5F5F5F5F5F5F5E2E2E2E2E2E2E2E2E2F5F5F5F5F5F5F5F5F5F5F5F5F5F5F5F5E2E2E2E2E2E2E2E2E2F5F5F5F5F5F5F5F5E2E2E2F5F5E2E2E2E2E2E2E2E2E2E2E2E2E2E2E2E2E2E2E2E2E2E2E2E2E2E2E2E2E2E2E2E2E2E2E2E2E2E2E2E2E2E2E2E2E2E2E2
310
E2E2E2E2E2E2E2E2E2E2E2E2E2E2E2E2E2E2E2E2E2E2E2E2E2E2E2E2E2E2E2E2E2E2E2E2E2E2E2E2E2E2E2E2E2E2E2E2E2E2E2E2E2E2E2E2E2E2E2E2E2E2E2E2E2E2E2E2E2E2E2E2E2E2E2E2E2E2E2E2E2E2E2E2E2E2E2E2E2E2E2E2E2E2E2E2E2E2E2E2E2E2E2E2E2E2E2E2E2E2E2E2E2E2E2E2E2E2E2E2E2E2E2E2E2E2E2
310
E2E2E2E2F5F5E2E2E2E2E2E2E2E2E2E2E2E2E2E2E2E2E2E2E2E2E2E2E2E2E2E2E2E2E2E2E2E2E2E2E2E2E2E2E2E2E2E2E2E2E2E2E2E2E2E2E2E2E2E2E2E2E2E2E2E2E2E2E2E2E2E2E2E2E2E2E2E2E2E2E2E2E2E2E2E2E2E2E2E2E2E2E2E2E2E2E2E2E2E2E2E2E2E2E2E2E2E2E2E2E2E2E2E2E2E2E2E2E2E2E2E2E2E2E2E2E2
310
E2E2E2E2E2E2E2E2E2E2E2E2E2E2E2E2E2E2E2E2E2E2E2E2E2E2E2E2E2E2E2E2E2E2E2E2E2E2E2E2E2E2E2E2E2E2E2E2E2E2E2E2E2E2E2E2E2F5F5E2E2E2E2E2E2E2E2E2E2E2E2E2E2E2E2E2E2E2E2E2E2E2E2E2E2E2E2E2E2E2E2E2E2E2E2E2E2E2E2E2E2E2E2E2E2E2E2E2E2E2E2E2E2E2E2E2E2E2E2E2E2E2E2E2E2E2E2
310
E2E2E2E2E2E2E2E2E2E2E2E2E2E2E2E2E2E2E2E2E2E2E2E2E2E2E2E2E2E2E2E2E2E2E2E2E2E2E2E2E2E2E2E2E2E2E2E2E2E2E2E2E2E2E2E2E2E2E2E2E2E2E2E2E2E2E2E2E2E2E2E2E2E2E2E2E2E2E2E2E2E2E2E2E2E2E2E2E2E2E2E2E2E2E2E2E2E2E2E2E2E2E2E2E2E2E2E2E2E2F5F5E2E2E2E2E2E2E2E2E2E2E2E2E2E2E2
310
E2E2E2E2E2E2E2E2E2E2E2E2E2E2E2E2E2E2E2E2E2E2E2E2E2E2E2E2E2E2E2E2E2E2E2E2E2E2E2E2E2E2E2E2E2E2E2E2E2E2E2E2E2E2E2E2E2E2E2E2E2E2E2E2E2E2E2E2E2E2E2E2E2E2E2E2E2E2E2E2E2E2E2E2E2E2E2E2E2E2E2E2E2E2E2E2E2E2E2E2E2E2E2E2E2E2E2E2E2E2E2E2E2E2E2E2E2E2E2E2E2E2E2E2E2E2E2
310
E2E2E2E2E2E2E2E2E2E2E2E2E2E2E2E2E2E2E2E2E2E2E2E2E2E2E2E2E2E2E2E2E2E2E2E2F5F5E2E2E2E2E2E2E2E2E2E2E2E2E2E2E2E2E2E2E2E2E2E2E2E2E2E2E2E2E2E2E2E2E2E2E2E2E2E2E2E2E2E2E2E2E2E2E2E2E2E2E2E2E2E2E2E2E2E2E2E2E2E2E2E2E2E2E2E2E2E2E2E2E2E2E2E2E2E2E2E2E2E2E2E2E2E2E2E2E2
310
E2E2E2E2E2E2E2E2E2E2E2E2E2E2E2E2E2E2E2E2E2E2E2E2E2E2E2E2E2E2E2E2E2E2E2E2E2E2E2E2E2E2E2E2E2E2E2E2E2E2E2E2E2E2E2E2E2E2E2E2E2E2E2E2E2E2E2E2E2E2E2E2E2E2E2E2E2E2E2E2E2E2E2E2E2E2E2E2E2F5F5E2E2E2E2E2E2E2E2E2E2E2E2E2E2E2E2E2E2E2E2E2E2E2E2E2E2E2E2E2E2E2E2E2E2E2E2
310
E2E2E2E2E2E2E2E2E2E2E2E2E2E2E2E2E2E2E2E2E2E2E2E2E2E2E2E2E2E2E2E2E2E2E2E2E2E2E2E2E2E2E2E2E2E2E2E2E2E2E2E2E2E2E2E2E2E2E2E2E2E2E2E2E2E2E2E2E2E2E2E2E2E2E2E2E2E2E2E2E2E2E2E2E2E2E2E2E2E2E2E2E2E2E2E2E2E2E2E2E2E2E2E2E2E2E2E2E2E2E2E2E2E2E2E2E2E2E2E2E2E2E2E2E2E2E2
310
E2E2E2E2E2E2E2E2E2E2E2E2E2E2E2F5F5E2E2E2E2E2E2E2E2E2E2E2E2E2E2E2E2E2E2E2E2E2E2E2E2E2E2E2E2E2E2E2E2E2E2E2E2E2E2E2E2E2E2E2E2E2E2E2E2E2E2E2E2E2E2E2E2E2E2E2E2E2E2E2E2E2E2E2E2E2E2E2E2E2E2E2E2E2E2E2E2E2E2E2E2E2E2E2E2E2E2E2E2E2E2E2E2E2E2E2E2E2E2E2E2E2E2E2E2E2E2
310
E2E2E2E2E2E2E2E2E2E2E2E2E2E2E2E2E2E2E2E2E2E2E2E2E2E2E2E2E2E2E2E2E2E2E2E2E2E2E2E2E2E2E2E2E2E2E2E2E2E2E2E2E2E2E2E2E2E2E2E2E2E2E2E2E2E2E2E2F5F5F5F5F5F5F5F5F5F5F5F5F5F5F5F5F5F5F5F5F5F5F5F5F5F5F5F5F5F5F5F5F5F5F5F5F5F5F5F5F5F5F5F5F5F5F5F5F5F5F5F5F5F5F5F5F5F5F5
310
F5F5F5F5F5F5F5F5F5F5F5F5F5F5F5F5F5F5F5F5F5F5F5F5F5F5F5F5F5F5F5F5F5F5F5F5F5F5F5F5F5F5F5F5F5F5F5F5F5F5F5F5F5F5F5F5F5F5F5F5F5F5F5F5F5F5F5F5F5F5F5F5F5F5F5F5F5F5F5F5F5F5F5F5F5F5F5F5F5F5F5F5F5F5F5F5F5F5F5F5F5F5F5F5F5F5F5F5F5F5F5F5F5F5F5F5F5F5F5F5F5F5EFEFEFEFEF
310
EFEFEFEFEFEFEFEFEFEFEFEFEFEFEFEFEFEFEFEFEFEFEFEFEFEFEFEFEFEFEFEFEFEFEFEFEFEFEFEFEFEFEFEFEFEFEFEFEFEFEFEFEFEFEFEFEFEFEFEFEFEFEFEFEFEFEFEFEFEFEFEFEFEFEFEFEFEFEFEFEFEFEFEFEFEFEFEFEFEFEFEFEFEFEFEFEFEFEFEFEFEFEFEFEFEFEFEFEFEFEFEFEFEFEFEFEFEFEFEFEFEFEFEFEFEFEF
310
EFEFEFEFEFEFEFEFEFEFEFEFEFEFEFEFEFEFEFEFEFEFEFEFEFEFEFEFEFEFEFEFEFEFEFEFEFEFEFEFEFEFEFEFEFEFEFEF
  0
ENDSEC
  0
EOF
