  0
SECTION
  2
HEADER
  9
$ACADVER
  1
AC1015
  9
$ACADMAINTVER
 70
    20
  9
$DWGCODEPAGE
  3
ANSI_950
  9
$INSBASE
 10
0.0
 20
0.0
 30
0.0
  9
$EXTMIN
 10
1.000000000000000E+20
 20
1.000000000000000E+20
 30
1.000000000000000E+20
  9
$EXTMAX
 10
-1.000000000000000E+20
 20
-1.000000000000000E+20
 30
-1.000000000000000E+20
  9
$LIMMIN
 10
0.0
 20
0.0
  9
$LIMMAX
 10
420.0
 20
297.0
  9
$ORTHOMODE
 70
     0
  9
$REGENMODE
 70
     1
  9
$FILLMODE
 70
     1
  9
$QTEXTMODE
 70
     0
  9
$MIRRTEXT
 70
     1
  9
$LTSCALE
 40
1.0
  9
$ATTMODE
 70
     1
  9
$TEXTSIZE
 40
1.0
  9
$TRACEWID
 40
1.0
  9
$TEXTSTYLE
  7
STANDARD
  9
$CLAYER
  8
0
  9
$CELTYPE
  6
BYLAYER
  9
$CECOLOR
 62
     6
  9
$CELTSCALE
 40
1.0
  9
$DISPSILH
 70
     0
  9
$DIMSCALE
 40
1.0
  9
$DIMASZ
 40
3.0
  9
$DIMEXO
 40
1.0
  9
$DIMDLI
 40
8.0
  9
$DIMRND
 40
0.0
  9
$DIMDLE
 40
0.0
  9
$DIMEXE
 40
1.0
  9
$DIMTP
 40
0.1
  9
$DIMTM
 40
0.1
  9
$DIMTXT
 40
3.5
  9
$DIMCEN
 40
0.0
  9
$DIMTSZ
 40
0.0
  9
$DIMTOL
 70
     0
  9
$DIMLIM
 70
     0
  9
$DIMTIH
 70
     0
  9
$DIMTOH
 70
     0
  9
$DIMSE1
 70
     0
  9
$DIMSE2
 70
     0
  9
$DIMTAD
 70
     1
  9
$DIMZIN
 70
     8
  9
$DIMBLK
  1

  9
$DIMASO
 70
     1
  9
$DIMSHO
 70
     1
  9
$DIMPOST
  1

  9
$DIMAPOST
  1
"
  9
$DIMALT
 70
     0
  9
$DIMALTD
 70
     2
  9
$DIMALTF
 40
0.0393701
  9
$DIMLFAC
 40
1.0
  9
$DIMTOFL
 70
     1
  9
$DIMTVP
 40
0.0
  9
$DIMTIX
 70
     0
  9
$DIMSOXD
 70
     0
  9
$DIMSAH
 70
     0
  9
$DIMBLK1
  1

  9
$DIMBLK2
  1

  9
$DIMSTYLE
  2
AM_ISO
  9
$DIMCLRD
 70
   256
  9
$DIMCLRE
 70
   256
  9
$DIMCLRT
 70
   256
  9
$DIMTFAC
 40
0.71
  9
$DIMGAP
 40
1.0
  9
$DIMJUST
 70
     0
  9
$DIMSD1
 70
     0
  9
$DIMSD2
 70
     0
  9
$DIMTOLJ
 70
     0
  9
$DIMTZIN
 70
     8
  9
$DIMALTZ
 70
     8
  9
$DIMALTTZ
 70
     0
  9
$DIMUPT
 70
     0
  9
$DIMDEC
 70
     2
  9
$DIMTDEC
 70
     2
  9
$DIMALTU
 70
     2
  9
$DIMALTTD
 70
     2
  9
$DIMTXSTY
  7
STANDARD
  9
$DIMAUNIT
 70
     0
  9
$DIMADEC
 70
     0
  9
$DIMALTRND
 40
0.0
  9
$DIMAZIN
 70
     2
  9
$DIMDSEP
 70
    46
  9
$DIMATFIT
 70
     3
  9
$DIMFRAC
 70
     0
  9
$DIMLDRBLK
  1

  9
$DIMLUNIT
 70
     2
  9
$DIMLWD
 70
    -1
  9
$DIMLWE
 70
    -1
  9
$DIMTMOVE
 70
     0
  9
$LUNITS
 70
     2
  9
$LUPREC
 70
     2
  9
$SKETCHINC
 40
1.0
  9
$FILLETRAD
 40
2.5
  9
$AUNITS
 70
     0
  9
$AUPREC
 70
     0
  9
$MENU
  1
.
  9
$ELEVATION
 40
0.0
  9
$PELEVATION
 40
0.0
  9
$THICKNESS
 40
0.0
  9
$LIMCHECK
 70
     0
  9
$CHAMFERA
 40
2.5
  9
$CHAMFERB
 40
2.5
  9
$CHAMFERC
 40
20.0
  9
$CHAMFERD
 40
0.0
  9
$SKPOLY
 70
     0
  9
$TDCREATE
 40
2454805.686441575
  9
$TDUCREATE
 40
2454805.353108241
  9
$TDUPDATE
 40
2456052.357173565
  9
$TDUUPDATE
 40
2456052.023840232
  9
$TDINDWG
 40
0.1845033449
  9
$TDUSRTIMER
 40
0.1845031597
  9
$USRTIMER
 70
     1
  9
$ANGBASE
 50
0.0
  9
$ANGDIR
 70
     0
  9
$PDMODE
 70
     0
  9
$PDSIZE
 40
0.0
  9
$PLINEWID
 40
0.0
  9
$SPLFRAME
 70
     0
  9
$SPLINETYPE
 70
     6
  9
$SPLINESEGS
 70
     8
  9
$HANDSEED
  5
10B4
  9
$SURFTAB1
 70
     6
  9
$SURFTAB2
 70
     6
  9
$SURFTYPE
 70
     6
  9
$SURFU
 70
     6
  9
$SURFV
 70
     6
  9
$UCSBASE
  2

  9
$UCSNAME
  2

  9
$UCSORG
 10
0.0
 20
0.0
 30
0.0
  9
$UCSXDIR
 10
1.0
 20
0.0
 30
0.0
  9
$UCSYDIR
 10
0.0
 20
1.0
 30
0.0
  9
$UCSORTHOREF
  2

  9
$UCSORTHOVIEW
 70
     0
  9
$UCSORGTOP
 10
0.0
 20
0.0
 30
0.0
  9
$UCSORGBOTTOM
 10
0.0
 20
0.0
 30
0.0
  9
$UCSORGLEFT
 10
0.0
 20
0.0
 30
0.0
  9
$UCSORGRIGHT
 10
0.0
 20
0.0
 30
0.0
  9
$UCSORGFRONT
 10
0.0
 20
0.0
 30
0.0
  9
$UCSORGBACK
 10
0.0
 20
0.0
 30
0.0
  9
$PUCSBASE
  2

  9
$PUCSNAME
  2

  9
$PUCSORG
 10
0.0
 20
0.0
 30
0.0
  9
$PUCSXDIR
 10
1.0
 20
0.0
 30
0.0
  9
$PUCSYDIR
 10
0.0
 20
1.0
 30
0.0
  9
$PUCSORTHOREF
  2

  9
$PUCSORTHOVIEW
 70
     0
  9
$PUCSORGTOP
 10
0.0
 20
0.0
 30
0.0
  9
$PUCSORGBOTTOM
 10
0.0
 20
0.0
 30
0.0
  9
$PUCSORGLEFT
 10
0.0
 20
0.0
 30
0.0
  9
$PUCSORGRIGHT
 10
0.0
 20
0.0
 30
0.0
  9
$PUCSORGFRONT
 10
0.0
 20
0.0
 30
0.0
  9
$PUCSORGBACK
 10
0.0
 20
0.0
 30
0.0
  9
$USERI1
 70
     0
  9
$USERI2
 70
     0
  9
$USERI3
 70
     0
  9
$USERI4
 70
     0
  9
$USERI5
 70
     0
  9
$USERR1
 40
0.0
  9
$USERR2
 40
0.0
  9
$USERR3
 40
0.0
  9
$USERR4
 40
0.0
  9
$USERR5
 40
0.0
  9
$WORLDVIEW
 70
     1
  9
$SHADEDGE
 70
     3
  9
$SHADEDIF
 70
    70
  9
$TILEMODE
 70
     0
  9
$MAXACTVP
 70
    48
  9
$PINSBASE
 10
0.0
 20
0.0
 30
0.0
  9
$PLIMCHECK
 70
     0
  9
$PEXTMIN
 10
53.67124416153993
 20
18.26732563205806
 30
0.0
  9
$PEXTMAX
 10
366.38749416154
 20
245.6973256320579
 30
149.0322928480406
  9
$PLIMMIN
 10
-7.5
 20
-20.0
  9
$PLIMMAX
 10
412.5
 20
277.0
  9
$UNITMODE
 70
     0
  9
$VISRETAIN
 70
     1
  9
$PLINEGEN
 70
     0
  9
$PSLTSCALE
 70
     1
  9
$TREEDEPTH
 70
  3020
  9
$CMLSTYLE
  2
STANDARD
  9
$CMLJUST
 70
     0
  9
$CMLSCALE
 40
1.0
  9
$PROXYGRAPHICS
 70
     1
  9
$MEASUREMENT
 70
     1
  9
$CELWEIGHT
370
    -1
  9
$ENDCAPS
280
     0
  9
$JOINSTYLE
280
     0
  9
$LWDISPLAY
290
     0
  9
$INSUNITS
 70
     4
  9
$HYPERLINKBASE
  1

  9
$STYLESHEET
  1

  9
$XEDIT
290
     1
  9
$CEPSNTYPE
380
     0
  9
$PSTYLEMODE
290
     1
  9
$FINGERPRINTGUID
  2
{D6685D79-2C54-4304-A5AD-85D6D41B2B23}
  9
$VERSIONGUID
  2
{148F9441-B3AC-4445-B1F2-B84EA0B5F0F6}
  9
$EXTNAMES
290
     1
  9
$PSVPSCALE
 40
0.0
  9
$OLESTARTUP
290
     0
  0
ENDSEC
  0
SECTION
  2
CLASSES
  0
CLASS
  1
DICTIONARYVAR
  2
AcDbDictionaryVar
  3
ObjectDBX Classes
 90
        0
280
     0
281
     0
  0
CLASS
  1
ACMESTATEMGR
  2
AcMeStateMgr
  3
AcMeServices
 90
        0
280
     0
281
     0
  0
CLASS
  1
ACMESCOPE
  2
AcMeScope
  3
AcMeServices
 90
        0
280
     0
281
     0
  0
CLASS
  1
ACMECOMMANDHISTORY
  2
AcMeCommandHistory
  3
AcMeServices
 90
        0
280
     0
281
     0
  0
CLASS
  1
ACRFINSADJUSTERMGR
  2
AcRfInsAdjusterMgr
  3
AcMeServices
 90
        0
280
     0
281
     0
  0
CLASS
  1
ACMEDRAWINGMAN
  2
AcMeDrawingMan
  3
AcMeServices
 90
        0
280
     0
281
     0
  0
CLASS
  1
AMATTR
  2
AcMeAttribute
  3
AcMeServices
 90
    32768
280
     0
281
     0
  0
CLASS
  1
ACMEBOMCOLUMN
  2
AcMeBOMColumn
  3
AcMeServices
 90
    32768
280
     0
281
     0
  0
CLASS
  1
ACMEBOMCONF
  2
AcMeBOMConf
  3
AcMeServices
 90
    32768
280
     0
281
     0
  0
CLASS
  1
ACMEBOMTABLE
  2
AcMeBOMTable
  3
AcMeServices
 90
    32768
280
     0
281
     0
  0
CLASS
  1
ACMEBOMENTRY
  2
AcMeBOMEntry
  3
AcMeServices
 90
    32768
280
     0
281
     0
  0
CLASS
  1
ACMEVIEW
  2
AcMeView
  3
AcMeServices
 90
        0
280
     0
281
     0
  0
CLASS
  1
ACGREFMASTER
  2
AcGrefMaster
  3
AcAttribServices
 90
        0
280
     0
281
     0
  0
CLASS
  1
AMIMASTER
  2
AmiMaster
  3
AmiServices
 90
        0
280
     0
281
     0
  0
CLASS
  1
ACASGREFMASTER
  2
AcAsGrefMaster
  3
AutoSurfResolverServices
 90
        0
280
     0
281
     0
  0
CLASS
  1
ADAPPL
  2
AcAdAppl
  3
DesignerServices
 90
        0
280
     0
281
     0
  0
CLASS
  1
DEPMGR
  2
AcAdDepMgr
  3
DesignerServices
 90
        0
280
     0
281
     0
  0
CLASS
  1
PARAMMGR
  2
AcAdParamMgr
  3
DesignerServices
 90
        0
280
     0
281
     0
  0
CLASS
  1
PARAMSCOPE
  2
AcAdParamScope
  3
DesignerServices
 90
        0
280
     0
281
     0
  0
CLASS
  1
ACIMSYSVARMAN
  2
AcImSysVarManager
  3
AcMeServices
 90
        0
280
     0
281
     0
  0
CLASS
  1
ACIMINTSYSVAR
  2
AcImIntSysVar
  3
AcMeServices
 90
        0
280
     0
281
     0
  0
CLASS
  1
ACIMREALSYSVAR
  2
AcImRealSysVar
  3
AcMeServices
 90
        0
280
     0
281
     0
  0
CLASS
  1
ACIMSTRSYSVAR
  2
AcImStrSysVar
  3
AcMeServices
 90
        0
280
     0
281
     0
  0
CLASS
  1
NAMEDAPPL
  2
AcAdNamedAppl
  3
DesignerServices
 90
        0
280
     0
281
     0
  0
CLASS
  1
ADHNTMPLT
  2
AdHoleNoteTemplateMgr
  3
DesignerServices
 90
    32768
280
     0
281
     0
  0
CLASS
  1
AM_HNTEMPLATE_MGR_NAME
  2
AdHoleNoteTemplateMgrName
  3
DesignerServices
 90
    32768
280
     0
281
     0
  0
CLASS
  1
ACADGREFMODULE
  2
AcAdGrefModule
  3
AdGrefServices
 90
        0
280
     0
281
     0
  0
CLASS
  1
AM_DRAWING_MGR
  2
AcDmDwgMgr
  3
AcMechDwgViewMgmt
 90
        0
280
     0
281
     0
  0
CLASS
  1
AM_DWG_DOCUMENT
  2
AcDmDwgDocument
  3
AcMechDwgViewMgmt
 90
        0
280
     0
281
     0
  0
CLASS
  1
AM_DWG_SHEET
  2
AcDmSheet
  3
AcMechDwgViewMgmt
 90
        0
280
     0
281
     0
  0
CLASS
  1
AM_VIEWDIMPARMAP
  2
AcDmViewDimParMap
  3
AcMechDwgViewMgmt
 90
        0
280
     0
281
     0
  0
CLASS
  1
AM_DWGMGR_NAME
  2
AcDmDwgMgrName
  3
AcMechDwgViewMgmt
 90
        0
280
     0
281
     0
  0
CLASS
  1
ACAMPROJECT
  2
AcAmProject
  3
DesignerAssemblies
 90
        0
280
     0
281
     0
  0
CLASS
  1
ACAMGRCOMPSET
  2
AcAmGrCompSet
  3
DesignerAssemblies
 90
    32768
280
     1
281
     0
  0
CLASS
  1
ACAMGRCOMPDEFSET
  2
AcAmGrCompDefSet
  3
DesignerAssemblies
 90
        0
280
     0
281
     0
  0
CLASS
  1
ACAMGRCOMPDEF
  2
AcAmGrCompDef
  3
DesignerAssemblies
 90
        0
280
     0
281
     0
  0
CLASS
  1
ACCMCONTEXT
  2
AcCmContext
  3
DesignerAssemblies
 90
        0
280
     0
281
     0
  0
CLASS
  1
ACAMCOMPDEF
  2
AcAmCompDef
  3
DesignerAssemblies
 90
        0
280
     0
281
     0
  0
CLASS
  1
ACAMCOMPDEFMGR
  2
AcAmCompDefMgr
  3
DesignerAssemblies
 90
        0
280
     0
281
     0
  0
CLASS
  1
AMCONTEXTMGR
  2
AcAmContextMgr
  3
DesignerAssemblies
 90
        0
280
     0
281
     0
  0
CLASS
  1
ACAMCONTEXTMODELER
  2
AcAmContextModeler
  3
DesignerAssemblies
 90
        0
280
     0
281
     0
  0
CLASS
  1
ACDMVIEWGEOM
  2
AcDmViewGeometry
  3
AcMechDwgViewMgmt
 90
    32768
280
     0
281
     1
  0
CLASS
  1
CBROWSERAPPOBJECT
  2
CBrowserAppObject
  3
McadcomServices
 90
        0
280
     0
281
     0
  0
CLASS
  1
IM_STATIC_MAN
  2
AcImStaticVarManager
  3
AcMeServices
 90
        0
280
     0
281
     0
  0
CLASS
  1
ASAPP
  2
AcAsAppObject
  3
AutoSurfServices
 90
        0
280
     0
281
     0
  0
CLASS
  1
ACIMDBLSTATICVAR
  2
AcImDblStaticVar
  3
AcMeServices
 90
        0
280
     0
281
     0
  0
CLASS
  1
ACIMSTRSTATICVAR
  2
AcImStrStaticVar
  3
AcMeServices
 90
        0
280
     0
281
     0
  0
CLASS
  1
ACIMINTSTATICVAR
  2
AcImIntStaticVar
  3
AcMeServices
 90
        0
280
     0
281
     0
  0
CLASS
  1
CATALOGSTATE
  2
AcAmCatalogState
  3
DesignerAssemblies
 90
        0
280
     0
281
     0
  0
CLASS
  1
DM_PLACEHOLDER
  2
AcDmSelsetPlaceholder
  3
AcMechDwgViewMgmt
 90
        0
280
     0
281
     0
  0
CLASS
  1
LAYER_INDEX
  2
AcDbLayerIndex
  3
ObjectDBX Classes
 90
        0
280
     0
281
     0
  0
CLASS
  1
IDBUFFER
  2
AcDbIdBuffer
  3
ObjectDBX Classes
 90
        0
280
     0
281
     0
  0
CLASS
  1
ACMSTANDARDJIS
  2
AcmStandardJIS
  3
"Amdt_StdImp|Product Description: AutoCAD Mechanical 2004 DX|Company: Autodesk"
 90
    32768
280
     0
281
     0
  0
CLASS
  1
ACMSTANDARDANSI
  2
AcmStandardANSI
  3
"Amdt_StdImp|Product Description: AutoCAD Mechanical 2004 DX|Company: Autodesk"
 90
    32768
280
     0
281
     0
  0
CLASS
  1
ACMSTANDARDBSI
  2
AcmStandardBSI
  3
"Amdt_StdImp|Product Description: AutoCAD Mechanical 2004 DX|Company: Autodesk"
 90
    32768
280
     0
281
     0
  0
CLASS
  1
ACMSTANDARDDIN
  2
AcmStandardDIN
  3
"Amdt_StdImp|Product Description: AutoCAD Mechanical 2004 DX|Company: Autodesk"
 90
    32768
280
     0
281
     0
  0
CLASS
  1
ACMSTANDARDISO
  2
AcmStandardISO
  3
"Amdt_StdImp|Product Description: AutoCAD Mechanical 2004 DX|Company: Autodesk"
 90
        0
280
     0
281
     0
  0
CLASS
  1
ACDBDICTIONARYWDFLT
  2
AcDbDictionaryWithDefault
  3
ObjectDBX Classes
 90
        0
280
     0
281
     0
  0
CLASS
  1
ACDBPLACEHOLDER
  2
AcDbPlaceHolder
  3
ObjectDBX Classes
 90
        0
280
     0
281
     0
  0
CLASS
  1
LAYOUT
  2
AcDbLayout
  3
ObjectDBX Classes
 90
        0
280
     0
281
     0
  0
CLASS
  1
ACME_DOCUMENT
  2
AcMeDbDoc
  3
AcMeServices
 90
        0
280
     0
281
     0
  0
CLASS
  1
AMGSETTINGSOBJ
  2
AmgSettingsObj
  3
"AcadM|Product Description: AutoCAD Mechanical 2000|Company: Autodesk"
 90
        0
280
     0
281
     0
  0
CLASS
  1
AMGOBJPROPCFG
  2
AmgObjPropCfg
  3
"AmgLay|Product Description: AutoCAD Mechanical 2000|Company: Autodesk"
 90
        1
280
     0
281
     0
  0
CLASS
  1
ACDBENTITYCACHE
  2
AcMeEntityCache
  3
AcMeServices
 90
        0
280
     0
281
     0
  0
CLASS
  1
GSMANAGER
  2
AcMeGSManager
  3
AcMeServices
 90
        0
280
     0
281
     0
  0
CLASS
  1
AMDTINTERNALREACTOR
  2
AmdtInternalReactor
  3
AcMeServices
 90
        0
280
     0
281
     0
  0
CLASS
  1
ACME_DATABASE
  2
AcMeDbDatabase
  3
AcMeServices
 90
        0
280
     0
281
     0
  0
CLASS
  1
ACGREFACADMASTER
  2
AcGrefacadMaster
  3
AcGrefServices
 90
        0
280
     0
281
     0
  0
CLASS
  1
AMDTMENUSTATEMGR
  2
AmdtMenuStateMgr
  3
McadcomServices
 90
        0
280
     0
281
     0
  0
CLASS
  1
AMDTMCOMMENUSTATE
  2
AmdtMcomMenuState
  3
McadcomServices
 90
        0
280
     0
281
     0
  0
CLASS
  1
MAPIADMODULE
  2
MApiAdModule
  3
MApiAdServices
 90
        0
280
     0
281
     0
  0
CLASS
  1
AMDTDMMENUSTATE
  2
AmdtDmMenuState
  3
AcMechDwgViewMgmt
 90
        0
280
     0
281
     0
  0
CLASS
  1
AMDTADMENUSTATE
  2
AmdtAdMenuState
  3
DesignerServices
 90
        0
280
     0
281
     0
  0
CLASS
  1
AMDTAMMENUSTATE
  2
AmdtAmMenuState
  3
DesignerAssemblies
 90
        0
280
     0
281
     0
  0
CLASS
  1
ACMDATADICTIONARY
  2
AcmDataDictionary
  3
"AcmSymBB|Product Description: AutoCAD Mechanical 2004 DX|Company: Autodesk"
 90
        0
280
     0
281
     0
  0
CLASS
  1
ACMDATAENTRYBLOCK
  2
AcmDataEntryBlock
  3
"AcmSymBB|Product Description: AutoCAD Mechanical 2004 DX|Company: Autodesk"
 90
        0
280
     0
281
     0
  0
CLASS
  1
ACMSURFSTANDARDJIS
  2
AcmSurfTextStdJIS
  3
"Amdt_StdImp|Product Description: AutoCAD Mechanical 2004 DX|Company: Autodesk"
 90
    32768
280
     0
281
     0
  0
CLASS
  1
ACMFCFSTANDARDJIS
  2
AcmFCFStdJIS
  3
"Amdt_StdImp|Product Description: AutoCAD Mechanical 2004 DX|Company: Autodesk"
 90
    32768
280
     0
281
     0
  0
CLASS
  1
ACMWELDSTANDARDJIS
  2
AcmWeldingStdJIS
  3
"Amdt_StdImp|Product Description: AutoCAD Mechanical 2004 DX|Company: Autodesk"
 90
    32768
280
     0
281
     0
  0
CLASS
  1
ACMIDSTANDARDJIS
  2
AcmIdStdJIS
  3
"Amdt_StdImp|Product Description: AutoCAD Mechanical 2004 DX|Company: Autodesk"
 90
    32768
280
     0
281
     0
  0
CLASS
  1
ACMDATUMSTANDARDJIS
  2
AcmDatumStdJIS
  3
"Amdt_StdImp|Product Description: AutoCAD Mechanical 2004 DX|Company: Autodesk"
 90
    32768
280
     0
281
     0
  0
CLASS
  1
ACMBOMSTANDARDJIS
  2
AcmBOMStdJIS
  3
"Amdt_StdImp|Product Description: AutoCAD Mechanical 2004 DX|Company: Autodesk"
 90
    32768
280
     0
281
     0
  0
CLASS
  1
ACMSURFSTANDARDANSI
  2
AcmSurfTextStdANSI
  3
"Amdt_StdImp|Product Description: AutoCAD Mechanical 2004 DX|Company: Autodesk"
 90
    32768
280
     0
281
     0
  0
CLASS
  1
ACMFCFSTANDARDANSI
  2
AcmFCFStdANSI
  3
"Amdt_StdImp|Product Description: AutoCAD Mechanical 2004 DX|Company: Autodesk"
 90
    32768
280
     0
281
     0
  0
CLASS
  1
ACMWELDSTANDARDANSI
  2
AcmWeldingStdANSI
  3
"Amdt_StdImp|Product Description: AutoCAD Mechanical 2004 DX|Company: Autodesk"
 90
    32768
280
     0
281
     0
  0
CLASS
  1
ACMIDSTANDARDANSI
  2
AcmIdStdANSI
  3
"Amdt_StdImp|Product Description: AutoCAD Mechanical 2004 DX|Company: Autodesk"
 90
    32768
280
     0
281
     0
  0
CLASS
  1
ACMDATUMSTANDARDANSI
  2
AcmDatumStdANSI
  3
"Amdt_StdImp|Product Description: AutoCAD Mechanical 2004 DX|Company: Autodesk"
 90
    32768
280
     0
281
     0
  0
CLASS
  1
ACMBOMSTANDARDANSI
  2
AcmBOMStdANSI
  3
"Amdt_StdImp|Product Description: AutoCAD Mechanical 2004 DX|Company: Autodesk"
 90
    32768
280
     0
281
     0
  0
CLASS
  1
ACMSURFSTANDARDBSI
  2
AcmSurfTextStdBSI
  3
"Amdt_StdImp|Product Description: AutoCAD Mechanical 2004 DX|Company: Autodesk"
 90
    32768
280
     0
281
     0
  0
CLASS
  1
ACMFCFSTANDARDBSI
  2
AcmFCFStdBSI
  3
"Amdt_StdImp|Product Description: AutoCAD Mechanical 2004 DX|Company: Autodesk"
 90
    32768
280
     0
281
     0
  0
CLASS
  1
ACMWELDSTANDARDBSI
  2
AcmWeldingStdBSI
  3
"Amdt_StdImp|Product Description: AutoCAD Mechanical 2004 DX|Company: Autodesk"
 90
    32768
280
     0
281
     0
  0
CLASS
  1
ACMIDSTANDARDBSI
  2
AcmIdStdBSI
  3
"Amdt_StdImp|Product Description: AutoCAD Mechanical 2004 DX|Company: Autodesk"
 90
    32768
280
     0
281
     0
  0
CLASS
  1
ACMDATUMSTANDARDBSI
  2
AcmDatumStdBSI
  3
"Amdt_StdImp|Product Description: AutoCAD Mechanical 2004 DX|Company: Autodesk"
 90
    32768
280
     0
281
     0
  0
CLASS
  1
ACMBOMSTANDARDBSI
  2
AcmBOMStdBSI
  3
"Amdt_StdImp|Product Description: AutoCAD Mechanical 2004 DX|Company: Autodesk"
 90
    32768
280
     0
281
     0
  0
CLASS
  1
AMDTEDGESTANDARDDIN
  2
AmdtEdgeStdDIN
  3
"Amdt_StdImp|Product Description: AutoCAD Mechanical 2004 DX|Company: Autodesk"
 90
    32768
280
     0
281
     0
  0
CLASS
  1
ACMSURFSTANDARDDIN
  2
AcmSurfTextStdDIN
  3
"Amdt_StdImp|Product Description: AutoCAD Mechanical 2004 DX|Company: Autodesk"
 90
    32768
280
     0
281
     0
  0
CLASS
  1
ACMFCFSTANDARDDIN
  2
AcmFCFStdDIN
  3
"Amdt_StdImp|Product Description: AutoCAD Mechanical 2004 DX|Company: Autodesk"
 90
    32768
280
     0
281
     0
  0
CLASS
  1
ACMWELDSTANDARDDIN
  2
AcmWeldingStdDIN
  3
"Amdt_StdImp|Product Description: AutoCAD Mechanical 2004 DX|Company: Autodesk"
 90
    32768
280
     0
281
     0
  0
CLASS
  1
ACMIDSTANDARDDIN
  2
AcmIdStdDIN
  3
"Amdt_StdImp|Product Description: AutoCAD Mechanical 2004 DX|Company: Autodesk"
 90
    32768
280
     0
281
     0
  0
CLASS
  1
ACMDATUMSTANDARDDIN
  2
AcmDatumStdDIN
  3
"Amdt_StdImp|Product Description: AutoCAD Mechanical 2004 DX|Company: Autodesk"
 90
    32768
280
     0
281
     0
  0
CLASS
  1
ACMBOMSTANDARDDIN
  2
AcmBOMStdDIN
  3
"Amdt_StdImp|Product Description: AutoCAD Mechanical 2004 DX|Company: Autodesk"
 90
    32768
280
     0
281
     0
  0
CLASS
  1
ACMSURFSTANDARDISO
  2
AcmSurfTextStdISO
  3
"Amdt_StdImp|Product Description: AutoCAD Mechanical 2004 DX|Company: Autodesk"
 90
        0
280
     0
281
     0
  0
CLASS
  1
ACMFCFSTANDARDISO
  2
AcmFCFStdISO
  3
"Amdt_StdImp|Product Description: AutoCAD Mechanical 2004 DX|Company: Autodesk"
 90
        0
280
     0
281
     0
  0
CLASS
  1
ACMWELDSTANDARDISO
  2
AcmWeldingStdISO
  3
"Amdt_StdImp|Product Description: AutoCAD Mechanical 2004 DX|Company: Autodesk"
 90
        0
280
     0
281
     0
  0
CLASS
  1
ACMIDSTANDARDISO
  2
AcmIdStdISO
  3
"Amdt_StdImp|Product Description: AutoCAD Mechanical 2004 DX|Company: Autodesk"
 90
        0
280
     0
281
     0
  0
CLASS
  1
ACMDATUMSTANDARDISO
  2
AcmDatumStdISO
  3
"Amdt_StdImp|Product Description: AutoCAD Mechanical 2004 DX|Company: Autodesk"
 90
        0
280
     0
281
     0
  0
CLASS
  1
ACMBOMSTANDARDISO
  2
AcmBOMStdISO
  3
"Amdt_StdImp|Product Description: AutoCAD Mechanical 2004 DX|Company: Autodesk"
 90
        0
280
     0
281
     0
  0
CLASS
  1
AMDTBROWSERDBTAB
  2
AmdtBrowserDbTab
  3
McadcomServices
 90
        0
280
     0
281
     0
  0
CLASS
  1
ACAMGFILTERDAT
  2
AcAmgFilterDat
  3
"AcadM|Product Description: AutoCAD Mechanical 2000|Company: Autodesk"
 90
    32768
280
     0
281
     0
  0
CLASS
  1
MAPIAMMOUDLE
  2
MApiAmModule
  3
MApiAmServices
 90
        0
280
     0
281
     0
  0
CLASS
  1
AMDTMAPISURFMOUDULE
  2
AmdtMApiSurfModule
  3
MApiSurfServices
 90
        0
280
     0
281
     0
  0
CLASS
  1
ACAMGLAYSTD
  2
AcAmgLayStd
  3
"AcAmgLayStd|Product Description: AutoCAD Mechanical 2000|Company: Autodesk"
 90
        0
280
     0
281
     0
  0
CLASS
  1
ACAMGDIMSTD
  2
AcAmgDimStd
  3
"AcAmgDimStd|Product Description: AutoCAD Mechanical 2000|Company: Autodesk"
 90
        0
280
     0
281
     0
  0
CLASS
  1
ACAMGTITLESTD
  2
AcAmgTitleStd
  3
"TITLEAPP"
 90
        0
280
     0
281
     0
  0
CLASS
  1
ACMDETAILSTANDARDJIS
  2
AmdtDetailSymStdJIS
  3
"Amdt_StdImp|Product Description: AutoCAD Mechanical 2004 DX|Company: Autodesk"
 90
    32768
280
     0
281
     0
  0
CLASS
  1
ACMSECTIONSTANDARDJIS
  2
AmdtSectionSymStdJIS
  3
"Amdt_StdImp|Product Description: AutoCAD Mechanical 2004 DX|Company: Autodesk"
 90
    32768
280
     0
281
     0
  0
CLASS
  1
ACMCENTERLINESTANDARDJIS
  2
AmdtCenterLineStdJIS
  3
"Amdt_StdImp|Product Description: AutoCAD Mechanical 2004 DX|Company: Autodesk"
 90
    32768
280
     0
281
     0
  0
CLASS
  1
ACMTHREADLINESTANDARDJIS
  2
AmdtThreadLineStdJIS
  3
"Amdt_StdImp|Product Description: AutoCAD Mechanical 2004 DX|Company: Autodesk"
 90
    32768
280
     0
281
     0
  0
CLASS
  1
ACMDETAILSTANDARDANSI
  2
AmdtDetailSymStdANSI
  3
"Amdt_StdImp|Product Description: AutoCAD Mechanical 2004 DX|Company: Autodesk"
 90
    32768
280
     0
281
     0
  0
CLASS
  1
ACMSECTIONSTANDARDANSI
  2
AmdtSectionSymStdANSI
  3
"Amdt_StdImp|Product Description: AutoCAD Mechanical 2004 DX|Company: Autodesk"
 90
    32768
280
     0
281
     0
  0
CLASS
  1
ACMCENTERLINESTANDARDANSI
  2
AmdtCenterLineStdANSI
  3
"Amdt_StdImp|Product Description: AutoCAD Mechanical 2004 DX|Company: Autodesk"
 90
    32768
280
     0
281
     0
  0
CLASS
  1
ACMTHREADLINESTANDARDANSI
  2
AmdtThreadLineStdANSI
  3
"Amdt_StdImp|Product Description: AutoCAD Mechanical 2004 DX|Company: Autodesk"
 90
    32768
280
     0
281
     0
  0
CLASS
  1
ACMDETAILSTANDARDBSI
  2
AmdtDetailSymStdBSI
  3
"Amdt_StdImp|Product Description: AutoCAD Mechanical 2004 DX|Company: Autodesk"
 90
    32768
280
     0
281
     0
  0
CLASS
  1
ACMSECTIONSTANDARDBSI
  2
AmdtSectionSymStdBSI
  3
"Amdt_StdImp|Product Description: AutoCAD Mechanical 2004 DX|Company: Autodesk"
 90
    32768
280
     0
281
     0
  0
CLASS
  1
ACMCENTERLINESTANDARDBSI
  2
AmdtCenterLineStdBSI
  3
"Amdt_StdImp|Product Description: AutoCAD Mechanical 2004 DX|Company: Autodesk"
 90
    32768
280
     0
281
     0
  0
CLASS
  1
ACMTHREADLINESTANDARDBSI
  2
AmdtThreadLineStdBSI
  3
"Amdt_StdImp|Product Description: AutoCAD Mechanical 2004 DX|Company: Autodesk"
 90
    32768
280
     0
281
     0
  0
CLASS
  1
ACMDETAILSTANDARDDIN
  2
AmdtDetailSymStdDIN
  3
"Amdt_StdImp|Product Description: AutoCAD Mechanical 2004 DX|Company: Autodesk"
 90
    32768
280
     0
281
     0
  0
CLASS
  1
ACMSECTIONSTANDARDDIN
  2
AmdtSectionSymStdDIN
  3
"Amdt_StdImp|Product Description: AutoCAD Mechanical 2004 DX|Company: Autodesk"
 90
    32768
280
     0
281
     0
  0
CLASS
  1
ACMCENTERLINESTANDARDDIN
  2
AmdtCenterLineStdDIN
  3
"Amdt_StdImp|Product Description: AutoCAD Mechanical 2004 DX|Company: Autodesk"
 90
    32768
280
     0
281
     0
  0
CLASS
  1
ACMTHREADLINESTANDARDDIN
  2
AmdtThreadLineStdDIN
  3
"Amdt_StdImp|Product Description: AutoCAD Mechanical 2004 DX|Company: Autodesk"
 90
    32768
280
     0
281
     0
  0
CLASS
  1
AMDTEDGESTANDARDISO
  2
AmdtEdgeStdISO
  3
"Amdt_StdImp|Product Description: AutoCAD Mechanical 2004 DX|Company: Autodesk"
 90
    32768
280
     0
281
     0
  0
CLASS
  1
ACMDETAILSTANDARDISO
  2
AmdtDetailSymStdISO
  3
"Amdt_StdImp|Product Description: AutoCAD Mechanical 2004 DX|Company: Autodesk"
 90
        0
280
     0
281
     0
  0
CLASS
  1
ACMSECTIONSTANDARDISO
  2
AmdtSectionSymStdISO
  3
"Amdt_StdImp|Product Description: AutoCAD Mechanical 2004 DX|Company: Autodesk"
 90
        0
280
     0
281
     0
  0
CLASS
  1
ACMCENTERLINESTANDARDISO
  2
AmdtCenterLineStdISO
  3
"Amdt_StdImp|Product Description: AutoCAD Mechanical 2004 DX|Company: Autodesk"
 90
        0
280
     0
281
     0
  0
CLASS
  1
ACMTHREADLINESTANDARDISO
  2
AmdtThreadLineStdISO
  3
"Amdt_StdImp|Product Description: AutoCAD Mechanical 2004 DX|Company: Autodesk"
 90
        0
280
     0
281
     0
  0
CLASS
  1
ACMNOTESTANDARDISO
  2
AmdtNoteStdISO
  3
"Amdt_StdImp|Product Description: AutoCAD Mechanical 2004 DX|Company: Autodesk"
 90
        0
280
     0
281
     0
  0
CLASS
  1
ACAMGHOLECHARTSTDISO
  2
AcAmgHoleChartStdISO
  3
ACMSYMBB_MODULE_NAME
 90
        0
280
     0
281
     0
  0
CLASS
  1
ACMNOTESTANDARDANSI
  2
AmdtNoteStdANSI
  3
"Amdt_StdImp|Product Description: AutoCAD Mechanical 2004 DX|Company: Autodesk"
 90
    32768
280
     0
281
     0
  0
CLASS
  1
AMDTNOTETEMPLATEDB
  2
AmdtNoteTemplateDB
  3
AMDT_STDIMP_MODULE_NAME
 90
        0
280
     0
281
     0
  0
CLASS
  1
ACAMGHOLECHARTSTDANSI
  2
AcAmgHoleChartStdANSI
  3
ACMSYMBB_MODULE_NAME
 90
    32768
280
     0
281
     0
  0
CLASS
  1
TABLESTYLE
  2
AcDbTableStyle
  3
ObjectDBX Classes
 90
     2047
280
     0
281
     0
  0
CLASS
  1
ACMBOM
  2
AcmBom
  3
"AcmSymBB|Product Description: AutoCAD Mechanical 2004 DX|Company: Autodesk"
 90
    32768
280
     0
281
     0
  0
CLASS
  1
AMDTFORMULAUPDATEDISPATCHER
  2
AmdtFormulaUpdateDispatcher
  3
AcMeServices
 90
    32768
280
     0
281
     0
  0
CLASS
  1
ACMPARTLIST
  2
AcmPartList
  3
"AcmSymBB|Product Description: AutoCAD Mechanical 2004 DX|Company: Autodesk"
 90
    33791
280
     0
281
     1
  0
CLASS
  1
VAACXREFPANELOBJECT
  2
VaAcXREFPanelObject
  3
VAAC_ADDIN
 90
    32768
280
     1
281
     0
  0
CLASS
  1
VAACIMAGEINVENTORY
  2
VaAcImageInventory
  3
VAAC_ADDIN
 90
    32768
280
     1
281
     0
  0
CLASS
  1
ACAMCONTEXTPARTMODELER
  2
AcAmContextPartModeler
  3
DesignerAssemblies
 90
    32768
280
     0
281
     0
  0
CLASS
  1
ADPART
  2
AcAdPart
  3
DesignerServices
 90
    32768
280
     0
281
     1
  0
CLASS
  1
ADBASE
  2
AcAdBase
  3
DesignerServices
 90
    32768
280
     0
281
     0
  0
CLASS
  1
BODYID
  2
AcAdBodyId
  3
DesignerServices
 90
    32768
280
     0
281
     0
  0
CLASS
  1
WORKPLANEDISPLAYMGR
  2
AcAdDisplayMgr
  3
DesignerServices
 90
    32768
280
     0
281
     0
  0
CLASS
  1
ACCMBODY
  2
AcCmBody
  3
DesignerAssemblies
 90
    32768
280
     0
281
     0
  0
CLASS
  1
ACAMCOMPENT
  2
AcAmCompEnt
  3
DesignerAssemblies
 90
    32768
280
     0
281
     1
  0
CLASS
  1
ACAMCOMPFEEDBACK
  2
AcAmCompFeedback
  3
DesignerAssemblies
 90
    32768
280
     0
281
     0
  0
CLASS
  1
ACAMGROUNDEDBASECOMP
  2
AcAmGroundedBaseComp
  3
DesignerAssemblies
 90
    32768
280
     0
281
     0
  0
CLASS
  1
ACAMCOMPENTCLONE
  2
AcAmCompEntClone
  3
DesignerAssemblies
 90
    32768
280
     0
281
     1
  0
CLASS
  1
ACAMCLONEREACTOR
  2
AcAmGrCompCloneReactor
  3
DesignerAssemblies
 90
    32768
280
     0
281
     0
  0
CLASS
  1
ADDATUMPLANEABS
  2
AcAdDatumPlaneAbs
  3
DesignerServices
 90
    32768
280
     0
281
     0
  0
CLASS
  1
ADDATUMAXISABS
  2
AcAdDatumAxisAbs
  3
DesignerServices
 90
    32768
280
     0
281
     0
  0
CLASS
  1
ADDATUMORIENTEDPLANE
  2
AcAdDatumOrientedPlane
  3
DesignerServices
 90
    32768
280
     0
281
     0
  0
CLASS
  1
ACAD_CIRCLE
  2
AcAdCircle
  3
DesignerServices
 90
    32768
280
     0
281
     1
  0
CLASS
  1
ACADCIRCLEACAD
  2
AcAdVirtualCircleAcad
  3
DesignerServices
 90
    32768
280
     0
281
     0
  0
CLASS
  1
ACADREFLINEACAD
  2
AcAdVirtualReferenceLine
  3
DesignerServices
 90
    32768
280
     0
281
     0
  0
CLASS
  1
ACADCONSLINE
  2
AcAdConstrainedLine
  3
DesignerServices
 90
    32768
280
     0
281
     0
  0
CLASS
  1
ACADCONSGROUP
  2
AcAdConstraintGroup
  3
DesignerServices
 90
    32768
280
     0
281
     0
  0
CLASS
  1
ACADCONSCIRCLE
  2
AcAdConstrainedCircle
  3
DesignerServices
 90
    32768
280
     0
281
     0
  0
CLASS
  1
ACADCONSPOINT
  2
AcAdConstrainedPoint
  3
DesignerServices
 90
    32768
280
     0
281
     0
  0
CLASS
  1
ACADIMPPTACAD
  2
AcAdVirtualImplicitPoint
  3
DesignerServices
 90
    32768
280
     0
281
     0
  0
CLASS
  1
ADCTRPTCNS
  2
AcAdCenterPointConstr
  3
DesignerServices
 90
    32768
280
     0
281
     0
  0
CLASS
  1
ADCLPROF2D
  2
AcAdClosedProfile2d
  3
DesignerServices
 90
    32768
280
     0
281
     0
  0
CLASS
  1
ACAD_FIXCONSTRAINT
  2
AcAdFixedConstraint
  3
DesignerServices
 90
    32768
280
     0
281
     0
  0
CLASS
  1
ACMELINEARARROW
  2
AcImLinearArrowDisplay
  3
AcMeServices
 90
    32768
280
     0
281
     1
  0
CLASS
  1
PARAM
  2
AcAdParam
  3
DesignerServices
 90
    32768
280
     0
281
     0
  0
CLASS
  1
ACADVOLFEATWITHTRIM
  2
AcAdVolFeatWithTrim
  3
DesignerServices
 90
    32768
280
     0
281
     0
  0
CLASS
  1
DEPEDGEFEATUREORDERING
  2
AcAdDepEdgeFeatureOrdering
  3
DesignerServices
 90
    32768
280
     0
281
     0
  0
CLASS
  1
ADPLANEID
  2
AcAdPlaneId
  3
DesignerServices
 90
    32768
280
     0
281
     0
  0
CLASS
  1
ADDATUMPLANEFACE
  2
AcAdDatumPlaneFace
  3
DesignerServices
 90
    32768
280
     0
281
     0
  0
CLASS
  1
ACMEPLINE
  2
AcImPlineDisplay
  3
AcMeServices
 90
    32768
280
     0
281
     1
  0
CLASS
  1
ACMETEXT
  2
AcImTextDisplay
  3
AcMeServices
 90
    32768
280
     0
281
     1
  0
CLASS
  1
DATUMAXISDISPLAY
  2
AcAdDatumAxisDisplay
  3
DesignerServices
 90
    32768
280
     0
281
     1
  0
CLASS
  1
ADDATUMAXISCENTER
  2
AcAdDatumAxisCenter
  3
DesignerServices
 90
    32768
280
     0
281
     0
  0
CLASS
  1
ADSURFGEOMID
  2
AcAdSurfGeomId
  3
DesignerServices
 90
    32768
280
     0
281
     0
  0
CLASS
  1
ACAD_LINE
  2
AcAdLine
  3
DesignerServices
 90
    32768
280
     0
281
     1
  0
CLASS
  1
ACADLINEACAD
  2
AcAdVirtualBoundedLineAcad
  3
DesignerServices
 90
    32768
280
     0
281
     0
  0
CLASS
  1
ADPCURCNS
  2
AcAdPointCurveConstr
  3
DesignerServices
 90
    32768
280
     0
281
     0
  0
CLASS
  1
ADHORCNS
  2
AcAdHorizontalConstr
  3
DesignerServices
 90
    32768
280
     0
281
     0
  0
CLASS
  1
ADVERCNS
  2
AcAdVerticalConstr
  3
DesignerServices
 90
    32768
280
     0
281
     0
  0
CLASS
  1
ACDBLINERES
  2
AcDbLineRes
  3
AcGrefServices
 90
    32768
280
     0
281
     0
  0
CLASS
  1
ACADSKETCHLINERES
  2
AcAdSketchLineRes
  3
DesignerServices
 90
    32768
280
     0
281
     0
  0
CLASS
  1
ADVDISTCNS
  2
AcAdVerticalDistanceConstr
  3
DesignerServices
 90
    32768
280
     0
281
     0
  0
CLASS
  1
ACADSKETCHPOINTRES
  2
AcAdSketchPointRes
  3
DesignerServices
 90
    32768
280
     0
281
     0
  0
CLASS
  1
ADHDISTCNS
  2
AcAdHorizontalDistanceConstr
  3
DesignerServices
 90
    32768
280
     0
281
     0
  0
CLASS
  1
ACADPARTAXISRES
  2
AcAdPartAxisRes
  3
AdGrefServices
 90
    32768
280
     0
281
     0
  0
CLASS
  1
EDGEID
  2
AcAdEdgeId
  3
DesignerServices
 90
    32768
280
     0
281
     0
  0
CLASS
  1
ACADPARTCIRCEDGRES
  2
AcAdPartCircEdgRes
  3
AdGrefServices
 90
    32768
280
     0
281
     0
  0
CLASS
  1
CIRREFID
  2
AcAdCircleRefId
  3
DesignerServices
 90
    32768
280
     0
281
     0
  0
CLASS
  1
ACADCIRCDEPID
  2
AcAdVirtualCircleDepId
  3
DesignerServices
 90
    32768
280
     0
281
     0
  0
CLASS
  1
ACDBCIRCARCRES
  2
AcDbCircArcRes
  3
AcGrefServices
 90
    32768
280
     0
281
     0
  0
CLASS
  1
ACADSKETCHCIRCARCRES
  2
AcAdSketchCircArcRes
  3
DesignerServices
 90
    32768
280
     0
281
     0
  0
CLASS
  1
ADACADDIACNS
  2
AcAdAcadDiameterConstr
  3
DesignerServices
 90
    32768
280
     0
281
     0
  0
CLASS
  1
ADFEATUREDISPLAY
  2
AcImFeatureDisplay
  3
ACME_MODULE_NAME
 90
    32768
280
     0
281
     1
  0
CLASS
  1
ACMEAXIS
  2
AcImAxisDisplay
  3
AcMeServices
 90
    32768
280
     0
281
     1
  0
CLASS
  1
ACMEROTATIONARROW
  2
AcImRotationArrowDisplay
  3
AcMeServices
 90
    32768
280
     0
281
     1
  0
CLASS
  1
DEPEDGEPATTERNFEATURE
  2
AcAdDepEdgePatternFeature
  3
DesignerServices
 90
    32768
280
     0
281
     0
  0
CLASS
  1
ACADPATTNFEAT
  2
AcAdPatternFeat
  3
DesignerServices
 90
    32768
280
     0
281
     0
  0
CLASS
  1
ADFILLET
  2
AcAdFillet
  3
DesignerServices
 90
    32768
280
     0
281
     0
  0
CLASS
  1
ADCONSTDSP
  2
AcAdConstraintDisplayTag
  3
DesignerServices
 90
    32768
280
     0
281
     1
  0
CLASS
  1
ADCONCCNS
  2
AcAdConcentricConstr
  3
DesignerServices
 90
    32768
280
     0
281
     0
  0
CLASS
  1
ADCONSDISP
  2
AcAdConstraintDisplay
  3
DesignerServices
 90
    32768
280
     0
281
     1
  0
CLASS
  1
DATUMPLANEDISPLAY
  2
AcAdDatumPlaneDisplay
  3
DesignerServices
 90
    32768
280
     0
281
     1
  0
CLASS
  1
ADDATUMPLANEAXISPLANE
  2
AcAdDatumPlaneAxisPlane
  3
DesignerServices
 90
    32768
280
     0
281
     0
  0
CLASS
  1
ACADPARTDATUMPLANERES
  2
AcAdPartDatumPlaneRes
  3
AdGrefServices
 90
    32768
280
     0
281
     0
  0
CLASS
  1
ADCOLNCNS
  2
AcAdColinearConstr
  3
DesignerServices
 90
    32768
280
     0
281
     0
  0
CLASS
  1
STREFID
  2
AcAdStraightRefId
  3
DesignerServices
 90
    32768
280
     0
281
     0
  0
CLASS
  1
ACADLINEDEPID
  2
AcAdVirtualLineDepId
  3
DesignerServices
 90
    32768
280
     0
281
     0
  0
CLASS
  1
ACADBOUNDEDLINEDATUMID
  2
AcAdVirtualBoundedLineDatumId
  3
DesignerServices
 90
    32768
280
     0
281
     0
  0
CLASS
  1
CNRREFID
  2
AcAdCornerId
  3
DesignerServices
 90
    32768
280
     0
281
     0
  0
CLASS
  1
ACADPARTPOINTRES
  2
AcAdPartPointRes
  3
AdGrefServices
 90
    32768
280
     0
281
     0
  0
CLASS
  1
DEPEDGESECONDARYDEPID
  2
AcAdDepEdgeSecondaryDepId
  3
DesignerServices
 90
    32768
280
     0
281
     0
  0
CLASS
  1
DEPEDGEPATTERNINSTANCE
  2
AcAdDepEdgePatternInstance
  3
DesignerServices
 90
    32768
280
     0
281
     0
  0
CLASS
  1
ACADPARTLINEDGRES
  2
AcAdPartLinEdgRes
  3
AdGrefServices
 90
    32768
280
     0
281
     0
  0
CLASS
  1
ACADPARTSPLINEEDGERES
  2
AcAdPartSplineEdgeRes
  3
AdGrefServices
 90
    32768
280
     0
281
     0
  0
CLASS
  1
ACAD_ARC
  2
AcAdArc
  3
DesignerServices
 90
    32768
280
     0
281
     1
  0
CLASS
  1
ACADARCACAD
  2
AcAdVirtualArcAcad
  3
DesignerServices
 90
    32768
280
     0
281
     0
  0
CLASS
  1
ADTANCNS
  2
AcAdTangentConstr
  3
DesignerServices
 90
    32768
280
     0
281
     0
  0
CLASS
  1
ACADPOINTDEPID
  2
AcAdVirtualPointDepId
  3
DesignerServices
 90
    32768
280
     0
281
     0
  0
CLASS
  1
ADACADRADCNS
  2
AcAdAcadRadiusConstr
  3
DesignerServices
 90
    32768
280
     0
281
     0
  0
CLASS
  1
AMDT_RADIAL_DIM
  2
AmdtRadialDimension
  3
AcMeServices
 90
    32768
280
     0
281
     1
  0
CLASS
  1
SORTENTSTABLE
  2
AcDbSortentsTable
  3
ObjectDBX Classes
 90
    32768
280
     0
281
     0
  0
CLASS
  1
ADACADANGCNS
  2
AcAdAcadAngleConstr
  3
DesignerServices
 90
    32768
280
     0
281
     0
  0
CLASS
  1
AMACTIVEPARTSELECTFILTER
  2
AcDmActivePartViewEntFilter
  3
DesignerServices
 90
    32768
280
     0
281
     0
  0
CLASS
  1
FACEID
  2
AcAdFaceId
  3
DesignerServices
 90
    32768
280
     0
281
     0
  0
CLASS
  1
ACADPARTPLANARFACERES
  2
AcAdPartPlanarFaceRes
  3
AdGrefServices
 90
    32768
280
     0
281
     0
  0
CLASS
  1
AM_GREF_PLANE
  2
AcDmGrefPlnDef
  3
AcMechDwgViewMgmt
 90
    32768
280
     0
281
     0
  0
CLASS
  1
AM_ABS_AXIS
  2
AcDmAbsAxisDef
  3
AcMechDwgViewMgmt
 90
    32768
280
     0
281
     0
  0
CLASS
  1
AM_BASE_VIEW_ORIENT
  2
AcDmBaseViewOr
  3
AcMechDwgViewMgmt
 90
    32768
280
     0
281
     0
  0
CLASS
  1
AM_DWG_VIEWPORT
  2
AcDmViewport
  3
AcMechDwgViewMgmt
 90
    32768
280
     0
281
     0
  0
CLASS
  1
AM_VIEW_DISPLAY
  2
AcDmDwgViewDisplay
  3
AcMechDwgViewMgmt
 90
    32768
280
     0
281
     0
  0
CLASS
  1
AM_CLDFLTS
  2
AcDmClDflts
  3
AcMechDwgViewMgmt
 90
    32768
280
     0
281
     0
  0
CLASS
  1
AM_BASE_VIEW
  2
AcDmBaseView
  3
AcMechDwgViewMgmt
 90
    32768
280
     0
281
     0
  0
CLASS
  1
ACDMPARTVIEWDATA
  2
AcDmPartViewData
  3
AcMechDwgViewMgmt
 90
    32768
280
     0
281
     0
  0
CLASS
  1
ACDMDISPLAYATTRIBS
  2
AcDmDisplayAttribs
  3
AcMechDwgViewMgmt
 90
    32768
280
     0
281
     0
  0
CLASS
  1
ACDMBODYINSTANCEDATA
  2
AcDmBodyInstanceData
  3
AcMechDwgViewMgmt
 90
    32768
280
     0
281
     0
  0
CLASS
  1
ACDMVWEDLINE
  2
AcDmViewEdgeLine
  3
AcMechDwgViewMgmt
 90
    32768
280
     0
281
     1
  0
CLASS
  1
ACDMVWEDSPLINE
  2
AcDmViewEdgeSpline
  3
AcMechDwgViewMgmt
 90
    32768
280
     0
281
     1
  0
CLASS
  1
ACDMVWEDELLIPSE
  2
AcDmViewEdgeEllipse
  3
AcMechDwgViewMgmt
 90
    32768
280
     0
281
     1
  0
CLASS
  1
ACDMVWEDARC
  2
AcDmViewEdgeArc
  3
AcMechDwgViewMgmt
 90
    32768
280
     0
281
     1
  0
CLASS
  1
ACADPARTSKETCHPLANEAXISRES
  2
AcAdPartSketchPlaneAxisRes
  3
DesignerServices
 90
    32768
280
     0
281
     0
  0
CLASS
  1
AM_VIEWDIMPARALLEL
  2
AcDmViewDimParallel
  3
AcMechDwgViewMgmt
 90
    32768
280
     0
281
     0
  0
CLASS
  1
AMDTDMPARMAPDATA
  2
AmdtDmDimParMapData
  3
AcMechDwgViewMgmt
 90
    32768
280
     0
281
     0
  0
CLASS
  1
AM_VIEWDIMLINEAR
  2
AcDmViewDimLinear
  3
AcMechDwgViewMgmt
 90
    32768
280
     0
281
     0
  0
CLASS
  1
AM_VIEWDIMDIAMETER
  2
AcDmViewDimDiameter
  3
AcMechDwgViewMgmt
 90
    32768
280
     0
281
     0
  0
CLASS
  1
AM_ADLINCTRLINE
  2
AcAdLineCl
  3
DesignerServices
 90
    32768
280
     0
281
     0
  0
CLASS
  1
AM_ORTHO_VIEW_ORIENT
  2
AcDmOrthoViewOr
  3
AcMechDwgViewMgmt
 90
    32768
280
     0
281
     0
  0
CLASS
  1
AM_ORTHO_VIEW
  2
AcDmOrthoView
  3
AcMechDwgViewMgmt
 90
    32768
280
     0
281
     0
  0
CLASS
  1
AM_VIEWDIMRADIUS
  2
AcDmViewDimRadius
  3
AcMechDwgViewMgmt
 90
    32768
280
     0
281
     0
  0
CLASS
  1
AM_VIEWDIMANGULAR
  2
AcDmViewDimAngular
  3
AcMechDwgViewMgmt
 90
    32768
280
     0
281
     0
  0
CLASS
  1
ADDATUMPLANEOFFSET
  2
AcAdDatumPlaneOffset
  3
DesignerServices
 90
    32768
280
     0
281
     0
  0
CLASS
  1
ADPROJCNS
  2
AcAdProjectionConstr
  3
DesignerServices
 90
    32768
280
     0
281
     0
  0
CLASS
  1
ACMEPOINT
  2
AcImPointDisplay
  3
AcMeServices
 90
    32768
280
     0
281
     1
  0
CLASS
  1
ADWORKPOINTDISPLAY
  2
AcAdWorkPointDisplay
  3
DesignerServices
 90
    32768
280
     0
281
     1
  0
CLASS
  1
ADVIRTUALPOINTWORKPOINTFREE
  2
AcAdVirtualPointWorkPointFree
  3
DesignerServices
 90
    32768
280
     0
281
     0
  0
CLASS
  1
ADWORKPOINTSKETCH
  2
AcAdWorkPointSketch
  3
DesignerServices
 90
    32768
280
     0
281
     0
  0
CLASS
  1
ACADPARTDATUMPOINTRES
  2
AcAdPartDatumPointRes
  3
AdGrefServices
 90
    32768
280
     0
281
     0
  0
CLASS
  1
ADHOLEFEAT
  2
AcAdHoleFeat
  3
DesignerServices
 90
    32768
280
     0
281
     0
  0
CLASS
  1
ADDATUMPOINTAXISPLANE
  2
AcAdDatumPointAxisPlane
  3
DesignerServices
 90
    32768
280
     0
281
     0
  0
CLASS
  1
ACDMVWEDCIRC
  2
AcDmViewEdgeCircle
  3
AcMechDwgViewMgmt
 90
    32768
280
     0
281
     1
  0
CLASS
  1
AM_ADCIRCTRLINE
  2
AcAdBullsEyeCl
  3
DesignerServices
 90
    32768
280
     0
281
     0
  0
CLASS
  1
ACRFDMINSADJ
  2
AcRfDMInsAdjuster
  3
AcMechDwgViewMgmt
 90
    32768
280
     0
281
     0
  0
CLASS
  1
AM_GREF_POINT
  2
AcDmGrefPntDef
  3
AcMechDwgViewMgmt
 90
    32768
280
     0
281
     0
  0
CLASS
  1
AM_FULLPOINTSECTION
  2
AcDmFullPointSection
  3
AcMechDwgViewMgmt
 90
    32768
280
     0
281
     0
  0
CLASS
  1
AMDTSECTIONSYM
  2
AmdtSectionSym
  3
"AcmSymBB|Product Description: AutoCAD Mechanical 2004 DX|Company: Autodesk"
 90
    33791
280
     0
281
     1
  0
CLASS
  1
AM_VWNOTEADAPTER
  2
AcDmViewAnnotAdapter
  3
AcMechDwgViewMgmt
 90
    32768
280
     0
281
     0
  0
CLASS
  1
AMDTSECTIONSYMLABEL
  2
AmdtSectionSymLabel
  3
"AcmSymBB|Product Description: AutoCAD Mechanical 2004 DX|Company: Autodesk"
 90
    33791
280
     0
281
     1
  0
CLASS
  1
AD_LINETAPH
  2
AcAdTapHoleLineDisp
  3
DesignerServices
 90
    32768
280
     0
281
     0
  0
CLASS
  1
SILEDGEID
  2
AcAdSilhouetteEdgeId
  3
DesignerServices
 90
    32768
280
     0
281
     0
  0
CLASS
  1
ACADPARTCYLINDERFACERES
  2
AcAdPartCylinderFaceRes
  3
AdGrefServices
 90
    32768
280
     0
281
     0
  0
CLASS
  1
ACDMGREFEDIT
  2
AcDmViewEntityGeomrefEdit
  3
AcMechDwgViewMgmt
 90
    32768
280
     0
281
     0
  0
CLASS
  1
ACDMVIEWLINEDGERES
  2
AcDmViewLinEdgeRes
  3
AcMechDwgViewMgmt
 90
    32768
280
     0
281
     0
  0
CLASS
  1
AMDTEDGESTANDARDISO13715
  2
AmdtEdgeStdISO13715
  3
"Amdt_StdImp|Product Description: AutoCAD Mechanical 2004 DX|Company: Autodesk"
 90
        0
280
     0
281
     0
  0
CLASS
  1
ACRFATTGENMGR
  2
AcRfAttGeneralMgr
  3
AcAttribServices
 90
    32768
280
     0
281
     0
  0
ENDSEC
  0
SECTION
  2
TABLES
  0
TABLE
  2
VPORT
  5
1F
330
0
100
AcDbSymbolTable
 70
     1
  0
VPORT
  5
20
330
1F
100
AcDbSymbolTableRecord
100
AcDbViewportTableRecord
  2
*Active
 70
     0
 10
0.0
 20
0.0
 11
1.0
 21
1.0
 12
0.0
 22
0.0
 13
0.0
 23
0.0
 14
2.5
 24
2.5
 15
10.0
 25
10.0
 16
0.0
 26
0.0
 36
1.0
 17
0.0
 27
0.0
 37
0.0
 40
2.000000000000000E+20
 41
1.0
 42
50.0
 43
0.0
 44
0.0
 50
0.0
 51
0.0
 71
     0
 72
   100
 73
     1
 74
     1
 75
     0
 76
     0
 77
     0
 78
     0
281
     0
 65
     0
110
0.0
120
0.0
130
0.0
111
1.0
121
0.0
131
0.0
112
0.0
122
1.0
132
0.0
 79
     0
146
0.0
  0
ENDTAB
  0
TABLE
  2
LTYPE
  5
1A
330
0
100
AcDbSymbolTable
 70
    16
  0
LTYPE
  5
1B
330
1A
100
AcDbSymbolTableRecord
100
AcDbLinetypeTableRecord
  2
BYBLOCK
 70
     0
  3

 72
    65
 73
     0
 40
0.0
  0
LTYPE
  5
1C
330
1A
100
AcDbSymbolTableRecord
100
AcDbLinetypeTableRecord
  2
BYLAYER
 70
     0
  3

 72
    65
 73
     0
 40
0.0
  0
LTYPE
  5
9
330
1A
100
AcDbSymbolTableRecord
100
AcDbLinetypeTableRecord
  2
CONTINUOUS
 70
     0
  3
Solid line
 72
    65
 73
     0
 40
0.0
  0
LTYPE
  5
4A
330
1A
100
AcDbSymbolTableRecord
100
AcDbLinetypeTableRecord
  2
AM_ISO02W050
 70
     0
  3
__ __ __ __ __ __ __ __ __ __ __ __ __ __ __
 72
    65
 73
     2
 40
7.5
 49
6.0
 74
     0
 49
-1.5
 74
     0
  0
LTYPE
  5
C2
330
1A
100
AcDbSymbolTableRecord
100
AcDbLinetypeTableRecord
  2
AM_ISO02W050x2
 70
     0
  3
 _ _ _ _ _ _ _ _ _ _ _ _
 72
    65
 73
     2
 40
3.75
 49
3.0
 74
     0
 49
-0.75
 74
     0
  0
LTYPE
  5
38
330
1A
100
AcDbSymbolTableRecord
100
AcDbLinetypeTableRecord
  2
AM_ISO08W050x2
 70
     0
  3
__ . __ . __ . __ . __ . __
 72
    65
 73
     4
 40
9.0
 49
6.0
 74
     0
 49
-0.75
 74
     0
 49
1.5
 74
     0
 49
-0.75
 74
     0
  0
LTYPE
  5
127
330
1A
100
AcDbSymbolTableRecord
100
AcDbLinetypeTableRecord
  2
HIDDEN
 70
     0
  3
Hidden __ __ __ __ __ __ __ __ __ __ __ __ __ _
 72
    65
 73
     2
 40
9.524999999999998
 49
6.349999999999999
 74
     0
 49
-3.174999999999999
 74
     0
  0
LTYPE
  5
128
330
1A
100
AcDbSymbolTableRecord
100
AcDbLinetypeTableRecord
  2
PHANTOM2
 70
     0
  3
Phantom (.5x) ___ _ _ ___ _ _ ___ _ _ ___ _ _
 72
    65
 73
     6
 40
31.75
 49
15.875
 74
     0
 49
-3.174999999999999
 74
     0
 49
3.174999999999999
 74
     0
 49
-3.174999999999999
 74
     0
 49
3.174999999999999
 74
     0
 49
-3.174999999999999
 74
     0
  0
LTYPE
  5
129
330
1A
100
AcDbSymbolTableRecord
100
AcDbLinetypeTableRecord
  2
CENTER
 70
     0
  3
Center ____ _ ____ _ ____ _ ____ _ ____ _ ____
 72
    65
 73
     4
 40
50.8
 49
31.75
 74
     0
 49
-6.349999999999999
 74
     0
 49
6.349999999999999
 74
     0
 49
-6.349999999999999
 74
     0
  0
LTYPE
  5
15D
330
1A
100
AcDbSymbolTableRecord
100
AcDbLinetypeTableRecord
  2
AM_ISO08W050
 70
     0
  3
____ . ____ . ____ . ____ . ____ . ____ . ____
 72
    65
 73
     4
 40
18.0
 49
12.0
 74
     0
 49
-1.5
 74
     0
 49
3.0
 74
     0
 49
-1.5
 74
     0
  0
LTYPE
  5
15E
330
1A
100
AcDbSymbolTableRecord
100
AcDbLinetypeTableRecord
  2
AM_ISO09W050
 70
     0
  3
_____ . . _____ . . _____ . . ____ .. ____
 72
    65
 73
     6
 40
22.5
 49
12.0
 74
     0
 49
-1.5
 74
     0
 49
3.0
 74
     0
 49
-1.5
 74
     0
 49
3.0
 74
     0
 49
-1.5
 74
     0
  0
LTYPE
  5
15F
330
1A
100
AcDbSymbolTableRecord
100
AcDbLinetypeTableRecord
  2
Amconstr
 70
     0
  3
_______________________
 72
    65
 73
     2
 40
9999.0
 49
9999.0
 74
     0
 49
0.0
 74
     0
  0
LTYPE
  5
162
330
1A
100
AcDbSymbolTableRecord
100
AcDbLinetypeTableRecord
  2
Amzigzag
 70
     0
  3
/\/-/\/-/\/-/\/-/\/-/\/
 72
    65
 73
     2
 40
11.0001
 49
0.0001
 74
     4
 75
   135
340
161
 46
0.04
 50
0.0
 44
0.0
 45
0.0
 49
-11.0
 74
     0
  0
LTYPE
  5
171
330
1A
100
AcDbSymbolTableRecord
100
AcDbLinetypeTableRecord
  2
ACISOWELD
 70
     0
  3
_ _ _ _ _
 72
    65
 73
     2
 40
2.0
 49
2.0
 74
     0
 49
-1.0
 74
     0
  0
LTYPE
  5
172
330
1A
100
AcDbSymbolTableRecord
100
AcDbLinetypeTableRecord
  2
ACISOTGB
 70
     0
  3
__ . . __ . .
 72
    65
 73
     6
 40
9.0
 49
4.0
 74
     0
 49
-1.0
 74
     0
 49
1.0
 74
     0
 49
-1.0
 74
     0
 49
1.0
 74
     0
 49
-1.0
 74
     0
  0
LTYPE
  5
173
330
1A
100
AcDbSymbolTableRecord
100
AcDbLinetypeTableRecord
  2
ACISOTGL
 70
     0
  3
_ _ _ _ _
 72
    65
 73
     2
 40
3.0
 49
2.0
 74
     0
 49
-1.0
 74
     0
  0
LTYPE
  5
104B
330
1A
100
AcDbSymbolTableRecord
100
AcDbLinetypeTableRecord
  2
ASULTYPE
 70
     0
  3
實線
 72
    65
 73
     2
 40
3.0
 49
2.5
 74
     0
 49
0.5
 74
     0
  0
LTYPE
  5
104C
330
1A
100
AcDbSymbolTableRecord
100
AcDbLinetypeTableRecord
  2
ASVLTYPE
 70
     0
  3
__ __ __ __ __ __ __ __ __ __ __ __ __ __ __ __ __ __ __ __ __
 72
    65
 73
     2
 40
0.75
 49
0.5
 74
     0
 49
-0.25
 74
     0
  0
ENDTAB
  0
TABLE
  2
LAYER
  5
14
102
{ACAD_XDICTIONARY
360
15
102
}
330
0
100
AcDbSymbolTable
 70
     7
  0
LAYER
  5
5
330
14
100
AcDbSymbolTableRecord
100
AcDbLayerTableRecord
  2
0
 70
     0
 62
     7
  6
CONTINUOUS
370
    -3
390
6
  0
LAYER
  5
59
330
14
100
AcDbSymbolTableRecord
100
AcDbLayerTableRecord
  2
Defpoints
 70
     0
 62
     7
  6
CONTINUOUS
290
     0
370
    -3
390
6
  0
LAYER
  5
85
330
14
100
AcDbSymbolTableRecord
100
AcDbLayerTableRecord
  2
AM_VIS
 70
     0
 62
     7
  6
CONTINUOUS
370
    50
390
6
  0
LAYER
  5
37
330
14
100
AcDbSymbolTableRecord
100
AcDbLayerTableRecord
  2
AM_7
 70
     0
 62
     1
  6
AM_ISO08W050x2
370
    25
390
6
  0
LAYER
  5
49
330
14
100
AcDbSymbolTableRecord
100
AcDbLayerTableRecord
  2
AM_4
 70
     0
 62
     3
  6
CONTINUOUS
370
    25
390
6
  0
LAYER
  5
4E
330
14
100
AcDbSymbolTableRecord
100
AcDbLayerTableRecord
  2
AM_REFDIM
 70
     0
 62
     5
  6
CONTINUOUS
370
    50
390
6
  0
LAYER
  5
37C
330
14
100
AcDbSymbolTableRecord
100
AcDbLayerTableRecord
  2
LOGO
 70
     0
 62
     7
  6
CONTINUOUS
370
    -3
390
6
  0
ENDTAB
  0
TABLE
  2
STYLE
  5
17
330
0
100
AcDbSymbolTable
 70
     5
  0
STYLE
  5
18
330
17
100
AcDbSymbolTableRecord
100
AcDbTextStyleTableRecord
  2
STANDARD
 70
     0
 40
0.0
 41
1.0
 50
0.0
 71
     0
 42
1.0
  3
ISOCP.SHX
  4
CHINESET.SHX
  0
STYLE
  5
161
330
17
100
AcDbSymbolTableRecord
100
AcDbTextStyleTableRecord
  2

 70
     1
 40
0.0
 41
1.0
 50
0.0
 71
     0
 42
1.0
  3
ltypeshp.shx
  4

  0
STYLE
  5
163
330
17
100
AcDbSymbolTableRecord
100
AcDbTextStyleTableRecord
  2
ACISOTS
 70
     0
 40
1.0
 41
1.0
 50
0.0
 71
     0
 42
1.0
  3
isocp.shx
  4
chineset.shx
  0
STYLE
  5
170
330
17
100
AcDbSymbolTableRecord
100
AcDbTextStyleTableRecord
  2
ACISOGDT
 70
     0
 40
0.0
 41
1.0
 50
0.0
 71
     0
 42
1.0
  3
amgdt.shx
  4

  0
STYLE
  5
37D
330
17
100
AcDbSymbolTableRecord
100
AcDbTextStyleTableRecord
  2
CHINESET
 70
     0
 40
0.0
 41
1.0
 50
0.0
 71
     0
 42
3.0
  3
simplex.shx
  4
CHINESET.SHX
  0
ENDTAB
  0
TABLE
  2
VIEW
  5
1D
330
0
100
AcDbSymbolTable
 70
     0
  0
ENDTAB
  0
TABLE
  2
UCS
  5
1E
330
0
100
AcDbSymbolTable
 70
     0
  0
ENDTAB
  0
TABLE
  2
APPID
  5
21
330
0
100
AcDbSymbolTable
 70
    28
  0
APPID
  5
22
330
21
100
AcDbSymbolTableRecord
100
AcDbRegAppTableRecord
  2
ACAD
 70
     0
  0
APPID
  5
13
330
21
100
AcDbSymbolTableRecord
100
AcDbRegAppTableRecord
  2
ACAD_PSEXT
 70
     0
  0
APPID
  5
FA
330
21
100
AcDbSymbolTableRecord
100
AcDbRegAppTableRecord
  2
MCAD_NO_VIS
 70
     0
  0
APPID
  5
FB
330
21
100
AcDbSymbolTableRecord
100
AcDbRegAppTableRecord
  2
ACAD_TEMP_GRAPHIC
 70
     0
  0
APPID
  5
12B
330
21
100
AcDbSymbolTableRecord
100
AcDbRegAppTableRecord
  2
AD_DRAW
 70
     0
  0
APPID
  5
12E
330
21
100
AcDbSymbolTableRecord
100
AcDbRegAppTableRecord
  2
ACATTRIBSERVICES
 70
     0
  0
APPID
  5
14C
330
21
100
AcDbSymbolTableRecord
100
AcDbRegAppTableRecord
  2
DESIGNERASSEMBLIES
 70
     0
  0
APPID
  5
152
330
21
100
AcDbSymbolTableRecord
100
AcDbRegAppTableRecord
  2
ACADM_DIM_EDIT
 70
     0
  0
APPID
  5
153
330
21
100
AcDbSymbolTableRecord
100
AcDbRegAppTableRecord
  2
AMDT_DM_ADJ
 70
     0
  0
APPID
  5
1B5
330
21
100
AcDbSymbolTableRecord
100
AcDbRegAppTableRecord
  2
ACAD_DSTYLE_DIMTEXT_FILL
 70
     0
  0
APPID
  5
37F
330
21
100
AcDbSymbolTableRecord
100
AcDbRegAppTableRecord
  2
GENIUS_GENOENT_13
 70
     0
  0
APPID
  5
380
330
21
100
AcDbSymbolTableRecord
100
AcDbRegAppTableRecord
  2
GENIUS_GENOBJ-N-CRS_13
 70
     0
  0
APPID
  5
381
330
21
100
AcDbSymbolTableRecord
100
AcDbRegAppTableRecord
  2
GENIUS_GENOLIS_13
 70
     0
  0
APPID
  5
382
330
21
100
AcDbSymbolTableRecord
100
AcDbRegAppTableRecord
  2
GENIUS_GENODEF_13
 70
     0
  0
APPID
  5
383
330
21
100
AcDbSymbolTableRecord
100
AcDbRegAppTableRecord
  2
GENIUS_GENOREF_13
 70
     0
  0
APPID
  5
384
330
21
100
AcDbSymbolTableRecord
100
AcDbRegAppTableRecord
  2
ACAD_DSTYLE_DIMEXT_LENGTH
 70
     0
  0
APPID
  5
385
330
21
100
AcDbSymbolTableRecord
100
AcDbRegAppTableRecord
  2
ACAD_DSTYLE_DIMEXT_ENABLED
 70
     0
  0
APPID
  5
386
330
21
100
AcDbSymbolTableRecord
100
AcDbRegAppTableRecord
  2
ACAD_DSTYLE_DIM_EXT1_LINETYPE
 70
     0
  0
APPID
  5
387
330
21
100
AcDbSymbolTableRecord
100
AcDbRegAppTableRecord
  2
ACAD_DSTYLE_DIMJOGGED_JOGANGLE_SYMBOL
 70
     0
  0
APPID
  5
388
330
21
100
AcDbSymbolTableRecord
100
AcDbRegAppTableRecord
  2
ACAD_DSTYLE_DIMARC_LENGTH_SYMBOL
 70
     0
  0
APPID
  5
389
330
21
100
AcDbSymbolTableRecord
100
AcDbRegAppTableRecord
  2
GENIUS_GENREC_14
 70
     0
  0
APPID
  5
38A
330
21
100
AcDbSymbolTableRecord
100
AcDbRegAppTableRecord
  2
GENIUS_GENOBJ-N-REC_13
 70
     0
  0
APPID
  5
C79
330
21
100
AcDbSymbolTableRecord
100
AcDbRegAppTableRecord
  2
AD_SKETCHDIM
 70
     0
  0
APPID
  5
FCD
330
21
100
AcDbSymbolTableRecord
100
AcDbRegAppTableRecord
  2
GENIUS_GENDIM_13
 70
     0
  0
APPID
  5
FCE
330
21
100
AcDbSymbolTableRecord
100
AcDbRegAppTableRecord
  2
GENIUS_GENDTOL_13
 70
     0
  0
APPID
  5
FCF
330
21
100
AcDbSymbolTableRecord
100
AcDbRegAppTableRecord
  2
GENIUS_GE3DTOL_13
 70
     0
  0
APPID
  5
104D
330
21
100
AcDbSymbolTableRecord
100
AcDbRegAppTableRecord
  2
ASURF_PCURVE_APPNAME
 70
     0
  0
APPID
  5
1052
330
21
100
AcDbSymbolTableRecord
100
AcDbRegAppTableRecord
  2
AMG_3D2D_5.0
 70
     0
  0
ENDTAB
  0
TABLE
  2
DIMSTYLE
  5
23
330
0
100
AcDbSymbolTable
 70
     8
100
AcDbDimStyleTable
 71
     3
340
24
340
25
340
26
  0
DIMSTYLE
105
24
330
23
100
AcDbSymbolTableRecord
100
AcDbDimStyleTableRecord
  2
AM_ISO
 70
     0
  4
"
 41
3.0
 42
1.0
 43
8.0
 44
1.0
 47
0.1
 48
0.1
 73
     0
 74
     0
 77
     1
 78
     8
 79
     2
140
3.5
141
0.0
143
0.0393701
146
0.71
147
1.0
172
     1
176
   256
177
   256
178
   256
271
     2
272
     2
283
     0
284
     8
285
     8
340
18
371
    -1
372
    -1
  0
DIMSTYLE
105
25
330
23
100
AcDbSymbolTableRecord
100
AcDbDimStyleTableRecord
  2
AM_ISO$SF
 70
     0
  4
"
 41
2.5
 42
1.0
 43
10.0
 44
1.0
 47
0.1
 48
0.1
 73
     0
 74
     0
 75
     1
 76
     1
 77
     1
 78
     8
 79
     2
140
3.5
141
0.0
143
0.0393701
146
0.71
147
1.0
172
     1
176
   256
177
   256
178
   256
271
     2
272
     2
283
     0
284
     8
340
18
371
    -1
372
    -1
  0
DIMSTYLE
105
26
330
23
100
AcDbSymbolTableRecord
100
AcDbDimStyleTableRecord
  2
AM_ISO$SH
 70
     0
  4
"
 41
2.5
 42
1.0
 43
10.0
 44
1.0
 47
0.1
 48
0.1
 73
     0
 74
     0
 75
     1
 76
     1
 77
     1
 78
     8
 79
     2
140
3.5
141
0.0
143
0.0393701
144
2.0
146
0.71
147
1.0
172
     1
173
     1
176
   256
177
   256
178
   256
271
     2
272
     2
283
     0
284
     8
340
18
343
27
371
    -1
372
    -1
  0
DIMSTYLE
105
4F
102
{ACAD_REACTORS
330
D26
330
D27
330
D28
330
D29
330
D2E
330
D2F
330
D30
330
D31
330
D33
330
D34
330
D1D
330
D1C
330
DB2
102
}
330
23
100
AcDbSymbolTableRecord
100
AcDbDimStyleTableRecord
  2
AM_ISO$0
 70
     0
  4
"
 41
3.0
 42
1.0
 43
8.0
 44
1.0
 47
0.1
 48
0.1
 73
     0
 74
     0
 77
     1
 78
     8
 79
     2
140
3.5
141
0.0
143
0.0393701
146
0.71
147
1.0
172
     1
176
   256
177
   256
178
   256
271
     2
272
     2
283
     0
284
     8
285
     8
340
18
371
    -1
372
    -1
  0
DIMSTYLE
105
17C
330
23
100
AcDbSymbolTableRecord
100
AcDbDimStyleTableRecord
  2
AM_ISO$3
 70
     0
  4
"
 41
3.0
 42
1.0
 43
8.0
 44
1.0
 47
0.1
 48
0.1
 73
     0
 77
     1
 78
     8
 79
     2
140
3.5
141
0.0
143
0.0393701
146
0.71
147
1.0
176
   256
177
   256
178
   256
271
     2
272
     2
283
     0
284
     8
285
     8
288
     1
289
     0
340
18
371
    -1
372
    -1
  0
DIMSTYLE
105
17D
330
23
100
AcDbSymbolTableRecord
100
AcDbDimStyleTableRecord
  2
AM_ISO$4
 70
     0
  4
"
 41
3.0
 42
1.0
 43
8.0
 44
1.0
 47
0.1
 48
0.1
 73
     0
 77
     1
 78
     8
 79
     2
140
3.5
141
0.0
143
0.0393701
146
0.71
147
1.0
176
   256
177
   256
178
   256
271
     2
272
     2
283
     0
284
     8
285
     8
288
     1
289
     0
340
18
371
    -1
372
    -1
  0
DIMSTYLE
105
17E
330
23
100
AcDbSymbolTableRecord
100
AcDbDimStyleTableRecord
  2
AM_ISO$6
 70
     0
  4
"
 41
3.0
 42
1.0
 43
8.0
 44
1.0
 47
0.1
 48
0.1
 73
     0
 74
     0
 78
     8
 79
     2
140
3.5
141
0.0
143
0.0393701
146
0.71
147
1.0
172
     1
176
   256
177
   256
178
   256
271
     2
272
     2
283
     0
284
     8
285
     8
340
18
371
    -1
372
    -1
  0
DIMSTYLE
105
17F
102
{ACAD_REACTORS
330
DB4
102
}
330
23
100
AcDbSymbolTableRecord
100
AcDbDimStyleTableRecord
  2
AM_ISO$7
 70
     0
  4
"
 41
2.5
 42
1.0
 43
8.0
 44
1.0
 47
0.1
 48
0.1
 73
     0
 74
     0
 77
     1
 78
     8
 79
     2
140
5.0
141
0.0
143
0.0393701
146
0.71
147
1.5
172
     1
176
   256
177
   256
178
   256
271
     2
272
     2
283
     0
284
     8
285
     8
340
18
371
    -1
372
    -1
  0
ENDTAB
  0
TABLE
  2
BLOCK_RECORD
  5
1
330
0
100
AcDbSymbolTable
 70
    15
  0
BLOCK_RECORD
  5
2
102
{ACAD_XDICTIONARY
360
3
102
}
330
1
100
AcDbSymbolTableRecord
100
AcDbBlockTableRecord
  2
*MODEL_SPACE
340
B
  0
BLOCK_RECORD
  5
D
330
1
100
AcDbSymbolTableRecord
100
AcDbBlockTableRecord
  2
*PAPER_SPACE
340
10
  0
BLOCK_RECORD
  5
27
330
1
100
AcDbSymbolTableRecord
100
AcDbBlockTableRecord
  2
GENAXEH
340
0
  0
BLOCK_RECORD
  5
DB8
330
1
100
AcDbSymbolTableRecord
100
AcDbBlockTableRecord
  2
*D1
340
0
  0
BLOCK_RECORD
  5
DC4
330
1
100
AcDbSymbolTableRecord
100
AcDbBlockTableRecord
  2
*D2
340
0
  0
BLOCK_RECORD
  5
DD0
330
1
100
AcDbSymbolTableRecord
100
AcDbBlockTableRecord
  2
*D3
340
0
  0
BLOCK_RECORD
  5
DDC
330
1
100
AcDbSymbolTableRecord
100
AcDbBlockTableRecord
  2
*D4
340
0
  0
BLOCK_RECORD
  5
DE8
330
1
100
AcDbSymbolTableRecord
100
AcDbBlockTableRecord
  2
*D5
340
0
  0
BLOCK_RECORD
  5
DF4
330
1
100
AcDbSymbolTableRecord
100
AcDbBlockTableRecord
  2
*D6
340
0
  0
BLOCK_RECORD
  5
E00
330
1
100
AcDbSymbolTableRecord
100
AcDbBlockTableRecord
  2
*D7
340
0
  0
BLOCK_RECORD
  5
E0C
330
1
100
AcDbSymbolTableRecord
100
AcDbBlockTableRecord
  2
*D8
340
0
  0
BLOCK_RECORD
  5
E18
330
1
100
AcDbSymbolTableRecord
100
AcDbBlockTableRecord
  2
*D9
340
0
  0
BLOCK_RECORD
  5
E24
330
1
100
AcDbSymbolTableRecord
100
AcDbBlockTableRecord
  2
*D10
340
0
  0
BLOCK_RECORD
  5
E30
330
1
100
AcDbSymbolTableRecord
100
AcDbBlockTableRecord
  2
*D11
340
0
  0
BLOCK_RECORD
  5
E3C
330
1
100
AcDbSymbolTableRecord
100
AcDbBlockTableRecord
  2
*D12
340
0
  0
BLOCK_RECORD
  5
E48
330
1
100
AcDbSymbolTableRecord
100
AcDbBlockTableRecord
  2
*D13
340
0
  0
ENDTAB
  0
ENDSEC
  0
SECTION
  2
BLOCKS
  0
BLOCK
  5
4
330
2
100
AcDbEntity
  8
0
100
AcDbBlockBegin
  2
*MODEL_SPACE
 70
     0
 10
0.0
 20
0.0
 30
0.0
  3
*MODEL_SPACE
  1

  0
ENDBLK
  5
A
330
2
100
AcDbEntity
  8
0
100
AcDbBlockEnd
  0
BLOCK
  5
E
330
D
100
AcDbEntity
 67
     1
  8
0
100
AcDbBlockBegin
  2
*PAPER_SPACE
 70
     0
 10
0.0
 20
0.0
 30
0.0
  3
*PAPER_SPACE
  1

  0
ENDBLK
  5
F
330
D
100
AcDbEntity
 67
     1
  8
0
100
AcDbBlockEnd
  0
BLOCK
  5
28
330
27
100
AcDbEntity
  8
0
100
AcDbBlockBegin
  2
GENAXEH
 70
     0
 10
0.0
 20
0.0
 30
0.0
  3
GENAXEH
  1

  0
LINE
  5
29
330
27
100
AcDbEntity
  8
0
100
AcDbLine
 10
-1.0
 20
0.0
 30
0.0
 11
1.0
 21
0.0
 31
0.0
  0
ENDBLK
  5
2A
330
27
100
AcDbEntity
  8
0
100
AcDbBlockEnd
  0
BLOCK
  5
DC2
330
DB8
100
AcDbEntity
  8
0
 62
     6
100
AcDbBlockBegin
  2
*D1
 70
     1
 10
0.0
 20
0.0
 30
0.0
  3
*D1
  1

  0
LINE
  5
F75
330
DB8
100
AcDbEntity
  8
AM_REFDIM
100
AcDbLine
 10
175.7390525893762
 20
105.8031150105258
 30
0.0
 11
186.5829615941213
 21
105.8031150105258
 31
0.0
  0
LINE
  5
F76
330
DB8
100
AcDbEntity
  8
AM_REFDIM
100
AcDbLine
 10
177.2390525893762
 20
95.80311501052582
 30
0.0
 11
186.5829615941213
 21
95.80311501052582
 31
0.0
  0
LINE
  5
F77
330
DB8
100
AcDbEntity
  8
AM_REFDIM
100
AcDbLine
 10
185.5829615941213
 20
102.8031150105258
 30
0.0
 11
185.5829615941213
 21
98.80311501052583
 31
0.0
  0
SOLID
  5
F78
330
DB8
100
AcDbEntity
  8
AM_REFDIM
100
AcDbTrace
 10
185.0829615941213
 20
102.8031150105258
 30
0.0
 11
186.0829615941213
 21
102.8031150105258
 31
0.0
 12
185.5829615941213
 22
105.8031150105258
 32
0.0
 13
185.5829615941213
 23
105.8031150105258
 33
0.0
  0
SOLID
  5
F79
330
DB8
100
AcDbEntity
  8
AM_REFDIM
100
AcDbTrace
 10
185.0829615941213
 20
98.80311501052583
 30
0.0
 11
186.0829615941213
 21
98.80311501052583
 31
0.0
 12
185.5829615941213
 22
95.80311501052582
 32
0.0
 13
185.5829615941213
 23
95.80311501052582
 33
0.0
  0
MTEXT
  5
F7A
330
DB8
100
AcDbEntity
  8
AM_REFDIM
 62
     5
100
AcDbMText
 10
182.8329615941213
 20
100.8031150105258
 30
0.0
 40
3.5
 41
0.0
 71
     5
 72
     1
  1
10
 11
0.0000000000000001
 21
1.0
 31
0.0
 73
     1
 44
1.0
1001
ACAD
1000
MTEXTBEGIN
1070
    73
1070
     1
1070
    44
1040
1.0
1070
    74
1070
     0
1000
MTEXTEND
  0
POINT
  5
F7B
330
DB8
100
AcDbEntity
  8
Defpoints
 62
     0
100
AcDbPoint
 10
174.7390525893762
 20
105.8031150105258
 30
0.0
  0
POINT
  5
F7C
330
DB8
100
AcDbEntity
  8
Defpoints
 62
     0
100
AcDbPoint
 10
176.2390525893762
 20
95.80311501052582
 30
0.0
  0
POINT
  5
F7D
330
DB8
100
AcDbEntity
  8
Defpoints
 62
     0
100
AcDbPoint
 10
185.5829615941213
 20
95.80311501052582
 30
0.0
  0
ENDBLK
  5
DC3
330
DB8
100
AcDbEntity
  8
0
 62
     6
100
AcDbBlockEnd
  0
BLOCK
  5
DCE
330
DC4
100
AcDbEntity
  8
0
 62
     6
100
AcDbBlockBegin
  2
*D2
 70
     1
 10
0.0
 20
0.0
 30
0.0
  3
*D2
  1

  0
LINE
  5
F63
330
DC4
100
AcDbEntity
  8
AM_REFDIM
100
AcDbLine
 10
186.2390525893762
 20
172.7981340105258
 30
0.0
 11
195.0958469920971
 21
172.7981340105258
 31
0.0
  0
LINE
  5
F64
330
DC4
100
AcDbEntity
  8
AM_REFDIM
100
AcDbLine
 10
177.2390525893762
 20
95.80311501052582
 30
0.0
 11
195.0958469920971
 21
95.80311501052582
 31
0.0
  0
LINE
  5
F65
330
DC4
100
AcDbEntity
  8
AM_REFDIM
100
AcDbLine
 10
194.0958469920971
 20
169.7981340105258
 30
0.0
 11
194.0958469920971
 21
98.80311501052583
 31
0.0
  0
SOLID
  5
F66
330
DC4
100
AcDbEntity
  8
AM_REFDIM
100
AcDbTrace
 10
193.5958469920971
 20
169.7981340105258
 30
0.0
 11
194.5958469920972
 21
169.7981340105258
 31
0.0
 12
194.0958469920971
 22
172.7981340105258
 32
0.0
 13
194.0958469920971
 23
172.7981340105258
 33
0.0
  0
SOLID
  5
F67
330
DC4
100
AcDbEntity
  8
AM_REFDIM
100
AcDbTrace
 10
193.5958469920971
 20
98.80311501052583
 30
0.0
 11
194.5958469920972
 21
98.80311501052583
 31
0.0
 12
194.0958469920971
 22
95.80311501052582
 32
0.0
 13
194.0958469920971
 23
95.80311501052582
 33
0.0
  0
MTEXT
  5
F68
330
DC4
100
AcDbEntity
  8
AM_REFDIM
 62
     5
100
AcDbMText
 10
191.3458469920971
 20
134.3006245105258
 30
0.0
 40
3.5
 41
0.0
 71
     5
 72
     1
  1
77
 11
0.0000000000000001
 21
1.0
 31
0.0
 73
     1
 44
1.0
1001
ACAD
1000
MTEXTBEGIN
1070
    73
1070
     1
1070
    44
1040
1.0
1070
    74
1070
     0
1000
MTEXTEND
  0
POINT
  5
F69
330
DC4
100
AcDbEntity
  8
Defpoints
 62
     0
100
AcDbPoint
 10
185.2390525893762
 20
172.7981340105258
 30
0.0
  0
POINT
  5
F6A
330
DC4
100
AcDbEntity
  8
Defpoints
 62
     0
100
AcDbPoint
 10
176.2390525893762
 20
95.80311501052582
 30
0.0
  0
POINT
  5
F6B
330
DC4
100
AcDbEntity
  8
Defpoints
 62
     0
100
AcDbPoint
 10
194.0958469920971
 20
95.80311501052582
 30
0.0
  0
ENDBLK
  5
DCF
330
DC4
100
AcDbEntity
  8
0
 62
     6
100
AcDbBlockEnd
  0
BLOCK
  5
DDA
330
DD0
100
AcDbEntity
  8
0
 62
     6
100
AcDbBlockBegin
  2
*D3
 70
     1
 10
0.0
 20
0.0
 30
0.0
  3
*D3
  1

  0
LINE
  5
E66
330
DD0
100
AcDbEntity
  8
AM_REFDIM
100
AcDbLine
 10
136.2390525893762
 20
173.7981340105258
 30
0.0
 11
136.2390525893762
 21
210.0859222874457
 31
0.0
  0
LINE
  5
E67
330
DD0
100
AcDbEntity
  8
AM_REFDIM
100
AcDbLine
 10
182.2390525893762
 20
173.7981340105258
 30
0.0
 11
182.2390525893762
 21
210.0859222874457
 31
0.0
  0
LINE
  5
E68
330
DD0
100
AcDbEntity
  8
AM_REFDIM
100
AcDbLine
 10
139.2390525893762
 20
209.0859222874457
 30
0.0
 11
179.2390525893762
 21
209.0859222874457
 31
0.0
  0
SOLID
  5
E69
330
DD0
100
AcDbEntity
  8
AM_REFDIM
100
AcDbTrace
 10
139.2390525893762
 20
209.5859222874457
 30
0.0
 11
139.2390525893762
 21
208.5859222874457
 31
0.0
 12
136.2390525893762
 22
209.0859222874457
 32
0.0
 13
136.2390525893762
 23
209.0859222874457
 33
0.0
  0
SOLID
  5
E6A
330
DD0
100
AcDbEntity
  8
AM_REFDIM
100
AcDbTrace
 10
179.2390525893762
 20
209.5859222874457
 30
0.0
 11
179.2390525893762
 21
208.5859222874457
 31
0.0
 12
182.2390525893762
 22
209.0859222874457
 32
0.0
 13
182.2390525893762
 23
209.0859222874457
 33
0.0
  0
MTEXT
  5
E6B
330
DD0
100
AcDbEntity
  8
AM_REFDIM
 62
     5
100
AcDbMText
 10
159.2390525893762
 20
211.8359222874457
 30
0.0
 40
3.5
 41
0.0
 71
     5
 72
     1
  1
46
 73
     1
 44
1.0
1001
ACAD
1000
MTEXTBEGIN
1070
    73
1070
     1
1070
    44
1040
1.0
1070
    74
1070
     0
1000
MTEXTEND
  0
POINT
  5
E6C
330
DD0
100
AcDbEntity
  8
Defpoints
 62
     0
100
AcDbPoint
 10
136.2390525893762
 20
172.7981340105258
 30
0.0
  0
POINT
  5
E6D
330
DD0
100
AcDbEntity
  8
Defpoints
 62
     0
100
AcDbPoint
 10
182.2390525893762
 20
172.7981340105258
 30
0.0
  0
POINT
  5
E6E
330
DD0
100
AcDbEntity
  8
Defpoints
 62
     0
100
AcDbPoint
 10
182.2390525893762
 20
209.0859222874457
 30
0.0
  0
ENDBLK
  5
DDB
330
DD0
100
AcDbEntity
  8
0
 62
     6
100
AcDbBlockEnd
  0
BLOCK
  5
DE6
330
DDC
100
AcDbEntity
  8
0
 62
     6
100
AcDbBlockBegin
  2
*D4
 70
     1
 10
0.0
 20
0.0
 30
0.0
  3
*D4
  1

  0
LINE
  5
E6F
330
DDC
100
AcDbEntity
  8
AM_REFDIM
100
AcDbLine
 10
160.2390525893762
 20
195.7981340105258
 30
0.0
 11
207.5970387190769
 21
195.7981340105258
 31
0.0
  0
LINE
  5
E70
330
DDC
100
AcDbEntity
  8
AM_REFDIM
100
AcDbLine
 10
177.2390525893762
 20
95.80311501052582
 30
0.0
 11
207.5970387190769
 21
95.80311501052582
 31
0.0
  0
LINE
  5
E71
330
DDC
100
AcDbEntity
  8
AM_REFDIM
100
AcDbLine
 10
206.5970387190769
 20
192.7981340105258
 30
0.0
 11
206.5970387190769
 21
98.80311501052583
 31
0.0
  0
SOLID
  5
E72
330
DDC
100
AcDbEntity
  8
AM_REFDIM
100
AcDbTrace
 10
206.0970387190769
 20
192.7981340105258
 30
0.0
 11
207.0970387190769
 21
192.7981340105258
 31
0.0
 12
206.5970387190769
 22
195.7981340105258
 32
0.0
 13
206.5970387190769
 23
195.7981340105258
 33
0.0
  0
SOLID
  5
E73
330
DDC
100
AcDbEntity
  8
AM_REFDIM
100
AcDbTrace
 10
206.0970387190768
 20
98.80311501052583
 30
0.0
 11
207.0970387190769
 21
98.80311501052583
 31
0.0
 12
206.5970387190769
 22
95.80311501052582
 32
0.0
 13
206.5970387190769
 23
95.80311501052582
 33
0.0
  0
MTEXT
  5
E74
330
DDC
100
AcDbEntity
  8
AM_REFDIM
 62
     5
100
AcDbMText
 10
203.8470387190769
 20
145.8006245105258
 30
0.0
 40
3.5
 41
0.0
 71
     5
 72
     1
  1
100
 11
0.0000000000000001
 21
1.0
 31
0.0
 73
     1
 44
1.0
1001
ACAD
1000
MTEXTBEGIN
1070
    73
1070
     1
1070
    44
1040
1.0
1070
    74
1070
     0
1000
MTEXTEND
  0
POINT
  5
E75
330
DDC
100
AcDbEntity
  8
Defpoints
 62
     0
100
AcDbPoint
 10
159.2390525893762
 20
195.7981340105258
 30
0.0
  0
POINT
  5
E76
330
DDC
100
AcDbEntity
  8
Defpoints
 62
     0
100
AcDbPoint
 10
176.2390525893762
 20
95.80311501052582
 30
0.0
  0
POINT
  5
E77
330
DDC
100
AcDbEntity
  8
Defpoints
 62
     0
100
AcDbPoint
 10
206.5970387190769
 20
95.80311501052582
 30
0.0
  0
ENDBLK
  5
DE7
330
DDC
100
AcDbEntity
  8
0
 62
     6
100
AcDbBlockEnd
  0
BLOCK
  5
DF2
330
DE8
100
AcDbEntity
  8
0
 62
     6
100
AcDbBlockBegin
  2
*D5
 70
     1
 10
0.0
 20
0.0
 30
0.0
  3
*D5
  1

  0
LINE
  5
F90
330
DE8
100
AcDbEntity
  8
AM_REFDIM
100
AcDbLine
 10
145.4890525893762
 20
105.8031150105258
 30
0.0
 11
145.4890525893762
 21
82.80311501052583
 31
0.0
  0
LINE
  5
F91
330
DE8
100
AcDbEntity
  8
AM_REFDIM
100
AcDbLine
 10
172.9890525893762
 20
105.8031150105258
 30
0.0
 11
172.9890525893762
 21
82.80311501052583
 31
0.0
  0
LINE
  5
F92
330
DE8
100
AcDbEntity
  8
AM_REFDIM
100
AcDbLine
 10
148.4890525893762
 20
83.80311501052583
 30
0.0
 11
169.9890525893762
 21
83.80311501052583
 31
0.0
  0
SOLID
  5
F93
330
DE8
100
AcDbEntity
  8
AM_REFDIM
100
AcDbTrace
 10
148.4890525893762
 20
84.30311501052583
 30
0.0
 11
148.4890525893762
 21
83.30311501052582
 31
0.0
 12
145.4890525893762
 22
83.80311501052583
 32
0.0
 13
145.4890525893762
 23
83.80311501052583
 33
0.0
  0
SOLID
  5
F94
330
DE8
100
AcDbEntity
  8
AM_REFDIM
100
AcDbTrace
 10
169.9890525893762
 20
84.30311501052583
 30
0.0
 11
169.9890525893762
 21
83.30311501052582
 31
0.0
 12
172.9890525893762
 22
83.80311501052583
 32
0.0
 13
172.9890525893762
 23
83.80311501052583
 33
0.0
  0
MTEXT
  5
F95
330
DE8
100
AcDbEntity
  8
AM_REFDIM
 62
     5
100
AcDbMText
 10
159.2390525893762
 20
86.55345949871479
 30
0.0
 40
3.5
 41
0.0
 71
     5
 72
     1
  1
27.5
 73
     1
 44
1.0
1001
ACAD
1000
MTEXTBEGIN
1070
    73
1070
     1
1070
    44
1040
1.0
1070
    74
1070
     0
1000
MTEXTEND
  0
POINT
  5
F96
330
DE8
100
AcDbEntity
  8
Defpoints
 62
     0
100
AcDbPoint
 10
145.4890525893762
 20
106.8031150105258
 30
0.0
  0
POINT
  5
F97
330
DE8
100
AcDbEntity
  8
Defpoints
 62
     0
100
AcDbPoint
 10
172.9890525893762
 20
106.8031150105258
 30
0.0
  0
POINT
  5
F98
330
DE8
100
AcDbEntity
  8
Defpoints
 62
     0
100
AcDbPoint
 10
172.9890525893762
 20
83.80311501052583
 30
0.0
  0
ENDBLK
  5
DF3
330
DE8
100
AcDbEntity
  8
0
 62
     6
100
AcDbBlockEnd
  0
BLOCK
  5
DFE
330
DF4
100
AcDbEntity
  8
0
 62
     6
100
AcDbBlockBegin
  2
*D6
 70
     1
 10
0.0
 20
0.0
 30
0.0
  3
*D6
  1

  0
LINE
  5
F87
330
DF4
100
AcDbEntity
  8
AM_REFDIM
100
AcDbLine
 10
142.2390525893762
 20
94.80311501052582
 30
0.0
 11
142.2390525893762
 21
74.80311501052582
 31
0.0
  0
LINE
  5
F88
330
DF4
100
AcDbEntity
  8
AM_REFDIM
100
AcDbLine
 10
176.2390525893762
 20
94.80311501052582
 30
0.0
 11
176.2390525893762
 21
74.80311501052582
 31
0.0
  0
LINE
  5
F89
330
DF4
100
AcDbEntity
  8
AM_REFDIM
100
AcDbLine
 10
145.2390525893762
 20
75.80311501052583
 30
0.0
 11
173.2390525893762
 21
75.80311501052583
 31
0.0
  0
SOLID
  5
F8A
330
DF4
100
AcDbEntity
  8
AM_REFDIM
100
AcDbTrace
 10
145.2390525893762
 20
76.30311501052583
 30
0.0
 11
145.2390525893762
 21
75.30311501052583
 31
0.0
 12
142.2390525893762
 22
75.80311501052583
 32
0.0
 13
142.2390525893762
 23
75.80311501052583
 33
0.0
  0
SOLID
  5
F8B
330
DF4
100
AcDbEntity
  8
AM_REFDIM
100
AcDbTrace
 10
173.2390525893762
 20
76.30311501052583
 30
0.0
 11
173.2390525893762
 21
75.30311501052583
 31
0.0
 12
176.2390525893762
 22
75.80311501052583
 32
0.0
 13
176.2390525893762
 23
75.80311501052583
 33
0.0
  0
MTEXT
  5
F8C
330
DF4
100
AcDbEntity
  8
AM_REFDIM
 62
     5
100
AcDbMText
 10
159.2390525893762
 20
78.55311501052582
 30
0.0
 40
3.5
 41
0.0
 71
     5
 72
     1
  1
34
 73
     1
 44
1.0
1001
ACAD
1000
MTEXTBEGIN
1070
    73
1070
     1
1070
    44
1040
1.0
1070
    74
1070
     0
1000
MTEXTEND
  0
POINT
  5
F8D
330
DF4
100
AcDbEntity
  8
Defpoints
 62
     0
100
AcDbPoint
 10
142.2390525893762
 20
95.80311501052582
 30
0.0
  0
POINT
  5
F8E
330
DF4
100
AcDbEntity
  8
Defpoints
 62
     0
100
AcDbPoint
 10
176.2390525893762
 20
95.80311501052582
 30
0.0
  0
POINT
  5
F8F
330
DF4
100
AcDbEntity
  8
Defpoints
 62
     0
100
AcDbPoint
 10
176.2390525893762
 20
75.80311501052583
 30
0.0
  0
ENDBLK
  5
DFF
330
DF4
100
AcDbEntity
  8
0
 62
     6
100
AcDbBlockEnd
  0
BLOCK
  5
E0A
330
E00
100
AcDbEntity
  8
0
 62
     6
100
AcDbBlockBegin
  2
*D7
 70
     1
 10
0.0
 20
0.0
 30
0.0
  3
*D7
  1

  0
LINE
  5
E8A
330
E00
100
AcDbEntity
  8
AM_REFDIM
100
AcDbLine
 10
235.2665039539517
 20
182.7981340105258
 30
0.0
 11
229.4008018400469
 21
182.7981340105258
 31
0.0
  0
LINE
  5
E8B
330
E00
100
AcDbEntity
  8
AM_REFDIM
100
AcDbLine
 10
235.2665039539517
 20
162.7981340105258
 30
0.0
 11
229.4008018400469
 21
162.7981340105258
 31
0.0
  0
LINE
  5
E8C
330
E00
100
AcDbEntity
  8
AM_REFDIM
100
AcDbLine
 10
230.400801840047
 20
179.7981340105258
 30
0.0
 11
230.400801840047
 21
165.7981340105258
 31
0.0
  0
SOLID
  5
E8D
330
E00
100
AcDbEntity
  8
AM_REFDIM
100
AcDbTrace
 10
229.9008018400469
 20
179.7981340105258
 30
0.0
 11
230.9008018400469
 21
179.7981340105258
 31
0.0
 12
230.400801840047
 22
182.7981340105258
 32
0.0
 13
230.400801840047
 23
182.7981340105258
 33
0.0
  0
SOLID
  5
E8E
330
E00
100
AcDbEntity
  8
AM_REFDIM
100
AcDbTrace
 10
229.9008018400469
 20
165.7981340105258
 30
0.0
 11
230.9008018400469
 21
165.7981340105258
 31
0.0
 12
230.400801840047
 22
162.7981340105258
 32
0.0
 13
230.400801840047
 23
162.7981340105258
 33
0.0
  0
MTEXT
  5
E8F
330
E00
100
AcDbEntity
  8
AM_REFDIM
 62
     5
100
AcDbMText
 10
227.6504573518579
 20
172.7981340105259
 30
0.0
 40
3.5
 41
0.0
 71
     5
 72
     1
  1
%%c20
 11
0.0000000000000001
 21
1.0
 31
0.0
 73
     1
 44
1.0
1001
ACAD
1000
MTEXTBEGIN
1070
    73
1070
     1
1070
    44
1040
1.0
1070
    74
1070
     0
1000
MTEXTEND
  0
POINT
  5
E90
330
E00
100
AcDbEntity
  8
Defpoints
 62
     0
100
AcDbPoint
 10
236.2665039539517
 20
182.7981340105258
 30
0.0
  0
POINT
  5
E91
330
E00
100
AcDbEntity
  8
Defpoints
 62
     0
100
AcDbPoint
 10
236.2665039539517
 20
162.7981340105258
 30
0.0
  0
POINT
  5
E92
330
E00
100
AcDbEntity
  8
Defpoints
 62
     0
100
AcDbPoint
 10
230.400801840047
 20
162.7981340105258
 30
0.0
  0
ENDBLK
  5
E0B
330
E00
100
AcDbEntity
  8
0
 62
     6
100
AcDbBlockEnd
  0
BLOCK
  5
E16
330
E0C
100
AcDbEntity
  8
0
 62
     6
100
AcDbBlockBegin
  2
*D8
 70
     1
 10
0.0
 20
0.0
 30
0.0
  3
*D8
  1

  0
LINE
  5
E93
330
E0C
100
AcDbEntity
  8
AM_REFDIM
100
AcDbLine
 10
262.2665039539517
 20
184.9919400713913
 30
0.0
 11
272.6739989210705
 21
184.9919400713913
 31
0.0
  0
LINE
  5
E94
330
E0C
100
AcDbEntity
  8
AM_REFDIM
100
AcDbLine
 10
262.2665039539517
 20
160.6043279496603
 30
0.0
 11
272.6739989210705
 21
160.6043279496603
 31
0.0
  0
LINE
  5
E95
330
E0C
100
AcDbEntity
  8
AM_REFDIM
100
AcDbLine
 10
271.6739989210704
 20
181.9919400713913
 30
0.0
 11
271.6739989210704
 21
163.6043279496603
 31
0.0
  0
SOLID
  5
E96
330
E0C
100
AcDbEntity
  8
AM_REFDIM
100
AcDbTrace
 10
271.1739989210705
 20
181.9919400713913
 30
0.0
 11
272.1739989210704
 21
181.9919400713913
 31
0.0
 12
271.6739989210704
 22
184.9919400713913
 32
0.0
 13
271.6739989210704
 23
184.9919400713913
 33
0.0
  0
SOLID
  5
E97
330
E0C
100
AcDbEntity
  8
AM_REFDIM
100
AcDbTrace
 10
271.1739989210705
 20
163.6043279496603
 30
0.0
 11
272.1739989210704
 21
163.6043279496603
 31
0.0
 12
271.6739989210704
 22
160.6043279496603
 32
0.0
 13
271.6739989210704
 23
160.6043279496603
 33
0.0
  0
MTEXT
  5
E98
330
E0C
100
AcDbEntity
  8
AM_REFDIM
 62
     5
100
AcDbMText
 10
268.9236544328814
 20
172.7981340105258
 30
0.0
 40
3.5
 41
0.0
 71
     5
 72
     1
  1
%%c24.38
 11
0.0000000000000001
 21
1.0
 31
0.0
 73
     1
 44
1.0
1001
ACAD
1000
MTEXTBEGIN
1070
    73
1070
     1
1070
    44
1040
1.0
1070
    74
1070
     0
1000
MTEXTEND
  0
POINT
  5
E99
330
E0C
100
AcDbEntity
  8
Defpoints
 62
     0
100
AcDbPoint
 10
261.2665039539517
 20
184.9919400713913
 30
0.0
  0
POINT
  5
E9A
330
E0C
100
AcDbEntity
  8
Defpoints
 62
     0
100
AcDbPoint
 10
261.2665039539517
 20
160.6043279496603
 30
0.0
  0
POINT
  5
E9B
330
E0C
100
AcDbEntity
  8
Defpoints
 62
     0
100
AcDbPoint
 10
271.6739989210704
 20
160.6043279496603
 30
0.0
  0
ENDBLK
  5
E17
330
E0C
100
AcDbEntity
  8
0
 62
     6
100
AcDbBlockEnd
  0
BLOCK
  5
E22
330
E18
100
AcDbEntity
  8
0
 62
     6
100
AcDbBlockBegin
  2
*D9
 70
     1
 10
0.0
 20
0.0
 30
0.0
  3
*D9
  1

  0
LINE
  5
E9C
330
E18
100
AcDbEntity
  8
AM_REFDIM
100
AcDbLine
 10
259.9695039539517
 20
135.8031150105258
 30
0.0
 11
280.2100117077007
 21
135.8031150105258
 31
0.0
  0
LINE
  5
E9D
330
E18
100
AcDbEntity
  8
AM_REFDIM
100
AcDbLine
 10
264.7665039539516
 20
95.80311501052582
 30
0.0
 11
280.2100117077007
 21
95.80311501052582
 31
0.0
  0
LINE
  5
E9E
330
E18
100
AcDbEntity
  8
AM_REFDIM
100
AcDbLine
 10
279.2100117077007
 20
132.8031150105258
 30
0.0
 11
279.2100117077006
 21
98.80311501052583
 31
0.0
  0
SOLID
  5
E9F
330
E18
100
AcDbEntity
  8
AM_REFDIM
100
AcDbTrace
 10
278.7100117077007
 20
132.8031150105258
 30
0.0
 11
279.7100117077007
 21
132.8031150105258
 31
0.0
 12
279.2100117077007
 22
135.8031150105258
 32
0.0
 13
279.2100117077007
 23
135.8031150105258
 33
0.0
  0
SOLID
  5
EA0
330
E18
100
AcDbEntity
  8
AM_REFDIM
100
AcDbTrace
 10
278.7100117077006
 20
98.80311501052583
 30
0.0
 11
279.7100117077006
 21
98.80311501052583
 31
0.0
 12
279.2100117077006
 22
95.80311501052582
 32
0.0
 13
279.2100117077006
 23
95.80311501052582
 33
0.0
  0
MTEXT
  5
EA1
330
E18
100
AcDbEntity
  8
AM_REFDIM
 62
     5
100
AcDbMText
 10
276.4600117077006
 20
115.8031150105258
 30
0.0
 40
3.5
 41
0.0
 71
     5
 72
     1
  1
40
 11
0.0000000000000001
 21
1.0
 31
0.0
 73
     1
 44
1.0
1001
ACAD
1000
MTEXTBEGIN
1070
    73
1070
     1
1070
    44
1040
1.0
1070
    74
1070
     0
1000
MTEXTEND
  0
POINT
  5
EA2
330
E18
100
AcDbEntity
  8
Defpoints
 62
     0
100
AcDbPoint
 10
258.9695039539517
 20
135.8031150105258
 30
0.0
  0
POINT
  5
EA3
330
E18
100
AcDbEntity
  8
Defpoints
 62
     0
100
AcDbPoint
 10
263.7665039539517
 20
95.80311501052582
 30
0.0
  0
POINT
  5
EA4
330
E18
100
AcDbEntity
  8
Defpoints
 62
     0
100
AcDbPoint
 10
279.2100117077006
 20
95.80311501052582
 30
0.0
  0
ENDBLK
  5
E23
330
E18
100
AcDbEntity
  8
0
 62
     6
100
AcDbBlockEnd
  0
BLOCK
  5
E2E
330
E24
100
AcDbEntity
  8
0
 62
     6
100
AcDbBlockBegin
  2
*D10
 70
     1
 10
0.0
 20
0.0
 30
0.0
  3
*D10
  1

  0
LINE
  5
EA5
330
E24
100
AcDbEntity
  8
AM_REFDIM
100
AcDbLine
 10
233.7665039539517
 20
94.80311501052582
 30
0.0
 11
233.7665039539517
 21
83.48699500936985
 31
0.0
  0
LINE
  5
EA6
330
E24
100
AcDbEntity
  8
AM_REFDIM
100
AcDbLine
 10
263.7665039539517
 20
94.80311501052582
 30
0.0
 11
263.7665039539517
 21
83.48699500936985
 31
0.0
  0
LINE
  5
EA7
330
E24
100
AcDbEntity
  8
AM_REFDIM
100
AcDbLine
 10
236.7665039539517
 20
84.48699500936985
 30
0.0
 11
260.7665039539516
 21
84.48699500936985
 31
0.0
  0
SOLID
  5
EA8
330
E24
100
AcDbEntity
  8
AM_REFDIM
100
AcDbTrace
 10
236.7665039539517
 20
84.98699500936984
 30
0.0
 11
236.7665039539517
 21
83.98699500936984
 31
0.0
 12
233.7665039539517
 22
84.48699500936985
 32
0.0
 13
233.7665039539517
 23
84.48699500936985
 33
0.0
  0
SOLID
  5
EA9
330
E24
100
AcDbEntity
  8
AM_REFDIM
100
AcDbTrace
 10
260.7665039539516
 20
84.98699500936984
 30
0.0
 11
260.7665039539516
 21
83.98699500936984
 31
0.0
 12
263.7665039539517
 22
84.48699500936985
 32
0.0
 13
263.7665039539517
 23
84.48699500936985
 33
0.0
  0
MTEXT
  5
EAA
330
E24
100
AcDbEntity
  8
AM_REFDIM
 62
     5
100
AcDbMText
 10
248.7665039539517
 20
87.23699500936985
 30
0.0
 40
3.5
 41
0.0
 71
     5
 72
     1
  1
30
 73
     1
 44
1.0
1001
ACAD
1000
MTEXTBEGIN
1070
    73
1070
     1
1070
    44
1040
1.0
1070
    74
1070
     0
1000
MTEXTEND
  0
POINT
  5
EAB
330
E24
100
AcDbEntity
  8
Defpoints
 62
     0
100
AcDbPoint
 10
233.7665039539517
 20
95.80311501052582
 30
0.0
  0
POINT
  5
EAC
330
E24
100
AcDbEntity
  8
Defpoints
 62
     0
100
AcDbPoint
 10
263.7665039539517
 20
95.80311501052582
 30
0.0
  0
POINT
  5
EAD
330
E24
100
AcDbEntity
  8
Defpoints
 62
     0
100
AcDbPoint
 10
263.7665039539517
 20
84.48699500936985
 30
0.0
  0
ENDBLK
  5
E2F
330
E24
100
AcDbEntity
  8
0
 62
     6
100
AcDbBlockEnd
  0
BLOCK
  5
E3A
330
E30
100
AcDbEntity
  8
0
 62
     6
100
AcDbBlockBegin
  2
*D11
 70
     1
 10
0.0
 20
0.0
 30
0.0
  3
*D11
  1

  0
LINE
  5
EAE
330
E30
100
AcDbEntity
  8
AM_REFDIM
100
AcDbLine
 10
261.2665039539517
 20
185.9919400713913
 30
0.0
 11
261.2665039539517
 21
208.5903954653042
 31
0.0
  0
LINE
  5
EAF
330
E30
100
AcDbEntity
  8
AM_REFDIM
100
AcDbLine
 10
236.2665039539517
 20
185.9919400713913
 30
0.0
 11
236.2665039539517
 21
208.5903954653042
 31
0.0
  0
LINE
  5
EB0
330
E30
100
AcDbEntity
  8
AM_REFDIM
100
AcDbLine
 10
258.2665039539516
 20
207.5903954653042
 30
0.0
 11
239.2665039539517
 21
207.5903954653042
 31
0.0
  0
SOLID
  5
EB1
330
E30
100
AcDbEntity
  8
AM_REFDIM
100
AcDbTrace
 10
258.2665039539516
 20
208.0903954653042
 30
0.0
 11
258.2665039539516
 21
207.0903954653042
 31
0.0
 12
261.2665039539517
 22
207.5903954653042
 32
0.0
 13
261.2665039539517
 23
207.5903954653042
 33
0.0
  0
SOLID
  5
EB2
330
E30
100
AcDbEntity
  8
AM_REFDIM
100
AcDbTrace
 10
239.2665039539517
 20
208.0903954653042
 30
0.0
 11
239.2665039539517
 21
207.0903954653042
 31
0.0
 12
236.2665039539517
 22
207.5903954653042
 32
0.0
 13
236.2665039539517
 23
207.5903954653042
 33
0.0
  0
MTEXT
  5
EB3
330
E30
100
AcDbEntity
  8
AM_REFDIM
 62
     5
100
AcDbMText
 10
248.7665039539517
 20
210.3407399534932
 30
0.0
 40
3.5
 41
0.0
 71
     5
 72
     1
  1
25
 73
     1
 44
1.0
1001
ACAD
1000
MTEXTBEGIN
1070
    73
1070
     1
1070
    44
1040
1.0
1070
    74
1070
     0
1000
MTEXTEND
  0
POINT
  5
EB4
330
E30
100
AcDbEntity
  8
Defpoints
 62
     0
100
AcDbPoint
 10
261.2665039539517
 20
184.9919400713913
 30
0.0
  0
POINT
  5
EB5
330
E30
100
AcDbEntity
  8
Defpoints
 62
     0
100
AcDbPoint
 10
236.2665039539517
 20
184.9919400713913
 30
0.0
  0
POINT
  5
EB6
330
E30
100
AcDbEntity
  8
Defpoints
 62
     0
100
AcDbPoint
 10
236.2665039539517
 20
207.5903954653042
 30
0.0
  0
ENDBLK
  5
E3B
330
E30
100
AcDbEntity
  8
0
 62
     6
100
AcDbBlockEnd
  0
BLOCK
  5
E46
330
E3C
100
AcDbEntity
  8
0
 62
     6
100
AcDbBlockBegin
  2
*D12
 70
     1
 10
0.0
 20
0.0
 30
0.0
  3
*D12
  1

  0
LINE
  5
EB7
330
E3C
100
AcDbEntity
  8
AM_REFDIM
100
AcDbLine
 10
257.7665039539517
 20
194.7981340105258
 30
0.0
 11
257.7665039539517
 21
202.2919296596204
 31
0.0
  0
LINE
  5
EB8
330
E3C
100
AcDbEntity
  8
AM_REFDIM
100
AcDbLine
 10
239.7665039539517
 20
194.7981340105258
 30
0.0
 11
239.7665039539517
 21
202.2919296596204
 31
0.0
  0
LINE
  5
EB9
330
E3C
100
AcDbEntity
  8
AM_REFDIM
100
AcDbLine
 10
254.7665039539516
 20
201.2919296596204
 30
0.0
 11
242.7665039539517
 21
201.2919296596204
 31
0.0
  0
SOLID
  5
EBA
330
E3C
100
AcDbEntity
  8
AM_REFDIM
100
AcDbTrace
 10
254.7665039539516
 20
201.7919296596204
 30
0.0
 11
254.7665039539516
 21
200.7919296596204
 31
0.0
 12
257.7665039539517
 22
201.2919296596204
 32
0.0
 13
257.7665039539517
 23
201.2919296596204
 33
0.0
  0
SOLID
  5
EBB
330
E3C
100
AcDbEntity
  8
AM_REFDIM
100
AcDbTrace
 10
242.7665039539517
 20
201.7919296596204
 30
0.0
 11
242.7665039539517
 21
200.7919296596204
 31
0.0
 12
239.7665039539517
 22
201.2919296596204
 32
0.0
 13
239.7665039539517
 23
201.2919296596204
 33
0.0
  0
MTEXT
  5
EBC
330
E3C
100
AcDbEntity
  8
AM_REFDIM
 62
     5
100
AcDbMText
 10
248.7665039539517
 20
204.0419296596204
 30
0.0
 40
3.5
 41
0.0
 71
     5
 72
     1
  1
18
 73
     1
 44
1.0
1001
ACAD
1000
MTEXTBEGIN
1070
    73
1070
     1
1070
    44
1040
1.0
1070
    74
1070
     0
1000
MTEXTEND
  0
POINT
  5
EBD
330
E3C
100
AcDbEntity
  8
Defpoints
 62
     0
100
AcDbPoint
 10
257.7665039539517
 20
193.7981340105258
 30
0.0
  0
POINT
  5
EBE
330
E3C
100
AcDbEntity
  8
Defpoints
 62
     0
100
AcDbPoint
 10
239.7665039539517
 20
193.7981340105258
 30
0.0
  0
POINT
  5
EBF
330
E3C
100
AcDbEntity
  8
Defpoints
 62
     0
100
AcDbPoint
 10
239.7665039539517
 20
201.2919296596204
 30
0.0
  0
ENDBLK
  5
E47
330
E3C
100
AcDbEntity
  8
0
 62
     6
100
AcDbBlockEnd
  0
BLOCK
  5
E52
330
E48
100
AcDbEntity
  8
0
 62
     6
100
AcDbBlockBegin
  2
*D13
 70
     1
 10
0.0
 20
0.0
 30
0.0
  3
*D13
  1

  0
LINE
  5
FAB
330
E48
100
AcDbEntity
  8
AM_REFDIM
100
AcDbLine
 10
249.7665039539517
 20
190.2606340105258
 30
0.0
 11
284.3103349393707
 21
190.2606340105258
 31
0.0
  0
LINE
  5
FAC
330
E48
100
AcDbEntity
  8
AM_REFDIM
100
AcDbLine
 10
249.7665039539517
 20
155.3356340105258
 30
0.0
 11
284.3103349393707
 21
155.3356340105258
 31
0.0
  0
LINE
  5
FAD
330
E48
100
AcDbEntity
  8
AM_REFDIM
100
AcDbLine
 10
283.3103349393707
 20
187.2606340105258
 30
0.0
 11
283.3103349393707
 21
158.3356340105258
 31
0.0
  0
SOLID
  5
FAE
330
E48
100
AcDbEntity
  8
AM_REFDIM
100
AcDbTrace
 10
282.8103349393707
 20
187.2606340105258
 30
0.0
 11
283.8103349393707
 21
187.2606340105258
 31
0.0
 12
283.3103349393707
 22
190.2606340105258
 32
0.0
 13
283.3103349393707
 23
190.2606340105258
 33
0.0
  0
SOLID
  5
FAF
330
E48
100
AcDbEntity
  8
AM_REFDIM
100
AcDbTrace
 10
282.8103349393707
 20
158.3356340105258
 30
0.0
 11
283.8103349393707
 21
158.3356340105258
 31
0.0
 12
283.3103349393707
 22
155.3356340105258
 32
0.0
 13
283.3103349393707
 23
155.3356340105258
 33
0.0
  0
MTEXT
  5
FB0
330
E48
100
AcDbEntity
  8
AM_REFDIM
 62
     5
100
AcDbMText
 10
280.5603349393706
 20
172.7981340105259
 30
0.0
 40
3.5
 41
0.0
 71
     5
 72
     1
  1
%%c34.93
 11
0.0000000000000001
 21
1.0
 31
0.0
 73
     1
 44
1.0
1001
ACAD
1000
MTEXTBEGIN
1070
    73
1070
     1
1070
    44
1040
1.0
1070
    74
1070
     0
1000
MTEXTEND
  0
POINT
  5
FB1
330
E48
100
AcDbEntity
  8
Defpoints
 62
     0
100
AcDbPoint
 10
248.7665039539517
 20
190.2606340105258
 30
0.0
  0
POINT
  5
FB2
330
E48
100
AcDbEntity
  8
Defpoints
 62
     0
100
AcDbPoint
 10
248.7665039539517
 20
155.3356340105258
 30
0.0
  0
POINT
  5
FB3
330
E48
100
AcDbEntity
  8
Defpoints
 62
     0
100
AcDbPoint
 10
283.3103349393707
 20
155.3356340105258
 30
0.0
  0
ENDBLK
  5
E53
330
E48
100
AcDbEntity
  8
0
 62
     6
100
AcDbBlockEnd
  0
ENDSEC
  0
SECTION
  2
ENTITIES
  0
VIEWPORT
  5
F3
102
{ACAD_XDICTIONARY
360
10B2
102
}
330
D
100
AcDbEntity
 67
     1
  8
0
 62
     6
100
AcDbViewport
 10
217.5239694965191
 20
131.9895331662725
 30
0.0
 40
329.7252687308919
 41
254.4688244170713
 68
     1
 69
     1
 12
217.5239694965191
 22
131.9895331662725
 13
0.0
 23
0.0
 14
1.0
 24
1.0
 15
0.0
 25
0.0
 16
0.0
 26
0.0
 36
1.0
 17
0.0
 27
0.0
 37
0.0
 42
50.0
 43
0.0
 44
0.0
 45
254.4688244170713
 50
0.0
 51
0.0
 72
  1000
 90
    32800
  1

281
     0
 71
     1
 74
     0
110
0.0
120
0.0
130
0.0
111
1.0
121
0.0
131
0.0
112
0.0
122
1.0
132
0.0
 79
     0
146
0.0
  0
TEXT
  5
3F6
330
D
100
AcDbEntity
 67
     1
  8
LOGO
 62
     7
100
AcDbText
 10
105.015996635905
 20
31.04515388605772
 30
0.0
 40
3.031960919457012
  1
Order example:
 41
0.8
  7
CHINESET
100
AcDbText
  0
TEXT
  5
3F7
330
D
100
AcDbEntity
 67
     1
  8
LOGO
 62
     7
100
AcDbText
 10
105.5599554981524
 20
35.31352708513448
 30
0.0
 40
4.547941379185519
  1
訂購代號：
  7
CHINESET
100
AcDbText
  0
LINE
  5
3F8
330
D
100
AcDbEntity
 67
     1
  8
LOGO
 62
     4
100
AcDbLine
 10
103.6985993325807
 20
18.26732563205831
 30
0.0
 11
103.6985993325807
 21
41.00703252798607
 31
0.0
  0
TEXT
  5
3F9
330
D
100
AcDbEntity
 67
     1
  8
LOGO
  6
Continuous
100
AcDbText
 10
61.83944909551744
 20
22.73450673455349
 30
0.0
 40
3.41095603438914
  1
金器工業股份有限公司
  7
CHINESET
100
AcDbText
  0
TEXT
  5
3FA
330
D
100
AcDbEntity
 67
     1
  8
LOGO
  6
Continuous
100
AcDbText
 10
55.57419768471721
 20
19.32288242021093
 30
0.0
 40
2.273970689592759
  1
MINDMAN INDUSTRIAL CO., LTD.
 41
0.85
  7
CHINESET
100
AcDbText
  0
LINE
  5
3FB
330
D
100
AcDbEntity
 67
     1
  8
LOGO
 62
     4
100
AcDbLine
 10
103.6985993325807
 20
36.45909114880051
 30
0.0
 11
70.34702921855338
 21
36.45909114880051
 31
0.0
  0
LINE
  5
3FC
330
D
100
AcDbEntity
 67
     1
  8
LOGO
 62
     4
100
AcDbLine
 10
103.6985993325807
 20
31.91114976961495
 30
0.0
 11
70.34702921855338
 21
31.91114976961495
 31
0.0
  0
LINE
  5
3FD
330
D
100
AcDbEntity
 67
     1
  8
LOGO
 62
     4
100
AcDbLine
 10
103.6985993325807
 20
27.36320839042969
 30
0.0
 11
53.67124416153993
 21
27.36320839042969
 31
0.0
  0
LINE
  5
3FE
330
D
100
AcDbEntity
 67
     1
  8
LOGO
 62
     4
100
AcDbLine
 10
70.34702921855338
 20
27.36320839042969
 30
0.0
 11
70.34702921855338
 21
41.00703252798607
 31
0.0
  0
TEXT
  5
3FF
330
D
100
AcDbEntity
 67
     1
  8
LOGO
100
AcDbText
 10
93.14125322135927
 20
28.50019373522567
 30
0.0
 40
2.273970689592759
  1
mm
  7
CHINESET
 72
     1
 11
95.95664550371223
 21
29.63717908002205
 31
0.0
100
AcDbText
 73
     2
  0
TEXT
  5
400
330
D
100
AcDbEntity
 67
     1
  8
LOGO
100
AcDbText
 10
91.95012571728687
 20
37.59607649359679
 30
0.0
 40
2.273970689592759
  1
1 : 1
  7
CHINESET
 72
     1
 11
95.95664550371223
 21
38.73306183839317
 31
0.0
100
AcDbText
 73
     2
  0
LINE
  5
401
330
D
100
AcDbEntity
 67
     1
  8
LOGO
 62
     4
100
AcDbLine
 10
88.53879473529559
 20
27.36320839042969
 30
0.0
 11
88.53879473529559
 21
41.00703252798607
 31
0.0
  0
TEXT
  5
402
330
D
100
AcDbEntity
 67
     1
  8
LOGO
100
AcDbText
 10
72.22203987198104
 20
37.59719557366056
 30
149.0322928480406
 40
2.273970689592759
  1
比例 Scale:
 41
0.9
  7
CHINESET
 72
     4
 11
79.44291197692447
 21
38.73306183839317
 31
149.0322928480406
100
AcDbText
  0
TEXT
  5
403
330
D
100
AcDbEntity
 67
     1
  8
LOGO
100
AcDbText
 10
72.09108352423218
 20
33.08012215290081
 30
149.0322928480406
 40
2.273970689592759
  1
投影  View:
 41
0.9
  7
CHINESET
 72
     4
 11
79.44291197692447
 21
34.1851204592076
 31
149.0322928480406
100
AcDbText
  0
TEXT
  5
404
330
D
100
AcDbEntity
 67
     1
  8
LOGO
100
AcDbText
 10
72.31340476575931
 20
28.50019373522567
 30
149.0322928480406
 40
2.273970689592759
  1
單位  Unit:
 41
0.9
  7
CHINESET
 72
     4
 11
79.44291197692447
 21
29.63717908002205
 31
149.0322928480406
100
AcDbText
  0
LWPOLYLINE
  5
405
330
D
100
AcDbEntity
 67
     1
  8
LOGO
 62
     4
100
AcDbPolyline
 90
        4
 70
     1
 43
0.0
 10
53.67124416153998
 20
41.00703252798607
 10
366.38749416154
 20
41.00703252798607
 10
366.38749416154
 20
245.6973256320579
 10
53.67124416153998
 20
245.6973256320579
1001
GENIUS_GENREC_14
1002
{
1000
PYDIR
1011
53.67124416153998
1021
245.6973256320579
1031
0.0
1002
}
1002
{
1000
PXDIR
1011
366.38749416154
1021
41.00703252798607
1031
0.0
1002
}
1002
{
1000
PORI
1011
53.67124416153998
1021
41.00703252798607
1031
0.0
1002
}
1002
{
1000
PINS
1011
53.67124416153998
1021
41.00703252798607
1031
0.0
1002
}
1002
{
1000
PINS2
1011
366.38749416154
1021
245.6973256320579
1031
0.0
1002
}
1002
{
1000
C
1070
     1
1002
}
1001
GENIUS_GENODEF_13
1002
{
1000
HIER
1070
     0
1002
}
1002
{
1000
MANEDIT
1070
     0
1002
}
1002
{
1000
NOSEL
1070
     0
1002
}
1002
{
1000
BEHIND
1070
     0
1002
}
1002
{
1000
OTHER
1070
     0
1002
}
1002
{
1000
REACTOR
1002
}
1001
GENIUS_GENOBJ-N-REC_13
1002
{
1000
OWNER
1000
GEN
1002
}
  0
SOLID
  5
406
330
D
100
AcDbEntity
 67
     1
  8
LOGO
 62
     5
100
AcDbTrace
 10
56.0305252464461
 20
31.14336098763769
 30
0.0
 11
57.01373050363511
 21
31.14336098763744
 31
0.0
 12
61.11606968018216
 22
40.46685911615442
 32
0.0
 13
62.09927493737168
 23
40.4668591161539
 33
0.0
  0
SOLID
  5
407
330
D
100
AcDbEntity
 67
     1
  8
LOGO
 62
     5
100
AcDbTrace
 10
57.42057405833506
 20
31.14336098763769
 30
0.0
 11
58.40377931552402
 21
31.14336098763769
 31
0.0
 12
62.09927493737168
 22
39.72097926587272
 32
0.0
 13
61.11606968018216
 23
36.11589332284625
 33
0.0
  0
SOLID
  5
408
330
D
100
AcDbEntity
 67
     1
  8
LOGO
 62
     2
100
AcDbTrace
 10
57.01373050363511
 20
31.14336098763744
 30
0.0
 11
57.42057405833506
 21
31.14336098763769
 31
0.0
 12
62.09927493737168
 22
40.4668591161539
 32
0.0
 13
62.50611849207115
 23
40.4668591161539
 33
0.0
  0
SOLID
  5
409
330
D
100
AcDbEntity
 67
     1
  8
LOGO
 62
     5
100
AcDbTrace
 10
54.45420610770856
 20
27.75299803181372
 30
0.0
 11
54.79324240329129
 21
27.75299803181372
 31
0.0
 12
55.74799500012767
 22
29.44817950972558
 32
0.0
 13
56.08703129570944
 23
29.44817950972558
 33
0.0
  0
SOLID
  5
40A
330
D
100
AcDbEntity
 67
     1
  8
LOGO
 62
     5
100
AcDbTrace
 10
55.74799500012767
 20
29.44817950972558
 30
0.0
 11
56.08703129570944
 21
29.44817950972558
 31
0.0
 12
55.74799500012767
 22
27.75299803181372
 32
0.0
 13
56.08703129570944
 23
27.75299803181372
 33
0.0
  0
SOLID
  5
40B
330
D
100
AcDbEntity
 67
     1
  8
LOGO
 62
     5
100
AcDbTrace
 10
55.74799500012767
 20
27.75299803181372
 30
0.0
 11
56.08703129570944
 21
27.75299803181372
 31
0.0
 12
57.04178389254739
 22
29.44817950972558
 32
0.0
 13
57.38082018812966
 23
29.44817950972558
 33
0.0
  0
SOLID
  5
40C
330
D
100
AcDbEntity
 67
     1
  8
LOGO
 62
     5
100
AcDbTrace
 10
57.04178389254739
 20
29.44817950972558
 30
0.0
 11
57.38082018812966
 21
29.44817950972558
 31
0.0
 12
57.04178389254739
 22
27.75299803181372
 32
0.0
 13
57.38082018812966
 23
27.75299803181372
 33
0.0
  0
POLYLINE
  5
40D
330
D
100
AcDbEntity
 67
     1
  8
LOGO
 62
     5
100
AcDb2dPolyline
 66
     1
 10
0.0
 20
0.0
 30
0.0
 40
0.3395796229791854
 41
0.3395796229791854
  0
VERTEX
  5
40E
330
40D
100
AcDbEntity
 67
     1
  8
LOGO
 62
     5
100
AcDbVertex
100
AcDb2dVertex
 10
68.40616502630024
 20
28.7701069185608
 30
0.0
 42
1.0
  0
VERTEX
  5
40F
330
40D
100
AcDbEntity
 67
     1
  8
LOGO
 62
     5
100
AcDbVertex
100
AcDb2dVertex
 10
67.38742615736251
 20
28.7701069185608
 30
0.0
 42
1.0
  0
SEQEND
  5
410
330
40D
100
AcDbEntity
 67
     1
  8
LOGO
 62
     5
  0
POLYLINE
  5
411
330
D
100
AcDbEntity
 67
     1
  8
LOGO
 62
     5
100
AcDb2dPolyline
 66
     1
 10
0.0
 20
0.0
 30
0.0
 70
     1
  0
VERTEX
  5
412
330
411
100
AcDbEntity
 67
     1
  8
LOGO
 62
     5
100
AcDbVertex
100
AcDb2dVertex
 10
65.46705807590971
 20
28.60058877076942
 30
0.0
 42
1.000000057330635
  0
VERTEX
  5
413
330
411
100
AcDbEntity
 67
     1
  8
LOGO
 62
     5
100
AcDbVertex
100
AcDb2dVertex
 10
66.48416696265704
 20
28.60058877076942
 30
0.0
 42
1.000000057330635
  0
SEQEND
  5
414
330
411
100
AcDbEntity
 67
     1
  8
LOGO
 62
     5
  0
CIRCLE
  5
415
330
D
100
AcDbEntity
 67
     1
  8
LOGO
 62
     5
100
AcDbCircle
 10
65.97561251928414
 20
28.60058877076942
 30
0.0
 40
0.5085544433736282
  0
POLYLINE
  5
416
330
D
100
AcDbEntity
 67
     1
  8
LOGO
 62
     5
100
AcDb2dPolyline
 66
     1
 10
0.0
 20
0.0
 30
0.0
 70
     1
 40
0.3395796229791854
 41
0.3395796229791854
  0
VERTEX
  5
417
330
416
100
AcDbEntity
 67
     1
  8
LOGO
 62
     5
100
AcDbVertex
100
AcDb2dVertex
 10
65.29645327332531
 20
28.60058877076942
 30
0.0
 42
1.0
  0
VERTEX
  5
418
330
416
100
AcDbEntity
 67
     1
  8
LOGO
 62
     5
100
AcDbVertex
100
AcDb2dVertex
 10
66.654771765242
 20
28.60058877076942
 30
0.0
 42
1.0
  0
SEQEND
  5
419
330
416
100
AcDbEntity
 67
     1
  8
LOGO
 62
     5
  0
LINE
  5
41A
330
D
100
AcDbEntity
 67
     1
  8
LOGO
100
AcDbLine
 10
68.57486818299562
 20
27.75299803181372
 30
0.0
 11
68.57486818299562
 21
28.7701069185608
 31
0.0
  0
SOLID
  5
41B
330
D
100
AcDbEntity
 67
     1
  8
LOGO
 62
     5
100
AcDbTrace
 10
66.48413305902898
 20
29.44817950972558
 30
0.0
 11
66.82316935461071
 21
29.44817950972558
 31
0.0
 12
66.48413305902898
 22
27.75299803181372
 32
0.0
 13
66.82316935461071
 23
27.75299803181372
 33
0.0
  0
SOLID
  5
41C
330
D
100
AcDbEntity
 67
     1
  8
LOGO
 62
     5
100
AcDbTrace
 10
67.21872300066604
 20
27.75299803181372
 30
0.0
 11
67.55775929624886
 21
27.75299803181372
 31
0.0
 12
67.21872300066604
 22
29.44817950972558
 32
0.0
 13
67.55775929624886
 23
29.44817950972558
 33
0.0
  0
SOLID
  5
41D
330
D
100
AcDbEntity
 67
     1
  8
LOGO
 62
     5
100
AcDbTrace
 10
68.23583188741389
 20
28.7701069185608
 30
0.0
 11
68.57486818299562
 21
28.7701069185608
 31
0.0
 12
68.23583188741389
 22
27.75299803181372
 32
0.0
 13
68.57486818299562
 23
27.75299803181372
 33
0.0
  0
SOLID
  5
41E
330
D
100
AcDbEntity
 67
     1
  8
LOGO
 62
     5
100
AcDbTrace
 10
67.18481937110772
 20
39.72097926587272
 30
0.0
 11
66.20161411391928
 21
36.11589332284625
 31
0.0
 12
67.18481937110772
 22
31.14336098763744
 32
0.0
 13
66.20161411391928
 23
31.14336098763744
 33
0.0
  0
SOLID
  5
41F
330
D
100
AcDbEntity
 67
     1
  8
LOGO
 62
     5
100
AcDbTrace
 10
67.59166292580719
 20
31.14336098763744
 30
0.0
 11
68.57486818299562
 21
31.14336098763744
 31
0.0
 12
67.59166292580719
 22
40.4668591161539
 32
0.0
 13
68.57486818299562
 23
40.46685911615442
 33
0.0
  0
SOLID
  5
420
330
D
100
AcDbEntity
 67
     1
  8
LOGO
 62
     2
100
AcDbTrace
 10
67.18481937110772
 20
40.46685911615442
 30
0.0
 11
67.59166292580719
 21
40.4668591161539
 31
0.0
 12
67.18481937110772
 22
31.14336098763744
 32
0.0
 13
67.59166292580719
 23
31.14336098763744
 33
0.0
  0
POLYLINE
  5
421
330
D
100
AcDbEntity
 67
     1
  8
LOGO
 62
     5
100
AcDb2dPolyline
 66
     1
 10
0.0
 20
0.0
 30
0.0
 40
0.3395796229791854
 41
0.3395796229791854
  0
VERTEX
  5
422
330
421
100
AcDbEntity
 67
     1
  8
LOGO
 62
     5
100
AcDbVertex
100
AcDb2dVertex
 10
63.54662218719932
 20
28.7701069185608
 30
0.0
 42
1.0
  0
VERTEX
  5
423
330
421
100
AcDbEntity
 67
     1
  8
LOGO
 62
     5
100
AcDbVertex
100
AcDb2dVertex
 10
62.52788331826156
 20
28.7701069185608
 30
0.0
 42
1.0
  0
SEQEND
  5
424
330
421
100
AcDbEntity
 67
     1
  8
LOGO
 62
     5
  0
POLYLINE
  5
425
330
D
100
AcDbEntity
 67
     1
  8
LOGO
 62
     5
100
AcDb2dPolyline
 66
     1
 10
0.0
 20
0.0
 30
0.0
 40
0.3395796229791854
 41
0.3395796229791854
  0
VERTEX
  5
426
330
425
100
AcDbEntity
 67
     1
  8
LOGO
 62
     5
100
AcDbVertex
100
AcDb2dVertex
 10
64.56373107394558
 20
28.7701069185608
 30
0.0
 42
1.0
  0
VERTEX
  5
427
330
425
100
AcDbEntity
 67
     1
  8
LOGO
 62
     5
100
AcDbVertex
100
AcDb2dVertex
 10
63.54499220500833
 20
28.7701069185608
 30
0.0
 42
1.0
  0
SEQEND
  5
428
330
425
100
AcDbEntity
 67
     1
  8
LOGO
 62
     5
  0
POLYLINE
  5
429
330
D
100
AcDbEntity
 67
     1
  8
LOGO
 62
     5
100
AcDb2dPolyline
 66
     1
 10
0.0
 20
0.0
 30
0.0
 40
0.3395796229791854
 41
0.3395796229791854
  0
VERTEX
  5
42A
330
429
100
AcDbEntity
 67
     1
  8
LOGO
 62
     5
100
AcDbVertex
100
AcDb2dVertex
 10
59.70418823484462
 20
28.7701069185608
 30
0.0
 42
1.0
  0
VERTEX
  5
42B
330
429
100
AcDbEntity
 67
     1
  8
LOGO
 62
     5
100
AcDbVertex
100
AcDb2dVertex
 10
58.6854493659074
 20
28.7701069185608
 30
0.0
 42
1.0
  0
SEQEND
  5
42C
330
429
100
AcDbEntity
 67
     1
  8
LOGO
 62
     5
  0
SOLID
  5
42D
330
D
100
AcDbEntity
 67
     1
  8
LOGO
 62
     5
100
AcDbTrace
 10
58.51674620921144
 20
29.44817950972558
 30
0.0
 11
58.85578250479321
 21
29.44817950972558
 31
0.0
 12
58.51674620921144
 22
27.75299803181372
 32
0.0
 13
58.85578250479321
 23
27.75299803181372
 33
0.0
  0
SOLID
  5
42E
330
D
100
AcDbEntity
 67
     1
  8
LOGO
 62
     5
100
AcDbTrace
 10
59.53385509595881
 20
28.7701069185608
 30
0.0
 11
59.8728913915416
 21
28.7701069185608
 31
0.0
 12
59.53385509595881
 22
27.75299803181372
 32
0.0
 13
59.8728913915416
 23
27.75299803181372
 33
0.0
  0
POLYLINE
  5
42F
330
D
100
AcDbEntity
 67
     1
  8
LOGO
 62
     5
100
AcDb2dPolyline
 66
     1
 10
0.0
 20
0.0
 30
0.0
 70
     1
 40
0.3395796229791854
 41
0.3395796229791854
  0
VERTEX
  5
430
330
42F
100
AcDbEntity
 67
     1
  8
LOGO
 62
     5
100
AcDbVertex
100
AcDb2dVertex
 10
60.43691043422379
 20
28.60058877076942
 30
0.0
 42
1.0
  0
VERTEX
  5
431
330
42F
100
AcDbEntity
 67
     1
  8
LOGO
 62
     5
100
AcDbVertex
100
AcDb2dVertex
 10
61.79522892614099
 20
28.60058877076942
 30
0.0
 42
1.0
  0
SEQEND
  5
432
330
42F
100
AcDbEntity
 67
     1
  8
LOGO
 62
     5
  0
SOLID
  5
433
330
D
100
AcDbEntity
 67
     1
  8
LOGO
 62
     5
100
AcDbTrace
 10
61.62459021992697
 20
29.95673395309952
 30
0.0
 11
61.96362651550927
 21
29.95673395309952
 31
0.0
 12
61.62459021992697
 22
27.75299803181372
 32
0.0
 13
61.96362651550927
 23
27.75299803181372
 33
0.0
  0
SOLID
  5
434
330
D
100
AcDbEntity
 67
     1
  8
LOGO
 62
     5
100
AcDbTrace
 10
62.35918016156614
 20
29.44817950972558
 30
0.0
 11
62.69821645714788
 21
29.44817950972558
 31
0.0
 12
62.35918016156614
 22
27.75299803181372
 32
0.0
 13
62.69821645714788
 23
27.75299803181372
 33
0.0
  0
SOLID
  5
435
330
D
100
AcDbEntity
 67
     1
  8
LOGO
 62
     5
100
AcDbTrace
 10
63.37628904831243
 20
28.7701069185608
 30
0.0
 11
63.71532534389519
 21
28.7701069185608
 31
0.0
 12
63.37628904831243
 22
27.75299803181372
 32
0.0
 13
63.71532534389519
 23
27.75299803181372
 33
0.0
  0
SOLID
  5
436
330
D
100
AcDbEntity
 67
     1
  8
LOGO
 62
     5
100
AcDbTrace
 10
64.39339793505974
 20
28.7701069185608
 30
0.0
 11
64.73243423064204
 21
28.7701069185608
 31
0.0
 12
64.39339793505974
 22
27.75299803181321
 32
0.0
 13
64.73243423064204
 23
27.75299803181321
 33
0.0
  0
SOLID
  5
437
330
D
100
AcDbEntity
 67
     1
  8
LOGO
 62
     5
100
AcDbTrace
 10
57.78215626757284
 20
29.68550491663338
 30
0.0
 11
58.12119256315614
 21
29.68550491663338
 31
0.0
 12
57.78215626757284
 22
29.95673395309952
 32
0.0
 13
58.12119256315614
 23
29.95673395309952
 33
0.0
  0
SOLID
  5
438
330
D
100
AcDbEntity
 67
     1
  8
LOGO
 62
     5
100
AcDbTrace
 10
57.78215626757284
 20
29.44817950972558
 30
0.0
 11
58.12119256315614
 21
29.44817950972558
 31
0.0
 12
57.78215626757284
 22
27.75299803181321
 32
0.0
 13
58.12119256315614
 23
27.75299803181372
 33
0.0
  0
SOLID
  5
439
330
D
100
AcDbEntity
 67
     1
  8
LOGO
 62
     5
100
AcDbTrace
 10
61.11606968018216
 20
31.14336098763769
 30
0.0
 11
62.09927493737168
 21
31.14336098763769
 31
0.0
 12
61.11606968018216
 22
36.11589332284625
 32
0.0
 13
62.09927493737168
 23
39.72097926587272
 33
0.0
  0
SOLID
  5
43A
330
D
100
AcDbEntity
 67
     1
  8
LOGO
 62
     5
100
AcDbTrace
 10
62.50611849207115
 20
40.4668591161539
 30
0.0
 11
63.4893237492596
 21
40.46685911615442
 31
0.0
 12
62.50611849207115
 22
31.88924083791888
 32
0.0
 13
63.4893237492596
 23
35.49432678094532
 33
0.0
  0
SOLID
  5
43B
330
D
100
AcDbEntity
 67
     1
  8
LOGO
 62
     2
100
AcDbTrace
 10
62.09927493737168
 20
40.4668591161539
 30
0.0
 11
62.50611849207115
 21
40.4668591161539
 31
0.0
 12
62.09927493737168
 22
31.14336098763769
 32
0.0
 13
62.50611849207115
 23
31.14336098763769
 33
0.0
  0
SOLID
  5
43C
330
D
100
AcDbEntity
 67
     1
  8
LOGO
 62
     5
100
AcDbTrace
 10
62.50611849207115
 20
31.88924083791888
 30
0.0
 11
63.4893237492596
 21
35.49432678094532
 31
0.0
 12
67.18481937110772
 22
40.46685911615442
 32
0.0
 13
66.20161411391928
 23
40.46685911615442
 33
0.0
  0
SOLID
  5
43D
330
D
100
AcDbEntity
 67
     1
  8
LOGO
 62
     5
100
AcDbTrace
 10
62.50611849207115
 20
31.14336098763769
 30
0.0
 11
63.4893237492596
 21
31.14336098763769
 31
0.0
 12
67.18481937110772
 22
39.72097926587272
 32
0.0
 13
66.20161411391928
 23
36.11589332284625
 33
0.0
  0
SOLID
  5
43E
330
D
100
AcDbEntity
 67
     1
  8
LOGO
 62
     2
100
AcDbTrace
 10
62.09927493737168
 20
31.14336098763769
 30
0.0
 11
62.50611849207115
 21
31.14336098763769
 31
0.0
 12
67.18481937110772
 22
40.46685911615442
 32
0.0
 13
67.59166292580719
 23
40.4668591161539
 33
0.0
  0
LWPOLYLINE
  5
43F
330
D
100
AcDbEntity
 67
     1
  8
LOGO
 62
     4
100
AcDbPolyline
 90
        4
 70
     1
 43
0.0
 10
53.67124416153998
 20
41.00703252798607
 10
366.38749416154
 20
41.00703252798607
 10
366.38749416154
 20
18.26732563205806
 10
53.67124416153998
 20
18.26732563205806
1001
GENIUS_GENREC_14
1002
{
1000
PYDIR
1011
53.67124416153998
1021
18.26732563205806
1031
0.0
1002
}
1002
{
1000
PXDIR
1011
366.38749416154
1021
41.00703252798607
1031
0.0
1002
}
1002
{
1000
PORI
1011
53.67124416153998
1021
41.00703252798607
1031
0.0
1002
}
1002
{
1000
PINS
1011
53.67124416153998
1021
41.00703252798607
1031
0.0
1002
}
1002
{
1000
PINS2
1011
366.38749416154
1021
18.26732563205806
1031
0.0
1002
}
1002
{
1000
C
1070
     1
1002
}
1001
GENIUS_GENOBJ-N-REC_13
1002
{
1000
OWNER
1000
GEN
1002
}
1001
GENIUS_GENODEF_13
1002
{
1000
HIER
1070
     0
1002
}
1002
{
1000
MANEDIT
1070
     0
1002
}
1002
{
1000
NOSEL
1070
     0
1002
}
1002
{
1000
BEHIND
1070
     0
1002
}
1002
{
1000
OTHER
1070
     0
1002
}
1002
{
1000
REACTOR
1002
}
  0
LINE
  5
440
330
D
100
AcDbEntity
 67
     1
  8
LOGO
 62
     4
100
AcDbLine
 10
153.2444115463118
 20
28.50019373522616
 30
0.0
 11
153.2444115463118
 21
20.1623012067189
 31
0.0
  0
LINE
  5
441
330
D
100
AcDbEntity
 67
     1
  8
LOGO
 62
     4
100
AcDbLine
 10
138.0846069490267
 20
28.50019373522616
 30
0.0
 11
138.0846069490267
 21
20.1623012067189
 31
0.0
  0
LINE
  5
442
330
D
100
AcDbEntity
 67
     1
  8
LOGO
 62
     4
100
AcDbLine
 10
153.2444115463118
 20
20.1623012067189
 30
0.0
 11
138.0846069490267
 21
20.1623012067189
 31
0.0
  0
LINE
  5
443
330
D
100
AcDbEntity
 67
     1
  8
LOGO
 62
     4
100
AcDbLine
 10
161.3707234139579
 20
38.73306183839317
 30
0.0
 11
134.9760569285029
 21
38.73306183839317
 31
0.0
  0
LINE
  5
444
330
D
100
AcDbEntity
 67
     1
  8
LOGO
 62
     4
100
AcDbLine
 10
161.3707234139579
 20
31.91114976961495
 30
0.0
 11
134.9760569285029
 21
31.91114976961495
 31
0.0
  0
LINE
  5
445
330
D
100
AcDbEntity
 67
     1
  8
LOGO
 62
     4
100
AcDbLine
 10
134.9760569285029
 20
38.73306183839317
 30
0.0
 11
134.9760569285029
 21
31.91114976961495
 31
0.0
  0
LINE
  5
446
330
D
100
AcDbEntity
 67
     1
  8
LOGO
 62
     4
100
AcDbLine
 10
161.3707234139579
 20
38.73306183839317
 30
0.0
 11
161.3707234139579
 21
31.91114976961495
 31
0.0
  0
LINE
  5
447
330
D
100
AcDbEntity
 67
     1
  8
LOGO
 62
     4
100
AcDbLine
 10
146.4554702803808
 20
31.91114976961495
 30
0.0
 11
146.4554702803808
 21
28.50019373522616
 31
0.0
  0
TEXT
  5
448
330
D
100
AcDbEntity
 67
     1
  8
LOGO
  6
Continuous
100
AcDbText
 10
137.5564996076487
 20
33.33521394033799
 30
0.0
 40
3.980024999999999
  1
PHS-20
  7
CHINESET
100
AcDbText
  0
LINE
  5
449
330
D
100
AcDbEntity
 67
     1
  8
LOGO
 62
     4
100
AcDbLine
 10
153.2444115463118
 20
28.50019373522616
 30
0.0
 11
138.0846069490267
 21
28.50019373522616
 31
0.0
  0
TEXT
  5
44A
330
D
100
AcDbEntity
 67
     1
  8
LOGO
  6
Continuous
100
AcDbText
 10
142.9493402490845
 20
21.33917705620581
 30
149.0322928480406
 40
1.705724999999999
  1
Model
 41
0.8
  7
CHINESET
100
AcDbText
  0
TEXT
  5
44B
330
D
100
AcDbEntity
 67
     1
  8
LOGO
100
AcDbText
 10
142.4953317037938
 20
24.50122359623128
 30
149.0322928480406
 40
2.842874999999999
  1
型號
  7
CHINESET
100
AcDbText
  0
TEXT
  5
44C
330
D
100
AcDbEntity
 67
     1
  8
LOGO
100
AcDbText
 10
105.0554492801566
 20
19.47706906370348
 30
0.0
 40
2.274299999999999
  1
01104110
 41
0.7
  7
CHINESET
 72
     1
 11
110.2863392801566
 21
19.47706906370348
 31
0.0
100
AcDbText
  0
LINE
  5
44D
330
D
100
AcDbEntity
 67
     1
  8
LOGO
 62
     4
100
AcDbLine
 10
117.3443993325797
 20
22.81526701124439
 30
0.0
 11
117.3443993325807
 21
18.26732563205854
 31
0.0
  0
LINE
  5
44E
330
D
100
AcDbEntity
 67
     1
  8
LOGO
 62
     4
100
AcDbLine
 10
117.3443993325797
 20
22.81526701124439
 30
0.0
 11
103.6985993325807
 21
22.81526701124439
 31
0.0
  0
CIRCLE
  5
44F
330
D
100
AcDbEntity
 67
     1
  8
LOGO
  6
Continuous
100
AcDbCircle
 10
92.74933589083421
 20
34.18998449915334
 30
0.0
 40
1.320320905614105
  0
CIRCLE
  5
450
330
D
100
AcDbEntity
 67
     1
  8
LOGO
  6
Continuous
100
AcDbCircle
 10
92.74933589083421
 20
34.18998449915334
 30
0.0
 40
0.7735911692930836
  0
LINE
  5
451
330
D
100
AcDbEntity
 67
     1
  8
LOGO
100
AcDbLine
 10
101.0463856652723
 20
32.86966359353899
 30
0.0
 11
101.0463856652723
 21
35.51030540476772
 31
0.0
  0
LINE
  5
452
330
D
100
AcDbEntity
 67
     1
  8
LOGO
100
AcDbLine
 10
96.90725541620862
 20
33.4163933298604
 30
0.0
 11
96.90725541620862
 21
34.96357566844655
 31
0.0
  0
LINE
  5
453
330
D
100
AcDbEntity
 67
     1
  8
LOGO
  6
Continuous
100
AcDbLine
 10
96.90725541620862
 20
34.96357566844655
 30
0.0
 11
101.0463856652723
 21
35.51030540476772
 31
0.0
  0
LINE
  5
454
330
D
100
AcDbEntity
 67
     1
  8
LOGO
  6
Continuous
100
AcDbLine
 10
96.90725541620862
 20
33.4163933298604
 30
0.0
 11
101.0463856652723
 21
32.86966359353899
 31
0.0
  0
LINE
  5
455
330
D
100
AcDbEntity
 67
     1
  8
LOGO
  6
AM_ISO08W050x2
 48
0.3
100
AcDbLine
 10
90.92925375219641
 20
34.18998449915334
 30
0.0
 11
94.56941802947198
 21
34.18998449915334
 31
0.0
1001
GENIUS_GENOREF_13
1005
45B
  0
LINE
  5
456
330
D
100
AcDbEntity
 67
     1
  8
LOGO
  6
AM_ISO08W050x2
 48
0.3
100
AcDbLine
 10
92.74933589083421
 20
32.36990236051556
 30
0.0
 11
92.74933589083421
 21
36.01006663779114
 31
0.0
1001
GENIUS_GENOREF_13
1005
45A
  0
LINE
  5
457
330
D
100
AcDbEntity
 67
     1
  8
LOGO
  6
CENTER
 48
0.5
100
AcDbLine
 10
96.5762400428705
 20
34.18998449915334
 30
0.0
 11
101.4631826822976
 21
34.18998449915334
 31
0.0
1001
GENIUS_GENOREF_13
1005
459
  0
POINT
  5
459
330
D
100
AcDbEntity
 67
     1
  8
0
 60
     1
100
AcDbPoint
 10
-1733.361559116115
 20
-932.8292440464405
 30
0.0
1001
GENIUS_GENOBJ-N-CRS_13
1002
{
1000
OWNER
1000
GEN
1002
}
1001
GENIUS_GENOLIS_13
1002
{
1000
ENT
1005
0
1005
0
1005
0
1005
457
1002
}
1001
GENIUS_GENOENT_13
1002
{
1000
MYREF
1005
459
1002
}
1002
{
1000
GRP
1005
0
1002
}
1001
GENIUS_GENODEF_13
1002
{
1000
HIER
1070
    10
1002
}
1002
{
1000
MANEDIT
1070
     1
1002
}
1002
{
1000
NOSEL
1070
     0
1002
}
1002
{
1000
BEHIND
1070
     0
1002
}
1002
{
1000
OTHER
1070
     0
1002
}
1002
{
1000
REACTOR
1002
}
  0
POINT
  5
45A
330
D
100
AcDbEntity
 67
     1
  8
0
 60
     1
100
AcDbPoint
 10
-1744.68614433897
 20
-923.9536575678043
 30
0.0
1001
GENIUS_GENOBJ-N-CRS_13
1002
{
1000
OWNER
1000
GEN
1002
}
1001
GENIUS_GENOLIS_13
1002
{
1000
ENT
1005
0
1005
0
1005
0
1005
456
1002
}
1001
GENIUS_GENOENT_13
1002
{
1000
MYREF
1005
45A
1002
}
1002
{
1000
GRP
1005
0
1002
}
1001
GENIUS_GENODEF_13
1002
{
1000
HIER
1070
    10
1002
}
1002
{
1000
MANEDIT
1070
     1
1002
}
1002
{
1000
NOSEL
1070
     0
1002
}
1002
{
1000
BEHIND
1070
     0
1002
}
1002
{
1000
OTHER
1070
     0
1002
}
1002
{
1000
REACTOR
1002
}
  0
POINT
  5
45B
330
D
100
AcDbEntity
 67
     1
  8
0
 60
     1
100
AcDbPoint
 10
-1738.327470641133
 20
-932.8292440464405
 30
0.0
1001
GENIUS_GENOBJ-N-CRS_13
1002
{
1000
OWNER
1000
GEN
1002
}
1001
GENIUS_GENOLIS_13
1002
{
1000
ENT
1005
0
1005
0
1005
0
1005
455
1002
}
1001
GENIUS_GENOENT_13
1002
{
1000
MYREF
1005
45B
1002
}
1002
{
1000
GRP
1005
0
1002
}
1001
GENIUS_GENODEF_13
1002
{
1000
HIER
1070
    10
1002
}
1002
{
1000
MANEDIT
1070
     1
1002
}
1002
{
1000
NOSEL
1070
     0
1002
}
1002
{
1000
BEHIND
1070
     0
1002
}
1002
{
1000
OTHER
1070
     0
1002
}
1002
{
1000
REACTOR
1002
}
  0
DIMENSION
  5
D1C
330
D
100
AcDbEntity
 67
     1
  8
AM_REFDIM
100
AcDbDimension
  2
*D1
 10
185.5829615941213
 20
95.80311501052582
 30
0.0
 11
182.8329615941213
 21
100.8031150105258
 31
0.0
 70
    32
 71
     5
 42
10.0
  3
AM_ISO$0
100
AcDbAlignedDimension
 13
174.7390525893762
 23
105.8031150105258
 33
0.0
 14
176.2390525893762
 24
95.80311501052582
 34
0.0
 50
270.0
100
AcDbRotatedDimension
1001
AD_SKETCHDIM
1005
0
1000
d7
1001
ACAD
1000
DSTYLE
1002
{
1070
   178
1070
     5
1002
}
  0
DIMENSION
  5
D1D
330
D
100
AcDbEntity
 67
     1
  8
AM_REFDIM
100
AcDbDimension
  2
*D2
 10
194.0958469920971
 20
95.80311501052582
 30
0.0
 11
191.3458469920971
 21
134.3006245105258
 31
0.0
 70
    32
  1
<>
 71
     5
 42
76.99501899999997
  3
AM_ISO$0
100
AcDbAlignedDimension
 13
185.2390525893762
 23
172.7981340105258
 33
0.0
 14
176.2390525893762
 24
95.80311501052582
 34
0.0
 50
90.0
100
AcDbRotatedDimension
1001
AD_SKETCHDIM
1005
0
1000
d29
1001
ACAD
1000
DSTYLE
1002
{
1070
   178
1070
     5
1002
}
  0
LINE
  5
D1E
330
D
100
AcDbEntity
 67
     1
  8
AM_7
100
AcDbLine
 10
159.2390525893762
 20
200.0474337131282
 30
0.0
 11
159.2390525893762
 21
92.80311501052583
 31
0.0
  0
LINE
  5
D1F
330
D
100
AcDbEntity
 67
     1
  8
AM_7
100
AcDbLine
 10
169.7598698723662
 20
140.3031150105258
 30
0.0
 11
179.2390525893762
 21
140.3031150105258
 31
0.0
  0
LINE
  5
D20
330
D
100
AcDbEntity
 67
     1
  8
AM_7
100
AcDbLine
 10
159.2390525893762
 20
172.7981340105258
 30
0.0
 11
159.2390525893762
 21
172.7981340105258
 31
0.0
  0
LINE
  5
D21
330
D
100
AcDbEntity
 67
     1
  8
AM_7
100
AcDbLine
 10
159.2390525893762
 20
172.7981340105258
 30
0.0
 11
159.2390525893762
 21
172.7981340105258
 31
0.0
  0
LINE
  5
D22
330
D
100
AcDbEntity
 67
     1
  8
AM_7
100
AcDbLine
 10
133.2390525893762
 20
172.7981340105258
 30
0.0
 11
159.2390525893762
 21
172.7981340105258
 31
0.0
  0
LINE
  5
D23
330
D
100
AcDbEntity
 67
     1
  8
AM_7
100
AcDbLine
 10
159.2390525893762
 20
172.7981340105258
 30
0.0
 11
185.2390525893762
 21
172.7981340105258
 31
0.0
  0
DIMENSION
  5
D26
330
D
100
AcDbEntity
 67
     1
  8
AM_REFDIM
100
AcDbDimension
  2
*D3
 10
182.2390525893762
 20
209.0859222874457
 30
0.0
 11
159.2390525893762
 21
211.8359222874457
 31
0.0
 70
    32
 71
     5
 42
46.0
  3
AM_ISO$0
100
AcDbAlignedDimension
 13
136.2390525893762
 23
172.7981340105258
 33
0.0
 14
182.2390525893762
 24
172.7981340105258
 34
0.0
100
AcDbRotatedDimension
1001
ACAD
1000
DSTYLE
1002
{
1070
   178
1070
     5
1070
   272
1070
     2
1070
   274
1070
     2
1002
}
  0
DIMENSION
  5
D27
330
D
100
AcDbEntity
 67
     1
  8
AM_REFDIM
100
AcDbDimension
  2
*D4
 10
206.5970387190769
 20
95.80311501052582
 30
0.0
 11
203.8470387190769
 21
145.8006245105258
 31
0.0
 70
    32
 71
     5
 42
99.99501899999998
  3
AM_ISO$0
100
AcDbAlignedDimension
 13
159.2390525893762
 23
195.7981340105258
 33
0.0
 14
176.2390525893762
 24
95.80311501052582
 34
0.0
 50
90.0
100
AcDbRotatedDimension
1001
ACAD
1000
DSTYLE
1002
{
1070
   178
1070
     5
1070
   272
1070
     2
1070
   274
1070
     2
1002
}
  0
DIMENSION
  5
D28
330
D
100
AcDbEntity
 67
     1
  8
AM_REFDIM
100
AcDbDimension
  2
*D5
 10
172.9890525893762
 20
83.80311501052583
 30
0.0
 11
159.2390525893762
 21
83.80311501052583
 31
0.0
 70
   160
 71
     5
 42
27.5
  3
AM_ISO$0
100
AcDbAlignedDimension
 13
145.4890525893762
 23
106.8031150105258
 33
0.0
 14
172.9890525893762
 24
106.8031150105258
 34
0.0
100
AcDbRotatedDimension
1001
ACAD
1000
DSTYLE
1002
{
1070
   178
1070
     5
1070
   272
1070
     2
1070
   274
1070
     2
1002
}
  0
DIMENSION
  5
D29
330
D
100
AcDbEntity
 67
     1
  8
AM_REFDIM
100
AcDbDimension
  2
*D6
 10
176.2390525893762
 20
75.80311501052583
 30
0.0
 11
159.2390525893762
 21
78.55311501052582
 31
0.0
 70
    32
 71
     5
 42
34.0
  3
AM_ISO$0
100
AcDbAlignedDimension
 13
142.2390525893762
 23
95.80311501052582
 33
0.0
 14
176.2390525893762
 24
95.80311501052582
 34
0.0
100
AcDbRotatedDimension
1001
ACAD
1000
DSTYLE
1002
{
1070
   178
1070
     5
1070
   272
1070
     2
1070
   274
1070
     2
1002
}
  0
LINE
  5
D2A
330
D
100
AcDbEntity
 67
     1
  8
AM_7
100
AcDbLine
 10
248.7665039539517
 20
157.9725905405499
 30
0.0
 11
248.7665039539517
 21
92.80311501052583
 31
0.0
  0
LINE
  5
D2B
330
D
100
AcDbEntity
 67
     1
  8
AM_4
  6
AM_ISO02W050
100
AcDbLine
 10
258.9695039539517
 20
95.80311501052582
 30
0.0
 11
258.9695039539517
 21
135.8031150105258
 31
0.0
  0
LINE
  5
D2C
330
D
100
AcDbEntity
 67
     1
  8
AM_4
  6
AM_ISO02W050
100
AcDbLine
 10
238.5635039539517
 20
95.80311501052582
 30
0.0
 11
238.5635039539517
 21
135.8031150105258
 31
0.0
  0
LINE
  5
D2D
330
D
100
AcDbEntity
 67
     1
  8
AM_4
  6
AM_ISO02W050
100
AcDbLine
 10
258.9695039539517
 20
135.8031150105258
 30
0.0
 11
238.5635039539517
 21
135.8031150105258
 31
0.0
  0
DIMENSION
  5
D2E
330
D
100
AcDbEntity
 67
     1
  8
AM_REFDIM
100
AcDbDimension
  2
*D7
 10
230.400801840047
 20
162.7981340105258
 30
0.0
 11
227.6504573518579
 21
172.7981340105259
 31
0.0
 70
    32
  1
%%c<>
 71
     5
 42
20.0
  3
AM_ISO$0
100
AcDbAlignedDimension
 13
236.2665039539517
 23
182.7981340105258
 33
0.0
 14
236.2665039539517
 24
162.7981340105258
 34
0.0
 50
90.0
100
AcDbRotatedDimension
1001
ACAD
1000
DSTYLE
1002
{
1070
   178
1070
     5
1070
   272
1070
     2
1070
   274
1070
     2
1002
}
  0
DIMENSION
  5
D2F
330
D
100
AcDbEntity
 67
     1
  8
AM_REFDIM
100
AcDbDimension
  2
*D8
 10
271.6739989210704
 20
160.6043279496603
 30
0.0
 11
268.9236544328814
 21
172.7981340105258
 31
0.0
 70
    32
  1
%%c24.38
 71
     5
 42
24.387612121731
  3
AM_ISO$0
100
AcDbAlignedDimension
 13
261.2665039539517
 23
184.9919400713913
 33
0.0
 14
261.2665039539517
 24
160.6043279496603
 34
0.0
 50
90.0
100
AcDbRotatedDimension
1001
ACAD
1000
DSTYLE
1002
{
1070
   178
1070
     5
1070
   272
1070
     2
1070
   274
1070
     2
1002
}
  0
DIMENSION
  5
D30
330
D
100
AcDbEntity
 67
     1
  8
AM_REFDIM
100
AcDbDimension
  2
*D9
 10
279.2100117077006
 20
95.80311501052582
 30
0.0
 11
276.4600117077006
 21
115.8031150105258
 31
0.0
 70
    32
 71
     5
 42
40.0
  3
AM_ISO$0
100
AcDbAlignedDimension
 13
258.9695039539517
 23
135.8031150105258
 33
0.0
 14
263.7665039539517
 24
95.80311501052582
 34
0.0
 50
90.0
100
AcDbRotatedDimension
1001
ACAD
1000
DSTYLE
1002
{
1070
   178
1070
     5
1070
   272
1070
     2
1070
   274
1070
     2
1002
}
  0
DIMENSION
  5
D31
330
D
100
AcDbEntity
 67
     1
  8
AM_REFDIM
100
AcDbDimension
  2
*D10
 10
263.7665039539517
 20
84.48699500936985
 30
0.0
 11
248.7665039539517
 21
87.23699500936985
 31
0.0
 70
    32
 71
     5
 42
29.99999999999997
  3
AM_ISO$0
100
AcDbAlignedDimension
 13
233.7665039539517
 23
95.80311501052582
 33
0.0
 14
263.7665039539517
 24
95.80311501052582
 34
0.0
100
AcDbRotatedDimension
1001
ACAD
1000
DSTYLE
1002
{
1070
   178
1070
     5
1070
   272
1070
     2
1070
   274
1070
     2
1002
}
  0
LINE
  5
D32
330
D
100
AcDbEntity
 67
     1
  8
AM_7
100
AcDbLine
 10
264.2665039539517
 20
172.7981340105258
 30
0.0
 11
233.2665039539517
 21
172.7981340105258
 31
0.0
  0
DIMENSION
  5
D33
330
D
100
AcDbEntity
 67
     1
  8
AM_REFDIM
100
AcDbDimension
  2
*D11
 10
236.2665039539517
 20
207.5903954653042
 30
0.0
 11
248.7665039539517
 21
210.3407399534932
 31
0.0
 70
    32
 71
     5
 42
24.99999999999997
  3
AM_ISO$0
100
AcDbAlignedDimension
 13
261.2665039539517
 23
184.9919400713913
 33
0.0
 14
236.2665039539517
 24
184.9919400713913
 34
0.0
100
AcDbRotatedDimension
1001
ACAD
1000
DSTYLE
1002
{
1070
   178
1070
     5
1070
   272
1070
     2
1070
   274
1070
     2
1002
}
  0
DIMENSION
  5
D34
330
D
100
AcDbEntity
 67
     1
  8
AM_REFDIM
100
AcDbDimension
  2
*D12
 10
239.7665039539517
 20
201.2919296596204
 30
0.0
 11
248.7665039539517
 21
204.0419296596204
 31
0.0
 70
    32
 71
     5
 42
17.99999999999997
  3
AM_ISO$0
100
AcDbAlignedDimension
 13
257.7665039539517
 23
193.7981340105258
 33
0.0
 14
239.7665039539517
 24
193.7981340105258
 34
0.0
100
AcDbRotatedDimension
1001
ACAD
1000
DSTYLE
1002
{
1070
   178
1070
     5
1070
   272
1070
     2
1070
   274
1070
     2
1002
}
  0
ELLIPSE
  5
D3F
330
D
100
AcDbEntity
 67
     1
  8
AM_VIS
100
AcDbEllipse
 10
159.2390525893762
 20
167.8715725105258
 30
0.0
 11
0.0
 21
23.81569895833334
 31
0.0
210
0.0
220
0.0
230
1.0
 40
0.5773502606014738
 41
2.321795344336999
 42
3.961389962842501
  0
LINE
  5
D40
330
D
100
AcDbEntity
 67
     1
  8
AM_VIS
100
AcDbLine
 10
151.2390525893762
 20
95.80311501052582
 30
0.0
 11
167.2390525893762
 21
95.80311501052582
 31
0.0
  0
LINE
  5
D41
330
D
100
AcDbEntity
 67
     1
  8
AM_VIS
100
AcDbLine
 10
151.2390525893762
 20
104.3031150105258
 30
0.0
 11
151.2390525893762
 21
95.80311501052582
 31
0.0
  0
LINE
  5
D42
330
D
100
AcDbEntity
 67
     1
  8
AM_VIS
100
AcDbLine
 10
167.2390525893762
 20
104.3031150105258
 30
0.0
 11
167.2390525893762
 21
95.80311501052582
 31
0.0
  0
LINE
  5
D43
330
D
100
AcDbEntity
 67
     1
  8
AM_VIS
100
AcDbLine
 10
166.8548256952401
 20
105.8031150105258
 30
0.0
 11
165.1814847513786
 21
105.8031150105258
 31
0.0
  0
SPLINE
  5
D44
330
D
100
AcDbEntity
 67
     1
  8
AM_VIS
100
AcDbSpline
210
0.0
220
0.0
230
1.0
 70
     8
 71
     3
 72
    18
 73
    14
 74
     0
 42
0.0000000001
 43
0.0000000001
 40
-2.400023914541593
 40
-2.400023914541593
 40
-2.400023914541593
 40
-2.400023914541593
 40
-1.829831152990692
 40
-1.829831152990692
 40
-1.250904244986314
 40
-1.250904244986314
 40
-0.6537166033843935
 40
-0.6537166033843935
 40
-0.327382750685699
 40
-0.327382750685699
 40
0.0
 40
0.0
 40
0.0021925367746215
 40
0.0021925367746215
 40
0.0021925367746215
 40
0.0021925367746215
 10
167.2390525893762
 20
104.3031150105258
 30
0.0
 10
167.2390525893762
 20
104.492957179398
 30
0.0
 10
167.2300578417435
 20
104.6806780375807
 30
0.0
 10
167.1948037825936
 20
105.0348402157845
 30
0.0
 10
167.1686652417543
 20
105.1970549285191
 30
0.0
 10
167.1014123369447
 20
105.4772195350634
 30
0.0
 10
167.0605178706045
 20
105.5908296580003
 30
0.0
 10
166.9902519761174
 20
105.7140334333845
 30
0.0
 10
166.9642433010046
 20
105.7471252417171
 30
0.0
 10
166.9106101212661
 20
105.7916747377143
 30
0.0
 10
166.8830990931915
 20
105.8029642906664
 30
0.0
 10
166.8551969588288
 20
105.8031145108508
 30
0.0
 10
166.855011330206
 20
105.8031150105258
 30
0.0
 10
166.8548256952401
 20
105.8031150105258
 30
0.0
  0
SPLINE
  5
D45
330
D
100
AcDbEntity
 67
     1
  8
AM_VIS
100
AcDbSpline
210
0.0
220
0.0
230
1.0
 70
     8
 71
     3
 72
    18
 73
    14
 74
     0
 42
0.0000000001
 43
0.0000000001
 40
0.0
 40
0.0
 40
0.0
 40
0.0
 40
0.5695265066166501
 40
0.5695265066166501
 40
1.147776954071124
 40
1.147776954071124
 40
1.744266797946126
 40
1.744266797946126
 40
2.070219338298831
 40
2.070219338298831
 40
2.397219551030505
 40
2.397219551030505
 40
2.399409525884698
 40
2.399409525884698
 40
2.399409525884698
 40
2.399409525884698
 10
151.2390525893762
 20
104.3031150105258
 30
0.0
 10
151.2390525893762
 20
104.492957179398
 30
0.0
 10
151.2480473370089
 20
104.6806780375808
 30
0.0
 10
151.2833013961588
 20
105.0348402157845
 30
0.0
 10
151.3094399369981
 20
105.1970549285191
 30
0.0
 10
151.3766928418077
 20
105.4772195350634
 30
0.0
 10
151.417587308148
 20
105.5908296580003
 30
0.0
 10
151.4878532026351
 20
105.7140334333845
 30
0.0
 10
151.5138618777478
 20
105.7471252417171
 30
0.0
 10
151.5674950574864
 20
105.7916747377144
 30
0.0
 10
151.5950060855612
 20
105.8029642906664
 30
0.0
 10
151.6229082199236
 20
105.8031145108508
 30
0.0
 10
151.6230938485464
 20
105.8031150105258
 30
0.0
 10
151.6232794835123
 20
105.8031150105258
 30
0.0
  0
LINE
  5
D46
330
D
100
AcDbEntity
 67
     1
  8
AM_VIS
100
AcDbLine
 10
153.2966204273739
 20
105.8031150105258
 30
0.0
 11
151.6232794835123
 21
105.8031150105258
 31
0.0
  0
ARC
  5
D47
330
D
100
AcDbEntity
 67
     1
  8
AM_VIS
100
AcDbCircle
 10
186.7893424680994
 20
140.2774948949978
 30
0.0
 40
14.02949598897803
100
AcDbArc
 50
169.6289496679463
 51
179.8953686356633
  0
ARC
  5
D48
330
D
100
AcDbEntity
 67
     1
  8
AM_VIS
100
AcDbCircle
 10
186.7893424681004
 20
140.3287351260539
 30
0.0
 40
14.02949598897897
100
AcDbArc
 50
180.1046313643366
 51
190.3710503320528
  0
LINE
  5
D49
330
D
100
AcDbEntity
 67
     1
  8
AM_VIS
100
AcDbLine
 10
144.3404916173436
 20
155.2757587894961
 30
0.0
 11
144.4549229198307
 21
155.1790944799466
 31
0.0
  0
SPLINE
  5
D4A
330
D
100
AcDbEntity
 67
     1
  8
AM_VIS
100
AcDbSpline
210
0.0
220
0.0
230
1.0
 70
     8
 71
     3
 72
    20
 73
    16
 74
     0
 42
0.0000000001
 43
0.0000000001
 40
-0.0000934422363246
 40
-0.0000934422363246
 40
-0.0000934422363246
 40
-0.0000934422363246
 40
0.0
 40
0.0
 40
0.001610653161301
 40
0.001610653161301
 40
0.0045732102757922
 40
0.0045732102757922
 40
0.0084642925160539
 40
0.0084642925160539
 40
0.0148187805596579
 40
0.0148187805596579
 40
0.0254892635852381
 40
0.0254892635852381
 40
0.0412466033922528
 40
0.0412466033922528
 40
0.0412466033922528
 40
0.0412466033922528
 10
144.6436989646436
 20
155.4040688930678
 30
0.0
 10
144.6437094083561
 20
155.4040813393997
 30
0.0
 10
144.6437255500027
 20
155.4041021801092
 30
0.0
 10
144.643905793897
 20
155.4043376651897
 30
0.0
 10
144.6444676278769
 20
155.40514473515
 30
0.0
 10
144.6463565958121
 20
155.4097606751506
 30
0.0
 10
144.6476121884473
 20
155.4147345606871
 30
0.0
 10
144.6484719914
 20
155.4324117481213
 30
0.0
 10
144.6473900761698
 20
155.4457826758102
 30
0.0
 10
144.6380576285122
 20
155.4913158898893
 30
0.0
 10
144.6262003354907
 20
155.5276844010069
 30
0.0
 10
144.5735794476362
 20
155.6476706554133
 30
0.0
 10
144.5214079782232
 20
155.7403990750302
 30
0.0
 10
144.3411223992867
 20
155.999511183706
 30
0.0
 10
144.195034977997
 20
156.1697436845378
 30
0.0
 10
144.0183948602895
 20
156.3330332269579
 30
0.0
  0
SPLINE
  5
D4B
330
D
100
AcDbEntity
 67
     1
  8
AM_VIS
100
AcDbSpline
210
0.0
220
0.0
230
1.0
 70
     8
 71
     3
 72
    20
 73
    16
 74
     0
 42
0.0000000001
 43
0.0000000001
 40
0.0
 40
0.0
 40
0.0
 40
0.0
 40
0.7217480147344256
 40
0.7217480147344256
 40
1.210488291158686
 40
1.210488291158686
 40
1.501307531034215
 40
1.501307531034215
 40
1.6795363663657
 40
1.6795363663657
 40
1.814929756291609
 40
1.814929756291609
 40
1.889074275545142
 40
1.889074275545142
 40
1.896797116614548
 40
1.896797116614548
 40
1.896797116614548
 40
1.896797116614548
 10
174.4597103184629
 20
156.3330332269579
 30
0.0
 10
174.2830475884161
 20
156.1697227812538
 30
0.0
 10
174.1369458762632
 20
155.99946796622
 30
0.0
 10
173.9566557858184
 20
155.7403328990251
 30
0.0
 10
173.9044889405217
 20
155.6476020257283
 30
0.0
 10
173.8518972935626
 20
155.5276580952084
 30
0.0
 10
173.8400494720844
 20
155.491316779282
 30
0.0
 10
173.8307164266226
 20
155.4457943332755
 30
0.0
 10
173.8296333866953
 20
155.432419583975
 30
0.0
 10
173.8304915759384
 20
155.4147545787191
 30
0.0
 10
173.8317424755417
 20
155.4097839621412
 30
0.0
 10
173.8336333440307
 20
155.4051504777235
 30
0.0
 10
173.8341992136251
 20
155.4043378236574
 30
0.0
 10
173.8343877567348
 20
155.4040915679
 30
0.0
 10
173.8344250048587
 20
155.4040464991242
 30
0.0
 10
173.8344062141088
 20
155.4040688930678
 30
0.0
  0
LINE
  5
D4C
330
D
100
AcDbEntity
 67
     1
  8
AM_VIS
100
AcDbLine
 10
174.0231814951889
 20
155.1790953839698
 30
0.0
 11
174.1376130424054
 21
155.2757594038321
 31
0.0
  0
LINE
  5
D4D
330
D
100
AcDbEntity
 67
     1
  8
AM_VIS
100
AcDbLine
 10
142.2390525893762
 20
104.3031150105258
 30
0.0
 11
142.2390525893762
 21
95.80311501052582
 31
0.0
  0
SPLINE
  5
D4E
330
D
100
AcDbEntity
 67
     1
  8
AM_VIS
100
AcDbSpline
210
0.0
220
0.0
230
1.0
 70
     8
 71
     1
 72
     7
 73
     5
 74
     0
 42
0.0000000001
 43
0.0000000001
 40
0.0
 40
0.0
 40
0.9728742310683651
 40
1.928174236119799
 40
2.263732443621095
 40
2.603583377326576
 40
2.603583377326576
 10
145.4890525893762
 20
152.9125236351815
 30
0.0
 10
145.3313052111301
 20
153.8725236529593
 30
0.0
 10
144.8854068568778
 20
154.7173743837552
 30
0.0
 10
144.668854886696
 20
154.9737033810066
 30
0.0
 10
144.4217448970487
 20
155.2070171400457
 30
0.0
  0
SPLINE
  5
D4F
330
D
100
AcDbEntity
 67
     1
  8
AM_VIS
100
AcDbSpline
210
0.0
220
0.0
230
1.0
 70
     8
 71
     1
 72
     7
 73
     5
 74
     0
 42
0.0000000001
 43
0.0000000001
 40
0.0
 40
0.0
 40
0.3191369586208444
 40
0.6347126428449337
 40
1.588467635605815
 40
2.603079507960392
 40
2.603079507960392
 10
174.0563602817037
 20
155.2070171400456
 30
0.0
 10
173.8235555530925
 20
154.9887275234946
 30
0.0
 10
173.6174389995769
 20
154.7497631352683
 30
0.0
 10
173.16062546463
 20
153.9125236351815
 30
0.0
 10
172.9890525893762
 20
152.9125236351815
 30
0.0
  0
LINE
  5
D50
330
D
100
AcDbEntity
 67
     1
  8
AM_VIS
100
AcDbLine
 10
145.4890525893762
 20
152.9125236351815
 30
0.0
 11
145.4890525893762
 21
106.8031150105258
 31
0.0
  0
LINE
  5
D51
330
D
100
AcDbEntity
 67
     1
  8
AM_VIS
100
AcDbLine
 10
172.9890525893762
 20
137.8031150105258
 30
0.0
 11
172.9890525893762
 21
106.8031150105258
 31
0.0
  0
LINE
  5
D52
330
D
100
AcDbEntity
 67
     1
  8
AM_VIS
100
AcDbLine
 10
172.9890525893762
 20
152.9125236351815
 30
0.0
 11
172.9890525893762
 21
142.8031150105258
 31
0.0
  0
LINE
  5
D53
330
D
100
AcDbEntity
 67
     1
  8
AM_VIS
100
AcDbLine
 10
176.2390525893762
 20
104.3031150105258
 30
0.0
 11
176.2390525893762
 21
95.80311501052582
 31
0.0
  0
LINE
  5
D54
330
D
100
AcDbEntity
 67
     1
  8
AM_VIS
100
AcDbLine
 10
172.9890525893762
 20
137.8031150105258
 30
0.0
 11
173.7390525893762
 21
137.8031150105258
 31
0.0
  0
LINE
  5
D55
330
D
100
AcDbEntity
 67
     1
  8
AM_VIS
100
AcDbLine
 10
172.9890525893762
 20
142.8031150105258
 30
0.0
 11
173.7390525893762
 21
142.8031150105258
 31
0.0
  0
LINE
  5
D56
330
D
100
AcDbEntity
 67
     1
  8
AM_VIS
100
AcDbLine
 10
173.7390525893762
 20
138.5531150105258
 30
0.0
 11
176.2390525893762
 21
138.5531150105258
 31
0.0
  0
LINE
  5
D57
330
D
100
AcDbEntity
 67
     1
  8
AM_VIS
100
AcDbLine
 10
173.7390525893762
 20
142.0531150105258
 30
0.0
 11
176.2390525893762
 21
142.0531150105258
 31
0.0
  0
LINE
  5
D58
330
D
100
AcDbEntity
 67
     1
  8
AM_VIS
100
AcDbLine
 10
151.2390525893762
 20
95.80311501052582
 30
0.0
 11
142.2390525893762
 21
95.80311501052582
 31
0.0
  0
LINE
  5
D59
330
D
100
AcDbEntity
 67
     1
  8
AM_VIS
100
AcDbLine
 10
176.2390525893762
 20
95.80311501052582
 30
0.0
 11
167.2390525893762
 21
95.80311501052582
 31
0.0
  0
LINE
  5
D5A
330
D
100
AcDbEntity
 67
     1
  8
AM_VIS
100
AcDbLine
 10
143.7390525893762
 20
105.8031150105258
 30
0.0
 11
151.6232794835123
 21
105.8031150105258
 31
0.0
  0
LINE
  5
D5B
330
D
100
AcDbEntity
 67
     1
  8
AM_VIS
100
AcDbLine
 10
166.8548256952401
 20
105.8031150105258
 30
0.0
 11
174.7390525893762
 21
105.8031150105258
 31
0.0
  0
CIRCLE
  5
D5C
330
D
100
AcDbEntity
 67
     1
  8
AM_VIS
100
AcDbCircle
 10
159.2390525893762
 20
172.7981340105258
 30
0.0
 40
18.0
  0
CIRCLE
  5
D5D
330
D
100
AcDbEntity
 67
     1
  8
AM_VIS
100
AcDbCircle
 10
159.2390525893762
 20
172.7981340105258
 30
0.0
 40
15.25
  0
CIRCLE
  5
D5E
330
D
100
AcDbEntity
 67
     1
  8
AM_VIS
100
AcDbCircle
 10
159.2390525893762
 20
172.7981340105258
 30
0.0
 40
12.19380606086549
  0
CIRCLE
  5
D5F
330
D
100
AcDbEntity
 67
     1
  8
AM_VIS
100
AcDbCircle
 10
159.2390525893762
 20
172.7981340105258
 30
0.0
 40
10.0
  0
LINE
  5
D60
330
D
100
AcDbEntity
 67
     1
  8
AM_VIS
100
AcDbLine
 10
173.7390525893762
 20
142.8031150105258
 30
0.0
 11
173.7390525893762
 21
137.8031150105258
 31
0.0
  0
LINE
  5
D61
330
D
100
AcDbEntity
 67
     1
  8
AM_VIS
100
AcDbLine
 10
177.2390525893762
 20
141.0531150105258
 30
0.0
 11
177.2390525893762
 21
139.5531150105258
 31
0.0
  0
ARC
  5
D62
330
D
100
AcDbEntity
 67
     1
  8
AM_VIS
100
AcDbCircle
 10
159.2390525893762
 20
172.7981340105258
 30
0.0
 40
23.0
100
AcDbArc
 50
305.8224954135878
 51
310.0000000000001
  0
ARC
  5
D63
330
D
100
AcDbEntity
 67
     1
  8
AM_VIS
100
AcDbCircle
 10
159.2390525893762
 20
172.7981340105258
 30
0.0
 40
23.0
100
AcDbArc
 50
229.9999999999999
 51
234.1775045865514
  0
LINE
  5
D64
330
D
100
AcDbEntity
 67
     1
  8
AM_VIS
100
AcDbLine
 10
144.4549375665858
 20
155.1791118187893
 30
0.0
 11
144.6436989646436
 21
155.4040688930678
 31
0.0
  0
ARC
  5
D65
330
D
100
AcDbEntity
 67
     1
  8
AM_VIS
100
AcDbCircle
 10
159.2390525893762
 20
172.7981340105258
 30
0.0
 40
22.42248794222103
100
AcDbArc
 50
312.750891516849
 51
227.2491084811909
  0
ARC
  5
D66
330
D
100
AcDbEntity
 67
     1
  8
AM_VIS
100
AcDbCircle
 10
159.2390525893762
 20
172.7981340105258
 30
0.0
 40
23.0
100
AcDbArc
 50
310.3731578568979
 51
229.6268421383032
  0
LINE
  5
D67
330
D
100
AcDbEntity
 67
     1
  8
AM_VIS
100
AcDbLine
 10
173.8344062141088
 20
155.4040688930678
 30
0.0
 11
174.0231676121666
 21
155.1791118187893
 31
0.0
  0
ARC
  5
D68
330
D
100
AcDbEntity
 67
     1
  8
AM_VIS
100
AcDbCircle
 10
144.4890525893762
 20
106.8031150105258
 30
0.0
 40
1.0
100
AcDbArc
 50
270.0
 51
0.0
  0
ARC
  5
D69
330
D
100
AcDbEntity
 67
     1
  8
AM_VIS
100
AcDbCircle
 10
173.9890525893762
 20
106.8031150105258
 30
0.0
 40
1.0
100
AcDbArc
 50
180.0
 51
270.0
  0
ARC
  5
D6A
330
D
100
AcDbEntity
 67
     1
  8
AM_VIS
100
AcDbCircle
 10
143.7390525893762
 20
104.3031150105258
 30
0.0
 40
1.5
100
AcDbArc
 50
90.0
 51
180.0
  0
ARC
  5
D6B
330
D
100
AcDbEntity
 67
     1
  8
AM_VIS
100
AcDbCircle
 10
174.7390525893762
 20
104.3031150105258
 30
0.0
 40
1.5
100
AcDbArc
 50
0.0
 51
90.0
  0
ARC
  5
D6C
330
D
100
AcDbEntity
 67
     1
  8
AM_VIS
100
AcDbCircle
 10
176.2390525893762
 20
139.5531150105258
 30
0.0
 40
1.0
100
AcDbArc
 50
270.0
 51
0.0
  0
ARC
  5
D6D
330
D
100
AcDbEntity
 67
     1
  8
AM_VIS
100
AcDbCircle
 10
176.2390525893762
 20
141.0531150105258
 30
0.0
 40
1.0
100
AcDbArc
 50
0.0
 51
90.0
  0
LINE
  5
D6E
330
D
100
AcDbEntity
 67
     1
  8
AM_4
  6
AM_ISO02W050
100
AcDbLine
 10
261.2665039539517
 20
182.7981340105258
 30
0.0
 11
236.2665039539517
 21
182.7981340105258
 31
0.0
  0
LINE
  5
D6F
330
D
100
AcDbEntity
 67
     1
  8
AM_VIS
100
AcDbLine
 10
236.2665039539517
 20
182.7981340105258
 30
0.0
 11
236.2665039539517
 21
184.9919400713913
 31
0.0
  0
LINE
  5
D70
330
D
100
AcDbEntity
 67
     1
  8
AM_VIS
100
AcDbLine
 10
240.259071541643
 20
188.0481340105258
 30
0.0
 11
239.9665039539517
 21
188.0481340105258
 31
0.0
  0
LINE
  5
D71
330
D
100
AcDbEntity
 67
     1
  8
AM_VIS
100
AcDbLine
 10
239.9665039539517
 20
188.0481340105258
 30
0.0
 11
239.9665039539517
 21
190.7981340105258
 31
0.0
  0
LINE
  5
D72
330
D
100
AcDbEntity
 67
     1
  8
AM_VIS
100
AcDbLine
 10
239.9665039539517
 20
190.7981340105258
 30
0.0
 11
239.7665039539517
 21
190.7981340105258
 31
0.0
  0
LINE
  5
D73
330
D
100
AcDbEntity
 67
     1
  8
AM_VIS
100
AcDbLine
 10
239.7665039539517
 20
190.7981340105258
 30
0.0
 11
239.7665039539517
 21
193.7981340105258
 31
0.0
  0
LINE
  5
D74
330
D
100
AcDbEntity
 67
     1
  8
AM_VIS
100
AcDbLine
 10
245.8820610012391
 20
195.7981340105258
 30
0.0
 11
251.6509469066642
 21
195.7981340105258
 31
0.0
  0
LINE
  5
D75
330
D
100
AcDbEntity
 67
     1
  8
AM_VIS
100
AcDbLine
 10
257.7665039539517
 20
193.7981340105258
 30
0.0
 11
257.7665039539517
 21
190.7981340105258
 31
0.0
  0
LINE
  5
D76
330
D
100
AcDbEntity
 67
     1
  8
AM_VIS
100
AcDbLine
 10
257.7665039539517
 20
190.7981340105258
 30
0.0
 11
257.5665039539517
 21
190.7981340105258
 31
0.0
  0
LINE
  5
D77
330
D
100
AcDbEntity
 67
     1
  8
AM_VIS
100
AcDbLine
 10
257.5665039539517
 20
190.7981340105258
 30
0.0
 11
257.5665039539517
 21
188.0481340105258
 31
0.0
  0
LINE
  5
D78
330
D
100
AcDbEntity
 67
     1
  8
AM_VIS
100
AcDbLine
 10
257.5665039539517
 20
188.0481340105258
 30
0.0
 11
257.2739363662603
 21
188.0481340105258
 31
0.0
  0
LINE
  5
D79
330
D
100
AcDbEntity
 67
     1
  8
AM_VIS
100
AcDbLine
 10
261.2665039539517
 20
184.9919400713913
 30
0.0
 11
261.2665039539517
 21
182.7981340105258
 31
0.0
  0
LINE
  5
D7A
330
D
100
AcDbEntity
 67
     1
  8
AM_VIS
100
AcDbLine
 10
239.7665039539517
 20
154.7981340105258
 30
0.0
 11
239.9665039539517
 21
154.7981340105258
 31
0.0
  0
LINE
  5
D7B
330
D
100
AcDbEntity
 67
     1
  8
AM_VIS
100
AcDbLine
 10
239.9665039539517
 20
154.7981340105258
 30
0.0
 11
239.9665039539517
 21
157.5481340105258
 31
0.0
  0
LINE
  5
D7C
330
D
100
AcDbEntity
 67
     1
  8
AM_VIS
100
AcDbLine
 10
239.9665039539517
 20
157.5481340105258
 30
0.0
 11
240.259071541643
 21
157.5481340105258
 31
0.0
  0
LINE
  5
D7D
330
D
100
AcDbEntity
 67
     1
  8
AM_VIS
100
AcDbLine
 10
236.2665039539517
 20
160.6043279496603
 30
0.0
 11
236.2665039539517
 21
162.7981340105258
 31
0.0
  0
LINE
  5
D7E
330
D
100
AcDbEntity
 67
     1
  8
AM_4
  6
AM_ISO02W050
100
AcDbLine
 10
236.2665039539517
 20
162.7981340105258
 30
0.0
 11
261.2665039539517
 21
162.7981340105258
 31
0.0
  0
LINE
  5
D7F
330
D
100
AcDbEntity
 67
     1
  8
AM_VIS
100
AcDbLine
 10
261.2665039539517
 20
162.7981340105258
 30
0.0
 11
261.2665039539517
 21
160.6043279496603
 31
0.0
  0
LINE
  5
D80
330
D
100
AcDbEntity
 67
     1
  8
AM_VIS
100
AcDbLine
 10
257.2739363662603
 20
157.5481340105258
 30
0.0
 11
257.5665039539517
 21
157.5481340105258
 31
0.0
  0
LINE
  5
D81
330
D
100
AcDbEntity
 67
     1
  8
AM_VIS
100
AcDbLine
 10
257.5665039539517
 20
157.5481340105258
 30
0.0
 11
257.5665039539517
 21
154.7981340105258
 31
0.0
  0
LINE
  5
D82
330
D
100
AcDbEntity
 67
     1
  8
AM_VIS
100
AcDbLine
 10
257.5665039539517
 20
154.7981340105258
 30
0.0
 11
257.7665039539517
 21
154.7981340105258
 31
0.0
  0
LINE
  5
D83
330
D
100
AcDbEntity
 67
     1
  8
AM_VIS
100
AcDbLine
 10
257.7665039539517
 20
154.7981340105258
 30
0.0
 11
257.7665039539517
 21
152.5510641995051
 31
0.0
  0
LINE
  5
D84
330
D
100
AcDbEntity
 67
     1
  8
AM_VIS
100
AcDbLine
 10
257.9004785469467
 20
152.0510642050833
 30
0.0
 11
262.5165039539516
 21
144.0558735521925
 31
0.0
  0
LINE
  5
D85
330
D
100
AcDbEntity
 67
     1
  8
AM_VIS
100
AcDbLine
 10
262.5165039539516
 20
144.0558735521925
 30
0.0
 11
262.5165039539516
 21
106.8031150105258
 31
0.0
  0
ARC
  5
D86
330
D
100
AcDbEntity
 67
     1
  8
AM_VIS
100
AcDbCircle
 10
262.2665026001715
 20
104.6380507194594
 30
0.0
 40
1.500001353780346
100
AcDbArc
 50
0.0000298550975587
 51
59.99997014490205
  0
LINE
  5
D87
330
D
100
AcDbEntity
 67
     1
  8
AM_VIS
100
AcDbLine
 10
263.7665039539517
 20
104.6380515010647
 30
0.0
 11
263.7665039539517
 21
95.80311501052582
 31
0.0
  0
LINE
  5
D88
330
D
100
AcDbEntity
 67
     1
  8
AM_VIS
100
AcDbLine
 10
263.7665039539517
 20
95.80311501052582
 30
0.0
 11
258.1045039539517
 21
95.80311501052582
 31
0.0
  0
LINE
  5
D89
330
D
100
AcDbEntity
 67
     1
  8
AM_4
  6
AM_ISO02W050
100
AcDbLine
 10
258.1045039539517
 20
95.80311501052582
 30
0.0
 11
258.1045039539517
 21
144.8031150105258
 31
0.0
  0
LINE
  5
D8A
330
D
100
AcDbEntity
 67
     1
  8
AM_4
  6
AM_ISO02W050
100
AcDbLine
 10
258.1045039539517
 20
144.8031150105258
 30
0.0
 11
251.2665039539517
 21
148.9117999234363
 31
0.0
  0
LINE
  5
D8B
330
D
100
AcDbEntity
 67
     1
  8
AM_4
  6
AM_ISO02W050
100
AcDbLine
 10
251.2665039539517
 20
148.9117999234363
 30
0.0
 11
251.2665039539517
 21
155.5155153938347
 31
0.0
  0
LINE
  5
D8C
330
D
100
AcDbEntity
 67
     1
  8
AM_4
  6
AM_ISO02W050
100
AcDbLine
 10
246.2665039539516
 20
155.5155153938347
 30
0.0
 11
246.2665039539517
 21
148.9117999234363
 31
0.0
  0
LINE
  5
D8D
330
D
100
AcDbEntity
 67
     1
  8
AM_4
  6
AM_ISO02W050
100
AcDbLine
 10
246.2665039539517
 20
148.9117999234363
 30
0.0
 11
239.4285039539517
 21
144.8031150105258
 31
0.0
  0
LINE
  5
D8E
330
D
100
AcDbEntity
 67
     1
  8
AM_4
  6
AM_ISO02W050
100
AcDbLine
 10
239.4285039539517
 20
144.8031150105258
 30
0.0
 11
239.4285039539517
 21
95.80311501052582
 31
0.0
  0
LINE
  5
D8F
330
D
100
AcDbEntity
 67
     1
  8
AM_VIS
100
AcDbLine
 10
239.4285039539517
 20
95.80311501052582
 30
0.0
 11
233.7665039539517
 21
95.80311501052582
 31
0.0
  0
LINE
  5
D90
330
D
100
AcDbEntity
 67
     1
  8
AM_VIS
100
AcDbLine
 10
233.7665039539517
 20
95.80311501052582
 30
0.0
 11
233.7665039539517
 21
104.6380515010647
 31
0.0
  0
ARC
  5
D91
330
D
100
AcDbEntity
 67
     1
  8
AM_VIS
100
AcDbCircle
 10
235.2665053077318
 20
104.6380507194594
 30
0.0
 40
1.500001353780344
100
AcDbArc
 50
120.0000298550979
 51
179.9999701449024
  0
LINE
  5
D92
330
D
100
AcDbEntity
 67
     1
  8
AM_VIS
100
AcDbLine
 10
235.0165039539517
 20
106.8031150105258
 30
0.0
 11
235.0165039539517
 21
144.0558735521925
 31
0.0
  0
LINE
  5
D93
330
D
100
AcDbEntity
 67
     1
  8
AM_VIS
100
AcDbLine
 10
235.0165039539517
 20
144.0558735521925
 30
0.0
 11
239.6325293609567
 21
152.0510642050833
 31
0.0
  0
LINE
  5
D94
330
D
100
AcDbEntity
 67
     1
  8
AM_VIS
100
AcDbLine
 10
239.7665039539517
 20
152.5510641995051
 30
0.0
 11
239.7665039539517
 21
154.7981340105258
 31
0.0
  0
LINE
  5
D95
330
D
100
AcDbEntity
 67
     1
  8
AM_VIS
100
AcDbLine
 10
239.7665039539517
 20
190.7981340105258
 30
0.0
 11
239.7665039539517
 21
187.7627224194998
 31
0.0
  0
LINE
  5
D96
330
D
100
AcDbEntity
 67
     1
  8
AM_VIS
100
AcDbLine
 10
239.7665039539517
 20
157.8335456015518
 30
0.0
 11
239.7665039539517
 21
154.7981340105258
 31
0.0
  0
LINE
  5
D97
330
D
100
AcDbEntity
 67
     1
  8
AM_VIS
100
AcDbLine
 10
239.9665039539517
 20
157.5481340105258
 30
0.0
 11
239.9665039539517
 21
157.7150671390305
 31
0.0
  0
LINE
  5
D98
330
D
100
AcDbEntity
 67
     1
  8
AM_VIS
100
AcDbLine
 10
239.9665039539517
 20
187.8812008820212
 30
0.0
 11
239.9665039539517
 21
188.0481340105258
 31
0.0
  0
LINE
  5
D99
330
D
100
AcDbEntity
 67
     1
  8
AM_VIS
100
AcDbLine
 10
261.2665039539517
 20
162.7981340105258
 30
0.0
 11
261.2665039539517
 21
182.7981340105258
 31
0.0
  0
LINE
  5
D9A
330
D
100
AcDbEntity
 67
     1
  8
AM_VIS
100
AcDbLine
 10
236.2665039539517
 20
182.7981340105258
 30
0.0
 11
236.2665039539517
 21
162.7981340105258
 31
0.0
  0
LINE
  5
D9B
330
D
100
AcDbEntity
 67
     1
  8
AM_VIS
100
AcDbLine
 10
258.1045039539517
 20
95.80311501052582
 30
0.0
 11
239.4285039539517
 21
95.80311501052582
 31
0.0
  0
LINE
  5
D9C
330
D
100
AcDbEntity
 67
     1
  8
AM_4
  6
AM_ISO02W050
100
AcDbLine
 10
258.1045039539517
 20
144.8031150105258
 30
0.0
 11
239.4285039539517
 21
144.8031150105258
 31
0.0
  0
LINE
  5
D9D
330
D
100
AcDbEntity
 67
     1
  8
AM_4
  6
AM_ISO02W050
100
AcDbLine
 10
251.2665039539517
 20
148.9117999234363
 30
0.0
 11
246.2665039539517
 21
148.9117999234363
 31
0.0
  0
LINE
  5
D9E
330
D
100
AcDbEntity
 67
     1
  8
AM_VIS
100
AcDbLine
 10
257.5665039539517
 20
188.0481340105258
 30
0.0
 11
257.5665039539517
 21
187.8812008820211
 31
0.0
  0
LINE
  5
D9F
330
D
100
AcDbEntity
 67
     1
  8
AM_VIS
100
AcDbLine
 10
257.5665039539517
 20
157.7150671390305
 30
0.0
 11
257.5665039539517
 21
157.5481340105258
 31
0.0
  0
LINE
  5
DA0
330
D
100
AcDbEntity
 67
     1
  8
AM_VIS
100
AcDbLine
 10
257.7665039539517
 20
190.7981340105258
 30
0.0
 11
257.7665039539517
 21
187.7627224194998
 31
0.0
  0
LINE
  5
DA1
330
D
100
AcDbEntity
 67
     1
  8
AM_VIS
100
AcDbLine
 10
257.7665039539517
 20
157.8335456015518
 30
0.0
 11
257.7665039539517
 21
154.7981340105258
 31
0.0
  0
ARC
  5
DA2
330
D
100
AcDbEntity
 67
     1
  8
AM_VIS
100
AcDbCircle
 10
248.7665039539517
 20
172.7981340105258
 30
0.0
 40
17.4625
100
AcDbArc
 50
119.1555931718213
 51
135.7104097825142
  0
ARC
  5
DA3
330
D
100
AcDbEntity
 67
     1
  8
AM_VIS
100
AcDbCircle
 10
241.7665039539517
 20
193.7981340105258
 30
0.0
 40
2.0
100
AcDbArc
 50
134.663781424333
 51
180.0
  0
ARC
  5
DA4
330
D
100
AcDbEntity
 67
     1
  8
AM_VIS
100
AcDbCircle
 10
248.7665039539517
 20
141.5373588270188
 30
0.0
 40
54.337388
100
AcDbArc
 50
93.04291629806476
 51
98.89928725715057
  0
ARC
  5
DA5
330
D
100
AcDbEntity
 67
     1
  8
AM_VIS
100
AcDbCircle
 10
248.7665039539517
 20
141.5373588270188
 30
0.0
 40
54.337388
100
AcDbArc
 50
81.10071274284942
 51
86.95708370193523
  0
ARC
  5
DA6
330
D
100
AcDbEntity
 67
     1
  8
AM_VIS
100
AcDbCircle
 10
255.7665039539517
 20
193.7981340105258
 30
0.0
 40
2.0
100
AcDbArc
 50
0.0
 51
45.33621857566642
  0
ARC
  5
DA7
330
D
100
AcDbEntity
 67
     1
  8
AM_VIS
100
AcDbCircle
 10
248.7665039539517
 20
172.7981340105258
 30
0.0
 40
17.4625
100
AcDbArc
 50
44.28959021748574
 51
60.84440682817864
  0
ARC
  5
DA8
330
D
100
AcDbEntity
 67
     1
  8
AM_VIS
100
AcDbCircle
 10
248.7665039539517
 20
172.7981340105258
 30
0.0
 40
17.4625
100
AcDbArc
 50
224.2895902174857
 51
240.8444068281786
  0
ARC
  5
DA9
330
D
100
AcDbEntity
 67
     1
  8
AM_VIS
100
AcDbCircle
 10
248.7665039539517
 20
172.7981340105258
 30
0.0
 40
17.4625
100
AcDbArc
 50
299.1555931718214
 51
315.7104097825143
  0
ARC
  5
DAA
330
D
100
AcDbEntity
 67
     1
  8
AM_VIS
100
AcDbCircle
 10
258.7665039539516
 20
152.5510641995051
 30
0.0
 40
0.9999999999999998
100
AcDbArc
 50
180.0
 51
209.9999996309518
  0
ARC
  5
DAB
330
D
100
AcDbEntity
 67
     1
  8
AM_VIS
100
AcDbCircle
 10
263.5165039539517
 20
106.8031150105258
 30
0.0
 40
1.0
100
AcDbArc
 50
180.0
 51
239.9999999999998
  0
ARC
  5
DAC
330
D
100
AcDbEntity
 67
     1
  8
AM_VIS
100
AcDbCircle
 10
234.0165039539517
 20
106.8031150105258
 30
0.0
 40
1.0
100
AcDbArc
 50
300.0000000000001
 51
0.0
  0
ARC
  5
DAD
330
D
100
AcDbEntity
 67
     1
  8
AM_VIS
100
AcDbCircle
 10
238.7665039539517
 20
152.5510641995051
 30
0.0
 40
1.0
100
AcDbArc
 50
330.0000003690481
 51
0.0
  0
ARC
  5
DB0
330
D
100
AcDbEntity
 67
     1
  8
AM_VIS
100
AcDbCircle
 10
248.7665039539517
 20
172.7981340105258
 30
0.0
 40
17.46249999999999
100
AcDbArc
 50
240.84440682818
 51
299.1555931718199
  0
ARC
  5
DB1
330
D
100
AcDbEntity
 67
     1
  8
0
100
AcDbCircle
 10
248.7665039539517
 20
172.798134010526
 30
0.0
 40
17.46249999999986
100
AcDbArc
 50
60.84440682817864
 51
119.1555931718213
  0
DIMENSION
  5
DB2
330
D
100
AcDbEntity
 67
     1
  8
AM_REFDIM
100
AcDbDimension
  2
*D13
 10
283.3103349393707
 20
155.3356340105258
 30
0.0
 11
280.5603349393706
 21
172.7981340105259
 31
0.0
 70
    32
  1
%%c<>
 71
     5
 42
34.92500000000001
  3
AM_ISO$0
100
AcDbAlignedDimension
 13
248.7665039539517
 23
190.2606340105258
 33
0.0
 14
248.7665039539517
 24
155.3356340105258
 34
0.0
 50
90.0
100
AcDbRotatedDimension
1001
ACAD
1000
DSTYLE
1002
{
1070
   178
1070
     5
1002
}
  0
TEXT
  5
DB3
330
D
100
AcDbEntity
 67
     1
  8
AM_REFDIM
 62
     5
100
AcDbText
 10
212.7501171969054
 20
144.3893769799938
 30
0.0
 40
3.5
  1
M20*1.5
100
AcDbText
  0
LEADER
  5
DB4
330
D
100
AcDbEntity
 67
     1
  8
AM_REFDIM
100
AcDbLeader
  3
AM_ISO$7
 76
     3
 10
238.5635039539517
 20
135.8031150105258
 30
0.0
 10
229.2967823581899
 20
144.0839494542212
 30
0.0
 10
212.7412205541637
 20
144.0839494542212
 30
0.0
1001
ACAD
1000
DSTYLE
1002
{
1070
    41
1040
3.0
1070
   140
1040
3.5
1070
   147
1040
1.0
1070
   178
1070
     5
1002
}
  0
ARC
  5
DB5
330
D
100
AcDbEntity
 67
     1
  8
0
100
AcDbCircle
 10
159.2390525893762
 20
172.7981340105258
 30
0.0
 40
22.99999999999997
100
AcDbArc
 50
234.1775045865514
 51
305.8224954135878
  0
ARC
  5
DB6
330
D
100
AcDbEntity
 67
     1
  8
0
100
AcDbCircle
 10
171.4911480912569
 20
150.434409906236
 30
0.0
 40
2.5
100
AcDbArc
 50
118.7163860575321
 51
151.678182076748
  0
ARC
  5
DB7
330
D
100
AcDbEntity
 67
     1
  8
0
100
AcDbCircle
 10
146.9869570874946
 20
150.4344099062374
 30
0.0
 40
2.5
100
AcDbArc
 50
28.32181792325047
 51
61.28361394246606
  0
LINE
  5
FB4
330
D
100
AcDbEntity
 67
     1
  8
AM_7
100
AcDbLine
 10
244.3234969283724
 20
140.3031150105258
 30
0.0
 11
253.8026796453825
 21
140.3031150105258
 31
0.0
  0
CIRCLE
  5
FB8
330
D
100
AcDbEntity
 67
     1
  8
AM_4
  6
AM_ISO02W050
 48
0.8
100
AcDbCircle
 10
248.7665039539517
 20
140.3031150105258
 30
0.0
 40
1.75
  0
CIRCLE
  5
FB9
330
D
100
AcDbEntity
 67
     1
  8
AM_4
  6
AM_ISO02W050
 48
0.8
100
AcDbCircle
 10
248.7665039539517
 20
140.3031150105258
 30
0.0
 40
2.5
  0
ENDSEC
  0
SECTION
  2
OBJECTS
  0
DICTIONARY
  5
8
330
0
100
AcDbDictionary
281
     1
  3
ACAD_COLOR
350
31
  3
ACAD_GROUP
350
2D
  3
ACAD_LAYOUT
350
C
  3
ACAD_MATERIAL
350
30
  3
ACAD_MLINESTYLE
350
2E
  3
ACAD_PLOTSETTINGS
350
2F
  3
ACAD_PLOTSTYLENAME
350
7
  3
ACAD_TABLESTYLE
350
32
  3
AcadDim
350
95C
  3
ACDBHEADERROUNDTRIPXREC
350
10AE
  3
AcDbVariableDictionary
350
E9
  3
AcmDictionary
350
14D
  3
AMG
350
F5
  3
AMGSNAPSETTINGS
350
182
  3
DWGPROPS
350
10AD
  3
MAPISURF_MODULE
350
1050
  0
DICTIONARY
  5
15
330
14
100
AcDbDictionary
280
     1
281
     1
  3
ACAD_LAYERFILTERS
360
21A
  3
ACAD_LAYERSTATES
360
16
  3
ACLYDICTIONARY
360
219
  0
DICTIONARY
  5
3
330
2
100
AcDbDictionary
280
     1
281
     1
  3
ACAD_INDEX
360
10A3
  0
DICTIONARY
  5
10B2
330
F3
100
AcDbDictionary
280
     1
281
     1
  3
ACAD_XREC_ROUNDTRIP
360
10B3
  0
DICTIONARY
  5
31
102
{ACAD_REACTORS
330
8
102
}
330
8
100
AcDbDictionary
281
     1
  0
DICTIONARY
  5
2D
102
{ACAD_REACTORS
330
8
102
}
330
8
100
AcDbDictionary
281
     1
  0
DICTIONARY
  5
C
102
{ACAD_REACTORS
330
8
102
}
330
8
100
AcDbDictionary
281
     1
  3
Model
350
B
  3
配置1
350
10
  0
DICTIONARY
  5
30
102
{ACAD_REACTORS
330
8
102
}
330
8
100
AcDbDictionary
281
     1
  0
DICTIONARY
  5
2E
102
{ACAD_REACTORS
330
8
102
}
330
8
100
AcDbDictionary
281
     1
  3
STANDARD
350
33
  0
DICTIONARY
  5
2F
102
{ACAD_REACTORS
330
8
102
}
330
8
100
AcDbDictionary
281
     1
  0
ACDBDICTIONARYWDFLT
  5
7
102
{ACAD_REACTORS
330
8
102
}
330
8
100
AcDbDictionary
281
     1
  3
Normal
350
6
100
AcDbDictionaryWithDefault
340
6
  0
DICTIONARY
  5
32
102
{ACAD_REACTORS
330
8
102
}
330
8
100
AcDbDictionary
281
     1
  3
Standard
350
34
  0
XRECORD
  5
95C
102
{ACAD_REACTORS
330
8
102
}
330
8
100
AcDbXrecord
280
     1
 90
   990106
  3

 60
     0
 61
     0
 62
     4
 63
     4
 64
     1
 65
     0
 66
     0
 67
     3
 68
     0
 69
     0
 70
     0
 71
     0
 72
     0
 40
0.0
170
     2
340
0
  0
DICTIONARY
  5
10AE
102
{ACAD_REACTORS
330
8
102
}
330
8
100
AcDbDictionary
281
     1
  0
DICTIONARY
  5
E9
102
{ACAD_REACTORS
330
8
102
}
330
8
100
AcDbDictionary
281
     1
  3
CTABLESTYLE
350
EA
  3
DIMASSOC
350
EC
  3
HIDETEXT
350
EB
  3
INDEXCTL
350
10AC
  3
PROJECTNAME
350
ED
  0
DICTIONARY
  5
14D
102
{ACAD_REACTORS
330
8
102
}
330
8
100
AcDbDictionary
281
     1
  3
AcmStdDictionary
350
15A
  3
AMDTSECTSYM_ARROWCOLOR
350
174
  0
DICTIONARY
  5
F5
102
{ACAD_REACTORS
330
8
102
}
330
8
100
AcDbDictionary
281
     1
  3
AcMgSettings
350
FCB
  0
DICTIONARY
  5
182
102
{ACAD_REACTORS
330
8
102
}
330
8
100
AcDbDictionary
281
     1
  0
XRECORD
  5
10AD
102
{ACAD_REACTORS
330
8
102
}
330
8
100
AcDbXrecord
280
     1
  1
DWGPROPS COOKIE
  2

  3

  4

  6

  7

  8

  9

300
AmdtFileType=84
301
=
302
=
303
=
304
=
305
=
306
=
307
=
308
=
309
=
 40
0.1845031597222222
 41
2454805.686441575
 42
2456052.357173565
  1

 90
        1
  0
DICTIONARY
  5
21A
102
{ACAD_REACTORS
330
15
102
}
330
15
100
AcDbDictionary
281
     1
  0
DICTIONARY
  5
16
102
{ACAD_REACTORS
330
15
102
}
330
15
100
AcDbDictionary
281
     1
  0
DICTIONARY
  5
219
102
{ACAD_REACTORS
330
15
102
}
330
15
100
AcDbDictionary
281
     1
1001
ACAD
1000
<All
  0
DICTIONARY
  5
10A3
102
{ACAD_REACTORS
330
3
102
}
330
3
100
AcDbDictionary
281
     1
  3
*A1
350
10A4
  0
XRECORD
  5
10B3
102
{ACAD_REACTORS
330
10B2
102
}
330
10B2
100
AcDbXrecord
280
     1
102
SHADEPLOT
 70
     0
  0
LAYOUT
  5
B
102
{ACAD_XDICTIONARY
360
10AF
102
}
102
{ACAD_REACTORS
330
C
102
}
330
C
100
AcDbPlotSettings
  1

  2
\\NOVIBDC\HPLJ4-TPUB
  4

  6

 40
0.0
 41
0.0
 42
0.0
 43
0.0
 44
0.0
 45
0.0
 46
0.0
 47
0.0
 48
0.0
 49
0.0
140
0.0
141
0.0
142
1.0
143
1.0
 70
  1712
 72
     0
 73
     0
 74
     0
  7

 75
     0
147
1.0
148
0.0
149
0.0
100
AcDbLayout
  1
Model
 70
     1
 71
     0
 10
0.0
 20
0.0
 11
12.0
 21
9.0
 12
0.0
 22
0.0
 32
0.0
 14
0.0
 24
0.0
 34
0.0
 15
0.0
 25
0.0
 35
0.0
146
0.0
 13
0.0
 23
0.0
 33
0.0
 16
1.0
 26
0.0
 36
0.0
 17
0.0
 27
1.0
 37
0.0
 76
     0
330
2
  0
LAYOUT
  5
10
102
{ACAD_XDICTIONARY
360
11
102
}
102
{ACAD_REACTORS
330
C
102
}
330
C
100
AcDbPlotSettings
  1

  2
none_device
  4
ISO_A3_(420.00_x_297.00_MM)
  6

 40
7.5
 41
20.0
 42
7.5
 43
20.0
 44
420.0
 45
297.0
 46
0.0
 47
0.0
 48
0.0
 49
0.0
140
0.0
141
0.0
142
1.0
143
1.0
 70
   688
 72
     1
 73
     0
 74
     5
  7

 75
    16
147
1.0
148
0.0
149
0.0
100
AcDbLayout
  1
配置1
 70
     1
 71
     1
 10
-7.5
 20
-20.0
 11
412.5
 21
277.0
 12
0.0
 22
0.0
 32
0.0
 14
53.67124416153993
 24
18.26732563205806
 34
0.0
 15
366.38749416154
 25
245.6973256320579
 35
149.0322928480406
146
0.0
 13
0.0
 23
0.0
 33
0.0
 16
1.0
 26
0.0
 36
0.0
 17
0.0
 27
1.0
 37
0.0
 76
     0
330
D
331
F3
1001
ACAD_PSEXT
1000
無
1000
無
1000
不適用
1000
除非另選一新建的繪圖機規劃名稱，否則配置將不會出圖。
1070
     0
  0
MLINESTYLE
  5
33
102
{ACAD_REACTORS
330
2E
102
}
330
2E
100
AcDbMlineStyle
  2
STANDARD
 70
     0
  3

 62
     0
 51
90.0
 52
90.0
 71
     2
 49
0.5
 62
   256
  6
BYLAYER
 49
-0.5
 62
   256
  6
BYLAYER
  0
ACDBPLACEHOLDER
  5
6
102
{ACAD_REACTORS
330
7
102
}
330
7
  0
TABLESTYLE
  5
34
102
{ACAD_REACTORS
330
32
102
}
330
32
100
AcDbTableStyle
  3
Standard
 70
     0
 71
     0
 40
1.5
 41
1.5
280
     0
281
     0
  7
STANDARD
140
4.5
170
     2
 62
     0
 63
     7
283
     0
274
    -2
284
     1
 64
     0
275
    -2
285
     1
 65
     0
276
    -2
286
     1
 66
     0
277
    -2
287
     1
 67
     0
278
    -2
288
     1
 68
     0
279
    -2
289
     1
 69
     0
  7
STANDARD
140
6.0
170
     5
 62
     0
 63
     7
283
     0
274
    -2
284
     1
 64
     0
275
    -2
285
     1
 65
     0
276
    -2
286
     1
 66
     0
277
    -2
287
     1
 67
     0
278
    -2
288
     1
 68
     0
279
    -2
289
     1
 69
     0
  7
STANDARD
140
4.5
170
     5
 62
     0
 63
     7
283
     0
274
    -2
284
     1
 64
     0
275
    -2
285
     1
 65
     0
276
    -2
286
     1
 66
     0
277
    -2
287
     1
 67
     0
278
    -2
288
     1
 68
     0
279
    -2
289
     1
 69
     0
  0
DICTIONARYVAR
  5
EA
102
{ACAD_REACTORS
330
E9
102
}
330
E9
100
DictionaryVariables
280
     0
  1
STANDARD
  0
DICTIONARYVAR
  5
EC
102
{ACAD_REACTORS
330
E9
102
}
330
E9
100
DictionaryVariables
280
     0
  1
1
  0
DICTIONARYVAR
  5
EB
102
{ACAD_REACTORS
330
E9
102
}
330
E9
100
DictionaryVariables
280
     0
  1
1
  0
DICTIONARYVAR
  5
10AC
102
{ACAD_REACTORS
330
E9
102
}
330
E9
100
DictionaryVariables
280
     0
  1
1
  0
DICTIONARYVAR
  5
ED
102
{ACAD_REACTORS
330
E9
102
}
330
E9
100
DictionaryVariables
280
     0
  1

  0
DICTIONARY
  5
15A
102
{ACAD_REACTORS
330
14D
102
}
330
14D
100
AcDbDictionary
281
     1
  0
XRECORD
  5
174
102
{ACAD_REACTORS
330
14D
102
}
330
14D
100
AcDbXrecord
280
     1
 90
-1023410169
  0
DICTIONARY
  5
FCB
102
{ACAD_REACTORS
330
F5
102
}
330
F5
100
AcDbDictionary
281
     1
  3
DWGSETTINGS
350
FCC
  3
TRANSSETTINGS
350
FD0
  0
LAYER_INDEX
  5
10A4
102
{ACAD_REACTORS
330
10A3
102
}
330
10A3
100
AcDbIndex
 40
2456052.357173565
100
AcDbLayerIndex
  8
0
360
10A5
 90
        0
  8
Defpoints
360
10A6
 90
        0
  8
AM_VIS
360
10A7
 90
        0
  8
AM_7
360
10A8
 90
        0
  8
AM_4
360
10A9
 90
        0
  8
AM_REFDIM
360
10AA
 90
        0
  8
LOGO
360
10AB
 90
        0
  0
DICTIONARY
  5
10AF
330
B
100
AcDbDictionary
280
     1
281
     1
  3
ACAD_XREC_ROUNDTRIP
360
10B0
  0
DICTIONARY
  5
11
330
10
100
AcDbDictionary
280
     1
281
     1
  3
ACAD_XREC_ROUNDTRIP
360
10B1
  3
ADSK_XREC_LAYOUTTHUMBNAIL
360
12
  0
IDBUFFER
  5
10A5
330
0
100
AcDbIdBuffer
  0
IDBUFFER
  5
10A6
330
0
100
AcDbIdBuffer
  0
IDBUFFER
  5
10A7
330
0
100
AcDbIdBuffer
  0
IDBUFFER
  5
10A8
330
0
100
AcDbIdBuffer
  0
IDBUFFER
  5
10A9
330
0
100
AcDbIdBuffer
  0
IDBUFFER
  5
10AA
330
0
100
AcDbIdBuffer
  0
IDBUFFER
  5
10AB
330
0
100
AcDbIdBuffer
  0
XRECORD
  5
10B0
102
{ACAD_REACTORS
330
10AF
102
}
330
10AF
100
AcDbXrecord
280
     1
102
SHADEPLOT
 70
     0
102
SHADEPLOTRESLEVEL
 70
     2
102
SHADEPLOTCUSTOMDPI
 70
   300
  0
XRECORD
  5
10B1
102
{ACAD_REACTORS
330
11
102
}
330
11
100
AcDbXrecord
280
     1
102
SHADEPLOT
 70
     0
102
SHADEPLOTRESLEVEL
 70
     2
102
SHADEPLOTCUSTOMDPI
 70
   300
  0
XRECORD
  5
12
102
{ACAD_REACTORS
330
11
102
}
330
11
100
AcDbXrecord
280
     1
310
28000000B40000007F00000001000800000000004C590000000000000000000000010000000000000000000000000000FFFFFF000000000000000000000000000000000000000000000000000000000000000000330000006600000099000000CC000000FF00000000330000333300006633000099330000CC330000FF3300
310
0000660000336600006666000099660000CC660000FF66000000990000339900006699000099990000CC990000FF99000000CC000033CC000066CC000099CC0000CCCC0000FFCC000000FF000033FF000066FF000099FF0000CCFF0000FFFF000000003300330033006600330099003300CC003300FF003300003333003333
310
33006633330099333300CC333300FF33330000663300336633006666330099663300CC663300FF66330000993300339933006699330099993300CC993300FF99330000CC330033CC330066CC330099CC3300CCCC3300FFCC330000FF330033FF330066FF330099FF3300CCFF3300FFFF330000006600330066006600660099
310
006600CC006600FF00660000336600333366006633660099336600CC336600FF33660000666600336666006666660099666600CC666600FF66660000996600339966006699660099996600CC996600FF99660000CC660033CC660066CC660099CC6600CCCC6600FFCC660000FF660033FF660066FF660099FF6600CCFF6600
310
FFFF660000009900330099006600990099009900CC009900FF00990000339900333399006633990099339900CC339900FF33990000669900336699006666990099669900CC669900FF66990000999900339999006699990099999900CC999900FF99990000CC990033CC990066CC990099CC9900CCCC9900FFCC990000FF99
310
0033FF990066FF990099FF9900CCFF9900FFFF99000000CC003300CC006600CC009900CC00CC00CC00FF00CC000033CC003333CC006633CC009933CC00CC33CC00FF33CC000066CC003366CC006666CC009966CC00CC66CC00FF66CC000099CC003399CC006699CC009999CC00CC99CC00FF99CC0000CCCC0033CCCC0066CC
310
CC0099CCCC00CCCCCC00FFCCCC0000FFCC0033FFCC0066FFCC0099FFCC00CCFFCC00FFFFCC000000FF003300FF006600FF009900FF00CC00FF00FF00FF000033FF003333FF006633FF009933FF00CC33FF00FF33FF000066FF003366FF006666FF009966FF00CC66FF00FF66FF000099FF003399FF006699FF009999FF00CC
310
99FF00FF99FF0000CCFF0033CCFF0066CCFF0099CCFF00CCCCFF00FFCCFF0000FFFF0033FFFF0066FFFF0099FFFF00CCFFFF00FFFFFF00000000000D0D0D001A1A1A00282828003535350043434300505050005D5D5D006B6B6B00787878008686860093939300A1A1A100AEAEAE00BBBBBB00C9C9C900D6D6D600E4E4E400
310
F1F1F100FFFFFF0000000000000000000000000000000000000000000000000000000000000000000000000000000000F5F5F5F5F5F5F5F5F5F5F5F5F5F5F5F5F5F5F5F5F5F5F5F5F5F5F5F5F5F5F5F5F5F5F5F5F5F5F5F5F5F5F5F5F5F5F5F5F5F5F5F5F5F5F5F5F5F5F5F5F5F5F5F5F5F5F5F5F5F5F5F5F5F5F5F5F5F5F5
310
F5F5F5F5F5F5F5F5F5F5F5F5F5F5F5F5F5F5F5F5F5F5F5F5F5F5F5F5F5F5F5F5F5F5F5F5F5F5F5F5F5F5F5F5F5F5F5F5F5F5F5F5F5F5F5F5F5F5F5F5F5F5F5F5F5F5F5F5F5F5F5F5F5F5F5F5F5F5F5F5F5F5F5F5F5F5F5F5F5F5F5F5F5F5F5F5F5F5F5F5F5F5E2E2E2E2E2E2E2E2E2E2E2E2E2E2E2E2E2E2E2E2E2E2E2E2E2
310
E2E2E2E2E2E2E2E2E2E2E2E2E2E2E2E2E2E2E2E2E2E2E2E2E2E2E2E2E2E2E2E2E2E2E2E2E2E2E2E2E2E2E2E2E2E2E2E2E2E2E2E2E2E2E2E2E2E2E2E2E2E2E2E2E2E2E2E2E2E2E2E2E2E2E2E2E2E2E2E2E2E2E2E2E2E2E2E2E2E2E2E2E2E2E2E2E2E2E2E2E2E2E2E2E2E2E2E2E2E2E2E2E2E2E2E2E2E2E2E2E2E2E2E2E2E2E2
310
E2E2E2E2E2E2E2E2E2E2E2E2E2E2E2E2E2E2E2E2E2E2E2E2E2E2F5F5E2E2E2E2E2E2E2E2E2E2E2E2E2E2E2E2E2E2E2E2E2E2E2E2E2E2E2E2E2E2E2E2E2E2E2E2E2E2E2E2E2E2E2E2E2E2E2E2E2E2E2E2E2E2E2E2E2E2E2E2E2E2E2E2E2E2E2E2E2E2E2E2E2E2E2E2E2E2E2E2E2E2E2E2E2E2E2E2E2E2E2E2E2E2E2E2E2E2E2
310
E2E2E2E2E2E2E2E2E2E2E2E2E2E2E2E2E2E2E2E2E2E2E2E2E2E2E2E2E2E2E2E2E2E2E2E2E2E2E2E2E2E2E2E2E2E2E2E2E2E2E2E2E2E2E2E2E2E2E2E2E2E2E2E2E2E2E2E2E2E2E2E2E2E2E2E2E2E2E2F5F5E2E2E2E2E2E2E2E2E2E2E2E2E2E2E2E2E2E2E2E2E2E2E2E2E2E2E2E2E2E2E2E2E2E2E2E2E2E2E2E2E2E2E2E2E2E2
310
E2E2E2E2E2E2E2E2E2E2E2E2E2E2E2E2E2E2E2E2E2E2E2E2E2E2E2E2E2E2E2E2E2E2E2E2E2E2E2E2E2E2E2E2E2E2E2E2E2E2E2E2E2E2E2E2E2E2E2E2E2E2E2E2E2E2E2E2E2E2E2E2E2E2E2E2E2E2E2E2E2E2E2E2E2E2E2E2E2E2E2E2E2E2E2E2E2E2E2E2E2E2E2E2E2E2E2E2E2E2E2E2E2E2E2E2E2E2E2E2E2E2E2E2E2E2E2
310
E2E2E2E2E2F5F5E2E2E2E2E2E2E2E2E2E2E2E2E2E2E2E2E2E2E2E2E2E2E2E2E2E2E2E2E2E2E2E2E2E2E2E2E2E2E2E2E2E2E2E2E2E2E2E2E2E2E2E2E2E2E2E2E2E2E2E2E2E2E2E2E2E2E2E2E2E2E2E2E2E2E2E2E2E2E2E2E2E2E2E2E2E2E2E2E2E2E2E2E2E2E2E2E2E2E2E2E2E2E2E2E2E2E2E2E2E2E2E2E2E2E2E2E2E2E2E2
310
E2E2E2E2E2E2E2E2E2E2E2E2E2E2E2E2E2E2E2E2E2E2E2E2E2E2E2E2E2E2E2E2E2E2E2E2E2E2E2E2E2E2E2E2E2E2E2E2E2E2E2E2E2E2E2E2E2E2F5F5E2E2E2E2E2E2E2E2E2E2E2E2E2E2E2E2E2E2E2E2E2E2E2E2E2E2E2E2E2E2E2E2E2E2E2E2E2E2E2E2E2E2E2E2E2E2E2E2E2E2E2E2E2E2E2E2E2E2E2E2E2E2E2E2E2E2E2
310
E2E2E2E2E2E2E2E2E2E2E2E2E2E2E2E2E2E2E2E2E2E2E2E2E2E2E2E2E2E2E2E2E2E2E2E2E2E2E2E2E2E2E2E2E2E2E2E2E2E2E2E2E2E2E2E2E2E2E2E2E2E2E2E2E2E2E2E2E2E2E2E2E2E2E2E2E2E2E2E2E2E2E2E2E2E2E2E2E2E2E2E2E2E2E2E2E2E2E2E2E2E2E2E2E2E2E2E2E2E2E2F5F5E2E2E2E2E2E2E2E2E2E2E2E2E2E2
310
E2E2E2E2E2E2E2E2E2E2E2E2E2E2E2E2E2E2E2E2E2E2E2E2E2E2E2E2E2E2E2E2E2E2E2E2E2E2E2E2E2E2E2E2E2E2E2E2E2E2E2E2E2E2E2E2E2E2E2E2E2E2E2E2E2E2E2E2E2E2E2E2E2E2E2E2E2E2E2E2E2E2E2E2E2E2E2E2E2E2E2E2E2E2E2E2E2E2E2E2E2E2E2E2E2E2E2E2E2E2E2E2E2E2E2E2E2E2E2E2E2E2E2E2E2E2E2
310
E2E2E2E2E2E2E2E2E2E2E2E2E2E2E2E2E2E2E2E2E2E2E2E2E2E2E2E2E2E2E2E2E2E2E2E2E2F5F5E2E2E2E2E2E2E2E2E2E2E2E2E2E2E2E2E2E2E2E2E2E2E2E2E2E2E2E2E2E2E2E2E2E2E2E2E2E2E2E2E2E2E2E2E2E2E2E2E2E2E2E2E2E2E2E2E2E2E2E2E2E2E2E2E2E2E2E2E2E2E2E2E2E2E2E2E2E2E2E2E2E2E2E2E2E2E2E2
310
E2E2E2E2E2E2E2E2E2E2E2E2E2E2E2E2E2E2E2E2E2E2E2E2E2E2E2E2E2E2E2E2E2E2E2E2E2E2E2E2E2E2E2E2E2E2E2E2E2E2E2E2E2E2E2E2E2E2E2E2E2E2E2E2E2E2E2E2E2E2E2E2E2E2E2E2E2E2E2E2E2E2E2E2E2E2E2E2E2E2F5F5E2E2E2F5F5F5F5F5F5F5F5E2E2E2E2E2E2E2E2E2F5F5F5F5F5F5F5F5F5F5F5F5F5F5F5
310
F5E2E2E2E2E2E2E2E2E2F5F5F5F5F5F5F5F5F5F5F5F5F5F5F5E2E2E2E2E2E2E2E2E2F5F5F5F5F5F5F5F5F5F5F5F5F5F5F5F5E2E2E2E2E2E2E2E2F5F5F5F5F5F5F5F5F5F5F5F5F5F5F5F5E2E2E2E2E2E2E2E2E2F5F5F5F5F5F5F5F5F5F5F5F5F5F5F5E2E2E2E2E2E2E2E2E2F5F5F5F5F5F5F5F5F5F5F5F5F5F5F5F5E2E2E2E2
310
E2E2E2E2E2F5F5F5F5F5F5F5F5E2E2E2F5F5E2E2E2F5E2E2E2E2E2E2E2E2E2E2E2E2E2E2E2E2E2E2E2E2E2E2E2E2E2E2E2E2E2E2E2E2E2E2E2E2E2E2E2E2E2E2E2E2E2E2E2E2E2E2E2E2E2E2E2E2E2E2E2E2E2E2E2E2E2E2E2E2E2E2E2E2E2E2E2E2E2E2E2E2E2E2E2E2E2E2E2E2E2E2E2E2E2E2E2E2E2E2E2E2E2E2E2E2E2
310
E2E2E2E2E2E2E2E2E2E2E2E2E2E2E2E2E2E2E2E2E2E2E2E2E2E2E2E2E2E2E2E2E2E2E2E2E2E2E2E2E2E2E2E2E2E2E2E2E2E2E2E2E2E2E2E2E2E2E2E2E2E2E2E2E2F5E2E2E2F5F5E2E2E2F5E2E2E2E2E2E2E2E2E2E2E2E2E22D2D2D2D2D2D2D2D2D2D2D2D2D2D2D2D2D2D2D2D2D2D2D2DF5F5F5F5F5F52D2D2D2D2D2D2D2D2D
310
2D2D2D2D2D2D2D2D2D2D2D2D2D2D2D2D2D2D2D2D2D2D2D2D2D2D2D2D2D2D2D2D2D2D2D2D2D2D2D2D2D2D2D2D2D2D2D2D2D2D2D2D2D2D2D2D2D2D2D2D2D2D2D2D2D2D2D2D2D2D2D2D2D2D2D2D2D2D2D2D2D2D2D2D2D2D2D2D2D2D2D2D2D2D2D2D2D2D2D2D2D2D2D2D2D2D2D2D2DE2E2E2E2E2E2E2E2E2F5E2E2E2F5F5E2E2E2
310
F5E2E2E2E2E2E2E2E2E2E2E2E2E22DF5F5F5F5F5F5F5F5F5F5F5F5F5F5F5E2F5F5E2F5F5F5E2F5F5F5F5F5F52DE2E2E2E2E2E2E2E2E22D2DF5F5F5F52D2DE2E2E2E2E2E2E2E2E2E2E2E2E2E2E2E2E2E2E2E2E2E2E2E2E2E2E2E2E2E2E2E2E2E2E2E2E2E2E2E2E2E2E2E2E2E2E2E2E2E2E2E2E2E2E2E2E2E2E2E2E2E2E2E2E2
310
E2E2E2E2E2E2E2E2E2E2E2E2E2E2E2E2E2E2E2E2E2E2E2E2E2E2E2E2E2E2E2E2E2E22DE2E2E2E2E2E2E2E2E2F5E2E2E2F5F5E2E2E2F5E2E2E2E2E2E2E2E2E2E2E2E2E22DE2E2E2F5F5F5F5F5F5F5F5F5F5F5F5F5F5F5F5F5E2E2E22D2D2D2D2D2D2DE2E2E2E2E2E2E2E2E22DE2F5F5F5F5E22DE2E2E2E2E2E2E2E2E2E2E2E2
310
E2E2E2E2E2E2E2E2E2E2E2E2E2E2E2E2E2E2E2E2E2E2E2E2E2E2E2E2E2E2E2E2E2E2E2E2E2E2E2E2E2E2E2E2E2E2E2E2E2E2E2E2E2E2E2E2E2E2E2E2E2E2E2E2E2E2E2E2E2E2E2E2E2E2E2E2E2E2E2E2E2E2E2E2E2E2E22DE2E2E2E2E2E2E2E2E2F5E2E2E2F5F5E2E2E2F5E2E2E2E2E2E2E2E2E2E2E2E2E22DE2E2E2F5F5F5
310
F5F5F5F5F5F5F5F5F5F5F5F5F5F5E2E2E22DE2E2E2E2E2E2E2E2E2E2E2E2E2E2E22DE2F5F5F5F5E22DE2E2E2E2E2E2E2E2E2E2E2E2E2E2E2E2E2E2E2E2E2E2E2E2E2E2E2E2E2E2E2E2E2E2E2E2E2E2E2E2E2E2E2E2E2E2E2E2E2E2E2E2E2E2E2E2E2E2E2E2E2E2E2E2E2E2E2E2E2E2E2E2E2E2E2E2E2E2E2E2E2E2E2E2E2E2
310
E2E2E2E2E2E2E2E2E2E2E2E2E22DE2E2E2E2E2E2E2E2E2F5E2E2E2F5F5E2E2E2F5E2E2E2E2E2E2E2E2E2E2E2E2E22D0F0F0F0F0F0F0F2D2D2D2D2D2D2D2D2D2D2D2D2D2D2D2D2DE2E2E2E2E2E2E2E2E2E2E2E2E2E2E22DE2F5F5F5F5E22DE2E2E2E2E2E2E2E2E2E2E2E2E2E2E2E2E2E2E2E2E2E2E2E2E2E2E2E2E2E2E2E2E2
310
E2E2E2E2E2E2E2E2E2E2E2E2E2E2E2E2E2E2E2E2E2E2E2E2E2E2E2E2E2E2E2E2E2E2E2E2E2E2E2E2E2E2E2E2E2E2E2E2E2E2E2E2E2E2E2E2E2E2E2E2E2E2E2E2E2E22DE2E2E2E2E2E2E2E2E2F5E2E2E2F5F5E2E2E2F5E2E2E2E2E2E2E2E2E2E2E2E2E22D0F0F0F0F0F0F0F2DF5F5F5E2F5F5F5F52DE2F5F5F5E2E22DE2E2E2
310
E2E2E2E2E2E2F5E2E2E2E2E22D2D2D2D2D2D2D2DE2E2E2E2E2E2E2E2E2E2E2E2E2E2E2E2E2E2E2E2E2E2E2E2E2E2E2E2E2E2E2E2E2E2E2E2E2E2E2E2E2E2E2E2E2E2E2E2E2E2E2E2E2E2E2E2E2E2E2E2E2E2E2E2E2E2E2E2E2E2E2E2E2E2E2E2E2E2E2E2E2E2E2E2E2E2E2E2E2E2E2E2E2E2E2E2E2E2E22DE2E2E2E2E2E2E2
310
E2E2F5E2E2E2F5F5E2E2E2F5E2E2E2E2E2E2E2E2E2E2E2E2E22D0FDCE2DC0FDCDC2DF5F52D2DF5F5F52D2DF52D2D2D2D2D2DF5F5F5F5E2F5F5F5F5F5F5F5F52D2D2D2D2D2D2D2D2D2D2D2DE2E2E2E2E2E2E2E2E2E2E2E2E2E2E2E2E2E2E2E2E2E2E2E2E2E2E2E2E2E2E2E2E2E2E2E2E2E2E2E2E2E2E2E2E2E2E2E2E2E2E2E2
310
E2E2E2E2E2E2E2E2E2E2E2E2E2E2E2E2E2E2E2E2E2E2E2E2E2E2E2E2E2E2E2E2E2E2E2E2E2E2E2E2E2E2E2E2E22DE2E2E2E2E2E2E2E2E2F5E2E2E2F5F5E2E2E2E2E2E2E2E2E2E2E2E2E2E2E2E2E22DE20FDCDCDC0FDC2DF5F5F5E2F5F5F5F52DF5F5F5F5F5F52DF5F5F5F5F5F5F5F5F5F5F5F5F52DE2F5F5E2F5F5F5E2E2E2
310
2DE2E2E2E2E2E2E2E2E2E2E2E2E2E2E2E2E2E2E2E2E2E2E2E2E2E2E2E2E2E2E2E2E2E2E2E2E2E2E2E2E2E2E2E2E2E2E2E2E2E2E2E2E2E2E2E2E2E2E2E2E2E2E2E2E2E2E2E2E2E2E2E2E2E2E2E2E2E2E2E2E2E2E2E2E2E2E2E2E2E2E2E2E2E2E2E2E22DE2E2E2E2E2E2E2E2E2E2E2E2E2F5F5E2E2E2E2E2E2E2E2E2E2E2E2E2
310
E2E2E2E22DE2E2DCDCDCDCDC2DF5F5F5F5F52D2D2D2DF5F5F5F5F52D2DF5F5F5F5F5F5F5F5F5F5E2E2E22DE2F5F5F5F5F5F5E2F5F52DE2E2E2E2E2E2E2E2E2E2E2E2E2E2E2E2E2E2E2E2E2E2E2E2E2E2E2E2E2E2E2E2E2E2E2E2E2E2E2E2E2E2E2E2E2E2E2E2E2E2E2E2E2E2E2E2E2E2E2E2E2E2E2E2E2E2E2E2E2E2E2E2E2
310
E2E2E2E2E2E2E2E2E2E2E2E2E2E2E2E2E2E2E2E2E2E2E2E22DE2E2E2E2E2E2E2E2E2E2E2E2E2F5F5E2E2E2E2E2E2E2E2E2E2E2E2E2E2E2E2E22DE2E20FDC0FDCDC2DF5F5F5F5F5F5F5F52DF5E2F5E2F5E22DF5F5F5F5F5F5F5F5F5F5E2E2E22D2DF5F52DF5F5F52DF52D2DE2E2E2E2E2E2E2E2E2E2E2E2E2E2E2E2E2E2E2E2
310
E2E2E2E2E2E2E2E2E2E2E2E2E2E2E2E2E2E2E2E2E2E2E2E2E2E2E2E2E2E2E2E2E2E2E2E2E2E2E2E2E2E2E2E2E2E2E2E2E2E2E2E2E2E2E2E2E2E2E2E2E2E2E2E2E2E2E2E2E2E2E2E2E2E2E2E2E22DE2E2E2E2E2E2E2E2E2E2E2E2E2F5F5E2E2E2E2E2E2E2E2E2E2E2E2E2E2E2E2E22D2D2D2D2D2D2D2D2D2D2D2D2D2D2D2D2D
310
2D2D2D2D2D2D2D2D2D2D2D2D2D2D2D2D2D2D2D2D2D2D2D2D2D2D2D2D2D2D2D2D2D2D2D2D2D2D2D2D2D2D2D2D2D2D2D2D2D2D2D2D2D2D2D2D2D2D2D2D2D2D2D2D2D2D2D2D2D2D2D2D2D2D2D2D2D2D2D2D2D2D2D2D2D2D2D2D2D2D2D2D2D2D2D2D2D2D2D2D2D2D2D2D2D2D2D2D2D2D2D2D2D2D2D2D2D2D2D2D2D2D2D2D2D2D2D
310
2D2D2D2DE2E2E2E2E2E2E2E2E2E2E2E2E2F5F5E2E2E2E2E2E2E2E2E2E2E2E2E2E2E2E2E22DE2E2E2E2E2E2E2E2E2E2E2E2E2E2E2E2E2E2E2E2E2E2E2E2E2E2E2E2E2E2E2E2E2E2E2E2E2E2E2E2E2E2E2E2E2E2E2E2E2E2E2E2E2E2E2E2E2E2E2E2E2E2E2E2E2E2E2E2E2E2E2E2E22DE2E2E2E2E2E2E2E2E2E2E2E2E2E2E2E2
310
E2E2E2E2E2E2E2E2E2E2E2E2E2E2E2E2E2E2E2E2E2E2E2E2E2E2E2E2E2E2E2E2E2E2E2E2E2E2E2E2E2E2E2E2E2E2E2E2E2E2E2E2E2E2E2E22DE2E2E2E2E2E2E2E2E2E2E2E2E2F5F5E2E2E2E2E2E2E2E2E2E2E2E2E2E2E2E2E22DE2E2E2E2E2E2E2E2E2E2E2E2E2E2E2E2E2E2E2E2E2E2E2E2E2E2E2E2E2E2E2E2E2E2E2E2E2
310
E2E2E2E2E2E2E2E2E2E2E2E2E2E2E2E2E2E2E2E2E2E2E2E2E2E2E2E2E2E2E2E2E2E2E2E22DE2E2E2E2E2E2E2E2E2E2E2E2E2E2E2E2E2E2E2E2E2E2E2E2E2E2E2E2E2E2E2E2E2E2E2E2E2E2E2E2E2E2E2E2E2E2E2E2E2E2E2E2E2E2E2E2E2E2E2E2E2E2E2E2E2E2E2E2E2E2E2E22DE2E2E2E2E2E2E2E2E2E2E2E2E2F5F5E2E2
310
E2E2E2E2E2E2E2E2E2E2E2E2E2E2E22DE2E2E2E2E2E2E2E2E2E2E2E2E2E2E2E2E2E2E2E2E2E2E2E2E2E2E2E2E2E2E2E2E2E2E2E2E2E2E2E2E2E2E2E2E2E2E2E2E2E2E2E2E2E2E2E2E2E2E2E2E2E2E2E2E2E2E2E2E2E2E2E2E22DE2E2E2E2E2E2E2E2E2E2E2E2E2E2E2E2E2E2E2E2E2E2E2E2E2E2E2E2E2E2E2E2E2E2E2E2E2
310
E2E2E2E2E2E2E2E2E2E2E2E2E2E2E2E2E2E2E2E2E2E2E2E2E2E2E2E2E2E2E2E2E2E2E22DE2E2E2E2E2E2E2E2E2E2E2E2E2F5F5E2E2E2E2E2E2E2E2E2E2E2E2E2E2E2E2E22DE2E2E2E2E2E2E2E2E2E2E2E2E2E2E2E2E2E2E2E2E2E2E2E2E2E2E2E2E2E2E2E2E2E2E2E2E2E2E2E2E2E2E2E2E2E2E2E2E2E2E2E2E2E2E2E2E2E2
310
E2E2E2E2E2E2E2E2E2E2E2E2E2E2E22DE2E2E2E2E2E2E2E2E2E2E2E2E2E2E2E2E2E2E2E2E2E2E2E2E2E2E2E2E2E2E2E2E2E2E2E2E2E2E2E2E2E2E2E2E2E2E2E2E2E2E2E2E2E2E2E2E2E2E2E2E2E2E2E2E2E2E2E2E2E2E2E22DE2E2E2E2E2E2E2E2E2E2E2E2E2F5F5E2E2E2E2E2E2E2E2E2E2E2E2E2E2E2E2E22DE2E2E2E2E2
310
E2E2E2E2E2E2E2E2E2E2E2E2E2E2E2E2E2E2E2E2E2E2E2E2E2E2E2E2E2E2E2E2E2E2E2E2E2E2E2E2E2E2E2E2E2E2E2E2E2E2E2E2E2E2E2E2E2E2E2E2E2E2E2E2E2E2E2E22DE2E2E2E2E2E2E2E2E2E2E2E2E2E2E2E2E2E2E2E2E2E2E2E2E2E2E2E2E2E2E2E2E2E2E2E2E2E2E2E2E2E2E2E2E2E2E2E2E2E2E2E2E2E2E2E2E2E2
310
E2E2E2E2E2E2E2E2E2E2E2E2E2E22DE2E2E2E2E2E2E2E2E2E2E2E2E2F5F5E2E2E2E2E2E2E2E2E2E2E2E2E2E2E2E2E22DE2E2E2E2E2E2E2E2E2E2E2E2E2E2E2E2E2E2E2E2E2E2E2E2E2E2E2E2E2E2E2E2E2E2E2E2E2E2E2E2E2E2E2E2E2E2E2E2E2E2E2E2E2E2E2E2E2E2E2E2E2E2E2E2E2E2E2E2E2E2E2E2E22DE2E2E2E2E2
310
E2E2E2E2E2E2E2E2E2E2E2E2E2E2E2E2E2E2E2E2E2E2E2E2E2E2E2E2E2E2E2E2E2E2E2E2E2E2E2E2E2E2E2E2E2E2E2E2E2E2E2E2E2E2E2E2E2E2E2E2E2E2E2E2E2E2E22DE2E2E2E2E2E2E2E2E2E2E2E2E2F5F5E2E2E2F5E2E2E2E2E2E2E2E2E2E2E2E2E22DE2E2E2E2E2E2E2E2E2E2E2E2E2E2E2E2E2E2E2E2E2E2E2E2E2E2
310
E2E2E2E2E2E2E2E2E2E2E2E2E2E2E2E2E2E2E2E2E2E2E2E2E2E2E2E2E2E2E2E2E2E2E2E2E2E2E2E2E2E2E2E2E2E2E22DE2E2E2E2E2E2E2E2E2E2E2E2E2E2E2E2E2E2E2E2E2E2E2E2E2E2E2E2E2E2E2E2E2E2E2E2E2E2E2E2E2E2E2E2E2E2E2E2E2E2E2E2E2E2E2E2E2E2E2E2E2E2E2E2E2E2E2E2E2E2E2E22DE2E2E2E2E2E2
310
E2E2E2F5E2E2E2F5F5E2E2E2F5E2E2E2E2E2E2E2E2E2E2E2E2E22DE2E2E2E2E2E2E2E2E2E2E2E2E2E2E2E2E2E2E2E2E2E2E2E2E2E2E2E2E2E2E2E2E2E2E2E2E2E2E2E2E2E2E2E2E2E2E2E2E2E2E2E2E2E2E2E2E2E2E2E2E2E2E2E2E2E2E2E2E2E2E2E2E22DE2E2E2E2E2E2E2E2E2E2E2E2E2E2E2E2E2E2E2E2E2E2E2E2E2E2
310
E2E2E2E2E2E2E2E2E2E2E2E2E2E2E2E2E2E2E2E2E2E2E2E2E2E2E2E2E2E2E2E2E2E2E2E2E2E2E2E2E2E2E2E2E2E22DE2E2E2E2E2E2E2E2E2F5E2E2E2F5F5E2E2E2F5E2E2E2E2E2E2E2E2E2E2E2E2E22DE2E2E2E2E2E2E2E2E2E2E2E2E2E2E2E2E2E2E2E2E2E2E2E2E2E2E2E2E2E2E2E2E2E2E2E2E2E2E2E2E2E2E2E2E2E2E2
310
E2E2E2E2E2E2E2E2E2E2E2E2E2E2E2E2E2E2E2E2E2E2E2E2E2E22DE2E2E2E2E2E2E2E2E2E2E2E2E2E2E2E2E2E2E2E2E2E2E2E2E2E2E2E2E2E2E2E2E2E2E2E2E2E2E2E2E2E2E2E2E2E2E2E2E2E2E2E2E2E2E2E2E2E2E2E2E2E2E2E2E2E2E2E2E2E2E2E22DE2E2E2E2E2E2E2E2E2F5E2E2E2F5F5E2E2E2F5E2E2E2E2E2E2E2E2
310
E2E2E2E2E22DE2E2E2E2E2E2E2E2E2E2E2E2E2E2E2E2E2E2E2E2E2E2E2E2E2E2E2E2E2E2E2E2E2E2E2E2E2E2E2E2E2E2E2E2E2E2E2E2E2E2E2E2E2E2E2E2E2E2E2E2E2E2E2E2E2E2E2E2E2E2E2E2E22DE2E2E2E2E2E2E2E2E2E2E2E2E2E2E2E2E2E2E2E2E2E2E2E2E2E2E2E2E2E2E2E2E2E2E2E2E2E2E2E2E2E2E2E2E2E2E2
310
E2E2E2E2E2E2E2E2E2E2E2E2E2E2E2E2E2E2E2E2E2E2E2E2E22DE2E2E2E2E2E2E2E2E2F5E2E2E2F5F5E2E2E2F5E2E2E2E2E2E2E2E2E2E2E2E2E22DE2E2E2E2E2E2E2E2E2E2E2E2E2E2E2E2E2E2E2E2E2E2E2E2E2E2E2E2E2E2E2E2E2E2E2E2E2E2E2E2E2E2E2E2E2E2E2E2E2E2E2E2E2E2E2E2E2E2E2E2E2E2E2E2E2E2E2E2
310
E2E2E2E2E22DE2E2E2E2E2E2E2E2E2E2E2E2E2E2E2E2E2E2E2E2E2E2E2E2E2E2E2E2E2E2E2E2E2E2E2E2E2E2E2E2E2E2E2E2E2E2E2E2E2E2E2E2E2E2E2E2E2E2E2E2E2E2E2E2E2E2E2E2E2E2E2E22DE2E2E2E2E2E2E2E2E2F5E2E2E2F5F5E2E2E2F5E2E2E2E2E2E2E2E2E2E2E2E2E22DE2E2E2E2E2E2E2E2E2E2E2E2E2E2E2
310
E2E2E2E2E2E2E2E2E2E2E2E2E2E2E2E2E2E2E2E2E2E2E2E2E2E2E2E2E2E2E2E2E2E2E2E2E2E2E2E2E2E2E2E2E2E2E2E2E2E2E2E2E2E2E2E2E2E22DE2E2E2E2E2E2E2E2E2E2E2E2E2E2E2E2E2E2E2E2E2E2E2E2E2E2E2E2E2E2E2E2E2E2E2E2E2E2E2E2E2E2E2E2E2E2E2E2E2E2E2E2E2E2E2E2E2E2E2E2E2E2E2E2E2E2E2E2
310
E2E2E2E22DE2E2E2E2E2E2E2E2E2F5E2E2E2F5F5E2E2E2F5E2E2E2E2E2E2E2E2E2E2E2E2E22DE2E2E2E2E2E2E2E2E2E2E2E2E2E2E2E2E2E2E2E2E2E2E2E2E2E2E2E2E2E2E2E2E2E2E2E2E2E2E2E2E2E2E2E2E2E2E2E2E2E2E2E2E2E2E2E2E2E2E2E2E2E2E2E2E2E2E2E2E2E2E2E2E22DE2E2E2E2E2E2E2E2E2E2E2E2E2E2E2
310
E2E2E2E2E2E2E2E2E2E2E2E2E2E2E2E2E2E2E2E2E2E2E2E2E2E2E2E2E2E2E2E2E2E2E2E2E2E2E2E2E2E2E2E2E2E2E2E2E2E2E2E2E2E2E2E2E22DE2E2E2E2E2E2E2E2E2F5E2E2E2F5F5E2E2E2F5E2E2E2E2E2E2E2E2E2E2E2E2E22DE2E2E2E2E2E2E2E2E2E2E2E2E2E2E2E2E2E2E2E2E2E2E2E2E2E2E2E2E2E2E2E2E2E2E2E2
310
E2E2E2E2E2E2E2E2E2E2E2E2E2E2E2E2E2E2E2E2E2E2E2E2E2E2E2E2E2E2E2E2E2E2E2E2E22DE2E2E2E2E2E2E2E2E2E2E2E2E2E2E2E2E2E2E2E2E2E2E2E2E2E2E2E2E2E2E2E2E2E2E2E2E2E2E2E2E2E2E2E2E2E2E2E2E2E2E2E2E2E2E2E2E2E2E2E2E2E2E2E2E2E2E2E2E2E2E2E22DE2E2E2E2E2E2E2E2E2F5E2E2E2F5F5E2
310
E2E2F5E2E2E2E2E2E2E2E2E2E2E2E2E22DE2E2E2E2E2E2E2E2E2E2E2E2E2E2E2E2E2E2E2E2E2E2E2E2E2E2E2E2E2E2E2E2E2E2E2E2E2E2E2E2E2E2E2E2E2E2E2E2E2E2E2E2E2E2E2E2E2E2E2E2E2E2E2E2E2E2E2E2E2E2E2E2E22DE2E2E2E2E2E2E2E2E2E2E2E2E2E2E2E2E2E2E2E2E2E2E2E2E2E2E2E2E2E2E2E2E2E2E2E2
310
E2E2E2E2E2E2E2E2E2E2E2E2E2E2E2E2E2E2E2E2E2E2E2E2E2E2E2E2E2E2E2E2E2E2E2E22DE2E2E2E2E2E2E2E2E2F5E2E2E2F5F5E2E2E2F5E2E2E2E2E2E2E2E2E2E2E2E2E22DE2E2E2E2E2E2E2E2E2E2E2E2E2E2E2E2E2E2E2E2E2E2E2E2E2E2E2E2E2E2E2E2E2E2E2E2E2E2E2E2E2E2E2E2E2E2E2E2E2E2E2E2E2E2E2E2E2
310
E2E2E2E2E2E2E2E2E2E2E2E2E2E2E2E22DE2E2E2E2E2E2E2E2E2E2E2E2E2E2E2E2E2E2E2E2E2E2E2E2E2E2E2E2E2E2E2E2E2E2E2E2E2E2E2E2E2E2E2E2E2E2E2E2E2E2E2E2E2E2E2E2E2E2E2E2E2E2E2E2E2E2E2E2E2E2E2E22DE2E2E2E2E2E2E2E2E2F5E2E2E2F5F5E2E2E2F5E2E2E2E2E2E2E2E2E2E2E2E2E22DE2E2E2E2
310
E2E2E2E2E2E2E2E2E2E2E2E2E2E2E2E2E2E2E2E2E2E2E2E2E2E2E2E2E2E2E2E2E2E2E2E2E2E2E2E2E2E2E2E2E2E2E2E2E2E2E2E2E2E2E2E2E2E2E2E2E2E2E2E2E2E2E2E2E22DE2E2E2E2E2E2E2E2E2E2E2E2E2E2E2E2E2E2E2E2E2E2E2E2E2E2E2E2E2E2E2E2E2E2E2E2E2E2E2E2E2E2E2E2E2E2E2E2E2E2E2E2E2E2E2E2E2
310
E2E2E2E2E2E2E2E2E2E2E2E2E2E2E22DE2E2E2E2E2E2E2E2E2F5E2E2E2F5F5E2E2E2F5E2E2E2E2E2E2E2E2E2E2E2E2E22DE2E2E2E2E2E2E2E2E2E2E2E2E2E2E2E2E2E2E2E2E2E2E2E2E2E2E2E2E2E2E2E2E2E2E2E2E2E2E2E2E2E2E2E2E2E2E2E2E2E2E2E2E2E2E2E2E2E2E2E2E2E2E2E2E2E2E2E2E2E2E2E2E22DE2E2E2E2
310
E2E2E2E2E2E2E2E2E2E2E2E2E2E2E2E2E2E2E2E2E2E2E2E2E2E2E2E2E2E2E2E2E2E2E2E2E2E2E2E2E2E2E2E2E2E2E2E2E2E2E2E2E2E2E2E2E2E2E2E2E2E2E2E2E2E2E2E22DE2E2E2E2E2E2E2E2E2F5E2E2E2F5F5E2E2E2F5E2E2E2E2E2E2E2E2E2E2E2E2E22DE2E2E2E2E2E2E2E2E2E2E2E2E2E2E2E2E2E2E2E2E2E2E2E2E2
310
E2E2E2E2E2E2E2E2E2E2E2E2E2E2E2E2E2E2E2E2E2E2E2E2E2E2E2E2E2E2E2E2E2E2E2E2E2E2E2E2E2E2E2E2E2E2E2E22DE2E2E2E2E2E2E2E2E2E2E2E2E2E2E2E2E2E2E2E2E2E2E2E2E2E2E2E2E2E2E2E2E2E2E2E2E2E2E2E2E2E2E2E2E2E2E2E2E2E2E2E2E2E2E2E2E2E2E2E2E2E2E2E2E2E2E2E2E2E2E2E22DE2E2E2E2E2
310
E2E2E2E2F5E2E2E2F5F5E2E2E2F5E2E2E2E2E2E2E2E2E2E2E2E2E22DE2E2E2E2E2E2E2E2E2E2E2E2E2E2E2E2E2E2E2E2E2E2E2E2E2E2E2E2E2E2E2E2E2E2E2E2E2E2E2E2E2E2E2E2E2E2E2E2E2E2E2E2E2E2E2E2E2E2E2E2E2E2E2E2E2E2E2E2E2E2E2E2E22DE2E2E2E2E2E2E2E2E2E2E2E2E2E2E2E2E2E2E2E2E2E2E2E2E2
310
E2E2E2E2E2E2E2E2E2E2E2E2E2E2E2E2E2E2E2E2E2E2E2E2E2E2E2E2E2E2E2E2E2E2E2E2E2E2E2E2E2E2E2E2E2E2E22DE2E2E2E2E2E2E2E2E2F5E2E2E2F5F5E2E2E2F5E2E2E2E2E2E2E2E2E2E2E2E2E22DE2E2E2E2E2E2E2E2E2E2E2E2E2E2E2E2E2E2E2E2E2E2E2E2E2E2E2E2E2E2E2E2E2E2E2E2E2E2E2E2E2E2E2E2E2E2
310
E2E2E2E2E2E2E2E2E2E2E2E2E2E2E2E2E2E2E2E2E2E2E2E2E2E2E22DE2E2E2E2E2E2E2E2E2E2E2E2E2E2E2E2E2E2E2E2E2E2E2E2E2E2E2E2E2E2E2E2E2E2E2E2E2E2E2E2E2E2E2E2E2E2E2E2E2E2E2E2E2E2E2E2E2E2E2E2E2E2E2E2E2E2E2E2E2E2E2E22DE2E2E2E2E2E2E2E2E2F5E2E2E2F5F5E2E2E2F5E2E2E2E2E2E2E2
310
E2E2E2E2E2E22DE2E2E2E2E2E2E2E2E2E2E2E2E2E2E2E2E2E2E2E2E2E2E2E2E2E2E2E2E2E2E2E2E2E2E2E2E2E2E2E2E2E2E2E2E2E2E2E2E2E2E2E2E2E2E2E2E2E2E2E2E2E2E2E2E2E2E2E2E2E2E2E2E22DE2E2E2E2E2E2E2E2E2E2E2E2E2E2E2E2E2E2E2E2E2E2E2E2E2E2E2E2E2E2E2E2E2E2E2E2E2E2E2E2E2E2E2E2E2E2
310
E2E2E2E2E2E2E2E2E2E2E2E2E2E2E2E2E2E2E2E2E2E2E2E2E2E22DE2E2E2E2E2E2E2E2E2F5E2E2E2F5F5E2E2E2F5E2E2E2E2E2E2E2E2E2E2E2E2E22DE2E2E2E2E2E2E2E2E2E2E2E2E2E2E2E2E2E2E2E2E2E2E2E2E2E2E2E2E2E2E2E2E2E2E2E2E2E2E2E2E2E2E2E2E2E2E2E2E2E2E2E2E2E2E2E2E2E2E2E2E2E2E2E2E2E2E2
310
E2E2E2E2E2E22DE2E2E2E2E2E2E2E2E2E2E2E2E2E2E2E2E2E2E2E2E2E2E2E2E2E2E2E2E2E2E2E2E2E2E2E2E2E2E2E2E2E2E2E2E2E2E2E2E2E2E2E2E2E2E2E2E2E2E2E2E2E2E2E2E2E2E2E2E2E2E2E22DE2E2E2E2E2E2E2E2E2F5E2E2E2F5F5E2E2E2E2E2E2E2E2E2E2E2E2E2E2E2E2E22DE2E2E2E2E2E2E2E2E2E20FE20FE2
310
E2E2E2E2E2E20F0FE2E2E2E2E2E2E2E2E2E2E2E2E2E2E2E2E2E2E2E2E2E2E2E2E2E2E2E2E2E2E2E2E2E2E2E2E2E2E2E2E2E2E2E2E2E2E2E2E2E2E22DE2E2E2E2E2E2E2E2E2E2E20F0F0F0F0F0F0F0F0F0F0F0F0F0F0FE2E2E2E2E2E2E2E2E2E2E2E2E2E2E2E2E2E2E2E2E2E2E2E2E2E2E2E2E2E2E2E2E2E2E2E2E2E2E2E2E2
310
E2E2E2E2E22DE2E2E2E2E2E2E2E2E2E2E2E2E2F5F5E2E2E2E2E2E2E2E2E2E2E2E2E2E2E2E2E22DE2E2E2E2E2E2E2E2E2E20F0F0F0F0F0F0F0F0F0F0F0FE2E2E2E2E2E2E2E2E2E2E2E2E2E2E2E2E2E2E2E2E2E2E2E2E2E2E2E2E2E2E2E2E2E2E2E2E2E2E2E2E2E2E2E2E2E2E2E2E2E2E22DE2E2E2E2E2E2E2E2E2E2E20FE2E2
310
E2E2E20F0F0FE2E2E2E2E20FE2E2E2E2E2E2E2E2E2E2E2E2E2E2E2E2E2E2E2E2E2E2E2E2E2E2E2E2E2E2E2E2E2E2E2E2E2E2E2E2E2E2E2E2E2E22DE2E2E2E2E2E2E2E2E2E2E2E2E2F5F5E2E2E2E2E2E2E2E2E2E2E2E2E2E2E2E2E22DE2E2E2E2E2E2E2E2E2E20FE2E2E20F0F0FE2E2E2E20FE2E2E2E2E2E2E2E2E2E2E2E2E2
310
E2E2E2E2E2E2E2E2E2E2E2E2E2E2E2E2E2E2E2E2E2E2E2E2E2E2E2E2E2E2E2E2E2E2E2E2E2E22DE2E2E2E2E2E2E2E2E2E2E20FE2E2E2E2E20F0F0FE2E2E2E2E20FE2E2E2E2E2E2E2E2E2E2E2E2E2E2E2E2E2E2E2E2E2E2E2E2E2E2E2E2E2E2E2E2E2E2E2E2E2E2E2E2E2E2E2E2E2E22DE2E2E2E2E2E2E2E2E2E2E2E2E2F5F5
310
E2E2E2E2E2E2E2E2E2E2E2E2E2E2E2E2E22DE2E2E2E2E2E2E2E2E2E20FE2E2E2E2E2E2E2E2E2E20FE2E2E2E2E2E2E2E2E2E2E2E2E2E2E2E2E2E2E2E2E2E2E2E2E2E2E2E2E2E2E2E2E2E2E2E2E2E2E2E2E2E2E2E2E2E2E2E2E2E2E22DE2E2E2E2E2E2E2E2E2E2E20FE20F0F0F0F0F0F0F0F0F0F0FE20FE2E2E2E2E2E2E2E2E2
310
E2E2E2E2E2E2E2E2E2E2E2E2E2E20F0F0F0F0F0F0F0F0F0F0F0FE2E2E2E2E2E2E2E2E2E2E22DE2E2E2E2E2E2E2E2E2E2E2E2E2F5F5E2E2E2E2E2E2E2E2E2E2E2E2E2E2E2E2E22DE2E2E2E2E2E2E2E2E2E20F0F0F0F0F0F0F0F0F0F0F0FE2E2E2E2E2E2E2E2E2E2E2E2E2E2E2E2E2E2E2E2E2E2E20F0F0F0F0F0F0F0F0F0FE2
310
E2E2E2E2E2E2E2E2E2E2E2E2E2E2E2E2E22DE2E2E2E2E2E2E2E2E2E2E20FE20F0FE2E20F0F0FE2E20F0FE20FE2E2E2E2E2E2E2E2E2E2E2E2E2E2E2E2E2E2E2E2E2E2E20F0FE2E2E20F0FE2E2E20F0FE2E2E2E2E2E2E2E2E2E2E22DE2E2E2E2E2E2E2E2E2E2E2E2E2F5F5E2E2E2E2E2E2E2E2E2E2E2E2E2E2E2E2E22DE2E2E2
310
E2E2E2E2E2E2E20F0FE2E20F0F0F0FE2E20F0FE2E2E2E2E2E2E2E2E2E2E2E2E2E2E2E2E2E2E2E2E2E2E20FE2E2E20F0FE2E2E20FE2E2E2E2E2E2E2E2E2E2E2E2E2E2E2E2E2E22DE2E2E2E2E2E2E2E2E2E2E20FE20FE2E20F0F0F0FE2E2E20FE20FE2E2E2E2E2E2E2E2E2E2E2E2E2E2E2E2E2E2E2E2E2E2E20FE2E2E2E20F0F
310
E2E2E2E20FE2E2E2E2E2E2E2E2E2E2E22DE2E2E2E2E2E2E2E2E2E2E2E2E2F5F5E2E2E2E2E2E2E2E2E2E2E2E2E2E2E2E2E22DE2E2E2E2E2E2E2E2E2E20F0FE2E20F0F0F0FE2E20F0FE2E2E2E2E2E2E2E2E2E2E2E2E2E2E2E2E2E2E2E2E2E2E20FE2E2E20F0FE2E2E20FE2E2E2E2E2E2E2E2E2E2E2E2E2E2E2E2E2E22DE2E2E2
310
E2E2E2E2E2E2E2E20FE20FE2E2E2E2E2E2E2E2E20FE20FE2E2E2E2E2E2E2E2E2E2E2E2E2E2E2E2E2E2E2E2E2E2E20FE2E2E2E2E2E2E2E2E2E20FE2E2E2E2E2E2E2E2E2E2E22DE2E2E2E2E2E2E2E2E2E2E2E2E2F5F5E2E2E2E2E2E2E2E2E2E2E2E2E2E2E2E2E22DE2E2E2E2E2E2E2E2E2E20F0FE2E2E2E2E2E2E2E20F0FE2E2
310
E20FE2E2E2E2E2E2E2E2E2E2E2E2E2E2E2E2E2E2E20FE2E2E2E2E2E2E2E20FE2E2E2E2E2E2E2E2E2E2E2E2E2E2E2E2E2E22DE2E2E2E2E2E2E2E2E2E2E20FE20FE2E2E2E2BEE2E2E2E20FE20FE2E2E2E2E2E2E2E2E2E2E2E2E2E2E2E2E2E2E2E2E2E2E20FE2E2E2E2E2BEE2E2E2E20FE2E2E2E2E2E2E2E2E2E2E22DE2E2E2E2
310
E2E2E2E2E2E2E2E2E2F5F5E2E2E2E2E2E2E2E2E2E2E2E2E2E2E2E2E22DE2E2E2E2E2E2E2E2E2E20F0FE2E2E2E2BEE2E2E20F0FE2E2E20FE2E2E2E2E2E2E2E2E2E2E2E2E2E2E2E2E2E2E20FE2E2E2E2BEE2E2E20FE2E2E2E2E2E2E2E2E2E2E2E2E2E2E2E2E2E22DE2E2E2E2E20F0F0F0F0F0F0F0F0FF5F5F5F5BEF5F5F5F50F
310
0F0F0F0F0F0F0F0F0F0F0F0F0FE2E2E2E2E2E2E2E2E2E2E2E20FF5F5F5F5F5F5F5F5F5F50F0F0F0F0F0FE2E2E2E2E2E22DE2E2E2E2E2E2E2E2E2E2E2E2E2F5F5E2E2E2E2E2E2E2E2E2E2E2E2E2E2E2E2E22DE2E2E2E2E2E20F0F0F0F0F0FF5F5F5F5F5F5F5F50FF50F0F0F0F0F0F0F0F0F0F0FE2E2E2E2E2E2E2E2E2E2E2E2
310
0FF5282828282828F50F0F0F0F0FE2E2E2E2E2E2E2E2E2E2E2E2E2E22DE2E2E2E2E20F0FE2E2E2E2F5E20FE2F5E2E2BEE2E2F5E20FE2F5E2E20F0FE2E20FE2E20FE2E2E2E2E2E2E2E2E2E2E2E2E2F5E22828282828282828E2F5E2E2E20F0FE2E2E2E2E2E22DE2E2E2E2E2E2E2E2E2E2E2E2E2F5F5E2E2E2F5E2E2E2E2E2E2
310
E2E2E2E2E2E2E22DE2E2E2E2E2E20F0FE2E2F50FE2F5E2E2BEE2F5E20FF5E2E20F0FE2E20F0FE2E20FE2E2E2E2E2E2E2E2E2E2E2E2F5E228E2E2BEE22828F5E2E20FE2E2E2E2E2E2E2E2E2E2E2E2E2E2E22DE2E2E2E2E2E20FE2E2E2E2F5E20FE2F5E2E2BEE2E2F5E20FE2F5E20F0FE2E2E20FE2E20FE2E2E2E2E2E2E2E2E2
310
E2E2E2E2F5E228E2E2E2BEE2E228E2F5E2E2E2E20FE2E2E2E2E2E22DE2E2E2E2E2E2E2E2E2F5E2E2E2F5F5E2E2E2F5E2E2E2E2E2E2E2E2E2E2E2E2E22DE2E2E2E2E2E2E20FE2E2F50FE2F5E2E2BEE2F5E20FF5E20F0F0FE2E20FE2E2E20FE2E2E2E2E2E2E2E2E2E2E2E2F5E228E2E2BEE22828F5E2E20FE2E2E2E2E2E2E2E2
310
E2E2E2E2E2E2E22DE2E2E2E2E2E20FE2E2E2E2F5E20FE2F5E2E2BEE2E2F5E20FE2F5E20F0F0FE2E20FE2E20FE2E2E2E2E2E2E2E2E2E2E2E2E2F5E228E2E2E2BEE2E228E2F5E2E2E2E20FE2E2E2E2E2E22DE2E2E2E2E2E2E2E2E2F5E2E2E2F5F5E2E2E2F5E2E2E2E2E2E2E2E2E2E2E2E2E22DE2E2E2E2E2E2E20FE2E2F50FF5
310
F5F5F5F5F5F5F50FF50F0F0F0FE2E20FE2E2E20FE2E2E2E2E2E2E2E2E2E2E2E2F5F5F5F5F5F5F5F5F5F5E2E20FE2E2E2E2E2E2E2E2E2E2E2E2E2E2E22DE2E2E2E2E2E20FE2E2E2E2F5F50FF5F5F5F5BEF5F5F5F50F0F0F0F0F0F0FE2E20FE2E20FE2E2E2E2E2E2E2E2E2E2E2E2E2F5F5F5F5F5F5F5F5F5F5F5F5E2E2E2E20F
310
E2E2E2E2E2E22DE2E2E2E2E2E2E2E2E2F5E2E2E2F5F5E2E2E2F5E2E2E2E2E2E2E2E2E2E2E2E2E22DE2E2E2E2E2E2E20FE2E2E2F5E2E2E2E2BEE2E2E2F5E2E2E2E20FE2E20FE2E2E20FE2E2E2E2E2E2E2E2E2E2E2E2F5E228E2E2BEE22828F5E2E20FE2E2E2E2E2E2E2E2E2E2E2E2E2E2E22DE2E2E2E2E2E20FE2E2E2E2E2E2
310
F5E2E2E2E2BEE2E2E2E2F5E2E2E2E2E2E2E2E20FE2E20FE2E2E2E2E2E2E2E2E2E2E2E2E2F5E228E2E2E2BEE2E228E2F5E2E2E2E20FE2E2E2E2E2E22DE2E2E2E2E2E2E2E2E2F5E2E2E2F5F5E2E2E2F5E2E2E2E2E2E2E2E2E2E2E2E2E22DE2E2E2E2E2E2E20FE2E2E2F5E2E2E2E2BEE2E2E2F5E2E2E2E20FE2E20FE2E2E20FE2
310
E2E2E2E2E2E2E2E2E2E2E2F5E20FE2E2BEE22828F50F0F0FE2E2E2E2E2E2E2E2E2E2E2E2E2E2E22DE2E2E2E2E2E20FE2E2E2E2E2E2F5E2E2E2E2BEE2E2E2E2F5E2E2E2E2E2E2E2E20FE2E20FE2E2E2E2E2E2E2E2E2E2E2E2E2F5E228E2E2E2BEE2E228E2F5E2E2E2E20FE2E2E2E2E2E22DE2E2E2E2E2E2E2E2E2F5E2E2E2F5
310
F5E2E2E2F5E2E2E2E2E2E2E2E2E2E2E2E2E22DE2E2E2E2E20F0F0FE2E2E2F5E2E2E2E2BEE2E2E2F5E2E2E2E20FE2E20FE2E2E20FE2E2E2E2E2E2E2E2E2E2E2E2F50F28E2E2BEE22828F50F0F0FE2E2E2E2E2E2E2E2E2E2E2E2E2E2E22DE2E2E2E2E20F0FE2E2E2E2E2E2F5E2E2E2E2BEE2E2E2E2F5E2E2E2E2E2E2E2E20FE2
310
E20FE2E2E2E2E2E2E2E2E2E2E2E2E2F5E228E2E2E2BEE2E228E2F5E2E20F0F0FE2E2E2E2E2E22DE2E2E2E2E2E2E2E2E2F5E2E2E2F5F5E2E2E2F5E2E2E2E2E2E2E2E2E2E2E2E2E22DE2E2E2E2E20F0F0FE2E2E2F5E2E2E2E2BEE2E2E2F5E2E2E2E2E2E2E20FE2E2E20FE2E2E2E2E2E2E2E2E2E2E2E20FE228E2E2BEE22828F5
310
0F0F0FE2E2E2E2E2E2E2E2E2E2E2E2E2E2E22DE2E2E2E20F0F0FE2E2E2E2E2E2F5E2E2E2E2BEE2E2E2E2F5E2E2E2E2E2E2E2E20FE2E20FE2E2E2E2E2E2E2E2E2E2E2E2E2F5E20FE2E2E2BEE2E228E2F5E2E20F0F0FE2E2E2E2E2E22DE2E2E2E2E2E2E2E2E2F5E2E2E2F5F5E2E2E2F5E2E2E2E2E2E2E2E2E2E2E2E2E22DE2E2
310
E2E2E20F0F0FE2E2E2F5E2E2E2E2BEE2E2E2F5E2E2E2E2E2E2E20FE2E2E20FE2E2E2E2E2E2E2E2E2E2E2E20FE228E2E2BEE22828F5E2E20FE2E2E2E2E2E2E2E2E2E2E2E2E2E2E22DE2E2E2E20F0F0FE2E2E2E2E2E2F5E2E2E2E2BEE2E2E2E2F5E2E2E2E2E2E2E2E20FE2E20FE2E2E2E2E2E2E2E2E2E2E2E2E2F50F28E2E2E2
310
BEE2E228E2F5E2E2E2E20FE2E2E2E2E2E22DE2E2E2E2E2E2E2E2E2F5E2E2E2F5F5E2E2E2F5E2E2E2E2E2E2E2E2E2E2E2E2E22DE2E2E2E2E2E2E20FE2E2E2F5E2E2E2E2BEE2E2E2F5E2E2E2E2E2E2E20FE2E2E20FE2E2E2E2E2E2E2E2E2E2E20FF5E228E2E2BEE22828F5E2E20FE2E2E2E2E2E2E2E2E2E2E2E2E2E2E22DE2E2
310
E2E20F0F0FE2E2E2E2E2E2F5E2E2E2E2BEE2E2E2E2F5E2E2E2E2E2E2E2E20FE2E20FE2E2E2E2E2E2E2E2E2E2E2E2E20FE228E2E2E2BEE2E228E2F5E2E2E2E20FE2E2E2E2E2E22DE2E2E2E2E2E2E2E2E2F5E2E2E2F5F5E2E2E2F5E2E2E2E2E2E2E2E2E2E2E2E2E22DE2E2E2E2E2E2E20FE2E2E2F5E2E2E2E2BEE2E2E2F5E2E2
310
E2E2E2E2E20FE2E2E20FE2E2E2E2E2E2E2E2E2E2E20FF5E228E2E2BEE22828F5E2E20FE2E2E2E2E2E2E2E2E2E2E2E2E2E2E22DE2E2E2E2E2E20FE2E2E2E2E2E2F5E2E2E2E2BEE2E2E2E2F5E2E2E2E2E2E2E2E20FE2E20FE2E2E2E2E2E2E2E2E2E2E2E2E20FE228E2E2E2BEE2E228E2F5E2E2E2E20FE2E2E2E2E2E22DE2E2E2
310
E2E2E2E2E2E2F5E2E2E2F5F5E2E2E2F5E2E2E2E2E2E2E2E2E2E2E2E2E22DE2E2E2E2E2E2E20FE2E2E2F5E2E2E2E2BEE2E2E2F5E2E2E2E2E2E20F0FE2E2E20FE2E20F0F0F0F0F0F0F0F0FE2F5E22828282828280F0F0F0F0F0FE2E2E2E2E2E2E2E2E2E2E2E2E2E22DE2E2E2E2E2E20FE2E2E2E2E2E2F5E2E2E2E2BEE2E2E2E2
310
F5E2E2E2E2E2E2E2E20FE2E20FE2E2E2E2E20F0F0F0F0F0F0F0FF5E228E2E2E2BEE2E228E2F5E2E2E2E20FE2E2E2E2E2E22DE2E2E2E2E2E2E2E2E2F5E2E2E2F5F5E2E2E2F5E2E2E2E2E2E2E2E2E2E2E2E2E22DE2E2E2E2E2E2E20FE2E2E2F5E2E2E2E2BEE2E2E2F5E2E2E2E2E2E20F0FE2E2E20FE2E2E20F0F0F0F0F0F0FE2
310
E2F5E228E2E2BEE228E2F5E2E2E2E2E2E2E2E2E2E2E2E2E2E2E2E2E2E22DE2E2E2E2E2E20FE2E2E2E2E2E2F5E2E2E2E2BEE2E2E2E2F5E2E2E2E2E2E2E2E20FE2E20FE2E2E2E2E20F0F0F0F0F0F0FE2F5E228E2E2E2BEE2E228E2F5E2E2E2E20FE2E2E2E2E2E22DE2E2E2E2E2E2E2E2E2F5E2E2E2F5F5E2E2E2F5E2E2E2E2E2
310
E2E2E2E2E2E2E2E22DE2E2E2E2E2E20F0FE2E2F5F5E2E2E2E2BEE2E2E2F5E2E2E2E2E2E20F0FE2E2E20FE2E2E2E2E2E2E2E2E2E2E2E2F5E2282828282828E2F5E2E2E2E2E2E2E2E2E2E2E2E2E2E2E2E2E2E22DE2E2E2E2E2E20FE2E2E2E2E2E2F5E2E2E2E2BEE2E2E2E2F5E2E2E2E2E2E20FE20FE2E20FE2E2E2E2E20F0F0F
310
0F0F0F0FE2F5E228E2E2E2BEE2E228E2F5E2E2E20F0FE2E2E2E2E2E22DE2E2E2E2E2E2E2E2E2F5E2E2E2F5F5E2E2E2F5E2E2E2E2E2E2E2E2E2E2E2E2E22DE2E2E2E2E2E20F0F0F0FBEF5BEBEE2E2BEE2E2E2F5E2E2E2E2E2E2E20FE2E2E20FE2E2E2E2E2E2E2E2E2E2E2E2F5E2BEBE282828BEE2F5E2E2E2E2E2E2E2E2E2E2
310
E2E2E2E2E2E2E2E22DE2E2E2E2E2E20FE2E2E2E2E2E2F5E2E2E2E2BEE2E2E2E2F5E2E2E2E2E2E20F0F0FE2E20FE2E2E2E2E2E2E2E2E2E2E2E2E2F5E2282828282828280F0F0F0F0F0F0F0FE2E2E2E2E2E22DE2E2E2E2E2E2E2E2E2F5E2E2E2F5F5E2E2E2F5E2E2E2E2E2E2E2E2E2E2E2E2E22DE2E2E2E2E2E2E2E2E2F5F5F5
310
E2E2F5F5F5F5E2E2F5E2E2E2E2E2E2E20FE20F0F0FE2E2E2E2E2E2E2E2E2E2E2E2F5E2E2E2282828E2E2F5E2E2E2E2E2E2E2E2E2E2E2E2E2E2E2E2E2E22DE2E2E2E2E20F0FE2E2E2E2E2E2F5E2E2E2E2BEE2E2E2E2F5E2E2E2E2E2E20F0F0FE2E20FE2E2E2E2E2E2E2E2E2E2E2E2E2F5E228E2E2E2BEE2E228E2F5E2E2E2E2
310
E2E2E2E2E2E2E22DE2E2E2E2E2E2E2E2E2F5E2E2E2F5F5E2E2E2F5E2E2E2E2E2E2E2E2E2E2E2E2E22DE2E2E2E2E2E2E2E2E2E2E2F5E2F5F5E2BEF5F5E2F5E2E2E2E2E2E2E20FE20F0F0FE2E2E2E2E2E2E2E2E2E2E2E2E2F5E2E22828E2E2E2F5E2E2E2E2E2E2E2E2E2E2E2E2E2E2E2E2E2E22DE2E2E2E2E2E20FE2E2E2E2F5
310
F5F5E2E2E2E2BEE2E2E2E2F5E2E2E2E2E2E2E2E20FE2E20FE2E2E2E2E2E2E2E2E2E2E2E2E2F5E22828282828282828E2F5E2E2E2E2E2E2E2E2E2E2E22DE2E2E2E2E2E2E2E2E2F5E2E2E2F5F5E2E2E2F5E2E2E2E2E2E2E2E2E2E2E2E2E22DE2E2E2E2E2E2E2E2E2E2E2F5F5F5F5F5F5F5F5F5F5E2E2E2E2E2E2E20FE2E20F0F
310
E2E2E2E2E2E2E2E2E2E2E2E2E2E2F5F5F5F5F5F5F5E2E2E2E2E2E2E2E2E2E2E2E2E2E2E2E2E2E2E22DE2E2E2E2E20F0F0F0F0F0FF5F5F5BEE2E2E2BEE2E2E2E2F5E2E2E2E2E2E2E2E20FE2E20FE2E2E2E2E2E2E2E2E2E2E2E2E2F5E2E2BE28282828BEE2E2F5E2E2E2E2E2E2E2E2E2E2E22DE2E2E2E2E2E2E2E2E2F5E2E2E2
310
F5F5E2E2E2F5E2E2E2E2E2E2E2E2E2E2E2E2E22DE2E2E2E2E2E2E2E2E2E2E2F5F5E2E2E2BEE2E2F5F5E2E2E2E2E2E2E20FE2E2E20FE2E2E2E2E2E2E2E2E2E2E2E2E2E2F5E22828E2E2F5E2E2E2E2E2E2E2E2E2E2E2E2E2E2E2E2E2E2E22DE2E2E2E2E2E2E2E2E2E2E2E2F5F5E2E2E2E2BEE2E2E2E2F5E2E2E2E2E2E2E2E20F
310
0F0F0FE2E2E2E2E2E2E2E2E2E2E2E2E2F5E2E2E2E22828E2E2E2E2F5E2E2E2E2E2E2E2E2E2E2E22DE2E2E2E2E2E2E2E2E2F5E2E2E2F5F5E2E2E2E2E2E2E2E2E2E2E2E2E2E2E2E2E22DE2E2E2E2E2E2E2E2E2E2F5F5F5E2E2E2BEE2E2F5F5F5E2E2E2E2E2E20FE2E2E20FE2E2E2E2E2E2E2E2E2E2E2E2E2E2F5E22828E2E2F5
310
E2E2E2E2E2E2E2E2E2E2E2E2E2E2E2E2E2E2E22DE2E2E2E2E2E2E2E2E2E2E2E2E2F5E2E2F5F5BEF5F5E2E2F5E2E2E2E2E2E2E2E20F0F0F0FE2E2E2E2E2E2E2E2E2E2E2E2E2F5E2E2E2E22828E2E2E2E2F5E2E2E2E2E2E2E2E2E2E2E22DE2E2E2E2E2E2E2E2E2E2E2E2E2F5F5E2E2E2E2E2E2E2E2E2E2E2E2E2E2E2E2E22DE2
310
E2E2E2E2E2E2E2E2E2F5F5E2F5F5F5F5F5F5E2E2F5E2E2E2E2E2E20FE2E2E20FE2E2E2E2E2E2E2E2E2E2E2E2E2F5F5F5F5F5F5F5F5E2E2E2E2E2E2E2E2E2E2E2E2E2E2E2E2E2E2E22DE2E2E2E2E2E2E2E2E2E2E2E2E2F5E2F5E2E2BEE2E2F5E2F5E2E2E2E2E2E2E2E20FE2E20FE2E2E2E2E2E2E2E2E2E2E2E2E2E2F5E2E2E2
310
2828E2E2E2F5E2E2E2E2E2E2E2E2E2E2E2E22DE2E2E2E2E2E2E2E2E2E2E2E2E2F5F5E2E2E2E2E2E2E2E2E2E2E2E2E2E2E2E2E22DE2E2E2E2E2E2E2E2E2F5F5E2F5F5F5F5F5F5F5F5E2F5F5E2E2E2E2E20FE2E2E20FE2E2E2E2E2E2E2E2E20F0F0F0F0FF52828282828F50F0F0F0F0F0FE2E2E2E2E2E2E2E2E2E2E2E2E22DE2
310
E2E2E2E2E2E2E2E2E2E2E2E2F5F5F5F5F5BEF5F5F5F5F5E2E2E2E2E2E2E2E20FE2E20FE2E2E2E2E2E2E2E2E2E2E2E2E2E2E2F5F5F5F5F5F5F5F5E2E2E2E2E2E2E2E2E2E2E2E2E22DE2E2E2E2E2E2E2E2E2E2E2E2E2F5F5E2E2E2E2E2E2E2E2E2E2E2E2E2E2E2E2E22DE2E2E2E2E2E2E2E2E2F5E2F5F5F5F5E2BEF5F5F5F5E2
310
F5F5E2E2E2E20FE2E2E20FE2E2E2E2E2E2E2E2E20F0FE2E2F5F5E2E2E2E2E2F5F5E2E20F0F0FE2E2E2E2E2E2E2E2E2E2E2E2E22DE2E2E2E2E2E2E2E2E2E2E2E2E2F5E2E2E2E2BEE2E2E2E2F5F5E2E2E2E2E2E2E20FE2E20FE2E2E2E2E2E2E2E2E2E2E2E2E2E2E2F5E2E22828E2E2F5E2E2E2E2E2E2E2E2E2E2E2E2E22DE2E2
310
E2E2E2E2E2E2E2E2E2E2E2F5F5E2E2E2E2E2E2E2E2E2E2E2E2E2E2E2E2E22DE2E2E2E2E2E2E2E2F5F5E2F5F5F5E2E2BEE2F5F5F5E2F5F5E2E2E2E20F0FE2E20FE2E2E2E2E2E2E2E20F0FE2E2E2F5F5E2E2E2E2E2F5F5E2E20F0F0FE2E2E2E2E2E2E2E2E2E2E2E2E22DE2E2E2E2E2E2E2E2E2E2E2E2F5F5E2E2E2F5BEF5E2E2
310
E2F5F5E2E2E2E2E2E2E20FE2E20FE2E2E2E2E2E2E2E2E2E2E2E2E2E2E2F5E2E22828E2E2F5E2E2E2E2E2E2E2E2E2E2E2E2E22DE2E2E2E2E2E2E2E2E2E2E2E2E2F5F5E2E2E2E2E2E2E2E2E2E2E2E2E2E2E2E2E22DE2E2E2E2E2E2E2E20FF5BEF5F5F5BEBEBEBEF5F5F5BEF50F0F0F0F0F0F0FE2E20FE2E2E2E2E2E2E2E20F0F
310
E2BEBEF5F5BEBEBEBEBEF5F5BEE20F0F0FE2E2E2E2E2E2E2E2E2E2E2E2E22DE2E2E2E2E2E2E2E2E2E2E2F5F5E2E2F5F5F5BEF5F5F5E2E2F5F5E2E2E2E2E2E20FE2E20FE2E2E2E2E2E2E2E2E2E2E2E2E2E2F5F5E2E22828E2E2F50F0F0F0F0F0F0FE2E2E2E2E2E22DE2E2E2E2E2E2E2E2E2E2E2E2E2F5F5E2E2E2E2E2E2E2E2
310
E2E2E2E2E2E2E2E2E22DE2E2E2E2E2E2E2E20FF5E2F5F5F5E2E2BEE2F5F5F5E2F50FE2E2E2E2E2E2E2E20FE2E2E2E2E2E2E2E20F0FE2E2E2F5F5E2E2E2E2E2F5F5E2E20F0F0FE2E2E2E2E2E2E2E2E2E2E2E2E22DE2E2E2E2E2E2E2E2E2E2E2F5F5E2F5F5F5F5BEF5F5F5F5E2F5F5E2E2E2E2E2E20FE2E20FE2E2E2E2E2E2E2
310
E2E2E20F0F0F0F0F2828282828282828F5E2E2E2E2E20FE2E2E2E2E2E22DE2E2E2E2E2E2E2E2E2E2E2E2E2F5F5E2E2E2E2E2E2E2E2E2E2E2E2E2E2E2E2E22DE2E2E2E2E2E2E2E20FF5E2F5F5F5E2E2BEE2F5F5F5E2F50FE2E2E2E2E2E2E2E20FE2E2E2E2E2E2E2E2E20F0FE2E2F5F5E2E2E2E2E2F5F5E2E20F0F0FE2E2E2E2
310
E2E2E2E2E2E2E2E2E22DE2E2E2E2E2E2E2E2E2E2F5F5E2F5F5F5F5E2BEE2F5F5F5F5E2F5F5E2E2E2E2E20FE2E20FE2E2E2E2E2E2E2E2E2E20F0FE2E2F5F5F5F5F5F5F5F5F5F5E2E2E20F0F0FE2E2E2E2E2E22DE2E2E2E2E2E2E2E2E2E2E2E2E2F5F5E2E2E2E2E2E2E2E2E2E2E2E2E2E2E2E2E22DE2E2E2E2E2E2E2E20FF5F5
310
E2F5F5F5F5F5F5F5F5E2F5F50FE2E2E2E2E2E2E2E20FE2E2E2E2E2E2E2E2E20F0F0F0F0FF52828282828F5F5E2E20F0F0FE2E2E2E2E2E2E2E2E2E2E2E2E22DE2E2E2E2E2E2E2E2E2F5F5E2E2F5F5F5E2E2BEE2E2F5F5F5E2E2F5F5E2E2E2E20FE2E20FE2E2E2E2E2E2E2E2E2E20FE2E2E2F5F5E2E2E2BEE2E2F5F5E2E2E20F
310
0F0FE2E2E2E2E2E22DE2E2E2E2E2E2E2E2E2E2E2E2E2F5F5E2E2E2E2E2E2E2E2E2E2E2E2E2E2E2E2E22DE2E2E2E2E2E2E2E20FF5F5E2E2F5F5F5F5F5F5E2E2F5F50FE2E2E2E2E2E2E2E20FE2E2E2E2E2E2E2E2E2E2E2E2E20FF5E2E2E2E2E2F50F0F0F0F0F0FE2E2E2E2E2E2E2E2E2E2E2E2E22DE2E2E2E2E2E2E2E2E2F5F5
310
E2F5F5F5E2E2E2BEE2E2E2F5F5F5E2F5F5E2E2E2E20FE2E20FE2E2E2E2E2E2E2E2E20F0FE2E2E2F5F5E2E2E2E2E2E2F5F5E2E2E20F0F0FE2E2E2E2E2E22DE2E2E2E2E2E2E2E2E2E2E2E2E2F5F5E2E2E2F5E2E2E2E2E2E2E2E2E2E2E2E2E22DE2E2E2E2E2E2E2E20FE2F5F5E2E2E2F5F5E2E2E2F5F5E20FE2E2E2E2E2E2E2E2
310
0FE2E2E2E2E2E2E2E2E2E2E2E2E20FF5E2E2E2E2E2F50FE2E2E2E2E2E2E2E2E2E2E2E2E2E2E2E2E2E22DE2E2E2E2E2E2E2E2BE0FBEBEBEBEBEBEBEBEBEBEBEBEBEBEBEBEBE0F0F0F0F0F0FE2E20FE2E2E2E2E2E2E2E2E20F0FE2BEBEF5F5BEBEBEBEBEBEF5F5BEBEE20F0F0FE2E2E2E2E2E22DE2E2E2E2E2E2E2E2E2F5E2E2
310
E2F5F5E2E2E2F5E2E2E2E2E2E2E2E2E2E2E2E2E22DE2E2E2E2E2E2E2E20FE2E2F5F5F5F5E2BEF5F5F5F5E2E20FE2E2E2E2E2E2E2E20FE2E2E2E2E2E2E2E2E2E2E2E2E20FF5E2E2E2E2E2F50FE2E2E2E2E2E2E2E2E2E2E2E2E2E2E2E2E2E22DE2E2E2E2E2E2E2E2E20FF5E2F5F5F5E2E2E2BEE2E2E2F5F5F5E2F50FE2E2E2E2
310
E2E2E20FE2E2E2E2E2E2E2E2E20F0FE2E2E2F5F5E2E2E2E2E2E2F5F5E2E2E20F0F0FE2E2E2E2E2E22DE2E2E2E2E2E2E2E2E2F5E2E2E2F5F5E2E2E2F5E2E2E2E2E2E2E2E2E2E2E2E2E22DE2E2E2E2E2E2E2E20FE2E2E2F5F5F5F5F5F5F5F50F0F0F0F0F0F0F0F0F0F0F0F0FE2E2E2E2E2E2E2E2E2E2E2E2E20F0FF5F5F5F5F5
310
0F0FE2E2E2E2E2E2E2E2E2E2E2E2E2E2E2E2E2E22DE2E2E2E2E2E2E2E2E20FF5E2E2F5F5F5E2E2BEE2E2F5F5F5E2E2F50FE2E2E2E2E2E2E20FE2E2E2E2E2E2E2E2E2E20FE2E2E2F5F5E2E2E2E2E2E2F5F5E2E2E20F0F0FE2E2E2E2E2E22DE2E2E2E2E2E2E2E2E2F5E2E2E2F5F5E2E2E2F5E2E2E2E2E2E2E2E2E2E2E2E2E22D
310
E2E2E2E2E2E2E2E20FE2E2E2E2E2E2E2BEE2E2E2E2E2E20FE2E2E2E2E2E2E2E2E2E2E2E2E2E2E2E2E2E2E2E2E2E20F0FE2E2E2E2E20F0FE2E2E2E2E2E2E2E2E2E2E2E2E2E2E2E2E2E22DE2E2E2E2E2E2E2E2E20FF5F5E2F5F5F5F5E2BEE2F5F5F5F5E2F5F50FE2E2E2E2E2E2E20FE2E2E2E2E2E2E2E2E2E20F0FE2E2F5F5E2
310
E2E2E2E2E2F5F5E2E2E20F0F0FE2E2E2E2E2E22DE2E2E2E2E2E2E2E2E2F5E2E2E2F5F5E2E2E2F5E2E2E2E2E2E2E2E2E2E2E2E2E22DE2E2E2E2E2E2E2E20FE2E2E2E2E2E2E2E2E2E2E2E2E2E20FE2E2E2E2E2E2E2E2E2E2E2E2E2E2E2E2E2E2E2E2E2E20F0FE2E2E2E2E20F0FE2E2E2E2E2E2E2E2E2E2E2E2E2E2E2E2E2E22D
310
E2E2E2E2E2E2E2E2E20FF5F5E2E2F5F5F5F5BEF5F5F5F5E2E2F5F50FE2E2E2E2E2E2E20FE2E2E2E2E2E2E2E2E2E20F0F0F0F0FF5282828282828F5F5E2E2E2E2E20FE2E2E2E2E2E22DE2E2E2E2E2E2E2E2E2F5E2E2E2F5F5E2E2E2F5E2E2E2E2E2E2E2E2E2E2E2E2E22DE2E2E2E2E2E2E2E20FE2E2E2E2E2E2E2E2E2E2E2E2
310
E2E20FE2E2E2E2E2E2E2E2E2E2E2E2E2E2E2E2E2E2E2E2E2E20F0FE2E2E2E2E20F0FE2E2E2E2E2E2E2E2E2E2E2E2E2E2E2E2E2E22DE2E2E2E2E2E2E2E2E20FE2F5F5E2E2F5F5F5BEF5F5F5E2E2F5F5E20FE2E2E2E2E2E2E20FE2E2E2E2E2E2E2E2E2E2E2E2E2E20FF5E2E2E2E2E2E2F50F0F0F0F0F0F0FE2E2E2E2E2E22DE2
310
E2E2E2E2E2E2E2E2F5E2E2E2F5F5E2E2E2F5E2E2E2E2E2E2E2E2E2E2E2E2E22DE2E2E2E2E2E2E2E20FE2E2E2E2E2E2E2E2E2E2E2E2E2E20FE2E2E2E2E2E2E2E2E2E2E2E2E2E2E2E2E2E2E2E2E2E20F0FE2E2E2E2E20F0FE2E2E2E2E2E2E2E2E2E2E2E2E2E2E2E2E2E22DE2E2E2E2E2E2E2E2E20FE2F5F5F5E2E2E2F5BEF5E2
310
E2E2F5F5F5E20FE2E2E2E2E2E2E20FE2E2E2E2E2E2E2E2E2E2E2E2E2E20FF5E2E2E2E2E2E2F50FE2E2E2E2E2E2E2E2E2E2E2E22DE2E2E2E2E2E2E2E2E2F5E2E2E2F5F5E2E2E2F5E2E2E2E2E2E2E2E2E2E2E2E2E22DE2E2E2E2E2E2E2E20F0F0F0F0F0F0F0F0F0F0F0F0F0F0F0FE2E2E2E2E2E2E2E2E2E2E2E2E2E2E2E2E2E2
310
E2E2E2E20F0F0F0F0F0F0F0F0FE2E2E2E2E2E2E2E2E2E2E2E2E2E2E2E2E2E22DE2E2E2E2E2E2E2E2E20FE2E2F5F5F5F5E2E2BEE2E2F5F5F5F5E2E20FE2E2E2E2E2E2E20FE2E2E2E2E2E2E2E2E2E2E2E2E2E20FF5E2E2E2E2E2E2F50FE2E2E2E2E2E2E2E2E2E2E2E22DE2E2E2E2E2E2E2E2E2F5E2E2E2F5F5E2E2E2F5E2E2E2
310
E2E2E2E2E2E2E2E2E2E22DE2E2E2E2E2E2E2E2E2E2E2E2E2E2E20F0FE2E2E2E2E2E2E2E2E2E2E2E2E2E2E2E2E2E2E2E2E2E2E2E2E2E2E2E2E20FE2E20F0FE2E2E20FE2E2E2E2E2E2E2E2E2E2E2E2E2E2E2E2E2E22DE2E2E2E2E2E2E2E2E20FE2E2E2E2F5F5F5F5BEF5F5F5F5E2E2E2E20FE2E2E2E2E2E2E20FE2E2E2E2E2E2
310
E2E2E2E2E2E2E2E20F0FF5E2E2E2E2F50F0FE2E2E2E2E2E2E2E2E2E2E2E22DE2E2E2E2E2E2E2E2E2F5E2E2E2F5F5E2E2E2F5E2E2E2E2E2E2E2E2E2E2E2E2E22DE2E2E2E2E2E2E2E2E2E2E2E2E2E2E20F0FE2E2E2E2E2E2E2E2E2E2E2E2E2E2E2E2E2E2E2E2E2E2E2E2E2E2E2E2E20FE2E20F0FE2E2E20FE2E2E2E2E2E2E2E2
310
E2E2E2E2E2E2E2E2E2E22DE2E2E2E2E2E2E2E2E20FE2E2E2E2E2E2F5F5BE0F0F0F0F0F0F0F0F0F0F0F0F0F0F0F0F0F0FE2E2E2E2E2E2E2E2E2E2E2E2E20F0FE2F5F5F5F5F50F0FE2E2E2E2E2E2E2E2E2E2E2E22DE2E2E2E2E2E2E2E2E2F5E2E2E2F5F5E2E2E2F5E2E2E2E2E2E2E2E2E2E2E2E2E22DE2E2E2E2E2E2E2E2E2E2
310
E2E2E2E2E2E2E2E2E2E2E2E2E2E2E2E2E2E2E2E2E2E2E2E2E2E2E2E2E2E2E2E2E2E2E2E20F0F0F0F0F0F0F0F0FE2E2E2E2E2E2E2E2E2E2E2E2E2E2E2E2E2E22DE2E2E2E2E2E2E2E2E20FE2E2E2E2E2E2E2E2E2E2E2E2E2E2E2E2E20FE2E2E2E2E2E2E2E2E2E2E2E2E2E2E2E2E2E2E2E2E2E20F0FE2E2E2E2E2E20F0FE2E2E2
310
E2E2E2E2E2E2E2E2E22DE2E2E2E2E2E2E2E2E2F5E2E2E2F5F5E2E2E2F5E2E2E2E2E2E2E2E2E2E2E2E2E22DE2E2E2E2E2E2E2E2E2E2E2E2E2E2E2E2E2E2E2E2E2E2E2E2E2E2E2E2E2E2E2E2E2E2E2E2E2E2E2E2E2E2E2E2E2E20FE2E20F0FE2E2E20FE2E2E2E2E2E2E2E2E2E2E2E2E2E2E2E2E2E22DE2E2E2E2E2E2E2E2E20F
310
E2E2E2E2E2E2E2E2E2E2E2E2E2E2E2E2E20FE2E2E2E2E2E2E2E2E2E2E2E2E2E2E2E2E2E2E2E2E2E20F0FE2E2E2E2E2E20F0FE2E2E2E2E2E2E2E2E2E2E2E22DE2E2E2E2E2E2E2E2E2F5E2E2E2F5F5E2E2E2F5E2E2E2E2E2E2E2E2E2E2E2E2E22DE2E2E2E2E2E2E2E2E2E2E2E2E2E2E2E2E2E2E2E2E2E2E2E2E2E2E2E2E2E2E2
310
E2E2E2E2E2E2E2E2E2E2E2E2E2E2E2E2E2E20F0FE2E2E2E2E2E2E2E2E2E2E2E2E2E2E2E2E2E2E2E2E2E22DE2E2E2E2E2E2E2E2E20FE2E2E2E2E2E2E2E2E2E2E2E2E2E2E2E2E20FE2E2E2E2E2E2E2E2E2E2E2E2E2E2E2E2E2E2E2E2E2E20F0FE2E2E2E2E2E20F0FE2E2E2E2E2E2E2E2E2E2E2E22DE2E2E2E2E2E2E2E2E2F5E2
310
E2E2F5F5E2E2E2F5E2E2E2E2E2E2E2E2E2E2E2E2E22DE2E2E2E2E2E2E2E2E2E2E2E2E2E2E2E2E2E2E2E2E2E2E2E2E2E2E2E2E2E2E2E2E2E2E2E2E2E2E2E2E2E2E2E2E2E2E2E2E2E2E2E2E2E2E2E2E2E2E2E2E2E2E2E2E2E2E2E2E2E2E2E2E22DE2E2E2E2E2E2E2E2E20F0F0F0F0F0F0F0F0F0F0F0F0F0F0F0F0F0F0FE2E2E2
310
E2E2E2E2E2E2E2E2E2E2E2E2E2E2E2E2E2E2E20F0F0F0F0F0F0F0F0F0FE2E2E2E2E2E2E2E2E2E2E2E22DE2E2E2E2E2E2E2E2E2F5E2E2E2F5F5E2E2E2F5E2E2E2E2E2E2E2E2E2E2E2E2E22DE2E2E2E2E2E2E2E2E2E2E2E2E2E2E2E2E2E2E2E2E2E2E2E2E2E2E2E2E2E2E2E2E2E2E2E2E2E2E2E2E2E2E2E2E2E2E2E2E2E2E2E2
310
E2E2E2E2E2E2E2E2E2E2E2E2E2E2E2E2E2E2E2E2E22DE2E2E2E2E2E2E2E2E20FE2E2E2E2E2E2E20F0F0FE2E2E2E2E2E2E20FE2E2E2E2E2E2E2E2E2E2E2E2E2E2E2E2E2E2E2E2E2E20F0FE2E20F0FE2E20F0FE2E2E2E2E2E2E2E2E2E2E2E22DE2E2E2E2E2E2E2E2E2F5E2E2E2F5F5E2E2E2F5E2E2E2E2E2E2E2E2E2E2E2E2E2
310
2DE2E2E2E2E2E2E2E2E2E2E2E2E2E2E2E2E2E2E2E2E2E2E2E2E2E2E2E2E2E2E2E2E2E2E2E2E2E2E2E2E2E2E2E2E2E2E2E2E2E2E2E2E2E2E2E2E2E2E2E2E2E2E2E2E2E2E2E2E2E2E2E2E22DE2E2E2E2E2E2E2E2E2E2E2E2E2E2E2E2E20F0F0FE2E2E2E2E2E2E2E2E2E2E2E2E2E2E2E2E2E2E2E2E2E2E2E2E2E2E2E2E2E20FE2
310
E2E20F0FE2E2E20FE2E2E2E2E2E2E2E2E2E2E2E22DE2E2E2E2E2E2E2E2E2F5E2E2E2F5F5E2E2E2F5E2E2E2E2E2E2E2E2E2E2E2E2E22DE2E2E2E2E2E2E2E2E2E2E2E2E2E2E2E2E2E2E2E2E2E2E2E2E2E2E2E2E2E2E2E2E2E2E2E2E2E2E2E2E2E2E2E2E2E2E2E2E2E2E2E2E2E2E2E2E2E2E2E2E2E2E2E2E2E2E2E2E2E2E2E2E2
310
2DE2E2E2E2E2E2E2E2E2E2E2E2E2E2E2E2E2E2E2E2E2E2E2E2E2E2E2E2E2E2E2E2E2E2E2E2E2E2E2E2E2E2E2E2E2E2E2E2E2E20F0FE2E2E2E2E2E20F0FE2E2E2E2E2E2E2E2E2E2E2E22DE2E2E2E2E2E2E2E2E2F5E2E2E2F5F5E2E2E2E2E2E2E2E2E2E2E2E2E2E2E2E2E22DE2E2E2E2E2E2E2E2E2E2E2E2E2E2E2E2E2E2E2E2
310
E2E2E2E2E2E2E2E2E2E2E2E2E2E2E2E2E2E2E2E2E2E2E2E2E2E2E2E2E2E2E2E2E2E2E2E2E2E2E2E2E2E2E2E2E2E2E2E2E2E2E2E2E22DE2E2E2E2E2E2E2E2E2E2E2E2E2E2E2E2E2E2E2E2E2E2E2E2E2E2E2E2E2E2E2E2E2E2E2E2E2E2E2E2E2E2E2E2E2E2E2E2E2E20F0F0F0F0F0F0F0F0F0FE2E2E2E2E2E2E2E2E2E2E2E22D
310
E2E2E2E2E2E2E2E2E2E2E2E2E2F5F5E2E2E2E2E2E2E2E2E2E2E2E2E2E2E2E2E22DE2E2E2E2E2E2E2E2E2E2E2E2E2E2E2E2E2E2E2E2E2E2E2E2E2E2E2E2E2E2E2E2E2E2E2E2E2E2E2E2E2E2E2E2E2E2E2E2E2E2E2E2E2E2E2E2E2E2E2E2E2E2E2E2E2E2E2E2E2E2E2E2E22DE2E2E2E2E2E2E2E2E2E2E2E2E2E2E2E2E2E2E2E2
310
E2E2E2E2E2E2E2E2E2E2E2E2E2E2E2E2E2E2E2E2E2E2E2E2E2E2E2E2E2E2E2E2E2E20F0FE2E2E2E2E2E2E2E2E2E2E2E2E2E2E2E22DE2E2E2E2E2E2E2E2E2E2E2E2E2F5F5E2E2E2E2E2E2E2E2E2E2E2E2E2E2E2E2E22DE2E2E2E2E2E2E2F5E2F5F5F5E2F5F5F5F5F5E2E2E2E2E2E2E2E2E2E2E2E2E2E2E2E2E2E2E2E2E2E2E2
310
E2E2E2E2E2E2E2E2E2E2E2E2E2E2E2E2E2E2E2E2E2E2E2E2E2E2E2E2E2E2E2E22DE2E2E2E2F5F5F5F5E2F5F5F5E2E2E2E2E2E2E2E2E2E2E2E2E2E2E2E2E2E2E2E2E2E2E2E2E2E2E2E2E2E2E2E2E2E2E2E2E2E2E2E2E2E2E2E2E2E2E2E2E2E2E2E2E2E2E2E2E2E2E2E22DE2E2E2E2E2E2E2E2E2E2E2E2E2F5F5E2E2E2E2E2E2
310
E2E2E2E2E2E2E2E2E2E2E22DE2E2E2E2E2E2E2F5F5F5F5F5E2F5F5F5F5F5E2E2E2E2E2E2E2E2E2E2E2E2E2E2E2E2E2E2E2E2E2E2E2E2E2E2E2E2E2E2E2E2E2E2E2E2E2E2E2E2E2E2E2E2E2E2E2E2E2E2E2E2E2E2E22DE2E2E2E2F5F5F5F5E2F5F5F5E2E2E2E2E2E2E2E2E2E2E2E2E2E2E2E2E2E2E2E2E2E2E2E2E2E2E2E2E2
310
E2E2E2E2E2E2E2E2E2E2E2E2E2E2E2E2E2E2E2E2E2E2E2E2E2E2E2E2E2E2E22DE2E2E2E2E2E2E2E2E2E2E2E2E2F5F5E2E2E2E2E2E2E2E2E2E2E2E2E2E2E2E2E22DE2E2E2E2E2E2E2F5F5F5F5F5E2F5F5F5F5F5E2E2E2E2E2E2E2E2E2E2E2E2E2E2E2E2E2E2E2E2E2E2E2E2E2E2E2E2E2E2E2E2E2E2E2E2E2E2E2E2E2E2E2E2
310
E2E2E2E2E2E2E2E2E2E2E22DE2E2E2E2F5F5F5F5E2F5F5F5E2E2E2E2E2E2E2E2E2E2E2E2E2E2E2E2E2E2E2E2E2E2E2E2E2E2E2E2E2E2E2E2E2E2E2E2E2E2E2E2E2E2E2E2E2E2E2E2E2E2E2E2E2E2E2E2E2E2E2E22DE2E2E2E2E2E2E2E2E2E2E2E2E2F5F5E2E2E2E2E2E2E2E2E2E2E2E2E2E2E2E2E22DE2E2E2E2E2E2E2E2E2
310
E2E2E2E2E2E2E2E2E2E2E2E2E2E2E2E2E2E2E2E2E2E2E2E2E2E2E2E2E2E2E2E2E2E2E2E2E2E2E2E2E2E2E2E2E2E2E2E2E2E2E2E2E2E2E2E2E2E2E2E2E2E2E2E22DE2E2E2E2E2E2E2E2E2E2E2E2E2E2E2E2E2E2E2E2E2E2E2E2E2E2E2E2E2E2E2E2E2E2E2E2E2E2E2E2E2E2E2E2E2E2E2E2E2E2E2E2E2E2E2E2E2E2E2E2E2E2
310
E2E2E2E2E2E2E2E2E2E22DE2E2E2E2E2E2E2E2E2E2E2E2E2F5F5E2E2E2E2E2E2E2E2E2E2E2E2E2E2E2E2E22DE2E2E2E2E2E2E2E2E2E2E2E2E2E2E2E2E2E2E2E2E2E2E2E2E2E2E2E2E2E2E2E2E2E2E2E2E2E2E2E2E2E2E2E2E2E2E2E2E2E2E2E2E2E2E2E2E2E2E2E2E2E2E2E2E2E2E2E2E2E2E2E2E22DE2E2E2E2E2E2E2E2E2
310
E2E2E2E2E2E2E2E2E2E2E2E2E2E2E2E2E2E2E2E2E2E2E2E2E2E2E2E2E2E2E2E2E2E2E2E2E2E2E2E2E2E2E2E2E2E2E2E2E2E2E2E2E2E2E2E2E2E2E2E2E2E2E22DE2E2E2E2E2E2E2E2E2E2E2E2E2F5F5E2E2E2E2E2E2E2E2E2E2E2E2E2E2E2E2E22DE2E2E2E2E2E2E2E2E2E2E2E2E2E2E2E2E2E2E2E2E2E2E2E2E2E2E2E2E2E2
310
E2E2E2E2E2E2E2E2E2E2E2E2E2E2E2E2E2E2E2E2E2E2E2E2E2E2E2E2E2E2E2E2E2E2E2E2E2E2E2E2E2E2E22DE2E2E2E2E2E2E2E2E2E2E2E2E2E2E2E2E2E2E2E2E2E2E2E2E2E2E2E2E2E2E2E2E2E2E2E2E2E2E2E2E2E2E2E2E2E2E2E2E2E2E2E2E2E2E2E2E2E2E2E2E2E2E2E2E2E2E2E2E2E2E2E22DE2E2E2E2E2E2E2E2E2E2
310
E2E2E2F5F5E2E2E2E2E2E2E2E2E2E2E2E2E2E2E2E2E22DE2E2E2E2E2E2E2E2E2E2E2E2E2E2E2E2E2E2E2E2E2E2E2E2E2E2E2E2E2E2E2E2E2E2E2E2E2E2E2E2E2E2E2E2E2E2E2E2E2E2E2E2E2E2E2E2E2E2E2E2E2E2E2E2E2E2E2E2E2E2E2E2E22DE2E2E2E2E2E2E2E2E2E2E2E2E2E2E2E2E2E2E2E2E2E2E2E2E2E2E2E2E2E2
310
E2E2E2E2E2E2E2E2E2E2E2E2E2E2E2E2E2E2E2E2E2E2E2E2E2E2E2E2E2E2E2E2E2E2E2E2E2E2E2E2E2E22DE2E2E2E2E2E2E2E2E2E2E2E2E2F5F5E2E2E2E2E2E2E2E2E2E2E2E2E2E2E2E2E22DE2E2E2E2E2E2E2E2E2E2E2E2E2E2E2E2E2E2E2E2E2E2E2E2E2E2E2E2E2E2E2E2E2E2E2E2E2E2E2E2E2E2E2E2E2E2E2E2E2E2E2
310
E2E2E2E2E2E2E2E2E2E2E2E2E2E2E2E2E2E2E2E2E2E22DE2E2E2E2E2E2E2E2E2E2E2E2E2E2E2E2E2E2E2E2E2E2E2E2E2E2E2E2E2E2E2E2E2E2E2E2E2E2E2E2E2E2E2E2E2E2E2E2E2E2E2E2E2E2E2E2E2E2E2E2E2E2E2E2E2E2E2E2E2E2E2E22DE2E2E2E2E2E2E2E2E2E2E2E2E2F5F5E2E2E2F5E2E2E2E2E2E2E2E2E2E2E2E2
310
E22DE2E2E2E2E2E2E2E2E2E2E2E2E2E2E2E2E2E2E2E2E2E2E2E2E2E2E2E2E2E2E2E2E2E2E2E2E2E2E2E2E2E2E2E2E2E2E2E2E2E2E2E2E2E2E2E2E2E2E2E2E2E2E2E2E2E2E2E2E2E2E2E2E22DE2E2E2E2E2E2E2E2E2E2E2E2E2E2E2E2E2E2E2E2E2E2E2E2E2E2E2E2E2E2E2E2E2E2E2E2E2E2E2E2E2E2E2E2E2E2E2E2E2E2E2
310
E2E2E2E2E2E2E2E2E2E2E2E2E2E2E2E2E2E2E2E2E22DE2E2E2E2E2E2E2E2E2F5E2E2E2F5F5E2E2E2F5E2E2E2E2E2E2E2E2E2E2E2E2E22DE2E2E2E2E2E2E2E2E2E2E2E2E2E2E2E2E2E2E2E2E2E2E2E2E2E2E2E2E2E2E2E2E2E2E2E2E2E2E2E2E2E2E2E2E2E2E2E2E2E2E2E2E2E2E2E2E2E2E2E2E2E2E2E2E2E2E2E2E2E2E2E2
310
E22DE2E2E2E2E2E2E2E2E2E2E2E2E2E2E2E2E2E2E2E2E2E2E2E2E2E2E2E2E2E2E2E2E2E2E2E2E2E2E2E2E2E2E2E2E2E2E2E2E2E2E2E2E2E2E2E2E2E2E2E2E2E2E2E2E2E2E2E2E2E2E2E22DE2E2E2E2E2E2E2E2E2F5E2E2E2F5F5E2E2E2F5E2E2E2E2E2E2E2E2E2E2E2E2E22DE2E2E2E2E2E2E2E2E2E2E2E2E2E2E2E2E2E2E2
310
E2E2E2E2E2E2E2E2E2E2E2E2E2E2E2E2E2E2E2E2E2E2E2E2E2E2E2E2E2E2E2E2E2E2E2E2E2E2E2E2E2E2E2E2E2E2E2E2E2E2E2E2E2E22DE2E2E2E2E2E2E2E2E2E2E2E2E2E2E2E2E2E2E2E2E2E2E2E2E2E2E2E2E2E2E2E2E2E2E2E2E2E2E2E2E2E2E2E2E2E2E2E2E2E2E2E2E2E2E2E2E2E2E2E2E2E2E2E2E2E2E2E2E2E2E2E2
310
2DE2E2E2E2E2E2E2E2E2F5E2E2E2F5F5E2E2E2F5E2E2E2E2E2E2E2E2E2E2E2E2E22DE2E2E2E2E2E2E2E2E2E2E2E2E2E2E2E2E2E2E2E2E2E2E2E2E2E2E2E2E2E2E2E2E2E2E2E2E2E2E2E2E2E2E2E2E2E2E2E2E2E2E2E2E2E2E2E2E2E2E2E2E2E2E2E2E2E2E2E2E2E2E2E2E22DE2E2E2E2E2E2E2E2E2E2E2E2E2E2E2E2E2E2E2
310
E2E2E2E2E2E2E2E2E2E2E2E2E2E2E2E2E2E2E2E2E2E2E2E2E2E2E2E2E2E2E2E2E2E2E2E2E2E2E2E2E2E2E2E2E2E2E2E2E2E2E2E2E22DE2E2E2E2E2E2E2E2E2F5E2E2E2F5F5E2E2E2F5E2E2E2E2E2E2E2E2E2E2E2E2E22DE2E2E2E2E2E2E2E2E2E2E2E2E2E2E2E2E2E2E2E2E2E2E2E2E2E2E2E2E2E2E2E2E2E2E2E2E2E2E2E2
310
E2E2E2E2E2E2E2E2E2E2E2E2E2E2E2E2E2E2E2E2E2E2E2E2E2E2E2E2E2E2E2E2E22DE2E2E2E2E2E2E2E2E2E2E2E2E2E2E2E2E2E2E2E2E2E2E2E2E2E2E2E2E2E2E2E2E2E2E2E2E2E2E2E2E2E2E2E2E2E2E2E2E2E2E2E2E2E2E2E2E2E2E2E2E2E2E2E2E2E2E2E2E2E2E2E22DE2E2E2E2E2E2E2E2E2F5E2E2E2F5F5E2E2E2F5E2
310
E2E2E2E2E2E2E2E2E2E2E2E22DE2E2E2E2E2E2E2E2E2E2E2E2E2E2E2E2E2E2E2E2E2E2E2E2E2E2E2E2E2E2E2E2E2E2E2E2E2E2E2E2E2E2E2E2E2E2E2E2E2E2E2E2E2E2E2E2E2E2E2E2E2E2E2E2E2E2E2E2E2E2E2E2E22DE2E2E2E2E2E2E2E2E2E2E2E2E2E2E2E2E2E2E2E2E2E2E2E2E2E2E2E2E2E2E2E2E2E2E2E2E2E2E2E2
310
E2E2E2E2E2E2E2E2E2E2E2E2E2E2E2E2E2E2E2E2E2E2E2E2E2E2E2E2E2E2E2E22DE2E2E2E2E2E2E2E2E2F5E2E2E2F5F5E2E2E2F5E2E2E2E2E2E2E2E2E2E2E2E2E22DE2E2E2E2E2E2E2E2E2E2E2E2E2E2E2E2E2E2E2E2E2E2E2E2E2E2E2E2E2E2E2E2E2E2E2E2E2E2E2E2E2E2E2E2E2E2E2E2E2E2E2E2E2E2E2E2E2E2E2E2E2
310
E2E2E2E2E2E2E2E2E2E2E2E22DE2E2E2E2E2E2E2E2E2E2E2E2E2E2E2E2E2E2E2E2E2E2E2E2E2E2E2E2E2E2E2E2E2E2E2E2E2E2E2E2E2E2E2E2E2E2E2E2E2E2E2E2E2E2E2E2E2E2E2E2E2E2E2E2E2E2E2E2E2E2E2E22DE2E2E2E2E2E2E2E2E2F5E2E2E2F5F5E2E2E2F5E2E2E2E2E2E2E2E2E2E2E2E2E22D2D2D2D2D2D2D2D2D
310
2D2D2D2D2D2D2D2D2D2D2D2D2D2D2D2D2D2D2D2D2D2D2D2D2D2D2D2D2D2D2D2D2D2D2D2D2D2D2D2D2D2D2D2D2D2D2D2D2D2D2D2D2D2D2D2D2D2D2D2D2D2D2D2D2D2D2D2D2D2D2D2D2D2D2D2D2D2D2D2D2D2D2D2D2D2D2D2D2D2D2D2D2D2D2D2D2D2D2D2D2D2D2D2D2D2D2D2D2D2D2D2D2D2D2D2D2D2D2D2D2D2D2D2D2D2D2D
310
2D2D2D2D2D2D2D2D2D2D2D2DE2E2E2E2E2E2E2E2E2F5E2E2E2F5F5E2E2E2F5F5F5F5F5F5F5F5E2E2E2E2E2E2E2E2E2F5F5F5F5F5F5F5F5F5F5F5F5F5F5F5F5E2E2E2E2E2E2E2E2E2F5F5F5F5F5F5F5F5F5F5F5F5F5F5F5E2E2E2E2E2E2E2E2E2F5F5F5F5F5F5F5F5F5F5F5F5F5F5F5F5E2E2E2E2E2E2E2E2F5F5F5F5F5F5F5
310
F5F5F5F5F5F5F5F5F5E2E2E2E2E2E2E2E2E2F5F5F5F5F5F5F5F5F5F5F5F5F5F5F5E2E2E2E2E2E2E2E2E2F5F5F5F5F5F5F5F5F5F5F5F5F5F5F5F5E2E2E2E2E2E2E2E2E2F5F5F5F5F5F5F5F5E2E2E2F5F5E2E2E2E2E2E2E2E2E2E2E2E2E2E2E2E2E2E2E2E2E2E2E2E2E2E2E2E2E2E2E2E2E2E2E2E2E2E2E2E2E2E2E2E2E2E2E2
310
E2E2E2E2E2E2E2E2E2E2E2E2E2E2E2E2E2E2E2E2E2E2E2E2E2E2E2E2E2E2E2E2E2E2E2E2E2E2E2E2E2E2E2E2E2E2E2E2E2E2E2E2E2E2E2E2E2E2E2E2E2E2E2E2E2E2E2E2E2E2E2E2E2E2E2E2E2E2E2E2E2E2E2E2E2E2E2E2E2E2E2E2E2E2E2E2E2E2E2E2E2E2E2E2E2E2E2E2E2E2E2E2E2E2E2E2E2E2E2E2E2E2E2E2E2E2E2
310
E2E2E2E2F5F5E2E2E2E2E2E2E2E2E2E2E2E2E2E2E2E2E2E2E2E2E2E2E2E2E2E2E2E2E2E2E2E2E2E2E2E2E2E2E2E2E2E2E2E2E2E2E2E2E2E2E2E2E2E2E2E2E2E2E2E2E2E2E2E2E2E2E2E2E2E2E2E2E2E2E2E2E2E2E2E2E2E2E2E2E2E2E2E2E2E2E2E2E2E2E2E2E2E2E2E2E2E2E2E2E2E2E2E2E2E2E2E2E2E2E2E2E2E2E2E2E2
310
E2E2E2E2E2E2E2E2E2E2E2E2E2E2E2E2E2E2E2E2E2E2E2E2E2E2E2E2E2E2E2E2E2E2E2E2E2E2E2E2E2E2E2E2E2E2E2E2E2E2E2E2E2E2E2E2E2F5F5E2E2E2E2E2E2E2E2E2E2E2E2E2E2E2E2E2E2E2E2E2E2E2E2E2E2E2E2E2E2E2E2E2E2E2E2E2E2E2E2E2E2E2E2E2E2E2E2E2E2E2E2E2E2E2E2E2E2E2E2E2E2E2E2E2E2E2E2
310
E2E2E2E2E2E2E2E2E2E2E2E2E2E2E2E2E2E2E2E2E2E2E2E2E2E2E2E2E2E2E2E2E2E2E2E2E2E2E2E2E2E2E2E2E2E2E2E2E2E2E2E2E2E2E2E2E2E2E2E2E2E2E2E2E2E2E2E2E2E2E2E2E2E2E2E2E2E2E2E2E2E2E2E2E2E2E2E2E2E2E2E2E2E2E2E2E2E2E2E2E2E2E2E2E2E2E2E2E2E2F5F5E2E2E2E2E2E2E2E2E2E2E2E2E2E2E2
310
E2E2E2E2E2E2E2E2E2E2E2E2E2E2E2E2E2E2E2E2E2E2E2E2E2E2E2E2E2E2E2E2E2E2E2E2E2E2E2E2E2E2E2E2E2E2E2E2E2E2E2E2E2E2E2E2E2E2E2E2E2E2E2E2E2E2E2E2E2E2E2E2E2E2E2E2E2E2E2E2E2E2E2E2E2E2E2E2E2E2E2E2E2E2E2E2E2E2E2E2E2E2E2E2E2E2E2E2E2E2E2E2E2E2E2E2E2E2E2E2E2E2E2E2E2E2E2
310
E2E2E2E2E2E2E2E2E2E2E2E2E2E2E2E2E2E2E2E2E2E2E2E2E2E2E2E2E2E2E2E2E2E2E2E2F5F5E2E2E2E2E2E2E2E2E2E2E2E2E2E2E2E2E2E2E2E2E2E2E2E2E2E2E2E2E2E2E2E2E2E2E2E2E2E2E2E2E2E2E2E2E2E2E2E2E2E2E2E2E2E2E2E2E2E2E2E2E2E2E2E2E2E2E2E2E2E2E2E2E2E2E2E2E2E2E2E2E2E2E2E2E2E2E2E2E2
310
E2E2E2E2E2E2E2E2E2E2E2E2E2E2E2E2E2E2E2E2E2E2E2E2E2E2E2E2E2E2E2E2E2E2E2E2E2E2E2E2E2E2E2E2E2E2E2E2E2E2E2E2E2E2E2E2E2E2E2E2E2E2E2E2E2E2E2E2E2E2E2E2E2E2E2E2E2E2E2E2E2E2E2E2E2E2E2E2E2F5F5E2E2E2E2E2E2E2E2E2E2E2E2E2E2E2E2E2E2E2E2E2E2E2E2E2E2E2E2E2E2E2E2E2E2E2E2
310
E2E2E2E2E2E2E2E2E2E2E2E2E2E2E2E2E2E2E2E2E2E2E2E2E2E2E2E2E2E2E2E2E2E2E2E2E2E2E2E2E2E2E2E2E2E2E2E2E2E2E2E2E2E2E2E2E2E2E2E2E2E2E2E2E2E2E2E2E2E2E2E2E2E2E2E2E2E2E2E2E2E2E2E2E2E2E2E2E2E2E2E2E2E2E2E2E2E2E2E2E2E2E2E2E2E2E2E2E2E2E2E2E2E2E2E2E2E2E2E2E2E2E2E2E2E2E2
310
E2E2E2E2E2E2E2E2E2E2E2E2E2E2E2F5F5E2E2E2E2E2E2E2E2E2E2E2E2E2E2E2E2E2E2E2E2E2E2E2E2E2E2E2E2E2E2E2E2E2E2E2E2E2E2E2E2E2E2E2E2E2E2E2E2E2E2E2E2E2E2E2E2E2E2E2E2E2E2E2E2E2E2E2E2E2E2E2E2E2E2E2E2E2E2E2E2E2E2E2E2E2E2E2E2E2E2E2E2E2E2E2E2E2E2E2E2E2E2E2E2E2E2E2E2E2E2
310
E2E2E2E2E2E2E2E2E2E2E2E2E2E2E2E2E2E2E2E2E2E2E2E2E2E2E2E2E2E2E2E2E2E2E2E2E2E2E2E2E2E2E2E2E2E2E2E2E2E2E2E2E2E2E2E2E2E2E2E2E2E2E2E2E2E2E2E2F5F5F5F5F5F5F5F5F5F5F5F5F5F5F5F5F5F5F5F5F5F5F5F5F5F5F5F5F5F5F5F5F5F5F5F5F5F5F5F5F5F5F5F5F5F5F5F5F5F5F5F5F5F5F5F5F5F5F5
310
F5F5F5F5F5F5F5F5F5F5F5F5F5F5F5F5F5F5F5F5F5F5F5F5F5F5F5F5F5F5F5F5F5F5F5F5F5F5F5F5F5F5F5F5F5F5F5F5F5F5F5F5F5F5F5F5F5F5F5F5F5F5F5F5F5F5F5F5F5F5F5F5F5F5F5F5F5F5F5F5F5F5F5F5F5F5F5F5F5F5F5F5F5F5F5F5F5F5F5F5F5F5F5F5F5F5F5F5F5F5F5F5F5F5F5F5F5F5F5F5F5F5EFEFEFEFEF
310
EFEFEFEFEFEFEFEFEFEFEFEFEFEFEFEFEFEFEFEFEFEFEFEFEFEFEFEFEFEFEFEFEFEFEFEFEFEFEFEFEFEFEFEFEFEFEFEFEFEFEFEFEFEFEFEFEFEFEFEFEFEFEFEFEFEFEFEFEFEFEFEFEFEFEFEFEFEFEFEFEFEFEFEFEFEFEFEFEFEFEFEFEFEFEFEFEFEFEFEFEFEFEFEFEFEFEFEFEFEFEFEFEFEFEFEFEFEFEFEFEFEFEFEFEFEFEF
310
EFEFEFEFEFEFEFEFEFEFEFEFEFEFEFEFEFEFEFEFEFEFEFEFEFEFEFEFEFEFEFEFEFEFEFEFEFEFEFEFEFEFEFEFEFEFEFEF
  0
ENDSEC
  0
EOF
