  0
SECTION
  2
HEADER
  9
$ACADVER
  1
AC1015
  9
$ACADMAINTVER
 70
    20
  9
$DWGCODEPAGE
  3
ANSI_950
  9
$INSBASE
 10
0.0
 20
0.0
 30
0.0
  9
$EXTMIN
 10
392.8626118148323
 20
242.5571589878776
 30
0.0
  9
$EXTMAX
 10
599.3718180626484
 20
435.5301618881486
 30
92.47433129629113
  9
$LIMMIN
 10
0.0
 20
0.0
  9
$LIMMAX
 10
420.0
 20
297.0
  9
$ORTHOMODE
 70
     0
  9
$REGENMODE
 70
     1
  9
$FILLMODE
 70
     1
  9
$QTEXTMODE
 70
     0
  9
$MIRRTEXT
 70
     1
  9
$LTSCALE
 40
1.0
  9
$ATTMODE
 70
     1
  9
$TEXTSIZE
 40
3.0
  9
$TRACEWID
 40
1.0
  9
$TEXTSTYLE
  7
STANDARD
  9
$CLAYER
  8
AM_REFDIM
  9
$CELTYPE
  6
ByLayer
  9
$CECOLOR
 62
   256
  9
$CELTSCALE
 40
1.0
  9
$DISPSILH
 70
     0
  9
$DIMSCALE
 40
1.5
  9
$DIMASZ
 40
3.0
  9
$DIMEXO
 40
1.0
  9
$DIMDLI
 40
8.0
  9
$DIMRND
 40
0.0
  9
$DIMDLE
 40
0.0
  9
$DIMEXE
 40
1.0
  9
$DIMTP
 40
0.1
  9
$DIMTM
 40
0.1
  9
$DIMTXT
 40
3.5
  9
$DIMCEN
 40
0.0
  9
$DIMTSZ
 40
0.0
  9
$DIMTOL
 70
     0
  9
$DIMLIM
 70
     0
  9
$DIMTIH
 70
     0
  9
$DIMTOH
 70
     0
  9
$DIMSE1
 70
     0
  9
$DIMSE2
 70
     0
  9
$DIMTAD
 70
     1
  9
$DIMZIN
 70
     8
  9
$DIMBLK
  1

  9
$DIMASO
 70
     1
  9
$DIMSHO
 70
     1
  9
$DIMPOST
  1

  9
$DIMAPOST
  1
"
  9
$DIMALT
 70
     0
  9
$DIMALTD
 70
     2
  9
$DIMALTF
 40
0.0393701
  9
$DIMLFAC
 40
1.0
  9
$DIMTOFL
 70
     1
  9
$DIMTVP
 40
0.0
  9
$DIMTIX
 70
     0
  9
$DIMSOXD
 70
     0
  9
$DIMSAH
 70
     0
  9
$DIMBLK1
  1

  9
$DIMBLK2
  1

  9
$DIMSTYLE
  2
AM_ISO
  9
$DIMCLRD
 70
   256
  9
$DIMCLRE
 70
   256
  9
$DIMCLRT
 70
   256
  9
$DIMTFAC
 40
0.6
  9
$DIMGAP
 40
1.0
  9
$DIMJUST
 70
     0
  9
$DIMSD1
 70
     0
  9
$DIMSD2
 70
     0
  9
$DIMTOLJ
 70
     0
  9
$DIMTZIN
 70
     8
  9
$DIMALTZ
 70
     0
  9
$DIMALTTZ
 70
     0
  9
$DIMUPT
 70
     0
  9
$DIMDEC
 70
     0
  9
$DIMTDEC
 70
     8
  9
$DIMALTU
 70
     2
  9
$DIMALTTD
 70
     2
  9
$DIMTXSTY
  7
STANDARD
  9
$DIMAUNIT
 70
     0
  9
$DIMADEC
 70
     0
  9
$DIMALTRND
 40
0.0
  9
$DIMAZIN
 70
     2
  9
$DIMDSEP
 70
    46
  9
$DIMATFIT
 70
     3
  9
$DIMFRAC
 70
     0
  9
$DIMLDRBLK
  1

  9
$DIMLUNIT
 70
     2
  9
$DIMLWD
 70
    -1
  9
$DIMLWE
 70
    -1
  9
$DIMTMOVE
 70
     0
  9
$LUNITS
 70
     2
  9
$LUPREC
 70
     2
  9
$SKETCHINC
 40
1.0
  9
$FILLETRAD
 40
3.75
  9
$AUNITS
 70
     0
  9
$AUPREC
 70
     0
  9
$MENU
  1
.
  9
$ELEVATION
 40
0.0
  9
$PELEVATION
 40
0.0
  9
$THICKNESS
 40
0.0
  9
$LIMCHECK
 70
     0
  9
$CHAMFERA
 40
3.75
  9
$CHAMFERB
 40
3.75
  9
$CHAMFERC
 40
20.0
  9
$CHAMFERD
 40
0.0
  9
$SKPOLY
 70
     0
  9
$TDCREATE
 40
2454392.703168762
  9
$TDUCREATE
 40
2454392.369835428
  9
$TDUPDATE
 40
2456052.369022708
  9
$TDUUPDATE
 40
2456052.035689375
  9
$TDINDWG
 40
0.2097867014
  9
$TDUSRTIMER
 40
0.2097865162
  9
$USRTIMER
 70
     1
  9
$ANGBASE
 50
0.0
  9
$ANGDIR
 70
     0
  9
$PDMODE
 70
     0
  9
$PDSIZE
 40
0.0
  9
$PLINEWID
 40
0.0
  9
$SPLFRAME
 70
     0
  9
$SPLINETYPE
 70
     6
  9
$SPLINESEGS
 70
     8
  9
$HANDSEED
  5
6116
  9
$SURFTAB1
 70
     6
  9
$SURFTAB2
 70
     6
  9
$SURFTYPE
 70
     6
  9
$SURFU
 70
     6
  9
$SURFV
 70
     6
  9
$UCSBASE
  2

  9
$UCSNAME
  2

  9
$UCSORG
 10
0.0
 20
0.0
 30
0.0
  9
$UCSXDIR
 10
1.0
 20
0.0
 30
0.0
  9
$UCSYDIR
 10
0.0
 20
1.0
 30
0.0
  9
$UCSORTHOREF
  2

  9
$UCSORTHOVIEW
 70
     0
  9
$UCSORGTOP
 10
0.0
 20
0.0
 30
0.0
  9
$UCSORGBOTTOM
 10
0.0
 20
0.0
 30
0.0
  9
$UCSORGLEFT
 10
0.0
 20
0.0
 30
0.0
  9
$UCSORGRIGHT
 10
0.0
 20
0.0
 30
0.0
  9
$UCSORGFRONT
 10
0.0
 20
0.0
 30
0.0
  9
$UCSORGBACK
 10
0.0
 20
0.0
 30
0.0
  9
$PUCSBASE
  2

  9
$PUCSNAME
  2

  9
$PUCSORG
 10
0.0
 20
0.0
 30
0.0
  9
$PUCSXDIR
 10
1.0
 20
0.0
 30
0.0
  9
$PUCSYDIR
 10
0.0
 20
1.0
 30
0.0
  9
$PUCSORTHOREF
  2

  9
$PUCSORTHOVIEW
 70
     0
  9
$PUCSORGTOP
 10
0.0
 20
0.0
 30
0.0
  9
$PUCSORGBOTTOM
 10
0.0
 20
0.0
 30
0.0
  9
$PUCSORGLEFT
 10
0.0
 20
0.0
 30
0.0
  9
$PUCSORGRIGHT
 10
0.0
 20
0.0
 30
0.0
  9
$PUCSORGFRONT
 10
0.0
 20
0.0
 30
0.0
  9
$PUCSORGBACK
 10
0.0
 20
0.0
 30
0.0
  9
$USERI1
 70
     0
  9
$USERI2
 70
     0
  9
$USERI3
 70
     0
  9
$USERI4
 70
     0
  9
$USERI5
 70
     0
  9
$USERR1
 40
0.0
  9
$USERR2
 40
0.0
  9
$USERR3
 40
0.0
  9
$USERR4
 40
0.0
  9
$USERR5
 40
0.0
  9
$WORLDVIEW
 70
     1
  9
$SHADEDGE
 70
     3
  9
$SHADEDIF
 70
    70
  9
$TILEMODE
 70
     1
  9
$MAXACTVP
 70
    64
  9
$PINSBASE
 10
0.0
 20
0.0
 30
0.0
  9
$PLIMCHECK
 70
     0
  9
$PEXTMIN
 10
1.000000000000000E+20
 20
1.000000000000000E+20
 30
1.000000000000000E+20
  9
$PEXTMAX
 10
-1.000000000000000E+20
 20
-1.000000000000000E+20
 30
-1.000000000000000E+20
  9
$PLIMMIN
 10
0.0
 20
0.0
  9
$PLIMMAX
 10
420.0
 20
297.0
  9
$UNITMODE
 70
     0
  9
$VISRETAIN
 70
     1
  9
$PLINEGEN
 70
     0
  9
$PSLTSCALE
 70
     1
  9
$TREEDEPTH
 70
  3020
  9
$CMLSTYLE
  2
Standard
  9
$CMLJUST
 70
     0
  9
$CMLSCALE
 40
20.0
  9
$PROXYGRAPHICS
 70
     1
  9
$MEASUREMENT
 70
     1
  9
$CELWEIGHT
370
    -1
  9
$ENDCAPS
280
     0
  9
$JOINSTYLE
280
     0
  9
$LWDISPLAY
290
     0
  9
$INSUNITS
 70
     4
  9
$HYPERLINKBASE
  1

  9
$STYLESHEET
  1
acad.ctb
  9
$XEDIT
290
     1
  9
$CEPSNTYPE
380
     0
  9
$PSTYLEMODE
290
     1
  9
$FINGERPRINTGUID
  2
{00E4BF2B-312E-4E1D-8C5C-0EEC0927E19E}
  9
$VERSIONGUID
  2
{ABCEAE0C-2C5C-42C8-84C7-AECF3ACB3F31}
  9
$EXTNAMES
290
     1
  9
$PSVPSCALE
 40
0.0
  9
$OLESTARTUP
290
     0
  0
ENDSEC
  0
SECTION
  2
CLASSES
  0
CLASS
  1
ACDBDICTIONARYWDFLT
  2
AcDbDictionaryWithDefault
  3
ObjectDBX Classes
 90
        0
280
     0
281
     0
  0
CLASS
  1
ACDBPLACEHOLDER
  2
AcDbPlaceHolder
  3
ObjectDBX Classes
 90
        0
280
     0
281
     0
  0
CLASS
  1
LAYOUT
  2
AcDbLayout
  3
ObjectDBX Classes
 90
        0
280
     0
281
     0
  0
CLASS
  1
ACME_DOCUMENT
  2
AcMeDbDoc
  3
AcMeServices
 90
        0
280
     0
281
     0
  0
CLASS
  1
AMGSETTINGSOBJ
  2
AmgSettingsObj
  3
"AcadM|Product Description: AutoCAD Mechanical 2000|Company: Autodesk"
 90
        0
280
     0
281
     0
  0
CLASS
  1
ACMESCOPE
  2
AcMeScope
  3
AcMeServices
 90
        0
280
     0
281
     0
  0
CLASS
  1
ACMECOMMANDHISTORY
  2
AcMeCommandHistory
  3
AcMeServices
 90
        0
280
     0
281
     0
  0
CLASS
  1
ACIMSYSVARMAN
  2
AcImSysVarManager
  3
AcMeServices
 90
        0
280
     0
281
     0
  0
CLASS
  1
ACIMREALSYSVAR
  2
AcImRealSysVar
  3
AcMeServices
 90
        0
280
     0
281
     0
  0
CLASS
  1
ACIMINTSYSVAR
  2
AcImIntSysVar
  3
AcMeServices
 90
        0
280
     0
281
     0
  0
CLASS
  1
ACMEDRAWINGMAN
  2
AcMeDrawingMan
  3
AcMeServices
 90
        0
280
     0
281
     0
  0
CLASS
  1
ACMEVIEW
  2
AcMeView
  3
AcMeServices
 90
        0
280
     0
281
     0
  0
CLASS
  1
ACDBENTITYCACHE
  2
AcMeEntityCache
  3
AcMeServices
 90
        0
280
     0
281
     0
  0
CLASS
  1
GSMANAGER
  2
AcMeGSManager
  3
AcMeServices
 90
        0
280
     0
281
     0
  0
CLASS
  1
AMDTINTERNALREACTOR
  2
AmdtInternalReactor
  3
AcMeServices
 90
        0
280
     0
281
     0
  0
CLASS
  1
ACMESTATEMGR
  2
AcMeStateMgr
  3
AcMeServices
 90
        0
280
     0
281
     0
  0
CLASS
  1
ACGREFMASTER
  2
AcGrefMaster
  3
AcAttribServices
 90
        0
280
     0
281
     0
  0
CLASS
  1
ACME_DATABASE
  2
AcMeDbDatabase
  3
AcMeServices
 90
        0
280
     0
281
     0
  0
CLASS
  1
ACRFINSADJUSTERMGR
  2
AcRfInsAdjusterMgr
  3
AcMeServices
 90
        0
280
     0
281
     0
  0
CLASS
  1
ACGREFACADMASTER
  2
AcGrefacadMaster
  3
AcGrefServices
 90
        0
280
     0
281
     0
  0
CLASS
  1
AMIMASTER
  2
AmiMaster
  3
AmiServices
 90
        0
280
     0
281
     0
  0
CLASS
  1
ACMDATADICTIONARY
  2
AcmDataDictionary
  3
"AcmSymBB|Product Description: AutoCAD Mechanical 2004 DX|Company: Autodesk"
 90
        0
280
     0
281
     0
  0
CLASS
  1
ACMDATAENTRYBLOCK
  2
AcmDataEntryBlock
  3
"AcmSymBB|Product Description: AutoCAD Mechanical 2004 DX|Company: Autodesk"
 90
        0
280
     0
281
     0
  0
CLASS
  1
ACIMSTRSYSVAR
  2
AcImStrSysVar
  3
AcMeServices
 90
        0
280
     0
281
     0
  0
CLASS
  1
ACMSTANDARDISO
  2
AcmStandardISO
  3
"Amdt_StdImp|Product Description: AutoCAD Mechanical 2004 DX|Company: Autodesk"
 90
        0
280
     0
281
     0
  0
CLASS
  1
AMGOBJPROPCFG
  2
AmgObjPropCfg
  3
"AmgLay|Product Description: AutoCAD Mechanical 2000|Company: Autodesk"
 90
        1
280
     0
281
     0
  0
CLASS
  1
AMDTEDGESTANDARDISO
  2
AmdtEdgeStdISO
  3
"Amdt_StdImp|Product Description: AutoCAD Mechanical 2004 DX|Company: Autodesk"
 90
    32768
280
     0
281
     0
  0
CLASS
  1
ACMSURFSTANDARDISO
  2
AcmSurfTextStdISO
  3
"Amdt_StdImp|Product Description: AutoCAD Mechanical 2004 DX|Company: Autodesk"
 90
        0
280
     0
281
     0
  0
CLASS
  1
ACMFCFSTANDARDISO
  2
AcmFCFStdISO
  3
"Amdt_StdImp|Product Description: AutoCAD Mechanical 2004 DX|Company: Autodesk"
 90
        0
280
     0
281
     0
  0
CLASS
  1
ACMWELDSTANDARDISO
  2
AcmWeldingStdISO
  3
"Amdt_StdImp|Product Description: AutoCAD Mechanical 2004 DX|Company: Autodesk"
 90
        0
280
     0
281
     0
  0
CLASS
  1
ACMIDSTANDARDISO
  2
AcmIdStdISO
  3
"Amdt_StdImp|Product Description: AutoCAD Mechanical 2004 DX|Company: Autodesk"
 90
        0
280
     0
281
     0
  0
CLASS
  1
ACMDATUMSTANDARDISO
  2
AcmDatumStdISO
  3
"Amdt_StdImp|Product Description: AutoCAD Mechanical 2004 DX|Company: Autodesk"
 90
        0
280
     0
281
     0
  0
CLASS
  1
ACMBOMSTANDARDISO
  2
AcmBOMStdISO
  3
"Amdt_StdImp|Product Description: AutoCAD Mechanical 2004 DX|Company: Autodesk"
 90
        0
280
     0
281
     0
  0
CLASS
  1
ACMDETAILSTANDARDISO
  2
AmdtDetailSymStdISO
  3
"Amdt_StdImp|Product Description: AutoCAD Mechanical 2004 DX|Company: Autodesk"
 90
        0
280
     0
281
     0
  0
CLASS
  1
ACMSECTIONSTANDARDISO
  2
AmdtSectionSymStdISO
  3
"Amdt_StdImp|Product Description: AutoCAD Mechanical 2004 DX|Company: Autodesk"
 90
        0
280
     0
281
     0
  0
CLASS
  1
ACMCENTERLINESTANDARDISO
  2
AmdtCenterLineStdISO
  3
"Amdt_StdImp|Product Description: AutoCAD Mechanical 2004 DX|Company: Autodesk"
 90
        0
280
     0
281
     0
  0
CLASS
  1
ACMNOTESTANDARDISO
  2
AmdtNoteStdISO
  3
"Amdt_StdImp|Product Description: AutoCAD Mechanical 2004 DX|Company: Autodesk"
 90
        0
280
     0
281
     0
  0
CLASS
  1
ACAMGLAYSTD
  2
AcAmgLayStd
  3
"AcAmgLayStd|Product Description: AutoCAD Mechanical 2000|Company: Autodesk"
 90
        0
280
     0
281
     0
  0
CLASS
  1
ACAMGDIMSTD
  2
AcAmgDimStd
  3
"AcAmgDimStd|Product Description: AutoCAD Mechanical 2000|Company: Autodesk"
 90
        0
280
     0
281
     0
  0
CLASS
  1
ACAMGHOLECHARTSTDISO
  2
AcAmgHoleChartStdISO
  3
ACMSYMBB_MODULE_NAME
 90
        0
280
     0
281
     0
  0
CLASS
  1
ACAMGTITLESTD
  2
AcAmgTitleStd
  3
"TITLEAPP"
 90
        0
280
     0
281
     0
  0
CLASS
  1
LAYER_INDEX
  2
AcDbLayerIndex
  3
ObjectDBX Classes
 90
        0
280
     0
281
     0
  0
CLASS
  1
IDBUFFER
  2
AcDbIdBuffer
  3
ObjectDBX Classes
 90
        0
280
     0
281
     0
  0
CLASS
  1
DICTIONARYVAR
  2
AcDbDictionaryVar
  3
ObjectDBX Classes
 90
        0
280
     0
281
     0
  0
CLASS
  1
AM_DRAWING_MGR
  2
AcDmDwgMgr
  3
AcMechDwgViewMgmt
 90
        0
280
     0
281
     0
  0
CLASS
  1
AM_DWG_DOCUMENT
  2
AcDmDwgDocument
  3
AcMechDwgViewMgmt
 90
        0
280
     0
281
     0
  0
CLASS
  1
AM_DWG_SHEET
  2
AcDmSheet
  3
AcMechDwgViewMgmt
 90
        0
280
     0
281
     0
  0
CLASS
  1
AM_VIEWDIMPARMAP
  2
AcDmViewDimParMap
  3
AcMechDwgViewMgmt
 90
        0
280
     0
281
     0
  0
CLASS
  1
AM_DWGMGR_NAME
  2
AcDmDwgMgrName
  3
AcMechDwgViewMgmt
 90
        0
280
     0
281
     0
  0
CLASS
  1
AMDTMENUSTATEMGR
  2
AmdtMenuStateMgr
  3
McadcomServices
 90
        0
280
     0
281
     0
  0
CLASS
  1
AMDTMCOMMENUSTATE
  2
AmdtMcomMenuState
  3
McadcomServices
 90
        0
280
     0
281
     0
  0
CLASS
  1
MAPIAMMOUDLE
  2
MApiAmModule
  3
MApiAmServices
 90
        0
280
     0
281
     0
  0
CLASS
  1
AMDTADMENUSTATE
  2
AmdtAdMenuState
  3
DesignerServices
 90
        0
280
     0
281
     0
  0
CLASS
  1
ADAPPL
  2
AcAdAppl
  3
DesignerServices
 90
        0
280
     0
281
     0
  0
CLASS
  1
DEPMGR
  2
AcAdDepMgr
  3
DesignerServices
 90
        0
280
     0
281
     0
  0
CLASS
  1
PARAMMGR
  2
AcAdParamMgr
  3
DesignerServices
 90
        0
280
     0
281
     0
  0
CLASS
  1
PARAMSCOPE
  2
AcAdParamScope
  3
DesignerServices
 90
        0
280
     0
281
     0
  0
CLASS
  1
NAMEDAPPL
  2
AcAdNamedAppl
  3
DesignerServices
 90
        0
280
     0
281
     0
  0
CLASS
  1
AMDTDMMENUSTATE
  2
AmdtDmMenuState
  3
AcMechDwgViewMgmt
 90
        0
280
     0
281
     0
  0
CLASS
  1
AMDTAMMENUSTATE
  2
AmdtAmMenuState
  3
DesignerAssemblies
 90
        0
280
     0
281
     0
  0
CLASS
  1
ACAMPROJECT
  2
AcAmProject
  3
DesignerAssemblies
 90
        0
280
     0
281
     0
  0
CLASS
  1
ACAMGRCOMPDEF
  2
AcAmGrCompDef
  3
DesignerAssemblies
 90
        0
280
     0
281
     0
  0
CLASS
  1
ACCMCONTEXT
  2
AcCmContext
  3
DesignerAssemblies
 90
        0
280
     0
281
     0
  0
CLASS
  1
ACAMCOMPDEF
  2
AcAmCompDef
  3
DesignerAssemblies
 90
        0
280
     0
281
     0
  0
CLASS
  1
ACAMCOMPDEFMGR
  2
AcAmCompDefMgr
  3
DesignerAssemblies
 90
        0
280
     0
281
     0
  0
CLASS
  1
AMCONTEXTMGR
  2
AcAmContextMgr
  3
DesignerAssemblies
 90
        0
280
     0
281
     0
  0
CLASS
  1
ACAMCONTEXTMODELER
  2
AcAmContextModeler
  3
DesignerAssemblies
 90
        0
280
     0
281
     0
  0
CLASS
  1
ACMTHREADLINESTANDARDISO
  2
AmdtThreadLineStdISO
  3
"Amdt_StdImp|Product Description: AutoCAD Mechanical 2004 DX|Company: Autodesk"
 90
        0
280
     0
281
     0
  0
CLASS
  1
CATALOGSTATE
  2
AcAmCatalogState
  3
DesignerAssemblies
 90
        0
280
     0
281
     0
  0
CLASS
  1
ACAMGRCOMPDEFSET
  2
AcAmGrCompDefSet
  3
DesignerAssemblies
 90
        0
280
     0
281
     0
  0
CLASS
  1
AMDTBROWSERDBTAB
  2
AmdtBrowserDbTab
  3
McadcomServices
 90
        0
280
     0
281
     0
  0
CLASS
  1
CBROWSERAPPOBJECT
  2
CBrowserAppObject
  3
McadcomServices
 90
        0
280
     0
281
     0
  0
CLASS
  1
DM_PLACEHOLDER
  2
AcDmSelsetPlaceholder
  3
AcMechDwgViewMgmt
 90
        0
280
     0
281
     0
  0
CLASS
  1
TABLESTYLE
  2
AcDbTableStyle
  3
ObjectDBX Classes
 90
     2047
280
     0
281
     0
  0
CLASS
  1
VAACXREFPANELOBJECT
  2
VaAcXREFPanelObject
  3
VAAC_ADDIN
 90
    32768
280
     0
281
     0
  0
CLASS
  1
VAACIMAGEINVENTORY
  2
VaAcImageInventory
  3
VAAC_ADDIN
 90
    32768
280
     0
281
     0
  0
CLASS
  1
AMDTNOTETEMPLATEDB
  2
AmdtNoteTemplateDB
  3
AMDT_STDIMP_MODULE_NAME
 90
        0
280
     0
281
     0
  0
CLASS
  1
ACMBOM
  2
AcmBom
  3
"AcmSymBB|Product Description: AutoCAD Mechanical 2004 DX|Company: Autodesk"
 90
    32768
280
     0
281
     0
  0
CLASS
  1
AMDTFORMULAUPDATEDISPATCHER
  2
AmdtFormulaUpdateDispatcher
  3
AcMeServices
 90
    32768
280
     0
281
     0
  0
CLASS
  1
ACMPARTLIST
  2
AcmPartList
  3
"AcmSymBB|Product Description: AutoCAD Mechanical 2004 DX|Company: Autodesk"
 90
    33791
280
     0
281
     1
  0
CLASS
  1
ACAMGFILTERDAT
  2
AcAmgFilterDat
  3
"AcadM|Product Description: AutoCAD Mechanical 2000|Company: Autodesk"
 90
    32768
280
     0
281
     0
  0
CLASS
  1
DIMASSOC
  2
AcDbDimAssoc
  3
"AcDbDimAssoc|Product Desc:     AcDim ARX App For Dimension|Company:          Autodesk, Inc.|WEB Address:      www.autodesk.com"
 90
        0
280
     0
281
     0
  0
CLASS
  1
AMDTNOTE
  2
AmdtNote
  3
"AcmSymBB|Product Description: AutoCAD Mechanical 2004 DX|Company: Autodesk"
 90
    33791
280
     0
281
     1
  0
CLASS
  1
AMDTEDGESTANDARDISO13715
  2
AmdtEdgeStdISO13715
  3
"Amdt_StdImp|Product Description: AutoCAD Mechanical 2004 DX|Company: Autodesk"
 90
        0
280
     0
281
     0
  0
CLASS
  1
ACRFATTGENMGR
  2
AcRfAttGeneralMgr
  3
AcAttribServices
 90
    32768
280
     0
281
     0
  0
CLASS
  1
ASAPP
  2
AcAsAppObject
  3
AutoSurfServices
 90
        0
280
     0
281
     0
  0
CLASS
  1
IM_STATIC_MAN
  2
AcImStaticVarManager
  3
AcMeServices
 90
        0
280
     0
281
     0
  0
CLASS
  1
ACIMDBLSTATICVAR
  2
AcImDblStaticVar
  3
AcMeServices
 90
        0
280
     0
281
     0
  0
CLASS
  1
ACIMSTRSTATICVAR
  2
AcImStrStaticVar
  3
AcMeServices
 90
        0
280
     0
281
     0
  0
CLASS
  1
ACIMINTSTATICVAR
  2
AcImIntStaticVar
  3
AcMeServices
 90
        0
280
     0
281
     0
  0
CLASS
  1
ACASGREFMASTER
  2
AcAsGrefMaster
  3
AutoSurfResolverServices
 90
        0
280
     0
281
     0
  0
CLASS
  1
ACADGREFMODULE
  2
AcAdGrefModule
  3
AdGrefServices
 90
        0
280
     0
281
     0
  0
CLASS
  1
AMDTMAPISURFMOUDULE
  2
AmdtMApiSurfModule
  3
MApiSurfServices
 90
        0
280
     0
281
     0
  0
CLASS
  1
MAPIADMODULE
  2
MApiAdModule
  3
MApiAdServices
 90
        0
280
     0
281
     0
  0
ENDSEC
  0
SECTION
  2
TABLES
  0
TABLE
  2
VPORT
  5
8
330
0
100
AcDbSymbolTable
 70
    22
  0
VPORT
  5
610D
330
8
100
AcDbSymbolTableRecord
100
AcDbViewportTableRecord
  2
*Active
 70
     0
 10
0.0
 20
0.0
 11
1.0
 21
1.0
 12
15.14729081303357
 22
65.79326459381125
 13
0.0
 23
0.0
 14
3.75
 24
3.75
 15
15.0
 25
15.0
 16
0.0
 26
0.0
 36
1.0
 17
475.2465220475392
 27
286.8869866440797
 37
0.0
 40
308.812688516022
 41
1.295739348370927
 42
50.0
 43
0.0
 44
0.0
 50
0.0
 51
0.0
 71
     0
 72
  1000
 73
     1
 74
     3
 75
     0
 76
     0
 77
     0
 78
     0
281
     0
 65
     0
110
0.0
120
0.0
130
0.0
111
1.0
121
0.0
131
0.0
112
0.0
122
1.0
132
0.0
 79
     0
146
0.0
  0
ENDTAB
  0
TABLE
  2
LTYPE
  5
5
330
0
100
AcDbSymbolTable
 70
    17
  0
LTYPE
  5
14
330
5
100
AcDbSymbolTableRecord
100
AcDbLinetypeTableRecord
  2
ByBlock
 70
     0
  3

 72
    65
 73
     0
 40
0.0
  0
LTYPE
  5
15
330
5
100
AcDbSymbolTableRecord
100
AcDbLinetypeTableRecord
  2
ByLayer
 70
     0
  3

 72
    65
 73
     0
 40
0.0
  0
LTYPE
  5
16
330
5
100
AcDbSymbolTableRecord
100
AcDbLinetypeTableRecord
  2
Continuous
 70
     0
  3
Solid line
 72
    65
 73
     0
 40
0.0
  0
LTYPE
  5
64
330
5
100
AcDbSymbolTableRecord
100
AcDbLinetypeTableRecord
  2
AM_ISO02W050
 70
     0
  3
__ __ __ __ __ __ __ __ __ __ __ __ __ __ __
 72
    65
 73
     2
 40
7.5
 49
6.0
 74
     0
 49
-1.5
 74
     0
  0
LTYPE
  5
65
330
5
100
AcDbSymbolTableRecord
100
AcDbLinetypeTableRecord
  2
AM_ISO08W050
 70
     0
  3
____ . ____ . ____ . ____ . ____ . ____ . ____
 72
    65
 73
     4
 40
18.0
 49
12.0
 74
     0
 49
-1.5
 74
     0
 49
3.0
 74
     0
 49
-1.5
 74
     0
  0
LTYPE
  5
66
330
5
100
AcDbSymbolTableRecord
100
AcDbLinetypeTableRecord
  2
AM_ISO09W050
 70
     0
  3
_____ . . _____ . . _____ . . ____ .. ____
 72
    65
 73
     6
 40
22.5
 49
12.0
 74
     0
 49
-1.5
 74
     0
 49
3.0
 74
     0
 49
-1.5
 74
     0
 49
3.0
 74
     0
 49
-1.5
 74
     0
  0
LTYPE
  5
67
330
5
100
AcDbSymbolTableRecord
100
AcDbLinetypeTableRecord
  2
Amconstr
 70
     0
  3
_______________________
 72
    65
 73
     2
 40
9999.0
 49
9999.0
 74
     0
 49
0.0
 74
     0
  0
LTYPE
  5
68
330
5
100
AcDbSymbolTableRecord
100
AcDbLinetypeTableRecord
  2
AM_ISO08W050x2
 70
     0
  3
__ . __ . __ . __ . __ . __
 72
    65
 73
     4
 40
9.0
 49
6.0
 74
     0
 49
-0.75
 74
     0
 49
1.5
 74
     0
 49
-0.75
 74
     0
  0
LTYPE
  5
69
330
5
100
AcDbSymbolTableRecord
100
AcDbLinetypeTableRecord
  2
AM_ISO02W050x2
 70
     0
  3
 _ _ _ _ _ _ _ _ _ _ _ _
 72
    65
 73
     2
 40
3.75
 49
3.0
 74
     0
 49
-0.75
 74
     0
  0
LTYPE
  5
6C
330
5
100
AcDbSymbolTableRecord
100
AcDbLinetypeTableRecord
  2
Amzigzag
 70
     0
  3
/\/-/\/-/\/-/\/-/\/-/\/
 72
    65
 73
     2
 40
11.0001
 49
0.0001
 74
     4
 75
   135
340
6B
 46
0.04
 50
0.0
 44
0.0
 45
0.0
 49
-11.0
 74
     0
  0
LTYPE
  5
7A
330
5
100
AcDbSymbolTableRecord
100
AcDbLinetypeTableRecord
  2
ACISOWELD
 70
     0
  3
_ _ _ _ _
 72
    65
 73
     2
 40
2.0
 49
2.0
 74
     0
 49
-1.0
 74
     0
  0
LTYPE
  5
7B
330
5
100
AcDbSymbolTableRecord
100
AcDbLinetypeTableRecord
  2
ACISOTGB
 70
     0
  3
__ . . __ . .
 72
    65
 73
     6
 40
9.0
 49
4.0
 74
     0
 49
-1.0
 74
     0
 49
1.0
 74
     0
 49
-1.0
 74
     0
 49
1.0
 74
     0
 49
-1.0
 74
     0
  0
LTYPE
  5
7C
330
5
100
AcDbSymbolTableRecord
100
AcDbLinetypeTableRecord
  2
ACISOTGL
 70
     0
  3
_ _ _ _ _
 72
    65
 73
     2
 40
3.0
 49
2.0
 74
     0
 49
-1.0
 74
     0
  0
LTYPE
  5
7E
330
5
100
AcDbSymbolTableRecord
100
AcDbLinetypeTableRecord
  2
CENTER
 70
     0
  3
__ . __
 72
    65
 73
     4
 40
7.0
 49
4.0
 74
     0
 49
-1.0
 74
     0
 49
1.0
 74
     0
 49
-1.0
 74
     0
  0
LTYPE
  5
D8
330
5
100
AcDbSymbolTableRecord
100
AcDbLinetypeTableRecord
  2
HIDDEN
 70
     0
  3
Hidden __ __ __ __ __ __ __ __ __ __ __ __ __ _
 72
    65
 73
     2
 40
9.524999999999998
 49
6.349999999999999
 74
     0
 49
-3.174999999999999
 74
     0
  0
LTYPE
  5
D9
330
5
100
AcDbSymbolTableRecord
100
AcDbLinetypeTableRecord
  2
PHANTOM2
 70
     0
  3
Phantom (.5x) ___ _ _ ___ _ _ ___ _ _ ___ _ _
 72
    65
 73
     6
 40
31.75
 49
15.875
 74
     0
 49
-3.174999999999999
 74
     0
 49
3.174999999999999
 74
     0
 49
-3.174999999999999
 74
     0
 49
3.174999999999999
 74
     0
 49
-3.174999999999999
 74
     0
  0
LTYPE
  5
3AFB
330
5
100
AcDbSymbolTableRecord
100
AcDbLinetypeTableRecord
  2
HIDDEN2
 70
     0
  3
Hidden (.5x) _ _ _ _ _ _ _ _ _ _ _ _ _ _ _ _ _
 72
    65
 73
     2
 40
0.1875
 49
0.125
 74
     0
 49
-0.0625
 74
     0
  0
LTYPE
  5
3D45
330
5
100
AcDbSymbolTableRecord
100
AcDbLinetypeTableRecord
  2
ASULTYPE
 70
     0
  3
實線
 72
    65
 73
     2
 40
3.0
 49
2.5
 74
     0
 49
0.5
 74
     0
  0
LTYPE
  5
3D46
330
5
100
AcDbSymbolTableRecord
100
AcDbLinetypeTableRecord
  2
ASVLTYPE
 70
     0
  3
__ __ __ __ __ __ __ __ __ __ __ __ __ __ __ __ __ __ __ __ __
 72
    65
 73
     2
 40
0.75
 49
0.5
 74
     0
 49
-0.25
 74
     0
  0
ENDTAB
  0
TABLE
  2
LAYER
  5
2
102
{ACAD_XDICTIONARY
360
3F9
102
}
330
0
100
AcDbSymbolTable
 70
     9
  0
LAYER
  5
10
330
2
100
AcDbSymbolTableRecord
100
AcDbLayerTableRecord
  2
0
 70
     0
 62
     7
  6
Continuous
370
    -3
390
F
  0
LAYER
  5
ACB
330
2
100
AcDbSymbolTableRecord
100
AcDbLayerTableRecord
  2
AM_VIS
 70
     0
 62
     7
  6
Continuous
370
    50
390
F
  0
LAYER
  5
ACC
330
2
100
AcDbSymbolTableRecord
100
AcDbLayerTableRecord
  2
AM_7
 70
     0
 62
     1
  6
AM_ISO08W050x2
370
    25
390
F
  0
LAYER
  5
13A4
330
2
100
AcDbSymbolTableRecord
100
AcDbLayerTableRecord
  2
Defpoints
 70
     0
 62
     7
  6
Continuous
290
     0
370
    -3
390
F
  0
LAYER
  5
16FA
330
2
100
AcDbSymbolTableRecord
100
AcDbLayerTableRecord
  2
LOGO
 70
     0
 62
     7
  6
Continuous
370
    -3
390
F
  0
LAYER
  5
3455
330
2
100
AcDbSymbolTableRecord
100
AcDbLayerTableRecord
  2
AM_4
 70
     0
 62
     3
  6
ASVLTYPE
370
    25
390
F
  0
LAYER
  5
3456
330
2
100
AcDbSymbolTableRecord
100
AcDbLayerTableRecord
  2
AM_REFDIM
 70
     0
 62
     5
  6
Continuous
370
    25
390
F
  0
LAYER
  5
3AFC
330
2
100
AcDbSymbolTableRecord
100
AcDbLayerTableRecord
  2
AM_HID
 70
     0
 62
     7
  6
AM_ISO02W050
370
    25
390
F
  0
LAYER
  5
3EFF
330
2
100
AcDbSymbolTableRecord
100
AcDbLayerTableRecord
  2
AM_5
 70
     0
 62
     3
  6
Continuous
370
    25
390
F
  0
ENDTAB
  0
TABLE
  2
STYLE
  5
3
330
0
100
AcDbSymbolTable
 70
     6
  0
STYLE
  5
11
330
3
100
AcDbSymbolTableRecord
100
AcDbTextStyleTableRecord
  2
STANDARD
 70
     0
 40
0.0
 41
1.0
 50
0.0
 71
     0
 42
3.0
  3
ISOCP.SHX
  4
CHINESET.SHX
  0
STYLE
  5
6B
330
3
100
AcDbSymbolTableRecord
100
AcDbTextStyleTableRecord
  2

 70
     1
 40
0.0
 41
1.0
 50
0.0
 71
     0
 42
2.5
  3
ltypeshp.shx
  4

  0
STYLE
  5
6D
330
3
100
AcDbSymbolTableRecord
100
AcDbTextStyleTableRecord
  2
ACISOTS
 70
     0
 40
1.0
 41
1.0
 50
0.0
 71
     0
 42
1.0
  3
isocp.shx
  4
chineset.shx
  0
STYLE
  5
79
330
3
100
AcDbSymbolTableRecord
100
AcDbTextStyleTableRecord
  2
ACISOGDT
 70
     0
 40
0.0
 41
1.0
 50
0.0
 71
     0
 42
2.5
  3
amgdt.shx
  4
chineset.shx
  0
STYLE
  5
16FB
330
3
100
AcDbSymbolTableRecord
100
AcDbTextStyleTableRecord
  2
CHINESET
 70
     0
 40
0.0
 41
1.0
 50
0.0
 71
     0
 42
3.0
  3
simplex.shx
  4
CHINESET.SHX
  0
STYLE
  5
3457
330
3
100
AcDbSymbolTableRecord
100
AcDbTextStyleTableRecord
  2
DAYUS
 70
     0
 40
0.0
 41
1.0
 50
0.0
 71
     0
 42
2.5
  3
simplex
  4
dayus
  0
ENDTAB
  0
TABLE
  2
VIEW
  5
6
330
0
100
AcDbSymbolTable
 70
     0
  0
ENDTAB
  0
TABLE
  2
UCS
  5
7
330
0
100
AcDbSymbolTable
 70
     0
  0
ENDTAB
  0
TABLE
  2
APPID
  5
9
330
0
100
AcDbSymbolTable
 70
    23
  0
APPID
  5
12
330
9
100
AcDbSymbolTableRecord
100
AcDbRegAppTableRecord
  2
ACAD
 70
     0
  0
APPID
  5
46
330
9
100
AcDbSymbolTableRecord
100
AcDbRegAppTableRecord
  2
MCAD_NO_VIS
 70
     0
  0
APPID
  5
47
330
9
100
AcDbSymbolTableRecord
100
AcDbRegAppTableRecord
  2
ACAD_TEMP_GRAPHIC
 70
     0
  0
APPID
  5
58
330
9
100
AcDbSymbolTableRecord
100
AcDbRegAppTableRecord
  2
ACATTRIBSERVICES
 70
     0
  0
APPID
  5
EE
330
9
100
AcDbSymbolTableRecord
100
AcDbRegAppTableRecord
  2
AD_DRAW
 70
     0
  0
APPID
  5
10C
330
9
100
AcDbSymbolTableRecord
100
AcDbRegAppTableRecord
  2
DESIGNERASSEMBLIES
 70
     0
  0
APPID
  5
111
330
9
100
AcDbSymbolTableRecord
100
AcDbRegAppTableRecord
  2
ACADM_DIM_EDIT
 70
     0
  0
APPID
  5
112
330
9
100
AcDbSymbolTableRecord
100
AcDbRegAppTableRecord
  2
AMDT_DM_ADJ
 70
     0
  0
APPID
  5
22C
330
9
100
AcDbSymbolTableRecord
100
AcDbRegAppTableRecord
  2
ACAD_DSTYLE_DIMTEXT_FILL
 70
     0
  0
APPID
  5
452
330
9
100
AcDbSymbolTableRecord
100
AcDbRegAppTableRecord
  2
GENIUS_GENOENT_13
 70
     0
  0
APPID
  5
453
330
9
100
AcDbSymbolTableRecord
100
AcDbRegAppTableRecord
  2
GENIUS_GENOBJ-N-CRS_13
 70
     0
  0
APPID
  5
454
330
9
100
AcDbSymbolTableRecord
100
AcDbRegAppTableRecord
  2
GENIUS_GENOLIS_13
 70
     0
  0
APPID
  5
455
330
9
100
AcDbSymbolTableRecord
100
AcDbRegAppTableRecord
  2
GENIUS_GENODEF_13
 70
     0
  0
APPID
  5
456
330
9
100
AcDbSymbolTableRecord
100
AcDbRegAppTableRecord
  2
GENIUS_GENOREF_13
 70
     0
  0
APPID
  5
6F3
330
9
100
AcDbSymbolTableRecord
100
AcDbRegAppTableRecord
  2
ACAD_PSEXT
 70
     0
  0
APPID
  5
808
330
9
100
AcDbSymbolTableRecord
100
AcDbRegAppTableRecord
  2
GENIUS_GENDTOL_13
 70
     0
  0
APPID
  5
16FC
330
9
100
AcDbSymbolTableRecord
100
AcDbRegAppTableRecord
  2
GENIUS_GENREC_14
 70
     0
  0
APPID
  5
16FD
330
9
100
AcDbSymbolTableRecord
100
AcDbRegAppTableRecord
  2
GENIUS_GENOBJ-N-REC_13
 70
     0
  0
APPID
  5
268C
330
9
100
AcDbSymbolTableRecord
100
AcDbRegAppTableRecord
  2
GENIUS_GENDIMSH_14
 70
     0
  0
APPID
  5
3991
330
9
100
AcDbSymbolTableRecord
100
AcDbRegAppTableRecord
  2
GENIUS_GENDIM_13
 70
     0
  0
APPID
  5
3992
330
9
100
AcDbSymbolTableRecord
100
AcDbRegAppTableRecord
  2
GENIUS_GE3DTOL_13
 70
     0
  0
APPID
  5
3A12
330
9
100
AcDbSymbolTableRecord
100
AcDbRegAppTableRecord
  2
ASURF_PCURVE_APPNAME
 70
     0
  0
APPID
  5
3A17
330
9
100
AcDbSymbolTableRecord
100
AcDbRegAppTableRecord
  2
AMG_3D2D_5.0
 70
     0
  0
ENDTAB
  0
TABLE
  2
DIMSTYLE
  5
A
330
0
100
AcDbSymbolTable
 70
    10
100
AcDbDimStyleTable
 71
     3
340
81
340
8B
340
86
  0
DIMSTYLE
105
81
330
A
100
AcDbSymbolTableRecord
100
AcDbDimStyleTableRecord
  2
AM_ISO
 70
     0
  4
"
 40
1.5
 41
3.0
 42
1.0
 43
8.0
 44
1.0
 47
0.1
 48
0.1
 73
     0
 74
     0
 77
     1
 78
     8
 79
     2
140
3.5
141
0.0
143
0.0393701
146
0.6
147
1.0
172
     1
176
   256
177
   256
178
   256
271
     2
272
     2
283
     0
284
     8
340
11
371
    -1
372
    -1
  0
DIMSTYLE
105
82
330
A
100
AcDbSymbolTableRecord
100
AcDbDimStyleTableRecord
  2
AM_ISO$3
 70
     0
  4
"
 40
1.5
 41
3.0
 42
1.0
 43
8.0
 44
1.0
 47
0.1
 48
0.1
 73
     0
 77
     1
 78
     8
 79
     2
140
3.5
141
0.0
143
0.0393701
146
0.6
147
1.0
176
   256
177
   256
178
   256
271
     2
272
     2
283
     0
284
     8
288
     1
289
     0
340
11
371
    -1
372
    -1
  0
DIMSTYLE
105
83
330
A
100
AcDbSymbolTableRecord
100
AcDbDimStyleTableRecord
  2
AM_ISO$4
 70
     0
  4
"
 40
1.5
 41
3.0
 42
1.0
 43
8.0
 44
1.0
 47
0.1
 48
0.1
 73
     0
 77
     1
 78
     8
 79
     2
140
3.5
141
0.0
143
0.0393701
146
0.6
147
1.0
176
   256
177
   256
178
   256
271
     2
272
     2
283
     0
284
     8
288
     1
289
     0
340
11
371
    -1
372
    -1
  0
DIMSTYLE
105
84
330
A
100
AcDbSymbolTableRecord
100
AcDbDimStyleTableRecord
  2
AM_ISO$6
 70
     0
  4
"
 40
1.5
 41
3.0
 42
1.0
 43
8.0
 44
1.0
 47
0.1
 48
0.1
 73
     0
 74
     0
 78
     8
 79
     2
140
3.5
141
0.0
143
0.0393701
146
0.6
147
1.0
172
     1
176
   256
177
   256
178
   256
271
     2
272
     2
283
     0
284
     8
340
11
371
    -1
372
    -1
  0
DIMSTYLE
105
85
330
A
100
AcDbSymbolTableRecord
100
AcDbDimStyleTableRecord
  2
AM_ISO$7
 70
     0
  4
"
 40
1.5
 41
3.0
 42
1.0
 43
8.0
 44
1.0
 47
0.1
 48
0.1
 73
     0
 74
     0
 77
     1
 78
     8
 79
     2
140
3.5
141
0.0
143
0.0393701
146
0.6
147
1.0
172
     1
176
   256
177
   256
178
   256
271
     2
272
     2
283
     0
284
     8
340
11
371
    -1
372
    -1
  0
DIMSTYLE
105
86
330
A
100
AcDbSymbolTableRecord
100
AcDbDimStyleTableRecord
  2
AM_ISO$SF
 70
     0
  4
"
 40
1.5
 41
2.5
 42
1.0
 43
10.0
 44
1.0
 47
0.1
 48
0.1
 73
     0
 74
     0
 75
     1
 76
     1
 77
     1
 78
     8
 79
     2
140
3.5
141
0.0
143
0.0393701
146
0.71
147
1.5
172
     1
176
   256
177
   256
178
     2
271
     2
272
     3
274
     4
283
     0
284
     8
340
11
371
    -1
372
    -1
  0
DIMSTYLE
105
8B
330
A
100
AcDbSymbolTableRecord
100
AcDbDimStyleTableRecord
  2
AM_ISO$SH
 70
     0
  4
"
 40
1.5
 41
2.5
 42
1.0
 43
10.0
 44
1.0
 47
0.1
 48
0.1
 73
     0
 74
     0
 75
     1
 76
     1
 77
     1
 78
     8
 79
     2
140
3.5
141
0.0
143
0.0393701
144
2.0
146
0.71
147
1.5
172
     1
173
     1
176
   256
177
   256
178
     2
271
     2
272
     3
274
     4
283
     0
284
     8
340
11
343
87
371
    -1
372
    -1
  0
DIMSTYLE
105
40B
102
{ACAD_REACTORS
330
5E49
330
5EBF
330
5E99
330
5E6F
330
5EE9
330
5F81
330
5F5B
330
5F35
330
5F0F
330
60E1
102
}
330
A
100
AcDbSymbolTableRecord
100
AcDbDimStyleTableRecord
  2
AM_ISO$0
 70
     0
  4
"
 40
1.5
 41
3.0
 42
1.0
 43
8.0
 44
1.0
 47
0.1
 48
0.1
 73
     0
 74
     0
 77
     1
 78
     8
 79
     2
140
3.5
141
0.0
143
0.0393701
146
0.6
147
1.0
172
     1
176
   256
177
   256
178
   256
271
     2
272
     2
283
     0
284
     8
340
11
371
    -1
372
    -1
  0
DIMSTYLE
105
3AFD
330
A
100
AcDbSymbolTableRecord
100
AcDbDimStyleTableRecord
  2
AM_ANSI$0
 70
     0
  4
"
 40
0.8
 41
3.0
 42
1.5
 43
6.4
 44
2.0
 47
0.1
 48
0.1
 73
     0
 74
     0
 77
     3
 78
     8
 79
     2
140
3.0
141
0.0
143
0.0393701
146
0.6
147
0.8
172
     1
176
   256
177
   256
178
   256
271
     2
272
     2
284
     8
340
3457
371
    -1
372
    -1
  0
DIMSTYLE
105
3D53
330
A
100
AcDbSymbolTableRecord
100
AcDbDimStyleTableRecord
  2
ISO-25
 70
     0
 41
2.5
 42
0.625
 43
3.75
 44
1.25
 73
     0
 74
     0
 77
     1
 78
     8
140
2.5
141
2.5
143
0.03937007874016
147
0.625
171
     3
172
     1
271
     2
272
     2
274
     3
278
    44
283
     0
284
     8
340
11
  0
ENDTAB
  0
TABLE
  2
BLOCK_RECORD
  5
1
330
0
100
AcDbSymbolTable
 70
    24
  0
BLOCK_RECORD
  5
1F
102
{ACAD_XDICTIONARY
360
8F
102
}
330
1
100
AcDbSymbolTableRecord
100
AcDbBlockTableRecord
  2
*Model_Space
340
22
  0
BLOCK_RECORD
  5
1B
330
1
100
AcDbSymbolTableRecord
100
AcDbBlockTableRecord
  2
*Paper_Space
340
1E
  0
BLOCK_RECORD
  5
23
330
1
100
AcDbSymbolTableRecord
100
AcDbBlockTableRecord
  2
*Paper_Space0
340
26
  0
BLOCK_RECORD
  5
87
330
1
100
AcDbSymbolTableRecord
100
AcDbBlockTableRecord
  2
GENAXEH
340
0
  0
BLOCK_RECORD
  5
3AEA
330
1
100
AcDbSymbolTableRecord
100
AcDbBlockTableRecord
  2
GENDOT
340
0
  0
BLOCK_RECORD
  5
4CB8
330
1
100
AcDbSymbolTableRecord
100
AcDbBlockTableRecord
  2
SW_CENTERMARKSYMBOL_0
340
0
  0
BLOCK_RECORD
  5
5E4A
330
1
100
AcDbSymbolTableRecord
100
AcDbBlockTableRecord
  2
*D14
340
0
  0
BLOCK_RECORD
  5
5E70
330
1
100
AcDbSymbolTableRecord
100
AcDbBlockTableRecord
  2
*D15
340
0
  0
BLOCK_RECORD
  5
5E9A
330
1
100
AcDbSymbolTableRecord
100
AcDbBlockTableRecord
  2
*D16
340
0
  0
BLOCK_RECORD
  5
5EC0
330
1
100
AcDbSymbolTableRecord
100
AcDbBlockTableRecord
  2
*D17
340
0
  0
BLOCK_RECORD
  5
5EEA
330
1
100
AcDbSymbolTableRecord
100
AcDbBlockTableRecord
  2
*D18
340
0
  0
BLOCK_RECORD
  5
5F10
330
1
100
AcDbSymbolTableRecord
100
AcDbBlockTableRecord
  2
*D19
340
0
  0
BLOCK_RECORD
  5
5F36
330
1
100
AcDbSymbolTableRecord
100
AcDbBlockTableRecord
  2
*D20
340
0
  0
BLOCK_RECORD
  5
5F5C
330
1
100
AcDbSymbolTableRecord
100
AcDbBlockTableRecord
  2
*D21
340
0
  0
BLOCK_RECORD
  5
5F82
330
1
100
AcDbSymbolTableRecord
100
AcDbBlockTableRecord
  2
*D22
340
0
  0
BLOCK_RECORD
  5
60E2
330
1
100
AcDbSymbolTableRecord
100
AcDbBlockTableRecord
  2
*D23
340
0
  0
ENDTAB
  0
ENDSEC
  0
SECTION
  2
BLOCKS
  0
BLOCK
  5
20
330
1F
100
AcDbEntity
  8
0
100
AcDbBlockBegin
  2
*Model_Space
 70
     0
 10
0.0
 20
0.0
 30
0.0
  3
*Model_Space
  1

  0
ENDBLK
  5
21
330
1F
100
AcDbEntity
  8
0
100
AcDbBlockEnd
  0
BLOCK
  5
1C
330
1B
100
AcDbEntity
 67
     1
  8
0
100
AcDbBlockBegin
  2
*Paper_Space
 70
     0
 10
0.0
 20
0.0
 30
0.0
  3
*Paper_Space
  1

  0
ENDBLK
  5
1D
330
1B
100
AcDbEntity
 67
     1
  8
0
100
AcDbBlockEnd
  0
BLOCK
  5
24
330
23
100
AcDbEntity
  8
0
100
AcDbBlockBegin
  2
*Paper_Space0
 70
     0
 10
0.0
 20
0.0
 30
0.0
  3
*Paper_Space0
  1

  0
ENDBLK
  5
25
330
23
100
AcDbEntity
  8
0
100
AcDbBlockEnd
  0
BLOCK
  5
89
330
87
100
AcDbEntity
  8
0
100
AcDbBlockBegin
  2
GENAXEH
 70
     0
 10
0.0
 20
0.0
 30
0.0
  3
GENAXEH
  1

  0
LINE
  5
88
330
87
100
AcDbEntity
  8
0
100
AcDbLine
 10
-1.0
 20
0.0
 30
0.0
 11
1.0
 21
0.0
 31
0.0
  0
ENDBLK
  5
8A
330
87
100
AcDbEntity
  8
0
100
AcDbBlockEnd
  0
BLOCK
  5
3AEB
330
3AEA
100
AcDbEntity
  8
0
100
AcDbBlockBegin
  2
GENDOT
 70
     0
 10
0.0
 20
0.0
 30
0.0
  3
GENDOT
  1

  0
LINE
  5
3AEC
330
3AEA
100
AcDbEntity
  8
0
100
AcDbLine
 10
0.0
 20
0.0
 30
0.0
 11
-1.0
 21
0.0
 31
0.0
  0
LWPOLYLINE
  5
3AED
330
3AEA
100
AcDbEntity
  8
0
100
AcDbPolyline
 90
        2
 70
     1
 43
0.25
 10
-0.125
 20
0.0
 42
1.0
 10
0.125
 20
0.0
 42
1.0
  0
ENDBLK
  5
3AEE
330
3AEA
100
AcDbEntity
  8
0
100
AcDbBlockEnd
  0
BLOCK
  5
4CB9
330
4CB8
100
AcDbEntity
  8
0
100
AcDbBlockBegin
  2
SW_CENTERMARKSYMBOL_0
 70
     0
 10
0.0
 20
0.0
 30
0.0
  3
SW_CENTERMARKSYMBOL_0
  1

  0
LINE
  5
4CBA
330
4CB8
100
AcDbEntity
  8
0
  6
Continuous
 62
     0
370
     0
100
AcDbLine
 10
0.0
 20
0.0
 30
0.0
 11
0.0
 21
2.500000000000002
 31
0.0
  0
LINE
  5
4CBB
330
4CB8
100
AcDbEntity
  8
0
  6
Continuous
 62
     0
370
     0
100
AcDbLine
 10
0.0
 20
0.0
 30
0.0
 11
-2.500000000000002
 21
0.0
 31
0.0
  0
LINE
  5
4CBC
330
4CB8
100
AcDbEntity
  8
0
  6
Continuous
 62
     0
370
     0
100
AcDbLine
 10
0.0
 20
0.0
 30
0.0
 11
0.0
 21
-2.500000000000002
 31
0.0
  0
LINE
  5
4CBD
330
4CB8
100
AcDbEntity
  8
0
  6
Continuous
 62
     0
370
     0
100
AcDbLine
 10
0.0
 20
0.0
 30
0.0
 11
2.500000000000002
 21
0.0
 31
0.0
  0
LINE
  5
4CBE
330
4CB8
100
AcDbEntity
  8
0
  6
Continuous
 62
     0
370
     0
100
AcDbLine
 10
0.0
 20
5.000000000000004
 30
0.0
 11
0.0
 21
11.04596669241484
 31
0.0
  0
LINE
  5
4CBF
330
4CB8
100
AcDbEntity
  8
0
  6
Continuous
 62
     0
370
     0
100
AcDbLine
 10
-5.000000000000004
 20
0.0
 30
0.0
 11
-11.04596669241484
 21
0.0
 31
0.0
  0
LINE
  5
4CC0
330
4CB8
100
AcDbEntity
  8
0
  6
Continuous
 62
     0
370
     0
100
AcDbLine
 10
0.0
 20
-4.999999999999976
 30
0.0
 11
0.0
 21
-11.04596669241484
 31
0.0
  0
LINE
  5
4CC1
330
4CB8
100
AcDbEntity
  8
0
  6
Continuous
 62
     0
370
     0
100
AcDbLine
 10
5.000000000000004
 20
0.0
 30
0.0
 11
11.04596669241482
 21
0.0
 31
0.0
  0
ENDBLK
  5
4CC2
330
4CB8
100
AcDbEntity
  8
0
100
AcDbBlockEnd
  0
BLOCK
  5
5E54
330
5E4A
100
AcDbEntity
  8
0
100
AcDbBlockBegin
  2
*D14
 70
     1
 10
0.0
 20
0.0
 30
0.0
  3
*D14
  1

  0
LINE
  5
6062
330
5E4A
100
AcDbEntity
  8
AM_REFDIM
100
AcDbLine
 10
423.9311778519914
 20
371.2228769519701
 30
0.0
 11
423.9311778519914
 21
417.2319932512404
 31
0.0
  0
LINE
  5
6063
330
5E4A
100
AcDbEntity
  8
AM_REFDIM
100
AcDbLine
 10
479.949408430532
 20
371.2228769519701
 30
0.0
 11
479.949408430532
 21
417.2319932512404
 31
0.0
  0
LINE
  5
6064
330
5E4A
100
AcDbEntity
  8
AM_REFDIM
100
AcDbLine
 10
425.7311778519913
 20
416.6319932512404
 30
0.0
 11
478.149408430532
 21
416.6319932512404
 31
0.0
  0
SOLID
  5
6065
330
5E4A
100
AcDbEntity
  8
AM_REFDIM
100
AcDbTrace
 10
425.7311778519913
 20
416.9319932512404
 30
0.0
 11
425.7311778519913
 21
416.3319932512404
 31
0.0
 12
423.9311778519914
 22
416.6319932512404
 32
0.0
 13
423.9311778519914
 23
416.6319932512404
 33
0.0
  0
SOLID
  5
6066
330
5E4A
100
AcDbEntity
  8
AM_REFDIM
100
AcDbTrace
 10
478.149408430532
 20
416.9319932512404
 30
0.0
 11
478.149408430532
 21
416.3319932512404
 31
0.0
 12
479.949408430532
 22
416.6319932512404
 32
0.0
 13
479.949408430532
 23
416.6319932512404
 33
0.0
  0
MTEXT
  5
6067
330
5E4A
100
AcDbEntity
  8
AM_REFDIM
100
AcDbMText
 10
451.9402931412616
 20
418.2819932512404
 30
0.0
 40
2.1
 41
0.0
 71
     5
 72
     1
  1
56
 73
     1
 44
1.0
1001
ACAD
1000
MTEXTBEGIN
1070
    73
1070
     1
1070
    44
1040
1.0
1070
    74
1070
     0
1000
MTEXTEND
  0
POINT
  5
6068
330
5E4A
100
AcDbEntity
  8
Defpoints
 62
     0
100
AcDbPoint
 10
423.9311778519914
 20
370.6228769519701
 30
0.0
  0
POINT
  5
6069
330
5E4A
100
AcDbEntity
  8
Defpoints
 62
     0
100
AcDbPoint
 10
479.949408430532
 20
370.6228769519701
 30
0.0
  0
POINT
  5
606A
330
5E4A
100
AcDbEntity
  8
Defpoints
 62
     0
100
AcDbPoint
 10
479.949408430532
 20
416.6319932512404
 30
0.0
  0
ENDBLK
  5
5E55
330
5E4A
100
AcDbEntity
  8
0
100
AcDbBlockEnd
  0
BLOCK
  5
5E7C
330
5E70
100
AcDbEntity
  8
0
100
AcDbBlockBegin
  2
*D15
 70
     1
 10
0.0
 20
0.0
 30
0.0
  3
*D15
  1

  0
LINE
  5
606B
330
5E70
100
AcDbEntity
  8
AM_REFDIM
100
AcDbLine
 10
472.2097695575768
 20
288.5089593384799
 30
0.0
 11
481.1302364685917
 21
288.5089593384799
 31
0.0
  0
LINE
  5
606C
330
5E70
100
AcDbEntity
  8
AM_REFDIM
100
AcDbLine
 10
471.5174618652691
 20
276.6326038126875
 30
0.0
 11
481.1302364685917
 21
276.6326038126875
 31
0.0
  0
LINE
  5
606D
330
5E70
100
AcDbEntity
  8
AM_REFDIM
100
AcDbLine
 10
480.5302364685917
 20
286.7089593384799
 30
0.0
 11
480.5302364685917
 21
278.4326038126875
 31
0.0
  0
SOLID
  5
606E
330
5E70
100
AcDbEntity
  8
AM_REFDIM
100
AcDbTrace
 10
480.2302364685917
 20
286.7089593384799
 30
0.0
 11
480.8302364685917
 21
286.7089593384799
 31
0.0
 12
480.5302364685917
 22
288.5089593384799
 32
0.0
 13
480.5302364685917
 23
288.5089593384799
 33
0.0
  0
SOLID
  5
606F
330
5E70
100
AcDbEntity
  8
AM_REFDIM
100
AcDbTrace
 10
480.2302364685917
 20
278.4326038126875
 30
0.0
 11
480.8302364685917
 21
278.4326038126875
 31
0.0
 12
480.5302364685917
 22
276.6326038126875
 32
0.0
 13
480.5302364685917
 23
276.6326038126875
 33
0.0
  0
MTEXT
  5
6070
330
5E70
100
AcDbEntity
  8
AM_REFDIM
100
AcDbMText
 10
478.8800297756782
 20
282.5707815755837
 30
0.0
 40
2.1
 41
0.0
 71
     5
 72
     1
  1
12
 11
0.0000000000000001
 21
1.0
 31
0.0
 73
     1
 44
1.0
1001
ACAD
1000
MTEXTBEGIN
1070
    73
1070
     1
1070
    44
1040
1.0
1070
    74
1070
     0
1000
MTEXTEND
  0
POINT
  5
6071
330
5E70
100
AcDbEntity
  8
Defpoints
 62
     0
100
AcDbPoint
 10
471.6097695575768
 20
288.5089593384799
 30
0.0
  0
POINT
  5
6072
330
5E70
100
AcDbEntity
  8
Defpoints
 62
     0
100
AcDbPoint
 10
470.917461865269
 20
276.6326038126875
 30
0.0
  0
POINT
  5
6073
330
5E70
100
AcDbEntity
  8
Defpoints
 62
     0
100
AcDbPoint
 10
480.5302364685917
 20
276.6326038126875
 30
0.0
  0
ENDBLK
  5
5E7D
330
5E70
100
AcDbEntity
  8
0
100
AcDbBlockEnd
  0
BLOCK
  5
5EA4
330
5E9A
100
AcDbEntity
  8
0
100
AcDbBlockBegin
  2
*D16
 70
     1
 10
0.0
 20
0.0
 30
0.0
  3
*D16
  1

  0
LINE
  5
6074
330
5E9A
100
AcDbEntity
  8
AM_REFDIM
100
AcDbLine
 10
471.5174618652691
 20
276.6326038126875
 30
0.0
 11
487.067259285586
 21
276.6326038126875
 31
0.0
  0
LINE
  5
6075
330
5E9A
100
AcDbEntity
  8
AM_REFDIM
100
AcDbLine
 10
484.4550338991389
 20
370.6228769519701
 30
0.0
 11
487.067259285586
 21
370.6228769519701
 31
0.0
  0
LINE
  5
6076
330
5E9A
100
AcDbEntity
  8
AM_REFDIM
100
AcDbLine
 10
486.467259285586
 20
278.4326038126875
 30
0.0
 11
486.467259285586
 21
368.8228769519701
 31
0.0
  0
SOLID
  5
6077
330
5E9A
100
AcDbEntity
  8
AM_REFDIM
100
AcDbTrace
 10
486.1672592855859
 20
278.4326038126875
 30
0.0
 11
486.767259285586
 21
278.4326038126875
 31
0.0
 12
486.467259285586
 22
276.6326038126875
 32
0.0
 13
486.467259285586
 23
276.6326038126875
 33
0.0
  0
SOLID
  5
6078
330
5E9A
100
AcDbEntity
  8
AM_REFDIM
100
AcDbTrace
 10
486.1672592855859
 20
368.8228769519701
 30
0.0
 11
486.767259285586
 21
368.8228769519701
 31
0.0
 12
486.467259285586
 22
370.6228769519701
 32
0.0
 13
486.467259285586
 23
370.6228769519701
 33
0.0
  0
MTEXT
  5
6079
330
5E9A
100
AcDbEntity
  8
AM_REFDIM
100
AcDbMText
 10
484.8172592855859
 20
323.6277403823288
 30
0.0
 40
2.1
 41
0.0
 71
     5
 72
     1
  1
94
 11
0.0000000000000001
 21
1.0
 31
0.0
 73
     1
 44
1.0
1001
ACAD
1000
MTEXTBEGIN
1070
    73
1070
     1
1070
    44
1040
1.0
1070
    74
1070
     0
1000
MTEXTEND
  0
POINT
  5
607A
330
5E9A
100
AcDbEntity
  8
Defpoints
 62
     0
100
AcDbPoint
 10
470.917461865269
 20
276.6326038126875
 30
0.0
  0
POINT
  5
607B
330
5E9A
100
AcDbEntity
  8
Defpoints
 62
     0
100
AcDbPoint
 10
483.8550338991389
 20
370.6228769519701
 30
0.0
  0
POINT
  5
607C
330
5E9A
100
AcDbEntity
  8
Defpoints
 62
     0
100
AcDbPoint
 10
486.467259285586
 20
370.6228769519701
 30
0.0
  0
ENDBLK
  5
5EA5
330
5E9A
100
AcDbEntity
  8
0
100
AcDbBlockEnd
  0
BLOCK
  5
5ECA
330
5EC0
100
AcDbEntity
  8
0
100
AcDbBlockBegin
  2
*D17
 70
     1
 10
0.0
 20
0.0
 30
0.0
  3
*D17
  1

  0
LINE
  5
607D
330
5EC0
100
AcDbEntity
  8
AM_REFDIM
100
AcDbLine
 10
452.5402931412616
 20
398.6319922412404
 30
0.0
 11
493.7548879264619
 21
398.6319922412404
 31
0.0
  0
LINE
  5
607E
330
5EC0
100
AcDbEntity
  8
AM_REFDIM
100
AcDbLine
 10
471.5174618652691
 20
276.6326038126875
 30
0.0
 11
493.7548879264619
 21
276.6326038126875
 31
0.0
  0
LINE
  5
607F
330
5EC0
100
AcDbEntity
  8
AM_REFDIM
100
AcDbLine
 10
493.1548879264619
 20
396.8319922412404
 30
0.0
 11
493.1548879264619
 21
278.4326038126875
 31
0.0
  0
SOLID
  5
6080
330
5EC0
100
AcDbEntity
  8
AM_REFDIM
100
AcDbTrace
 10
492.8548879264619
 20
396.8319922412404
 30
0.0
 11
493.4548879264619
 21
396.8319922412404
 31
0.0
 12
493.1548879264619
 22
398.6319922412404
 32
0.0
 13
493.1548879264619
 23
398.6319922412404
 33
0.0
  0
SOLID
  5
6081
330
5EC0
100
AcDbEntity
  8
AM_REFDIM
100
AcDbTrace
 10
492.8548879264619
 20
278.4326038126875
 30
0.0
 11
493.4548879264619
 21
278.4326038126875
 31
0.0
 12
493.1548879264619
 22
276.6326038126875
 32
0.0
 13
493.1548879264619
 23
276.6326038126875
 33
0.0
  0
MTEXT
  5
6082
330
5EC0
100
AcDbEntity
  8
AM_REFDIM
100
AcDbMText
 10
491.5046812335484
 20
337.632298026964
 30
0.0
 40
2.1
 41
0.0
 71
     5
 72
     1
  1
122
 11
0.0000000000000001
 21
1.0
 31
0.0
 73
     1
 44
1.0
1001
ACAD
1000
MTEXTBEGIN
1070
    73
1070
     1
1070
    44
1040
1.0
1070
    74
1070
     0
1000
MTEXTEND
  0
POINT
  5
6083
330
5EC0
100
AcDbEntity
  8
Defpoints
 62
     0
100
AcDbPoint
 10
451.9402931412616
 20
398.6319922412404
 30
0.0
  0
POINT
  5
6084
330
5EC0
100
AcDbEntity
  8
Defpoints
 62
     0
100
AcDbPoint
 10
470.917461865269
 20
276.6326038126875
 30
0.0
  0
POINT
  5
6085
330
5EC0
100
AcDbEntity
  8
Defpoints
 62
     0
100
AcDbPoint
 10
493.1548879264619
 20
276.6326038126875
 30
0.0
  0
ENDBLK
  5
5ECB
330
5EC0
100
AcDbEntity
  8
0
100
AcDbBlockEnd
  0
BLOCK
  5
5EF4
330
5EEA
100
AcDbEntity
  8
0
100
AcDbBlockBegin
  2
*D18
 70
     1
 10
0.0
 20
0.0
 30
0.0
  3
*D18
  1

  0
LINE
  5
6086
330
5EEA
100
AcDbEntity
  8
AM_REFDIM
100
AcDbLine
 10
430.9174618652691
 20
278.0326038126875
 30
0.0
 11
430.9174618652691
 21
268.4084194739059
 31
0.0
  0
LINE
  5
6087
330
5EEA
100
AcDbEntity
  8
AM_REFDIM
100
AcDbLine
 10
472.9174618652691
 20
278.0326038126875
 30
0.0
 11
472.9174618652691
 21
268.4084194739059
 31
0.0
  0
LINE
  5
6088
330
5EEA
100
AcDbEntity
  8
AM_REFDIM
100
AcDbLine
 10
432.7174618652691
 20
269.0084194739059
 30
0.0
 11
471.117461865269
 21
269.0084194739059
 31
0.0
  0
SOLID
  5
6089
330
5EEA
100
AcDbEntity
  8
AM_REFDIM
100
AcDbTrace
 10
432.7174618652691
 20
269.3084194739059
 30
0.0
 11
432.7174618652691
 21
268.7084194739059
 31
0.0
 12
430.9174618652691
 22
269.0084194739059
 32
0.0
 13
430.9174618652691
 23
269.0084194739059
 33
0.0
  0
SOLID
  5
608A
330
5EEA
100
AcDbEntity
  8
AM_REFDIM
100
AcDbTrace
 10
471.117461865269
 20
269.3084194739059
 30
0.0
 11
471.117461865269
 21
268.7084194739059
 31
0.0
 12
472.9174618652691
 22
269.0084194739059
 32
0.0
 13
472.9174618652691
 23
269.0084194739059
 33
0.0
  0
MTEXT
  5
608B
330
5EEA
100
AcDbEntity
  8
AM_REFDIM
100
AcDbMText
 10
451.9174618652691
 20
270.6586261668193
 30
0.0
 40
2.1
 41
0.0
 71
     5
 72
     1
  1
42
 73
     1
 44
1.0
1001
ACAD
1000
MTEXTBEGIN
1070
    73
1070
     1
1070
    44
1040
1.0
1070
    74
1070
     0
1000
MTEXTEND
  0
POINT
  5
608C
330
5EEA
100
AcDbEntity
  8
Defpoints
 62
     0
100
AcDbPoint
 10
430.9174618652691
 20
278.6326038126875
 30
0.0
  0
POINT
  5
608D
330
5EEA
100
AcDbEntity
  8
Defpoints
 62
     0
100
AcDbPoint
 10
472.9174618652691
 20
278.6326038126875
 30
0.0
  0
POINT
  5
608E
330
5EEA
100
AcDbEntity
  8
Defpoints
 62
     0
100
AcDbPoint
 10
472.9174618652691
 20
269.0084194739059
 30
0.0
  0
ENDBLK
  5
5EF5
330
5EEA
100
AcDbEntity
  8
0
100
AcDbBlockEnd
  0
BLOCK
  5
5F1A
330
5F10
100
AcDbEntity
  8
0
100
AcDbBlockBegin
  2
*D19
 70
     1
 10
0.0
 20
0.0
 30
0.0
  3
*D19
  1

  0
LINE
  5
608F
330
5F10
100
AcDbEntity
  8
AM_REFDIM
100
AcDbLine
 10
536.7423714543101
 20
397.2326038126875
 30
0.0
 11
536.7423714543101
 21
405.2221754260667
 31
0.0
  0
LINE
  5
6090
330
5F10
100
AcDbEntity
  8
AM_REFDIM
100
AcDbLine
 10
558.7423714543101
 20
397.2326038126875
 30
0.0
 11
558.7423714543101
 21
405.2221754260667
 31
0.0
  0
LINE
  5
6091
330
5F10
100
AcDbEntity
  8
AM_REFDIM
100
AcDbLine
 10
538.5423714543101
 20
404.6221754260667
 30
0.0
 11
556.9423714543102
 21
404.6221754260667
 31
0.0
  0
SOLID
  5
6092
330
5F10
100
AcDbEntity
  8
AM_REFDIM
100
AcDbTrace
 10
538.5423714543101
 20
404.9221754260667
 30
0.0
 11
538.5423714543101
 21
404.3221754260667
 31
0.0
 12
536.7423714543101
 22
404.6221754260667
 32
0.0
 13
536.7423714543101
 23
404.6221754260667
 33
0.0
  0
SOLID
  5
6093
330
5F10
100
AcDbEntity
  8
AM_REFDIM
100
AcDbTrace
 10
556.9423714543102
 20
404.9221754260667
 30
0.0
 11
556.9423714543102
 21
404.3221754260667
 31
0.0
 12
558.7423714543101
 22
404.6221754260667
 32
0.0
 13
558.7423714543101
 23
404.6221754260667
 33
0.0
  0
MTEXT
  5
6094
330
5F10
100
AcDbEntity
  8
AM_REFDIM
100
AcDbMText
 10
547.7423714543101
 20
406.2723821189801
 30
0.0
 40
2.1
 41
0.0
 71
     5
 72
     1
  1
22
 73
     1
 44
1.0
1001
ACAD
1000
MTEXTBEGIN
1070
    73
1070
     1
1070
    44
1040
1.0
1070
    74
1070
     0
1000
MTEXTEND
  0
POINT
  5
6095
330
5F10
100
AcDbEntity
  8
Defpoints
 62
     0
100
AcDbPoint
 10
536.7423714543101
 20
396.6326038126875
 30
0.0
  0
POINT
  5
6096
330
5F10
100
AcDbEntity
  8
Defpoints
 62
     0
100
AcDbPoint
 10
558.7423714543101
 20
396.6326038126875
 30
0.0
  0
POINT
  5
6097
330
5F10
100
AcDbEntity
  8
Defpoints
 62
     0
100
AcDbPoint
 10
558.7423714543101
 20
404.6221754260667
 30
0.0
  0
ENDBLK
  5
5F1B
330
5F10
100
AcDbEntity
  8
0
100
AcDbBlockEnd
  0
BLOCK
  5
5F40
330
5F36
100
AcDbEntity
  8
0
100
AcDbBlockBegin
  2
*D20
 70
     1
 10
0.0
 20
0.0
 30
0.0
  3
*D20
  1

  0
LINE
  5
6098
330
5F36
100
AcDbEntity
  8
AM_REFDIM
100
AcDbLine
 10
532.2423714543093
 20
386.1322682384381
 30
0.0
 11
532.2423714543093
 21
417.2221754260664
 31
0.0
  0
LINE
  5
6099
330
5F36
100
AcDbEntity
  8
AM_REFDIM
100
AcDbLine
 10
563.2423714543109
 20
386.1322682384381
 30
0.0
 11
563.2423714543109
 21
417.2221754260664
 31
0.0
  0
LINE
  5
609A
330
5F36
100
AcDbEntity
  8
AM_REFDIM
100
AcDbLine
 10
534.0423714543093
 20
416.6221754260664
 30
0.0
 11
561.442371454311
 21
416.6221754260664
 31
0.0
  0
SOLID
  5
609B
330
5F36
100
AcDbEntity
  8
AM_REFDIM
100
AcDbTrace
 10
534.0423714543093
 20
416.9221754260664
 30
0.0
 11
534.0423714543093
 21
416.3221754260664
 31
0.0
 12
532.2423714543093
 22
416.6221754260664
 32
0.0
 13
532.2423714543093
 23
416.6221754260664
 33
0.0
  0
SOLID
  5
609C
330
5F36
100
AcDbEntity
  8
AM_REFDIM
100
AcDbTrace
 10
561.442371454311
 20
416.9221754260664
 30
0.0
 11
561.442371454311
 21
416.3221754260664
 31
0.0
 12
563.2423714543109
 22
416.6221754260664
 32
0.0
 13
563.2423714543109
 23
416.6221754260664
 33
0.0
  0
MTEXT
  5
609D
330
5F36
100
AcDbEntity
  8
AM_REFDIM
100
AcDbMText
 10
547.7423714543101
 20
418.2721754260664
 30
0.0
 40
2.1
 41
0.0
 71
     5
 72
     1
  1
31
 73
     1
 44
1.0
1001
ACAD
1000
MTEXTBEGIN
1070
    73
1070
     1
1070
    44
1040
1.0
1070
    74
1070
     0
1000
MTEXTEND
  0
POINT
  5
609E
330
5F36
100
AcDbEntity
  8
Defpoints
 62
     0
100
AcDbPoint
 10
532.2423714543093
 20
385.532268238438
 30
0.0
  0
POINT
  5
609F
330
5F36
100
AcDbEntity
  8
Defpoints
 62
     0
100
AcDbPoint
 10
563.2423714543109
 20
385.532268238438
 30
0.0
  0
POINT
  5
60A0
330
5F36
100
AcDbEntity
  8
Defpoints
 62
     0
100
AcDbPoint
 10
563.2423714543109
 20
416.6221754260664
 30
0.0
  0
ENDBLK
  5
5F41
330
5F36
100
AcDbEntity
  8
0
100
AcDbBlockEnd
  0
BLOCK
  5
5F66
330
5F5C
100
AcDbEntity
  8
0
100
AcDbBlockBegin
  2
*D21
 70
     1
 10
0.0
 20
0.0
 30
0.0
  3
*D21
  1

  0
LINE
  5
60A1
330
5F5C
100
AcDbEntity
  8
AM_REFDIM
100
AcDbLine
 10
560.8423714543102
 20
324.6326038126875
 30
0.0
 11
576.3663892311807
 21
324.6326038126875
 31
0.0
  0
LINE
  5
60A2
330
5F5C
100
AcDbEntity
  8
AM_REFDIM
100
AcDbLine
 10
564.3423714543102
 20
276.6326038126874
 30
0.0
 11
576.3663892311807
 21
276.6326038126874
 31
0.0
  0
LINE
  5
60A3
330
5F5C
100
AcDbEntity
  8
AM_REFDIM
100
AcDbLine
 10
575.7663892311807
 20
322.8326038126875
 30
0.0
 11
575.7663892311807
 21
278.4326038126874
 31
0.0
  0
SOLID
  5
60A4
330
5F5C
100
AcDbEntity
  8
AM_REFDIM
100
AcDbTrace
 10
575.4663892311807
 20
322.8326038126875
 30
0.0
 11
576.0663892311806
 21
322.8326038126875
 31
0.0
 12
575.7663892311807
 22
324.6326038126875
 32
0.0
 13
575.7663892311807
 23
324.6326038126875
 33
0.0
  0
SOLID
  5
60A5
330
5F5C
100
AcDbEntity
  8
AM_REFDIM
100
AcDbTrace
 10
575.4663892311807
 20
278.4326038126874
 30
0.0
 11
576.0663892311806
 21
278.4326038126874
 31
0.0
 12
575.7663892311807
 22
276.6326038126874
 32
0.0
 13
575.7663892311807
 23
276.6326038126874
 33
0.0
  0
MTEXT
  5
60A6
330
5F5C
100
AcDbEntity
  8
AM_REFDIM
100
AcDbMText
 10
574.1163892311806
 20
300.6326038126874
 30
0.0
 40
2.1
 41
0.0
 71
     5
 72
     1
  1
48
 11
0.0000000000000001
 21
1.0
 31
0.0
 73
     1
 44
1.0
1001
ACAD
1000
MTEXTBEGIN
1070
    73
1070
     1
1070
    44
1040
1.0
1070
    74
1070
     0
1000
MTEXTEND
  0
POINT
  5
60A7
330
5F5C
100
AcDbEntity
  8
Defpoints
 62
     0
100
AcDbPoint
 10
560.2423714543101
 20
324.6326038126875
 30
0.0
  0
POINT
  5
60A8
330
5F5C
100
AcDbEntity
  8
Defpoints
 62
     0
100
AcDbPoint
 10
563.7423714543102
 20
276.6326038126874
 30
0.0
  0
POINT
  5
60A9
330
5F5C
100
AcDbEntity
  8
Defpoints
 62
     0
100
AcDbPoint
 10
575.7663892311807
 20
276.6326038126874
 30
0.0
  0
ENDBLK
  5
5F67
330
5F5C
100
AcDbEntity
  8
0
100
AcDbBlockEnd
  0
BLOCK
  5
5F8C
330
5F82
100
AcDbEntity
  8
0
100
AcDbBlockBegin
  2
*D22
 70
     1
 10
0.0
 20
0.0
 30
0.0
  3
*D22
  1

  0
LINE
  5
60AA
330
5F82
100
AcDbEntity
  8
AM_REFDIM
100
AcDbLine
 10
529.7423714543101
 20
278.0326038126875
 30
0.0
 11
529.7423714543101
 21
268.4084194739059
 31
0.0
  0
LINE
  5
60AB
330
5F82
100
AcDbEntity
  8
AM_REFDIM
100
AcDbLine
 10
565.7423714543101
 20
278.0326038126875
 30
0.0
 11
565.7423714543101
 21
268.4084194739059
 31
0.0
  0
LINE
  5
60AC
330
5F82
100
AcDbEntity
  8
AM_REFDIM
100
AcDbLine
 10
531.5423714543101
 20
269.0084194739059
 30
0.0
 11
563.9423714543101
 21
269.0084194739059
 31
0.0
  0
SOLID
  5
60AD
330
5F82
100
AcDbEntity
  8
AM_REFDIM
100
AcDbTrace
 10
531.5423714543101
 20
269.3084194739059
 30
0.0
 11
531.5423714543101
 21
268.7084194739059
 31
0.0
 12
529.7423714543101
 22
269.0084194739059
 32
0.0
 13
529.7423714543101
 23
269.0084194739059
 33
0.0
  0
SOLID
  5
60AE
330
5F82
100
AcDbEntity
  8
AM_REFDIM
100
AcDbTrace
 10
563.9423714543101
 20
269.3084194739059
 30
0.0
 11
563.9423714543101
 21
268.7084194739059
 31
0.0
 12
565.7423714543101
 22
269.0084194739059
 32
0.0
 13
565.7423714543101
 23
269.0084194739059
 33
0.0
  0
MTEXT
  5
60AF
330
5F82
100
AcDbEntity
  8
AM_REFDIM
100
AcDbMText
 10
547.7423714543101
 20
270.6584194739058
 30
0.0
 40
2.1
 41
0.0
 71
     5
 72
     1
  1
36
 73
     1
 44
1.0
1001
ACAD
1000
MTEXTBEGIN
1070
    73
1070
     1
1070
    44
1040
1.0
1070
    74
1070
     0
1000
MTEXTEND
  0
POINT
  5
60B0
330
5F82
100
AcDbEntity
  8
Defpoints
 62
     0
100
AcDbPoint
 10
529.7423714543101
 20
278.6326038126875
 30
0.0
  0
POINT
  5
60B1
330
5F82
100
AcDbEntity
  8
Defpoints
 62
     0
100
AcDbPoint
 10
565.7423714543101
 20
278.6326038126875
 30
0.0
  0
POINT
  5
60B2
330
5F82
100
AcDbEntity
  8
Defpoints
 62
     0
100
AcDbPoint
 10
565.7423714543101
 20
269.0084194739059
 30
0.0
  0
ENDBLK
  5
5F8D
330
5F82
100
AcDbEntity
  8
0
100
AcDbBlockEnd
  0
BLOCK
  5
60EC
330
60E2
100
AcDbEntity
  8
0
100
AcDbBlockBegin
  2
*D23
 70
     1
 10
0.0
 20
0.0
 30
0.0
  3
*D23
  1

  0
LINE
  5
6103
330
60E2
100
AcDbEntity
  8
AM_REFDIM
100
AcDbLine
 10
563.8423714543101
 20
383.1326038126875
 30
0.0
 11
576.3663892311807
 21
383.1326038126875
 31
0.0
  0
LINE
  5
6104
330
60E2
100
AcDbEntity
  8
AM_REFDIM
100
AcDbLine
 10
563.8423714543101
 20
358.1326038126875
 30
0.0
 11
576.3663892311807
 21
358.1326038126875
 31
0.0
  0
LINE
  5
6105
330
60E2
100
AcDbEntity
  8
AM_REFDIM
100
AcDbLine
 10
575.7663892311807
 20
381.3326038126874
 30
0.0
 11
575.7663892311807
 21
359.9326038126875
 31
0.0
  0
SOLID
  5
6106
330
60E2
100
AcDbEntity
  8
AM_REFDIM
100
AcDbTrace
 10
575.4663892311807
 20
381.3326038126874
 30
0.0
 11
576.0663892311806
 21
381.3326038126874
 31
0.0
 12
575.7663892311807
 22
383.1326038126875
 32
0.0
 13
575.7663892311807
 23
383.1326038126875
 33
0.0
  0
SOLID
  5
6107
330
60E2
100
AcDbEntity
  8
AM_REFDIM
100
AcDbTrace
 10
575.4663892311807
 20
359.9326038126875
 30
0.0
 11
576.0663892311806
 21
359.9326038126875
 31
0.0
 12
575.7663892311807
 22
358.1326038126875
 32
0.0
 13
575.7663892311807
 23
358.1326038126875
 33
0.0
  0
MTEXT
  5
6108
330
60E2
100
AcDbEntity
  8
AM_REFDIM
100
AcDbMText
 10
574.1161825382672
 20
370.6326038126875
 30
0.0
 40
2.1
 41
0.0
 71
     5
 72
     1
  1
%%c25
 11
0.0000000000000001
 21
1.0
 31
0.0
 73
     1
 44
1.0
1001
ACAD
1000
MTEXTBEGIN
1070
    73
1070
     1
1070
    44
1040
1.0
1070
    74
1070
     0
1000
MTEXTEND
  0
POINT
  5
6109
330
60E2
100
AcDbEntity
  8
Defpoints
 62
     0
100
AcDbPoint
 10
563.2423714543101
 20
383.1326038126875
 30
0.0
  0
POINT
  5
610A
330
60E2
100
AcDbEntity
  8
Defpoints
 62
     0
100
AcDbPoint
 10
563.2423714543101
 20
358.1326038126875
 30
0.0
  0
POINT
  5
610B
330
60E2
100
AcDbEntity
  8
Defpoints
 62
     0
100
AcDbPoint
 10
575.7663892311807
 20
358.1326038126875
 30
0.0
  0
ENDBLK
  5
60ED
330
60E2
100
AcDbEntity
  8
0
100
AcDbBlockEnd
  0
ENDSEC
  0
SECTION
  2
ENTITIES
  0
TEXT
  5
179B
330
1F
100
AcDbEntity
  8
LOGO
 62
     7
100
AcDbText
 10
424.7219596105601
 20
250.4857837216613
 30
0.0
 40
1.881327551131221
  1
Order example:
 41
0.8
  7
CHINESET
100
AcDbText
  0
TEXT
  5
179C
330
1F
100
AcDbEntity
  8
LOGO
 62
     7
100
AcDbText
 10
425.059485331179
 20
253.1343033798142
 30
0.0
 40
2.821991326696831
  1
訂購代號：
  7
CHINESET
100
AcDbText
  0
LINE
  5
179D
330
1F
100
AcDbEntity
  8
LOGO
 62
     4
100
AcDbLine
 10
423.9045164084975
 20
242.5571589878777
 30
0.0
 11
423.9045164084975
 21
256.6671156213619
 31
0.0
  0
TEXT
  5
179E
330
1F
100
AcDbEntity
  8
LOGO
  6
Continuous
100
AcDbText
 10
397.9309716630621
 20
245.3290386747445
 30
0.0
 40
2.116493495022624
  1
金器工業股份有限公司
  7
CHINESET
100
AcDbText
  0
TEXT
  5
179F
330
1F
100
AcDbEntity
  8
LOGO
  6
Continuous
100
AcDbText
 10
394.0433918402941
 20
243.2121305129364
 30
0.0
 40
1.410995663348415
  1
MINDMAN INDUSTRIAL CO., LTD.
 41
0.85
  7
CHINESET
100
AcDbText
  0
LINE
  5
17A0
330
1F
100
AcDbEntity
  8
LOGO
 62
     4
100
AcDbLine
 10
423.9045164084975
 20
253.8451242946651
 30
0.0
 11
403.2099133460539
 21
253.8451242946651
 31
0.0
  0
LINE
  5
17A1
330
1F
100
AcDbEntity
  8
LOGO
 62
     4
100
AcDbLine
 10
423.9045164084975
 20
251.0231329679682
 30
0.0
 11
403.2099133460539
 21
251.0231329679682
 31
0.0
  0
LINE
  5
17A2
330
1F
100
AcDbEntity
  8
LOGO
 62
     4
100
AcDbLine
 10
423.9045164084975
 20
248.2011416412716
 30
0.0
 11
392.8626118148323
 21
248.2011416412716
 31
0.0
  0
LINE
  5
17A3
330
1F
100
AcDbEntity
  8
LOGO
 62
     4
100
AcDbLine
 10
403.2099133460539
 20
248.2011416412716
 30
0.0
 11
403.2099133460539
 21
256.6671156213619
 31
0.0
  0
TEXT
  5
17A4
330
1F
100
AcDbEntity
  8
LOGO
100
AcDbText
 10
417.3536977688476
 20
248.9066394729455
 30
0.0
 40
1.410995663348415
  1
mm
  7
CHINESET
 72
     1
 11
419.1006447806123
 21
249.6121373046197
 31
0.0
100
AcDbText
 73
     2
  0
TEXT
  5
17A5
330
1F
100
AcDbEntity
  8
LOGO
100
AcDbText
 10
416.6146048023318
 20
254.5506221263392
 30
0.0
 40
1.410995663348415
  1
1 : 1
  7
CHINESET
 72
     1
 11
419.1006447806123
 21
255.2561199580135
 31
0.0
100
AcDbText
 73
     2
  0
LINE
  5
17A6
330
1F
100
AcDbEntity
  8
LOGO
 62
     4
100
AcDbLine
 10
414.4978786528413
 20
248.2011416412716
 30
0.0
 11
414.4978786528413
 21
256.6671156213619
 31
0.0
  0
TEXT
  5
17A7
330
1F
100
AcDbEntity
  8
LOGO
100
AcDbText
 10
404.3733548595381
 20
254.5513165139689
 30
92.47433129629113
 40
1.410995663348415
  1
比例 Scale:
 41
0.9
  7
CHINESET
 72
     4
 11
408.8538959994476
 21
255.2561199580135
 31
92.47433129629113
100
AcDbText
  0
TEXT
  5
17A8
330
1F
100
AcDbEntity
  8
LOGO
100
AcDbText
 10
404.2920966271399
 20
251.7484787127218
 30
92.47433129629113
 40
1.410995663348415
  1
投影  View:
 41
0.9
  7
CHINESET
 72
     4
 11
408.8538959994476
 21
252.4341286313166
 31
92.47433129629113
100
AcDbText
  0
TEXT
  5
17A9
330
1F
100
AcDbEntity
  8
LOGO
100
AcDbText
 10
404.4300466495833
 20
248.9066394729455
 30
92.47433129629113
 40
1.410995663348415
  1
單位  Unit:
 41
0.9
  7
CHINESET
 72
     4
 11
408.8538959994476
 21
249.6121373046197
 31
92.47433129629113
100
AcDbText
  0
LWPOLYLINE
  5
17AA
330
1F
100
AcDbEntity
  8
LOGO
 62
     4
100
AcDbPolyline
 90
        4
 70
     1
 43
0.0
 10
392.8626118148323
 20
256.6671156213619
 10
599.3718180626483
 20
256.6671156213619
 10
599.3718180626484
 20
435.5301618881478
 10
392.8626118148324
 20
435.5301618881486
1001
GENIUS_GENREC_14
1002
{
1000
PYDIR
1011
392.8626118148324
1021
435.5301618881486
1031
0.0
1002
}
1002
{
1000
PXDIR
1011
599.3718180626483
1021
256.6671156213619
1031
0.0
1002
}
1002
{
1000
PORI
1011
392.8626118148323
1021
256.6671156213619
1031
0.0
1002
}
1002
{
1000
PINS
1011
392.8626118148323
1021
256.6671156213619
1031
0.0
1002
}
1002
{
1000
PINS2
1011
599.3718180626484
1021
435.5301618881478
1031
0.0
1002
}
1002
{
1000
C
1070
     1
1002
}
1001
GENIUS_GENODEF_13
1002
{
1000
HIER
1070
     0
1002
}
1002
{
1000
MANEDIT
1070
     0
1002
}
1002
{
1000
NOSEL
1070
     0
1002
}
1002
{
1000
BEHIND
1070
     0
1002
}
1002
{
1000
OTHER
1070
     0
1002
}
1002
{
1000
REACTOR
1002
}
1001
GENIUS_GENOBJ-N-REC_13
1002
{
1000
OWNER
1000
GEN
1002
}
  0
SOLID
  5
17AB
330
1F
100
AcDbEntity
  8
LOGO
 62
     5
100
AcDbTrace
 10
394.3265424603143
 20
250.5467210921707
 30
0.0
 11
394.9366199606198
 21
250.5467210921705
 31
0.0
 12
397.4821157377571
 22
256.331938767483
 32
0.0
 13
398.092193238063
 23
256.3319387674827
 33
0.0
  0
SOLID
  5
17AC
330
1F
100
AcDbEntity
  8
LOGO
 62
     5
100
AcDbTrace
 10
395.1890658228159
 20
250.5467210921707
 30
0.0
 11
395.7991433231216
 21
250.5467210921707
 31
0.0
 12
398.092193238063
 22
255.8691213534578
 32
0.0
 13
397.4821157377571
 23
253.6321705190037
 33
0.0
  0
SOLID
  5
17AD
330
1F
100
AcDbEntity
  8
LOGO
 62
     2
100
AcDbTrace
 10
394.9366199606198
 20
250.5467210921705
 30
0.0
 11
395.1890658228159
 21
250.5467210921707
 31
0.0
 12
398.092193238063
 22
256.3319387674827
 32
0.0
 13
398.3446391002588
 23
256.3319387674827
 33
0.0
  0
SOLID
  5
17AE
330
1F
100
AcDbEntity
  8
LOGO
 62
     5
100
AcDbTrace
 10
393.3484386179951
 20
248.4430055738755
 30
0.0
 11
393.5588101698248
 21
248.4430055738755
 31
0.0
 12
394.1512328337898
 22
249.4948633330231
 32
0.0
 13
394.3616043856189
 23
249.4948633330231
 33
0.0
  0
SOLID
  5
17AF
330
1F
100
AcDbEntity
  8
LOGO
 62
     5
100
AcDbTrace
 10
394.1512328337898
 20
249.4948633330231
 30
0.0
 11
394.3616043856189
 21
249.4948633330231
 31
0.0
 12
394.1512328337898
 22
248.4430055738755
 32
0.0
 13
394.3616043856189
 23
248.4430055738755
 33
0.0
  0
SOLID
  5
17B0
330
1F
100
AcDbEntity
  8
LOGO
 62
     5
100
AcDbTrace
 10
394.1512328337898
 20
248.4430055738755
 30
0.0
 11
394.3616043856189
 21
248.4430055738755
 31
0.0
 12
394.9540270495849
 22
249.4948633330231
 32
0.0
 13
395.1643986014143
 23
249.4948633330231
 33
0.0
  0
SOLID
  5
17B1
330
1F
100
AcDbEntity
  8
LOGO
 62
     5
100
AcDbTrace
 10
394.9540270495849
 20
249.4948633330231
 30
0.0
 11
395.1643986014143
 21
249.4948633330231
 31
0.0
 12
394.9540270495849
 22
248.4430055738755
 32
0.0
 13
395.1643986014143
 23
248.4430055738755
 33
0.0
  0
POLYLINE
  5
17B2
330
1F
100
AcDbEntity
  8
LOGO
 62
     5
100
AcDb2dPolyline
 66
     1
 10
0.0
 20
0.0
 30
0.0
 40
0.2107086857266968
 41
0.2107086857266968
  0
VERTEX
  5
17B3
330
17B2
100
AcDbEntity
  8
LOGO
 62
     5
100
AcDbVertex
100
AcDb2dVertex
 10
402.0056098029384
 20
249.074120229364
 30
0.0
 42
1.0
  0
VERTEX
  5
17B4
330
17B2
100
AcDbEntity
  8
LOGO
 62
     5
100
AcDbVertex
100
AcDb2dVertex
 10
401.3734837457581
 20
249.074120229364
 30
0.0
 42
1.0
  0
SEQEND
  5
17B5
330
17B2
100
AcDbEntity
  8
LOGO
 62
     5
  0
POLYLINE
  5
17B6
330
1F
100
AcDbEntity
  8
LOGO
 62
     5
100
AcDb2dPolyline
 66
     1
 10
0.0
 20
0.0
 30
0.0
 70
     1
  0
VERTEX
  5
17B7
330
17B6
100
AcDbEntity
  8
LOGO
 62
     5
100
AcDbVertex
100
AcDb2dVertex
 10
400.1818980110063
 20
248.9689344534491
 30
0.0
 42
1.000000057330635
  0
VERTEX
  5
17B8
330
17B6
100
AcDbEntity
  8
LOGO
 62
     5
100
AcDbVertex
100
AcDb2dVertex
 10
400.813012666495
 20
248.9689344534491
 30
0.0
 42
1.000000057330635
  0
SEQEND
  5
17B9
330
17B6
100
AcDbEntity
  8
LOGO
 62
     5
  0
CIRCLE
  5
17BA
330
1F
100
AcDbEntity
  8
LOGO
 62
     5
100
AcDbCircle
 10
400.497455338751
 20
248.9689344534491
 30
0.0
 40
0.3155573277443012
  0
POLYLINE
  5
17BB
330
1F
100
AcDbEntity
  8
LOGO
 62
     5
100
AcDb2dPolyline
 66
     1
 10
0.0
 20
0.0
 30
0.0
 70
     1
 40
0.2107086857266968
 41
0.2107086857266968
  0
VERTEX
  5
17BC
330
17BB
100
AcDbEntity
  8
LOGO
 62
     5
100
AcDbVertex
100
AcDb2dVertex
 10
400.0760379672973
 20
248.9689344534491
 30
0.0
 42
1.0
  0
VERTEX
  5
17BD
330
17BB
100
AcDbEntity
  8
LOGO
 62
     5
100
AcDbVertex
100
AcDb2dVertex
 10
400.9188727102041
 20
248.9689344534491
 30
0.0
 42
1.0
  0
SEQEND
  5
17BE
330
17BB
100
AcDbEntity
  8
LOGO
 62
     5
  0
LINE
  5
17BF
330
1F
100
AcDbEntity
  8
LOGO
100
AcDbLine
 10
402.1102898780069
 20
248.4430055738755
 30
0.0
 11
402.1102898780069
 21
249.074120229364
 31
0.0
  0
SOLID
  5
17C0
330
1F
100
AcDbEntity
  8
LOGO
 62
     5
100
AcDbTrace
 10
400.8129916293406
 20
249.4948633330231
 30
0.0
 11
401.0233631811698
 21
249.4948633330231
 31
0.0
 12
400.8129916293406
 22
248.4430055738755
 32
0.0
 13
401.0233631811698
 23
248.4430055738755
 33
0.0
  0
SOLID
  5
17C1
330
1F
100
AcDbEntity
  8
LOGO
 62
     5
100
AcDbTrace
 10
401.2688036706888
 20
248.4430055738755
 30
0.0
 11
401.4791752225186
 21
248.4430055738755
 31
0.0
 12
401.2688036706888
 22
249.4948633330231
 32
0.0
 13
401.4791752225186
 23
249.4948633330231
 33
0.0
  0
SOLID
  5
17C2
330
1F
100
AcDbEntity
  8
LOGO
 62
     5
100
AcDbTrace
 10
401.8999183261779
 20
249.074120229364
 30
0.0
 11
402.1102898780069
 21
249.074120229364
 31
0.0
 12
401.8999183261779
 22
248.4430055738755
 32
0.0
 13
402.1102898780069
 23
248.4430055738755
 33
0.0
  0
SOLID
  5
17C3
330
1F
100
AcDbEntity
  8
LOGO
 62
     5
100
AcDbTrace
 10
401.2477665155059
 20
255.8691213534578
 30
0.0
 11
400.6376890152006
 21
253.6321705190037
 31
0.0
 12
401.2477665155059
 22
250.5467210921705
 32
0.0
 13
400.6376890152006
 23
250.5467210921705
 33
0.0
  0
SOLID
  5
17C4
330
1F
100
AcDbEntity
  8
LOGO
 62
     5
100
AcDbTrace
 10
401.5002123777017
 20
250.5467210921705
 30
0.0
 11
402.1102898780069
 21
250.5467210921705
 31
0.0
 12
401.5002123777017
 22
256.3319387674827
 32
0.0
 13
402.1102898780069
 23
256.331938767483
 33
0.0
  0
SOLID
  5
17C5
330
1F
100
AcDbEntity
  8
LOGO
 62
     2
100
AcDbTrace
 10
401.2477665155059
 20
256.331938767483
 30
0.0
 11
401.5002123777017
 21
256.3319387674827
 31
0.0
 12
401.2477665155059
 22
250.5467210921705
 32
0.0
 13
401.5002123777017
 23
250.5467210921705
 33
0.0
  0
POLYLINE
  5
17C6
330
1F
100
AcDbEntity
  8
LOGO
 62
     5
100
AcDb2dPolyline
 66
     1
 10
0.0
 20
0.0
 30
0.0
 40
0.2107086857266968
 41
0.2107086857266968
  0
VERTEX
  5
17C7
330
17C6
100
AcDbEntity
  8
LOGO
 62
     5
100
AcDbVertex
100
AcDb2dVertex
 10
398.990270201945
 20
249.074120229364
 30
0.0
 42
1.0
  0
VERTEX
  5
17C8
330
17C6
100
AcDbEntity
  8
LOGO
 62
     5
100
AcDbVertex
100
AcDb2dVertex
 10
398.3581441447649
 20
249.074120229364
 30
0.0
 42
1.0
  0
SEQEND
  5
17C9
330
17C6
100
AcDbEntity
  8
LOGO
 62
     5
  0
POLYLINE
  5
17CA
330
1F
100
AcDbEntity
  8
LOGO
 62
     5
100
AcDb2dPolyline
 66
     1
 10
0.0
 20
0.0
 30
0.0
 40
0.2107086857266968
 41
0.2107086857266968
  0
VERTEX
  5
17CB
330
17CA
100
AcDbEntity
  8
LOGO
 62
     5
100
AcDbVertex
100
AcDb2dVertex
 10
399.621384857433
 20
249.074120229364
 30
0.0
 42
1.0
  0
VERTEX
  5
17CC
330
17CA
100
AcDbEntity
  8
LOGO
 62
     5
100
AcDbVertex
100
AcDb2dVertex
 10
398.9892588002531
 20
249.074120229364
 30
0.0
 42
1.0
  0
SEQEND
  5
17CD
330
17CA
100
AcDbEntity
  8
LOGO
 62
     5
  0
POLYLINE
  5
17CE
330
1F
100
AcDbEntity
  8
LOGO
 62
     5
100
AcDb2dPolyline
 66
     1
 10
0.0
 20
0.0
 30
0.0
 40
0.2107086857266968
 41
0.2107086857266968
  0
VERTEX
  5
17CF
330
17CE
100
AcDbEntity
  8
LOGO
 62
     5
100
AcDbVertex
100
AcDb2dVertex
 10
396.6060452564396
 20
249.074120229364
 30
0.0
 42
1.0
  0
VERTEX
  5
17D0
330
17CE
100
AcDbEntity
  8
LOGO
 62
     5
100
AcDbVertex
100
AcDb2dVertex
 10
395.9739191992597
 20
249.074120229364
 30
0.0
 42
1.0
  0
SEQEND
  5
17D1
330
17CE
100
AcDbEntity
  8
LOGO
 62
     5
  0
SOLID
  5
17D2
330
1F
100
AcDbEntity
  8
LOGO
 62
     5
100
AcDbTrace
 10
395.8692391241908
 20
249.4948633330231
 30
0.0
 11
396.0796106760199
 21
249.4948633330231
 31
0.0
 12
395.8692391241908
 22
248.4430055738755
 32
0.0
 13
396.0796106760199
 23
248.4430055738755
 33
0.0
  0
SOLID
  5
17D3
330
1F
100
AcDbEntity
  8
LOGO
 62
     5
100
AcDbTrace
 10
396.5003537796794
 20
249.074120229364
 30
0.0
 11
396.7107253315092
 21
249.074120229364
 31
0.0
 12
396.5003537796794
 22
248.4430055738755
 32
0.0
 13
396.7107253315092
 23
248.4430055738755
 33
0.0
  0
POLYLINE
  5
17D4
330
1F
100
AcDbEntity
  8
LOGO
 62
     5
100
AcDb2dPolyline
 66
     1
 10
0.0
 20
0.0
 30
0.0
 70
     1
 40
0.2107086857266968
 41
0.2107086857266968
  0
VERTEX
  5
17D5
330
17D4
100
AcDbEntity
  8
LOGO
 62
     5
100
AcDbVertex
100
AcDb2dVertex
 10
397.0606983663036
 20
248.9689344534491
 30
0.0
 42
1.0
  0
VERTEX
  5
17D6
330
17D4
100
AcDbEntity
  8
LOGO
 62
     5
100
AcDbVertex
100
AcDb2dVertex
 10
397.9035331092108
 20
248.9689344534491
 30
0.0
 42
1.0
  0
SEQEND
  5
17D7
330
17D4
100
AcDbEntity
  8
LOGO
 62
     5
  0
SOLID
  5
17D8
330
1F
100
AcDbEntity
  8
LOGO
 62
     5
100
AcDbTrace
 10
397.7976520283467
 20
249.8104206607675
 30
0.0
 11
398.0080235801762
 21
249.8104206607675
 31
0.0
 12
397.7976520283467
 22
248.4430055738755
 32
0.0
 13
398.0080235801762
 23
248.4430055738755
 33
0.0
  0
SOLID
  5
17D9
330
1F
100
AcDbEntity
  8
LOGO
 62
     5
100
AcDbTrace
 10
398.2534640696962
 20
249.4948633330231
 30
0.0
 11
398.4638356215254
 21
249.4948633330231
 31
0.0
 12
398.2534640696962
 22
248.4430055738755
 32
0.0
 13
398.4638356215254
 23
248.4430055738755
 33
0.0
  0
SOLID
  5
17DA
330
1F
100
AcDbEntity
  8
LOGO
 62
     5
100
AcDbTrace
 10
398.8845787251842
 20
249.074120229364
 30
0.0
 11
399.0949502770139
 21
249.074120229364
 31
0.0
 12
398.8845787251842
 22
248.4430055738755
 32
0.0
 13
399.0949502770139
 23
248.4430055738755
 33
0.0
  0
SOLID
  5
17DB
330
1F
100
AcDbEntity
  8
LOGO
 62
     5
100
AcDbTrace
 10
399.5156933806729
 20
249.074120229364
 30
0.0
 11
399.7260649325022
 21
249.074120229364
 31
0.0
 12
399.5156933806729
 22
248.4430055738752
 32
0.0
 13
399.7260649325022
 23
248.4430055738752
 33
0.0
  0
SOLID
  5
17DC
330
1F
100
AcDbEntity
  8
LOGO
 62
     5
100
AcDbTrace
 10
395.4134270828416
 20
249.6421234193038
 30
0.0
 11
395.6237986346717
 21
249.6421234193038
 31
0.0
 12
395.4134270828416
 22
249.8104206607675
 32
0.0
 13
395.6237986346717
 23
249.8104206607675
 33
0.0
  0
SOLID
  5
17DD
330
1F
100
AcDbEntity
  8
LOGO
 62
     5
100
AcDbTrace
 10
395.4134270828416
 20
249.4948633330231
 30
0.0
 11
395.6237986346717
 21
249.4948633330231
 31
0.0
 12
395.4134270828416
 22
248.4430055738752
 32
0.0
 13
395.6237986346717
 23
248.4430055738755
 33
0.0
  0
SOLID
  5
17DE
330
1F
100
AcDbEntity
  8
LOGO
 62
     5
100
AcDbTrace
 10
397.4821157377571
 20
250.5467210921707
 30
0.0
 11
398.092193238063
 21
250.5467210921707
 31
0.0
 12
397.4821157377571
 22
253.6321705190037
 32
0.0
 13
398.092193238063
 23
255.8691213534578
 33
0.0
  0
SOLID
  5
17DF
330
1F
100
AcDbEntity
  8
LOGO
 62
     5
100
AcDbTrace
 10
398.3446391002588
 20
256.3319387674827
 30
0.0
 11
398.9547166005641
 21
256.331938767483
 31
0.0
 12
398.3446391002588
 22
251.0095385061956
 32
0.0
 13
398.9547166005641
 23
253.2464893406497
 33
0.0
  0
SOLID
  5
17E0
330
1F
100
AcDbEntity
  8
LOGO
 62
     2
100
AcDbTrace
 10
398.092193238063
 20
256.3319387674827
 30
0.0
 11
398.3446391002588
 21
256.3319387674827
 31
0.0
 12
398.092193238063
 22
250.5467210921707
 32
0.0
 13
398.3446391002588
 23
250.5467210921707
 33
0.0
  0
SOLID
  5
17E1
330
1F
100
AcDbEntity
  8
LOGO
 62
     5
100
AcDbTrace
 10
398.3446391002588
 20
251.0095385061956
 30
0.0
 11
398.9547166005641
 21
253.2464893406497
 31
0.0
 12
401.2477665155059
 22
256.331938767483
 32
0.0
 13
400.6376890152006
 23
256.331938767483
 33
0.0
  0
SOLID
  5
17E2
330
1F
100
AcDbEntity
  8
LOGO
 62
     5
100
AcDbTrace
 10
398.3446391002588
 20
250.5467210921707
 30
0.0
 11
398.9547166005641
 21
250.5467210921707
 31
0.0
 12
401.2477665155059
 22
255.8691213534578
 32
0.0
 13
400.6376890152006
 23
253.6321705190037
 33
0.0
  0
SOLID
  5
17E3
330
1F
100
AcDbEntity
  8
LOGO
 62
     2
100
AcDbTrace
 10
398.092193238063
 20
250.5467210921707
 30
0.0
 11
398.3446391002588
 21
250.5467210921707
 31
0.0
 12
401.2477665155059
 22
256.331938767483
 32
0.0
 13
401.5002123777017
 23
256.3319387674827
 33
0.0
  0
LWPOLYLINE
  5
17E4
330
1F
100
AcDbEntity
  8
LOGO
 62
     4
100
AcDbPolyline
 90
        4
 70
     1
 43
0.0
 10
392.8626118148323
 20
256.6671156213619
 10
599.3718180626483
 20
256.6671156213619
 10
599.3718180626484
 20
242.5571589878776
 10
392.8626118148323
 20
242.5571589878776
1001
GENIUS_GENREC_14
1002
{
1000
PYDIR
1011
392.8626118148323
1021
242.5571589878776
1031
0.0
1002
}
1002
{
1000
PXDIR
1011
599.3718180626483
1021
256.6671156213619
1031
0.0
1002
}
1002
{
1000
PORI
1011
392.8626118148323
1021
256.6671156213619
1031
0.0
1002
}
1002
{
1000
PINS
1011
392.8626118148323
1021
256.6671156213619
1031
0.0
1002
}
1002
{
1000
PINS2
1011
599.3718180626484
1021
242.5571589878776
1031
0.0
1002
}
1002
{
1000
C
1070
     1
1002
}
1001
GENIUS_GENOBJ-N-REC_13
1002
{
1000
OWNER
1000
GEN
1002
}
1001
GENIUS_GENODEF_13
1002
{
1000
HIER
1070
     0
1002
}
1002
{
1000
MANEDIT
1070
     0
1002
}
1002
{
1000
NOSEL
1070
     0
1002
}
1002
{
1000
BEHIND
1070
     0
1002
}
1002
{
1000
OTHER
1070
     0
1002
}
1002
{
1000
REACTOR
1002
}
  0
LINE
  5
17E5
330
1F
100
AcDbEntity
  8
LOGO
 62
     4
100
AcDbLine
 10
455.2760323814448
 20
248.9066394729459
 30
0.0
 11
455.2760323814448
 21
243.7329887073347
 31
0.0
  0
LINE
  5
17E6
330
1F
100
AcDbEntity
  8
LOGO
 62
     4
100
AcDbLine
 10
445.8693946257886
 20
248.9066394729459
 30
0.0
 11
445.8693946257886
 21
243.7329887073347
 31
0.0
  0
LINE
  5
17E7
330
1F
100
AcDbEntity
  8
LOGO
 62
     4
100
AcDbLine
 10
455.2760323814448
 20
243.7329887073347
 30
0.0
 11
445.8693946257886
 21
243.7329887073347
 31
0.0
  0
LINE
  5
17E8
330
1F
100
AcDbEntity
  8
LOGO
 62
     4
100
AcDbLine
 10
458.8785006215277
 20
255.2561199580135
 30
0.0
 11
443.3121355261888
 21
255.2561199580135
 31
0.0
  0
LINE
  5
17E9
330
1F
100
AcDbEntity
  8
LOGO
 62
     4
100
AcDbLine
 10
458.8785006215277
 20
251.0231329679682
 30
0.0
 11
443.3121355261888
 21
251.0231329679682
 31
0.0
  0
LINE
  5
17EA
330
1F
100
AcDbEntity
  8
LOGO
 62
     4
100
AcDbLine
 10
443.3121355261888
 20
255.2561199580135
 30
0.0
 11
443.3121355261888
 21
251.0231329679682
 31
0.0
  0
LINE
  5
17EB
330
1F
100
AcDbEntity
  8
LOGO
 62
     4
100
AcDbLine
 10
458.8785006215277
 20
255.2561199580135
 30
0.0
 11
458.8785006215277
 21
251.0231329679682
 31
0.0
  0
LINE
  5
17EC
330
1F
100
AcDbEntity
  8
LOGO
 62
     4
100
AcDbLine
 10
451.0635037289004
 20
251.0231329679682
 30
0.0
 11
451.0635037289004
 21
248.9066394729459
 31
0.0
  0
TEXT
  5
17ED
330
1F
100
AcDbEntity
  8
LOGO
  6
Continuous
100
AcDbText
 10
446.0803427648975
 20
251.9067628135138
 30
0.0
 40
2.351999999999999
  1
PHS-25
100
AcDbText
  0
LINE
  5
17EE
330
1F
100
AcDbEntity
  8
LOGO
 62
     4
100
AcDbLine
 10
455.2760323814448
 20
248.9066394729459
 30
0.0
 11
445.8693946257886
 21
248.9066394729459
 31
0.0
  0
TEXT
  5
17EF
330
1F
100
AcDbEntity
  8
LOGO
  6
Continuous
100
AcDbText
 10
448.8879549006168
 20
244.4632385419194
 30
92.47433129629113
 40
1.0584
  1
Model
 41
0.8
  7
CHINESET
100
AcDbText
  0
TEXT
  5
17F0
330
1F
100
AcDbEntity
  8
LOGO
100
AcDbText
 10
448.6062432270846
 20
246.4252840404393
 30
92.47433129629113
 40
1.763999999999999
  1
型號
  7
CHINESET
100
AcDbText
  0
TEXT
  5
1824
330
1F
100
AcDbEntity
  8
LOGO
100
AcDbText
 10
424.4641999216747
 20
243.3078031116686
 30
0.0
 40
1.4112
  1
01205030
 41
0.7
  7
CHINESET
 72
     1
 11
427.9921999216747
 21
243.3078031116686
 31
0.0
100
AcDbText
  0
LINE
  5
1825
330
1F
100
AcDbEntity
  8
LOGO
 62
     4
100
AcDbLine
 10
432.3717164084968
 20
245.3791503145749
 30
0.0
 11
432.3717164084975
 21
242.5571589878779
 31
0.0
  0
LINE
  5
1826
330
1F
100
AcDbEntity
  8
LOGO
 62
     4
100
AcDbLine
 10
432.3717164084968
 20
245.3791503145749
 30
0.0
 11
423.9045164084975
 21
245.3791503145749
 31
0.0
  0
CIRCLE
  5
1827
330
1F
100
AcDbEntity
  8
LOGO
  6
Continuous
100
AcDbCircle
 10
417.1105136080786
 20
252.437146761366
 30
0.0
 40
0.8192572932342374
  0
CIRCLE
  5
1828
330
1F
100
AcDbEntity
  8
LOGO
  6
Continuous
100
AcDbCircle
 10
417.1105136080786
 20
252.437146761366
 30
0.0
 40
0.4800122490904454
  0
LINE
  5
1829
330
1F
100
AcDbEntity
  8
LOGO
100
AcDbLine
 10
422.2588215013588
 20
251.6178894681317
 30
0.0
 11
422.2588215013588
 21
253.2564040546005
 31
0.0
  0
LINE
  5
182A
330
1F
100
AcDbEntity
  8
LOGO
100
AcDbLine
 10
419.690496914682
 20
251.9571345122757
 30
0.0
 11
419.690496914682
 21
252.9171590104565
 31
0.0
  0
LINE
  5
182B
330
1F
100
AcDbEntity
  8
LOGO
  6
Continuous
100
AcDbLine
 10
419.690496914682
 20
252.9171590104565
 30
0.0
 11
422.2588215013588
 21
253.2564040546005
 31
0.0
  0
LINE
  5
182C
330
1F
100
AcDbEntity
  8
LOGO
  6
Continuous
100
AcDbLine
 10
419.690496914682
 20
251.9571345122757
 30
0.0
 11
422.2588215013588
 21
251.6178894681317
 31
0.0
  0
LINE
  5
182D
330
1F
100
AcDbEntity
  8
LOGO
  6
AM_ISO08W050x2
 48
0.3
100
AcDbLine
 10
415.9811551619432
 20
252.437146761366
 30
0.0
 11
418.2398720542139
 21
252.437146761366
 31
0.0
1001
GENIUS_GENOREF_13
1005
1832
  0
LINE
  5
182E
330
1F
100
AcDbEntity
  8
LOGO
  6
AM_ISO08W050x2
 48
0.3
100
AcDbLine
 10
417.1105136080786
 20
251.3077883152306
 30
0.0
 11
417.1105136080786
 21
253.5665052075014
 31
0.0
1001
GENIUS_GENOREF_13
1005
1831
  0
LINE
  5
182F
330
1F
100
AcDbEntity
  8
LOGO
  6
CENTER
 48
0.5
100
AcDbLine
 10
419.4851023339958
 20
252.437146761366
 30
0.0
 11
422.5174434731417
 21
252.437146761366
 31
0.0
1001
GENIUS_GENOREF_13
1005
1830
  0
POINT
  5
1830
330
1F
100
AcDbEntity
  8
0
 60
     1
100
AcDbPoint
 10
-1582.868394589036
 20
-798.6687030228181
 30
0.0
1001
GENIUS_GENOBJ-N-CRS_13
1002
{
1000
OWNER
1000
GEN
1002
}
1001
GENIUS_GENOLIS_13
1002
{
1000
ENT
1005
0
1005
0
1005
0
1005
182F
1002
}
1001
GENIUS_GENOENT_13
1002
{
1000
MYREF
1005
1830
1002
}
1002
{
1000
GRP
1005
0
1002
}
1001
GENIUS_GENODEF_13
1002
{
1000
HIER
1070
    10
1002
}
1002
{
1000
MANEDIT
1070
     1
1002
}
1002
{
1000
NOSEL
1070
     0
1002
}
1002
{
1000
BEHIND
1070
     0
1002
}
1002
{
1000
OTHER
1070
     0
1002
}
1002
{
1000
REACTOR
1002
}
  0
POINT
  5
1831
330
1F
100
AcDbEntity
  8
0
 60
     1
100
AcDbPoint
 10
-1594.19297981189
 20
-789.7931165441819
 30
0.0
1001
GENIUS_GENOBJ-N-CRS_13
1002
{
1000
OWNER
1000
GEN
1002
}
1001
GENIUS_GENOLIS_13
1002
{
1000
ENT
1005
0
1005
0
1005
0
1005
182E
1002
}
1001
GENIUS_GENOENT_13
1002
{
1000
MYREF
1005
1831
1002
}
1002
{
1000
GRP
1005
0
1002
}
1001
GENIUS_GENODEF_13
1002
{
1000
HIER
1070
    10
1002
}
1002
{
1000
MANEDIT
1070
     1
1002
}
1002
{
1000
NOSEL
1070
     0
1002
}
1002
{
1000
BEHIND
1070
     0
1002
}
1002
{
1000
OTHER
1070
     0
1002
}
1002
{
1000
REACTOR
1002
}
  0
POINT
  5
1832
330
1F
100
AcDbEntity
  8
0
 60
     1
100
AcDbPoint
 10
-1587.834306114053
 20
-798.6687030228181
 30
0.0
1001
GENIUS_GENOBJ-N-CRS_13
1002
{
1000
OWNER
1000
GEN
1002
}
1001
GENIUS_GENOLIS_13
1002
{
1000
ENT
1005
0
1005
0
1005
0
1005
182D
1002
}
1001
GENIUS_GENOENT_13
1002
{
1000
MYREF
1005
1832
1002
}
1002
{
1000
GRP
1005
0
1002
}
1001
GENIUS_GENODEF_13
1002
{
1000
HIER
1070
    10
1002
}
1002
{
1000
MANEDIT
1070
     1
1002
}
1002
{
1000
NOSEL
1070
     0
1002
}
1002
{
1000
BEHIND
1070
     0
1002
}
1002
{
1000
OTHER
1070
     0
1002
}
1002
{
1000
REACTOR
1002
}
  0
SPLINE
  5
5C32
330
1F
100
AcDbEntity
  8
0
  6
Continuous
 62
     7
370
    15
100
AcDbSpline
210
0.0
220
0.0
230
1.0
 70
    24
 71
     1
 72
     4
 73
     2
 74
     0
 42
0.0000000001
 43
0.0000000001
 40
0.0
 40
0.0
 40
1.0
 40
1.0
 10
430.9174618652691
 20
286.6326038126875
 30
0.0
 10
430.9174618652691
 20
278.6326038126875
 30
0.0
  0
ARC
  5
5C33
102
{ACAD_REACTORS
330
5EF7
102
}
330
1F
100
AcDbEntity
  8
0
  6
Continuous
 62
     7
370
    15
100
AcDbCircle
 10
432.917461865269
 20
278.6326038126875
 30
0.0
 40
2.0
100
AcDbArc
 50
180.0
 51
270.0
  0
ARC
  5
5C34
102
{ACAD_REACTORS
330
5EF7
102
}
330
1F
100
AcDbEntity
  8
0
  6
Continuous
 62
     7
370
    15
100
AcDbCircle
 10
470.917461865269
 20
278.6326038126875
 30
0.0
 40
2.000000000000014
100
AcDbArc
 50
270.0
 51
0.0
  0
ARC
  5
5C35
330
1F
100
AcDbEntity
  8
0
  6
Continuous
 62
     7
370
    15
100
AcDbCircle
 10
432.917461865269
 20
286.6326038126875
 30
0.0
 40
2.000000000000002
100
AcDbArc
 50
110.2767298915626
 51
180.0
  0
SPLINE
  5
5C36
330
1F
100
AcDbEntity
  8
0
  6
Continuous
 62
     7
370
    15
100
AcDbSpline
210
0.0
220
0.0
230
1.0
 70
    24
 71
     1
 72
     4
 73
     2
 74
     0
 42
0.0000000001
 43
0.0000000001
 40
0.0
 40
0.0
 40
1.0
 40
1.0
 10
472.9174618652691
 20
278.6326038126875
 30
0.0
 10
472.9174618652691
 20
286.6326038126875
 30
0.0
  0
ARC
  5
5C37
330
1F
100
AcDbEntity
  8
0
  6
Continuous
 62
     7
370
    15
100
AcDbCircle
 10
470.917461865269
 20
286.6326038126875
 30
0.0
 40
2.000000000000014
100
AcDbArc
 50
0.0
 51
69.75895187006179
  0
LINE
  5
5C40
330
1F
100
AcDbEntity
  8
0
  6
Continuous
 62
     7
370
    15
100
AcDbLine
 10
463.2334674832454
 20
276.6326038126875
 30
0.0
 11
440.6014562472929
 21
276.6326038126875
 31
0.0
  0
LINE
  5
5C4F
330
1F
100
AcDbEntity
  8
0
  6
Continuous
 62
     7
370
    15
100
AcDbLine
 10
440.6014562472929
 20
276.6326038126875
 30
0.0
 11
432.917461865269
 21
276.6326038126875
 31
0.0
  0
LINE
  5
5C50
102
{ACAD_REACTORS
330
5E7F
330
5EA7
330
5ECD
102
}
330
1F
100
AcDbEntity
  8
0
  6
Continuous
 62
     7
370
    15
100
AcDbLine
 10
470.917461865269
 20
276.6326038126875
 30
0.0
 11
463.2334674832454
 21
276.6326038126875
 31
0.0
  0
SPLINE
  5
5C51
330
1F
100
AcDbEntity
  8
0
  6
Continuous
 62
     7
370
    15
100
AcDbSpline
210
0.0
220
0.0
230
1.0
 70
     8
 71
     3
 72
     8
 73
     4
 74
     0
 42
0.0000000001
 43
0.0000000001
 40
0.0
 40
0.0
 40
0.0
 40
0.0
 40
0.0000931525024253
 40
0.0000931525024253
 40
0.0000931525024253
 40
0.0000931525024253
 10
432.2252912781616
 20
288.5089343861404
 30
0.0
 10
432.2251998751435
 20
288.5089510220354
 30
0.0
 10
432.2251541729614
 20
288.5089593384798
 30
0.0
 10
432.2251541729614
 20
288.5089593384798
 30
0.0
  0
ARC
  5
5C62
330
1F
100
AcDbEntity
  8
0
  6
Continuous
 62
     7
370
    15
100
AcDbCircle
 10
430.6674674792413
 20
292.7306798173337
 30
0.0
 40
4.499994386028078
100
AcDbArc
 50
290.2540576497188
 51
359.9999791070798
  0
ARC
  5
5C65
330
1F
100
AcDbEntity
  8
0
  6
Continuous
 62
     7
370
    15
100
AcDbCircle
 10
473.1674545874413
 20
292.7306791248899
 30
0.0
 40
4.499992722172347
100
AcDbArc
 50
180.0000120764462
 51
239.2523725583442
  0
LINE
  5
5C6A
330
1F
100
AcDbEntity
  8
0
  6
Continuous
 62
     7
370
    15
100
AcDbLine
 10
452.0174618652691
 20
341.6167637354639
 30
0.0
 11
451.817461865269
 21
341.6167637354639
 31
0.0
  0
LINE
  5
5C6D
330
1F
100
AcDbEntity
  8
0
  6
Continuous
 62
     7
370
    15
100
AcDbLine
 10
435.167461865269
 20
292.7306781764096
 30
0.0
 11
435.167461865269
 21
343.6430224895176
 31
0.0
  0
ELLIPSE
  5
5C70
330
1F
100
AcDbEntity
  8
0
  6
Continuous
 62
     7
370
    15
100
AcDbEllipse
 10
451.817461865269
 20
356.266763735464
 30
0.0
 11
16.64999999999999
 21
0.0
 31
0.0
210
0.0
220
0.0
230
1.0
 40
0.8798798798798925
 41
3.98037255913965
 42
4.712388980384702
  0
ELLIPSE
  5
5C75
330
1F
100
AcDbEntity
  8
0
  6
Continuous
 62
     7
370
    15
100
AcDbEllipse
 10
452.0174618652691
 20
356.266763735464
 30
0.0
 11
16.64999999999999
 21
0.0
 31
0.0
210
0.0
220
0.0
230
1.0
 40
0.8798798798798925
 41
4.712388980384702
 42
5.444405401629755
  0
LINE
  5
5C7A
330
1F
100
AcDbEntity
  8
0
  6
Continuous
 62
     7
370
    15
100
AcDbLine
 10
468.667461865269
 20
343.6430224895176
 30
0.0
 11
468.667461865269
 21
292.7306781764096
 31
0.0
  0
CIRCLE
  5
5C7F
330
1F
100
AcDbEntity
  8
0
  6
Continuous
 62
     7
370
    15
100
AcDbCircle
 10
451.9174618652691
 20
370.6326038126875
 30
0.0
 40
14.89966442575132
  0
CIRCLE
  5
5C80
330
1F
100
AcDbEntity
  8
0
  6
Continuous
 62
     7
370
    15
100
AcDbCircle
 10
451.9174618652691
 20
370.6326038126875
 30
0.0
 40
12.5
  0
CIRCLE
  5
5C81
330
1F
100
AcDbEntity
  8
0
  6
Continuous
 62
     7
370
    15
100
AcDbCircle
 10
451.9174618652691
 20
370.6326038126875
 30
0.0
 40
18.47295320191115
  0
ARC
  5
5C82
330
1F
100
AcDbEntity
  8
0
  6
Continuous
 62
     7
370
    15
100
AcDbCircle
 10
451.9174618652691
 20
370.6326038126875
 30
0.0
 40
20.97295320191116
100
AcDbArc
 50
246.3973981836176
 51
293.6026018163837
  0
ARC
  5
5C85
330
1F
100
AcDbEntity
  8
0
  6
Continuous
 62
     7
370
    15
100
AcDbCircle
 10
451.9174618652691
 20
370.6326038126875
 30
0.0
 40
20.97295320191116
100
AcDbArc
 50
293.6026018163837
 51
298.4672564858487
  0
ARC
  5
5C87
330
1F
100
AcDbEntity
  8
0
  6
Continuous
 62
     7
370
    15
100
AcDbCircle
 10
451.9174618652691
 20
370.6326038126875
 30
0.0
 40
20.97295320191115
100
AcDbArc
 50
241.5327435141876
 51
246.3973981836176
  0
LINE
  5
5C8A
330
1F
100
AcDbEntity
  8
0
  6
Continuous
 62
     7
370
    15
100
AcDbLine
 10
467.0193350172091
 20
349.4681660147512
 30
0.0
 11
463.1458367467272
 21
345.3696806313321
 31
0.0
  0
LINE
  5
5C8C
330
1F
100
AcDbEntity
  8
0
  6
Continuous
 62
     7
370
    15
100
AcDbLine
 10
436.8155887133291
 20
349.4681660147512
 30
0.0
 11
440.6890869838112
 21
345.3696806313318
 31
0.0
  0
ARC
  5
5C95
330
1F
100
AcDbEntity
  8
0
  6
Continuous
 62
     7
370
    15
100
AcDbCircle
 10
451.9174618652691
 20
370.6326038126875
 30
0.0
 40
25.99999999999999
100
AcDbArc
 50
305.5097352229519
 51
234.490264777048
  0
ARC
  5
5C96
102
{ACAD_REACTORS
330
5E57
330
5ECD
102
}
330
1F
100
AcDbEntity
  8
0
  6
Continuous
 62
     7
370
    15
100
AcDbCircle
 10
451.9402931412616
 20
370.6228769519701
 30
0.0
 40
28.00911528927033
100
AcDbArc
 50
313.3240403636419
 51
225.2685007821389
  0
ARC
  5
5C97
330
1F
100
AcDbEntity
  8
0
  6
Continuous
 62
     7
370
    15
100
AcDbCircle
 10
451.9174618652691
 20
370.6326038126875
 30
0.0
 40
20.97295320191116
100
AcDbArc
 50
298.4672564858487
 51
241.5327435141876
  0
ARC
  5
5C98
330
1F
100
AcDbEntity
  8
0
  6
Continuous
 62
     7
370
    15
100
AcDbCircle
 10
425.1674618652691
 20
343.6430224895176
 30
0.0
 40
9.999999999999996
100
AcDbArc
 50
0.0
 51
45.25543384200997
  0
ARC
  5
5C99
330
1F
100
AcDbEntity
  8
0
  6
Continuous
 62
     7
370
    15
100
AcDbCircle
 10
478.6674618652691
 20
343.6430224895176
 30
0.0
 40
10.00000000000001
100
AcDbArc
 50
138.6723221988342
 51
180.0
  0
SPLINE
  5
5C9A
330
1F
100
AcDbEntity
  8
0
  6
Continuous
 62
     7
370
    15
100
AcDbSpline
210
0.0
220
0.0
230
1.0
 70
    24
 71
     1
 72
     4
 73
     2
 74
     0
 42
0.0000000001
 43
0.0000000001
 40
0.0
 40
0.0
 40
1.0
 40
1.0
 10
432.2278875961259
 20
350.7248467250425
 30
0.0
 10
432.2069355494796
 20
350.7455438903518
 30
0.0
  0
SPLINE
  5
5C9F
330
1F
100
AcDbEntity
  8
0
  6
Continuous
 62
     7
370
    15
100
AcDbSpline
210
0.0
220
0.0
230
1.0
 70
     8
 71
     3
 72
     8
 73
     4
 74
     0
 42
0.0000000001
 43
0.0000000001
 40
0.0000931525024253
 40
0.0000931525024253
 40
0.0000931525024253
 40
0.0000931525024253
 40
0.0001863050048505
 40
0.0001863050048505
 40
0.0001863050048505
 40
0.0001863050048505
 10
471.6097695575768
 20
288.5089593384799
 30
0.0
 10
471.6097695575768
 20
288.5089593384799
 30
0.0
 10
471.6097238553947
 20
288.5089510220354
 30
0.0
 10
471.6096324523766
 20
288.5089343861404
 30
0.0
  0
LWPOLYLINE
  5
5CA0
330
1F
100
AcDbEntity
  8
0
  6
Continuous
 62
     7
370
    15
100
AcDbPolyline
 90
        3
 70
   128
 43
0.0
 10
471.6096324523766
 20
288.5089343861404
 10
470.9877185850711
 20
288.7938420789832
 10
470.8667995649568
 20
288.8632612567096
  0
ARC
  5
5CA2
330
1F
100
AcDbEntity
  8
0
  6
Continuous
 62
     7
370
    15
100
AcDbCircle
 10
538.7423714543102
 20
396.6326038126875
 30
0.0
 40
2.0
100
AcDbArc
 50
90.0
 51
180.0
  0
SPLINE
  5
5CA3
330
1F
100
AcDbEntity
  8
0
  6
Continuous
 62
     7
370
    15
100
AcDbSpline
210
0.0
220
0.0
230
1.0
 70
    24
 71
     1
 72
     4
 73
     2
 74
     0
 42
0.0000000001
 43
0.0000000001
 40
0.0
 40
0.0
 40
1.0
 40
1.0
 10
556.7423714543101
 20
398.6326038126875
 30
0.0
 10
538.7423714543102
 20
398.6326038126875
 30
0.0
  0
ARC
  5
5CA4
330
1F
100
AcDbEntity
  8
0
  6
Continuous
 62
     7
370
    15
100
AcDbCircle
 10
556.7423714543101
 20
396.6326038126875
 30
0.0
 40
2.0
100
AcDbArc
 50
0.0
 51
90.0
  0
ARC
  5
5CA5
330
1F
100
AcDbEntity
  8
0
  6
Continuous
 62
     7
370
    15
100
AcDbCircle
 10
547.7423714543101
 20
370.6326038126875
 30
0.0
 40
21.50000000000001
100
AcDbArc
 50
223.8686643433162
 51
239.2276752320556
  0
ARC
  5
5CA6
102
{ACAD_REACTORS
330
5F43
102
}
330
1F
100
AcDbEntity
  8
0
  6
Continuous
 62
     7
370
    15
100
AcDbCircle
 10
547.7423714543101
 20
370.6326038126875
 30
0.0
 40
21.50000000000003
100
AcDbArc
 50
120.7723247679444
 51
136.1313356566883
  0
ARC
  5
5CA7
330
1F
100
AcDbEntity
  8
0
  6
Continuous
 62
     7
370
    15
100
AcDbCircle
 10
547.7423714543101
 20
370.6326038126875
 30
0.0
 40
21.49999999999999
100
AcDbArc
 50
300.7723247679461
 51
316.1313356566883
  0
ARC
  5
5CA8
102
{ACAD_REACTORS
330
5F43
102
}
330
1F
100
AcDbEntity
  8
0
  6
Continuous
 62
     7
370
    15
100
AcDbCircle
 10
547.7423714543101
 20
370.6326038126875
 30
0.0
 40
21.50000000000001
100
AcDbArc
 50
43.86866434331166
 51
59.2276752320556
  0
SPLINE
  5
5CA9
330
1F
100
AcDbEntity
  8
0
  6
Continuous
 62
     7
370
    15
100
AcDbSpline
210
0.0
220
0.0
230
1.0
 70
     8
 71
     3
 72
    17
 73
    13
 74
     0
 42
0.0000000001
 43
0.0000000001
 40
0.0
 40
0.0
 40
0.0
 40
0.0
 40
0.1077994685562802
 40
0.2106341584645733
 40
0.3161622265286479
 40
0.4234621878871566
 40
0.5320055279974846
 40
0.6414128562597546
 40
0.751422841721236
 40
0.8618582893136782
 40
0.972599114942588
 40
1.0
 40
1.0
 40
1.0
 40
1.0
 10
536.7406870419703
 20
352.1910012390613
 30
0.0
 10
536.7350850419146
 20
351.9304948195476
 30
0.0
 10
536.7241390457679
 20
351.4214797827968
 30
0.0
 10
536.6245881541604
 20
350.6474836774041
 30
0.0
 10
536.4653140968369
 20
349.8713606562198
 30
0.0
 10
536.2340659374762
 20
349.0886740371461
 30
0.0
 10
535.9319108886515
 20
348.3125674150999
 30
0.0
 10
535.5588515304923
 20
347.5547571752173
 30
0.0
 10
535.1186164952919
 20
346.8234623869585
 30
0.0
 10
534.6087760372824
 20
346.1324726338684
 30
0.0
 10
534.1933637921355
 20
345.6357935998003
 30
0.0
 10
533.9323486444251
 20
345.3885025701687
 30
0.0
 10
533.8805753890837
 20
345.3394515410117
 30
0.0
  0
SPLINE
  5
5CAA
330
1F
100
AcDbEntity
  8
0
  6
Continuous
 62
     7
370
    15
100
AcDbSpline
210
0.0
220
0.0
230
1.0
 70
     8
 71
     3
 72
    18
 73
    14
 74
     0
 42
0.0000000001
 43
0.0000000001
 40
0.0
 40
0.0
 40
0.0
 40
0.0
 40
0.0362527428434647
 40
0.1478442493096069
 40
0.258188860199272
 40
0.3672477309113473
 40
0.4749517111398458
 40
0.5811874149088956
 40
0.6857788739547076
 40
0.7884677888483747
 40
0.8889017677628839
 40
0.9897920301629808
 40
1.0
 40
1.0
 40
1.0
 40
1.0
 10
561.4905882515522
 20
345.4572836419595
 30
0.0
 10
561.424695172226
 20
345.5224411231593
 30
0.0
 10
561.1559730816041
 20
345.7881633317238
 30
0.0
 10
560.742676783034
 20
346.3029784663821
 30
0.0
 10
560.2574686969844
 20
346.9918185586662
 30
0.0
 10
559.842722432317
 20
347.7116455235151
 30
0.0
 10
559.4946089919301
 20
348.450017024247
 30
0.0
 10
559.2143351347456
 20
349.1996235330227
 30
0.0
 10
559.0013590924197
 20
349.9510332484108
 30
0.0
 10
558.8515373815152
 20
350.6939645683532
 30
0.0
 10
558.7685975864208
 20
351.4259984515724
 30
0.0
 10
558.7338017259927
 20
351.9248175256621
 30
0.0
 10
558.7441894236337
 20
352.1900421445892
 30
0.0
 10
558.7451438700013
 20
352.2144116134415
 30
0.0
  0
ARC
  5
5CAB
330
1F
100
AcDbEntity
  8
0
  6
Continuous
 62
     7
370
    15
100
AcDbCircle
 10
531.7423695469852
 20
286.7785316231445
 30
0.0
 40
1.999998092673831
100
AcDbArc
 50
143.854700884499
 51
180.0012886388419
  0
LINE
  5
5CAC
102
{ACAD_REACTORS
330
5F1D
102
}
330
1F
100
AcDbEntity
  8
0
  6
Continuous
 62
     7
370
    15
100
AcDbLine
 10
536.7423714543104
 20
352.1596506107762
 30
0.0
 11
536.7423714543101
 21
396.6326038126875
 31
0.0
  0
LINE
  5
5CB2
102
{ACAD_REACTORS
330
5F1D
102
}
330
1F
100
AcDbEntity
  8
0
  6
Continuous
 62
     7
370
    15
100
AcDbLine
 10
558.7423714543101
 20
396.6326038126875
 30
0.0
 11
558.7423714543101
 21
352.1596506107763
 31
0.0
  0
SPLINE
  5
5CB6
330
1F
100
AcDbEntity
  8
0
  6
Continuous
 62
     7
370
    15
100
AcDbSpline
210
0.0
220
0.0
230
1.0
 70
     8
 71
     3
 72
    18
 73
    14
 74
     0
 42
0.0000000001
 43
0.0000000001
 40
0.0
 40
0.0
 40
0.0
 40
0.0
 40
0.1249999999999994
 40
0.1249999999999994
 40
0.2499999999999988
 40
0.2499999999999988
 40
0.3749999999999982
 40
0.3749999999999982
 40
0.4999999999999977
 40
0.4999999999999977
 40
0.7499999999999988
 40
0.7499999999999988
 40
1.0
 40
1.0
 40
1.0
 40
1.0
 10
565.7423714543101
 20
278.6326038126875
 30
0.0
 10
565.7423714543101
 20
278.4966915593344
 30
0.0
 10
565.7286618451077
 20
278.3632676864922
 30
0.0
 10
565.6751064420801
 20
278.1011652626193
 30
0.0
 10
565.634511571719
 20
277.9710993927348
 30
0.0
 10
565.5299412654374
 20
277.7257540501185
 30
0.0
 10
565.4661663801682
 20
277.6098036596265
 30
0.0
 10
565.3160188720057
 20
277.3911438236843
 30
0.0
 10
565.2301410035321
 20
277.2896533586235
 30
0.0
 10
564.9499405862782
 20
277.0171554519627
 30
0.0
 10
564.7275483719262
 20
276.8733957611596
 30
0.0
 10
564.2532495240413
 20
276.6821192253524
 30
0.0
 10
563.9951301041044
 20
276.6326038126875
 30
0.0
 10
563.7423714543102
 20
276.6326038126875
 30
0.0
  0
LINE
  5
5CB7
102
{ACAD_REACTORS
330
5F69
102
}
330
1F
100
AcDbEntity
  8
0
  6
Continuous
 62
     7
370
    15
100
AcDbLine
 10
563.7423714543102
 20
276.6326038126875
 30
0.0
 11
531.7423714543101
 21
276.6326038126875
 31
0.0
  0
SPLINE
  5
5CB8
330
1F
100
AcDbEntity
  8
0
  6
Continuous
 62
     7
370
    15
100
AcDbSpline
210
0.0
220
0.0
230
1.0
 70
     8
 71
     3
 72
    18
 73
    14
 74
     0
 42
0.0000000001
 43
0.0000000001
 40
0.0
 40
0.0
 40
0.0
 40
0.0
 40
0.1250000000000006
 40
0.1250000000000006
 40
0.2500000000000011
 40
0.2500000000000011
 40
0.3750000000000018
 40
0.3750000000000018
 40
0.5000000000000023
 40
0.5000000000000023
 40
0.7500000000000011
 40
0.7500000000000011
 40
1.0
 40
1.0
 40
1.0
 40
1.0
 10
529.7423714543101
 20
278.6326038126875
 30
0.0
 10
529.7423714543101
 20
278.4966915593344
 30
0.0
 10
529.7560810635127
 20
278.3632676864922
 30
0.0
 10
529.8096364665402
 20
278.1011652626193
 30
0.0
 10
529.8502313369012
 20
277.9710993927348
 30
0.0
 10
529.9548016431828
 20
277.7257540501185
 30
0.0
 10
530.0185765284521
 20
277.6098036596265
 30
0.0
 10
530.1687240366146
 20
277.3911438236843
 30
0.0
 10
530.2546019050883
 20
277.2896533586235
 30
0.0
 10
530.534802322342
 20
277.0171554519627
 30
0.0
 10
530.7571945366942
 20
276.8733957611596
 30
0.0
 10
531.2314933845791
 20
276.6821192253524
 30
0.0
 10
531.4896128045159
 20
276.6326038126875
 30
0.0
 10
531.7423714543101
 20
276.6326038126875
 30
0.0
  0
LINE
  5
5CBA
102
{ACAD_REACTORS
330
5F8F
102
}
330
1F
100
AcDbEntity
  8
0
  6
Continuous
 62
     7
370
    15
100
AcDbLine
 10
565.7423714543101
 20
286.7316992183035
 30
0.0
 11
565.7423714543101
 21
278.6326038126875
 31
0.0
  0
LINE
  5
5CBB
102
{ACAD_REACTORS
330
5F8F
102
}
330
1F
100
AcDbEntity
  8
0
  6
Continuous
 62
     7
370
    15
100
AcDbLine
 10
529.7423714543101
 20
286.7785541909135
 30
0.0
 11
529.7423714543101
 21
278.6326038126875
 31
0.0
  0
LINE
  5
5CD7
330
1F
100
AcDbEntity
  8
0
  6
Continuous
 62
     7
370
    15
100
AcDbLine
 10
532.2423714543101
 20
355.7329393869362
 30
0.0
 11
532.2423714543101
 21
385.5322682384388
 31
0.0
  0
LINE
  5
5CD8
330
1F
100
AcDbEntity
  8
0
  6
Continuous
 62
     7
370
    15
100
AcDbLine
 10
563.2423714543101
 20
355.7329393869362
 30
0.0
 11
563.2423714543101
 21
385.5322682384388
 31
0.0
  0
LINE
  5
5CDB
330
1F
100
AcDbEntity
  8
0
  6
Continuous
 62
     7
370
    15
100
AcDbLine
 10
530.9923714543101
 20
290.6109816201026
 30
0.0
 11
530.9923714543101
 21
341.6167637354639
 31
0.0
  0
LINE
  5
5CDF
330
1F
100
AcDbEntity
  8
0
  6
Continuous
 62
     7
370
    15
100
AcDbLine
 10
564.4923714543101
 20
341.6167637354639
 30
0.0
 11
564.4923714543101
 21
290.6109816201026
 31
0.0
  0
ARC
  5
5CED
330
1F
100
AcDbEntity
  8
0
  6
Continuous
 62
     7
370
    15
100
AcDbCircle
 10
562.4923714543101
 20
341.6167637354639
 30
0.0
 40
2.000000000000015
100
AcDbArc
 50
0.0
 51
45.0
  0
LINE
  5
5CEF
330
1F
100
AcDbEntity
  8
0
  6
Continuous
 62
     7
370
    15
100
AcDbLine
 10
561.4905882515522
 20
345.4572836419595
 30
0.0
 11
563.9065850166832
 21
343.030977297837
 31
0.0
  0
ARC
  5
5CF0
330
1F
100
AcDbEntity
  8
0
  6
Continuous
 62
     7
370
    15
100
AcDbCircle
 10
532.9923714543101
 20
341.6167637354639
 30
0.0
 40
2.000000000000015
100
AcDbArc
 50
135.0
 51
180.0
  0
LINE
  5
5CF1
330
1F
100
AcDbEntity
  8
0
  6
Continuous
 62
     7
370
    15
100
AcDbLine
 10
531.578157891937
 20
343.0309772978369
 30
0.0
 11
533.8708617207902
 21
345.3236811266901
 31
0.0
  0
ARC
  5
5CF3
330
1F
100
AcDbEntity
  8
0
  6
Continuous
 62
     7
370
    15
100
AcDbCircle
 10
526.4923714543101
 20
290.6109816201026
 30
0.0
 40
4.500000000000023
100
AcDbArc
 50
323.8710725280597
 51
0.0
  0
ARC
  5
5CF4
330
1F
100
AcDbEntity
  8
0
  6
Continuous
 62
     7
370
    15
100
AcDbCircle
 10
568.9923714543101
 20
290.6109816201025
 30
0.0
 40
4.50000000000003
100
AcDbArc
 50
180.0
 51
216.1289274719404
  0
ARC
  5
5CF5
330
1F
100
AcDbEntity
  8
0
  6
Continuous
 62
     7
370
    15
100
AcDbCircle
 10
563.7423714543102
 20
286.7785541909135
 30
0.0
 40
2.0
100
AcDbArc
 50
0.0
 51
36.12892747194036
  0
SPLINE
  5
5CF6
330
1F
100
AcDbEntity
  8
0
  6
Continuous
 62
     7
370
    15
100
AcDbSpline
210
0.0
220
0.0
230
1.0
 70
    24
 71
     3
 72
     9
 73
     5
 74
     0
 42
0.0000000001
 43
0.0000000001
 40
0.0
 40
0.0
 40
0.0
 40
0.0
 40
0.985901270698695
 40
1.0
 40
1.0
 40
1.0
 40
1.0
 10
565.7423714543101
 20
286.7785541909135
 30
0.0
 10
565.7423714543101
 20
286.7668996515107
 30
0.0
 10
565.7423714543101
 20
286.7550784481619
 30
0.0
 10
565.7423714543101
 20
286.732024253158
 30
0.0
 10
565.7423714543101
 20
286.7316992183034
 30
0.0
  0
LINE
  5
5D03
102
{ACAD_REACTORS
330
5F69
102
}
330
1F
100
AcDbEntity
  8
AM_4
100
AcDbLine
 10
560.2423714543101
 20
324.6326038126875
 30
0.0
 11
535.2423714543101
 21
324.6326038126875
 31
0.0
  0
ARC
  5
5D08
330
1F
100
AcDbEntity
  8
0
  6
HIDDEN
 62
     7
370
     0
100
AcDbCircle
 10
531.7423714543101
 20
286.7785541909135
 30
0.0
 40
2.0
100
AcDbArc
 50
143.8710725280596
 51
180.0
  0
SPLINE
  5
5D22
330
1F
100
AcDbEntity
  8
0
  6
HIDDEN
 62
     7
370
     0
100
AcDbSpline
210
0.0
220
0.0
230
1.0
 70
    24
 71
     1
 72
     4
 73
     2
 74
     0
 42
0.0000000001
 43
0.0000000001
 40
0.0
 40
0.0
 40
1.0
 40
1.0
 10
565.3567906571754
 20
287.9576577715603
 30
0.0
 10
565.3577560696947
 20
287.957762630664
 30
0.0
  0
SPLINE
  5
5D3D
330
1F
100
AcDbEntity
  8
AM_4
100
AcDbSpline
210
0.0
220
0.0
230
1.0
 70
    24
 71
     1
 72
     4
 73
     2
 74
     0
 42
0.0000000001
 43
0.0000000001
 40
0.0
 40
0.0
 40
1.0
 40
1.0
 10
563.2423714543101
 20
383.1326038126875
 30
0.0
 10
532.2423714543101
 20
383.1326038126875
 30
0.0
  0
SPLINE
  5
5D3E
330
1F
100
AcDbEntity
  8
AM_4
100
AcDbSpline
210
0.0
220
0.0
230
1.0
 70
    24
 71
     1
 72
     4
 73
     2
 74
     0
 42
0.0000000001
 43
0.0000000001
 40
0.0
 40
0.0
 40
1.0
 40
1.0
 10
532.2423714543101
 20
358.1326038126875
 30
0.0
 10
563.2423714543101
 20
358.1326038126875
 30
0.0
  0
SPLINE
  5
5D3F
330
1F
100
AcDbEntity
  8
AM_4
100
AcDbSpline
210
0.0
220
0.0
230
1.0
 70
    24
 71
     1
 72
     4
 73
     2
 74
     0
 42
0.0000000001
 43
0.0000000001
 40
0.0
 40
0.0
 40
1.0
 40
1.0
 10
560.2423714543101
 20
276.6326038126875
 30
0.0
 10
560.2423714543101
 20
324.6326038126875
 30
0.0
  0
SPLINE
  5
5D40
330
1F
100
AcDbEntity
  8
AM_4
100
AcDbSpline
210
0.0
220
0.0
230
1.0
 70
    24
 71
     1
 72
     4
 73
     2
 74
     0
 42
0.0000000001
 43
0.0000000001
 40
0.0
 40
0.0
 40
1.0
 40
1.0
 10
535.2423714543101
 20
324.6326038126875
 30
0.0
 10
535.2423714543101
 20
276.6326038126875
 30
0.0
  0
LINE
  5
5D43
330
1F
100
AcDbEntity
  8
0
  6
HIDDEN
 62
     7
370
     0
100
AcDbLine
 10
529.7423714639923
 20
286.7783348807953
 30
0.0
 11
529.7423714548171
 21
286.7784866412062
 31
0.0
  0
LINE
  5
5D44
330
1F
100
AcDbEntity
  8
0
  6
HIDDEN
 62
     7
370
     0
100
AcDbLine
 10
565.7423704922465
 20
286.6309763509632
 30
0.0
 11
565.742371337116
 21
286.6336226831512
 31
0.0
  0
LINE
  5
5D45
330
1F
100
AcDbEntity
  8
0
  6
HIDDEN
 62
     7
370
     0
100
AcDbLine
 10
529.7423715715043
 20
286.6336226831512
 30
0.0
 11
529.7423724163738
 21
286.6309763509632
 31
0.0
  0
LINE
  5
5D49
330
1F
100
AcDbEntity
  8
0
  6
HIDDEN
 62
     7
370
     0
100
AcDbLine
 10
565.742371419552
 20
286.7779950951859
 30
0.0
 11
565.7423714161601
 21
286.777977325876
 31
0.0
  0
LINE
  5
5E09
330
1F
100
AcDbEntity
  8
0
  6
Continuous
 62
     7
370
    15
100
AcDbLine
 10
465.0825858819682
 20
347.4189233230416
 30
0.0
 11
438.7523378485702
 21
347.4189233230414
 31
0.0
  0
LINE
  5
5E0B
102
{ACAD_REACTORS
330
5E57
330
5EA7
102
}
330
1F
100
AcDbEntity
  8
AM_7
100
AcDbLine
 10
420.0704558890548
 20
370.6228769519701
 30
0.0
 11
483.8550338991389
 21
370.6228769519701
 31
0.0
  0
LINE
  5
5E0C
102
{ACAD_REACTORS
330
5ECD
102
}
330
1F
100
AcDbEntity
  8
AM_7
100
AcDbLine
 10
451.9402931412616
 20
336.5284191628698
 30
0.0
 11
451.9402931412616
 21
403.9394399677636
 31
0.0
  0
DIMENSION
  5
5E49
102
{ACAD_XDICTIONARY
360
5E56
102
}
102
{ACAD_REACTORS
330
5E57
102
}
330
1F
100
AcDbEntity
  8
AM_REFDIM
100
AcDbDimension
  2
*D14
 10
479.949408430532
 20
416.6319932512404
 30
0.0
 11
451.9402931412616
 21
418.2819932512404
 31
0.0
 70
    32
 71
     5
 42
56.01823057854062
  3
AM_ISO$0
100
AcDbAlignedDimension
 13
423.9311778519914
 23
370.6228769519701
 33
0.0
 14
479.949408430532
 24
370.6228769519701
 34
0.0
 50
0.0000000000000114
100
AcDbRotatedDimension
1001
ACAD
1000
DSTYLE
1002
{
1070
    40
1040
0.6
1070
   271
1070
     0
1002
}
  0
DIMENSION
  5
5E6F
102
{ACAD_XDICTIONARY
360
5E7E
102
}
102
{ACAD_REACTORS
330
5E7F
102
}
330
1F
100
AcDbEntity
  8
AM_REFDIM
100
AcDbDimension
  2
*D15
 10
480.5302364685917
 20
276.6326038126875
 30
0.0
 11
480.5302364685916
 21
282.5707815755837
 31
0.0
 70
   160
 71
     5
 42
11.8763555257924
  3
AM_ISO$0
100
AcDbAlignedDimension
 13
471.6097695575768
 23
288.5089593384799
 33
0.0
 14
470.917461865269
 24
276.6326038126875
 34
0.0
 50
90.0
100
AcDbRotatedDimension
1001
ACAD
1000
DSTYLE
1002
{
1070
    40
1040
0.6
1070
   271
1070
     0
1002
}
  0
DIMENSION
  5
5E99
102
{ACAD_XDICTIONARY
360
5EA6
102
}
102
{ACAD_REACTORS
330
5EA7
102
}
330
1F
100
AcDbEntity
  8
AM_REFDIM
100
AcDbDimension
  2
*D16
 10
486.467259285586
 20
370.6228769519701
 30
0.0
 11
486.4672592855859
 21
323.6277403823288
 31
0.0
 70
   160
 71
     5
 42
93.99027313928263
  3
AM_ISO$0
100
AcDbAlignedDimension
 13
470.917461865269
 23
276.6326038126875
 33
0.0
 14
483.8550338991389
 24
370.6228769519701
 34
0.0
 50
90.0
100
AcDbRotatedDimension
1001
ACAD
1000
DSTYLE
1002
{
1070
    40
1040
0.6
1070
   271
1070
     0
1002
}
  0
DIMENSION
  5
5EBF
102
{ACAD_XDICTIONARY
360
5ECC
102
}
102
{ACAD_REACTORS
330
5ECD
102
}
330
1F
100
AcDbEntity
  8
AM_REFDIM
100
AcDbDimension
  2
*D17
 10
493.1548879264619
 20
276.6326038126875
 30
0.0
 11
493.1548879264618
 21
337.632298026964
 31
0.0
 70
   160
 71
     5
 42
121.9993884285529
  3
AM_ISO$0
100
AcDbAlignedDimension
 13
451.9402931412616
 23
398.6319922412404
 33
0.0
 14
470.917461865269
 24
276.6326038126875
 34
0.0
 50
90.0
100
AcDbRotatedDimension
1001
ACAD
1000
DSTYLE
1002
{
1070
    40
1040
0.6
1070
   271
1070
     0
1002
}
  0
DIMENSION
  5
5EE9
102
{ACAD_XDICTIONARY
360
5EF6
102
}
102
{ACAD_REACTORS
330
5EF7
102
}
330
1F
100
AcDbEntity
  8
AM_REFDIM
100
AcDbDimension
  2
*D18
 10
472.9174618652691
 20
269.0084194739059
 30
0.0
 11
451.9174618652691
 21
269.0084194739059
 31
0.0
 70
   160
 71
     5
 42
42.0
  3
AM_ISO$0
100
AcDbAlignedDimension
 13
430.9174618652691
 23
278.6326038126875
 33
0.0
 14
472.9174618652691
 24
278.6326038126875
 34
0.0
 50
0.0000000000001132
100
AcDbRotatedDimension
1001
ACAD
1000
DSTYLE
1002
{
1070
    40
1040
0.6
1070
   271
1070
     0
1002
}
  0
DIMENSION
  5
5F0F
102
{ACAD_XDICTIONARY
360
5F1C
102
}
102
{ACAD_REACTORS
330
5F1D
102
}
330
1F
100
AcDbEntity
  8
AM_REFDIM
100
AcDbDimension
  2
*D19
 10
558.7423714543101
 20
404.6221754260667
 30
0.0
 11
547.7423714543101
 21
406.2723821189801
 31
0.0
 70
    32
 71
     5
 42
22.0
  3
AM_ISO$0
100
AcDbAlignedDimension
 13
536.7423714543101
 23
396.6326038126875
 33
0.0
 14
558.7423714543101
 24
396.6326038126875
 34
0.0
100
AcDbRotatedDimension
1001
ACAD
1000
DSTYLE
1002
{
1070
    40
1040
0.6
1070
   271
1070
     0
1002
}
  0
DIMENSION
  5
5F35
102
{ACAD_XDICTIONARY
360
5F42
102
}
102
{ACAD_REACTORS
330
5F43
102
}
330
1F
100
AcDbEntity
  8
AM_REFDIM
100
AcDbDimension
  2
*D20
 10
563.2423714543109
 20
416.6221754260664
 30
0.0
 11
547.7423714543101
 21
418.2721754260664
 31
0.0
 70
    32
 71
     5
 42
31.00000000000159
  3
AM_ISO$0
100
AcDbAlignedDimension
 13
532.2423714543093
 23
385.532268238438
 33
0.0
 14
563.2423714543109
 24
385.532268238438
 34
0.0
100
AcDbRotatedDimension
1001
ACAD
1000
DSTYLE
1002
{
1070
    40
1040
0.6
1070
   271
1070
     0
1002
}
  0
DIMENSION
  5
5F5B
102
{ACAD_XDICTIONARY
360
5F68
102
}
102
{ACAD_REACTORS
330
5F69
102
}
330
1F
100
AcDbEntity
  8
AM_REFDIM
100
AcDbDimension
  2
*D21
 10
575.7663892311807
 20
276.6326038126874
 30
0.0
 11
575.7663892311805
 21
300.6326038126874
 31
0.0
 70
   160
 71
     5
 42
48.00000000000006
  3
AM_ISO$0
100
AcDbAlignedDimension
 13
560.2423714543101
 23
324.6326038126875
 33
0.0
 14
563.7423714543102
 24
276.6326038126874
 34
0.0
 50
90.0
100
AcDbRotatedDimension
1001
ACAD
1000
DSTYLE
1002
{
1070
    40
1040
0.6
1070
   271
1070
     0
1002
}
  0
DIMENSION
  5
5F81
102
{ACAD_XDICTIONARY
360
5F8E
102
}
102
{ACAD_REACTORS
330
5F8F
102
}
330
1F
100
AcDbEntity
  8
AM_REFDIM
100
AcDbDimension
  2
*D22
 10
565.7423714543101
 20
269.0084194739059
 30
0.0
 11
547.7423714543101
 21
269.0084194739059
 31
0.0
 70
   160
 71
     5
 42
36.0
  3
AM_ISO$0
100
AcDbAlignedDimension
 13
529.7423714543101
 23
278.6326038126875
 33
0.0
 14
565.7423714543101
 24
278.6326038126875
 34
0.0
 50
0.0000000000001132
100
AcDbRotatedDimension
1001
ACAD
1000
DSTYLE
1002
{
1070
    40
1040
0.6
1070
   271
1070
     0
1002
}
  0
LINE
  5
60B3
330
1F
100
AcDbEntity
  8
AM_7
100
AcDbLine
 10
526.8046707620267
 20
370.6228769519701
 30
0.0
 11
567.5484510087519
 21
370.6228769519701
 31
0.0
  0
DIMENSION
  5
60E1
330
1F
100
AcDbEntity
  8
AM_REFDIM
100
AcDbDimension
  2
*D23
 10
575.7663892311807
 20
358.1326038126875
 30
0.0
 11
574.1161825382672
 21
370.6326038126875
 31
0.0
 70
    32
  1
%%c<>
 71
     5
 42
25.0
  3
AM_ISO$0
100
AcDbAlignedDimension
 13
563.2423714543101
 23
383.1326038126875
 33
0.0
 14
563.2423714543101
 24
358.1326038126875
 34
0.0
 50
90.00000000000003
100
AcDbRotatedDimension
1001
ACAD
1000
DSTYLE
1002
{
1070
    40
1040
0.6
1070
   271
1070
     0
1002
}
  0
ENDSEC
  0
SECTION
  2
OBJECTS
  0
DICTIONARY
  5
C
330
0
100
AcDbDictionary
281
     1
  3
ACAD_COLOR
350
BE
  3
ACAD_GROUP
350
D
  3
ACAD_LAYOUT
350
1A
  3
ACAD_MATERIAL
350
BD
  3
ACAD_MLINESTYLE
350
17
  3
ACAD_PLOTSETTINGS
350
19
  3
ACAD_PLOTSTYLENAME
350
E
  3
ACAD_TABLESTYLE
350
11A
  3
ACDBHEADERROUNDTRIPXREC
350
610F
  3
AcDbVariableDictionary
350
94
  3
AcmDictionary
350
5B
  3
AMG
350
41
  3
AMGSNAPSETTINGS
350
1B8
  3
DWGPROPS
350
610E
  3
MAPISURF_MODULE
350
3A15
  0
DICTIONARY
  5
3F9
330
2
100
AcDbDictionary
280
     1
281
     1
  3
ACAD_LAYERFILTERS
360
5645
  3
ACAD_LAYERSTATES
360
AD2
  3
ACLYDICTIONARY
360
5644
  0
DICTIONARY
  5
8F
330
1F
100
AcDbDictionary
280
     1
281
     1
  3
ACAD_INDEX
360
3D28
  0
DICTIONARY
  5
5E56
330
5E49
100
AcDbDictionary
280
     1
281
     1
  3
ACAD_DIMASSOC
360
5E57
  0
DICTIONARY
  5
5E7E
330
5E6F
100
AcDbDictionary
280
     1
281
     1
  3
ACAD_DIMASSOC
360
5E7F
  0
DICTIONARY
  5
5EA6
330
5E99
100
AcDbDictionary
280
     1
281
     1
  3
ACAD_DIMASSOC
360
5EA7
  0
DICTIONARY
  5
5ECC
330
5EBF
100
AcDbDictionary
280
     1
281
     1
  3
ACAD_DIMASSOC
360
5ECD
  0
DICTIONARY
  5
5EF6
330
5EE9
100
AcDbDictionary
280
     1
281
     1
  3
ACAD_DIMASSOC
360
5EF7
  0
DICTIONARY
  5
5F1C
330
5F0F
100
AcDbDictionary
280
     1
281
     1
  3
ACAD_DIMASSOC
360
5F1D
  0
DICTIONARY
  5
5F42
330
5F35
100
AcDbDictionary
280
     1
281
     1
  3
ACAD_DIMASSOC
360
5F43
  0
DICTIONARY
  5
5F68
330
5F5B
100
AcDbDictionary
280
     1
281
     1
  3
ACAD_DIMASSOC
360
5F69
  0
DICTIONARY
  5
5F8E
330
5F81
100
AcDbDictionary
280
     1
281
     1
  3
ACAD_DIMASSOC
360
5F8F
  0
DICTIONARY
  5
BE
102
{ACAD_REACTORS
330
C
102
}
330
C
100
AcDbDictionary
281
     1
  0
DICTIONARY
  5
D
102
{ACAD_REACTORS
330
C
102
}
330
C
100
AcDbDictionary
281
     1
  0
DICTIONARY
  5
1A
102
{ACAD_REACTORS
330
C
102
}
330
C
100
AcDbDictionary
281
     1
  3
Model
350
22
  3
配置1
350
1E
  3
配置2
350
26
  0
DICTIONARY
  5
BD
102
{ACAD_REACTORS
330
C
102
}
330
C
100
AcDbDictionary
281
     1
  0
DICTIONARY
  5
17
102
{ACAD_REACTORS
330
C
102
}
330
C
100
AcDbDictionary
281
     1
  3
Standard
350
18
  0
DICTIONARY
  5
19
102
{ACAD_REACTORS
330
C
102
}
330
C
100
AcDbDictionary
281
     1
  0
ACDBDICTIONARYWDFLT
  5
E
102
{ACAD_REACTORS
330
C
102
}
330
C
100
AcDbDictionary
281
     1
  3
Normal
350
F
100
AcDbDictionaryWithDefault
340
F
  0
DICTIONARY
  5
11A
102
{ACAD_REACTORS
330
C
102
}
330
C
100
AcDbDictionary
281
     1
  3
Standard
350
11B
  0
DICTIONARY
  5
610F
102
{ACAD_REACTORS
330
C
102
}
330
C
100
AcDbDictionary
281
     1
  0
DICTIONARY
  5
94
102
{ACAD_REACTORS
330
C
102
}
330
C
100
AcDbDictionary
281
     1
  3
CTABLESTYLE
350
138
  3
DIMASSOC
350
96
  3
INDEXCTL
350
95
  3
PROJECTNAME
350
1B44
  0
DICTIONARY
  5
5B
102
{ACAD_REACTORS
330
C
102
}
330
C
100
AcDbDictionary
281
     1
  3
AcmBOM
350
1B5
  3
AcmStdDictionary
350
61
  3
AMDTSECTSYM_ARROWCOLOR
350
123
  0
DICTIONARY
  5
41
102
{ACAD_REACTORS
330
C
102
}
330
C
100
AcDbDictionary
281
     1
  3
AcMgSettings
350
398F
  0
DICTIONARY
  5
1B8
102
{ACAD_REACTORS
330
C
102
}
330
C
100
AcDbDictionary
281
     1
  0
XRECORD
  5
610E
102
{ACAD_REACTORS
330
C
102
}
330
C
100
AcDbXrecord
280
     1
  1
DWGPROPS COOKIE
  2

  3

  4

  6

  7

  8

  9

300
AmdtFileType=84
301
=
302
=
303
=
304
=
305
=
306
=
307
=
308
=
309
=
 40
0.2097867013888889
 41
2454392.703168762
 42
2456052.369022708
  1

 90
        1
  0
DICTIONARY
  5
5645
102
{ACAD_REACTORS
330
3F9
102
}
330
3F9
100
AcDbDictionary
281
     1
  0
DICTIONARY
  5
AD2
102
{ACAD_REACTORS
330
3F9
102
}
330
3F9
100
AcDbDictionary
281
     1
  0
DICTIONARY
  5
5644
102
{ACAD_REACTORS
330
3F9
102
}
330
3F9
100
AcDbDictionary
281
     1
1001
ACAD
1000
<All
  0
DICTIONARY
  5
3D28
102
{ACAD_REACTORS
330
8F
102
}
330
8F
100
AcDbDictionary
281
     1
  3
*A1
350
3D29
  0
DIMASSOC
  5
5E57
102
{ACAD_REACTORS
330
5E56
102
}
330
5E56
100
AcDbDimAssoc
330
5E49
 90
        3
 70
     0
 71
     0
  1
AcDbOsnapPointRef
 72
     6
331
5E0B
 73
     0
 91
        0
 40
0.0605275143832761
 10
0.0
 20
0.0
 30
0.0
332
5C96
 74
     0
 92
        0
 75
     0
  1
AcDbOsnapPointRef
 72
     6
331
5E0B
 73
     0
 91
        0
 40
0.9387684987429171
 10
0.0
 20
0.0
 30
0.0
332
5C96
 74
     0
 92
        0
 75
     0
  0
DIMASSOC
  5
5E7F
102
{ACAD_REACTORS
330
5E7E
102
}
330
5E7E
100
AcDbDimAssoc
330
5E6F
 90
        2
 70
     0
 71
     0
  1
AcDbOsnapPointRef
 72
    13
331
5C50
 73
     0
 91
        0
 40
0.0
 10
0.0
 20
0.0
 30
2.000000000000000E+50
 75
     0
  0
DIMASSOC
  5
5EA7
102
{ACAD_REACTORS
330
5EA6
102
}
330
5EA6
100
AcDbDimAssoc
330
5E99
 90
        3
 70
     0
 71
     0
  1
AcDbOsnapPointRef
 72
    13
331
5C50
 73
     0
 91
        0
 40
0.0
 10
0.0
 20
0.0
 30
2.000000000000000E+50
 75
     0
  1
AcDbOsnapPointRef
 72
     1
331
5E0B
 73
     0
 91
        0
 40
0.0
 10
0.0
 20
0.0
 30
2.000000000000000E+50
 75
     0
  0
DIMASSOC
  5
5ECD
102
{ACAD_REACTORS
330
5ECC
102
}
330
5ECC
100
AcDbDimAssoc
330
5EBF
 90
        3
 70
     0
 71
     0
  1
AcDbOsnapPointRef
 72
     6
331
5E0C
 73
     0
 91
        0
 40
0.9212673586135945
 10
0.0
 20
0.0
 30
0.0
332
5C96
 74
     0
 92
        0
 75
     0
  1
AcDbOsnapPointRef
 72
    13
331
5C50
 73
     0
 91
        0
 40
0.0
 10
0.0
 20
0.0
 30
2.000000000000000E+50
 75
     0
  0
DIMASSOC
  5
5EF7
102
{ACAD_REACTORS
330
5EF6
102
}
330
5EF6
100
AcDbDimAssoc
330
5EE9
 90
        3
 70
     0
 71
     0
  1
AcDbOsnapPointRef
 72
    13
331
5C33
 73
     0
 91
        0
 40
0.0
 10
0.0
 20
0.0
 30
2.000000000000000E+50
 75
     0
  1
AcDbOsnapPointRef
 72
     1
331
5C34
 73
     0
 91
        0
 40
0.0
 10
0.0
 20
0.0
 30
2.000000000000000E+50
 75
     0
  0
DIMASSOC
  5
5F1D
102
{ACAD_REACTORS
330
5F1C
102
}
330
5F1C
100
AcDbDimAssoc
330
5F0F
 90
        3
 70
     0
 71
     0
  1
AcDbOsnapPointRef
 72
     1
331
5CAC
 73
     0
 91
        0
 40
0.0
 10
0.0
 20
0.0
 30
2.000000000000000E+50
 75
     0
  1
AcDbOsnapPointRef
 72
    13
331
5CB2
 73
     0
 91
        0
 40
0.0
 10
0.0
 20
0.0
 30
2.000000000000000E+50
 75
     0
  0
DIMASSOC
  5
5F43
102
{ACAD_REACTORS
330
5F42
102
}
330
5F42
100
AcDbDimAssoc
330
5F35
 90
        3
 70
     0
 71
     0
  1
AcDbOsnapPointRef
 72
     1
331
5CA6
 73
     0
 91
        0
 40
0.0
 10
0.0
 20
0.0
 30
2.000000000000000E+50
 75
     0
  1
AcDbOsnapPointRef
 72
    13
331
5CA8
 73
     0
 91
        0
 40
0.0
 10
0.0
 20
0.0
 30
2.000000000000000E+50
 75
     0
  0
DIMASSOC
  5
5F69
102
{ACAD_REACTORS
330
5F68
102
}
330
5F68
100
AcDbDimAssoc
330
5F5B
 90
        3
 70
     0
 71
     0
  1
AcDbOsnapPointRef
 72
    13
331
5D03
 73
     0
 91
        0
 40
0.0
 10
0.0
 20
0.0
 30
2.000000000000000E+50
 75
     0
  1
AcDbOsnapPointRef
 72
    13
331
5CB7
 73
     0
 91
        0
 40
0.0
 10
0.0
 20
0.0
 30
2.000000000000000E+50
 75
     0
  0
DIMASSOC
  5
5F8F
102
{ACAD_REACTORS
330
5F8E
102
}
330
5F8E
100
AcDbDimAssoc
330
5F81
 90
        3
 70
     0
 71
     0
  1
AcDbOsnapPointRef
 72
     1
331
5CBB
 73
     0
 91
        0
 40
0.0
 10
0.0
 20
0.0
 30
2.000000000000000E+50
 75
     0
  1
AcDbOsnapPointRef
 72
     1
331
5CBA
 73
     0
 91
        0
 40
0.0
 10
0.0
 20
0.0
 30
2.000000000000000E+50
 75
     0
  0
LAYOUT
  5
22
102
{ACAD_XDICTIONARY
360
6112
102
}
102
{ACAD_REACTORS
330
1A
102
}
330
1A
100
AcDbPlotSettings
  1

  2
\\RD\EPSON Stylus C63 Series單色
  4
A4
  6

 40
3.757083177566528
 41
3.757076978683471
 42
3.757080078125
 43
3.757080078125
 44
209.9733276367187
 45
296.9683227539062
 46
0.0
 47
0.0
 48
0.0
 49
0.0
140
0.0
141
0.0
142
1.0
143
0.3405120737814363
 70
 11952
 72
     1
 73
     0
 74
     0
  7
單色出圖.ctb
 75
     0
147
2.936753428137963
148
-2047.07469463503
149
-1261.649717473083
100
AcDbLayout
  1
Model
 70
     1
 71
     0
 10
0.0
 20
0.0
 11
12.0
 21
9.0
 12
0.0
 22
0.0
 32
0.0
 14
0.0
 24
0.0
 34
0.0
 15
0.0
 25
0.0
 35
0.0
146
0.0
 13
0.0
 23
0.0
 33
0.0
 16
1.0
 26
0.0
 36
0.0
 17
0.0
 27
1.0
 37
0.0
 76
     0
330
1F
1001
ACAD_PSEXT
1000
\\RD\EPSON Stylus C63 Series單色
1000
EPSON Stylus C63 Series
1000
\\RD
1000

1070
     0
  0
LAYOUT
  5
1E
102
{ACAD_XDICTIONARY
360
6110
102
}
102
{ACAD_REACTORS
330
1A
102
}
330
1A
100
AcDbPlotSettings
  1

  2

  4

  6

 40
0.0
 41
0.0
 42
0.0
 43
0.0
 44
0.0
 45
0.0
 46
0.0
 47
0.0
 48
0.0
 49
0.0
140
0.0
141
0.0
142
1.0
143
1.0
 70
   688
 72
     0
 73
     0
 74
     5
  7
單色出圖.ctb
 75
    16
147
1.0
148
0.0
149
0.0
100
AcDbLayout
  1
配置1
 70
     1
 71
     1
 10
0.0
 20
0.0
 11
420.0
 21
297.0
 12
0.0
 22
0.0
 32
0.0
 14
1.000000000000000E+20
 24
1.000000000000000E+20
 34
1.000000000000000E+20
 15
-1.000000000000000E+20
 25
-1.000000000000000E+20
 35
-1.000000000000000E+20
146
0.0
 13
0.0
 23
0.0
 33
0.0
 16
1.0
 26
0.0
 36
0.0
 17
0.0
 27
1.0
 37
0.0
 76
     0
330
1B
  0
LAYOUT
  5
26
102
{ACAD_XDICTIONARY
360
6114
102
}
102
{ACAD_REACTORS
330
1A
102
}
330
1A
100
AcDbPlotSettings
  1

  2

  4

  6

 40
0.0
 41
0.0
 42
0.0
 43
0.0
 44
0.0
 45
0.0
 46
0.0
 47
0.0
 48
0.0
 49
0.0
140
0.0
141
0.0
142
1.0
143
1.0
 70
   688
 72
     0
 73
     0
 74
     5
  7
單色出圖.ctb
 75
    16
147
1.0
148
0.0
149
0.0
100
AcDbLayout
  1
配置2
 70
     1
 71
     2
 10
0.0
 20
0.0
 11
12.0
 21
9.0
 12
0.0
 22
0.0
 32
0.0
 14
0.0
 24
0.0
 34
0.0
 15
0.0
 25
0.0
 35
0.0
146
0.0
 13
0.0
 23
0.0
 33
0.0
 16
1.0
 26
0.0
 36
0.0
 17
0.0
 27
1.0
 37
0.0
 76
     0
330
23
  0
MLINESTYLE
  5
18
102
{ACAD_REACTORS
330
17
102
}
330
17
100
AcDbMlineStyle
  2
STANDARD
 70
     0
  3

 62
   256
 51
90.0
 52
90.0
 71
     2
 49
0.5
 62
   256
  6
BYLAYER
 49
-0.5
 62
   256
  6
BYLAYER
  0
ACDBPLACEHOLDER
  5
F
102
{ACAD_REACTORS
330
E
102
}
330
E
  0
TABLESTYLE
  5
11B
102
{ACAD_REACTORS
330
11A
102
}
330
11A
100
AcDbTableStyle
  3
Standard
 70
     0
 71
     0
 40
1.5
 41
1.5
280
     0
281
     0
  7
STANDARD
140
4.5
170
     2
 62
     0
 63
     7
283
     0
274
    -2
284
     1
 64
     0
275
    -2
285
     1
 65
     0
276
    -2
286
     1
 66
     0
277
    -2
287
     1
 67
     0
278
    -2
288
     1
 68
     0
279
    -2
289
     1
 69
     0
  7
STANDARD
140
6.0
170
     5
 62
     0
 63
     7
283
     0
274
    -2
284
     1
 64
     0
275
    -2
285
     1
 65
     0
276
    -2
286
     1
 66
     0
277
    -2
287
     1
 67
     0
278
    -2
288
     1
 68
     0
279
    -2
289
     1
 69
     0
  7
STANDARD
140
4.5
170
     5
 62
     0
 63
     7
283
     0
274
    -2
284
     1
 64
     0
275
    -2
285
     1
 65
     0
276
    -2
286
     1
 66
     0
277
    -2
287
     1
 67
     0
278
    -2
288
     1
 68
     0
279
    -2
289
     1
 69
     0
  0
DICTIONARYVAR
  5
138
102
{ACAD_REACTORS
330
94
102
}
330
94
100
DictionaryVariables
280
     0
  1
STANDARD
  0
DICTIONARYVAR
  5
96
102
{ACAD_REACTORS
330
94
102
}
330
94
100
DictionaryVariables
280
     0
  1
2
  0
DICTIONARYVAR
  5
95
102
{ACAD_REACTORS
330
94
102
}
330
94
100
DictionaryVariables
280
     0
  1
1
  0
DICTIONARYVAR
  5
1B44
102
{ACAD_REACTORS
330
94
102
}
330
94
100
DictionaryVariables
280
     0
  1

  0
DICTIONARY
  5
1B5
102
{ACAD_REACTORS
330
5B
102
}
330
5B
100
AcDbDictionary
281
     1
  0
DICTIONARY
  5
61
102
{ACAD_REACTORS
330
5B
102
}
330
5B
100
AcDbDictionary
281
     1
  0
XRECORD
  5
123
102
{ACAD_REACTORS
330
5B
102
}
330
5B
100
AcDbXrecord
280
     1
 90
-1023410169
  0
DICTIONARY
  5
398F
102
{ACAD_REACTORS
330
41
102
}
330
41
100
AcDbDictionary
281
     1
  3
DWGSETTINGS
350
3990
  3
TRANSSETTINGS
350
3993
  0
LAYER_INDEX
  5
3D29
102
{ACAD_REACTORS
330
3D28
102
}
330
3D28
100
AcDbIndex
 40
2456052.369022708
100
AcDbLayerIndex
  8
0
360
4783
 90
       72
  8
AM_VIS
360
4784
 90
        0
  8
AM_7
360
4785
 90
        3
  8
Defpoints
360
4786
 90
        0
  8
LOGO
360
4787
 90
       77
  8
AM_4
360
4788
 90
        5
  8
AM_REFDIM
360
4789
 90
       10
  8
AM_HID
360
478A
 90
        0
  8
AM_5
360
478B
 90
        0
  0
DICTIONARY
  5
6112
330
22
100
AcDbDictionary
280
     1
281
     1
  3
ACAD_XREC_ROUNDTRIP
360
6113
  0
DICTIONARY
  5
6110
330
1E
100
AcDbDictionary
280
     1
281
     1
  3
ACAD_XREC_ROUNDTRIP
360
6111
  0
DICTIONARY
  5
6114
330
26
100
AcDbDictionary
280
     1
281
     1
  3
ACAD_XREC_ROUNDTRIP
360
6115
  0
IDBUFFER
  5
4783
330
0
100
AcDbIdBuffer
330
1830
330
1831
330
1832
330
5C32
330
5C33
330
5C34
330
5C35
330
5C36
330
5C37
330
5C40
330
5C4F
330
5C50
330
5C51
330
5C62
330
5C65
330
5C6A
330
5C6D
330
5C70
330
5C75
330
5C7A
330
5C7F
330
5C80
330
5C81
330
5C82
330
5C85
330
5C87
330
5C8A
330
5C8C
330
5C95
330
5C96
330
5C97
330
5C98
330
5C99
330
5C9A
330
5C9F
330
5CA0
330
5CA2
330
5CA3
330
5CA4
330
5CA5
330
5CA6
330
5CA7
330
5CA8
330
5CA9
330
5CAA
330
5CAB
330
5CAC
330
5CB2
330
5CB6
330
5CB7
330
5CB8
330
5CBA
330
5CBB
330
5CD7
330
5CD8
330
5CDB
330
5CDF
330
5CED
330
5CEF
330
5CF0
330
5CF1
330
5CF3
330
5CF4
330
5CF5
330
5CF6
330
5D08
330
5D22
330
5D43
330
5D44
330
5D45
330
5D49
330
5E09
  0
IDBUFFER
  5
4784
330
0
100
AcDbIdBuffer
  0
IDBUFFER
  5
4785
330
0
100
AcDbIdBuffer
330
5E0B
330
5E0C
330
60B3
  0
IDBUFFER
  5
4786
330
0
100
AcDbIdBuffer
  0
IDBUFFER
  5
4787
330
0
100
AcDbIdBuffer
330
179B
330
179C
330
179D
330
179E
330
179F
330
17A0
330
17A1
330
17A2
330
17A3
330
17A4
330
17A5
330
17A6
330
17A7
330
17A8
330
17A9
330
17AA
330
17AB
330
17AC
330
17AD
330
17AE
330
17AF
330
17B0
330
17B1
330
17B2
330
17B6
330
17BA
330
17BB
330
17BF
330
17C0
330
17C1
330
17C2
330
17C3
330
17C4
330
17C5
330
17C6
330
17CA
330
17CE
330
17D2
330
17D3
330
17D4
330
17D8
330
17D9
330
17DA
330
17DB
330
17DC
330
17DD
330
17DE
330
17DF
330
17E0
330
17E1
330
17E2
330
17E3
330
17E4
330
17E5
330
17E6
330
17E7
330
17E8
330
17E9
330
17EA
330
17EB
330
17EC
330
17ED
330
17EE
330
17EF
330
17F0
330
1824
330
1825
330
1826
330
1827
330
1828
330
1829
330
182A
330
182B
330
182C
330
182D
330
182E
330
182F
  0
IDBUFFER
  5
4788
330
0
100
AcDbIdBuffer
330
5D03
330
5D3D
330
5D3E
330
5D3F
330
5D40
  0
IDBUFFER
  5
4789
330
0
100
AcDbIdBuffer
330
60E1
330
5E49
330
5E6F
330
5E99
330
5EBF
330
5EE9
330
5F0F
330
5F35
330
5F5B
330
5F81
  0
IDBUFFER
  5
478A
330
0
100
AcDbIdBuffer
  0
IDBUFFER
  5
478B
330
0
100
AcDbIdBuffer
  0
XRECORD
  5
6113
102
{ACAD_REACTORS
330
6112
102
}
330
6112
100
AcDbXrecord
280
     1
102
SHADEPLOT
 70
     0
102
SHADEPLOTRESLEVEL
 70
     2
102
SHADEPLOTCUSTOMDPI
 70
   300
  0
XRECORD
  5
6111
102
{ACAD_REACTORS
330
6110
102
}
330
6110
100
AcDbXrecord
280
     1
102
SHADEPLOT
 70
     0
102
SHADEPLOTRESLEVEL
 70
     2
102
SHADEPLOTCUSTOMDPI
 70
   300
  0
XRECORD
  5
6115
102
{ACAD_REACTORS
330
6114
102
}
330
6114
100
AcDbXrecord
280
     1
102
SHADEPLOT
 70
     0
102
SHADEPLOTRESLEVEL
 70
     2
102
SHADEPLOTCUSTOMDPI
 70
   300
  0
ENDSEC
  0
EOF
