  0
SECTION
  2
HEADER
  9
$ACADVER
  1
AC1015
  9
$ACADMAINTVER
 70
    20
  9
$DWGCODEPAGE
  3
ANSI_950
  9
$INSBASE
 10
0.0
 20
0.0
 30
0.0
  9
$EXTMIN
 10
392.8626118148323
 20
242.5571589878776
 30
0.0
  9
$EXTMAX
 10
640.6736593122117
 20
470.7383728761666
 30
159.795644479991
  9
$LIMMIN
 10
0.0
 20
0.0
  9
$LIMMAX
 10
420.0
 20
297.0
  9
$ORTHOMODE
 70
     0
  9
$REGENMODE
 70
     1
  9
$FILLMODE
 70
     1
  9
$QTEXTMODE
 70
     0
  9
$MIRRTEXT
 70
     1
  9
$LTSCALE
 40
1.0
  9
$ATTMODE
 70
     1
  9
$TEXTSIZE
 40
3.0
  9
$TRACEWID
 40
1.0
  9
$TEXTSTYLE
  7
STANDARD
  9
$CLAYER
  8
AM_REFDIM
  9
$CELTYPE
  6
ByLayer
  9
$CECOLOR
 62
   256
  9
$CELTSCALE
 40
1.0
  9
$DISPSILH
 70
     0
  9
$DIMSCALE
 40
1.5
  9
$DIMASZ
 40
3.0
  9
$DIMEXO
 40
1.0
  9
$DIMDLI
 40
8.0
  9
$DIMRND
 40
0.0
  9
$DIMDLE
 40
0.0
  9
$DIMEXE
 40
1.0
  9
$DIMTP
 40
0.1
  9
$DIMTM
 40
0.1
  9
$DIMTXT
 40
3.5
  9
$DIMCEN
 40
0.0
  9
$DIMTSZ
 40
0.0
  9
$DIMTOL
 70
     0
  9
$DIMLIM
 70
     0
  9
$DIMTIH
 70
     0
  9
$DIMTOH
 70
     0
  9
$DIMSE1
 70
     0
  9
$DIMSE2
 70
     0
  9
$DIMTAD
 70
     1
  9
$DIMZIN
 70
     8
  9
$DIMBLK
  1

  9
$DIMASO
 70
     1
  9
$DIMSHO
 70
     1
  9
$DIMPOST
  1

  9
$DIMAPOST
  1
"
  9
$DIMALT
 70
     0
  9
$DIMALTD
 70
     2
  9
$DIMALTF
 40
0.0393701
  9
$DIMLFAC
 40
1.0
  9
$DIMTOFL
 70
     1
  9
$DIMTVP
 40
0.0
  9
$DIMTIX
 70
     0
  9
$DIMSOXD
 70
     0
  9
$DIMSAH
 70
     0
  9
$DIMBLK1
  1

  9
$DIMBLK2
  1

  9
$DIMSTYLE
  2
AM_ISO
  9
$DIMCLRD
 70
   256
  9
$DIMCLRE
 70
   256
  9
$DIMCLRT
 70
   256
  9
$DIMTFAC
 40
0.6
  9
$DIMGAP
 40
1.0
  9
$DIMJUST
 70
     0
  9
$DIMSD1
 70
     0
  9
$DIMSD2
 70
     0
  9
$DIMTOLJ
 70
     0
  9
$DIMTZIN
 70
     8
  9
$DIMALTZ
 70
     0
  9
$DIMALTTZ
 70
     0
  9
$DIMUPT
 70
     0
  9
$DIMDEC
 70
     0
  9
$DIMTDEC
 70
     8
  9
$DIMALTU
 70
     2
  9
$DIMALTTD
 70
     2
  9
$DIMTXSTY
  7
STANDARD
  9
$DIMAUNIT
 70
     0
  9
$DIMADEC
 70
     0
  9
$DIMALTRND
 40
0.0
  9
$DIMAZIN
 70
     2
  9
$DIMDSEP
 70
    46
  9
$DIMATFIT
 70
     3
  9
$DIMFRAC
 70
     0
  9
$DIMLDRBLK
  1

  9
$DIMLUNIT
 70
     2
  9
$DIMLWD
 70
    -1
  9
$DIMLWE
 70
    -1
  9
$DIMTMOVE
 70
     0
  9
$LUNITS
 70
     2
  9
$LUPREC
 70
     2
  9
$SKETCHINC
 40
1.0
  9
$FILLETRAD
 40
3.75
  9
$AUNITS
 70
     0
  9
$AUPREC
 70
     0
  9
$MENU
  1
.
  9
$ELEVATION
 40
0.0
  9
$PELEVATION
 40
0.0
  9
$THICKNESS
 40
0.0
  9
$LIMCHECK
 70
     0
  9
$CHAMFERA
 40
3.75
  9
$CHAMFERB
 40
3.75
  9
$CHAMFERC
 40
20.0
  9
$CHAMFERD
 40
0.0
  9
$SKPOLY
 70
     0
  9
$TDCREATE
 40
2454392.703168762
  9
$TDUCREATE
 40
2454392.369835428
  9
$TDUPDATE
 40
2456052.371889827
  9
$TDUUPDATE
 40
2456052.038556493
  9
$TDINDWG
 40
0.2343788773
  9
$TDUSRTIMER
 40
0.2343786921
  9
$USRTIMER
 70
     1
  9
$ANGBASE
 50
0.0
  9
$ANGDIR
 70
     0
  9
$PDMODE
 70
     0
  9
$PDSIZE
 40
0.0
  9
$PLINEWID
 40
0.0
  9
$SPLFRAME
 70
     0
  9
$SPLINETYPE
 70
     6
  9
$SPLINESEGS
 70
     8
  9
$HANDSEED
  5
6953
  9
$SURFTAB1
 70
     6
  9
$SURFTAB2
 70
     6
  9
$SURFTYPE
 70
     6
  9
$SURFU
 70
     6
  9
$SURFV
 70
     6
  9
$UCSBASE
  2

  9
$UCSNAME
  2

  9
$UCSORG
 10
0.0
 20
0.0
 30
0.0
  9
$UCSXDIR
 10
1.0
 20
0.0
 30
0.0
  9
$UCSYDIR
 10
0.0
 20
1.0
 30
0.0
  9
$UCSORTHOREF
  2

  9
$UCSORTHOVIEW
 70
     0
  9
$UCSORGTOP
 10
0.0
 20
0.0
 30
0.0
  9
$UCSORGBOTTOM
 10
0.0
 20
0.0
 30
0.0
  9
$UCSORGLEFT
 10
0.0
 20
0.0
 30
0.0
  9
$UCSORGRIGHT
 10
0.0
 20
0.0
 30
0.0
  9
$UCSORGFRONT
 10
0.0
 20
0.0
 30
0.0
  9
$UCSORGBACK
 10
0.0
 20
0.0
 30
0.0
  9
$PUCSBASE
  2

  9
$PUCSNAME
  2

  9
$PUCSORG
 10
0.0
 20
0.0
 30
0.0
  9
$PUCSXDIR
 10
1.0
 20
0.0
 30
0.0
  9
$PUCSYDIR
 10
0.0
 20
1.0
 30
0.0
  9
$PUCSORTHOREF
  2

  9
$PUCSORTHOVIEW
 70
     0
  9
$PUCSORGTOP
 10
0.0
 20
0.0
 30
0.0
  9
$PUCSORGBOTTOM
 10
0.0
 20
0.0
 30
0.0
  9
$PUCSORGLEFT
 10
0.0
 20
0.0
 30
0.0
  9
$PUCSORGRIGHT
 10
0.0
 20
0.0
 30
0.0
  9
$PUCSORGFRONT
 10
0.0
 20
0.0
 30
0.0
  9
$PUCSORGBACK
 10
0.0
 20
0.0
 30
0.0
  9
$USERI1
 70
     0
  9
$USERI2
 70
     0
  9
$USERI3
 70
     0
  9
$USERI4
 70
     0
  9
$USERI5
 70
     0
  9
$USERR1
 40
0.0
  9
$USERR2
 40
0.0
  9
$USERR3
 40
0.0
  9
$USERR4
 40
0.0
  9
$USERR5
 40
0.0
  9
$WORLDVIEW
 70
     1
  9
$SHADEDGE
 70
     3
  9
$SHADEDIF
 70
    70
  9
$TILEMODE
 70
     1
  9
$MAXACTVP
 70
    64
  9
$PINSBASE
 10
0.0
 20
0.0
 30
0.0
  9
$PLIMCHECK
 70
     0
  9
$PEXTMIN
 10
1.000000000000000E+20
 20
1.000000000000000E+20
 30
1.000000000000000E+20
  9
$PEXTMAX
 10
-1.000000000000000E+20
 20
-1.000000000000000E+20
 30
-1.000000000000000E+20
  9
$PLIMMIN
 10
0.0
 20
0.0
  9
$PLIMMAX
 10
420.0
 20
297.0
  9
$UNITMODE
 70
     0
  9
$VISRETAIN
 70
     1
  9
$PLINEGEN
 70
     0
  9
$PSLTSCALE
 70
     1
  9
$TREEDEPTH
 70
  3020
  9
$CMLSTYLE
  2
Standard
  9
$CMLJUST
 70
     0
  9
$CMLSCALE
 40
20.0
  9
$PROXYGRAPHICS
 70
     1
  9
$MEASUREMENT
 70
     1
  9
$CELWEIGHT
370
    -1
  9
$ENDCAPS
280
     0
  9
$JOINSTYLE
280
     0
  9
$LWDISPLAY
290
     0
  9
$INSUNITS
 70
     4
  9
$HYPERLINKBASE
  1

  9
$STYLESHEET
  1
acad.ctb
  9
$XEDIT
290
     1
  9
$CEPSNTYPE
380
     0
  9
$PSTYLEMODE
290
     1
  9
$FINGERPRINTGUID
  2
{00E4BF2B-312E-4E1D-8C5C-0EEC0927E19E}
  9
$VERSIONGUID
  2
{2448FD19-100B-4D12-B675-42316C2A4442}
  9
$EXTNAMES
290
     1
  9
$PSVPSCALE
 40
0.0
  9
$OLESTARTUP
290
     0
  0
ENDSEC
  0
SECTION
  2
CLASSES
  0
CLASS
  1
ACDBDICTIONARYWDFLT
  2
AcDbDictionaryWithDefault
  3
ObjectDBX Classes
 90
        0
280
     0
281
     0
  0
CLASS
  1
ACDBPLACEHOLDER
  2
AcDbPlaceHolder
  3
ObjectDBX Classes
 90
        0
280
     0
281
     0
  0
CLASS
  1
LAYOUT
  2
AcDbLayout
  3
ObjectDBX Classes
 90
        0
280
     0
281
     0
  0
CLASS
  1
ACME_DOCUMENT
  2
AcMeDbDoc
  3
AcMeServices
 90
        0
280
     0
281
     0
  0
CLASS
  1
AMGSETTINGSOBJ
  2
AmgSettingsObj
  3
"AcadM|Product Description: AutoCAD Mechanical 2000|Company: Autodesk"
 90
        0
280
     0
281
     0
  0
CLASS
  1
ACMESCOPE
  2
AcMeScope
  3
AcMeServices
 90
        0
280
     0
281
     0
  0
CLASS
  1
ACMECOMMANDHISTORY
  2
AcMeCommandHistory
  3
AcMeServices
 90
        0
280
     0
281
     0
  0
CLASS
  1
ACIMSYSVARMAN
  2
AcImSysVarManager
  3
AcMeServices
 90
        0
280
     0
281
     0
  0
CLASS
  1
ACIMREALSYSVAR
  2
AcImRealSysVar
  3
AcMeServices
 90
        0
280
     0
281
     0
  0
CLASS
  1
ACIMINTSYSVAR
  2
AcImIntSysVar
  3
AcMeServices
 90
        0
280
     0
281
     0
  0
CLASS
  1
ACMEDRAWINGMAN
  2
AcMeDrawingMan
  3
AcMeServices
 90
        0
280
     0
281
     0
  0
CLASS
  1
ACMEVIEW
  2
AcMeView
  3
AcMeServices
 90
        0
280
     0
281
     0
  0
CLASS
  1
ACDBENTITYCACHE
  2
AcMeEntityCache
  3
AcMeServices
 90
        0
280
     0
281
     0
  0
CLASS
  1
GSMANAGER
  2
AcMeGSManager
  3
AcMeServices
 90
        0
280
     0
281
     0
  0
CLASS
  1
AMDTINTERNALREACTOR
  2
AmdtInternalReactor
  3
AcMeServices
 90
        0
280
     0
281
     0
  0
CLASS
  1
ACMESTATEMGR
  2
AcMeStateMgr
  3
AcMeServices
 90
        0
280
     0
281
     0
  0
CLASS
  1
ACGREFMASTER
  2
AcGrefMaster
  3
AcAttribServices
 90
        0
280
     0
281
     0
  0
CLASS
  1
ACME_DATABASE
  2
AcMeDbDatabase
  3
AcMeServices
 90
        0
280
     0
281
     0
  0
CLASS
  1
ACRFINSADJUSTERMGR
  2
AcRfInsAdjusterMgr
  3
AcMeServices
 90
        0
280
     0
281
     0
  0
CLASS
  1
ACGREFACADMASTER
  2
AcGrefacadMaster
  3
AcGrefServices
 90
        0
280
     0
281
     0
  0
CLASS
  1
AMIMASTER
  2
AmiMaster
  3
AmiServices
 90
        0
280
     0
281
     0
  0
CLASS
  1
ACMDATADICTIONARY
  2
AcmDataDictionary
  3
"AcmSymBB|Product Description: AutoCAD Mechanical 2004 DX|Company: Autodesk"
 90
        0
280
     0
281
     0
  0
CLASS
  1
ACMDATAENTRYBLOCK
  2
AcmDataEntryBlock
  3
"AcmSymBB|Product Description: AutoCAD Mechanical 2004 DX|Company: Autodesk"
 90
        0
280
     0
281
     0
  0
CLASS
  1
ACIMSTRSYSVAR
  2
AcImStrSysVar
  3
AcMeServices
 90
        0
280
     0
281
     0
  0
CLASS
  1
ACMSTANDARDISO
  2
AcmStandardISO
  3
"Amdt_StdImp|Product Description: AutoCAD Mechanical 2004 DX|Company: Autodesk"
 90
        0
280
     0
281
     0
  0
CLASS
  1
AMGOBJPROPCFG
  2
AmgObjPropCfg
  3
"AmgLay|Product Description: AutoCAD Mechanical 2000|Company: Autodesk"
 90
        1
280
     0
281
     0
  0
CLASS
  1
AMDTEDGESTANDARDISO
  2
AmdtEdgeStdISO
  3
"Amdt_StdImp|Product Description: AutoCAD Mechanical 2004 DX|Company: Autodesk"
 90
    32768
280
     0
281
     0
  0
CLASS
  1
ACMSURFSTANDARDISO
  2
AcmSurfTextStdISO
  3
"Amdt_StdImp|Product Description: AutoCAD Mechanical 2004 DX|Company: Autodesk"
 90
        0
280
     0
281
     0
  0
CLASS
  1
ACMFCFSTANDARDISO
  2
AcmFCFStdISO
  3
"Amdt_StdImp|Product Description: AutoCAD Mechanical 2004 DX|Company: Autodesk"
 90
        0
280
     0
281
     0
  0
CLASS
  1
ACMWELDSTANDARDISO
  2
AcmWeldingStdISO
  3
"Amdt_StdImp|Product Description: AutoCAD Mechanical 2004 DX|Company: Autodesk"
 90
        0
280
     0
281
     0
  0
CLASS
  1
ACMIDSTANDARDISO
  2
AcmIdStdISO
  3
"Amdt_StdImp|Product Description: AutoCAD Mechanical 2004 DX|Company: Autodesk"
 90
        0
280
     0
281
     0
  0
CLASS
  1
ACMDATUMSTANDARDISO
  2
AcmDatumStdISO
  3
"Amdt_StdImp|Product Description: AutoCAD Mechanical 2004 DX|Company: Autodesk"
 90
        0
280
     0
281
     0
  0
CLASS
  1
ACMBOMSTANDARDISO
  2
AcmBOMStdISO
  3
"Amdt_StdImp|Product Description: AutoCAD Mechanical 2004 DX|Company: Autodesk"
 90
        0
280
     0
281
     0
  0
CLASS
  1
ACMDETAILSTANDARDISO
  2
AmdtDetailSymStdISO
  3
"Amdt_StdImp|Product Description: AutoCAD Mechanical 2004 DX|Company: Autodesk"
 90
        0
280
     0
281
     0
  0
CLASS
  1
ACMSECTIONSTANDARDISO
  2
AmdtSectionSymStdISO
  3
"Amdt_StdImp|Product Description: AutoCAD Mechanical 2004 DX|Company: Autodesk"
 90
        0
280
     0
281
     0
  0
CLASS
  1
ACMCENTERLINESTANDARDISO
  2
AmdtCenterLineStdISO
  3
"Amdt_StdImp|Product Description: AutoCAD Mechanical 2004 DX|Company: Autodesk"
 90
        0
280
     0
281
     0
  0
CLASS
  1
ACMNOTESTANDARDISO
  2
AmdtNoteStdISO
  3
"Amdt_StdImp|Product Description: AutoCAD Mechanical 2004 DX|Company: Autodesk"
 90
        0
280
     0
281
     0
  0
CLASS
  1
ACAMGLAYSTD
  2
AcAmgLayStd
  3
"AcAmgLayStd|Product Description: AutoCAD Mechanical 2000|Company: Autodesk"
 90
        0
280
     0
281
     0
  0
CLASS
  1
ACAMGDIMSTD
  2
AcAmgDimStd
  3
"AcAmgDimStd|Product Description: AutoCAD Mechanical 2000|Company: Autodesk"
 90
        0
280
     0
281
     0
  0
CLASS
  1
ACAMGHOLECHARTSTDISO
  2
AcAmgHoleChartStdISO
  3
ACMSYMBB_MODULE_NAME
 90
        0
280
     0
281
     0
  0
CLASS
  1
ACAMGTITLESTD
  2
AcAmgTitleStd
  3
"TITLEAPP"
 90
        0
280
     0
281
     0
  0
CLASS
  1
LAYER_INDEX
  2
AcDbLayerIndex
  3
ObjectDBX Classes
 90
        0
280
     0
281
     0
  0
CLASS
  1
IDBUFFER
  2
AcDbIdBuffer
  3
ObjectDBX Classes
 90
        0
280
     0
281
     0
  0
CLASS
  1
DICTIONARYVAR
  2
AcDbDictionaryVar
  3
ObjectDBX Classes
 90
        0
280
     0
281
     0
  0
CLASS
  1
AM_DRAWING_MGR
  2
AcDmDwgMgr
  3
AcMechDwgViewMgmt
 90
        0
280
     0
281
     0
  0
CLASS
  1
AM_DWG_DOCUMENT
  2
AcDmDwgDocument
  3
AcMechDwgViewMgmt
 90
        0
280
     0
281
     0
  0
CLASS
  1
AM_DWG_SHEET
  2
AcDmSheet
  3
AcMechDwgViewMgmt
 90
        0
280
     0
281
     0
  0
CLASS
  1
AM_VIEWDIMPARMAP
  2
AcDmViewDimParMap
  3
AcMechDwgViewMgmt
 90
        0
280
     0
281
     0
  0
CLASS
  1
AM_DWGMGR_NAME
  2
AcDmDwgMgrName
  3
AcMechDwgViewMgmt
 90
        0
280
     0
281
     0
  0
CLASS
  1
AMDTMENUSTATEMGR
  2
AmdtMenuStateMgr
  3
McadcomServices
 90
        0
280
     0
281
     0
  0
CLASS
  1
AMDTMCOMMENUSTATE
  2
AmdtMcomMenuState
  3
McadcomServices
 90
        0
280
     0
281
     0
  0
CLASS
  1
MAPIAMMOUDLE
  2
MApiAmModule
  3
MApiAmServices
 90
        0
280
     0
281
     0
  0
CLASS
  1
AMDTADMENUSTATE
  2
AmdtAdMenuState
  3
DesignerServices
 90
        0
280
     0
281
     0
  0
CLASS
  1
ADAPPL
  2
AcAdAppl
  3
DesignerServices
 90
        0
280
     0
281
     0
  0
CLASS
  1
DEPMGR
  2
AcAdDepMgr
  3
DesignerServices
 90
        0
280
     0
281
     0
  0
CLASS
  1
PARAMMGR
  2
AcAdParamMgr
  3
DesignerServices
 90
        0
280
     0
281
     0
  0
CLASS
  1
PARAMSCOPE
  2
AcAdParamScope
  3
DesignerServices
 90
        0
280
     0
281
     0
  0
CLASS
  1
NAMEDAPPL
  2
AcAdNamedAppl
  3
DesignerServices
 90
        0
280
     0
281
     0
  0
CLASS
  1
AMDTDMMENUSTATE
  2
AmdtDmMenuState
  3
AcMechDwgViewMgmt
 90
        0
280
     0
281
     0
  0
CLASS
  1
AMDTAMMENUSTATE
  2
AmdtAmMenuState
  3
DesignerAssemblies
 90
        0
280
     0
281
     0
  0
CLASS
  1
ACAMPROJECT
  2
AcAmProject
  3
DesignerAssemblies
 90
        0
280
     0
281
     0
  0
CLASS
  1
ACAMGRCOMPDEF
  2
AcAmGrCompDef
  3
DesignerAssemblies
 90
        0
280
     0
281
     0
  0
CLASS
  1
ACCMCONTEXT
  2
AcCmContext
  3
DesignerAssemblies
 90
        0
280
     0
281
     0
  0
CLASS
  1
ACAMCOMPDEF
  2
AcAmCompDef
  3
DesignerAssemblies
 90
        0
280
     0
281
     0
  0
CLASS
  1
ACAMCOMPDEFMGR
  2
AcAmCompDefMgr
  3
DesignerAssemblies
 90
        0
280
     0
281
     0
  0
CLASS
  1
AMCONTEXTMGR
  2
AcAmContextMgr
  3
DesignerAssemblies
 90
        0
280
     0
281
     0
  0
CLASS
  1
ACAMCONTEXTMODELER
  2
AcAmContextModeler
  3
DesignerAssemblies
 90
        0
280
     0
281
     0
  0
CLASS
  1
ACMTHREADLINESTANDARDISO
  2
AmdtThreadLineStdISO
  3
"Amdt_StdImp|Product Description: AutoCAD Mechanical 2004 DX|Company: Autodesk"
 90
        0
280
     0
281
     0
  0
CLASS
  1
CATALOGSTATE
  2
AcAmCatalogState
  3
DesignerAssemblies
 90
        0
280
     0
281
     0
  0
CLASS
  1
ACAMGRCOMPDEFSET
  2
AcAmGrCompDefSet
  3
DesignerAssemblies
 90
        0
280
     0
281
     0
  0
CLASS
  1
AMDTBROWSERDBTAB
  2
AmdtBrowserDbTab
  3
McadcomServices
 90
        0
280
     0
281
     0
  0
CLASS
  1
CBROWSERAPPOBJECT
  2
CBrowserAppObject
  3
McadcomServices
 90
        0
280
     0
281
     0
  0
CLASS
  1
DM_PLACEHOLDER
  2
AcDmSelsetPlaceholder
  3
AcMechDwgViewMgmt
 90
        0
280
     0
281
     0
  0
CLASS
  1
TABLESTYLE
  2
AcDbTableStyle
  3
ObjectDBX Classes
 90
     2047
280
     0
281
     0
  0
CLASS
  1
VAACXREFPANELOBJECT
  2
VaAcXREFPanelObject
  3
VAAC_ADDIN
 90
    32768
280
     0
281
     0
  0
CLASS
  1
VAACIMAGEINVENTORY
  2
VaAcImageInventory
  3
VAAC_ADDIN
 90
    32768
280
     0
281
     0
  0
CLASS
  1
AMDTNOTETEMPLATEDB
  2
AmdtNoteTemplateDB
  3
AMDT_STDIMP_MODULE_NAME
 90
        0
280
     0
281
     0
  0
CLASS
  1
ACMBOM
  2
AcmBom
  3
"AcmSymBB|Product Description: AutoCAD Mechanical 2004 DX|Company: Autodesk"
 90
    32768
280
     0
281
     0
  0
CLASS
  1
AMDTFORMULAUPDATEDISPATCHER
  2
AmdtFormulaUpdateDispatcher
  3
AcMeServices
 90
    32768
280
     0
281
     0
  0
CLASS
  1
ACMPARTLIST
  2
AcmPartList
  3
"AcmSymBB|Product Description: AutoCAD Mechanical 2004 DX|Company: Autodesk"
 90
    33791
280
     0
281
     1
  0
CLASS
  1
ACAMGFILTERDAT
  2
AcAmgFilterDat
  3
"AcadM|Product Description: AutoCAD Mechanical 2000|Company: Autodesk"
 90
    32768
280
     0
281
     0
  0
CLASS
  1
DIMASSOC
  2
AcDbDimAssoc
  3
"AcDbDimAssoc|Product Desc:     AcDim ARX App For Dimension|Company:          Autodesk, Inc.|WEB Address:      www.autodesk.com"
 90
        0
280
     0
281
     0
  0
CLASS
  1
AMDTNOTE
  2
AmdtNote
  3
"AcmSymBB|Product Description: AutoCAD Mechanical 2004 DX|Company: Autodesk"
 90
    33791
280
     0
281
     1
  0
CLASS
  1
AMDTEDGESTANDARDISO13715
  2
AmdtEdgeStdISO13715
  3
"Amdt_StdImp|Product Description: AutoCAD Mechanical 2004 DX|Company: Autodesk"
 90
        0
280
     0
281
     0
  0
CLASS
  1
ACRFATTGENMGR
  2
AcRfAttGeneralMgr
  3
AcAttribServices
 90
    32768
280
     0
281
     0
  0
CLASS
  1
ASAPP
  2
AcAsAppObject
  3
AutoSurfServices
 90
        0
280
     0
281
     0
  0
CLASS
  1
IM_STATIC_MAN
  2
AcImStaticVarManager
  3
AcMeServices
 90
        0
280
     0
281
     0
  0
CLASS
  1
ACIMDBLSTATICVAR
  2
AcImDblStaticVar
  3
AcMeServices
 90
        0
280
     0
281
     0
  0
CLASS
  1
ACIMSTRSTATICVAR
  2
AcImStrStaticVar
  3
AcMeServices
 90
        0
280
     0
281
     0
  0
CLASS
  1
ACIMINTSTATICVAR
  2
AcImIntStaticVar
  3
AcMeServices
 90
        0
280
     0
281
     0
  0
CLASS
  1
ACASGREFMASTER
  2
AcAsGrefMaster
  3
AutoSurfResolverServices
 90
        0
280
     0
281
     0
  0
CLASS
  1
ACADGREFMODULE
  2
AcAdGrefModule
  3
AdGrefServices
 90
        0
280
     0
281
     0
  0
CLASS
  1
AMDTMAPISURFMOUDULE
  2
AmdtMApiSurfModule
  3
MApiSurfServices
 90
        0
280
     0
281
     0
  0
CLASS
  1
MAPIADMODULE
  2
MApiAdModule
  3
MApiAdServices
 90
        0
280
     0
281
     0
  0
ENDSEC
  0
SECTION
  2
TABLES
  0
TABLE
  2
VPORT
  5
8
330
0
100
AcDbSymbolTable
 70
     7
  0
VPORT
  5
694A
330
8
100
AcDbSymbolTableRecord
100
AcDbViewportTableRecord
  2
*Active
 70
     0
 10
0.0
 20
0.0
 11
1.0
 21
1.0
 12
30.40758809620547
 22
79.98068202746478
 13
0.0
 23
0.0
 14
3.75
 24
3.75
 15
15.0
 25
15.0
 16
0.0
 26
0.0
 36
1.0
 17
475.2465220475392
 27
286.8869866440797
 37
0.0
 40
264.6584446730364
 41
1.295739348370927
 42
50.0
 43
0.0
 44
0.0
 50
0.0
 51
0.0
 71
     0
 72
  1000
 73
     1
 74
     3
 75
     0
 76
     0
 77
     0
 78
     0
281
     0
 65
     0
110
0.0
120
0.0
130
0.0
111
1.0
121
0.0
131
0.0
112
0.0
122
1.0
132
0.0
 79
     0
146
0.0
  0
ENDTAB
  0
TABLE
  2
LTYPE
  5
5
330
0
100
AcDbSymbolTable
 70
    17
  0
LTYPE
  5
14
330
5
100
AcDbSymbolTableRecord
100
AcDbLinetypeTableRecord
  2
ByBlock
 70
     0
  3

 72
    65
 73
     0
 40
0.0
  0
LTYPE
  5
15
330
5
100
AcDbSymbolTableRecord
100
AcDbLinetypeTableRecord
  2
ByLayer
 70
     0
  3

 72
    65
 73
     0
 40
0.0
  0
LTYPE
  5
16
330
5
100
AcDbSymbolTableRecord
100
AcDbLinetypeTableRecord
  2
Continuous
 70
     0
  3
Solid line
 72
    65
 73
     0
 40
0.0
  0
LTYPE
  5
64
330
5
100
AcDbSymbolTableRecord
100
AcDbLinetypeTableRecord
  2
AM_ISO02W050
 70
     0
  3
__ __ __ __ __ __ __ __ __ __ __ __ __ __ __
 72
    65
 73
     2
 40
7.5
 49
6.0
 74
     0
 49
-1.5
 74
     0
  0
LTYPE
  5
65
330
5
100
AcDbSymbolTableRecord
100
AcDbLinetypeTableRecord
  2
AM_ISO08W050
 70
     0
  3
____ . ____ . ____ . ____ . ____ . ____ . ____
 72
    65
 73
     4
 40
18.0
 49
12.0
 74
     0
 49
-1.5
 74
     0
 49
3.0
 74
     0
 49
-1.5
 74
     0
  0
LTYPE
  5
66
330
5
100
AcDbSymbolTableRecord
100
AcDbLinetypeTableRecord
  2
AM_ISO09W050
 70
     0
  3
_____ . . _____ . . _____ . . ____ .. ____
 72
    65
 73
     6
 40
22.5
 49
12.0
 74
     0
 49
-1.5
 74
     0
 49
3.0
 74
     0
 49
-1.5
 74
     0
 49
3.0
 74
     0
 49
-1.5
 74
     0
  0
LTYPE
  5
67
330
5
100
AcDbSymbolTableRecord
100
AcDbLinetypeTableRecord
  2
Amconstr
 70
     0
  3
_______________________
 72
    65
 73
     2
 40
9999.0
 49
9999.0
 74
     0
 49
0.0
 74
     0
  0
LTYPE
  5
68
330
5
100
AcDbSymbolTableRecord
100
AcDbLinetypeTableRecord
  2
AM_ISO08W050x2
 70
     0
  3
__ . __ . __ . __ . __ . __
 72
    65
 73
     4
 40
9.0
 49
6.0
 74
     0
 49
-0.75
 74
     0
 49
1.5
 74
     0
 49
-0.75
 74
     0
  0
LTYPE
  5
69
330
5
100
AcDbSymbolTableRecord
100
AcDbLinetypeTableRecord
  2
AM_ISO02W050x2
 70
     0
  3
 _ _ _ _ _ _ _ _ _ _ _ _
 72
    65
 73
     2
 40
3.75
 49
3.0
 74
     0
 49
-0.75
 74
     0
  0
LTYPE
  5
6C
330
5
100
AcDbSymbolTableRecord
100
AcDbLinetypeTableRecord
  2
Amzigzag
 70
     0
  3
/\/-/\/-/\/-/\/-/\/-/\/
 72
    65
 73
     2
 40
11.0001
 49
0.0001
 74
     4
 75
   135
340
6B
 46
0.04
 50
0.0
 44
0.0
 45
0.0
 49
-11.0
 74
     0
  0
LTYPE
  5
7A
330
5
100
AcDbSymbolTableRecord
100
AcDbLinetypeTableRecord
  2
ACISOWELD
 70
     0
  3
_ _ _ _ _
 72
    65
 73
     2
 40
2.0
 49
2.0
 74
     0
 49
-1.0
 74
     0
  0
LTYPE
  5
7B
330
5
100
AcDbSymbolTableRecord
100
AcDbLinetypeTableRecord
  2
ACISOTGB
 70
     0
  3
__ . . __ . .
 72
    65
 73
     6
 40
9.0
 49
4.0
 74
     0
 49
-1.0
 74
     0
 49
1.0
 74
     0
 49
-1.0
 74
     0
 49
1.0
 74
     0
 49
-1.0
 74
     0
  0
LTYPE
  5
7C
330
5
100
AcDbSymbolTableRecord
100
AcDbLinetypeTableRecord
  2
ACISOTGL
 70
     0
  3
_ _ _ _ _
 72
    65
 73
     2
 40
3.0
 49
2.0
 74
     0
 49
-1.0
 74
     0
  0
LTYPE
  5
7E
330
5
100
AcDbSymbolTableRecord
100
AcDbLinetypeTableRecord
  2
CENTER
 70
     0
  3
__ . __
 72
    65
 73
     4
 40
7.0
 49
4.0
 74
     0
 49
-1.0
 74
     0
 49
1.0
 74
     0
 49
-1.0
 74
     0
  0
LTYPE
  5
D8
330
5
100
AcDbSymbolTableRecord
100
AcDbLinetypeTableRecord
  2
HIDDEN
 70
     0
  3
Hidden __ __ __ __ __ __ __ __ __ __ __ __ __ _
 72
    65
 73
     2
 40
9.524999999999998
 49
6.349999999999999
 74
     0
 49
-3.174999999999999
 74
     0
  0
LTYPE
  5
D9
330
5
100
AcDbSymbolTableRecord
100
AcDbLinetypeTableRecord
  2
PHANTOM2
 70
     0
  3
Phantom (.5x) ___ _ _ ___ _ _ ___ _ _ ___ _ _
 72
    65
 73
     6
 40
31.75
 49
15.875
 74
     0
 49
-3.174999999999999
 74
     0
 49
3.174999999999999
 74
     0
 49
-3.174999999999999
 74
     0
 49
3.174999999999999
 74
     0
 49
-3.174999999999999
 74
     0
  0
LTYPE
  5
3AFB
330
5
100
AcDbSymbolTableRecord
100
AcDbLinetypeTableRecord
  2
HIDDEN2
 70
     0
  3
Hidden (.5x) _ _ _ _ _ _ _ _ _ _ _ _ _ _ _ _ _
 72
    65
 73
     2
 40
0.1875
 49
0.125
 74
     0
 49
-0.0625
 74
     0
  0
LTYPE
  5
3D45
330
5
100
AcDbSymbolTableRecord
100
AcDbLinetypeTableRecord
  2
ASULTYPE
 70
     0
  3
實線
 72
    65
 73
     2
 40
3.0
 49
2.5
 74
     0
 49
0.5
 74
     0
  0
LTYPE
  5
3D46
330
5
100
AcDbSymbolTableRecord
100
AcDbLinetypeTableRecord
  2
ASVLTYPE
 70
     0
  3
__ __ __ __ __ __ __ __ __ __ __ __ __ __ __ __ __ __ __ __ __
 72
    65
 73
     2
 40
0.75
 49
0.5
 74
     0
 49
-0.25
 74
     0
  0
ENDTAB
  0
TABLE
  2
LAYER
  5
2
102
{ACAD_XDICTIONARY
360
3F9
102
}
330
0
100
AcDbSymbolTable
 70
     9
  0
LAYER
  5
10
330
2
100
AcDbSymbolTableRecord
100
AcDbLayerTableRecord
  2
0
 70
     0
 62
     7
  6
Continuous
370
    -3
390
F
  0
LAYER
  5
ACB
330
2
100
AcDbSymbolTableRecord
100
AcDbLayerTableRecord
  2
AM_VIS
 70
     0
 62
     7
  6
Continuous
370
    50
390
F
  0
LAYER
  5
ACC
330
2
100
AcDbSymbolTableRecord
100
AcDbLayerTableRecord
  2
AM_7
 70
     0
 62
     1
  6
AM_ISO08W050x2
370
    25
390
F
  0
LAYER
  5
13A4
330
2
100
AcDbSymbolTableRecord
100
AcDbLayerTableRecord
  2
Defpoints
 70
     0
 62
     7
  6
Continuous
290
     0
370
    -3
390
F
  0
LAYER
  5
16FA
330
2
100
AcDbSymbolTableRecord
100
AcDbLayerTableRecord
  2
LOGO
 70
     0
 62
     7
  6
Continuous
370
    -3
390
F
  0
LAYER
  5
3455
330
2
100
AcDbSymbolTableRecord
100
AcDbLayerTableRecord
  2
AM_4
 70
     0
 62
     3
  6
ASVLTYPE
370
    25
390
F
  0
LAYER
  5
3456
330
2
100
AcDbSymbolTableRecord
100
AcDbLayerTableRecord
  2
AM_REFDIM
 70
     0
 62
     5
  6
Continuous
370
    25
390
F
  0
LAYER
  5
3AFC
330
2
100
AcDbSymbolTableRecord
100
AcDbLayerTableRecord
  2
AM_HID
 70
     0
 62
     7
  6
AM_ISO02W050
370
    25
390
F
  0
LAYER
  5
3EFF
330
2
100
AcDbSymbolTableRecord
100
AcDbLayerTableRecord
  2
AM_5
 70
     0
 62
     3
  6
Continuous
370
    25
390
F
  0
ENDTAB
  0
TABLE
  2
STYLE
  5
3
330
0
100
AcDbSymbolTable
 70
     6
  0
STYLE
  5
11
330
3
100
AcDbSymbolTableRecord
100
AcDbTextStyleTableRecord
  2
STANDARD
 70
     0
 40
0.0
 41
1.0
 50
0.0
 71
     0
 42
3.0
  3
ISOCP.SHX
  4
CHINESET.SHX
  0
STYLE
  5
6B
330
3
100
AcDbSymbolTableRecord
100
AcDbTextStyleTableRecord
  2

 70
     1
 40
0.0
 41
1.0
 50
0.0
 71
     0
 42
2.5
  3
ltypeshp.shx
  4

  0
STYLE
  5
6D
330
3
100
AcDbSymbolTableRecord
100
AcDbTextStyleTableRecord
  2
ACISOTS
 70
     0
 40
1.0
 41
1.0
 50
0.0
 71
     0
 42
1.0
  3
isocp.shx
  4
chineset.shx
  0
STYLE
  5
79
330
3
100
AcDbSymbolTableRecord
100
AcDbTextStyleTableRecord
  2
ACISOGDT
 70
     0
 40
0.0
 41
1.0
 50
0.0
 71
     0
 42
2.5
  3
amgdt.shx
  4
chineset.shx
  0
STYLE
  5
16FB
330
3
100
AcDbSymbolTableRecord
100
AcDbTextStyleTableRecord
  2
CHINESET
 70
     0
 40
0.0
 41
1.0
 50
0.0
 71
     0
 42
3.0
  3
simplex.shx
  4
CHINESET.SHX
  0
STYLE
  5
3457
330
3
100
AcDbSymbolTableRecord
100
AcDbTextStyleTableRecord
  2
DAYUS
 70
     0
 40
0.0
 41
1.0
 50
0.0
 71
     0
 42
2.5
  3
simplex
  4
dayus
  0
ENDTAB
  0
TABLE
  2
VIEW
  5
6
330
0
100
AcDbSymbolTable
 70
     0
  0
ENDTAB
  0
TABLE
  2
UCS
  5
7
330
0
100
AcDbSymbolTable
 70
     0
  0
ENDTAB
  0
TABLE
  2
APPID
  5
9
330
0
100
AcDbSymbolTable
 70
    23
  0
APPID
  5
12
330
9
100
AcDbSymbolTableRecord
100
AcDbRegAppTableRecord
  2
ACAD
 70
     0
  0
APPID
  5
46
330
9
100
AcDbSymbolTableRecord
100
AcDbRegAppTableRecord
  2
MCAD_NO_VIS
 70
     0
  0
APPID
  5
47
330
9
100
AcDbSymbolTableRecord
100
AcDbRegAppTableRecord
  2
ACAD_TEMP_GRAPHIC
 70
     0
  0
APPID
  5
58
330
9
100
AcDbSymbolTableRecord
100
AcDbRegAppTableRecord
  2
ACATTRIBSERVICES
 70
     0
  0
APPID
  5
EE
330
9
100
AcDbSymbolTableRecord
100
AcDbRegAppTableRecord
  2
AD_DRAW
 70
     0
  0
APPID
  5
10C
330
9
100
AcDbSymbolTableRecord
100
AcDbRegAppTableRecord
  2
DESIGNERASSEMBLIES
 70
     0
  0
APPID
  5
111
330
9
100
AcDbSymbolTableRecord
100
AcDbRegAppTableRecord
  2
ACADM_DIM_EDIT
 70
     0
  0
APPID
  5
112
330
9
100
AcDbSymbolTableRecord
100
AcDbRegAppTableRecord
  2
AMDT_DM_ADJ
 70
     0
  0
APPID
  5
22C
330
9
100
AcDbSymbolTableRecord
100
AcDbRegAppTableRecord
  2
ACAD_DSTYLE_DIMTEXT_FILL
 70
     0
  0
APPID
  5
452
330
9
100
AcDbSymbolTableRecord
100
AcDbRegAppTableRecord
  2
GENIUS_GENOENT_13
 70
     0
  0
APPID
  5
453
330
9
100
AcDbSymbolTableRecord
100
AcDbRegAppTableRecord
  2
GENIUS_GENOBJ-N-CRS_13
 70
     0
  0
APPID
  5
454
330
9
100
AcDbSymbolTableRecord
100
AcDbRegAppTableRecord
  2
GENIUS_GENOLIS_13
 70
     0
  0
APPID
  5
455
330
9
100
AcDbSymbolTableRecord
100
AcDbRegAppTableRecord
  2
GENIUS_GENODEF_13
 70
     0
  0
APPID
  5
456
330
9
100
AcDbSymbolTableRecord
100
AcDbRegAppTableRecord
  2
GENIUS_GENOREF_13
 70
     0
  0
APPID
  5
6F3
330
9
100
AcDbSymbolTableRecord
100
AcDbRegAppTableRecord
  2
ACAD_PSEXT
 70
     0
  0
APPID
  5
808
330
9
100
AcDbSymbolTableRecord
100
AcDbRegAppTableRecord
  2
GENIUS_GENDTOL_13
 70
     0
  0
APPID
  5
16FC
330
9
100
AcDbSymbolTableRecord
100
AcDbRegAppTableRecord
  2
GENIUS_GENREC_14
 70
     0
  0
APPID
  5
16FD
330
9
100
AcDbSymbolTableRecord
100
AcDbRegAppTableRecord
  2
GENIUS_GENOBJ-N-REC_13
 70
     0
  0
APPID
  5
268C
330
9
100
AcDbSymbolTableRecord
100
AcDbRegAppTableRecord
  2
GENIUS_GENDIMSH_14
 70
     0
  0
APPID
  5
3991
330
9
100
AcDbSymbolTableRecord
100
AcDbRegAppTableRecord
  2
GENIUS_GENDIM_13
 70
     0
  0
APPID
  5
3992
330
9
100
AcDbSymbolTableRecord
100
AcDbRegAppTableRecord
  2
GENIUS_GE3DTOL_13
 70
     0
  0
APPID
  5
3A12
330
9
100
AcDbSymbolTableRecord
100
AcDbRegAppTableRecord
  2
ASURF_PCURVE_APPNAME
 70
     0
  0
APPID
  5
3A17
330
9
100
AcDbSymbolTableRecord
100
AcDbRegAppTableRecord
  2
AMG_3D2D_5.0
 70
     0
  0
ENDTAB
  0
TABLE
  2
DIMSTYLE
  5
A
330
0
100
AcDbSymbolTable
 70
    10
100
AcDbDimStyleTable
 71
     3
340
81
340
8B
340
86
  0
DIMSTYLE
105
81
330
A
100
AcDbSymbolTableRecord
100
AcDbDimStyleTableRecord
  2
AM_ISO
 70
     0
  4
"
 40
1.5
 41
3.0
 42
1.0
 43
8.0
 44
1.0
 47
0.1
 48
0.1
 73
     0
 74
     0
 77
     1
 78
     8
 79
     2
140
3.5
141
0.0
143
0.0393701
146
0.6
147
1.0
172
     1
176
   256
177
   256
178
   256
271
     2
272
     2
283
     0
284
     8
340
11
371
    -1
372
    -1
  0
DIMSTYLE
105
82
330
A
100
AcDbSymbolTableRecord
100
AcDbDimStyleTableRecord
  2
AM_ISO$3
 70
     0
  4
"
 40
1.5
 41
3.0
 42
1.0
 43
8.0
 44
1.0
 47
0.1
 48
0.1
 73
     0
 77
     1
 78
     8
 79
     2
140
3.5
141
0.0
143
0.0393701
146
0.6
147
1.0
176
   256
177
   256
178
   256
271
     2
272
     2
283
     0
284
     8
288
     1
289
     0
340
11
371
    -1
372
    -1
  0
DIMSTYLE
105
83
330
A
100
AcDbSymbolTableRecord
100
AcDbDimStyleTableRecord
  2
AM_ISO$4
 70
     0
  4
"
 40
1.5
 41
3.0
 42
1.0
 43
8.0
 44
1.0
 47
0.1
 48
0.1
 73
     0
 77
     1
 78
     8
 79
     2
140
3.5
141
0.0
143
0.0393701
146
0.6
147
1.0
176
   256
177
   256
178
   256
271
     2
272
     2
283
     0
284
     8
288
     1
289
     0
340
11
371
    -1
372
    -1
  0
DIMSTYLE
105
84
330
A
100
AcDbSymbolTableRecord
100
AcDbDimStyleTableRecord
  2
AM_ISO$6
 70
     0
  4
"
 40
1.5
 41
3.0
 42
1.0
 43
8.0
 44
1.0
 47
0.1
 48
0.1
 73
     0
 74
     0
 78
     8
 79
     2
140
3.5
141
0.0
143
0.0393701
146
0.6
147
1.0
172
     1
176
   256
177
   256
178
   256
271
     2
272
     2
283
     0
284
     8
340
11
371
    -1
372
    -1
  0
DIMSTYLE
105
85
330
A
100
AcDbSymbolTableRecord
100
AcDbDimStyleTableRecord
  2
AM_ISO$7
 70
     0
  4
"
 40
1.5
 41
3.0
 42
1.0
 43
8.0
 44
1.0
 47
0.1
 48
0.1
 73
     0
 74
     0
 77
     1
 78
     8
 79
     2
140
3.5
141
0.0
143
0.0393701
146
0.6
147
1.0
172
     1
176
   256
177
   256
178
   256
271
     2
272
     2
283
     0
284
     8
340
11
371
    -1
372
    -1
  0
DIMSTYLE
105
86
330
A
100
AcDbSymbolTableRecord
100
AcDbDimStyleTableRecord
  2
AM_ISO$SF
 70
     0
  4
"
 40
1.5
 41
2.5
 42
1.0
 43
10.0
 44
1.0
 47
0.1
 48
0.1
 73
     0
 74
     0
 75
     1
 76
     1
 77
     1
 78
     8
 79
     2
140
3.5
141
0.0
143
0.0393701
146
0.71
147
1.5
172
     1
176
   256
177
   256
178
     2
271
     2
272
     3
274
     4
283
     0
284
     8
340
11
371
    -1
372
    -1
  0
DIMSTYLE
105
8B
330
A
100
AcDbSymbolTableRecord
100
AcDbDimStyleTableRecord
  2
AM_ISO$SH
 70
     0
  4
"
 40
1.5
 41
2.5
 42
1.0
 43
10.0
 44
1.0
 47
0.1
 48
0.1
 73
     0
 74
     0
 75
     1
 76
     1
 77
     1
 78
     8
 79
     2
140
3.5
141
0.0
143
0.0393701
144
2.0
146
0.71
147
1.5
172
     1
173
     1
176
   256
177
   256
178
     2
271
     2
272
     3
274
     4
283
     0
284
     8
340
11
343
87
371
    -1
372
    -1
  0
DIMSTYLE
105
40B
102
{ACAD_REACTORS
330
6781
330
67F3
330
67CD
330
67A7
330
6819
330
68B1
330
688B
330
683F
330
6865
102
}
330
A
100
AcDbSymbolTableRecord
100
AcDbDimStyleTableRecord
  2
AM_ISO$0
 70
     0
  4
"
 40
1.5
 41
3.0
 42
1.0
 43
8.0
 44
1.0
 47
0.1
 48
0.1
 73
     0
 74
     0
 77
     1
 78
     8
 79
     2
140
3.5
141
0.0
143
0.0393701
146
0.6
147
1.0
172
     1
176
   256
177
   256
178
   256
271
     2
272
     2
283
     0
284
     8
340
11
371
    -1
372
    -1
  0
DIMSTYLE
105
3AFD
330
A
100
AcDbSymbolTableRecord
100
AcDbDimStyleTableRecord
  2
AM_ANSI$0
 70
     0
  4
"
 40
0.8
 41
3.0
 42
1.5
 43
6.4
 44
2.0
 47
0.1
 48
0.1
 73
     0
 74
     0
 77
     3
 78
     8
 79
     2
140
3.0
141
0.0
143
0.0393701
146
0.6
147
0.8
172
     1
176
   256
177
   256
178
   256
271
     2
272
     2
284
     8
340
3457
371
    -1
372
    -1
  0
DIMSTYLE
105
3D53
330
A
100
AcDbSymbolTableRecord
100
AcDbDimStyleTableRecord
  2
ISO-25
 70
     0
 41
2.5
 42
0.625
 43
3.75
 44
1.25
 73
     0
 74
     0
 77
     1
 78
     8
140
2.5
141
2.5
143
0.03937007874016
147
0.625
171
     3
172
     1
271
     2
272
     2
274
     3
278
    44
283
     0
284
     8
340
11
  0
ENDTAB
  0
TABLE
  2
BLOCK_RECORD
  5
1
330
0
100
AcDbSymbolTable
 70
    23
  0
BLOCK_RECORD
  5
1F
102
{ACAD_XDICTIONARY
360
8F
102
}
330
1
100
AcDbSymbolTableRecord
100
AcDbBlockTableRecord
  2
*Model_Space
340
22
  0
BLOCK_RECORD
  5
1B
330
1
100
AcDbSymbolTableRecord
100
AcDbBlockTableRecord
  2
*Paper_Space
340
1E
  0
BLOCK_RECORD
  5
23
330
1
100
AcDbSymbolTableRecord
100
AcDbBlockTableRecord
  2
*Paper_Space0
340
26
  0
BLOCK_RECORD
  5
87
330
1
100
AcDbSymbolTableRecord
100
AcDbBlockTableRecord
  2
GENAXEH
340
0
  0
BLOCK_RECORD
  5
3AEA
330
1
100
AcDbSymbolTableRecord
100
AcDbBlockTableRecord
  2
GENDOT
340
0
  0
BLOCK_RECORD
  5
4CB8
330
1
100
AcDbSymbolTableRecord
100
AcDbBlockTableRecord
  2
SW_CENTERMARKSYMBOL_0
340
0
  0
BLOCK_RECORD
  5
6782
330
1
100
AcDbSymbolTableRecord
100
AcDbBlockTableRecord
  2
*D14
340
0
  0
BLOCK_RECORD
  5
67A8
330
1
100
AcDbSymbolTableRecord
100
AcDbBlockTableRecord
  2
*D15
340
0
  0
BLOCK_RECORD
  5
67CE
330
1
100
AcDbSymbolTableRecord
100
AcDbBlockTableRecord
  2
*D16
340
0
  0
BLOCK_RECORD
  5
67F4
330
1
100
AcDbSymbolTableRecord
100
AcDbBlockTableRecord
  2
*D17
340
0
  0
BLOCK_RECORD
  5
681A
330
1
100
AcDbSymbolTableRecord
100
AcDbBlockTableRecord
  2
*D18
340
0
  0
BLOCK_RECORD
  5
6840
330
1
100
AcDbSymbolTableRecord
100
AcDbBlockTableRecord
  2
*D19
340
0
  0
BLOCK_RECORD
  5
6866
330
1
100
AcDbSymbolTableRecord
100
AcDbBlockTableRecord
  2
*D20
340
0
  0
BLOCK_RECORD
  5
688C
330
1
100
AcDbSymbolTableRecord
100
AcDbBlockTableRecord
  2
*D21
340
0
  0
BLOCK_RECORD
  5
68B2
330
1
100
AcDbSymbolTableRecord
100
AcDbBlockTableRecord
  2
*D22
340
0
  0
ENDTAB
  0
ENDSEC
  0
SECTION
  2
BLOCKS
  0
BLOCK
  5
20
330
1F
100
AcDbEntity
  8
0
100
AcDbBlockBegin
  2
*Model_Space
 70
     0
 10
0.0
 20
0.0
 30
0.0
  3
*Model_Space
  1

  0
ENDBLK
  5
21
330
1F
100
AcDbEntity
  8
0
100
AcDbBlockEnd
  0
BLOCK
  5
1C
330
1B
100
AcDbEntity
 67
     1
  8
0
100
AcDbBlockBegin
  2
*Paper_Space
 70
     0
 10
0.0
 20
0.0
 30
0.0
  3
*Paper_Space
  1

  0
ENDBLK
  5
1D
330
1B
100
AcDbEntity
 67
     1
  8
0
100
AcDbBlockEnd
  0
BLOCK
  5
24
330
23
100
AcDbEntity
  8
0
100
AcDbBlockBegin
  2
*Paper_Space0
 70
     0
 10
0.0
 20
0.0
 30
0.0
  3
*Paper_Space0
  1

  0
ENDBLK
  5
25
330
23
100
AcDbEntity
  8
0
100
AcDbBlockEnd
  0
BLOCK
  5
89
330
87
100
AcDbEntity
  8
0
100
AcDbBlockBegin
  2
GENAXEH
 70
     0
 10
0.0
 20
0.0
 30
0.0
  3
GENAXEH
  1

  0
LINE
  5
88
330
87
100
AcDbEntity
  8
0
100
AcDbLine
 10
-1.0
 20
0.0
 30
0.0
 11
1.0
 21
0.0
 31
0.0
  0
ENDBLK
  5
8A
330
87
100
AcDbEntity
  8
0
100
AcDbBlockEnd
  0
BLOCK
  5
3AEB
330
3AEA
100
AcDbEntity
  8
0
100
AcDbBlockBegin
  2
GENDOT
 70
     0
 10
0.0
 20
0.0
 30
0.0
  3
GENDOT
  1

  0
LINE
  5
3AEC
330
3AEA
100
AcDbEntity
  8
0
100
AcDbLine
 10
0.0
 20
0.0
 30
0.0
 11
-1.0
 21
0.0
 31
0.0
  0
LWPOLYLINE
  5
3AED
330
3AEA
100
AcDbEntity
  8
0
100
AcDbPolyline
 90
        2
 70
     1
 43
0.25
 10
-0.125
 20
0.0
 42
1.0
 10
0.125
 20
0.0
 42
1.0
  0
ENDBLK
  5
3AEE
330
3AEA
100
AcDbEntity
  8
0
100
AcDbBlockEnd
  0
BLOCK
  5
4CB9
330
4CB8
100
AcDbEntity
  8
0
100
AcDbBlockBegin
  2
SW_CENTERMARKSYMBOL_0
 70
     0
 10
0.0
 20
0.0
 30
0.0
  3
SW_CENTERMARKSYMBOL_0
  1

  0
LINE
  5
4CBA
330
4CB8
100
AcDbEntity
  8
0
  6
Continuous
 62
     0
370
     0
100
AcDbLine
 10
0.0
 20
0.0
 30
0.0
 11
0.0
 21
2.500000000000002
 31
0.0
  0
LINE
  5
4CBB
330
4CB8
100
AcDbEntity
  8
0
  6
Continuous
 62
     0
370
     0
100
AcDbLine
 10
0.0
 20
0.0
 30
0.0
 11
-2.500000000000002
 21
0.0
 31
0.0
  0
LINE
  5
4CBC
330
4CB8
100
AcDbEntity
  8
0
  6
Continuous
 62
     0
370
     0
100
AcDbLine
 10
0.0
 20
0.0
 30
0.0
 11
0.0
 21
-2.500000000000002
 31
0.0
  0
LINE
  5
4CBD
330
4CB8
100
AcDbEntity
  8
0
  6
Continuous
 62
     0
370
     0
100
AcDbLine
 10
0.0
 20
0.0
 30
0.0
 11
2.500000000000002
 21
0.0
 31
0.0
  0
LINE
  5
4CBE
330
4CB8
100
AcDbEntity
  8
0
  6
Continuous
 62
     0
370
     0
100
AcDbLine
 10
0.0
 20
5.000000000000004
 30
0.0
 11
0.0
 21
11.04596669241484
 31
0.0
  0
LINE
  5
4CBF
330
4CB8
100
AcDbEntity
  8
0
  6
Continuous
 62
     0
370
     0
100
AcDbLine
 10
-5.000000000000004
 20
0.0
 30
0.0
 11
-11.04596669241484
 21
0.0
 31
0.0
  0
LINE
  5
4CC0
330
4CB8
100
AcDbEntity
  8
0
  6
Continuous
 62
     0
370
     0
100
AcDbLine
 10
0.0
 20
-4.999999999999976
 30
0.0
 11
0.0
 21
-11.04596669241484
 31
0.0
  0
LINE
  5
4CC1
330
4CB8
100
AcDbEntity
  8
0
  6
Continuous
 62
     0
370
     0
100
AcDbLine
 10
5.000000000000004
 20
0.0
 30
0.0
 11
11.04596669241482
 21
0.0
 31
0.0
  0
ENDBLK
  5
4CC2
330
4CB8
100
AcDbEntity
  8
0
100
AcDbBlockEnd
  0
BLOCK
  5
678C
330
6782
100
AcDbEntity
  8
0
100
AcDbBlockBegin
  2
*D14
 70
     1
 10
0.0
 20
0.0
 30
0.0
  3
*D14
  1

  0
LINE
  5
68CC
330
6782
100
AcDbEntity
  8
AM_REFDIM
100
AcDbLine
 10
431.7957891647346
 20
401.1477903331704
 30
0.0
 11
431.7957891647346
 21
452.6473443786026
 31
0.0
  0
LINE
  5
68CD
330
6782
100
AcDbEntity
  8
AM_REFDIM
100
AcDbLine
 10
498.8409474068467
 20
401.1477903331704
 30
0.0
 11
498.8409474068467
 21
452.6473443786026
 31
0.0
  0
LINE
  5
68CE
330
6782
100
AcDbEntity
  8
AM_REFDIM
100
AcDbLine
 10
433.5957891647346
 20
452.0473443786026
 30
0.0
 11
497.0409474068468
 21
452.0473443786026
 31
0.0
  0
SOLID
  5
68CF
330
6782
100
AcDbEntity
  8
AM_REFDIM
100
AcDbTrace
 10
433.5957891647346
 20
452.3473443786026
 30
0.0
 11
433.5957891647346
 21
451.7473443786026
 31
0.0
 12
431.7957891647346
 22
452.0473443786026
 32
0.0
 13
431.7957891647346
 23
452.0473443786026
 33
0.0
  0
SOLID
  5
68D0
330
6782
100
AcDbEntity
  8
AM_REFDIM
100
AcDbTrace
 10
497.0409474068468
 20
452.3473443786026
 30
0.0
 11
497.0409474068468
 21
451.7473443786026
 31
0.0
 12
498.8409474068467
 22
452.0473443786026
 32
0.0
 13
498.8409474068467
 23
452.0473443786026
 33
0.0
  0
MTEXT
  5
68D1
330
6782
100
AcDbEntity
  8
AM_REFDIM
100
AcDbMText
 10
465.3183682857907
 20
453.6973443786026
 30
0.0
 40
2.1
 41
0.0
 71
     5
 72
     1
  1
67
 73
     1
 44
1.0
1001
ACAD
1000
MTEXTBEGIN
1070
    73
1070
     1
1070
    44
1040
1.0
1070
    74
1070
     0
1000
MTEXTEND
  0
POINT
  5
68D2
330
6782
100
AcDbEntity
  8
Defpoints
 62
     0
100
AcDbPoint
 10
431.7957891647346
 20
400.5477903331704
 30
0.0
  0
POINT
  5
68D3
330
6782
100
AcDbEntity
  8
Defpoints
 62
     0
100
AcDbPoint
 10
498.8409474068467
 20
400.5477903331704
 30
0.0
  0
POINT
  5
68D4
330
6782
100
AcDbEntity
  8
Defpoints
 62
     0
100
AcDbPoint
 10
498.8409474068467
 20
452.0473443786026
 30
0.0
  0
ENDBLK
  5
678D
330
6782
100
AcDbEntity
  8
0
100
AcDbBlockEnd
  0
BLOCK
  5
67B2
330
67A8
100
AcDbEntity
  8
0
100
AcDbBlockBegin
  2
*D15
 70
     1
 10
0.0
 20
0.0
 30
0.0
  3
*D15
  1

  0
LINE
  5
68E7
330
67A8
100
AcDbEntity
  8
AM_REFDIM
100
AcDbLine
 10
489.6681166427448
 20
305.4021649362775
 30
0.0
 11
507.6681166427448
 21
305.4021649362775
 31
0.0
  0
LINE
  5
68E8
330
67A8
100
AcDbEntity
  8
AM_REFDIM
100
AcDbLine
 10
488.9189205193221
 20
290.5477903331704
 30
0.0
 11
507.6681166427448
 21
290.5477903331704
 31
0.0
  0
LINE
  5
68E9
330
67A8
100
AcDbEntity
  8
AM_REFDIM
100
AcDbLine
 10
507.0681166427448
 20
303.6021649362774
 30
0.0
 11
507.0681166427448
 21
292.3477903331705
 31
0.0
  0
SOLID
  5
68EA
330
67A8
100
AcDbEntity
  8
AM_REFDIM
100
AcDbTrace
 10
506.7681166427448
 20
303.6021649362774
 30
0.0
 11
507.3681166427448
 21
303.6021649362774
 31
0.0
 12
507.0681166427448
 22
305.4021649362775
 32
0.0
 13
507.0681166427448
 23
305.4021649362775
 33
0.0
  0
SOLID
  5
68EB
330
67A8
100
AcDbEntity
  8
AM_REFDIM
100
AcDbTrace
 10
506.7681166427448
 20
292.3477903331705
 30
0.0
 11
507.3681166427448
 21
292.3477903331705
 31
0.0
 12
507.0681166427448
 22
290.5477903331704
 32
0.0
 13
507.0681166427448
 23
290.5477903331704
 33
0.0
  0
MTEXT
  5
68EC
330
67A8
100
AcDbEntity
  8
AM_REFDIM
100
AcDbMText
 10
505.4181166427447
 20
297.974977634724
 30
0.0
 40
2.1
 41
0.0
 71
     5
 72
     1
  1
15
 11
0.0000000000000001
 21
1.0
 31
0.0
 73
     1
 44
1.0
1001
ACAD
1000
MTEXTBEGIN
1070
    73
1070
     1
1070
    44
1040
1.0
1070
    74
1070
     0
1000
MTEXTEND
  0
POINT
  5
68ED
330
67A8
100
AcDbEntity
  8
Defpoints
 62
     0
100
AcDbPoint
 10
489.0681166427448
 20
305.4021649362775
 30
0.0
  0
POINT
  5
68EE
330
67A8
100
AcDbEntity
  8
Defpoints
 62
     0
100
AcDbPoint
 10
488.3189205193221
 20
290.5477903331704
 30
0.0
  0
POINT
  5
68EF
330
67A8
100
AcDbEntity
  8
Defpoints
 62
     0
100
AcDbPoint
 10
507.0681166427448
 20
290.5477903331704
 30
0.0
  0
ENDBLK
  5
67B3
330
67A8
100
AcDbEntity
  8
0
100
AcDbBlockEnd
  0
BLOCK
  5
67D8
330
67CE
100
AcDbEntity
  8
0
100
AcDbBlockBegin
  2
*D16
 70
     1
 10
0.0
 20
0.0
 30
0.0
  3
*D16
  1

  0
LINE
  5
68DE
330
67CE
100
AcDbEntity
  8
AM_REFDIM
100
AcDbLine
 10
503.3044247150195
 20
400.5477903331704
 30
0.0
 11
521.3044247150195
 21
400.5477903331704
 31
0.0
  0
LINE
  5
68DF
330
67CE
100
AcDbEntity
  8
AM_REFDIM
100
AcDbLine
 10
488.9189205193221
 20
290.5477903331704
 30
0.0
 11
521.3044247150195
 21
290.5477903331704
 31
0.0
  0
LINE
  5
68E0
330
67CE
100
AcDbEntity
  8
AM_REFDIM
100
AcDbLine
 10
520.7044247150195
 20
398.7477903331704
 30
0.0
 11
520.7044247150195
 21
292.3477903331705
 31
0.0
  0
SOLID
  5
68E1
330
67CE
100
AcDbEntity
  8
AM_REFDIM
100
AcDbTrace
 10
520.4044247150195
 20
398.7477903331704
 30
0.0
 11
521.0044247150194
 21
398.7477903331704
 31
0.0
 12
520.7044247150195
 22
400.5477903331704
 32
0.0
 13
520.7044247150195
 23
400.5477903331704
 33
0.0
  0
SOLID
  5
68E2
330
67CE
100
AcDbEntity
  8
AM_REFDIM
100
AcDbTrace
 10
520.4044247150195
 20
292.3477903331705
 30
0.0
 11
521.0044247150194
 21
292.3477903331705
 31
0.0
 12
520.7044247150195
 22
290.5477903331704
 32
0.0
 13
520.7044247150195
 23
290.5477903331704
 33
0.0
  0
MTEXT
  5
68E3
330
67CE
100
AcDbEntity
  8
AM_REFDIM
100
AcDbMText
 10
519.0544247150194
 20
345.5477903331705
 30
0.0
 40
2.1
 41
0.0
 71
     5
 72
     1
  1
110
 11
0.0000000000000001
 21
1.0
 31
0.0
 73
     1
 44
1.0
1001
ACAD
1000
MTEXTBEGIN
1070
    73
1070
     1
1070
    44
1040
1.0
1070
    74
1070
     0
1000
MTEXTEND
  0
POINT
  5
68E4
330
67CE
100
AcDbEntity
  8
Defpoints
 62
     0
100
AcDbPoint
 10
502.7044247150195
 20
400.5477903331704
 30
0.0
  0
POINT
  5
68E5
330
67CE
100
AcDbEntity
  8
Defpoints
 62
     0
100
AcDbPoint
 10
488.3189205193221
 20
290.5477903331704
 30
0.0
  0
POINT
  5
68E6
330
67CE
100
AcDbEntity
  8
Defpoints
 62
     0
100
AcDbPoint
 10
520.7044247150195
 20
290.5477903331704
 30
0.0
  0
ENDBLK
  5
67D9
330
67CE
100
AcDbEntity
  8
0
100
AcDbBlockEnd
  0
BLOCK
  5
67FE
330
67F4
100
AcDbEntity
  8
0
100
AcDbBlockBegin
  2
*D17
 70
     1
 10
0.0
 20
0.0
 30
0.0
  3
*D17
  1

  0
LINE
  5
691F
330
67F4
100
AcDbEntity
  8
AM_REFDIM
100
AcDbLine
 10
465.4981794984446
 20
434.0447098374805
 30
0.0
 11
533.3044247150199
 21
434.0447098374805
 31
0.0
  0
LINE
  5
6920
330
67F4
100
AcDbEntity
  8
AM_REFDIM
100
AcDbLine
 10
488.9189205193221
 20
290.5477903331704
 30
0.0
 11
533.3044247150199
 21
290.5477903331704
 31
0.0
  0
LINE
  5
6921
330
67F4
100
AcDbEntity
  8
AM_REFDIM
100
AcDbLine
 10
532.7044247150198
 20
432.2447098374805
 30
0.0
 11
532.7044247150198
 21
292.3477903331705
 31
0.0
  0
SOLID
  5
6922
330
67F4
100
AcDbEntity
  8
AM_REFDIM
100
AcDbTrace
 10
532.4044247150198
 20
432.2447098374805
 30
0.0
 11
533.0044247150198
 21
432.2447098374805
 31
0.0
 12
532.7044247150198
 22
434.0447098374805
 32
0.0
 13
532.7044247150198
 23
434.0447098374805
 33
0.0
  0
SOLID
  5
6923
330
67F4
100
AcDbEntity
  8
AM_REFDIM
100
AcDbTrace
 10
532.4044247150198
 20
292.3477903331705
 30
0.0
 11
533.0044247150198
 21
292.3477903331705
 31
0.0
 12
532.7044247150198
 22
290.5477903331704
 32
0.0
 13
532.7044247150198
 23
290.5477903331704
 33
0.0
  0
MTEXT
  5
6924
330
67F4
100
AcDbEntity
  8
AM_REFDIM
100
AcDbMText
 10
531.0544247150197
 20
362.2962500853255
 30
0.0
 40
2.1
 41
0.0
 71
     5
 72
     1
  1
143.5
 11
0.0000000000000001
 21
1.0
 31
0.0
 73
     1
 44
1.0
1001
ACAD
1000
MTEXTBEGIN
1070
    73
1070
     1
1070
    44
1040
1.0
1070
    74
1070
     0
1000
MTEXTEND
  0
POINT
  5
6925
330
67F4
100
AcDbEntity
  8
Defpoints
 62
     0
100
AcDbPoint
 10
464.8981794984446
 20
434.0447098374805
 30
0.0
  0
POINT
  5
6926
330
67F4
100
AcDbEntity
  8
Defpoints
 62
     0
100
AcDbPoint
 10
488.3189205193221
 20
290.5477903331704
 30
0.0
  0
POINT
  5
6927
330
67F4
100
AcDbEntity
  8
Defpoints
 62
     0
100
AcDbPoint
 10
532.7044247150198
 20
290.5477903331704
 30
0.0
  0
ENDBLK
  5
67FF
330
67F4
100
AcDbEntity
  8
0
100
AcDbBlockEnd
  0
BLOCK
  5
6824
330
681A
100
AcDbEntity
  8
0
100
AcDbBlockBegin
  2
*D18
 70
     1
 10
0.0
 20
0.0
 30
0.0
  3
*D18
  1

  0
LINE
  5
68F0
330
681A
100
AcDbEntity
  8
AM_REFDIM
100
AcDbLine
 10
440.3189205193224
 20
291.9477903331704
 30
0.0
 11
440.3189205193224
 21
278.2768097044703
 31
0.0
  0
LINE
  5
68F1
330
681A
100
AcDbEntity
  8
AM_REFDIM
100
AcDbLine
 10
490.318920519322
 20
291.9477903331704
 30
0.0
 11
490.318920519322
 21
278.2768097044703
 31
0.0
  0
LINE
  5
68F2
330
681A
100
AcDbEntity
  8
AM_REFDIM
100
AcDbLine
 10
442.1189205193224
 20
278.8768097044703
 30
0.0
 11
488.5189205193221
 21
278.8768097044703
 31
0.0
  0
SOLID
  5
68F3
330
681A
100
AcDbEntity
  8
AM_REFDIM
100
AcDbTrace
 10
442.1189205193224
 20
279.1768097044704
 30
0.0
 11
442.1189205193224
 21
278.5768097044703
 31
0.0
 12
440.3189205193224
 22
278.8768097044703
 32
0.0
 13
440.3189205193224
 23
278.8768097044703
 33
0.0
  0
SOLID
  5
68F4
330
681A
100
AcDbEntity
  8
AM_REFDIM
100
AcDbTrace
 10
488.5189205193221
 20
279.1768097044704
 30
0.0
 11
488.5189205193221
 21
278.5768097044703
 31
0.0
 12
490.318920519322
 22
278.8768097044703
 32
0.0
 13
490.318920519322
 23
278.8768097044703
 33
0.0
  0
MTEXT
  5
68F5
330
681A
100
AcDbEntity
  8
AM_REFDIM
100
AcDbMText
 10
465.3189205193222
 20
280.5268097044703
 30
0.0
 40
2.1
 41
0.0
 71
     5
 72
     1
  1
50
 73
     1
 44
1.0
1001
ACAD
1000
MTEXTBEGIN
1070
    73
1070
     1
1070
    44
1040
1.0
1070
    74
1070
     0
1000
MTEXTEND
  0
POINT
  5
68F6
330
681A
100
AcDbEntity
  8
Defpoints
 62
     0
100
AcDbPoint
 10
440.3189205193224
 20
292.5477903331704
 30
0.0
  0
POINT
  5
68F7
330
681A
100
AcDbEntity
  8
Defpoints
 62
     0
100
AcDbPoint
 10
490.318920519322
 20
292.5477903331704
 30
0.0
  0
POINT
  5
68F8
330
681A
100
AcDbEntity
  8
Defpoints
 62
     0
100
AcDbPoint
 10
490.318920519322
 20
278.8768097044703
 30
0.0
  0
ENDBLK
  5
6825
330
681A
100
AcDbEntity
  8
0
100
AcDbBlockEnd
  0
BLOCK
  5
684A
330
6840
100
AcDbEntity
  8
0
100
AcDbBlockBegin
  2
*D19
 70
     1
 10
0.0
 20
0.0
 30
0.0
  3
*D19
  1

  0
LINE
  5
690B
330
6840
100
AcDbEntity
  8
AM_REFDIM
100
AcDbLine
 10
571.5323535967818
 20
432.6477903168592
 30
0.0
 11
571.5295683227492
 21
444.5927156714286
 31
0.0
  0
LINE
  5
690C
330
6840
100
AcDbEntity
  8
AM_REFDIM
100
AcDbLine
 10
597.5323535967817
 20
432.6477903168592
 30
0.0
 11
597.5295669090979
 21
444.5987782560625
 31
0.0
  0
LINE
  5
690D
330
6840
100
AcDbEntity
  8
AM_REFDIM
100
AcDbLine
 10
573.3297081796181
 20
443.993135405149
 30
0.0
 11
595.7297068638349
 21
443.9983585549647
 31
0.0
  0
SOLID
  5
690E
330
6840
100
AcDbEntity
  8
AM_REFDIM
100
AcDbTrace
 10
573.3296382267166
 20
444.2931353969933
 30
0.0
 11
573.3297781325196
 21
443.6931354133047
 31
0.0
 12
571.5297082285522
 22
443.9927156877399
 32
0.0
 13
571.5297082285522
 23
443.9927156877399
 33
0.0
  0
SOLID
  5
690F
330
6840
100
AcDbEntity
  8
AM_REFDIM
100
AcDbTrace
 10
595.7296369109334
 20
444.298358546809
 30
0.0
 11
595.7297768167364
 21
443.6983585631204
 31
0.0
 12
597.5297068149009
 22
443.9987782723739
 32
0.0
 13
597.5297068149009
 23
443.9987782723739
 33
0.0
  0
MTEXT
  5
6910
330
6840
100
AcDbEntity
  8
AM_REFDIM
100
AcDbMText
 10
584.5293227325722
 20
445.6459536281084
 30
0.0
 40
2.1
 41
0.0
 71
     5
 72
     1
  1
26
 11
0.9999999728143972
 21
0.0002331763384153
 31
0.0
 73
     1
 44
1.0
1001
ACAD
1000
MTEXTBEGIN
1070
    73
1070
     1
1070
    44
1040
1.0
1070
    74
1070
     0
1000
MTEXTEND
  0
POINT
  5
6911
330
6840
100
AcDbEntity
  8
Defpoints
 62
     0
100
AcDbPoint
 10
571.5324935025848
 20
432.0477903331704
 30
0.0
  0
POINT
  5
6912
330
6840
100
AcDbEntity
  8
Defpoints
 62
     0
100
AcDbPoint
 10
597.5324935025847
 20
432.0477903331705
 30
0.0
  0
POINT
  5
6913
330
6840
100
AcDbEntity
  8
Defpoints
 62
     0
100
AcDbPoint
 10
597.5297068149009
 20
443.9987782723739
 30
0.0
  0
ENDBLK
  5
684B
330
6840
100
AcDbEntity
  8
0
100
AcDbBlockEnd
  0
BLOCK
  5
6870
330
6866
100
AcDbEntity
  8
0
100
AcDbBlockBegin
  2
*D20
 70
     1
 10
0.0
 20
0.0
 30
0.0
  3
*D20
  1

  0
LINE
  5
6914
330
6866
100
AcDbEntity
  8
AM_REFDIM
100
AcDbLine
 10
566.0324935025844
 20
418.6977191079544
 30
0.0
 11
566.0324935025844
 21
459.6944401059638
 31
0.0
  0
LINE
  5
6915
330
6866
100
AcDbEntity
  8
AM_REFDIM
100
AcDbLine
 10
603.0324935025845
 20
418.6977191079547
 30
0.0
 11
603.0324935025845
 21
459.6944401059638
 31
0.0
  0
LINE
  5
6916
330
6866
100
AcDbEntity
  8
AM_REFDIM
100
AcDbLine
 10
567.8324935025844
 20
459.0944401059638
 30
0.0
 11
601.2324935025845
 21
459.0944401059638
 31
0.0
  0
SOLID
  5
6917
330
6866
100
AcDbEntity
  8
AM_REFDIM
100
AcDbTrace
 10
567.8324935025844
 20
459.3944401059638
 30
0.0
 11
567.8324935025844
 21
458.7944401059638
 31
0.0
 12
566.0324935025844
 22
459.0944401059638
 32
0.0
 13
566.0324935025844
 23
459.0944401059638
 33
0.0
  0
SOLID
  5
6918
330
6866
100
AcDbEntity
  8
AM_REFDIM
100
AcDbTrace
 10
601.2324935025845
 20
459.3944401059638
 30
0.0
 11
601.2324935025845
 21
458.7944401059638
 31
0.0
 12
603.0324935025845
 22
459.0944401059638
 32
0.0
 13
603.0324935025845
 23
459.0944401059638
 33
0.0
  0
MTEXT
  5
6919
330
6866
100
AcDbEntity
  8
AM_REFDIM
100
AcDbMText
 10
584.5324935025844
 20
460.7444401059638
 30
0.0
 40
2.1
 41
0.0
 71
     5
 72
     1
  1
37
 73
     1
 44
1.0
1001
ACAD
1000
MTEXTBEGIN
1070
    73
1070
     1
1070
    44
1040
1.0
1070
    74
1070
     0
1000
MTEXTEND
  0
POINT
  5
691A
330
6866
100
AcDbEntity
  8
Defpoints
 62
     0
100
AcDbPoint
 10
566.0324935025844
 20
418.0977191079544
 30
0.0
  0
POINT
  5
691B
330
6866
100
AcDbEntity
  8
Defpoints
 62
     0
100
AcDbPoint
 10
603.0324935025845
 20
418.0977191079547
 30
0.0
  0
POINT
  5
691C
330
6866
100
AcDbEntity
  8
Defpoints
 62
     0
100
AcDbPoint
 10
603.0324935025845
 20
459.0944401059638
 30
0.0
  0
ENDBLK
  5
6871
330
6866
100
AcDbEntity
  8
0
100
AcDbBlockEnd
  0
BLOCK
  5
6896
330
688C
100
AcDbEntity
  8
0
100
AcDbBlockBegin
  2
*D21
 70
     1
 10
0.0
 20
0.0
 30
0.0
  3
*D21
  1

  0
LINE
  5
6902
330
688C
100
AcDbEntity
  8
AM_REFDIM
100
AcDbLine
 10
600.1324935025847
 20
346.5477903331704
 30
0.0
 11
621.6324935025848
 21
346.5477903331704
 31
0.0
  0
LINE
  5
6903
330
688C
100
AcDbEntity
  8
AM_REFDIM
100
AcDbLine
 10
603.6324935025848
 20
290.5477903331704
 30
0.0
 11
621.6324935025848
 21
290.5477903331704
 31
0.0
  0
LINE
  5
6904
330
688C
100
AcDbEntity
  8
AM_REFDIM
100
AcDbLine
 10
621.0324935025847
 20
344.7477903331704
 30
0.0
 11
621.0324935025847
 21
292.3477903331705
 31
0.0
  0
SOLID
  5
6905
330
688C
100
AcDbEntity
  8
AM_REFDIM
100
AcDbTrace
 10
620.7324935025848
 20
344.7477903331704
 30
0.0
 11
621.3324935025847
 21
344.7477903331704
 31
0.0
 12
621.0324935025847
 22
346.5477903331704
 32
0.0
 13
621.0324935025847
 23
346.5477903331704
 33
0.0
  0
SOLID
  5
6906
330
688C
100
AcDbEntity
  8
AM_REFDIM
100
AcDbTrace
 10
620.7324935025848
 20
292.3477903331705
 30
0.0
 11
621.3324935025847
 21
292.3477903331705
 31
0.0
 12
621.0324935025847
 22
290.5477903331704
 32
0.0
 13
621.0324935025847
 23
290.5477903331704
 33
0.0
  0
MTEXT
  5
6907
330
688C
100
AcDbEntity
  8
AM_REFDIM
100
AcDbMText
 10
619.3824935025847
 20
318.5477903331705
 30
0.0
 40
2.1
 41
0.0
 71
     5
 72
     1
  1
56
 11
0.0000000000000001
 21
1.0
 31
0.0
 73
     1
 44
1.0
1001
ACAD
1000
MTEXTBEGIN
1070
    73
1070
     1
1070
    44
1040
1.0
1070
    74
1070
     0
1000
MTEXTEND
  0
POINT
  5
6908
330
688C
100
AcDbEntity
  8
Defpoints
 62
     0
100
AcDbPoint
 10
599.5324935025847
 20
346.5477903331704
 30
0.0
  0
POINT
  5
6909
330
688C
100
AcDbEntity
  8
Defpoints
 62
     0
100
AcDbPoint
 10
603.0324935025848
 20
290.5477903331704
 30
0.0
  0
POINT
  5
690A
330
688C
100
AcDbEntity
  8
Defpoints
 62
     0
100
AcDbPoint
 10
621.0324935025847
 20
290.5477903331704
 30
0.0
  0
ENDBLK
  5
6897
330
688C
100
AcDbEntity
  8
0
100
AcDbBlockEnd
  0
BLOCK
  5
68BC
330
68B2
100
AcDbEntity
  8
0
100
AcDbBlockBegin
  2
*D22
 70
     1
 10
0.0
 20
0.0
 30
0.0
  3
*D22
  1

  0
LINE
  5
68F9
330
68B2
100
AcDbEntity
  8
AM_REFDIM
100
AcDbLine
 10
564.0324935025846
 20
291.9477903331704
 30
0.0
 11
564.0324935025846
 21
278.2768097044701
 31
0.0
  0
LINE
  5
68FA
330
68B2
100
AcDbEntity
  8
AM_REFDIM
100
AcDbLine
 10
605.0324935025846
 20
291.9477903331704
 30
0.0
 11
605.0324935025846
 21
278.2768097044701
 31
0.0
  0
LINE
  5
68FB
330
68B2
100
AcDbEntity
  8
AM_REFDIM
100
AcDbLine
 10
565.8324935025846
 20
278.8768097044701
 30
0.0
 11
603.2324935025846
 21
278.8768097044701
 31
0.0
  0
SOLID
  5
68FC
330
68B2
100
AcDbEntity
  8
AM_REFDIM
100
AcDbTrace
 10
565.8324935025846
 20
279.1768097044701
 30
0.0
 11
565.8324935025846
 21
278.5768097044701
 31
0.0
 12
564.0324935025846
 22
278.8768097044701
 32
0.0
 13
564.0324935025846
 23
278.8768097044701
 33
0.0
  0
SOLID
  5
68FD
330
68B2
100
AcDbEntity
  8
AM_REFDIM
100
AcDbTrace
 10
603.2324935025846
 20
279.1768097044701
 30
0.0
 11
603.2324935025846
 21
278.5768097044701
 31
0.0
 12
605.0324935025846
 22
278.8768097044701
 32
0.0
 13
605.0324935025846
 23
278.8768097044701
 33
0.0
  0
MTEXT
  5
68FE
330
68B2
100
AcDbEntity
  8
AM_REFDIM
100
AcDbMText
 10
584.5324935025846
 20
280.5268097044701
 30
0.0
 40
2.1
 41
0.0
 71
     5
 72
     1
  1
41
 73
     1
 44
1.0
1001
ACAD
1000
MTEXTBEGIN
1070
    73
1070
     1
1070
    44
1040
1.0
1070
    74
1070
     0
1000
MTEXTEND
  0
POINT
  5
68FF
330
68B2
100
AcDbEntity
  8
Defpoints
 62
     0
100
AcDbPoint
 10
564.0324935025846
 20
292.5477903331704
 30
0.0
  0
POINT
  5
6900
330
68B2
100
AcDbEntity
  8
Defpoints
 62
     0
100
AcDbPoint
 10
605.0324935025846
 20
292.5477903331704
 30
0.0
  0
POINT
  5
6901
330
68B2
100
AcDbEntity
  8
Defpoints
 62
     0
100
AcDbPoint
 10
605.0324935025846
 20
278.8768097044701
 30
0.0
  0
ENDBLK
  5
68BD
330
68B2
100
AcDbEntity
  8
0
100
AcDbBlockEnd
  0
ENDSEC
  0
SECTION
  2
ENTITIES
  0
TEXT
  5
179B
330
1F
100
AcDbEntity
  8
LOGO
 62
     7
100
AcDbText
 10
447.9155648058501
 20
256.2578225278559
 30
0.0
 40
3.25093400835475
  1
Order example:
 41
0.8
  7
CHINESET
100
AcDbText
  0
TEXT
  5
179C
330
1F
100
AcDbEntity
  8
LOGO
 62
     7
100
AcDbText
 10
448.4988092510795
 20
260.834464497144
 30
0.0
 40
4.876401012532125
  1
訂購代號：
  7
CHINESET
100
AcDbText
  0
LINE
  5
179D
330
1F
100
AcDbEntity
  8
LOGO
 62
     4
100
AcDbLine
 10
446.5030229526858
 20
242.5571589878778
 30
0.0
 11
446.5030229526858
 21
266.9391640505386
 31
0.0
  0
TEXT
  5
179E
330
1F
100
AcDbEntity
  8
LOGO
  6
Continuous
100
AcDbText
 10
401.6207376325734
 20
247.3469670867836
 30
0.0
 40
3.657300759399094
  1
金器工業股份有限公司
  7
CHINESET
100
AcDbText
  0
TEXT
  5
179F
330
1F
100
AcDbEntity
  8
LOGO
  6
Continuous
100
AcDbText
 10
394.9029996988303
 20
243.6889497831792
 30
0.0
 40
2.438200506266062
  1
MINDMAN INDUSTRIAL CO., LTD.
 41
0.85
  7
CHINESET
100
AcDbText
  0
LINE
  5
17A0
330
1F
100
AcDbEntity
  8
LOGO
 62
     4
100
AcDbLine
 10
446.5030229526858
 20
262.0627630380064
 30
0.0
 11
410.7427488607831
 21
262.0627630380064
 31
0.0
  0
LINE
  5
17A1
330
1F
100
AcDbEntity
  8
LOGO
 62
     4
100
AcDbLine
 10
446.5030229526858
 20
257.1863620254742
 30
0.0
 11
410.7427488607831
 21
257.1863620254742
 31
0.0
  0
LINE
  5
17A2
330
1F
100
AcDbEntity
  8
LOGO
 62
     4
100
AcDbLine
 10
446.5030229526858
 20
252.3099610129424
 30
0.0
 11
392.8626118148323
 21
252.3099610129424
 31
0.0
  0
LINE
  5
17A3
330
1F
100
AcDbEntity
  8
LOGO
 62
     4
100
AcDbLine
 10
410.7427488607831
 20
252.3099610129424
 30
0.0
 11
410.7427488607831
 21
266.9391640505386
 31
0.0
  0
TEXT
  5
17A4
330
1F
100
AcDbEntity
  8
LOGO
100
AcDbText
 10
435.1832083433708
 20
253.529061266075
 30
0.0
 40
2.438200506266062
  1
mm
  7
CHINESET
 72
     1
 11
438.2019327797003
 21
254.7481615192081
 31
0.0
100
AcDbText
 73
     2
  0
TEXT
  5
17A5
330
1F
100
AcDbEntity
  8
LOGO
100
AcDbText
 10
433.9060556972315
 20
263.2818632911394
 30
0.0
 40
2.438200506266062
  1
1 : 1
  7
CHINESET
 72
     1
 11
438.2019327797003
 21
264.5009635442725
 31
0.0
100
AcDbText
 73
     2
  0
LINE
  5
17A6
330
1F
100
AcDbEntity
  8
LOGO
 62
     4
100
AcDbLine
 10
430.2483529109119
 20
252.3099610129424
 30
0.0
 11
430.2483529109119
 21
266.9391640505386
 31
0.0
  0
TEXT
  5
17A7
330
1F
100
AcDbEntity
  8
LOGO
100
AcDbText
 10
412.7531757960839
 20
263.2830631929634
 30
159.795644479991
 40
2.438200506266062
  1
比例 Scale:
 41
0.9
  7
CHINESET
 72
     4
 11
420.4955508858475
 21
264.5009635442725
 31
159.795644479991
100
AcDbText
  0
TEXT
  5
17A8
330
1F
100
AcDbEntity
  8
LOGO
100
AcDbText
 10
412.6127615704998
 20
258.4397594724084
 30
159.795644479991
 40
2.438200506266062
  1
投影  View:
 41
0.9
  7
CHINESET
 72
     4
 11
420.4955508858475
 21
259.6245625317401
 31
159.795644479991
100
AcDbText
  0
TEXT
  5
17A9
330
1F
100
AcDbEntity
  8
LOGO
100
AcDbText
 10
412.851139209282
 20
253.529061266075
 30
159.795644479991
 40
2.438200506266062
  1
單位  Unit:
 41
0.9
  7
CHINESET
 72
     4
 11
420.4955508858475
 21
254.7481615192081
 31
159.795644479991
100
AcDbText
  0
LWPOLYLINE
  5
17AA
330
1F
100
AcDbEntity
  8
LOGO
 62
     4
100
AcDbPolyline
 90
        4
 70
     1
 43
0.0
 10
392.8626118148324
 20
266.9391640505386
 10
640.6736593122115
 20
266.9391640505385
 10
640.6736593122117
 20
470.7383728761656
 10
392.8626118148324
 20
470.7383728761666
1001
GENIUS_GENREC_14
1002
{
1000
PYDIR
1011
392.8626118148324
1021
470.7383728761666
1031
0.0
1002
}
1002
{
1000
PXDIR
1011
640.6736593122115
1021
266.9391640505385
1031
0.0
1002
}
1002
{
1000
PORI
1011
392.8626118148324
1021
266.9391640505386
1031
0.0
1002
}
1002
{
1000
PINS
1011
392.8626118148324
1021
266.9391640505386
1031
0.0
1002
}
1002
{
1000
PINS2
1011
640.6736593122117
1021
470.7383728761656
1031
0.0
1002
}
1002
{
1000
C
1070
     1
1002
}
1001
GENIUS_GENODEF_13
1002
{
1000
HIER
1070
     0
1002
}
1002
{
1000
MANEDIT
1070
     0
1002
}
1002
{
1000
NOSEL
1070
     0
1002
}
1002
{
1000
BEHIND
1070
     0
1002
}
1002
{
1000
OTHER
1070
     0
1002
}
1002
{
1000
REACTOR
1002
}
1001
GENIUS_GENOBJ-N-REC_13
1002
{
1000
OWNER
1000
GEN
1002
}
  0
SOLID
  5
17AB
330
1F
100
AcDbEntity
  8
LOGO
 62
     5
100
AcDbTrace
 10
395.3922839702252
 20
256.3631223040961
 30
0.0
 11
396.4464978907532
 21
256.3631223040959
 31
0.0
 12
400.8451145936464
 22
266.3599784470358
 32
0.0
 13
401.8993285141749
 23
266.3599784470353
 33
0.0
  0
SOLID
  5
17AC
330
1F
100
AcDbEntity
  8
LOGO
 62
     5
100
AcDbTrace
 10
396.882724340628
 20
256.3631223040961
 30
0.0
 11
397.9369382611563
 21
256.3631223040961
 31
0.0
 12
401.8993285141749
 22
265.5602299556002
 32
0.0
 13
400.8451145936464
 23
261.6947789136636
 33
0.0
  0
SOLID
  5
17AD
330
1F
100
AcDbEntity
  8
LOGO
 62
     2
100
AcDbTrace
 10
396.4464978907532
 20
256.3631223040959
 30
0.0
 11
396.882724340628
 21
256.3631223040961
 31
0.0
 12
401.8993285141749
 22
266.3599784470353
 32
0.0
 13
402.3355549640493
 23
266.3599784470353
 33
0.0
  0
SOLID
  5
17AE
330
1F
100
AcDbEntity
  8
LOGO
 62
     5
100
AcDbTrace
 10
393.7021205306976
 20
252.7279018884819
 30
0.0
 11
394.0656425722594
 21
252.7279018884819
 31
0.0
 12
395.0893489355909
 22
254.545512096289
 32
0.0
 13
395.4528709771516
 23
254.545512096289
 33
0.0
  0
SOLID
  5
17AF
330
1F
100
AcDbEntity
  8
LOGO
 62
     5
100
AcDbTrace
 10
395.0893489355909
 20
254.545512096289
 30
0.0
 11
395.4528709771516
 21
254.545512096289
 31
0.0
 12
395.0893489355909
 22
252.7279018884819
 32
0.0
 13
395.4528709771516
 23
252.7279018884819
 33
0.0
  0
SOLID
  5
17B0
330
1F
100
AcDbEntity
  8
LOGO
 62
     5
100
AcDbTrace
 10
395.0893489355909
 20
252.7279018884819
 30
0.0
 11
395.4528709771516
 21
252.7279018884819
 31
0.0
 12
396.4765773404847
 22
254.545512096289
 32
0.0
 13
396.8400993820461
 23
254.545512096289
 33
0.0
  0
SOLID
  5
17B1
330
1F
100
AcDbEntity
  8
LOGO
 62
     5
100
AcDbTrace
 10
396.4765773404847
 20
254.545512096289
 30
0.0
 11
396.8400993820461
 21
254.545512096289
 31
0.0
 12
396.4765773404847
 22
252.7279018884819
 32
0.0
 13
396.8400993820461
 23
252.7279018884819
 33
0.0
  0
POLYLINE
  5
17B2
330
1F
100
AcDbEntity
  8
LOGO
 62
     5
100
AcDb2dPolyline
 66
     1
 10
0.0
 20
0.0
 30
0.0
 40
0.364104608935732
 41
0.364104608935732
  0
VERTEX
  5
17B3
330
17B2
100
AcDbEntity
  8
LOGO
 62
     5
100
AcDbVertex
100
AcDb2dVertex
 10
408.6617123382796
 20
253.8184680131661
 30
0.0
 42
1.0
  0
VERTEX
  5
17B4
330
17B2
100
AcDbEntity
  8
LOGO
 62
     5
100
AcDbVertex
100
AcDb2dVertex
 10
407.5693985114722
 20
253.8184680131661
 30
0.0
 42
1.0
  0
SEQEND
  5
17B5
330
17B2
100
AcDbEntity
  8
LOGO
 62
     5
  0
POLYLINE
  5
17B6
330
1F
100
AcDbEntity
  8
LOGO
 62
     5
100
AcDb2dPolyline
 66
     1
 10
0.0
 20
0.0
 30
0.0
 70
     1
  0
VERTEX
  5
17B7
330
17B6
100
AcDbEntity
  8
LOGO
 62
     5
100
AcDbVertex
100
AcDb2dVertex
 10
405.510338361821
 20
253.6367069923853
 30
0.0
 42
1.000000057330635
  0
VERTEX
  5
17B8
330
17B6
100
AcDbEntity
  8
LOGO
 62
     5
100
AcDbVertex
100
AcDb2dVertex
 10
406.6009044865054
 20
253.6367069923853
 30
0.0
 42
1.000000057330635
  0
SEQEND
  5
17B9
330
17B6
100
AcDbEntity
  8
LOGO
 62
     5
  0
CIRCLE
  5
17BA
330
1F
100
AcDbEntity
  8
LOGO
 62
     5
100
AcDbCircle
 10
406.0556214241639
 20
253.6367069923853
 30
0.0
 40
0.5452830623421523
  0
POLYLINE
  5
17BB
330
1F
100
AcDbEntity
  8
LOGO
 62
     5
100
AcDb2dPolyline
 66
     1
 10
0.0
 20
0.0
 30
0.0
 70
     1
 40
0.364104608935732
 41
0.364104608935732
  0
VERTEX
  5
17BC
330
17BB
100
AcDbEntity
  8
LOGO
 62
     5
100
AcDbVertex
100
AcDb2dVertex
 10
405.3274122062919
 20
253.6367069923853
 30
0.0
 42
1.0
  0
VERTEX
  5
17BD
330
17BB
100
AcDbEntity
  8
LOGO
 62
     5
100
AcDbVertex
100
AcDb2dVertex
 10
406.7838306420348
 20
253.6367069923853
 30
0.0
 42
1.0
  0
SEQEND
  5
17BE
330
17BB
100
AcDbEntity
  8
LOGO
 62
     5
  0
LINE
  5
17BF
330
1F
100
AcDbEntity
  8
LOGO
100
AcDbLine
 10
408.8425995079981
 20
252.7279018884819
 30
0.0
 11
408.8425995079981
 21
253.8184680131661
 31
0.0
  0
SOLID
  5
17C0
330
1F
100
AcDbEntity
  8
LOGO
 62
     5
100
AcDbTrace
 10
406.6008681343027
 20
254.545512096289
 30
0.0
 11
406.9643901758635
 21
254.545512096289
 31
0.0
 12
406.6008681343027
 22
252.7279018884819
 32
0.0
 13
406.9643901758635
 23
252.7279018884819
 33
0.0
  0
SOLID
  5
17C1
330
1F
100
AcDbEntity
  8
LOGO
 62
     5
100
AcDbTrace
 10
407.3885113417524
 20
252.7279018884819
 30
0.0
 11
407.7520333833143
 21
252.7279018884819
 31
0.0
 12
407.3885113417524
 22
254.545512096289
 32
0.0
 13
407.7520333833143
 23
254.545512096289
 33
0.0
  0
SOLID
  5
17C2
330
1F
100
AcDbEntity
  8
LOGO
 62
     5
100
AcDbTrace
 10
408.4790774664375
 20
253.8184680131661
 30
0.0
 11
408.8425995079981
 21
253.8184680131661
 31
0.0
 12
408.4790774664375
 22
252.7279018884819
 32
0.0
 13
408.8425995079981
 23
252.7279018884819
 33
0.0
  0
SOLID
  5
17C3
330
1F
100
AcDbEntity
  8
LOGO
 62
     5
100
AcDbTrace
 10
407.3521591375962
 20
265.5602299556002
 30
0.0
 11
406.2979452170689
 21
261.6947789136636
 31
0.0
 12
407.3521591375962
 22
256.3631223040959
 32
0.0
 13
406.2979452170689
 23
256.3631223040959
 33
0.0
  0
SOLID
  5
17C4
330
1F
100
AcDbEntity
  8
LOGO
 62
     5
100
AcDbTrace
 10
407.7883855874708
 20
256.3631223040959
 30
0.0
 11
408.8425995079981
 21
256.3631223040959
 31
0.0
 12
407.7883855874708
 22
266.3599784470353
 32
0.0
 13
408.8425995079981
 23
266.3599784470358
 33
0.0
  0
SOLID
  5
17C5
330
1F
100
AcDbEntity
  8
LOGO
 62
     2
100
AcDbTrace
 10
407.3521591375962
 20
266.3599784470358
 30
0.0
 11
407.7883855874708
 21
266.3599784470353
 31
0.0
 12
407.3521591375962
 22
256.3631223040959
 32
0.0
 13
407.7883855874708
 23
256.3631223040959
 33
0.0
  0
POLYLINE
  5
17C6
330
1F
100
AcDbEntity
  8
LOGO
 62
     5
100
AcDb2dPolyline
 66
     1
 10
0.0
 20
0.0
 30
0.0
 40
0.364104608935732
 41
0.364104608935732
  0
VERTEX
  5
17C7
330
17C6
100
AcDbEntity
  8
LOGO
 62
     5
100
AcDbVertex
100
AcDb2dVertex
 10
403.451205507763
 20
253.8184680131661
 30
0.0
 42
1.0
  0
VERTEX
  5
17C8
330
17C6
100
AcDbEntity
  8
LOGO
 62
     5
100
AcDbVertex
100
AcDb2dVertex
 10
402.3588916809557
 20
253.8184680131661
 30
0.0
 42
1.0
  0
SEQEND
  5
17C9
330
17C6
100
AcDbEntity
  8
LOGO
 62
     5
  0
POLYLINE
  5
17CA
330
1F
100
AcDbEntity
  8
LOGO
 62
     5
100
AcDb2dPolyline
 66
     1
 10
0.0
 20
0.0
 30
0.0
 40
0.364104608935732
 41
0.364104608935732
  0
VERTEX
  5
17CB
330
17CA
100
AcDbEntity
  8
LOGO
 62
     5
100
AcDbVertex
100
AcDb2dVertex
 10
404.5417716324463
 20
253.8184680131661
 30
0.0
 42
1.0
  0
VERTEX
  5
17CC
330
17CA
100
AcDbEntity
  8
LOGO
 62
     5
100
AcDbVertex
100
AcDb2dVertex
 10
403.4494578056395
 20
253.8184680131661
 30
0.0
 42
1.0
  0
SEQEND
  5
17CD
330
17CA
100
AcDbEntity
  8
LOGO
 62
     5
  0
POLYLINE
  5
17CE
330
1F
100
AcDbEntity
  8
LOGO
 62
     5
100
AcDb2dPolyline
 66
     1
 10
0.0
 20
0.0
 30
0.0
 40
0.364104608935732
 41
0.364104608935732
  0
VERTEX
  5
17CF
330
17CE
100
AcDbEntity
  8
LOGO
 62
     5
100
AcDbVertex
100
AcDb2dVertex
 10
399.3312648019298
 20
253.8184680131661
 30
0.0
 42
1.0
  0
VERTEX
  5
17D0
330
17CE
100
AcDbEntity
  8
LOGO
 62
     5
100
AcDbVertex
100
AcDb2dVertex
 10
398.2389509751228
 20
253.8184680131661
 30
0.0
 42
1.0
  0
SEQEND
  5
17D1
330
17CE
100
AcDbEntity
  8
LOGO
 62
     5
  0
SOLID
  5
17D2
330
1F
100
AcDbEntity
  8
LOGO
 62
     5
100
AcDbTrace
 10
398.0580638054036
 20
254.545512096289
 30
0.0
 11
398.4215858469645
 21
254.545512096289
 31
0.0
 12
398.0580638054036
 22
252.7279018884819
 32
0.0
 13
398.4215858469645
 23
252.7279018884819
 33
0.0
  0
SOLID
  5
17D3
330
1F
100
AcDbEntity
  8
LOGO
 62
     5
100
AcDbTrace
 10
399.1486299300881
 20
253.8184680131661
 30
0.0
 11
399.5121519716501
 21
253.8184680131661
 31
0.0
 12
399.1486299300881
 22
252.7279018884819
 32
0.0
 13
399.5121519716501
 23
252.7279018884819
 33
0.0
  0
POLYLINE
  5
17D4
330
1F
100
AcDbEntity
  8
LOGO
 62
     5
100
AcDb2dPolyline
 66
     1
 10
0.0
 20
0.0
 30
0.0
 70
     1
 40
0.364104608935732
 41
0.364104608935732
  0
VERTEX
  5
17D5
330
17D4
100
AcDbEntity
  8
LOGO
 62
     5
100
AcDbVertex
100
AcDb2dVertex
 10
400.1169053757748
 20
253.6367069923853
 30
0.0
 42
1.0
  0
VERTEX
  5
17D6
330
17D4
100
AcDbEntity
  8
LOGO
 62
     5
100
AcDbVertex
100
AcDb2dVertex
 10
401.5733238115183
 20
253.6367069923853
 30
0.0
 42
1.0
  0
SEQEND
  5
17D7
330
17D4
100
AcDbEntity
  8
LOGO
 62
     5
  0
SOLID
  5
17D8
330
1F
100
AcDbEntity
  8
LOGO
 62
     5
100
AcDbTrace
 10
401.3903613037852
 20
255.0907951586314
 30
0.0
 11
401.7538833453465
 21
255.0907951586314
 31
0.0
 12
401.3903613037852
 22
252.7279018884819
 32
0.0
 13
401.7538833453465
 23
252.7279018884819
 33
0.0
  0
SOLID
  5
17D9
330
1F
100
AcDbEntity
  8
LOGO
 62
     5
100
AcDbTrace
 10
402.1780045112371
 20
254.545512096289
 30
0.0
 11
402.5415265527978
 21
254.545512096289
 31
0.0
 12
402.1780045112371
 22
252.7279018884819
 32
0.0
 13
402.5415265527978
 23
252.7279018884819
 33
0.0
  0
SOLID
  5
17DA
330
1F
100
AcDbEntity
  8
LOGO
 62
     5
100
AcDbTrace
 10
403.2685706359204
 20
253.8184680131661
 30
0.0
 11
403.6320926774822
 21
253.8184680131661
 31
0.0
 12
403.2685706359204
 22
252.7279018884819
 32
0.0
 13
403.6320926774822
 23
252.7279018884819
 33
0.0
  0
SOLID
  5
17DB
330
1F
100
AcDbEntity
  8
LOGO
 62
     5
100
AcDbTrace
 10
404.3591367606047
 20
253.8184680131661
 30
0.0
 11
404.7226588021659
 21
253.8184680131661
 31
0.0
 12
404.3591367606047
 22
252.7279018884814
 32
0.0
 13
404.7226588021659
 23
252.7279018884814
 33
0.0
  0
SOLID
  5
17DC
330
1F
100
AcDbEntity
  8
LOGO
 62
     5
100
AcDbTrace
 10
397.2704205979524
 20
254.7999775253821
 30
0.0
 11
397.6339426395148
 21
254.7999775253821
 31
0.0
 12
397.2704205979524
 22
255.0907951586314
 32
0.0
 13
397.6339426395148
 23
255.0907951586314
 33
0.0
  0
SOLID
  5
17DD
330
1F
100
AcDbEntity
  8
LOGO
 62
     5
100
AcDbTrace
 10
397.2704205979524
 20
254.545512096289
 30
0.0
 11
397.6339426395148
 21
254.545512096289
 31
0.0
 12
397.2704205979524
 22
252.7279018884814
 32
0.0
 13
397.6339426395148
 23
252.7279018884819
 33
0.0
  0
SOLID
  5
17DE
330
1F
100
AcDbEntity
  8
LOGO
 62
     5
100
AcDbTrace
 10
400.8451145936464
 20
256.3631223040961
 30
0.0
 11
401.8993285141749
 21
256.3631223040961
 31
0.0
 12
400.8451145936464
 22
261.6947789136636
 32
0.0
 13
401.8993285141749
 23
265.5602299556002
 33
0.0
  0
SOLID
  5
17DF
330
1F
100
AcDbEntity
  8
LOGO
 62
     5
100
AcDbTrace
 10
402.3355549640493
 20
266.3599784470353
 30
0.0
 11
403.3897688845768
 21
266.3599784470358
 31
0.0
 12
402.3355549640493
 22
257.1628707955312
 32
0.0
 13
403.3897688845768
 23
261.0283218374678
 33
0.0
  0
SOLID
  5
17E0
330
1F
100
AcDbEntity
  8
LOGO
 62
     2
100
AcDbTrace
 10
401.8993285141749
 20
266.3599784470353
 30
0.0
 11
402.3355549640493
 21
266.3599784470353
 31
0.0
 12
401.8993285141749
 22
256.3631223040961
 32
0.0
 13
402.3355549640493
 23
256.3631223040961
 33
0.0
  0
SOLID
  5
17E1
330
1F
100
AcDbEntity
  8
LOGO
 62
     5
100
AcDbTrace
 10
402.3355549640493
 20
257.1628707955312
 30
0.0
 11
403.3897688845768
 21
261.0283218374678
 31
0.0
 12
407.3521591375962
 22
266.3599784470358
 32
0.0
 13
406.2979452170689
 23
266.3599784470358
 33
0.0
  0
SOLID
  5
17E2
330
1F
100
AcDbEntity
  8
LOGO
 62
     5
100
AcDbTrace
 10
402.3355549640493
 20
256.3631223040961
 30
0.0
 11
403.3897688845768
 21
256.3631223040961
 31
0.0
 12
407.3521591375962
 22
265.5602299556002
 32
0.0
 13
406.2979452170689
 23
261.6947789136636
 33
0.0
  0
SOLID
  5
17E3
330
1F
100
AcDbEntity
  8
LOGO
 62
     2
100
AcDbTrace
 10
401.8993285141749
 20
256.3631223040961
 30
0.0
 11
402.3355549640493
 21
256.3631223040961
 31
0.0
 12
407.3521591375962
 22
266.3599784470358
 32
0.0
 13
407.7883855874708
 23
266.3599784470353
 33
0.0
  0
LWPOLYLINE
  5
17E4
330
1F
100
AcDbEntity
  8
LOGO
 62
     4
100
AcDbPolyline
 90
        4
 70
     1
 43
0.0
 10
392.8626118148325
 20
266.9391640505386
 10
640.6736593122115
 20
266.9391640505385
 10
640.6736593122116
 20
242.5571589878776
 10
392.8626118148323
 20
242.5571589878776
1001
GENIUS_GENREC_14
1002
{
1000
PYDIR
1011
392.8626118148323
1021
242.5571589878776
1031
0.0
1002
}
1002
{
1000
PXDIR
1011
640.6736593122115
1021
266.9391640505385
1031
0.0
1002
}
1002
{
1000
PORI
1011
392.8626118148325
1021
266.9391640505386
1031
0.0
1002
}
1002
{
1000
PINS
1011
392.8626118148325
1021
266.9391640505386
1031
0.0
1002
}
1002
{
1000
PINS2
1011
640.6736593122116
1021
242.5571589878776
1031
0.0
1002
}
1002
{
1000
C
1070
     1
1002
}
1001
GENIUS_GENOBJ-N-REC_13
1002
{
1000
OWNER
1000
GEN
1002
}
1001
GENIUS_GENODEF_13
1002
{
1000
HIER
1070
     0
1002
}
1002
{
1000
MANEDIT
1070
     0
1002
}
1002
{
1000
NOSEL
1070
     0
1002
}
1002
{
1000
BEHIND
1070
     0
1002
}
1002
{
1000
OTHER
1070
     0
1002
}
1002
{
1000
REACTOR
1002
}
  0
LINE
  5
17E5
330
1F
100
AcDbEntity
  8
LOGO
 62
     4
100
AcDbLine
 10
500.7130025539386
 20
253.5290612660756
 30
0.0
 11
500.7130025539386
 21
244.5889927430994
 31
0.0
  0
LINE
  5
17E6
330
1F
100
AcDbEntity
  8
LOGO
 62
     4
100
AcDbLine
 10
484.4583325121647
 20
253.5290612660756
 30
0.0
 11
484.4583325121647
 21
244.5889927430994
 31
0.0
  0
LINE
  5
17E7
330
1F
100
AcDbEntity
  8
LOGO
 62
     4
100
AcDbLine
 10
500.7130025539386
 20
244.5889927430994
 30
0.0
 11
484.4583325121647
 21
244.5889927430994
 31
0.0
  0
LINE
  5
17E8
330
1F
100
AcDbEntity
  8
LOGO
 62
     4
100
AcDbLine
 10
506.938067672802
 20
264.5009635442725
 30
0.0
 11
480.0393887880564
 21
264.5009635442725
 31
0.0
  0
LINE
  5
17E9
330
1F
100
AcDbEntity
  8
LOGO
 62
     4
100
AcDbLine
 10
506.938067672802
 20
257.1863620254742
 30
0.0
 11
480.0393887880564
 21
257.1863620254742
 31
0.0
  0
LINE
  5
17EA
330
1F
100
AcDbEntity
  8
LOGO
 62
     4
100
AcDbLine
 10
480.0393887880564
 20
264.5009635442725
 30
0.0
 11
480.0393887880564
 21
257.1863620254742
 31
0.0
  0
LINE
  5
17EB
330
1F
100
AcDbEntity
  8
LOGO
 62
     4
100
AcDbLine
 10
506.938067672802
 20
264.5009635442725
 30
0.0
 11
506.938067672802
 21
257.1863620254742
 31
0.0
  0
LINE
  5
17EC
330
1F
100
AcDbEntity
  8
LOGO
 62
     4
100
AcDbLine
 10
493.4337530423419
 20
257.1863620254742
 30
0.0
 11
493.4337530423419
 21
253.5290612660756
 31
0.0
  0
TEXT
  5
17ED
330
1F
100
AcDbEntity
  8
LOGO
  6
Continuous
100
AcDbText
 10
484.8228508965449
 20
258.713274398577
 30
0.0
 40
4.064255999999998
  1
PHS-30
100
AcDbText
  0
LINE
  5
17EE
330
1F
100
AcDbEntity
  8
LOGO
 62
     4
100
AcDbLine
 10
500.7130025539386
 20
253.5290612660756
 30
0.0
 11
484.4583325121647
 21
253.5290612660756
 31
0.0
  0
TEXT
  5
17EF
330
1F
100
AcDbEntity
  8
LOGO
  6
Continuous
100
AcDbText
 10
489.6744046670678
 20
245.8508644572618
 30
159.795644479991
 40
1.828915199999999
  1
Model
 41
0.8
  7
CHINESET
100
AcDbText
  0
TEXT
  5
17F0
330
1F
100
AcDbEntity
  8
LOGO
100
AcDbText
 10
489.1876068952043
 20
249.2412790787043
 30
159.795644479991
 40
3.048191999999998
  1
型號
  7
CHINESET
100
AcDbText
  0
TEXT
  5
1824
330
1F
100
AcDbEntity
  8
LOGO
100
AcDbText
 10
447.4701560634559
 20
243.8542720337884
 30
0.0
 40
2.4385536
  1
01205030
 41
0.7
  7
CHINESET
 72
     1
 11
453.566540063456
 21
243.8542720337884
 31
0.0
100
AcDbText
  0
LINE
  5
1825
330
1F
100
AcDbEntity
  8
LOGO
 62
     4
100
AcDbLine
 10
461.1343445526845
 20
247.4335600004105
 30
0.0
 11
461.1343445526858
 21
242.5571589878781
 31
0.0
  0
LINE
  5
1826
330
1F
100
AcDbEntity
  8
LOGO
 62
     4
100
AcDbLine
 10
461.1343445526845
 20
247.4335600004105
 30
0.0
 11
446.5030229526858
 21
247.4335600004105
 31
0.0
  0
CIRCLE
  5
1827
330
1F
100
AcDbEntity
  8
LOGO
  6
Continuous
100
AcDbCircle
 10
434.762986113562
 20
259.6297778604656
 30
0.0
 40
1.415676602708761
  0
CIRCLE
  5
1828
330
1F
100
AcDbEntity
  8
LOGO
  6
Continuous
100
AcDbCircle
 10
434.762986113562
 20
259.6297778604656
 30
0.0
 40
0.8294611664282895
  0
LINE
  5
1829
330
1F
100
AcDbEntity
  8
LOGO
100
AcDbLine
 10
443.6592621531501
 20
258.2141012577566
 30
0.0
 11
443.6592621531501
 21
261.0454544631746
 31
0.0
  0
LINE
  5
182A
330
1F
100
AcDbEntity
  8
LOGO
100
AcDbLine
 10
439.2211972673727
 20
258.8003166940374
 30
0.0
 11
439.2211972673727
 21
260.459239026894
 31
0.0
  0
LINE
  5
182B
330
1F
100
AcDbEntity
  8
LOGO
  6
Continuous
100
AcDbLine
 10
439.2211972673727
 20
260.459239026894
 30
0.0
 11
443.6592621531501
 21
261.0454544631746
 31
0.0
  0
LINE
  5
182C
330
1F
100
AcDbEntity
  8
LOGO
  6
Continuous
100
AcDbLine
 10
439.2211972673727
 20
258.8003166940374
 30
0.0
 11
443.6592621531501
 21
258.2141012577566
 31
0.0
  0
LINE
  5
182D
330
1F
100
AcDbEntity
  8
LOGO
  6
AM_ISO08W050x2
 48
0.3
100
AcDbLine
 10
432.8114547186399
 20
259.6297778604656
 30
0.0
 11
436.7145175084838
 21
259.6297778604656
 31
0.0
1001
GENIUS_GENOREF_13
1005
1832
  0
LINE
  5
182E
330
1F
100
AcDbEntity
  8
LOGO
  6
AM_ISO08W050x2
 48
0.3
100
AcDbLine
 10
434.762986113562
 20
257.6782464655437
 30
0.0
 11
434.762986113562
 21
261.5813092553875
 31
0.0
1001
GENIUS_GENOREF_13
1005
1831
  0
LINE
  5
182F
330
1F
100
AcDbEntity
  8
LOGO
  6
CENTER
 48
0.5
100
AcDbLine
 10
438.8662754319468
 20
259.6297778604656
 30
0.0
 11
444.1061609203909
 21
259.6297778604656
 31
0.0
1001
GENIUS_GENOREF_13
1005
1830
  0
POINT
  5
1830
330
1F
100
AcDbEntity
  8
0
 60
     1
100
AcDbPoint
 10
-1582.868394589036
 20
-798.6687030228181
 30
0.0
1001
GENIUS_GENOBJ-N-CRS_13
1002
{
1000
OWNER
1000
GEN
1002
}
1001
GENIUS_GENOLIS_13
1002
{
1000
ENT
1005
0
1005
0
1005
0
1005
182F
1002
}
1001
GENIUS_GENOENT_13
1002
{
1000
MYREF
1005
1830
1002
}
1002
{
1000
GRP
1005
0
1002
}
1001
GENIUS_GENODEF_13
1002
{
1000
HIER
1070
    10
1002
}
1002
{
1000
MANEDIT
1070
     1
1002
}
1002
{
1000
NOSEL
1070
     0
1002
}
1002
{
1000
BEHIND
1070
     0
1002
}
1002
{
1000
OTHER
1070
     0
1002
}
1002
{
1000
REACTOR
1002
}
  0
POINT
  5
1831
330
1F
100
AcDbEntity
  8
0
 60
     1
100
AcDbPoint
 10
-1594.19297981189
 20
-789.7931165441819
 30
0.0
1001
GENIUS_GENOBJ-N-CRS_13
1002
{
1000
OWNER
1000
GEN
1002
}
1001
GENIUS_GENOLIS_13
1002
{
1000
ENT
1005
0
1005
0
1005
0
1005
182E
1002
}
1001
GENIUS_GENOENT_13
1002
{
1000
MYREF
1005
1831
1002
}
1002
{
1000
GRP
1005
0
1002
}
1001
GENIUS_GENODEF_13
1002
{
1000
HIER
1070
    10
1002
}
1002
{
1000
MANEDIT
1070
     1
1002
}
1002
{
1000
NOSEL
1070
     0
1002
}
1002
{
1000
BEHIND
1070
     0
1002
}
1002
{
1000
OTHER
1070
     0
1002
}
1002
{
1000
REACTOR
1002
}
  0
POINT
  5
1832
330
1F
100
AcDbEntity
  8
0
 60
     1
100
AcDbPoint
 10
-1587.834306114053
 20
-798.6687030228181
 30
0.0
1001
GENIUS_GENOBJ-N-CRS_13
1002
{
1000
OWNER
1000
GEN
1002
}
1001
GENIUS_GENOLIS_13
1002
{
1000
ENT
1005
0
1005
0
1005
0
1005
182D
1002
}
1001
GENIUS_GENOENT_13
1002
{
1000
MYREF
1005
1832
1002
}
1002
{
1000
GRP
1005
0
1002
}
1001
GENIUS_GENODEF_13
1002
{
1000
HIER
1070
    10
1002
}
1002
{
1000
MANEDIT
1070
     1
1002
}
1002
{
1000
NOSEL
1070
     0
1002
}
1002
{
1000
BEHIND
1070
     0
1002
}
1002
{
1000
OTHER
1070
     0
1002
}
1002
{
1000
REACTOR
1002
}
  0
SPLINE
  5
6617
330
1F
100
AcDbEntity
  8
0
  6
Continuous
 62
     7
370
    15
100
AcDbSpline
210
0.0
220
0.0
230
1.0
 70
    24
 71
     1
 72
     4
 73
     2
 74
     0
 42
0.0000000001
 43
0.0000000001
 40
0.0
 40
0.0
 40
1.0
 40
1.0
 10
440.3189205193224
 20
303.5477903331704
 30
0.0
 10
440.3189205193224
 20
292.5477903331704
 30
0.0
  0
ARC
  5
6618
102
{ACAD_REACTORS
330
6827
102
}
330
1F
100
AcDbEntity
  8
0
  6
Continuous
 62
     7
370
    15
100
AcDbCircle
 10
442.3189205193224
 20
292.5477903331704
 30
0.0
 40
2.0
100
AcDbArc
 50
180.0
 51
270.0
  0
ARC
  5
6619
102
{ACAD_REACTORS
330
67B5
102
}
330
1F
100
AcDbEntity
  8
0
  6
Continuous
 62
     7
370
    15
100
AcDbCircle
 10
488.3189205193221
 20
303.5477903331704
 30
0.0
 40
2.0
100
AcDbArc
 50
0.0
 51
68.00052721987217
  0
ARC
  5
661A
102
{ACAD_REACTORS
330
6827
102
}
330
1F
100
AcDbEntity
  8
0
  6
Continuous
 62
     7
370
    15
100
AcDbCircle
 10
488.3189205193221
 20
292.5477903331704
 30
0.0
 40
2.0
100
AcDbArc
 50
270.0
 51
0.0
  0
ARC
  5
661B
330
1F
100
AcDbEntity
  8
0
  6
Continuous
 62
     7
370
    15
100
AcDbCircle
 10
442.3189205193224
 20
303.5477903331704
 30
0.0
 40
2.000000000000032
100
AcDbArc
 50
112.0352973181658
 51
180.0
  0
SPLINE
  5
661C
330
1F
100
AcDbEntity
  8
0
  6
Continuous
 62
     7
370
    15
100
AcDbSpline
210
0.0
220
0.0
230
1.0
 70
    24
 71
     1
 72
     4
 73
     2
 74
     0
 42
0.0000000001
 43
0.0000000001
 40
0.0
 40
0.0
 40
1.0
 40
1.0
 10
490.318920519322
 20
292.5477903331704
 30
0.0
 10
490.318920519322
 20
303.5477903331704
 30
0.0
  0
LINE
  5
6630
330
1F
100
AcDbEntity
  8
0
  6
Continuous
 62
     7
370
    15
100
AcDbLine
 10
451.9360966956249
 20
290.5477903331704
 30
0.0
 11
442.3189205193224
 21
290.5477903331704
 31
0.0
  0
LINE
  5
6633
330
1F
100
AcDbEntity
  8
0
  6
Continuous
 62
     7
370
    15
100
AcDbLine
 10
451.3189205193222
 20
371.8552560948731
 30
0.0
 11
479.3189205193222
 21
371.855256094873
 31
0.0
  0
LINE
  5
6635
330
1F
100
AcDbEntity
  8
0
  6
Continuous
 62
     7
370
    15
100
AcDbLine
 10
478.7017443430196
 20
290.5477903331704
 30
0.0
 11
451.9360966956249
 21
290.5477903331704
 31
0.0
  0
LINE
  5
663A
102
{ACAD_REACTORS
330
67B5
330
67DB
330
6801
102
}
330
1F
100
AcDbEntity
  8
0
  6
Continuous
 62
     7
370
    15
100
AcDbLine
 10
488.3189205193221
 20
290.5477903331704
 30
0.0
 11
478.7017443430196
 21
290.5477903331704
 31
0.0
  0
LINE
  5
6641
330
1F
100
AcDbEntity
  8
0
  6
Continuous
 62
     7
370
    15
100
AcDbLine
 10
485.3189205193223
 20
368.2020023538988
 30
0.0
 11
485.3189205193223
 21
310.963988820266
 31
0.0
  0
ELLIPSE
  5
6645
330
1F
100
AcDbEntity
  8
0
  6
Continuous
 62
     7
370
    15
100
AcDbEllipse
 10
465.3189205193221
 20
383.844653907671
 30
0.0
 11
-8.588938701805801
 21
16.13070234800291
 31
0.0
210
0.0
220
0.0
230
1.0
 40
0.9368732624930903
 41
2.624780755714493
 42
3.464877207404169
  0
LINE
  5
664F
330
1F
100
AcDbEntity
  8
0
  6
Continuous
 62
     7
370
    15
100
AcDbLine
 10
445.3189205193222
 20
310.963988820266
 30
0.0
 11
445.3189205193222
 21
368.2020023538988
 31
0.0
  0
ELLIPSE
  5
6652
330
1F
100
AcDbEntity
  8
0
  6
Continuous
 62
     7
370
    15
100
AcDbEllipse
 10
465.3189205193221
 20
383.844653907671
 30
0.0
 11
8.588938701805949
 21
16.13070234800279
 31
0.0
210
0.0
220
0.0
230
1.0
 40
0.936873262493105
 41
2.818308099775431
 42
3.658404551465122
  0
ARC
  5
6657
330
1F
100
AcDbEntity
  8
0
  6
Continuous
 62
     7
370
    15
100
AcDbCircle
 10
439.3189205193221
 20
310.963988820266
 30
0.0
 40
6.000000000000015
100
AcDbArc
 50
292.024312837042
 51
0.0
  0
ARC
  5
6658
330
1F
100
AcDbEntity
  8
0
  6
Continuous
 62
     7
370
    15
100
AcDbCircle
 10
491.3189205193222
 20
310.963988820266
 30
0.0
 40
6.000000000000015
100
AcDbArc
 50
180.0
 51
247.9756871629579
  0
CIRCLE
  5
665A
330
1F
100
AcDbEntity
  8
0
  6
Continuous
 62
     7
370
    15
100
AcDbCircle
 10
465.3189205193221
 20
400.5477903331704
 30
0.0
 40
21.93741096848032
  0
CIRCLE
  5
665B
330
1F
100
AcDbEntity
  8
0
  6
Continuous
 62
     7
370
    15
100
AcDbCircle
 10
465.3189205193221
 20
400.5477903331704
 30
0.0
 40
17.54992877478426
  0
CIRCLE
  5
665C
330
1F
100
AcDbEntity
  8
0
  6
Continuous
 62
     7
370
    15
100
AcDbCircle
 10
465.3189205193221
 20
400.5477903331704
 30
0.0
 40
15.0
  0
ARC
  5
665D
330
1F
100
AcDbEntity
  8
0
  6
Continuous
 62
     7
370
    15
100
AcDbCircle
 10
465.3189205193221
 20
400.5477903331704
 30
0.0
 40
24.93741096848034
100
AcDbArc
 50
245.7394901052258
 51
294.2605098947742
  0
ARC
  5
6660
330
1F
100
AcDbEntity
  8
0
  6
Continuous
 62
     7
370
    15
100
AcDbCircle
 10
465.3189205193221
 20
400.5477903331704
 30
0.0
 40
24.93741096848034
100
AcDbArc
 50
294.2605098947742
 51
298.0679880343955
  0
ARC
  5
6662
330
1F
100
AcDbEntity
  8
0
  6
Continuous
 62
     7
370
    15
100
AcDbCircle
 10
465.3189205193221
 20
400.5477903331704
 30
0.0
 40
24.93741096848032
100
AcDbArc
 50
241.9320119656555
 51
245.7394901052258
  0
LINE
  5
6665
330
1F
100
AcDbEntity
  8
0
  6
Continuous
 62
     7
370
    15
100
AcDbLine
 10
483.7262680702199
 20
374.9857177227489
 30
0.0
 11
478.2638823603081
 21
371.1058810037106
 31
0.0
  0
LINE
  5
6667
330
1F
100
AcDbEntity
  8
0
  6
Continuous
 62
     7
370
    15
100
AcDbLine
 10
446.9115729684245
 20
374.9857177227489
 30
0.0
 11
452.3739586783363
 21
371.1058810037106
 31
0.0
  0
ARC
  5
6670
330
1F
100
AcDbEntity
  8
0
  6
Continuous
 62
     7
370
    15
100
AcDbCircle
 10
465.3189205193221
 20
400.5477903331704
 30
0.0
 40
31.50000000000002
100
AcDbArc
 50
305.7578067294315
 51
234.2421932705685
  0
ARC
  5
6671
102
{ACAD_REACTORS
330
678F
330
6801
102
}
330
1F
100
AcDbEntity
  8
0
  6
Continuous
 62
     7
370
    15
100
AcDbCircle
 10
465.3183682857907
 20
400.5247563339988
 30
0.0
 40
33.52258703460376
100
AcDbArc
 50
313.3023533198687
 51
226.7127639524998
  0
ARC
  5
6672
330
1F
100
AcDbEntity
  8
0
  6
Continuous
 62
     7
370
    15
100
AcDbCircle
 10
465.3189205193221
 20
400.5477903331704
 30
0.0
 40
24.93741096848031
100
AcDbArc
 50
298.0679880343955
 51
241.9320119656555
  0
ARC
  5
6673
330
1F
100
AcDbEntity
  8
0
  6
Continuous
 62
     7
370
    15
100
AcDbCircle
 10
433.3189205193222
 20
368.2020023538988
 30
0.0
 40
12.00000000000001
100
AcDbArc
 50
0.0
 51
41.30500398328519
  0
ARC
  5
6674
330
1F
100
AcDbEntity
  8
0
  6
Continuous
 62
     7
370
    15
100
AcDbCircle
 10
497.3189205193222
 20
368.2020023538988
 30
0.0
 40
12.0
100
AcDbArc
 50
138.6564334363195
 51
180.0
  0
ARC
  5
667C
330
1F
100
AcDbEntity
  8
0
  6
Continuous
 62
     7
370
    15
100
AcDbCircle
 10
573.5324935025846
 20
432.0477903331704
 30
0.0
 40
2.0
100
AcDbArc
 50
90.0
 51
180.0
  0
SPLINE
  5
667D
330
1F
100
AcDbEntity
  8
0
  6
Continuous
 62
     7
370
    15
100
AcDbSpline
210
0.0
220
0.0
230
1.0
 70
    24
 71
     1
 72
     4
 73
     2
 74
     0
 42
0.0000000001
 43
0.0000000001
 40
0.0
 40
0.0
 40
1.0
 40
1.0
 10
595.5324935025847
 20
434.0477903331705
 30
0.0
 10
573.5324935025846
 20
434.0477903331705
 30
0.0
  0
ARC
  5
667E
330
1F
100
AcDbEntity
  8
0
  6
Continuous
 62
     7
370
    15
100
AcDbCircle
 10
595.5324935025847
 20
432.0477903331704
 30
0.0
 40
2.0
100
AcDbArc
 50
0.0
 51
90.0
  0
ARC
  5
667F
330
1F
100
AcDbEntity
  8
0
  6
Continuous
 62
     7
370
    15
100
AcDbCircle
 10
584.5324935025846
 20
400.5477903331704
 30
0.0
 40
25.50000000000003
100
AcDbArc
 50
223.4903583470321
 51
239.3492300598719
  0
ARC
  5
6680
102
{ACAD_REACTORS
330
6873
102
}
330
1F
100
AcDbEntity
  8
0
  6
Continuous
 62
     7
370
    15
100
AcDbCircle
 10
584.5324935025846
 20
400.5477903331704
 30
0.0
 40
25.50000000000002
100
AcDbArc
 50
120.650769940128
 51
136.5096416529679
  0
ARC
  5
6681
330
1F
100
AcDbEntity
  8
0
  6
Continuous
 62
     7
370
    15
100
AcDbCircle
 10
584.5324935025846
 20
400.5477903331704
 30
0.0
 40
25.5
100
AcDbArc
 50
300.650769940128
 51
316.509641652968
  0
ARC
  5
6682
102
{ACAD_REACTORS
330
6873
102
}
330
1F
100
AcDbEntity
  8
0
  6
Continuous
 62
     7
370
    15
100
AcDbCircle
 10
584.5324935025846
 20
400.5477903331704
 30
0.0
 40
25.49999999999998
100
AcDbArc
 50
43.49035834703204
 51
59.34923005987197
  0
ARC
  5
6686
330
1F
100
AcDbEntity
  8
0
  6
Continuous
 62
     7
370
    15
100
AcDbCircle
 10
566.0324097921691
 20
304.2245533939056
 30
0.0
 40
1.999916289457426
100
AcDbArc
 50
159.7116329483281
 51
180.0206863083186
  0
LINE
  5
6688
102
{ACAD_REACTORS
330
684D
102
}
330
1F
100
AcDbEntity
  8
0
  6
Continuous
 62
     7
370
    15
100
AcDbLine
 10
571.5196140482041
 20
378.3945633958854
 30
0.0
 11
571.5324935025846
 21
432.0477903331704
 31
0.0
  0
LINE
  5
668D
102
{ACAD_REACTORS
330
684D
102
}
330
1F
100
AcDbEntity
  8
0
  6
Continuous
 62
     7
370
    15
100
AcDbLine
 10
597.5324935025846
 20
432.0477903331704
 30
0.0
 11
597.5449876510481
 21
378.4653890968169
 31
0.0
  0
LINE
  5
669B
102
{ACAD_REACTORS
330
68BF
102
}
330
1F
100
AcDbEntity
  8
0
  6
Continuous
 62
     7
370
    15
100
AcDbLine
 10
605.0324935025846
 20
304.2249146776382
 30
0.0
 11
605.0324935025846
 21
292.5477903331704
 31
0.0
  0
LINE
  5
669D
330
1F
100
AcDbEntity
  8
0
  6
Continuous
 62
     7
370
    15
100
AcDbLine
 10
564.0324935025846
 20
304.1781868236975
 30
0.0
 11
564.0324935025846
 21
292.5477903331704
 31
0.0
  0
SPLINE
  5
669E
330
1F
100
AcDbEntity
  8
0
  6
Continuous
 62
     7
370
    15
100
AcDbSpline
210
0.0
220
0.0
230
1.0
 70
     8
 71
     3
 72
    18
 73
    14
 74
     0
 42
0.0000000001
 43
0.0000000001
 40
0.0
 40
0.0
 40
0.0
 40
0.0
 40
0.125
 40
0.125
 40
0.25
 40
0.25
 40
0.3750000000000001
 40
0.3750000000000001
 40
0.5000000000000002
 40
0.5000000000000002
 40
0.7500000000000002
 40
0.7500000000000002
 40
1.0
 40
1.0
 40
1.0
 40
1.0
 10
605.0324935025846
 20
292.5477903331704
 30
0.0
 10
605.0324935025846
 20
292.4125867216669
 30
0.0
 10
605.0189249229937
 20
292.2798186304887
 30
0.0
 10
604.9658913652457
 20
292.0189318208214
 30
0.0
 10
604.9256941707176
 20
291.8894137030134
 30
0.0
 10
604.8219140414796
 20
291.6446609449118
 30
0.0
 10
604.7585824328489
 20
291.528913920372
 30
0.0
 10
604.6093839814531
 20
291.3104914374334
 30
0.0
 10
604.5237263059284
 20
291.2086862167484
 30
0.0
 10
604.2442221635259
 20
290.9354584548643
 30
0.0
 10
604.0216487099469
 20
290.7907031508882
 30
0.0
 10
603.5462692209868
 20
290.597965238047
 30
0.0
 10
603.2866179951847
 20
290.5477903331704
 30
0.0
 10
603.0324935025846
 20
290.5477903331704
 30
0.0
  0
LINE
  5
669F
102
{ACAD_REACTORS
330
6899
102
}
330
1F
100
AcDbEntity
  8
0
  6
Continuous
 62
     7
370
    15
100
AcDbLine
 10
603.0324935025846
 20
290.5477903331704
 30
0.0
 11
566.0324935025847
 21
290.5477903331704
 31
0.0
  0
SPLINE
  5
66A0
330
1F
100
AcDbEntity
  8
0
  6
Continuous
 62
     7
370
    15
100
AcDbSpline
210
0.0
220
0.0
230
1.0
 70
     8
 71
     3
 72
    18
 73
    14
 74
     0
 42
0.0000000001
 43
0.0000000001
 40
0.0
 40
0.0
 40
0.0
 40
0.0
 40
0.1250000000000002
 40
0.1250000000000002
 40
0.2500000000000003
 40
0.2500000000000003
 40
0.3750000000000005
 40
0.3750000000000005
 40
0.5000000000000006
 40
0.5000000000000006
 40
0.7500000000000004
 40
0.7500000000000004
 40
1.0
 40
1.0
 40
1.0
 40
1.0
 10
564.0324935025846
 20
292.5477903331704
 30
0.0
 10
564.0324935025846
 20
292.4125867216669
 30
0.0
 10
564.0460620821755
 20
292.2798186304887
 30
0.0
 10
564.0990956399235
 20
292.0189318208214
 30
0.0
 10
564.1392928344516
 20
291.8894137030134
 30
0.0
 10
564.2430729636896
 20
291.6446609449118
 30
0.0
 10
564.3064045723203
 20
291.528913920372
 30
0.0
 10
564.4556030237161
 20
291.3104914374334
 30
0.0
 10
564.5412606992408
 20
291.2086862167484
 30
0.0
 10
564.8207648416433
 20
290.9354584548643
 30
0.0
 10
565.0433382952224
 20
290.7907031508882
 30
0.0
 10
565.5187177841823
 20
290.597965238047
 30
0.0
 10
565.7783690099839
 20
290.5477903331704
 30
0.0
 10
566.0324935025847
 20
290.5477903331704
 30
0.0
  0
LINE
  5
66AD
330
1F
100
AcDbEntity
  8
0
  6
Continuous
 62
     7
370
    15
100
AcDbLine
 10
566.0324935025847
 20
382.9978615583862
 30
0.0
 11
566.0324935025847
 21
418.0977191079547
 31
0.0
  0
LINE
  5
66AE
102
{ACAD_REACTORS
330
6873
102
}
330
1F
100
AcDbEntity
  8
0
  6
Continuous
 62
     7
370
    15
100
AcDbLine
 10
603.0324935025846
 20
382.9978615583862
 30
0.0
 11
603.0324935025846
 21
418.0977191079547
 31
0.0
  0
LINE
  5
66B1
330
1F
100
AcDbEntity
  8
0
  6
Continuous
 62
     7
370
    15
100
AcDbLine
 10
564.5324935025846
 20
365.8446539076709
 30
0.0
 11
564.5324935025846
 21
307.0087968590532
 31
0.0
  0
LINE
  5
66B4
330
1F
100
AcDbEntity
  8
0
  6
Continuous
 62
     7
370
    15
100
AcDbLine
 10
604.5324935025846
 20
307.0087968590532
 30
0.0
 11
604.5324935025846
 21
365.8446539076708
 31
0.0
  0
ARC
  5
66BD
330
1F
100
AcDbEntity
  8
0
  6
Continuous
 62
     7
370
    15
100
AcDbCircle
 10
559.9212931428414
 20
378.4643832151976
 30
0.0
 40
11.59870625489622
100
AcDbArc
 50
314.5328738051303
 51
0.0049688965545048
  0
ARC
  5
66C2
330
1F
100
AcDbEntity
  8
0
  6
Continuous
 62
     7
370
    15
100
AcDbCircle
 10
566.5324935025846
 20
365.8446539076709
 30
0.0
 40
2.0
100
AcDbArc
 50
135.0
 51
180.0
  0
LINE
  5
66C3
330
1F
100
AcDbEntity
  8
0
  6
Continuous
 62
     7
370
    15
100
AcDbLine
 10
565.1182799402115
 20
367.2588674700439
 30
0.0
 11
568.0556790321072
 21
370.1962665619397
 31
0.0
  0
ARC
  5
66C5
330
1F
100
AcDbEntity
  8
0
  6
Continuous
 62
     7
370
    15
100
AcDbCircle
 10
602.5324935025846
 20
365.8446539076708
 30
0.0
 40
2.000000000000015
100
AcDbArc
 50
0.0
 51
45.0
  0
SPLINE
  5
66C6
330
1F
100
AcDbEntity
  8
0
  6
Continuous
 62
     7
370
    15
100
AcDbSpline
210
0.0
220
0.0
230
1.0
 70
     8
 71
     3
 72
     8
 73
     4
 74
     0
 42
0.0000000001
 43
0.0000000001
 40
0.0
 40
0.0
 40
0.0
 40
0.0
 40
1.0
 40
1.0
 40
1.0
 40
1.0
 10
601.009307973062
 20
370.1962665619397
 30
0.0
 10
600.8451741260535
 20
370.3604004089482
 30
0.0
 10
600.6760710985706
 20
370.5258720565524
 30
0.0
 10
600.501053004777
 20
370.6901825655362
 30
0.0
  0
LINE
  5
66C7
330
1F
100
AcDbEntity
  8
0
  6
Continuous
 62
     7
370
    15
100
AcDbLine
 10
601.009307973062
 20
370.1962665619397
 30
0.0
 11
603.9467070649577
 21
367.2588674700439
 31
0.0
  0
SPLINE
  5
66C8
330
1F
100
AcDbEntity
  8
0
  6
Continuous
 62
     7
370
    15
100
AcDbSpline
210
0.0
220
0.0
230
1.0
 70
    24
 71
     1
 72
     4
 73
     2
 74
     0
 42
0.0000000001
 43
0.0000000001
 40
0.0
 40
0.0
 40
1.0
 40
1.0
 10
564.1598610334519
 20
304.9168977590785
 30
0.0
 10
564.1574935025846
 20
304.9208852229919
 30
0.0
  0
ARC
  5
66C9
330
1F
100
AcDbEntity
  8
0
  6
Continuous
 62
     7
370
    15
100
AcDbCircle
 10
558.5324935025846
 20
307.0087968590532
 30
0.0
 40
5.99999999999999
100
AcDbArc
 50
339.6358651936835
 51
0.0
  0
ARC
  5
66CB
330
1F
100
AcDbEntity
  8
0
  6
Continuous
 62
     7
370
    15
100
AcDbCircle
 10
610.5324935025846
 20
307.0087968590532
 30
0.0
 40
6.0
100
AcDbArc
 50
180.0
 51
200.3641348063195
  0
ARC
  5
66CC
330
1F
100
AcDbEntity
  8
0
  6
Continuous
 62
     7
370
    15
100
AcDbCircle
 10
603.0324935025846
 20
304.2249146776382
 30
0.0
 40
2.000000000000028
100
AcDbArc
 50
0.0
 51
20.36413480631646
  0
LINE
  5
66D9
102
{ACAD_REACTORS
330
6899
102
}
330
1F
100
AcDbEntity
  8
AM_4
100
AcDbLine
 10
599.5324935025847
 20
346.5477903331704
 30
0.0
 11
569.5324935025846
 21
346.5477903331704
 31
0.0
  0
LINE
  5
66DB
330
1F
100
AcDbEntity
  8
0
  6
HIDDEN
 62
     7
370
     0
100
AcDbLine
 10
597.5324935025846
 20
377.812684691401
 30
0.0
 11
597.5555002636111
 21
377.5356885169253
 31
0.0
  0
ARC
  5
66DF
330
1F
100
AcDbEntity
  8
0
  6
HIDDEN
 62
     7
370
     0
100
AcDbCircle
 10
566.0324935025847
 20
304.2249146776381
 30
0.0
 40
2.000000000000002
100
AcDbArc
 50
159.6358651936835
 51
180.0
  0
SPLINE
  5
670B
330
1F
100
AcDbEntity
  8
AM_4
100
AcDbSpline
210
0.0
220
0.0
230
1.0
 70
    24
 71
     1
 72
     4
 73
     2
 74
     0
 42
0.0000000001
 43
0.0000000001
 40
0.0
 40
0.0
 40
1.0
 40
1.0
 10
603.0324935025845
 20
415.5477903331704
 30
0.0
 10
566.0324935025847
 20
415.5477903331704
 30
0.0
  0
SPLINE
  5
670C
330
1F
100
AcDbEntity
  8
AM_4
100
AcDbSpline
210
0.0
220
0.0
230
1.0
 70
    24
 71
     1
 72
     4
 73
     2
 74
     0
 42
0.0000000001
 43
0.0000000001
 40
0.0
 40
0.0
 40
1.0
 40
1.0
 10
566.0324935025847
 20
385.5477903331705
 30
0.0
 10
603.0324935025845
 20
385.5477903331705
 30
0.0
  0
SPLINE
  5
670D
330
1F
100
AcDbEntity
  8
AM_4
100
AcDbSpline
210
0.0
220
0.0
230
1.0
 70
    24
 71
     1
 72
     4
 73
     2
 74
     0
 42
0.0000000001
 43
0.0000000001
 40
0.0
 40
0.0
 40
1.0
 40
1.0
 10
599.5324935025847
 20
290.5477903331704
 30
0.0
 10
599.5324935025847
 20
346.5477903331704
 30
0.0
  0
SPLINE
  5
670E
330
1F
100
AcDbEntity
  8
AM_4
100
AcDbSpline
210
0.0
220
0.0
230
1.0
 70
    24
 71
     1
 72
     4
 73
     2
 74
     0
 42
0.0000000001
 43
0.0000000001
 40
0.0
 40
0.0
 40
1.0
 40
1.0
 10
569.5324935025846
 20
346.5477903331704
 30
0.0
 10
569.5324935025846
 20
290.5477903331704
 30
0.0
  0
LINE
  5
6711
330
1F
100
AcDbEntity
  8
0
  6
HIDDEN
 62
     7
370
     0
100
AcDbLine
 10
564.0324935379846
 20
303.5483532435737
 30
0.0
 11
564.0325400656811
 21
303.5343297799776
 31
0.0
  0
LINE
  5
6712
330
1F
100
AcDbEntity
  8
0
  6
HIDDEN
 62
     7
370
     0
100
AcDbLine
 10
564.0330310714417
 20
304.1781868236975
 30
0.0
 11
564.0324936330592
 21
304.2238313357639
 31
0.0
  0
LINE
  5
6713
330
1F
100
AcDbEntity
  8
0
  6
HIDDEN
 62
     7
370
     0
100
AcDbLine
 10
605.032446939488
 20
303.5343297799776
 30
0.0
 11
605.0324934671846
 21
303.5483532435737
 31
0.0
  0
ARC
  5
676B
330
1F
100
AcDbEntity
  8
0
  6
Continuous
 62
     7
370
    15
100
AcDbCircle
 10
609.1436938623274
 20
378.4643832151976
 30
0.0
 40
11.59870625489622
100
AcDbArc
 50
179.9950311034455
 51
225.4671261948697
  0
LINE
  5
676E
102
{ACAD_REACTORS
330
678F
330
67DB
102
}
330
1F
100
AcDbEntity
  8
AM_7
100
AcDbLine
 10
427.9334163236248
 20
400.5477903331704
 30
0.0
 11
502.7044247150195
 21
400.5477903331704
 31
0.0
  0
LINE
  5
676F
102
{ACAD_REACTORS
330
6801
102
}
330
1F
100
AcDbEntity
  8
AM_7
100
AcDbLine
 10
464.8981794984446
 20
361.3431744710674
 30
0.0
 11
464.8981794984446
 21
438.0626737817689
 31
0.0
  0
LINE
  5
6770
330
1F
100
AcDbEntity
  8
AM_7
100
AcDbLine
 10
558.4934644595914
 20
400.5477903331704
 30
0.0
 11
609.4044253359547
 21
400.5477903331704
 31
0.0
  0
DIMENSION
  5
6781
102
{ACAD_XDICTIONARY
360
678E
102
}
102
{ACAD_REACTORS
330
678F
102
}
330
1F
100
AcDbEntity
  8
AM_REFDIM
100
AcDbDimension
  2
*D14
 10
498.8409474068467
 20
452.0473443786026
 30
0.0
 11
465.3183682857907
 21
453.6973443786026
 31
0.0
 70
    32
 71
     5
 42
67.04515824211217
  3
AM_ISO$0
100
AcDbAlignedDimension
 13
431.7957891647346
 23
400.5477903331704
 33
0.0
 14
498.8409474068467
 24
400.5477903331704
 34
0.0
 50
0.0000000000000114
100
AcDbRotatedDimension
1001
ACAD
1000
DSTYLE
1002
{
1070
    40
1040
0.6
1070
   271
1070
     0
1002
}
  0
DIMENSION
  5
67A7
102
{ACAD_XDICTIONARY
360
67B4
102
}
102
{ACAD_REACTORS
330
67B5
102
}
330
1F
100
AcDbEntity
  8
AM_REFDIM
100
AcDbDimension
  2
*D15
 10
507.0681166427448
 20
290.5477903331704
 30
0.0
 11
505.4181166427447
 21
297.974977634724
 31
0.0
 70
    32
 71
     5
 42
14.85437460310703
  3
AM_ISO$0
100
AcDbAlignedDimension
 13
489.0681166427448
 23
305.4021649362775
 33
0.0
 14
488.3189205193221
 24
290.5477903331704
 34
0.0
 50
90.00000000000003
100
AcDbRotatedDimension
1001
ACAD
1000
DSTYLE
1002
{
1070
    40
1040
0.6
1070
   271
1070
     0
1002
}
  0
DIMENSION
  5
67CD
102
{ACAD_XDICTIONARY
360
67DA
102
}
102
{ACAD_REACTORS
330
67DB
102
}
330
1F
100
AcDbEntity
  8
AM_REFDIM
100
AcDbDimension
  2
*D16
 10
520.7044247150195
 20
290.5477903331704
 30
0.0
 11
519.0544247150194
 21
345.5477903331705
 31
0.0
 70
    32
 71
     5
 42
110.0
  3
AM_ISO$0
100
AcDbAlignedDimension
 13
502.7044247150195
 23
400.5477903331704
 33
0.0
 14
488.3189205193221
 24
290.5477903331704
 34
0.0
 50
90.00000000000003
100
AcDbRotatedDimension
1001
ACAD
1000
DSTYLE
1002
{
1070
    40
1040
0.6
1070
   271
1070
     0
1002
}
  0
DIMENSION
  5
67F3
102
{ACAD_XDICTIONARY
360
6800
102
}
102
{ACAD_REACTORS
330
6801
102
}
330
1F
100
AcDbEntity
  8
AM_REFDIM
100
AcDbDimension
  2
*D17
 10
532.7044247150198
 20
290.5477903331704
 30
0.0
 11
531.0544247150197
 21
362.2962500853255
 31
0.0
 70
    32
 71
     5
 42
143.4969195043101
  3
AM_ISO$0
100
AcDbAlignedDimension
 13
464.8981794984446
 23
434.0447098374805
 33
0.0
 14
488.3189205193221
 24
290.5477903331704
 34
0.0
 50
90.0
100
AcDbRotatedDimension
1001
ACAD
1000
DSTYLE
1002
{
1070
    40
1040
0.6
1070
   271
1070
     1
1002
}
  0
DIMENSION
  5
6819
102
{ACAD_XDICTIONARY
360
6826
102
}
102
{ACAD_REACTORS
330
6827
102
}
330
1F
100
AcDbEntity
  8
AM_REFDIM
100
AcDbDimension
  2
*D18
 10
490.318920519322
 20
278.8768097044703
 30
0.0
 11
465.3189205193222
 21
280.5268097044703
 31
0.0
 70
    32
 71
     5
 42
49.99999999999966
  3
AM_ISO$0
100
AcDbAlignedDimension
 13
440.3189205193224
 23
292.5477903331704
 33
0.0
 14
490.318920519322
 24
292.5477903331704
 34
0.0
 50
0.0000000000001132
100
AcDbRotatedDimension
1001
ACAD
1000
DSTYLE
1002
{
1070
    40
1040
0.6
1070
   271
1070
     0
1002
}
  0
DIMENSION
  5
683F
102
{ACAD_XDICTIONARY
360
684C
102
}
102
{ACAD_REACTORS
330
684D
102
}
330
1F
100
AcDbEntity
  8
AM_REFDIM
100
AcDbDimension
  2
*D19
 10
597.5297068149009
 20
443.9987782723739
 30
0.0
 11
584.5293227325722
 21
445.6459536281084
 31
0.0
 70
    32
 71
     5
 42
25.99999929317426
  3
AM_ISO$0
100
AcDbAlignedDimension
 13
571.5324935025847
 23
432.0477903331704
 33
0.0
 14
597.5324935025847
 24
432.0477903331705
 34
0.0
 50
0.0133600201945773
100
AcDbRotatedDimension
1001
ACAD
1000
DSTYLE
1002
{
1070
    40
1040
0.6
1070
   271
1070
     0
1002
}
  0
DIMENSION
  5
6865
102
{ACAD_XDICTIONARY
360
6872
102
}
102
{ACAD_REACTORS
330
6873
102
}
330
1F
100
AcDbEntity
  8
AM_REFDIM
100
AcDbDimension
  2
*D20
 10
603.0324935025845
 20
459.0944401059638
 30
0.0
 11
584.5324935025844
 21
460.7444401059638
 31
0.0
 70
    32
 71
     5
 42
37.00000000000012
  3
AM_ISO$0
100
AcDbAlignedDimension
 13
566.0324935025844
 23
418.0977191079544
 33
0.0
 14
603.0324935025845
 24
418.0977191079547
 34
0.0
100
AcDbRotatedDimension
1001
ACAD
1000
DSTYLE
1002
{
1070
    40
1040
0.6
1070
   271
1070
     0
1002
}
  0
DIMENSION
  5
688B
102
{ACAD_XDICTIONARY
360
6898
102
}
102
{ACAD_REACTORS
330
6899
102
}
330
1F
100
AcDbEntity
  8
AM_REFDIM
100
AcDbDimension
  2
*D21
 10
621.0324935025847
 20
290.5477903331704
 30
0.0
 11
619.3824935025847
 21
318.5477903331705
 31
0.0
 70
    32
 71
     5
 42
56.0
  3
AM_ISO$0
100
AcDbAlignedDimension
 13
599.5324935025847
 23
346.5477903331704
 33
0.0
 14
603.0324935025848
 24
290.5477903331704
 34
0.0
 50
90.00000000000003
100
AcDbRotatedDimension
1001
ACAD
1000
DSTYLE
1002
{
1070
    40
1040
0.6
1070
   271
1070
     0
1002
}
  0
DIMENSION
  5
68B1
102
{ACAD_XDICTIONARY
360
68BE
102
}
102
{ACAD_REACTORS
330
68BF
102
}
330
1F
100
AcDbEntity
  8
AM_REFDIM
100
AcDbDimension
  2
*D22
 10
605.0324935025846
 20
278.8768097044701
 30
0.0
 11
584.5324935025846
 21
280.5268097044701
 31
0.0
 70
    32
 71
     5
 42
41.0
  3
AM_ISO$0
100
AcDbAlignedDimension
 13
564.0324935025846
 23
292.5477903331704
 33
0.0
 14
605.0324935025846
 24
292.5477903331704
 34
0.0
 50
0.0000000000001132
100
AcDbRotatedDimension
1001
ACAD
1000
DSTYLE
1002
{
1070
    40
1040
0.6
1070
   271
1070
     0
1002
}
  0
ENDSEC
  0
SECTION
  2
OBJECTS
  0
DICTIONARY
  5
C
330
0
100
AcDbDictionary
281
     1
  3
ACAD_COLOR
350
BE
  3
ACAD_GROUP
350
D
  3
ACAD_LAYOUT
350
1A
  3
ACAD_MATERIAL
350
BD
  3
ACAD_MLINESTYLE
350
17
  3
ACAD_PLOTSETTINGS
350
19
  3
ACAD_PLOTSTYLENAME
350
E
  3
ACAD_TABLESTYLE
350
11A
  3
ACDBHEADERROUNDTRIPXREC
350
694C
  3
AcDbVariableDictionary
350
94
  3
AcmDictionary
350
5B
  3
AMG
350
41
  3
AMGSNAPSETTINGS
350
1B8
  3
DWGPROPS
350
694B
  3
MAPISURF_MODULE
350
3A15
  0
DICTIONARY
  5
3F9
330
2
100
AcDbDictionary
280
     1
281
     1
  3
ACAD_LAYERFILTERS
360
5645
  3
ACAD_LAYERSTATES
360
AD2
  3
ACLYDICTIONARY
360
5644
  0
DICTIONARY
  5
8F
330
1F
100
AcDbDictionary
280
     1
281
     1
  3
ACAD_INDEX
360
3D28
  0
DICTIONARY
  5
678E
330
6781
100
AcDbDictionary
280
     1
281
     1
  3
ACAD_DIMASSOC
360
678F
  0
DICTIONARY
  5
67B4
330
67A7
100
AcDbDictionary
280
     1
281
     1
  3
ACAD_DIMASSOC
360
67B5
  0
DICTIONARY
  5
67DA
330
67CD
100
AcDbDictionary
280
     1
281
     1
  3
ACAD_DIMASSOC
360
67DB
  0
DICTIONARY
  5
6800
330
67F3
100
AcDbDictionary
280
     1
281
     1
  3
ACAD_DIMASSOC
360
6801
  0
DICTIONARY
  5
6826
330
6819
100
AcDbDictionary
280
     1
281
     1
  3
ACAD_DIMASSOC
360
6827
  0
DICTIONARY
  5
684C
330
683F
100
AcDbDictionary
280
     1
281
     1
  3
ACAD_DIMASSOC
360
684D
  0
DICTIONARY
  5
6872
330
6865
100
AcDbDictionary
280
     1
281
     1
  3
ACAD_DIMASSOC
360
6873
  0
DICTIONARY
  5
6898
330
688B
100
AcDbDictionary
280
     1
281
     1
  3
ACAD_DIMASSOC
360
6899
  0
DICTIONARY
  5
68BE
330
68B1
100
AcDbDictionary
280
     1
281
     1
  3
ACAD_DIMASSOC
360
68BF
  0
DICTIONARY
  5
BE
102
{ACAD_REACTORS
330
C
102
}
330
C
100
AcDbDictionary
281
     1
  0
DICTIONARY
  5
D
102
{ACAD_REACTORS
330
C
102
}
330
C
100
AcDbDictionary
281
     1
  0
DICTIONARY
  5
1A
102
{ACAD_REACTORS
330
C
102
}
330
C
100
AcDbDictionary
281
     1
  3
Model
350
22
  3
配置1
350
1E
  3
配置2
350
26
  0
DICTIONARY
  5
BD
102
{ACAD_REACTORS
330
C
102
}
330
C
100
AcDbDictionary
281
     1
  0
DICTIONARY
  5
17
102
{ACAD_REACTORS
330
C
102
}
330
C
100
AcDbDictionary
281
     1
  3
Standard
350
18
  0
DICTIONARY
  5
19
102
{ACAD_REACTORS
330
C
102
}
330
C
100
AcDbDictionary
281
     1
  0
ACDBDICTIONARYWDFLT
  5
E
102
{ACAD_REACTORS
330
C
102
}
330
C
100
AcDbDictionary
281
     1
  3
Normal
350
F
100
AcDbDictionaryWithDefault
340
F
  0
DICTIONARY
  5
11A
102
{ACAD_REACTORS
330
C
102
}
330
C
100
AcDbDictionary
281
     1
  3
Standard
350
11B
  0
DICTIONARY
  5
694C
102
{ACAD_REACTORS
330
C
102
}
330
C
100
AcDbDictionary
281
     1
  0
DICTIONARY
  5
94
102
{ACAD_REACTORS
330
C
102
}
330
C
100
AcDbDictionary
281
     1
  3
CTABLESTYLE
350
138
  3
DIMASSOC
350
96
  3
INDEXCTL
350
95
  3
PROJECTNAME
350
1B44
  0
DICTIONARY
  5
5B
102
{ACAD_REACTORS
330
C
102
}
330
C
100
AcDbDictionary
281
     1
  3
AcmBOM
350
1B5
  3
AcmStdDictionary
350
61
  3
AMDTSECTSYM_ARROWCOLOR
350
123
  0
DICTIONARY
  5
41
102
{ACAD_REACTORS
330
C
102
}
330
C
100
AcDbDictionary
281
     1
  3
AcMgSettings
350
398F
  0
DICTIONARY
  5
1B8
102
{ACAD_REACTORS
330
C
102
}
330
C
100
AcDbDictionary
281
     1
  0
XRECORD
  5
694B
102
{ACAD_REACTORS
330
C
102
}
330
C
100
AcDbXrecord
280
     1
  1
DWGPROPS COOKIE
  2

  3

  4

  6

  7

  8

  9

300
AmdtFileType=84
301
=
302
=
303
=
304
=
305
=
306
=
307
=
308
=
309
=
 40
0.2343788773148148
 41
2454392.703168762
 42
2456052.371889827
  1

 90
        1
  0
DICTIONARY
  5
5645
102
{ACAD_REACTORS
330
3F9
102
}
330
3F9
100
AcDbDictionary
281
     1
  0
DICTIONARY
  5
AD2
102
{ACAD_REACTORS
330
3F9
102
}
330
3F9
100
AcDbDictionary
281
     1
  0
DICTIONARY
  5
5644
102
{ACAD_REACTORS
330
3F9
102
}
330
3F9
100
AcDbDictionary
281
     1
1001
ACAD
1000
<All
  0
DICTIONARY
  5
3D28
102
{ACAD_REACTORS
330
8F
102
}
330
8F
100
AcDbDictionary
281
     1
  3
*A1
350
3D29
  0
DIMASSOC
  5
678F
102
{ACAD_REACTORS
330
678E
102
}
330
678E
100
AcDbDimAssoc
330
6781
 90
        3
 70
     0
 71
     0
  1
AcDbOsnapPointRef
 72
     6
331
676E
 73
     0
 91
        0
 40
0.0516560218218791
 10
0.0
 20
0.0
 30
0.0
332
6671
 74
     0
 92
        0
 75
     0
  1
AcDbOsnapPointRef
 72
     6
331
676E
 73
     0
 91
        0
 40
0.94832920685048
 10
0.0
 20
0.0
 30
0.0
332
6671
 74
     0
 92
        0
 75
     0
  0
DIMASSOC
  5
67B5
102
{ACAD_REACTORS
330
67B4
102
}
330
67B4
100
AcDbDimAssoc
330
67A7
 90
        3
 70
     0
 71
     0
  1
AcDbOsnapPointRef
 72
     1
331
6619
 73
     0
 91
        0
 40
0.0
 10
0.0
 20
0.0
 30
2.000000000000000E+50
 75
     0
  1
AcDbOsnapPointRef
 72
    13
331
663A
 73
     0
 91
        0
 40
0.0
 10
0.0
 20
0.0
 30
2.000000000000000E+50
 75
     0
  0
DIMASSOC
  5
67DB
102
{ACAD_REACTORS
330
67DA
102
}
330
67DA
100
AcDbDimAssoc
330
67CD
 90
        3
 70
     0
 71
     0
  1
AcDbOsnapPointRef
 72
     1
331
676E
 73
     0
 91
        0
 40
0.0
 10
0.0
 20
0.0
 30
2.000000000000000E+50
 75
     0
  1
AcDbOsnapPointRef
 72
    13
331
663A
 73
     0
 91
        0
 40
0.0
 10
0.0
 20
0.0
 30
2.000000000000000E+50
 75
     0
  0
DIMASSOC
  5
6801
102
{ACAD_REACTORS
330
6800
102
}
330
6800
100
AcDbDimAssoc
330
67F3
 90
        3
 70
     0
 71
     0
  1
AcDbOsnapPointRef
 72
     6
331
676F
 73
     0
 91
        0
 40
0.9476278654007341
 10
0.0
 20
0.0
 30
0.0
332
6671
 74
     0
 92
        0
 75
     0
  1
AcDbOsnapPointRef
 72
    13
331
663A
 73
     0
 91
        0
 40
0.0
 10
0.0
 20
0.0
 30
2.000000000000000E+50
 75
     0
  0
DIMASSOC
  5
6827
102
{ACAD_REACTORS
330
6826
102
}
330
6826
100
AcDbDimAssoc
330
6819
 90
        3
 70
     0
 71
     0
  1
AcDbOsnapPointRef
 72
    13
331
6618
 73
     0
 91
        0
 40
0.0
 10
0.0
 20
0.0
 30
2.000000000000000E+50
 75
     0
  1
AcDbOsnapPointRef
 72
     1
331
661A
 73
     0
 91
        0
 40
0.0
 10
0.0
 20
0.0
 30
2.000000000000000E+50
 75
     0
  0
DIMASSOC
  5
684D
102
{ACAD_REACTORS
330
684C
102
}
330
684C
100
AcDbDimAssoc
330
683F
 90
       15
 70
     0
 71
     1
  1
AcDbOsnapPointRef
 72
     1
331
6688
 73
     0
 91
        0
 40
0.0
 10
0.0
 20
0.0
 30
2.000000000000000E+50
 75
     0
  1
AcDbOsnapPointRef
 72
    13
331
668D
 73
     0
 91
        0
 40
0.0
 10
0.0
 20
0.0
 30
2.000000000000000E+50
 75
     0
  1
AcDbOsnapPointRef
 72
     1
331
668D
 73
     0
 91
        0
 40
0.0
 10
0.0
 20
0.0
 30
2.000000000000000E+50
 75
     0
  1
AcDbOsnapPointRef
 72
    13
331
668D
 73
     0
 91
        0
 40
0.0
 10
0.0
 20
0.0
 30
2.000000000000000E+50
 75
     0
  0
DIMASSOC
  5
6873
102
{ACAD_REACTORS
330
6872
102
}
330
6872
100
AcDbDimAssoc
330
6865
 90
        3
 70
     0
 71
     0
  1
AcDbOsnapPointRef
 72
     1
331
6680
 73
     0
 91
        0
 40
0.0
 10
0.0
 20
0.0
 30
2.000000000000000E+50
 75
     0
  1
AcDbOsnapPointRef
 72
     6
331
66AE
 73
     0
 91
        0
 40
1.0
 10
0.0
 20
0.0
 30
0.0
332
6682
 74
     0
 92
        0
 75
     0
  0
DIMASSOC
  5
6899
102
{ACAD_REACTORS
330
6898
102
}
330
6898
100
AcDbDimAssoc
330
688B
 90
        3
 70
     0
 71
     0
  1
AcDbOsnapPointRef
 72
    13
331
66D9
 73
     0
 91
        0
 40
0.0
 10
0.0
 20
0.0
 30
2.000000000000000E+50
 75
     0
  1
AcDbOsnapPointRef
 72
    13
331
669F
 73
     0
 91
        0
 40
0.0
 10
0.0
 20
0.0
 30
2.000000000000000E+50
 75
     0
  0
DIMASSOC
  5
68BF
102
{ACAD_REACTORS
330
68BE
102
}
330
68BE
100
AcDbDimAssoc
330
68B1
 90
        2
 70
     0
 71
     0
  1
AcDbOsnapPointRef
 72
     1
331
669B
 73
     0
 91
        0
 40
0.0
 10
0.0
 20
0.0
 30
2.000000000000000E+50
 75
     0
  0
LAYOUT
  5
22
102
{ACAD_XDICTIONARY
360
694F
102
}
102
{ACAD_REACTORS
330
1A
102
}
330
1A
100
AcDbPlotSettings
  1

  2
\\RD\EPSON Stylus C63 Series單色
  4
A4
  6

 40
3.757083177566528
 41
3.757076978683471
 42
3.757080078125
 43
3.757080078125
 44
209.9733276367187
 45
296.9683227539062
 46
0.0
 47
0.0
 48
0.0
 49
0.0
140
0.0
141
0.0
142
1.0
143
0.3405120737814363
 70
 11952
 72
     1
 73
     0
 74
     0
  7
單色出圖.ctb
 75
     0
147
2.936753428137963
148
-2047.07469463503
149
-1261.649717473083
100
AcDbLayout
  1
Model
 70
     1
 71
     0
 10
0.0
 20
0.0
 11
12.0
 21
9.0
 12
0.0
 22
0.0
 32
0.0
 14
0.0
 24
0.0
 34
0.0
 15
0.0
 25
0.0
 35
0.0
146
0.0
 13
0.0
 23
0.0
 33
0.0
 16
1.0
 26
0.0
 36
0.0
 17
0.0
 27
1.0
 37
0.0
 76
     0
330
1F
1001
ACAD_PSEXT
1000
\\RD\EPSON Stylus C63 Series單色
1000
EPSON Stylus C63 Series
1000
\\RD
1000

1070
     0
  0
LAYOUT
  5
1E
102
{ACAD_XDICTIONARY
360
694D
102
}
102
{ACAD_REACTORS
330
1A
102
}
330
1A
100
AcDbPlotSettings
  1

  2

  4

  6

 40
0.0
 41
0.0
 42
0.0
 43
0.0
 44
0.0
 45
0.0
 46
0.0
 47
0.0
 48
0.0
 49
0.0
140
0.0
141
0.0
142
1.0
143
1.0
 70
   688
 72
     0
 73
     0
 74
     5
  7
單色出圖.ctb
 75
    16
147
1.0
148
0.0
149
0.0
100
AcDbLayout
  1
配置1
 70
     1
 71
     1
 10
0.0
 20
0.0
 11
420.0
 21
297.0
 12
0.0
 22
0.0
 32
0.0
 14
1.000000000000000E+20
 24
1.000000000000000E+20
 34
1.000000000000000E+20
 15
-1.000000000000000E+20
 25
-1.000000000000000E+20
 35
-1.000000000000000E+20
146
0.0
 13
0.0
 23
0.0
 33
0.0
 16
1.0
 26
0.0
 36
0.0
 17
0.0
 27
1.0
 37
0.0
 76
     0
330
1B
  0
LAYOUT
  5
26
102
{ACAD_XDICTIONARY
360
6951
102
}
102
{ACAD_REACTORS
330
1A
102
}
330
1A
100
AcDbPlotSettings
  1

  2

  4

  6

 40
0.0
 41
0.0
 42
0.0
 43
0.0
 44
0.0
 45
0.0
 46
0.0
 47
0.0
 48
0.0
 49
0.0
140
0.0
141
0.0
142
1.0
143
1.0
 70
   688
 72
     0
 73
     0
 74
     5
  7
單色出圖.ctb
 75
    16
147
1.0
148
0.0
149
0.0
100
AcDbLayout
  1
配置2
 70
     1
 71
     2
 10
0.0
 20
0.0
 11
12.0
 21
9.0
 12
0.0
 22
0.0
 32
0.0
 14
0.0
 24
0.0
 34
0.0
 15
0.0
 25
0.0
 35
0.0
146
0.0
 13
0.0
 23
0.0
 33
0.0
 16
1.0
 26
0.0
 36
0.0
 17
0.0
 27
1.0
 37
0.0
 76
     0
330
23
  0
MLINESTYLE
  5
18
102
{ACAD_REACTORS
330
17
102
}
330
17
100
AcDbMlineStyle
  2
STANDARD
 70
     0
  3

 62
   256
 51
90.0
 52
90.0
 71
     2
 49
0.5
 62
   256
  6
BYLAYER
 49
-0.5
 62
   256
  6
BYLAYER
  0
ACDBPLACEHOLDER
  5
F
102
{ACAD_REACTORS
330
E
102
}
330
E
  0
TABLESTYLE
  5
11B
102
{ACAD_REACTORS
330
11A
102
}
330
11A
100
AcDbTableStyle
  3
Standard
 70
     0
 71
     0
 40
1.5
 41
1.5
280
     0
281
     0
  7
STANDARD
140
4.5
170
     2
 62
     0
 63
     7
283
     0
274
    -2
284
     1
 64
     0
275
    -2
285
     1
 65
     0
276
    -2
286
     1
 66
     0
277
    -2
287
     1
 67
     0
278
    -2
288
     1
 68
     0
279
    -2
289
     1
 69
     0
  7
STANDARD
140
6.0
170
     5
 62
     0
 63
     7
283
     0
274
    -2
284
     1
 64
     0
275
    -2
285
     1
 65
     0
276
    -2
286
     1
 66
     0
277
    -2
287
     1
 67
     0
278
    -2
288
     1
 68
     0
279
    -2
289
     1
 69
     0
  7
STANDARD
140
4.5
170
     5
 62
     0
 63
     7
283
     0
274
    -2
284
     1
 64
     0
275
    -2
285
     1
 65
     0
276
    -2
286
     1
 66
     0
277
    -2
287
     1
 67
     0
278
    -2
288
     1
 68
     0
279
    -2
289
     1
 69
     0
  0
DICTIONARYVAR
  5
138
102
{ACAD_REACTORS
330
94
102
}
330
94
100
DictionaryVariables
280
     0
  1
STANDARD
  0
DICTIONARYVAR
  5
96
102
{ACAD_REACTORS
330
94
102
}
330
94
100
DictionaryVariables
280
     0
  1
2
  0
DICTIONARYVAR
  5
95
102
{ACAD_REACTORS
330
94
102
}
330
94
100
DictionaryVariables
280
     0
  1
1
  0
DICTIONARYVAR
  5
1B44
102
{ACAD_REACTORS
330
94
102
}
330
94
100
DictionaryVariables
280
     0
  1

  0
DICTIONARY
  5
1B5
102
{ACAD_REACTORS
330
5B
102
}
330
5B
100
AcDbDictionary
281
     1
  0
DICTIONARY
  5
61
102
{ACAD_REACTORS
330
5B
102
}
330
5B
100
AcDbDictionary
281
     1
  0
XRECORD
  5
123
102
{ACAD_REACTORS
330
5B
102
}
330
5B
100
AcDbXrecord
280
     1
 90
-1023410169
  0
DICTIONARY
  5
398F
102
{ACAD_REACTORS
330
41
102
}
330
41
100
AcDbDictionary
281
     1
  3
DWGSETTINGS
350
3990
  3
TRANSSETTINGS
350
3993
  0
LAYER_INDEX
  5
3D29
102
{ACAD_REACTORS
330
3D28
102
}
330
3D28
100
AcDbIndex
 40
2456052.371889827
100
AcDbLayerIndex
  8
0
360
4783
 90
       67
  8
AM_VIS
360
4784
 90
        0
  8
AM_7
360
4785
 90
        3
  8
Defpoints
360
4786
 90
        0
  8
LOGO
360
4787
 90
       77
  8
AM_4
360
4788
 90
        5
  8
AM_REFDIM
360
4789
 90
        9
  8
AM_HID
360
478A
 90
        0
  8
AM_5
360
478B
 90
        0
  0
DICTIONARY
  5
694F
330
22
100
AcDbDictionary
280
     1
281
     1
  3
ACAD_XREC_ROUNDTRIP
360
6950
  0
DICTIONARY
  5
694D
330
1E
100
AcDbDictionary
280
     1
281
     1
  3
ACAD_XREC_ROUNDTRIP
360
694E
  0
DICTIONARY
  5
6951
330
26
100
AcDbDictionary
280
     1
281
     1
  3
ACAD_XREC_ROUNDTRIP
360
6952
  0
IDBUFFER
  5
4783
330
0
100
AcDbIdBuffer
330
676B
330
6713
330
6712
330
6711
330
66AD
330
66AE
330
66B1
330
66B4
330
66DF
330
66DB
330
66BD
330
66CC
330
669B
330
66CB
330
669D
330
669E
330
669F
330
66A0
330
66C9
330
66C8
330
66C7
330
66C6
330
66C5
330
66C3
330
66C2
330
1830
330
1831
330
1832
330
6617
330
6618
330
6619
330
661A
330
661B
330
661C
330
668D
330
6688
330
6686
330
6682
330
6681
330
6680
330
667F
330
667E
330
667D
330
667C
330
6674
330
6673
330
6672
330
6671
330
6670
330
6667
330
6665
330
6662
330
6660
330
6630
330
665D
330
665C
330
6633
330
665B
330
6635
330
665A
330
6658
330
6657
330
6652
330
663A
330
664F
330
6645
330
6641
  0
IDBUFFER
  5
4784
330
0
100
AcDbIdBuffer
  0
IDBUFFER
  5
4785
330
0
100
AcDbIdBuffer
330
676E
330
676F
330
6770
  0
IDBUFFER
  5
4786
330
0
100
AcDbIdBuffer
  0
IDBUFFER
  5
4787
330
0
100
AcDbIdBuffer
330
179B
330
179C
330
179D
330
179E
330
179F
330
17A0
330
17A1
330
17A2
330
17A3
330
17A4
330
17A5
330
17A6
330
17A7
330
17A8
330
17A9
330
17AA
330
17AB
330
17AC
330
17AD
330
17AE
330
17AF
330
17B0
330
17B1
330
17B2
330
17B6
330
17BA
330
17BB
330
17BF
330
17C0
330
17C1
330
17C2
330
17C3
330
17C4
330
17C5
330
17C6
330
17CA
330
17CE
330
17D2
330
17D3
330
17D4
330
17D8
330
17D9
330
17DA
330
17DB
330
17DC
330
17DD
330
17DE
330
17DF
330
17E0
330
17E1
330
17E2
330
17E3
330
17E4
330
17E5
330
17E6
330
17E7
330
17E8
330
17E9
330
17EA
330
17EB
330
17EC
330
17ED
330
17EE
330
17EF
330
17F0
330
1824
330
1825
330
1826
330
1827
330
1828
330
1829
330
182A
330
182B
330
182C
330
182D
330
182E
330
182F
  0
IDBUFFER
  5
4788
330
0
100
AcDbIdBuffer
330
670E
330
670D
330
670C
330
670B
330
66D9
  0
IDBUFFER
  5
4789
330
0
100
AcDbIdBuffer
330
6781
330
67A7
330
67CD
330
67F3
330
6819
330
683F
330
6865
330
688B
330
68B1
  0
IDBUFFER
  5
478A
330
0
100
AcDbIdBuffer
  0
IDBUFFER
  5
478B
330
0
100
AcDbIdBuffer
  0
XRECORD
  5
6950
102
{ACAD_REACTORS
330
694F
102
}
330
694F
100
AcDbXrecord
280
     1
102
SHADEPLOT
 70
     0
102
SHADEPLOTRESLEVEL
 70
     2
102
SHADEPLOTCUSTOMDPI
 70
   300
  0
XRECORD
  5
694E
102
{ACAD_REACTORS
330
694D
102
}
330
694D
100
AcDbXrecord
280
     1
102
SHADEPLOT
 70
     0
102
SHADEPLOTRESLEVEL
 70
     2
102
SHADEPLOTCUSTOMDPI
 70
   300
  0
XRECORD
  5
6952
102
{ACAD_REACTORS
330
6951
102
}
330
6951
100
AcDbXrecord
280
     1
102
SHADEPLOT
 70
     0
102
SHADEPLOTRESLEVEL
 70
     2
102
SHADEPLOTCUSTOMDPI
 70
   300
  0
ENDSEC
  0
EOF
