  0
SECTION
  2
HEADER
  9
$ACADVER
  1
AC1015
  9
$ACADMAINTVER
 70
    20
  9
$DWGCODEPAGE
  3
ANSI_950
  9
$INSBASE
 10
0.0
 20
0.0
 30
0.0
  9
$EXTMIN
 10
392.8626118148323
 20
242.5571589878776
 30
0.0
  9
$EXTMAX
 10
479.6567143838178
 20
343.3571589878775
 30
66.05309378306509
  9
$LIMMIN
 10
0.0
 20
0.0
  9
$LIMMAX
 10
420.0
 20
297.0
  9
$ORTHOMODE
 70
     0
  9
$REGENMODE
 70
     1
  9
$FILLMODE
 70
     1
  9
$QTEXTMODE
 70
     0
  9
$MIRRTEXT
 70
     1
  9
$LTSCALE
 40
1.0
  9
$ATTMODE
 70
     1
  9
$TEXTSIZE
 40
3.0
  9
$TRACEWID
 40
1.0
  9
$TEXTSTYLE
  7
STANDARD
  9
$CLAYER
  8
AM_REFDIM
  9
$CELTYPE
  6
ByLayer
  9
$CECOLOR
 62
   256
  9
$CELTSCALE
 40
1.0
  9
$DISPSILH
 70
     0
  9
$DIMSCALE
 40
1.5
  9
$DIMASZ
 40
3.0
  9
$DIMEXO
 40
1.0
  9
$DIMDLI
 40
8.0
  9
$DIMRND
 40
0.0
  9
$DIMDLE
 40
0.0
  9
$DIMEXE
 40
1.0
  9
$DIMTP
 40
0.1
  9
$DIMTM
 40
0.1
  9
$DIMTXT
 40
3.5
  9
$DIMCEN
 40
0.0
  9
$DIMTSZ
 40
0.0
  9
$DIMTOL
 70
     0
  9
$DIMLIM
 70
     0
  9
$DIMTIH
 70
     0
  9
$DIMTOH
 70
     0
  9
$DIMSE1
 70
     0
  9
$DIMSE2
 70
     0
  9
$DIMTAD
 70
     1
  9
$DIMZIN
 70
     8
  9
$DIMBLK
  1

  9
$DIMASO
 70
     1
  9
$DIMSHO
 70
     1
  9
$DIMPOST
  1

  9
$DIMAPOST
  1
"
  9
$DIMALT
 70
     0
  9
$DIMALTD
 70
     2
  9
$DIMALTF
 40
0.0393701
  9
$DIMLFAC
 40
1.0
  9
$DIMTOFL
 70
     1
  9
$DIMTVP
 40
0.0
  9
$DIMTIX
 70
     0
  9
$DIMSOXD
 70
     0
  9
$DIMSAH
 70
     0
  9
$DIMBLK1
  1

  9
$DIMBLK2
  1

  9
$DIMSTYLE
  2
AM_ISO
  9
$DIMCLRD
 70
   256
  9
$DIMCLRE
 70
   256
  9
$DIMCLRT
 70
   256
  9
$DIMTFAC
 40
0.6
  9
$DIMGAP
 40
1.0
  9
$DIMJUST
 70
     0
  9
$DIMSD1
 70
     0
  9
$DIMSD2
 70
     0
  9
$DIMTOLJ
 70
     0
  9
$DIMTZIN
 70
     8
  9
$DIMALTZ
 70
     0
  9
$DIMALTTZ
 70
     0
  9
$DIMUPT
 70
     0
  9
$DIMDEC
 70
     0
  9
$DIMTDEC
 70
     8
  9
$DIMALTU
 70
     2
  9
$DIMALTTD
 70
     2
  9
$DIMTXSTY
  7
STANDARD
  9
$DIMAUNIT
 70
     0
  9
$DIMADEC
 70
     0
  9
$DIMALTRND
 40
0.0
  9
$DIMAZIN
 70
     2
  9
$DIMDSEP
 70
    46
  9
$DIMATFIT
 70
     3
  9
$DIMFRAC
 70
     0
  9
$DIMLDRBLK
  1

  9
$DIMLUNIT
 70
     2
  9
$DIMLWD
 70
    -1
  9
$DIMLWE
 70
    -1
  9
$DIMTMOVE
 70
     0
  9
$LUNITS
 70
     2
  9
$LUPREC
 70
     2
  9
$SKETCHINC
 40
1.0
  9
$FILLETRAD
 40
3.75
  9
$AUNITS
 70
     0
  9
$AUPREC
 70
     0
  9
$MENU
  1
.
  9
$ELEVATION
 40
0.0
  9
$PELEVATION
 40
0.0
  9
$THICKNESS
 40
0.0
  9
$LIMCHECK
 70
     0
  9
$CHAMFERA
 40
3.75
  9
$CHAMFERB
 40
3.75
  9
$CHAMFERC
 40
20.0
  9
$CHAMFERD
 40
0.0
  9
$SKPOLY
 70
     0
  9
$TDCREATE
 40
2454392.703168762
  9
$TDUCREATE
 40
2454392.369835428
  9
$TDUPDATE
 40
2456051.694340278
  9
$TDUUPDATE
 40
2456051.361006945
  9
$TDINDWG
 40
0.1094414815
  9
$TDUSRTIMER
 40
0.1094412963
  9
$USRTIMER
 70
     1
  9
$ANGBASE
 50
0.0
  9
$ANGDIR
 70
     0
  9
$PDMODE
 70
     0
  9
$PDSIZE
 40
0.0
  9
$PLINEWID
 40
0.0
  9
$SPLFRAME
 70
     0
  9
$SPLINETYPE
 70
     6
  9
$SPLINESEGS
 70
     8
  9
$HANDSEED
  5
43E4
  9
$SURFTAB1
 70
     6
  9
$SURFTAB2
 70
     6
  9
$SURFTYPE
 70
     6
  9
$SURFU
 70
     6
  9
$SURFV
 70
     6
  9
$UCSBASE
  2

  9
$UCSNAME
  2

  9
$UCSORG
 10
0.0
 20
0.0
 30
0.0
  9
$UCSXDIR
 10
1.0
 20
0.0
 30
0.0
  9
$UCSYDIR
 10
0.0
 20
1.0
 30
0.0
  9
$UCSORTHOREF
  2

  9
$UCSORTHOVIEW
 70
     0
  9
$UCSORGTOP
 10
0.0
 20
0.0
 30
0.0
  9
$UCSORGBOTTOM
 10
0.0
 20
0.0
 30
0.0
  9
$UCSORGLEFT
 10
0.0
 20
0.0
 30
0.0
  9
$UCSORGRIGHT
 10
0.0
 20
0.0
 30
0.0
  9
$UCSORGFRONT
 10
0.0
 20
0.0
 30
0.0
  9
$UCSORGBACK
 10
0.0
 20
0.0
 30
0.0
  9
$PUCSBASE
  2

  9
$PUCSNAME
  2

  9
$PUCSORG
 10
0.0
 20
0.0
 30
0.0
  9
$PUCSXDIR
 10
1.0
 20
0.0
 30
0.0
  9
$PUCSYDIR
 10
0.0
 20
1.0
 30
0.0
  9
$PUCSORTHOREF
  2

  9
$PUCSORTHOVIEW
 70
     0
  9
$PUCSORGTOP
 10
0.0
 20
0.0
 30
0.0
  9
$PUCSORGBOTTOM
 10
0.0
 20
0.0
 30
0.0
  9
$PUCSORGLEFT
 10
0.0
 20
0.0
 30
0.0
  9
$PUCSORGRIGHT
 10
0.0
 20
0.0
 30
0.0
  9
$PUCSORGFRONT
 10
0.0
 20
0.0
 30
0.0
  9
$PUCSORGBACK
 10
0.0
 20
0.0
 30
0.0
  9
$USERI1
 70
     0
  9
$USERI2
 70
     0
  9
$USERI3
 70
     0
  9
$USERI4
 70
     0
  9
$USERI5
 70
     0
  9
$USERR1
 40
0.0
  9
$USERR2
 40
0.0
  9
$USERR3
 40
0.0
  9
$USERR4
 40
0.0
  9
$USERR5
 40
0.0
  9
$WORLDVIEW
 70
     1
  9
$SHADEDGE
 70
     3
  9
$SHADEDIF
 70
    70
  9
$TILEMODE
 70
     1
  9
$MAXACTVP
 70
    64
  9
$PINSBASE
 10
0.0
 20
0.0
 30
0.0
  9
$PLIMCHECK
 70
     0
  9
$PEXTMIN
 10
1.000000000000000E+20
 20
1.000000000000000E+20
 30
1.000000000000000E+20
  9
$PEXTMAX
 10
-1.000000000000000E+20
 20
-1.000000000000000E+20
 30
-1.000000000000000E+20
  9
$PLIMMIN
 10
0.0
 20
0.0
  9
$PLIMMAX
 10
420.0
 20
297.0
  9
$UNITMODE
 70
     0
  9
$VISRETAIN
 70
     1
  9
$PLINEGEN
 70
     0
  9
$PSLTSCALE
 70
     1
  9
$TREEDEPTH
 70
  3020
  9
$CMLSTYLE
  2
Standard
  9
$CMLJUST
 70
     0
  9
$CMLSCALE
 40
20.0
  9
$PROXYGRAPHICS
 70
     1
  9
$MEASUREMENT
 70
     1
  9
$CELWEIGHT
370
    -1
  9
$ENDCAPS
280
     0
  9
$JOINSTYLE
280
     0
  9
$LWDISPLAY
290
     0
  9
$INSUNITS
 70
     4
  9
$HYPERLINKBASE
  1

  9
$STYLESHEET
  1
acad.ctb
  9
$XEDIT
290
     1
  9
$CEPSNTYPE
380
     0
  9
$PSTYLEMODE
290
     1
  9
$FINGERPRINTGUID
  2
{00E4BF2B-312E-4E1D-8C5C-0EEC0927E19E}
  9
$VERSIONGUID
  2
{35A71C09-375A-4A75-90DD-E45DDFEAF2DF}
  9
$EXTNAMES
290
     1
  9
$PSVPSCALE
 40
0.0
  9
$OLESTARTUP
290
     0
  0
ENDSEC
  0
SECTION
  2
CLASSES
  0
CLASS
  1
ACDBDICTIONARYWDFLT
  2
AcDbDictionaryWithDefault
  3
ObjectDBX Classes
 90
        0
280
     0
281
     0
  0
CLASS
  1
ACDBPLACEHOLDER
  2
AcDbPlaceHolder
  3
ObjectDBX Classes
 90
        0
280
     0
281
     0
  0
CLASS
  1
LAYOUT
  2
AcDbLayout
  3
ObjectDBX Classes
 90
        0
280
     0
281
     0
  0
CLASS
  1
ACME_DOCUMENT
  2
AcMeDbDoc
  3
AcMeServices
 90
        0
280
     0
281
     0
  0
CLASS
  1
AMGSETTINGSOBJ
  2
AmgSettingsObj
  3
"AcadM|Product Description: AutoCAD Mechanical 2000|Company: Autodesk"
 90
        0
280
     0
281
     0
  0
CLASS
  1
ACMESCOPE
  2
AcMeScope
  3
AcMeServices
 90
        0
280
     0
281
     0
  0
CLASS
  1
ACMECOMMANDHISTORY
  2
AcMeCommandHistory
  3
AcMeServices
 90
        0
280
     0
281
     0
  0
CLASS
  1
ACIMSYSVARMAN
  2
AcImSysVarManager
  3
AcMeServices
 90
        0
280
     0
281
     0
  0
CLASS
  1
ACIMREALSYSVAR
  2
AcImRealSysVar
  3
AcMeServices
 90
        0
280
     0
281
     0
  0
CLASS
  1
ACIMINTSYSVAR
  2
AcImIntSysVar
  3
AcMeServices
 90
        0
280
     0
281
     0
  0
CLASS
  1
ACMEDRAWINGMAN
  2
AcMeDrawingMan
  3
AcMeServices
 90
        0
280
     0
281
     0
  0
CLASS
  1
ACMEVIEW
  2
AcMeView
  3
AcMeServices
 90
        0
280
     0
281
     0
  0
CLASS
  1
ACDBENTITYCACHE
  2
AcMeEntityCache
  3
AcMeServices
 90
        0
280
     0
281
     0
  0
CLASS
  1
GSMANAGER
  2
AcMeGSManager
  3
AcMeServices
 90
        0
280
     0
281
     0
  0
CLASS
  1
AMDTINTERNALREACTOR
  2
AmdtInternalReactor
  3
AcMeServices
 90
        0
280
     0
281
     0
  0
CLASS
  1
ACMESTATEMGR
  2
AcMeStateMgr
  3
AcMeServices
 90
        0
280
     0
281
     0
  0
CLASS
  1
ACGREFMASTER
  2
AcGrefMaster
  3
AcAttribServices
 90
        0
280
     0
281
     0
  0
CLASS
  1
ACME_DATABASE
  2
AcMeDbDatabase
  3
AcMeServices
 90
        0
280
     0
281
     0
  0
CLASS
  1
ACRFINSADJUSTERMGR
  2
AcRfInsAdjusterMgr
  3
AcMeServices
 90
        0
280
     0
281
     0
  0
CLASS
  1
ACGREFACADMASTER
  2
AcGrefacadMaster
  3
AcGrefServices
 90
        0
280
     0
281
     0
  0
CLASS
  1
AMIMASTER
  2
AmiMaster
  3
AmiServices
 90
        0
280
     0
281
     0
  0
CLASS
  1
ACMDATADICTIONARY
  2
AcmDataDictionary
  3
"AcmSymBB|Product Description: AutoCAD Mechanical 2004 DX|Company: Autodesk"
 90
        0
280
     0
281
     0
  0
CLASS
  1
ACMDATAENTRYBLOCK
  2
AcmDataEntryBlock
  3
"AcmSymBB|Product Description: AutoCAD Mechanical 2004 DX|Company: Autodesk"
 90
        0
280
     0
281
     0
  0
CLASS
  1
ACIMSTRSYSVAR
  2
AcImStrSysVar
  3
AcMeServices
 90
        0
280
     0
281
     0
  0
CLASS
  1
ACMSTANDARDISO
  2
AcmStandardISO
  3
"Amdt_StdImp|Product Description: AutoCAD Mechanical 2004 DX|Company: Autodesk"
 90
        0
280
     0
281
     0
  0
CLASS
  1
AMGOBJPROPCFG
  2
AmgObjPropCfg
  3
"AmgLay|Product Description: AutoCAD Mechanical 2000|Company: Autodesk"
 90
        1
280
     0
281
     0
  0
CLASS
  1
AMDTEDGESTANDARDISO
  2
AmdtEdgeStdISO
  3
"Amdt_StdImp|Product Description: AutoCAD Mechanical 2004 DX|Company: Autodesk"
 90
    32768
280
     0
281
     0
  0
CLASS
  1
ACMSURFSTANDARDISO
  2
AcmSurfTextStdISO
  3
"Amdt_StdImp|Product Description: AutoCAD Mechanical 2004 DX|Company: Autodesk"
 90
        0
280
     0
281
     0
  0
CLASS
  1
ACMFCFSTANDARDISO
  2
AcmFCFStdISO
  3
"Amdt_StdImp|Product Description: AutoCAD Mechanical 2004 DX|Company: Autodesk"
 90
        0
280
     0
281
     0
  0
CLASS
  1
ACMWELDSTANDARDISO
  2
AcmWeldingStdISO
  3
"Amdt_StdImp|Product Description: AutoCAD Mechanical 2004 DX|Company: Autodesk"
 90
        0
280
     0
281
     0
  0
CLASS
  1
ACMIDSTANDARDISO
  2
AcmIdStdISO
  3
"Amdt_StdImp|Product Description: AutoCAD Mechanical 2004 DX|Company: Autodesk"
 90
        0
280
     0
281
     0
  0
CLASS
  1
ACMDATUMSTANDARDISO
  2
AcmDatumStdISO
  3
"Amdt_StdImp|Product Description: AutoCAD Mechanical 2004 DX|Company: Autodesk"
 90
        0
280
     0
281
     0
  0
CLASS
  1
ACMBOMSTANDARDISO
  2
AcmBOMStdISO
  3
"Amdt_StdImp|Product Description: AutoCAD Mechanical 2004 DX|Company: Autodesk"
 90
        0
280
     0
281
     0
  0
CLASS
  1
ACMDETAILSTANDARDISO
  2
AmdtDetailSymStdISO
  3
"Amdt_StdImp|Product Description: AutoCAD Mechanical 2004 DX|Company: Autodesk"
 90
        0
280
     0
281
     0
  0
CLASS
  1
ACMSECTIONSTANDARDISO
  2
AmdtSectionSymStdISO
  3
"Amdt_StdImp|Product Description: AutoCAD Mechanical 2004 DX|Company: Autodesk"
 90
        0
280
     0
281
     0
  0
CLASS
  1
ACMCENTERLINESTANDARDISO
  2
AmdtCenterLineStdISO
  3
"Amdt_StdImp|Product Description: AutoCAD Mechanical 2004 DX|Company: Autodesk"
 90
        0
280
     0
281
     0
  0
CLASS
  1
ACMNOTESTANDARDISO
  2
AmdtNoteStdISO
  3
"Amdt_StdImp|Product Description: AutoCAD Mechanical 2004 DX|Company: Autodesk"
 90
        0
280
     0
281
     0
  0
CLASS
  1
ACAMGLAYSTD
  2
AcAmgLayStd
  3
"AcAmgLayStd|Product Description: AutoCAD Mechanical 2000|Company: Autodesk"
 90
        0
280
     0
281
     0
  0
CLASS
  1
ACAMGDIMSTD
  2
AcAmgDimStd
  3
"AcAmgDimStd|Product Description: AutoCAD Mechanical 2000|Company: Autodesk"
 90
        0
280
     0
281
     0
  0
CLASS
  1
ACAMGHOLECHARTSTDISO
  2
AcAmgHoleChartStdISO
  3
ACMSYMBB_MODULE_NAME
 90
        0
280
     0
281
     0
  0
CLASS
  1
ACAMGTITLESTD
  2
AcAmgTitleStd
  3
"TITLEAPP"
 90
        0
280
     0
281
     0
  0
CLASS
  1
LAYER_INDEX
  2
AcDbLayerIndex
  3
ObjectDBX Classes
 90
        0
280
     0
281
     0
  0
CLASS
  1
IDBUFFER
  2
AcDbIdBuffer
  3
ObjectDBX Classes
 90
        0
280
     0
281
     0
  0
CLASS
  1
DICTIONARYVAR
  2
AcDbDictionaryVar
  3
ObjectDBX Classes
 90
        0
280
     0
281
     0
  0
CLASS
  1
AM_DRAWING_MGR
  2
AcDmDwgMgr
  3
AcMechDwgViewMgmt
 90
        0
280
     0
281
     0
  0
CLASS
  1
AM_DWG_DOCUMENT
  2
AcDmDwgDocument
  3
AcMechDwgViewMgmt
 90
        0
280
     0
281
     0
  0
CLASS
  1
AM_DWG_SHEET
  2
AcDmSheet
  3
AcMechDwgViewMgmt
 90
        0
280
     0
281
     0
  0
CLASS
  1
AM_VIEWDIMPARMAP
  2
AcDmViewDimParMap
  3
AcMechDwgViewMgmt
 90
        0
280
     0
281
     0
  0
CLASS
  1
AM_DWGMGR_NAME
  2
AcDmDwgMgrName
  3
AcMechDwgViewMgmt
 90
        0
280
     0
281
     0
  0
CLASS
  1
AMDTMENUSTATEMGR
  2
AmdtMenuStateMgr
  3
McadcomServices
 90
        0
280
     0
281
     0
  0
CLASS
  1
AMDTMCOMMENUSTATE
  2
AmdtMcomMenuState
  3
McadcomServices
 90
        0
280
     0
281
     0
  0
CLASS
  1
MAPIAMMOUDLE
  2
MApiAmModule
  3
MApiAmServices
 90
        0
280
     0
281
     0
  0
CLASS
  1
AMDTADMENUSTATE
  2
AmdtAdMenuState
  3
DesignerServices
 90
        0
280
     0
281
     0
  0
CLASS
  1
ADAPPL
  2
AcAdAppl
  3
DesignerServices
 90
        0
280
     0
281
     0
  0
CLASS
  1
DEPMGR
  2
AcAdDepMgr
  3
DesignerServices
 90
        0
280
     0
281
     0
  0
CLASS
  1
PARAMMGR
  2
AcAdParamMgr
  3
DesignerServices
 90
        0
280
     0
281
     0
  0
CLASS
  1
PARAMSCOPE
  2
AcAdParamScope
  3
DesignerServices
 90
        0
280
     0
281
     0
  0
CLASS
  1
NAMEDAPPL
  2
AcAdNamedAppl
  3
DesignerServices
 90
        0
280
     0
281
     0
  0
CLASS
  1
AMDTDMMENUSTATE
  2
AmdtDmMenuState
  3
AcMechDwgViewMgmt
 90
        0
280
     0
281
     0
  0
CLASS
  1
AMDTAMMENUSTATE
  2
AmdtAmMenuState
  3
DesignerAssemblies
 90
        0
280
     0
281
     0
  0
CLASS
  1
ACAMPROJECT
  2
AcAmProject
  3
DesignerAssemblies
 90
        0
280
     0
281
     0
  0
CLASS
  1
ACAMGRCOMPDEF
  2
AcAmGrCompDef
  3
DesignerAssemblies
 90
        0
280
     0
281
     0
  0
CLASS
  1
ACCMCONTEXT
  2
AcCmContext
  3
DesignerAssemblies
 90
        0
280
     0
281
     0
  0
CLASS
  1
ACAMCOMPDEF
  2
AcAmCompDef
  3
DesignerAssemblies
 90
        0
280
     0
281
     0
  0
CLASS
  1
ACAMCOMPDEFMGR
  2
AcAmCompDefMgr
  3
DesignerAssemblies
 90
        0
280
     0
281
     0
  0
CLASS
  1
AMCONTEXTMGR
  2
AcAmContextMgr
  3
DesignerAssemblies
 90
        0
280
     0
281
     0
  0
CLASS
  1
ACAMCONTEXTMODELER
  2
AcAmContextModeler
  3
DesignerAssemblies
 90
        0
280
     0
281
     0
  0
CLASS
  1
ACMTHREADLINESTANDARDISO
  2
AmdtThreadLineStdISO
  3
"Amdt_StdImp|Product Description: AutoCAD Mechanical 2004 DX|Company: Autodesk"
 90
        0
280
     0
281
     0
  0
CLASS
  1
CATALOGSTATE
  2
AcAmCatalogState
  3
DesignerAssemblies
 90
        0
280
     0
281
     0
  0
CLASS
  1
ACAMGRCOMPDEFSET
  2
AcAmGrCompDefSet
  3
DesignerAssemblies
 90
        0
280
     0
281
     0
  0
CLASS
  1
AMDTBROWSERDBTAB
  2
AmdtBrowserDbTab
  3
McadcomServices
 90
        0
280
     0
281
     0
  0
CLASS
  1
CBROWSERAPPOBJECT
  2
CBrowserAppObject
  3
McadcomServices
 90
        0
280
     0
281
     0
  0
CLASS
  1
DM_PLACEHOLDER
  2
AcDmSelsetPlaceholder
  3
AcMechDwgViewMgmt
 90
        0
280
     0
281
     0
  0
CLASS
  1
TABLESTYLE
  2
AcDbTableStyle
  3
ObjectDBX Classes
 90
     2047
280
     0
281
     0
  0
CLASS
  1
VAACXREFPANELOBJECT
  2
VaAcXREFPanelObject
  3
VAAC_ADDIN
 90
    32768
280
     0
281
     0
  0
CLASS
  1
VAACIMAGEINVENTORY
  2
VaAcImageInventory
  3
VAAC_ADDIN
 90
    32768
280
     0
281
     0
  0
CLASS
  1
AMDTNOTETEMPLATEDB
  2
AmdtNoteTemplateDB
  3
AMDT_STDIMP_MODULE_NAME
 90
        0
280
     0
281
     0
  0
CLASS
  1
ACMBOM
  2
AcmBom
  3
"AcmSymBB|Product Description: AutoCAD Mechanical 2004 DX|Company: Autodesk"
 90
    32768
280
     0
281
     0
  0
CLASS
  1
AMDTFORMULAUPDATEDISPATCHER
  2
AmdtFormulaUpdateDispatcher
  3
AcMeServices
 90
    32768
280
     0
281
     0
  0
CLASS
  1
ACMPARTLIST
  2
AcmPartList
  3
"AcmSymBB|Product Description: AutoCAD Mechanical 2004 DX|Company: Autodesk"
 90
    33791
280
     0
281
     1
  0
CLASS
  1
ACAMGFILTERDAT
  2
AcAmgFilterDat
  3
"AcadM|Product Description: AutoCAD Mechanical 2000|Company: Autodesk"
 90
    32768
280
     0
281
     0
  0
CLASS
  1
DIMASSOC
  2
AcDbDimAssoc
  3
"AcDbDimAssoc|Product Desc:     AcDim ARX App For Dimension|Company:          Autodesk, Inc.|WEB Address:      www.autodesk.com"
 90
        0
280
     0
281
     0
  0
CLASS
  1
AMDTNOTE
  2
AmdtNote
  3
"AcmSymBB|Product Description: AutoCAD Mechanical 2004 DX|Company: Autodesk"
 90
    33791
280
     0
281
     1
  0
CLASS
  1
AMDTEDGESTANDARDISO13715
  2
AmdtEdgeStdISO13715
  3
"Amdt_StdImp|Product Description: AutoCAD Mechanical 2004 DX|Company: Autodesk"
 90
        0
280
     0
281
     0
  0
CLASS
  1
ACRFATTGENMGR
  2
AcRfAttGeneralMgr
  3
AcAttribServices
 90
    32768
280
     0
281
     0
  0
CLASS
  1
ASAPP
  2
AcAsAppObject
  3
AutoSurfServices
 90
        0
280
     0
281
     0
  0
CLASS
  1
IM_STATIC_MAN
  2
AcImStaticVarManager
  3
AcMeServices
 90
        0
280
     0
281
     0
  0
CLASS
  1
ACIMDBLSTATICVAR
  2
AcImDblStaticVar
  3
AcMeServices
 90
        0
280
     0
281
     0
  0
CLASS
  1
ACIMSTRSTATICVAR
  2
AcImStrStaticVar
  3
AcMeServices
 90
        0
280
     0
281
     0
  0
CLASS
  1
ACIMINTSTATICVAR
  2
AcImIntStaticVar
  3
AcMeServices
 90
        0
280
     0
281
     0
  0
CLASS
  1
ACASGREFMASTER
  2
AcAsGrefMaster
  3
AutoSurfResolverServices
 90
        0
280
     0
281
     0
  0
CLASS
  1
ACADGREFMODULE
  2
AcAdGrefModule
  3
AdGrefServices
 90
        0
280
     0
281
     0
  0
CLASS
  1
AMDTMAPISURFMOUDULE
  2
AmdtMApiSurfModule
  3
MApiSurfServices
 90
        0
280
     0
281
     0
  0
CLASS
  1
MAPIADMODULE
  2
MApiAdModule
  3
MApiAdServices
 90
        0
280
     0
281
     0
  0
ENDSEC
  0
SECTION
  2
TABLES
  0
TABLE
  2
VPORT
  5
8
330
0
100
AcDbSymbolTable
 70
    58
  0
VPORT
  5
43DB
330
8
100
AcDbSymbolTableRecord
100
AcDbViewportTableRecord
  2
*Active
 70
     0
 10
0.0
 20
0.0
 11
1.0
 21
1.0
 12
-33.11865697835168
 22
9.992771047096198
 13
0.0
 23
0.0
 14
3.75
 24
3.75
 15
15.0
 25
15.0
 16
0.0
 26
0.0
 36
1.0
 17
475.2465220475392
 27
286.8869866440797
 37
0.0
 40
150.8407701581748
 41
1.295739348370927
 42
50.0
 43
0.0
 44
0.0
 50
0.0
 51
0.0
 71
     0
 72
  1000
 73
     1
 74
     3
 75
     0
 76
     0
 77
     0
 78
     0
281
     0
 65
     0
110
0.0
120
0.0
130
0.0
111
1.0
121
0.0
131
0.0
112
0.0
122
1.0
132
0.0
 79
     0
146
0.0
  0
ENDTAB
  0
TABLE
  2
LTYPE
  5
5
330
0
100
AcDbSymbolTable
 70
    17
  0
LTYPE
  5
14
330
5
100
AcDbSymbolTableRecord
100
AcDbLinetypeTableRecord
  2
ByBlock
 70
     0
  3

 72
    65
 73
     0
 40
0.0
  0
LTYPE
  5
15
330
5
100
AcDbSymbolTableRecord
100
AcDbLinetypeTableRecord
  2
ByLayer
 70
     0
  3

 72
    65
 73
     0
 40
0.0
  0
LTYPE
  5
16
330
5
100
AcDbSymbolTableRecord
100
AcDbLinetypeTableRecord
  2
Continuous
 70
     0
  3
Solid line
 72
    65
 73
     0
 40
0.0
  0
LTYPE
  5
64
330
5
100
AcDbSymbolTableRecord
100
AcDbLinetypeTableRecord
  2
AM_ISO02W050
 70
     0
  3
__ __ __ __ __ __ __ __ __ __ __ __ __ __ __
 72
    65
 73
     2
 40
7.5
 49
6.0
 74
     0
 49
-1.5
 74
     0
  0
LTYPE
  5
65
330
5
100
AcDbSymbolTableRecord
100
AcDbLinetypeTableRecord
  2
AM_ISO08W050
 70
     0
  3
____ . ____ . ____ . ____ . ____ . ____ . ____
 72
    65
 73
     4
 40
18.0
 49
12.0
 74
     0
 49
-1.5
 74
     0
 49
3.0
 74
     0
 49
-1.5
 74
     0
  0
LTYPE
  5
66
330
5
100
AcDbSymbolTableRecord
100
AcDbLinetypeTableRecord
  2
AM_ISO09W050
 70
     0
  3
_____ . . _____ . . _____ . . ____ .. ____
 72
    65
 73
     6
 40
22.5
 49
12.0
 74
     0
 49
-1.5
 74
     0
 49
3.0
 74
     0
 49
-1.5
 74
     0
 49
3.0
 74
     0
 49
-1.5
 74
     0
  0
LTYPE
  5
67
330
5
100
AcDbSymbolTableRecord
100
AcDbLinetypeTableRecord
  2
Amconstr
 70
     0
  3
_______________________
 72
    65
 73
     2
 40
9999.0
 49
9999.0
 74
     0
 49
0.0
 74
     0
  0
LTYPE
  5
68
330
5
100
AcDbSymbolTableRecord
100
AcDbLinetypeTableRecord
  2
AM_ISO08W050x2
 70
     0
  3
__ . __ . __ . __ . __ . __
 72
    65
 73
     4
 40
9.0
 49
6.0
 74
     0
 49
-0.75
 74
     0
 49
1.5
 74
     0
 49
-0.75
 74
     0
  0
LTYPE
  5
69
330
5
100
AcDbSymbolTableRecord
100
AcDbLinetypeTableRecord
  2
AM_ISO02W050x2
 70
     0
  3
 _ _ _ _ _ _ _ _ _ _ _ _
 72
    65
 73
     2
 40
3.75
 49
3.0
 74
     0
 49
-0.75
 74
     0
  0
LTYPE
  5
6C
330
5
100
AcDbSymbolTableRecord
100
AcDbLinetypeTableRecord
  2
Amzigzag
 70
     0
  3
/\/-/\/-/\/-/\/-/\/-/\/
 72
    65
 73
     2
 40
11.0001
 49
0.0001
 74
     4
 75
   135
340
6B
 46
0.04
 50
0.0
 44
0.0
 45
0.0
 49
-11.0
 74
     0
  0
LTYPE
  5
7A
330
5
100
AcDbSymbolTableRecord
100
AcDbLinetypeTableRecord
  2
ACISOWELD
 70
     0
  3
_ _ _ _ _
 72
    65
 73
     2
 40
2.0
 49
2.0
 74
     0
 49
-1.0
 74
     0
  0
LTYPE
  5
7B
330
5
100
AcDbSymbolTableRecord
100
AcDbLinetypeTableRecord
  2
ACISOTGB
 70
     0
  3
__ . . __ . .
 72
    65
 73
     6
 40
9.0
 49
4.0
 74
     0
 49
-1.0
 74
     0
 49
1.0
 74
     0
 49
-1.0
 74
     0
 49
1.0
 74
     0
 49
-1.0
 74
     0
  0
LTYPE
  5
7C
330
5
100
AcDbSymbolTableRecord
100
AcDbLinetypeTableRecord
  2
ACISOTGL
 70
     0
  3
_ _ _ _ _
 72
    65
 73
     2
 40
3.0
 49
2.0
 74
     0
 49
-1.0
 74
     0
  0
LTYPE
  5
7E
330
5
100
AcDbSymbolTableRecord
100
AcDbLinetypeTableRecord
  2
CENTER
 70
     0
  3
__ . __
 72
    65
 73
     4
 40
7.0
 49
4.0
 74
     0
 49
-1.0
 74
     0
 49
1.0
 74
     0
 49
-1.0
 74
     0
  0
LTYPE
  5
D8
330
5
100
AcDbSymbolTableRecord
100
AcDbLinetypeTableRecord
  2
HIDDEN
 70
     0
  3
Hidden __ __ __ __ __ __ __ __ __ __ __ __ __ _
 72
    65
 73
     2
 40
9.524999999999998
 49
6.349999999999999
 74
     0
 49
-3.174999999999999
 74
     0
  0
LTYPE
  5
D9
330
5
100
AcDbSymbolTableRecord
100
AcDbLinetypeTableRecord
  2
PHANTOM2
 70
     0
  3
Phantom (.5x) ___ _ _ ___ _ _ ___ _ _ ___ _ _
 72
    65
 73
     6
 40
31.75
 49
15.875
 74
     0
 49
-3.174999999999999
 74
     0
 49
3.174999999999999
 74
     0
 49
-3.174999999999999
 74
     0
 49
3.174999999999999
 74
     0
 49
-3.174999999999999
 74
     0
  0
LTYPE
  5
3AFB
330
5
100
AcDbSymbolTableRecord
100
AcDbLinetypeTableRecord
  2
HIDDEN2
 70
     0
  3
Hidden (.5x) _ _ _ _ _ _ _ _ _ _ _ _ _ _ _ _ _
 72
    65
 73
     2
 40
0.1875
 49
0.125
 74
     0
 49
-0.0625
 74
     0
  0
LTYPE
  5
3D45
330
5
100
AcDbSymbolTableRecord
100
AcDbLinetypeTableRecord
  2
ASULTYPE
 70
     0
  3
實線
 72
    65
 73
     2
 40
3.0
 49
2.5
 74
     0
 49
0.5
 74
     0
  0
LTYPE
  5
3D46
330
5
100
AcDbSymbolTableRecord
100
AcDbLinetypeTableRecord
  2
ASVLTYPE
 70
     0
  3
__ __ __ __ __ __ __ __ __ __ __ __ __ __ __ __ __ __ __ __ __
 72
    65
 73
     2
 40
0.75
 49
0.5
 74
     0
 49
-0.25
 74
     0
  0
ENDTAB
  0
TABLE
  2
LAYER
  5
2
102
{ACAD_XDICTIONARY
360
3F9
102
}
330
0
100
AcDbSymbolTable
 70
     9
  0
LAYER
  5
10
330
2
100
AcDbSymbolTableRecord
100
AcDbLayerTableRecord
  2
0
 70
     0
 62
     7
  6
Continuous
370
    -3
390
F
  0
LAYER
  5
ACB
330
2
100
AcDbSymbolTableRecord
100
AcDbLayerTableRecord
  2
AM_VIS
 70
     0
 62
     7
  6
Continuous
370
    50
390
F
  0
LAYER
  5
ACC
330
2
100
AcDbSymbolTableRecord
100
AcDbLayerTableRecord
  2
AM_7
 70
     0
 62
     1
  6
AM_ISO08W050x2
370
    25
390
F
  0
LAYER
  5
13A4
330
2
100
AcDbSymbolTableRecord
100
AcDbLayerTableRecord
  2
Defpoints
 70
     0
 62
     7
  6
Continuous
290
     0
370
    -3
390
F
  0
LAYER
  5
16FA
330
2
100
AcDbSymbolTableRecord
100
AcDbLayerTableRecord
  2
LOGO
 70
     0
 62
     7
  6
Continuous
370
    -3
390
F
  0
LAYER
  5
3455
330
2
100
AcDbSymbolTableRecord
100
AcDbLayerTableRecord
  2
AM_4
 70
     0
 62
     3
  6
ASVLTYPE
370
    25
390
F
  0
LAYER
  5
3456
330
2
100
AcDbSymbolTableRecord
100
AcDbLayerTableRecord
  2
AM_REFDIM
 70
     0
 62
     5
  6
Continuous
370
    25
390
F
  0
LAYER
  5
3AFC
330
2
100
AcDbSymbolTableRecord
100
AcDbLayerTableRecord
  2
AM_HID
 70
     0
 62
     7
  6
AM_ISO02W050
370
    25
390
F
  0
LAYER
  5
3EFF
330
2
100
AcDbSymbolTableRecord
100
AcDbLayerTableRecord
  2
AM_5
 70
     0
 62
     3
  6
Continuous
370
    25
390
F
  0
ENDTAB
  0
TABLE
  2
STYLE
  5
3
330
0
100
AcDbSymbolTable
 70
     6
  0
STYLE
  5
11
330
3
100
AcDbSymbolTableRecord
100
AcDbTextStyleTableRecord
  2
STANDARD
 70
     0
 40
0.0
 41
1.0
 50
0.0
 71
     0
 42
3.0
  3
ISOCP.SHX
  4
CHINESET.SHX
  0
STYLE
  5
6B
330
3
100
AcDbSymbolTableRecord
100
AcDbTextStyleTableRecord
  2

 70
     1
 40
0.0
 41
1.0
 50
0.0
 71
     0
 42
2.5
  3
ltypeshp.shx
  4

  0
STYLE
  5
6D
330
3
100
AcDbSymbolTableRecord
100
AcDbTextStyleTableRecord
  2
ACISOTS
 70
     0
 40
1.0
 41
1.0
 50
0.0
 71
     0
 42
1.0
  3
isocp.shx
  4
chineset.shx
  0
STYLE
  5
79
330
3
100
AcDbSymbolTableRecord
100
AcDbTextStyleTableRecord
  2
ACISOGDT
 70
     0
 40
0.0
 41
1.0
 50
0.0
 71
     0
 42
2.5
  3
amgdt.shx
  4
chineset.shx
  0
STYLE
  5
16FB
330
3
100
AcDbSymbolTableRecord
100
AcDbTextStyleTableRecord
  2
CHINESET
 70
     0
 40
0.0
 41
1.0
 50
0.0
 71
     0
 42
3.0
  3
simplex.shx
  4
CHINESET.SHX
  0
STYLE
  5
3457
330
3
100
AcDbSymbolTableRecord
100
AcDbTextStyleTableRecord
  2
DAYUS
 70
     0
 40
0.0
 41
1.0
 50
0.0
 71
     0
 42
2.5
  3
simplex
  4
dayus
  0
ENDTAB
  0
TABLE
  2
VIEW
  5
6
330
0
100
AcDbSymbolTable
 70
     0
  0
ENDTAB
  0
TABLE
  2
UCS
  5
7
330
0
100
AcDbSymbolTable
 70
     0
  0
ENDTAB
  0
TABLE
  2
APPID
  5
9
330
0
100
AcDbSymbolTable
 70
    23
  0
APPID
  5
12
330
9
100
AcDbSymbolTableRecord
100
AcDbRegAppTableRecord
  2
ACAD
 70
     0
  0
APPID
  5
46
330
9
100
AcDbSymbolTableRecord
100
AcDbRegAppTableRecord
  2
MCAD_NO_VIS
 70
     0
  0
APPID
  5
47
330
9
100
AcDbSymbolTableRecord
100
AcDbRegAppTableRecord
  2
ACAD_TEMP_GRAPHIC
 70
     0
  0
APPID
  5
58
330
9
100
AcDbSymbolTableRecord
100
AcDbRegAppTableRecord
  2
ACATTRIBSERVICES
 70
     0
  0
APPID
  5
EE
330
9
100
AcDbSymbolTableRecord
100
AcDbRegAppTableRecord
  2
AD_DRAW
 70
     0
  0
APPID
  5
10C
330
9
100
AcDbSymbolTableRecord
100
AcDbRegAppTableRecord
  2
DESIGNERASSEMBLIES
 70
     0
  0
APPID
  5
111
330
9
100
AcDbSymbolTableRecord
100
AcDbRegAppTableRecord
  2
ACADM_DIM_EDIT
 70
     0
  0
APPID
  5
112
330
9
100
AcDbSymbolTableRecord
100
AcDbRegAppTableRecord
  2
AMDT_DM_ADJ
 70
     0
  0
APPID
  5
22C
330
9
100
AcDbSymbolTableRecord
100
AcDbRegAppTableRecord
  2
ACAD_DSTYLE_DIMTEXT_FILL
 70
     0
  0
APPID
  5
452
330
9
100
AcDbSymbolTableRecord
100
AcDbRegAppTableRecord
  2
GENIUS_GENOENT_13
 70
     0
  0
APPID
  5
453
330
9
100
AcDbSymbolTableRecord
100
AcDbRegAppTableRecord
  2
GENIUS_GENOBJ-N-CRS_13
 70
     0
  0
APPID
  5
454
330
9
100
AcDbSymbolTableRecord
100
AcDbRegAppTableRecord
  2
GENIUS_GENOLIS_13
 70
     0
  0
APPID
  5
455
330
9
100
AcDbSymbolTableRecord
100
AcDbRegAppTableRecord
  2
GENIUS_GENODEF_13
 70
     0
  0
APPID
  5
456
330
9
100
AcDbSymbolTableRecord
100
AcDbRegAppTableRecord
  2
GENIUS_GENOREF_13
 70
     0
  0
APPID
  5
6F3
330
9
100
AcDbSymbolTableRecord
100
AcDbRegAppTableRecord
  2
ACAD_PSEXT
 70
     0
  0
APPID
  5
808
330
9
100
AcDbSymbolTableRecord
100
AcDbRegAppTableRecord
  2
GENIUS_GENDTOL_13
 70
     0
  0
APPID
  5
16FC
330
9
100
AcDbSymbolTableRecord
100
AcDbRegAppTableRecord
  2
GENIUS_GENREC_14
 70
     0
  0
APPID
  5
16FD
330
9
100
AcDbSymbolTableRecord
100
AcDbRegAppTableRecord
  2
GENIUS_GENOBJ-N-REC_13
 70
     0
  0
APPID
  5
268C
330
9
100
AcDbSymbolTableRecord
100
AcDbRegAppTableRecord
  2
GENIUS_GENDIMSH_14
 70
     0
  0
APPID
  5
3991
330
9
100
AcDbSymbolTableRecord
100
AcDbRegAppTableRecord
  2
GENIUS_GENDIM_13
 70
     0
  0
APPID
  5
3992
330
9
100
AcDbSymbolTableRecord
100
AcDbRegAppTableRecord
  2
GENIUS_GE3DTOL_13
 70
     0
  0
APPID
  5
3A12
330
9
100
AcDbSymbolTableRecord
100
AcDbRegAppTableRecord
  2
ASURF_PCURVE_APPNAME
 70
     0
  0
APPID
  5
3A17
330
9
100
AcDbSymbolTableRecord
100
AcDbRegAppTableRecord
  2
AMG_3D2D_5.0
 70
     0
  0
ENDTAB
  0
TABLE
  2
DIMSTYLE
  5
A
330
0
100
AcDbSymbolTable
 70
    10
100
AcDbDimStyleTable
 71
     3
340
81
340
8B
340
86
  0
DIMSTYLE
105
81
330
A
100
AcDbSymbolTableRecord
100
AcDbDimStyleTableRecord
  2
AM_ISO
 70
     0
  4
"
 40
1.5
 41
3.0
 42
1.0
 43
8.0
 44
1.0
 47
0.1
 48
0.1
 73
     0
 74
     0
 77
     1
 78
     8
 79
     2
140
3.5
141
0.0
143
0.0393701
146
0.6
147
1.0
172
     1
176
   256
177
   256
178
   256
271
     2
272
     2
283
     0
284
     8
340
11
371
    -1
372
    -1
  0
DIMSTYLE
105
82
330
A
100
AcDbSymbolTableRecord
100
AcDbDimStyleTableRecord
  2
AM_ISO$3
 70
     0
  4
"
 40
1.5
 41
3.0
 42
1.0
 43
8.0
 44
1.0
 47
0.1
 48
0.1
 73
     0
 77
     1
 78
     8
 79
     2
140
3.5
141
0.0
143
0.0393701
146
0.6
147
1.0
176
   256
177
   256
178
   256
271
     2
272
     2
283
     0
284
     8
288
     1
289
     0
340
11
371
    -1
372
    -1
  0
DIMSTYLE
105
83
330
A
100
AcDbSymbolTableRecord
100
AcDbDimStyleTableRecord
  2
AM_ISO$4
 70
     0
  4
"
 40
1.5
 41
3.0
 42
1.0
 43
8.0
 44
1.0
 47
0.1
 48
0.1
 73
     0
 77
     1
 78
     8
 79
     2
140
3.5
141
0.0
143
0.0393701
146
0.6
147
1.0
176
   256
177
   256
178
   256
271
     2
272
     2
283
     0
284
     8
288
     1
289
     0
340
11
371
    -1
372
    -1
  0
DIMSTYLE
105
84
330
A
100
AcDbSymbolTableRecord
100
AcDbDimStyleTableRecord
  2
AM_ISO$6
 70
     0
  4
"
 40
1.5
 41
3.0
 42
1.0
 43
8.0
 44
1.0
 47
0.1
 48
0.1
 73
     0
 74
     0
 78
     8
 79
     2
140
3.5
141
0.0
143
0.0393701
146
0.6
147
1.0
172
     1
176
   256
177
   256
178
   256
271
     2
272
     2
283
     0
284
     8
340
11
371
    -1
372
    -1
  0
DIMSTYLE
105
85
330
A
100
AcDbSymbolTableRecord
100
AcDbDimStyleTableRecord
  2
AM_ISO$7
 70
     0
  4
"
 40
1.5
 41
3.0
 42
1.0
 43
8.0
 44
1.0
 47
0.1
 48
0.1
 73
     0
 74
     0
 77
     1
 78
     8
 79
     2
140
3.5
141
0.0
143
0.0393701
146
0.6
147
1.0
172
     1
176
   256
177
   256
178
   256
271
     2
272
     2
283
     0
284
     8
340
11
371
    -1
372
    -1
  0
DIMSTYLE
105
86
330
A
100
AcDbSymbolTableRecord
100
AcDbDimStyleTableRecord
  2
AM_ISO$SF
 70
     0
  4
"
 40
1.5
 41
2.5
 42
1.0
 43
10.0
 44
1.0
 47
0.1
 48
0.1
 73
     0
 74
     0
 75
     1
 76
     1
 77
     1
 78
     8
 79
     2
140
3.5
141
0.0
143
0.0393701
146
0.71
147
1.5
172
     1
176
   256
177
   256
178
     2
271
     2
272
     3
274
     4
283
     0
284
     8
340
11
371
    -1
372
    -1
  0
DIMSTYLE
105
8B
330
A
100
AcDbSymbolTableRecord
100
AcDbDimStyleTableRecord
  2
AM_ISO$SH
 70
     0
  4
"
 40
1.5
 41
2.5
 42
1.0
 43
10.0
 44
1.0
 47
0.1
 48
0.1
 73
     0
 74
     0
 75
     1
 76
     1
 77
     1
 78
     8
 79
     2
140
3.5
141
0.0
143
0.0393701
144
2.0
146
0.71
147
1.5
172
     1
173
     1
176
   256
177
   256
178
     2
271
     2
272
     3
274
     4
283
     0
284
     8
340
11
343
87
371
    -1
372
    -1
  0
DIMSTYLE
105
40B
102
{ACAD_REACTORS
330
3F13
330
3F39
330
3F5F
330
3FA4
330
3FCE
330
401E
330
4048
330
3FF4
330
41DA
330
42C5
330
4332
102
}
330
A
100
AcDbSymbolTableRecord
100
AcDbDimStyleTableRecord
  2
AM_ISO$0
 70
     0
  4
"
 40
1.5
 41
3.0
 42
1.0
 43
8.0
 44
1.0
 47
0.1
 48
0.1
 73
     0
 74
     0
 77
     1
 78
     8
 79
     2
140
3.5
141
0.0
143
0.0393701
146
0.6
147
1.0
172
     1
176
   256
177
   256
178
   256
271
     2
272
     2
283
     0
284
     8
340
11
371
    -1
372
    -1
  0
DIMSTYLE
105
3AFD
330
A
100
AcDbSymbolTableRecord
100
AcDbDimStyleTableRecord
  2
AM_ANSI$0
 70
     0
  4
"
 40
0.8
 41
3.0
 42
1.5
 43
6.4
 44
2.0
 47
0.1
 48
0.1
 73
     0
 74
     0
 77
     3
 78
     8
 79
     2
140
3.0
141
0.0
143
0.0393701
146
0.6
147
0.8
172
     1
176
   256
177
   256
178
   256
271
     2
272
     2
284
     8
340
3457
371
    -1
372
    -1
  0
DIMSTYLE
105
3D53
330
A
100
AcDbSymbolTableRecord
100
AcDbDimStyleTableRecord
  2
ISO-25
 70
     0
 41
2.5
 42
0.625
 43
3.75
 44
1.25
 73
     0
 74
     0
 77
     1
 78
     8
140
2.5
141
2.5
143
0.03937007874016
147
0.625
171
     3
172
     1
271
     2
272
     2
274
     3
278
    44
283
     0
284
     8
340
11
  0
ENDTAB
  0
TABLE
  2
BLOCK_RECORD
  5
1
330
0
100
AcDbSymbolTable
 70
    18
  0
BLOCK_RECORD
  5
1F
102
{ACAD_XDICTIONARY
360
8F
102
}
330
1
100
AcDbSymbolTableRecord
100
AcDbBlockTableRecord
  2
*Model_Space
340
22
  0
BLOCK_RECORD
  5
1B
330
1
100
AcDbSymbolTableRecord
100
AcDbBlockTableRecord
  2
*Paper_Space
340
1E
  0
BLOCK_RECORD
  5
23
330
1
100
AcDbSymbolTableRecord
100
AcDbBlockTableRecord
  2
*Paper_Space0
340
26
  0
BLOCK_RECORD
  5
87
330
1
100
AcDbSymbolTableRecord
100
AcDbBlockTableRecord
  2
GENAXEH
340
0
  0
BLOCK_RECORD
  5
3AEA
330
1
100
AcDbSymbolTableRecord
100
AcDbBlockTableRecord
  2
GENDOT
340
0
  0
BLOCK_RECORD
  5
3F14
330
1
100
AcDbSymbolTableRecord
100
AcDbBlockTableRecord
  2
*D4
340
0
  0
BLOCK_RECORD
  5
3F3A
330
1
100
AcDbSymbolTableRecord
100
AcDbBlockTableRecord
  2
*D5
340
0
  0
BLOCK_RECORD
  5
3F60
330
1
100
AcDbSymbolTableRecord
100
AcDbBlockTableRecord
  2
*D6
340
0
  0
BLOCK_RECORD
  5
3FA5
330
1
100
AcDbSymbolTableRecord
100
AcDbBlockTableRecord
  2
*D7
340
0
  0
BLOCK_RECORD
  5
3FCF
330
1
100
AcDbSymbolTableRecord
100
AcDbBlockTableRecord
  2
*D8
340
0
  0
BLOCK_RECORD
  5
3FF5
330
1
100
AcDbSymbolTableRecord
100
AcDbBlockTableRecord
  2
*D9
340
0
  0
BLOCK_RECORD
  5
401F
330
1
100
AcDbSymbolTableRecord
100
AcDbBlockTableRecord
  2
*D10
340
0
  0
BLOCK_RECORD
  5
4049
330
1
100
AcDbSymbolTableRecord
100
AcDbBlockTableRecord
  2
*D11
340
0
  0
BLOCK_RECORD
  5
41DB
330
1
100
AcDbSymbolTableRecord
100
AcDbBlockTableRecord
  2
*D12
340
0
  0
BLOCK_RECORD
  5
4296
330
1
100
AcDbSymbolTableRecord
100
AcDbBlockTableRecord
  2
*D13
340
0
  0
BLOCK_RECORD
  5
42A2
102
{ACAD_XDICTIONARY
360
42A4
102
}
330
1
100
AcDbSymbolTableRecord
100
AcDbBlockTableRecord
  2
A$C11A73736
340
0
  0
BLOCK_RECORD
  5
42C6
330
1
100
AcDbSymbolTableRecord
100
AcDbBlockTableRecord
  2
*D15
340
0
  0
BLOCK_RECORD
  5
42E6
330
1
100
AcDbSymbolTableRecord
100
AcDbBlockTableRecord
  2
*D16
340
0
  0
BLOCK_RECORD
  5
4333
330
1
100
AcDbSymbolTableRecord
100
AcDbBlockTableRecord
  2
*D17
340
0
  0
ENDTAB
  0
ENDSEC
  0
SECTION
  2
BLOCKS
  0
BLOCK
  5
20
330
1F
100
AcDbEntity
  8
0
100
AcDbBlockBegin
  2
*Model_Space
 70
     0
 10
0.0
 20
0.0
 30
0.0
  3
*Model_Space
  1

  0
ENDBLK
  5
21
330
1F
100
AcDbEntity
  8
0
100
AcDbBlockEnd
  0
BLOCK
  5
1C
330
1B
100
AcDbEntity
 67
     1
  8
0
100
AcDbBlockBegin
  2
*Paper_Space
 70
     0
 10
0.0
 20
0.0
 30
0.0
  3
*Paper_Space
  1

  0
ENDBLK
  5
1D
330
1B
100
AcDbEntity
 67
     1
  8
0
100
AcDbBlockEnd
  0
BLOCK
  5
24
330
23
100
AcDbEntity
  8
0
100
AcDbBlockBegin
  2
*Paper_Space0
 70
     0
 10
0.0
 20
0.0
 30
0.0
  3
*Paper_Space0
  1

  0
ENDBLK
  5
25
330
23
100
AcDbEntity
  8
0
100
AcDbBlockEnd
  0
BLOCK
  5
89
330
87
100
AcDbEntity
  8
0
100
AcDbBlockBegin
  2
GENAXEH
 70
     0
 10
0.0
 20
0.0
 30
0.0
  3
GENAXEH
  1

  0
LINE
  5
88
330
87
100
AcDbEntity
  8
0
100
AcDbLine
 10
-1.0
 20
0.0
 30
0.0
 11
1.0
 21
0.0
 31
0.0
  0
ENDBLK
  5
8A
330
87
100
AcDbEntity
  8
0
100
AcDbBlockEnd
  0
BLOCK
  5
3AEB
330
3AEA
100
AcDbEntity
  8
0
100
AcDbBlockBegin
  2
GENDOT
 70
     0
 10
0.0
 20
0.0
 30
0.0
  3
GENDOT
  1

  0
LINE
  5
3AEC
330
3AEA
100
AcDbEntity
  8
0
100
AcDbLine
 10
0.0
 20
0.0
 30
0.0
 11
-1.0
 21
0.0
 31
0.0
  0
LWPOLYLINE
  5
3AED
330
3AEA
100
AcDbEntity
  8
0
100
AcDbPolyline
 90
        2
 70
     1
 43
0.25
 10
-0.125
 20
0.0
 42
1.0
 10
0.125
 20
0.0
 42
1.0
  0
ENDBLK
  5
3AEE
330
3AEA
100
AcDbEntity
  8
0
100
AcDbBlockEnd
  0
BLOCK
  5
3F1E
330
3F14
100
AcDbEntity
  8
0
100
AcDbBlockBegin
  2
*D4
 70
     1
 10
0.0
 20
0.0
 30
0.0
  3
*D4
  1

  0
LINE
  5
4374
330
3F14
100
AcDbEntity
  8
AM_REFDIM
100
AcDbLine
 10
400.8929245193031
 20
304.3822783114125
 30
0.0
 11
400.8929245193031
 21
320.0636705208449
 31
0.0
  0
LINE
  5
4375
330
3F14
100
AcDbEntity
  8
AM_REFDIM
100
AcDbLine
 10
416.8929245193031
 20
304.3822783114125
 30
0.0
 11
416.8929245193031
 21
320.0636705208449
 31
0.0
  0
LINE
  5
4376
330
3F14
100
AcDbEntity
  8
AM_REFDIM
100
AcDbLine
 10
402.6929245193032
 20
319.4636705208449
 30
0.0
 11
415.0929245193031
 21
319.4636705208449
 31
0.0
  0
SOLID
  5
4377
330
3F14
100
AcDbEntity
  8
AM_REFDIM
100
AcDbTrace
 10
402.6929245193032
 20
319.7636705208449
 30
0.0
 11
402.6929245193032
 21
319.1636705208448
 31
0.0
 12
400.8929245193031
 22
319.4636705208449
 32
0.0
 13
400.8929245193031
 23
319.4636705208449
 33
0.0
  0
SOLID
  5
4378
330
3F14
100
AcDbEntity
  8
AM_REFDIM
100
AcDbTrace
 10
415.0929245193031
 20
319.7636705208449
 30
0.0
 11
415.0929245193031
 21
319.1636705208448
 31
0.0
 12
416.8929245193031
 22
319.4636705208449
 32
0.0
 13
416.8929245193031
 23
319.4636705208449
 33
0.0
  0
MTEXT
  5
4379
330
3F14
100
AcDbEntity
  8
AM_REFDIM
100
AcDbMText
 10
408.8929245193031
 20
321.1136705208448
 30
0.0
 40
2.1
 41
0.0
 71
     5
 72
     1
  1
16
 73
     1
 44
1.0
1001
ACAD
1000
MTEXTBEGIN
1070
    73
1070
     1
1070
    44
1040
1.0
1070
    74
1070
     0
1000
MTEXTEND
  0
POINT
  5
437A
330
3F14
100
AcDbEntity
  8
Defpoints
 62
     0
100
AcDbPoint
 10
400.8929245193031
 20
303.7822783114125
 30
0.0
  0
POINT
  5
437B
330
3F14
100
AcDbEntity
  8
Defpoints
 62
     0
100
AcDbPoint
 10
416.8929245193031
 20
303.7822783114125
 30
0.0
  0
POINT
  5
437C
330
3F14
100
AcDbEntity
  8
Defpoints
 62
     0
100
AcDbPoint
 10
416.8929245193031
 20
319.4636705208449
 30
0.0
  0
ENDBLK
  5
3F1F
330
3F14
100
AcDbEntity
  8
0
100
AcDbBlockEnd
  0
BLOCK
  5
3F44
330
3F3A
100
AcDbEntity
  8
0
100
AcDbBlockBegin
  2
*D5
 70
     1
 10
0.0
 20
0.0
 30
0.0
  3
*D5
  1

  0
LINE
  5
437D
330
3F3A
100
AcDbEntity
  8
AM_REFDIM
100
AcDbLine
 10
409.4929245193031
 20
311.7822783114125
 30
0.0
 11
427.8504022523561
 21
311.7822783114125
 31
0.0
  0
LINE
  5
437E
330
3F3A
100
AcDbEntity
  8
AM_REFDIM
100
AcDbLine
 10
415.1929245193032
 20
276.7822783114125
 30
0.0
 11
427.8504022523561
 21
276.7822783114125
 31
0.0
  0
LINE
  5
437F
330
3F3A
100
AcDbEntity
  8
AM_REFDIM
100
AcDbLine
 10
427.2504022523561
 20
309.9822783114125
 30
0.0
 11
427.2504022523561
 21
278.5822783114125
 31
0.0
  0
SOLID
  5
4380
330
3F3A
100
AcDbEntity
  8
AM_REFDIM
100
AcDbTrace
 10
426.9504022523561
 20
309.9822783114125
 30
0.0
 11
427.5504022523561
 21
309.9822783114125
 31
0.0
 12
427.2504022523561
 22
311.7822783114125
 32
0.0
 13
427.2504022523561
 23
311.7822783114125
 33
0.0
  0
SOLID
  5
4381
330
3F3A
100
AcDbEntity
  8
AM_REFDIM
100
AcDbTrace
 10
426.9504022523561
 20
278.5822783114125
 30
0.0
 11
427.5504022523561
 21
278.5822783114125
 31
0.0
 12
427.2504022523561
 22
276.7822783114125
 32
0.0
 13
427.2504022523561
 23
276.7822783114125
 33
0.0
  0
MTEXT
  5
4382
330
3F3A
100
AcDbEntity
  8
AM_REFDIM
100
AcDbMText
 10
425.600402252356
 20
294.2822783114126
 30
0.0
 40
2.1
 41
0.0
 71
     5
 72
     1
  1
35
 11
0.0000000000000001
 21
1.0
 31
0.0
 73
     1
 44
1.0
1001
ACAD
1000
MTEXTBEGIN
1070
    73
1070
     1
1070
    44
1040
1.0
1070
    74
1070
     0
1000
MTEXTEND
  0
POINT
  5
4383
330
3F3A
100
AcDbEntity
  8
Defpoints
 62
     0
100
AcDbPoint
 10
408.8929245193031
 20
311.7822783114125
 30
0.0
  0
POINT
  5
4384
330
3F3A
100
AcDbEntity
  8
Defpoints
 62
     0
100
AcDbPoint
 10
414.5929245193031
 20
276.7822783114125
 30
0.0
  0
POINT
  5
4385
330
3F3A
100
AcDbEntity
  8
Defpoints
 62
     0
100
AcDbPoint
 10
427.2504022523561
 20
276.7822783114125
 30
0.0
  0
ENDBLK
  5
3F45
330
3F3A
100
AcDbEntity
  8
0
100
AcDbBlockEnd
  0
BLOCK
  5
3F6A
330
3F60
100
AcDbEntity
  8
0
100
AcDbBlockBegin
  2
*D6
 70
     1
 10
0.0
 20
0.0
 30
0.0
  3
*D6
  1

  0
LINE
  5
4386
330
3F60
100
AcDbEntity
  8
AM_REFDIM
100
AcDbLine
 10
419.092924519303
 20
303.7822783114125
 30
0.0
 11
422.5394765997021
 21
303.7822783114125
 31
0.0
  0
LINE
  5
4387
330
3F60
100
AcDbEntity
  8
AM_REFDIM
100
AcDbLine
 10
415.1929245193032
 20
276.7822783114125
 30
0.0
 11
422.5394765997021
 21
276.7822783114125
 31
0.0
  0
LINE
  5
4388
330
3F60
100
AcDbEntity
  8
AM_REFDIM
100
AcDbLine
 10
421.939476599702
 20
301.9822783114125
 30
0.0
 11
421.939476599702
 21
278.5822783114125
 31
0.0
  0
SOLID
  5
4389
330
3F60
100
AcDbEntity
  8
AM_REFDIM
100
AcDbTrace
 10
421.639476599702
 20
301.9822783114125
 30
0.0
 11
422.239476599702
 21
301.9822783114125
 31
0.0
 12
421.939476599702
 22
303.7822783114125
 32
0.0
 13
421.939476599702
 23
303.7822783114125
 33
0.0
  0
SOLID
  5
438A
330
3F60
100
AcDbEntity
  8
AM_REFDIM
100
AcDbTrace
 10
421.639476599702
 20
278.5822783114125
 30
0.0
 11
422.239476599702
 21
278.5822783114125
 31
0.0
 12
421.939476599702
 22
276.7822783114125
 32
0.0
 13
421.939476599702
 23
276.7822783114125
 33
0.0
  0
MTEXT
  5
438B
330
3F60
100
AcDbEntity
  8
AM_REFDIM
100
AcDbMText
 10
420.2892699067886
 20
290.2822783114126
 30
0.0
 40
2.1
 41
0.0
 71
     5
 72
     1
  1
27
 11
0.0000000000000001
 21
1.0
 31
0.0
 73
     1
 44
1.0
1001
ACAD
1000
MTEXTBEGIN
1070
    73
1070
     1
1070
    44
1040
1.0
1070
    74
1070
     0
1000
MTEXTEND
  0
POINT
  5
438C
330
3F60
100
AcDbEntity
  8
Defpoints
 62
     0
100
AcDbPoint
 10
418.492924519303
 20
303.7822783114125
 30
0.0
  0
POINT
  5
438D
330
3F60
100
AcDbEntity
  8
Defpoints
 62
     0
100
AcDbPoint
 10
414.5929245193031
 20
276.7822783114125
 30
0.0
  0
POINT
  5
438E
330
3F60
100
AcDbEntity
  8
Defpoints
 62
     0
100
AcDbPoint
 10
421.939476599702
 20
276.7822783114125
 30
0.0
  0
ENDBLK
  5
3F6B
330
3F60
100
AcDbEntity
  8
0
100
AcDbBlockEnd
  0
BLOCK
  5
3FB1
330
3FA5
100
AcDbEntity
  8
0
100
AcDbBlockBegin
  2
*D7
 70
     1
 10
0.0
 20
0.0
 30
0.0
  3
*D7
  1

  0
LINE
  5
438F
330
3FA5
100
AcDbEntity
  8
AM_REFDIM
100
AcDbLine
 10
415.1929245193032
 20
280.7822783114125
 30
0.0
 11
418.849038279035
 21
280.7822783114125
 31
0.0
  0
LINE
  5
4390
330
3FA5
100
AcDbEntity
  8
AM_REFDIM
100
AcDbLine
 10
415.1929245193032
 20
276.7822783114125
 30
0.0
 11
418.849038279035
 21
276.7822783114125
 31
0.0
  0
LINE
  5
4391
330
3FA5
100
AcDbEntity
  8
AM_REFDIM
100
AcDbLine
 10
418.249038279035
 20
282.5822783114126
 30
0.0
 11
418.249038279035
 21
284.3822783114126
 31
0.0
  0
LINE
  5
4392
330
3FA5
100
AcDbEntity
  8
AM_REFDIM
100
AcDbLine
 10
418.249038279035
 20
274.9822783114125
 30
0.0
 11
418.249038279035
 21
273.1822783114125
 31
0.0
  0
LINE
  5
4393
330
3FA5
100
AcDbEntity
  8
AM_REFDIM
100
AcDbLine
 10
418.249038279035
 20
280.7822783114125
 30
0.0
 11
418.249038279035
 21
276.7822783114125
 31
0.0
  0
SOLID
  5
4394
330
3FA5
100
AcDbEntity
  8
AM_REFDIM
100
AcDbTrace
 10
417.949038279035
 20
282.5822783114126
 30
0.0
 11
418.549038279035
 21
282.5822783114126
 31
0.0
 12
418.249038279035
 22
280.7822783114125
 32
0.0
 13
418.249038279035
 23
280.7822783114125
 33
0.0
  0
SOLID
  5
4395
330
3FA5
100
AcDbEntity
  8
AM_REFDIM
100
AcDbTrace
 10
417.949038279035
 20
274.9822783114125
 30
0.0
 11
418.549038279035
 21
274.9822783114125
 31
0.0
 12
418.249038279035
 22
276.7822783114125
 32
0.0
 13
418.249038279035
 23
276.7822783114125
 33
0.0
  0
MTEXT
  5
4396
330
3FA5
100
AcDbEntity
  8
AM_REFDIM
100
AcDbMText
 10
416.5990382790349
 20
278.7822783114126
 30
0.0
 40
2.1
 41
0.0
 71
     5
 72
     1
  1
4
 11
0.0000000000000001
 21
1.0
 31
0.0
 73
     1
 44
1.0
1001
ACAD
1000
MTEXTBEGIN
1070
    73
1070
     1
1070
    44
1040
1.0
1070
    74
1070
     0
1000
MTEXTEND
  0
POINT
  5
4397
330
3FA5
100
AcDbEntity
  8
Defpoints
 62
     0
100
AcDbPoint
 10
414.5929245193031
 20
280.7822783114125
 30
0.0
  0
POINT
  5
4398
330
3FA5
100
AcDbEntity
  8
Defpoints
 62
     0
100
AcDbPoint
 10
414.5929245193031
 20
276.7822783114125
 30
0.0
  0
POINT
  5
4399
330
3FA5
100
AcDbEntity
  8
Defpoints
 62
     0
100
AcDbPoint
 10
418.249038279035
 20
276.7822783114125
 30
0.0
  0
ENDBLK
  5
3FB2
330
3FA5
100
AcDbEntity
  8
0
100
AcDbBlockEnd
  0
BLOCK
  5
3FD9
330
3FCF
100
AcDbEntity
  8
0
100
AcDbBlockBegin
  2
*D8
 70
     1
 10
0.0
 20
0.0
 30
0.0
  3
*D8
  1

  0
LINE
  5
439A
330
3FCF
100
AcDbEntity
  8
AM_REFDIM
100
AcDbLine
 10
402.8929245193031
 20
276.4822783114125
 30
0.0
 11
402.8929245193031
 21
268.4344070653811
 31
0.0
  0
LINE
  5
439B
330
3FCF
100
AcDbEntity
  8
AM_REFDIM
100
AcDbLine
 10
414.8929245193031
 20
276.4822783114125
 30
0.0
 11
414.8929245193031
 21
268.4344070653811
 31
0.0
  0
LINE
  5
439C
330
3FCF
100
AcDbEntity
  8
AM_REFDIM
100
AcDbLine
 10
404.6929245193031
 20
269.0344070653812
 30
0.0
 11
413.0929245193032
 21
269.0344070653812
 31
0.0
  0
SOLID
  5
439D
330
3FCF
100
AcDbEntity
  8
AM_REFDIM
100
AcDbTrace
 10
404.6929245193031
 20
269.3344070653812
 30
0.0
 11
404.6929245193031
 21
268.7344070653812
 31
0.0
 12
402.8929245193031
 22
269.0344070653812
 32
0.0
 13
402.8929245193031
 23
269.0344070653812
 33
0.0
  0
SOLID
  5
439E
330
3FCF
100
AcDbEntity
  8
AM_REFDIM
100
AcDbTrace
 10
413.0929245193032
 20
269.3344070653812
 30
0.0
 11
413.0929245193032
 21
268.7344070653812
 31
0.0
 12
414.8929245193031
 22
269.0344070653812
 32
0.0
 13
414.8929245193031
 23
269.0344070653812
 33
0.0
  0
MTEXT
  5
439F
330
3FCF
100
AcDbEntity
  8
AM_REFDIM
100
AcDbMText
 10
408.8929245193031
 20
270.6846137582946
 30
0.0
 40
2.1
 41
0.0
 71
     5
 72
     1
  1
12
 73
     1
 44
1.0
1001
ACAD
1000
MTEXTBEGIN
1070
    73
1070
     1
1070
    44
1040
1.0
1070
    74
1070
     0
1000
MTEXTEND
  0
POINT
  5
43A0
330
3FCF
100
AcDbEntity
  8
Defpoints
 62
     0
100
AcDbPoint
 10
402.8929245193031
 20
277.0822783114125
 30
0.0
  0
POINT
  5
43A1
330
3FCF
100
AcDbEntity
  8
Defpoints
 62
     0
100
AcDbPoint
 10
414.8929245193031
 20
277.0822783114125
 30
0.0
  0
POINT
  5
43A2
330
3FCF
100
AcDbEntity
  8
Defpoints
 62
     0
100
AcDbPoint
 10
414.8929245193031
 20
269.0344070653812
 30
0.0
  0
ENDBLK
  5
3FDA
330
3FCF
100
AcDbEntity
  8
0
100
AcDbBlockEnd
  0
BLOCK
  5
4001
330
3FF5
100
AcDbEntity
  8
0
100
AcDbBlockBegin
  2
*D9
 70
     1
 10
0.0
 20
0.0
 30
0.0
  3
*D9
  1

  0
LINE
  5
43A3
330
3FF5
100
AcDbEntity
  8
AM_REFDIM
100
AcDbLine
 10
437.674234108344
 20
308.2368891867149
 30
0.0
 11
437.674234108344
 21
320.6190271259766
 31
0.0
  0
LINE
  5
43A4
330
3FF5
100
AcDbEntity
  8
AM_REFDIM
100
AcDbLine
 10
445.6742341083443
 20
308.2368891867149
 30
0.0
 11
445.6742341083443
 21
320.6190271259766
 31
0.0
  0
LINE
  5
43A5
330
3FF5
100
AcDbEntity
  8
AM_REFDIM
100
AcDbLine
 10
439.4742341083441
 20
320.0190271259765
 30
0.0
 11
443.8742341083442
 21
320.0190271259765
 31
0.0
  0
SOLID
  5
43A6
330
3FF5
100
AcDbEntity
  8
AM_REFDIM
100
AcDbTrace
 10
439.4742341083441
 20
320.3190271259765
 30
0.0
 11
439.4742341083441
 21
319.7190271259765
 31
0.0
 12
437.674234108344
 22
320.0190271259765
 32
0.0
 13
437.674234108344
 23
320.0190271259765
 33
0.0
  0
SOLID
  5
43A7
330
3FF5
100
AcDbEntity
  8
AM_REFDIM
100
AcDbTrace
 10
443.8742341083442
 20
320.3190271259765
 30
0.0
 11
443.8742341083442
 21
319.7190271259765
 31
0.0
 12
445.6742341083443
 22
320.0190271259765
 32
0.0
 13
445.6742341083443
 23
320.0190271259765
 33
0.0
  0
MTEXT
  5
43A8
330
3FF5
100
AcDbEntity
  8
AM_REFDIM
100
AcDbMText
 10
441.6742341083441
 20
321.6690271259765
 30
0.0
 40
2.1
 41
0.0
 71
     5
 72
     1
  1
8
 73
     1
 44
1.0
1001
ACAD
1000
MTEXTBEGIN
1070
    73
1070
     1
1070
    44
1040
1.0
1070
    74
1070
     0
1000
MTEXTEND
  0
POINT
  5
43A9
330
3FF5
100
AcDbEntity
  8
Defpoints
 62
     0
100
AcDbPoint
 10
437.674234108344
 20
307.6368891867149
 30
0.0
  0
POINT
  5
43AA
330
3FF5
100
AcDbEntity
  8
Defpoints
 62
     0
100
AcDbPoint
 10
445.6742341083443
 20
307.6368891867149
 30
0.0
  0
POINT
  5
43AB
330
3FF5
100
AcDbEntity
  8
Defpoints
 62
     0
100
AcDbPoint
 10
445.6742341083443
 20
320.0190271259765
 30
0.0
  0
ENDBLK
  5
4002
330
3FF5
100
AcDbEntity
  8
0
100
AcDbBlockEnd
  0
BLOCK
  5
402B
330
401F
100
AcDbEntity
  8
0
100
AcDbBlockBegin
  2
*D10
 70
     1
 10
0.0
 20
0.0
 30
0.0
  3
*D10
  1

  0
LINE
  5
43AC
330
401F
100
AcDbEntity
  8
AM_REFDIM
100
AcDbLine
 10
437.1742341083441
 20
276.4822783114125
 30
0.0
 11
437.1742341083441
 21
268.4344070653809
 31
0.0
  0
LINE
  5
43AD
330
401F
100
AcDbEntity
  8
AM_REFDIM
100
AcDbLine
 10
446.1742341083442
 20
276.4822783114125
 30
0.0
 11
446.1742341083442
 21
268.4344070653809
 31
0.0
  0
LINE
  5
43AE
330
401F
100
AcDbEntity
  8
AM_REFDIM
100
AcDbLine
 10
438.9742341083442
 20
269.0344070653809
 30
0.0
 11
444.3742341083441
 21
269.0344070653809
 31
0.0
  0
SOLID
  5
43AF
330
401F
100
AcDbEntity
  8
AM_REFDIM
100
AcDbTrace
 10
438.9742341083442
 20
269.3344070653809
 30
0.0
 11
438.9742341083442
 21
268.7344070653809
 31
0.0
 12
437.1742341083441
 22
269.0344070653809
 32
0.0
 13
437.1742341083441
 23
269.0344070653809
 33
0.0
  0
SOLID
  5
43B0
330
401F
100
AcDbEntity
  8
AM_REFDIM
100
AcDbTrace
 10
444.3742341083441
 20
269.3344070653809
 30
0.0
 11
444.3742341083441
 21
268.7344070653809
 31
0.0
 12
446.1742341083442
 22
269.0344070653809
 32
0.0
 13
446.1742341083442
 23
269.0344070653809
 33
0.0
  0
MTEXT
  5
43B1
330
401F
100
AcDbEntity
  8
AM_REFDIM
100
AcDbMText
 10
441.6742341083441
 20
270.6844070653809
 30
0.0
 40
2.1
 41
0.0
 71
     5
 72
     1
  1
9
 73
     1
 44
1.0
1001
ACAD
1000
MTEXTBEGIN
1070
    73
1070
     1
1070
    44
1040
1.0
1070
    74
1070
     0
1000
MTEXTEND
  0
POINT
  5
43B2
330
401F
100
AcDbEntity
  8
Defpoints
 62
     0
100
AcDbPoint
 10
437.1742341083441
 20
277.0822783114125
 30
0.0
  0
POINT
  5
43B3
330
401F
100
AcDbEntity
  8
Defpoints
 62
     0
100
AcDbPoint
 10
446.1742341083442
 20
277.0822783114125
 30
0.0
  0
POINT
  5
43B4
330
401F
100
AcDbEntity
  8
Defpoints
 62
     0
100
AcDbPoint
 10
446.1742341083442
 20
269.0344070653809
 30
0.0
  0
ENDBLK
  5
402C
330
401F
100
AcDbEntity
  8
0
100
AcDbBlockEnd
  0
BLOCK
  5
4053
330
4049
100
AcDbEntity
  8
0
100
AcDbBlockBegin
  2
*D11
 70
     1
 10
0.0
 20
0.0
 30
0.0
  3
*D11
  1

  0
LINE
  5
43B5
330
4049
100
AcDbEntity
  8
AM_REFDIM
100
AcDbLine
 10
444.7742341083442
 20
290.7822783114125
 30
0.0
 11
453.7781196036873
 21
290.7822783114125
 31
0.0
  0
LINE
  5
43B6
330
4049
100
AcDbEntity
  8
AM_REFDIM
100
AcDbLine
 10
446.4742341083442
 20
276.7822783114125
 30
0.0
 11
453.7781196036873
 21
276.7822783114125
 31
0.0
  0
LINE
  5
43B7
330
4049
100
AcDbEntity
  8
AM_REFDIM
100
AcDbLine
 10
453.1781196036873
 20
288.9822783114125
 30
0.0
 11
453.1781196036873
 21
278.5822783114125
 31
0.0
  0
SOLID
  5
43B8
330
4049
100
AcDbEntity
  8
AM_REFDIM
100
AcDbTrace
 10
452.8781196036873
 20
288.9822783114125
 30
0.0
 11
453.4781196036873
 21
288.9822783114125
 31
0.0
 12
453.1781196036873
 22
290.7822783114125
 32
0.0
 13
453.1781196036873
 23
290.7822783114125
 33
0.0
  0
SOLID
  5
43B9
330
4049
100
AcDbEntity
  8
AM_REFDIM
100
AcDbTrace
 10
452.8781196036873
 20
278.5822783114125
 30
0.0
 11
453.4781196036873
 21
278.5822783114125
 31
0.0
 12
453.1781196036873
 22
276.7822783114125
 32
0.0
 13
453.1781196036873
 23
276.7822783114125
 33
0.0
  0
MTEXT
  5
43BA
330
4049
100
AcDbEntity
  8
AM_REFDIM
100
AcDbMText
 10
451.5281196036872
 20
283.7822783114126
 30
0.0
 40
2.1
 41
0.0
 71
     5
 72
     1
  1
14
 11
0.0000000000000001
 21
1.0
 31
0.0
 73
     1
 44
1.0
1001
ACAD
1000
MTEXTBEGIN
1070
    73
1070
     1
1070
    44
1040
1.0
1070
    74
1070
     0
1000
MTEXTEND
  0
POINT
  5
43BB
330
4049
100
AcDbEntity
  8
Defpoints
 62
     0
100
AcDbPoint
 10
444.1742341083442
 20
290.7822783114125
 30
0.0
  0
POINT
  5
43BC
330
4049
100
AcDbEntity
  8
Defpoints
 62
     0
100
AcDbPoint
 10
445.8742341083442
 20
276.7822783114125
 30
0.0
  0
POINT
  5
43BD
330
4049
100
AcDbEntity
  8
Defpoints
 62
     0
100
AcDbPoint
 10
453.1781196036873
 20
276.7822783114125
 30
0.0
  0
ENDBLK
  5
4054
330
4049
100
AcDbEntity
  8
0
100
AcDbBlockEnd
  0
BLOCK
  5
41E7
330
41DB
100
AcDbEntity
  8
0
100
AcDbBlockBegin
  2
*D12
 70
     1
 10
0.0
 20
0.0
 30
0.0
  3
*D12
  1

  0
LINE
  5
43BE
330
41DB
100
AcDbEntity
  8
AM_REFDIM
100
AcDbLine
 10
438.1742341083442
 20
311.3822783114125
 30
0.0
 11
438.1742341083442
 21
315.1131452139955
 31
0.0
  0
LINE
  5
43BF
330
41DB
100
AcDbEntity
  8
AM_REFDIM
100
AcDbLine
 10
445.1742341083441
 20
311.3822783114125
 30
0.0
 11
445.1742341083441
 21
315.1131452139955
 31
0.0
  0
LINE
  5
43C0
330
41DB
100
AcDbEntity
  8
AM_REFDIM
100
AcDbLine
 10
439.9742341083442
 20
314.5131452139955
 30
0.0
 11
443.3742341083442
 21
314.5131452139955
 31
0.0
  0
SOLID
  5
43C1
330
41DB
100
AcDbEntity
  8
AM_REFDIM
100
AcDbTrace
 10
439.9742341083442
 20
314.8131452139955
 30
0.0
 11
439.9742341083442
 21
314.2131452139955
 31
0.0
 12
438.1742341083442
 22
314.5131452139955
 32
0.0
 13
438.1742341083442
 23
314.5131452139955
 33
0.0
  0
SOLID
  5
43C2
330
41DB
100
AcDbEntity
  8
AM_REFDIM
100
AcDbTrace
 10
443.3742341083442
 20
314.8131452139955
 30
0.0
 11
443.3742341083442
 21
314.2131452139955
 31
0.0
 12
445.1742341083441
 22
314.5131452139955
 32
0.0
 13
445.1742341083441
 23
314.5131452139955
 33
0.0
  0
MTEXT
  5
43C3
330
41DB
100
AcDbEntity
  8
AM_REFDIM
100
AcDbMText
 10
441.6742341083441
 20
316.1631452139955
 30
0.0
 40
2.1
 41
0.0
 71
     5
 72
     1
  1
7
 73
     1
 44
1.0
1001
ACAD
1000
MTEXTBEGIN
1070
    73
1070
     1
1070
    44
1040
1.0
1070
    74
1070
     0
1000
MTEXTEND
  0
POINT
  5
43C4
330
41DB
100
AcDbEntity
  8
Defpoints
 62
     0
100
AcDbPoint
 10
438.1742341083442
 20
310.7822783114125
 30
0.0
  0
POINT
  5
43C5
330
41DB
100
AcDbEntity
  8
Defpoints
 62
     0
100
AcDbPoint
 10
445.1742341083441
 20
310.7822783114125
 30
0.0
  0
POINT
  5
43C6
330
41DB
100
AcDbEntity
  8
Defpoints
 62
     0
100
AcDbPoint
 10
445.1742341083441
 20
314.5131452139955
 30
0.0
  0
ENDBLK
  5
41E8
330
41DB
100
AcDbEntity
  8
0
100
AcDbBlockEnd
  0
BLOCK
  5
4297
330
4296
100
AcDbEntity
  8
0
 62
     6
100
AcDbBlockBegin
  2
*D13
 70
     1
 10
0.0
 20
0.0
 30
0.0
  3
*D13
  1

  0
LINE
  5
4298
330
4296
100
AcDbEntity
  8
AM_5
100
AcDbLine
 10
142.7610165365147
 20
156.2384599547412
 30
0.0
 11
135.1984654333557
 21
156.2384599547412
 31
0.0
  0
LINE
  5
4299
330
4296
100
AcDbEntity
  8
AM_5
100
AcDbLine
 10
142.7610165365147
 20
170.2384599547412
 30
0.0
 11
135.1984654333557
 21
170.2384599547412
 31
0.0
  0
LINE
  5
429A
330
4296
100
AcDbEntity
  8
AM_5
100
AcDbLine
 10
136.1984654333557
 20
159.2384599547412
 30
0.0
 11
136.1984654333557
 21
167.2384599547412
 31
0.0
  0
SOLID
  5
429B
330
4296
100
AcDbEntity
  8
AM_5
100
AcDbTrace
 10
135.6984654333557
 20
159.2384599547412
 30
0.0
 11
136.6984654333557
 21
159.2384599547412
 31
0.0
 12
136.1984654333557
 22
156.2384599547412
 32
0.0
 13
136.1984654333557
 23
156.2384599547412
 33
0.0
  0
SOLID
  5
429C
330
4296
100
AcDbEntity
  8
AM_5
100
AcDbTrace
 10
135.6984654333557
 20
167.2384599547412
 30
0.0
 11
136.6984654333557
 21
167.2384599547412
 31
0.0
 12
136.1984654333557
 22
170.2384599547412
 32
0.0
 13
136.1984654333557
 23
170.2384599547412
 33
0.0
  0
MTEXT
  5
429D
330
4296
100
AcDbEntity
  8
AM_5
100
AcDbMText
 10
133.4484654333557
 20
163.2384599547412
 30
0.0
 40
3.5
 41
0.0
 71
     5
 72
     1
  1
%%c14
 11
0.0000000000000001
 21
1.0
 31
0.0
 73
     1
 44
1.0
1001
ACAD
1000
MTEXTBEGIN
1070
    73
1070
     1
1070
    44
1040
1.0
1070
    74
1070
     0
1000
MTEXTEND
  0
POINT
  5
429E
330
4296
100
AcDbEntity
  8
Defpoints
 62
     0
100
AcDbPoint
 10
143.7610165365147
 20
156.2384599547412
 30
0.0
  0
POINT
  5
429F
330
4296
100
AcDbEntity
  8
Defpoints
 62
     0
100
AcDbPoint
 10
143.7610165365147
 20
170.2384599547412
 30
0.0
  0
POINT
  5
42A0
330
4296
100
AcDbEntity
  8
Defpoints
 62
     0
100
AcDbPoint
 10
136.1984654333557
 20
170.2384599547412
 30
0.0
  0
ENDBLK
  5
42A1
330
4296
100
AcDbEntity
  8
0
 62
     6
100
AcDbBlockEnd
  0
BLOCK
  5
42A5
330
42A2
100
AcDbEntity
  8
0
100
AcDbBlockBegin
  2
A$C11A73736
 70
     0
 10
0.0
 20
0.0
 30
0.0
  3
A$C11A73736
  1

  0
DIMENSION
  5
42A3
330
42A2
100
AcDbEntity
  8
AM_5
100
AcDbDimension
  2
*D13
 10
4.324999834982122
 20
13.99999985764856
 30
0.0
 11
1.574999834982094
 21
6.999999857648589
 31
0.0
 12
-131.8734655983736
 22
-156.2384600970927
 32
0.0
  1
%%c<>
 71
     5
 42
14.0
  3
AM_ISO$0
100
AcDbAlignedDimension
 13
11.88755093814109
 23
-0.0000001423514391
 33
0.0
 14
11.88755093814109
 24
13.99999985764856
 34
0.0
 50
90.0
100
AcDbRotatedDimension
1001
ACAD
1000
DSTYLE
1002
{
1070
    40
1040
1.0
1070
   144
1040
1.0
1002
}
  0
ENDBLK
  5
42A6
330
42A2
100
AcDbEntity
  8
0
100
AcDbBlockEnd
  0
BLOCK
  5
42D2
330
42C6
100
AcDbEntity
  8
0
100
AcDbBlockBegin
  2
*D15
 70
     1
 10
0.0
 20
0.0
 30
0.0
  3
*D15
  1

  0
LINE
  5
43C7
330
42C6
100
AcDbEntity
  8
AM_REFDIM
100
AcDbLine
 10
446.2742341083443
 20
307.6368891867149
 30
0.0
 11
457.3996800922083
 21
307.6368891867149
 31
0.0
  0
LINE
  5
43C8
330
42C6
100
AcDbEntity
  8
AM_REFDIM
100
AcDbLine
 10
446.2742341083443
 20
299.9276674361101
 30
0.0
 11
457.3996800922083
 21
299.9276674361101
 31
0.0
  0
LINE
  5
43C9
330
42C6
100
AcDbEntity
  8
AM_REFDIM
100
AcDbLine
 10
456.7996800922083
 20
305.8368891867149
 30
0.0
 11
456.7996800922083
 21
301.7276674361101
 31
0.0
  0
SOLID
  5
43CA
330
42C6
100
AcDbEntity
  8
AM_REFDIM
100
AcDbTrace
 10
456.4996800922083
 20
305.8368891867149
 30
0.0
 11
457.0996800922083
 21
305.8368891867149
 31
0.0
 12
456.7996800922083
 22
307.6368891867149
 32
0.0
 13
456.7996800922083
 23
307.6368891867149
 33
0.0
  0
SOLID
  5
43CB
330
42C6
100
AcDbEntity
  8
AM_REFDIM
100
AcDbTrace
 10
456.4996800922083
 20
301.7276674361101
 30
0.0
 11
457.0996800922083
 21
301.7276674361101
 31
0.0
 12
456.7996800922083
 22
299.9276674361101
 32
0.0
 13
456.7996800922083
 23
299.9276674361101
 33
0.0
  0
MTEXT
  5
43CC
330
42C6
100
AcDbEntity
  8
AM_REFDIM
100
AcDbMText
 10
455.1496800922082
 20
303.3817798978597
 30
0.0
 40
2.1
 41
0.0
 71
     5
 72
     1
  1
%%c7.71
 11
0.0000000000000001
 21
1.0
 31
0.0
 73
     1
 44
1.0
1001
ACAD
1000
MTEXTBEGIN
1070
    73
1070
     1
1070
    44
1040
1.0
1070
    74
1070
     0
1000
MTEXTEND
  0
POINT
  5
43CD
330
42C6
100
AcDbEntity
  8
Defpoints
 62
     0
100
AcDbPoint
 10
445.6742341083443
 20
307.6368891867149
 30
0.0
  0
POINT
  5
43CE
330
42C6
100
AcDbEntity
  8
Defpoints
 62
     0
100
AcDbPoint
 10
445.6742341083443
 20
299.9276674361101
 30
0.0
  0
POINT
  5
43CF
330
42C6
100
AcDbEntity
  8
Defpoints
 62
     0
100
AcDbPoint
 10
456.7996800922083
 20
299.9276674361101
 30
0.0
  0
ENDBLK
  5
42D3
330
42C6
100
AcDbEntity
  8
0
100
AcDbBlockEnd
  0
BLOCK
  5
42F0
330
42E6
100
AcDbEntity
  8
0
100
AcDbBlockBegin
  2
*D16
 70
     1
 10
0.0
 20
0.0
 30
0.0
  3
*D16
  1

  0
LINE
  5
42F2
330
42E6
100
AcDbEntity
  8
AM_5
100
AcDbLine
 10
478.6567143838178
 20
310.5285304502814
 30
0.0
 11
471.0941632806588
 21
310.5285304502814
 31
0.0
  0
LINE
  5
42F3
330
42E6
100
AcDbEntity
  8
AM_5
100
AcDbLine
 10
478.6567143838178
 20
324.5285304502814
 30
0.0
 11
471.0941632806588
 21
324.5285304502814
 31
0.0
  0
LINE
  5
42F4
330
42E6
100
AcDbEntity
  8
AM_5
100
AcDbLine
 10
472.0941632806588
 20
313.5285304502814
 30
0.0
 11
472.0941632806588
 21
321.5285304502814
 31
0.0
  0
SOLID
  5
42F5
330
42E6
100
AcDbEntity
  8
AM_5
100
AcDbTrace
 10
471.5941632806588
 20
313.5285304502814
 30
0.0
 11
472.5941632806588
 21
313.5285304502814
 31
0.0
 12
472.0941632806588
 22
310.5285304502814
 32
0.0
 13
472.0941632806588
 23
310.5285304502814
 33
0.0
  0
SOLID
  5
42F6
330
42E6
100
AcDbEntity
  8
AM_5
100
AcDbTrace
 10
471.5941632806588
 20
321.5285304502814
 30
0.0
 11
472.5941632806588
 21
321.5285304502814
 31
0.0
 12
472.0941632806588
 22
324.5285304502814
 32
0.0
 13
472.0941632806588
 23
324.5285304502814
 33
0.0
  0
MTEXT
  5
42F7
330
42E6
100
AcDbEntity
  8
AM_5
100
AcDbMText
 10
469.3441632806588
 20
317.5285304502815
 30
0.0
 40
3.5
 41
0.0
 71
     5
 72
     1
  1
%%c14
 11
0.0000000000000001
 21
1.0
 31
0.0
 73
     1
 44
1.0
1001
ACAD
1000
MTEXTBEGIN
1070
    73
1070
     1
1070
    44
1040
1.0
1070
    74
1070
     0
1000
MTEXTEND
  0
POINT
  5
42F8
330
42E6
100
AcDbEntity
  8
Defpoints
 62
     0
100
AcDbPoint
 10
479.6567143838178
 20
310.5285304502814
 30
0.0
  0
POINT
  5
42F9
330
42E6
100
AcDbEntity
  8
Defpoints
 62
     0
100
AcDbPoint
 10
479.6567143838178
 20
324.5285304502814
 30
0.0
  0
POINT
  5
42FA
330
42E6
100
AcDbEntity
  8
Defpoints
 62
     0
100
AcDbPoint
 10
472.0941632806588
 20
324.5285304502814
 30
0.0
  0
ENDBLK
  5
42F1
330
42E6
100
AcDbEntity
  8
0
100
AcDbBlockEnd
  0
BLOCK
  5
433F
330
4333
100
AcDbEntity
  8
0
100
AcDbBlockBegin
  2
*D17
 70
     1
 10
0.0
 20
0.0
 30
0.0
  3
*D17
  1

  0
LINE
  5
43D0
330
4333
100
AcDbEntity
  8
AM_REFDIM
100
AcDbLine
 10
446.2742341083441
 20
306.2822783114125
 30
0.0
 11
452.0435268730443
 21
306.2822783114125
 31
0.0
  0
LINE
  5
43D1
330
4333
100
AcDbEntity
  8
AM_REFDIM
100
AcDbLine
 10
446.2742341083441
 20
301.2822783114125
 30
0.0
 11
452.0435268730443
 21
301.2822783114125
 31
0.0
  0
LINE
  5
43D2
330
4333
100
AcDbEntity
  8
AM_REFDIM
100
AcDbLine
 10
451.4435268730442
 20
304.4822783114125
 30
0.0
 11
451.4435268730442
 21
303.0822783114125
 31
0.0
  0
SOLID
  5
43D3
330
4333
100
AcDbEntity
  8
AM_REFDIM
100
AcDbTrace
 10
451.1435268730442
 20
304.4822783114125
 30
0.0
 11
451.7435268730443
 21
304.4822783114125
 31
0.0
 12
451.4435268730442
 22
306.2822783114125
 32
0.0
 13
451.4435268730442
 23
306.2822783114125
 33
0.0
  0
SOLID
  5
43D4
330
4333
100
AcDbEntity
  8
AM_REFDIM
100
AcDbTrace
 10
451.1435268730442
 20
303.0822783114125
 30
0.0
 11
451.7435268730443
 21
303.0822783114125
 31
0.0
 12
451.4435268730442
 22
301.2822783114125
 32
0.0
 13
451.4435268730442
 23
301.2822783114125
 33
0.0
  0
MTEXT
  5
43D5
330
4333
100
AcDbEntity
  8
AM_REFDIM
100
AcDbMText
 10
449.7935268730442
 20
303.7822783114126
 30
0.0
 40
2.1
 41
0.0
 71
     5
 72
     1
  1
%%c5
 11
0.0000000000000001
 21
1.0
 31
0.0
 73
     1
 44
1.0
1001
ACAD
1000
MTEXTBEGIN
1070
    73
1070
     1
1070
    44
1040
1.0
1070
    74
1070
     0
1000
MTEXTEND
  0
POINT
  5
43D6
330
4333
100
AcDbEntity
  8
Defpoints
 62
     0
100
AcDbPoint
 10
445.6742341083441
 20
306.2822783114125
 30
0.0
  0
POINT
  5
43D7
330
4333
100
AcDbEntity
  8
Defpoints
 62
     0
100
AcDbPoint
 10
445.6742341083441
 20
301.2822783114125
 30
0.0
  0
POINT
  5
43D8
330
4333
100
AcDbEntity
  8
Defpoints
 62
     0
100
AcDbPoint
 10
451.4435268730442
 20
301.2822783114125
 30
0.0
  0
ENDBLK
  5
4340
330
4333
100
AcDbEntity
  8
0
100
AcDbBlockEnd
  0
ENDSEC
  0
SECTION
  2
ENTITIES
  0
TEXT
  5
179B
330
1F
100
AcDbEntity
  8
LOGO
 62
     7
100
AcDbText
 10
415.6192888117807
 20
248.2204623691517
 30
0.0
 40
1.343805393665158
  1
Order example:
 41
0.8
  7
CHINESET
100
AcDbText
  0
TEXT
  5
179C
330
1F
100
AcDbEntity
  8
LOGO
 62
     7
100
AcDbText
 10
415.8603786122228
 20
250.1122621249752
 30
0.0
 40
2.015708090497737
  1
訂購代號：
  7
CHINESET
100
AcDbText
  0
LINE
  5
179D
330
1F
100
AcDbEntity
  8
LOGO
 62
     4
100
AcDbLine
 10
415.0354008103074
 20
242.5571589878777
 30
0.0
 11
415.0354008103074
 21
252.6356994403664
 31
0.0
  0
TEXT
  5
179E
330
1F
100
AcDbEntity
  8
LOGO
  6
Continuous
100
AcDbText
 10
396.4828688492822
 20
244.5370730499254
 30
0.0
 40
1.511781067873303
  1
金器工業股份有限公司
  7
CHINESET
100
AcDbText
  0
TEXT
  5
179F
330
1F
100
AcDbEntity
  8
LOGO
  6
Continuous
100
AcDbText
 10
393.7060261187336
 20
243.024995791491
 30
0.0
 40
1.007854045248868
  1
MINDMAN INDUSTRIAL CO., LTD.
 41
0.85
  7
CHINESET
100
AcDbText
  0
LINE
  5
17A0
330
1F
100
AcDbEntity
  8
LOGO
 62
     4
100
AcDbLine
 10
415.0354008103074
 20
250.6199913498687
 30
0.0
 11
400.2535414799906
 21
250.6199913498687
 31
0.0
  0
LINE
  5
17A1
330
1F
100
AcDbEntity
  8
LOGO
 62
     4
100
AcDbLine
 10
415.0354008103074
 20
248.6042832593709
 30
0.0
 11
400.2535414799906
 21
248.6042832593709
 31
0.0
  0
LINE
  5
17A2
330
1F
100
AcDbEntity
  8
LOGO
 62
     4
100
AcDbLine
 10
415.0354008103074
 20
246.5885751688733
 30
0.0
 11
392.8626118148323
 21
246.5885751688733
 31
0.0
  0
LINE
  5
17A3
330
1F
100
AcDbEntity
  8
LOGO
 62
     4
100
AcDbLine
 10
400.2535414799906
 20
246.5885751688733
 30
0.0
 11
400.2535414799906
 21
252.6356994403664
 31
0.0
  0
TEXT
  5
17A4
330
1F
100
AcDbEntity
  8
LOGO
100
AcDbText
 10
410.356244639129
 20
247.0925021914976
 30
0.0
 40
1.007854045248868
  1
mm
  7
CHINESET
 72
     1
 11
411.6040639332466
 21
247.596429214122
 31
0.0
100
AcDbText
 73
     2
  0
TEXT
  5
17A5
330
1F
100
AcDbEntity
  8
LOGO
100
AcDbText
 10
409.8283210916176
 20
251.1239183724931
 30
0.0
 40
1.007854045248868
  1
1 : 1
  7
CHINESET
 72
     1
 11
411.6040639332466
 21
251.6278453951175
 31
0.0
100
AcDbText
 73
     2
  0
LINE
  5
17A6
330
1F
100
AcDbEntity
  8
LOGO
 62
     4
100
AcDbLine
 10
408.3163738419815
 20
246.5885751688733
 30
0.0
 11
408.3163738419815
 21
252.6356994403664
 31
0.0
  0
TEXT
  5
17A7
330
1F
100
AcDbEntity
  8
LOGO
100
AcDbText
 10
401.0845711324793
 20
251.1244143636571
 30
66.05309378306509
 40
1.007854045248868
  1
比例 Scale:
 41
0.9
  7
CHINESET
 72
     4
 11
404.284957660986
 21
251.6278453951175
 31
66.05309378306509
100
AcDbText
  0
TEXT
  5
17A8
330
1F
100
AcDbEntity
  8
LOGO
100
AcDbText
 10
401.0265295379092
 20
249.1223873627663
 30
66.05309378306509
 40
1.007854045248868
  1
投影  View:
 41
0.9
  7
CHINESET
 72
     4
 11
404.284957660986
 21
249.6121373046197
 31
66.05309378306509
100
AcDbText
  0
TEXT
  5
17A9
330
1F
100
AcDbEntity
  8
LOGO
100
AcDbText
 10
401.1250652682258
 20
247.0925021914976
 30
66.05309378306509
 40
1.007854045248868
  1
單位  Unit:
 41
0.9
  7
CHINESET
 72
     4
 11
404.284957660986
 21
247.596429214122
 31
66.05309378306509
100
AcDbText
  0
LWPOLYLINE
  5
17AA
330
1F
100
AcDbEntity
  8
LOGO
 62
     4
100
AcDbPolyline
 90
        4
 70
     1
 43
0.0
 10
392.8626118148323
 20
252.6356994403665
 10
465.171808555455
 20
252.6356994403664
 10
465.171808555455
 20
343.3571589878775
 10
392.8626118148323
 20
343.3571589878775
1001
GENIUS_GENREC_14
1002
{
1000
PYDIR
1011
392.8626118148323
1021
343.3571589878775
1031
0.0
1002
}
1002
{
1000
PXDIR
1011
465.171808555455
1021
252.6356994403664
1031
0.0
1002
}
1002
{
1000
PORI
1011
392.8626118148323
1021
252.6356994403665
1031
0.0
1002
}
1002
{
1000
PINS
1011
392.8626118148323
1021
252.6356994403665
1031
0.0
1002
}
1002
{
1000
PINS2
1011
465.171808555455
1021
343.3571589878775
1031
0.0
1002
}
1002
{
1000
C
1070
     1
1002
}
1001
GENIUS_GENODEF_13
1002
{
1000
HIER
1070
     0
1002
}
1002
{
1000
MANEDIT
1070
     0
1002
}
1002
{
1000
NOSEL
1070
     0
1002
}
1002
{
1000
BEHIND
1070
     0
1002
}
1002
{
1000
OTHER
1070
     0
1002
}
1002
{
1000
REACTOR
1002
}
1001
GENIUS_GENOBJ-N-REC_13
1002
{
1000
OWNER
1000
GEN
1002
}
  0
SOLID
  5
17AB
330
1F
100
AcDbEntity
  8
LOGO
 62
     5
100
AcDbTrace
 10
393.9082765616051
 20
248.2639890623727
 30
0.0
 11
394.3440462046805
 21
248.2639890623726
 31
0.0
 12
396.1622574740643
 22
252.3962874018815
 32
0.0
 13
396.59802711714
 23
252.3962874018812
 33
0.0
  0
SOLID
  5
17AC
330
1F
100
AcDbEntity
  8
LOGO
 62
     5
100
AcDbTrace
 10
394.5243646776777
 20
248.2639890623727
 30
0.0
 11
394.9601343207532
 21
248.2639890623727
 31
0.0
 12
396.59802711714
 22
252.0657035347206
 32
0.0
 13
396.1622574740643
 23
250.4678815101105
 33
0.0
  0
SOLID
  5
17AD
330
1F
100
AcDbEntity
  8
LOGO
 62
     2
100
AcDbTrace
 10
394.3440462046805
 20
248.2639890623726
 30
0.0
 11
394.5243646776777
 21
248.2639890623727
 31
0.0
 12
396.59802711714
 22
252.3962874018812
 32
0.0
 13
396.7783455901369
 23
252.3962874018812
 33
0.0
  0
SOLID
  5
17AE
330
1F
100
AcDbEntity
  8
LOGO
 62
     5
100
AcDbTrace
 10
393.2096309599485
 20
246.7613351207333
 30
0.0
 11
393.3598963541127
 21
246.7613351207333
 31
0.0
 12
393.7830553998019
 22
247.5126620915529
 32
0.0
 13
393.9333207939656
 23
247.5126620915529
 33
0.0
  0
SOLID
  5
17AF
330
1F
100
AcDbEntity
  8
LOGO
 62
     5
100
AcDbTrace
 10
393.7830553998019
 20
247.5126620915529
 30
0.0
 11
393.9333207939656
 21
247.5126620915529
 31
0.0
 12
393.7830553998019
 22
246.7613351207333
 32
0.0
 13
393.9333207939656
 23
246.7613351207333
 33
0.0
  0
SOLID
  5
17B0
330
1F
100
AcDbEntity
  8
LOGO
 62
     5
100
AcDbTrace
 10
393.7830553998019
 20
246.7613351207333
 30
0.0
 11
393.9333207939656
 21
246.7613351207333
 31
0.0
 12
394.3564798396555
 22
247.5126620915529
 32
0.0
 13
394.5067452338195
 23
247.5126620915529
 33
0.0
  0
SOLID
  5
17B1
330
1F
100
AcDbEntity
  8
LOGO
 62
     5
100
AcDbTrace
 10
394.3564798396555
 20
247.5126620915529
 30
0.0
 11
394.5067452338195
 21
247.5126620915529
 31
0.0
 12
394.3564798396555
 22
246.7613351207333
 32
0.0
 13
394.5067452338195
 23
246.7613351207333
 33
0.0
  0
POLYLINE
  5
17B2
330
1F
100
AcDbEntity
  8
LOGO
 62
     5
100
AcDb2dPolyline
 66
     1
 10
0.0
 20
0.0
 30
0.0
 40
0.1505062040904977
 41
0.1505062040904977
  0
VERTEX
  5
17B3
330
17B2
100
AcDbEntity
  8
LOGO
 62
     5
100
AcDbVertex
100
AcDb2dVertex
 10
399.3933246634795
 20
247.212131303225
 30
0.0
 42
1.0
  0
VERTEX
  5
17B4
330
17B2
100
AcDbEntity
  8
LOGO
 62
     5
100
AcDbVertex
100
AcDb2dVertex
 10
398.9418060512079
 20
247.212131303225
 30
0.0
 42
1.0
  0
SEQEND
  5
17B5
330
17B2
100
AcDbEntity
  8
LOGO
 62
     5
  0
POLYLINE
  5
17B6
330
1F
100
AcDbEntity
  8
LOGO
 62
     5
100
AcDb2dPolyline
 66
     1
 10
0.0
 20
0.0
 30
0.0
 70
     1
  0
VERTEX
  5
17B7
330
17B6
100
AcDbEntity
  8
LOGO
 62
     5
100
AcDbVertex
100
AcDb2dVertex
 10
398.0906733835281
 20
247.136998606143
 30
0.0
 42
1.000000057330635
  0
VERTEX
  5
17B8
330
17B6
100
AcDbEntity
  8
LOGO
 62
     5
100
AcDbVertex
100
AcDb2dVertex
 10
398.54146956602
 20
247.136998606143
 30
0.0
 42
1.000000057330635
  0
SEQEND
  5
17B9
330
17B6
100
AcDbEntity
  8
LOGO
 62
     5
  0
CIRCLE
  5
17BA
330
1F
100
AcDbEntity
  8
LOGO
 62
     5
100
AcDbCircle
 10
398.3160714747743
 20
247.136998606143
 30
0.0
 40
0.2253980912459294
  0
POLYLINE
  5
17BB
330
1F
100
AcDbEntity
  8
LOGO
 62
     5
100
AcDb2dPolyline
 66
     1
 10
0.0
 20
0.0
 30
0.0
 70
     1
 40
0.1505062040904977
 41
0.1505062040904977
  0
VERTEX
  5
17BC
330
17BB
100
AcDbEntity
  8
LOGO
 62
     5
100
AcDbVertex
100
AcDb2dVertex
 10
398.0150590665931
 20
247.136998606143
 30
0.0
 42
1.0
  0
VERTEX
  5
17BD
330
17BB
100
AcDbEntity
  8
LOGO
 62
     5
100
AcDbVertex
100
AcDb2dVertex
 10
398.6170838829551
 20
247.136998606143
 30
0.0
 42
1.0
  0
SEQEND
  5
17BE
330
17BB
100
AcDbEntity
  8
LOGO
 62
     5
  0
LINE
  5
17BF
330
1F
100
AcDbEntity
  8
LOGO
100
AcDbLine
 10
399.4680961456714
 20
246.7613351207333
 30
0.0
 11
399.4680961456714
 21
247.212131303225
 31
0.0
  0
SOLID
  5
17C0
330
1F
100
AcDbEntity
  8
LOGO
 62
     5
100
AcDbTrace
 10
398.5414545394812
 20
247.5126620915529
 30
0.0
 11
398.6917199336448
 21
247.5126620915529
 31
0.0
 12
398.5414545394812
 22
246.7613351207333
 32
0.0
 13
398.6917199336448
 23
246.7613351207333
 33
0.0
  0
SOLID
  5
17C1
330
1F
100
AcDbEntity
  8
LOGO
 62
     5
100
AcDbTrace
 10
398.8670345690156
 20
246.7613351207333
 30
0.0
 11
399.0172999631797
 21
246.7613351207333
 31
0.0
 12
398.8670345690156
 22
247.5126620915529
 32
0.0
 13
399.0172999631797
 23
247.5126620915529
 33
0.0
  0
SOLID
  5
17C2
330
1F
100
AcDbEntity
  8
LOGO
 62
     5
100
AcDbTrace
 10
399.3178307515078
 20
247.212131303225
 30
0.0
 11
399.4680961456714
 21
247.212131303225
 31
0.0
 12
399.3178307515078
 22
246.7613351207333
 32
0.0
 13
399.4680961456714
 23
246.7613351207333
 33
0.0
  0
SOLID
  5
17C3
330
1F
100
AcDbEntity
  8
LOGO
 62
     5
100
AcDbTrace
 10
398.8520080295992
 20
252.0657035347206
 30
0.0
 11
398.416238386524
 21
250.4678815101105
 31
0.0
 12
398.8520080295992
 22
248.2639890623726
 32
0.0
 13
398.416238386524
 23
248.2639890623726
 33
0.0
  0
SOLID
  5
17C4
330
1F
100
AcDbEntity
  8
LOGO
 62
     5
100
AcDbTrace
 10
399.0323265025962
 20
248.2639890623726
 30
0.0
 11
399.4680961456714
 21
248.2639890623726
 31
0.0
 12
399.0323265025962
 22
252.3962874018812
 32
0.0
 13
399.4680961456714
 23
252.3962874018815
 33
0.0
  0
SOLID
  5
17C5
330
1F
100
AcDbEntity
  8
LOGO
 62
     2
100
AcDbTrace
 10
398.8520080295992
 20
252.3962874018815
 30
0.0
 11
399.0323265025962
 21
252.3962874018812
 31
0.0
 12
398.8520080295992
 22
248.2639890623726
 32
0.0
 13
399.0323265025962
 23
248.2639890623726
 33
0.0
  0
POLYLINE
  5
17C6
330
1F
100
AcDbEntity
  8
LOGO
 62
     5
100
AcDb2dPolyline
 66
     1
 10
0.0
 20
0.0
 30
0.0
 40
0.1505062040904977
 41
0.1505062040904977
  0
VERTEX
  5
17C7
330
17C6
100
AcDbEntity
  8
LOGO
 62
     5
100
AcDbVertex
100
AcDb2dVertex
 10
397.2395106627699
 20
247.212131303225
 30
0.0
 42
1.0
  0
VERTEX
  5
17C8
330
17C6
100
AcDbEntity
  8
LOGO
 62
     5
100
AcDbVertex
100
AcDb2dVertex
 10
396.7879920504984
 20
247.212131303225
 30
0.0
 42
1.0
  0
SEQEND
  5
17C9
330
17C6
100
AcDbEntity
  8
LOGO
 62
     5
  0
POLYLINE
  5
17CA
330
1F
100
AcDbEntity
  8
LOGO
 62
     5
100
AcDb2dPolyline
 66
     1
 10
0.0
 20
0.0
 30
0.0
 40
0.1505062040904977
 41
0.1505062040904977
  0
VERTEX
  5
17CB
330
17CA
100
AcDbEntity
  8
LOGO
 62
     5
100
AcDbVertex
100
AcDb2dVertex
 10
397.6903068452614
 20
247.212131303225
 30
0.0
 42
1.0
  0
VERTEX
  5
17CC
330
17CA
100
AcDbEntity
  8
LOGO
 62
     5
100
AcDbVertex
100
AcDb2dVertex
 10
397.2387882329901
 20
247.212131303225
 30
0.0
 42
1.0
  0
SEQEND
  5
17CD
330
17CA
100
AcDbEntity
  8
LOGO
 62
     5
  0
POLYLINE
  5
17CE
330
1F
100
AcDbEntity
  8
LOGO
 62
     5
100
AcDb2dPolyline
 66
     1
 10
0.0
 20
0.0
 30
0.0
 40
0.1505062040904977
 41
0.1505062040904977
  0
VERTEX
  5
17CF
330
17CE
100
AcDbEntity
  8
LOGO
 62
     5
100
AcDbVertex
100
AcDb2dVertex
 10
395.5364928445519
 20
247.212131303225
 30
0.0
 42
1.0
  0
VERTEX
  5
17D0
330
17CE
100
AcDbEntity
  8
LOGO
 62
     5
100
AcDbVertex
100
AcDb2dVertex
 10
395.0849742322804
 20
247.212131303225
 30
0.0
 42
1.0
  0
SEQEND
  5
17D1
330
17CE
100
AcDbEntity
  8
LOGO
 62
     5
  0
SOLID
  5
17D2
330
1F
100
AcDbEntity
  8
LOGO
 62
     5
100
AcDbTrace
 10
395.0102027500884
 20
247.5126620915529
 30
0.0
 11
395.160468144252
 21
247.5126620915529
 31
0.0
 12
395.0102027500884
 22
246.7613351207333
 32
0.0
 13
395.160468144252
 23
246.7613351207333
 33
0.0
  0
SOLID
  5
17D3
330
1F
100
AcDbEntity
  8
LOGO
 62
     5
100
AcDbTrace
 10
395.4609989325803
 20
247.212131303225
 30
0.0
 11
395.6112643267444
 21
247.212131303225
 31
0.0
 12
395.4609989325803
 22
246.7613351207333
 32
0.0
 13
395.6112643267444
 23
246.7613351207333
 33
0.0
  0
POLYLINE
  5
17D4
330
1F
100
AcDbEntity
  8
LOGO
 62
     5
100
AcDb2dPolyline
 66
     1
 10
0.0
 20
0.0
 30
0.0
 70
     1
 40
0.1505062040904977
 41
0.1505062040904977
  0
VERTEX
  5
17D5
330
17D4
100
AcDbEntity
  8
LOGO
 62
     5
100
AcDbVertex
100
AcDb2dVertex
 10
395.8612450658833
 20
247.136998606143
 30
0.0
 42
1.0
  0
VERTEX
  5
17D6
330
17D4
100
AcDbEntity
  8
LOGO
 62
     5
100
AcDbVertex
100
AcDb2dVertex
 10
396.4632698822455
 20
247.136998606143
 30
0.0
 42
1.0
  0
SEQEND
  5
17D7
330
17D4
100
AcDbEntity
  8
LOGO
 62
     5
  0
SOLID
  5
17D8
330
1F
100
AcDbEntity
  8
LOGO
 62
     5
100
AcDbTrace
 10
396.3876405387712
 20
247.738060182799
 30
0.0
 11
396.5379059329351
 21
247.738060182799
 31
0.0
 12
396.3876405387712
 22
246.7613351207333
 32
0.0
 13
396.5379059329351
 23
246.7613351207333
 33
0.0
  0
SOLID
  5
17D9
330
1F
100
AcDbEntity
  8
LOGO
 62
     5
100
AcDbTrace
 10
396.7132205683066
 20
247.5126620915529
 30
0.0
 11
396.8634859624702
 21
247.5126620915529
 31
0.0
 12
396.7132205683066
 22
246.7613351207333
 32
0.0
 13
396.8634859624702
 23
246.7613351207333
 33
0.0
  0
SOLID
  5
17DA
330
1F
100
AcDbEntity
  8
LOGO
 62
     5
100
AcDbTrace
 10
397.1640167507979
 20
247.212131303225
 30
0.0
 11
397.314282144962
 21
247.212131303225
 31
0.0
 12
397.1640167507979
 22
246.7613351207333
 32
0.0
 13
397.314282144962
 23
246.7613351207333
 33
0.0
  0
SOLID
  5
17DB
330
1F
100
AcDbEntity
  8
LOGO
 62
     5
100
AcDbTrace
 10
397.6148129332898
 20
247.212131303225
 30
0.0
 11
397.7650783274537
 21
247.212131303225
 31
0.0
 12
397.6148129332898
 22
246.761335120733
 32
0.0
 13
397.7650783274537
 23
246.761335120733
 33
0.0
  0
SOLID
  5
17DC
330
1F
100
AcDbEntity
  8
LOGO
 62
     5
100
AcDbTrace
 10
394.6846227205532
 20
247.6178478674677
 30
0.0
 11
394.8348881147176
 21
247.6178478674677
 31
0.0
 12
394.6846227205532
 22
247.738060182799
 32
0.0
 13
394.8348881147176
 23
247.738060182799
 33
0.0
  0
SOLID
  5
17DD
330
1F
100
AcDbEntity
  8
LOGO
 62
     5
100
AcDbTrace
 10
394.6846227205532
 20
247.5126620915529
 30
0.0
 11
394.8348881147176
 21
247.5126620915529
 31
0.0
 12
394.6846227205532
 22
246.761335120733
 32
0.0
 13
394.8348881147176
 23
246.7613351207333
 33
0.0
  0
SOLID
  5
17DE
330
1F
100
AcDbEntity
  8
LOGO
 62
     5
100
AcDbTrace
 10
396.1622574740643
 20
248.2639890623727
 30
0.0
 11
396.59802711714
 21
248.2639890623727
 31
0.0
 12
396.1622574740643
 22
250.4678815101105
 32
0.0
 13
396.59802711714
 23
252.0657035347206
 33
0.0
  0
SOLID
  5
17DF
330
1F
100
AcDbEntity
  8
LOGO
 62
     5
100
AcDbTrace
 10
396.7783455901369
 20
252.3962874018812
 30
0.0
 11
397.2141152332122
 21
252.3962874018815
 31
0.0
 12
396.7783455901369
 22
248.5945729295333
 32
0.0
 13
397.2141152332122
 23
250.1923949541434
 33
0.0
  0
SOLID
  5
17E0
330
1F
100
AcDbEntity
  8
LOGO
 62
     2
100
AcDbTrace
 10
396.59802711714
 20
252.3962874018812
 30
0.0
 11
396.7783455901369
 21
252.3962874018812
 31
0.0
 12
396.59802711714
 22
248.2639890623727
 32
0.0
 13
396.7783455901369
 23
248.2639890623727
 33
0.0
  0
SOLID
  5
17E1
330
1F
100
AcDbEntity
  8
LOGO
 62
     5
100
AcDbTrace
 10
396.7783455901369
 20
248.5945729295333
 30
0.0
 11
397.2141152332122
 21
250.1923949541434
 31
0.0
 12
398.8520080295992
 22
252.3962874018815
 32
0.0
 13
398.416238386524
 23
252.3962874018815
 33
0.0
  0
SOLID
  5
17E2
330
1F
100
AcDbEntity
  8
LOGO
 62
     5
100
AcDbTrace
 10
396.7783455901369
 20
248.2639890623727
 30
0.0
 11
397.2141152332122
 21
248.2639890623727
 31
0.0
 12
398.8520080295992
 22
252.0657035347206
 32
0.0
 13
398.416238386524
 23
250.4678815101105
 33
0.0
  0
SOLID
  5
17E3
330
1F
100
AcDbEntity
  8
LOGO
 62
     2
100
AcDbTrace
 10
396.59802711714
 20
248.2639890623727
 30
0.0
 11
396.7783455901369
 21
248.2639890623727
 31
0.0
 12
398.8520080295992
 22
252.3962874018815
 32
0.0
 13
399.0323265025962
 23
252.3962874018812
 33
0.0
  0
LWPOLYLINE
  5
17E4
330
1F
100
AcDbEntity
  8
LOGO
 62
     4
100
AcDbPolyline
 90
        4
 70
     1
 43
0.0
 10
392.8626118148323
 20
252.6356994403665
 10
465.171808555455
 20
252.6356994403664
 10
465.171808555455
 20
242.5571589878776
 10
392.8626118148323
 20
242.5571589878776
1001
GENIUS_GENREC_14
1002
{
1000
PYDIR
1011
392.8626118148323
1021
242.5571589878776
1031
0.0
1002
}
1002
{
1000
PXDIR
1011
465.171808555455
1021
252.6356994403664
1031
0.0
1002
}
1002
{
1000
PORI
1011
392.8626118148323
1021
252.6356994403665
1031
0.0
1002
}
1002
{
1000
PINS
1011
392.8626118148323
1021
252.6356994403665
1031
0.0
1002
}
1002
{
1000
PINS2
1011
465.171808555455
1021
242.5571589878776
1031
0.0
1002
}
1002
{
1000
C
1070
     1
1002
}
1001
GENIUS_GENOBJ-N-REC_13
1002
{
1000
OWNER
1000
GEN
1002
}
1001
GENIUS_GENODEF_13
1002
{
1000
HIER
1070
     0
1002
}
1002
{
1000
MANEDIT
1070
     0
1002
}
1002
{
1000
NOSEL
1070
     0
1002
}
1002
{
1000
BEHIND
1070
     0
1002
}
1002
{
1000
OTHER
1070
     0
1002
}
1002
{
1000
REACTOR
1002
}
  0
LINE
  5
17E5
330
1F
100
AcDbEntity
  8
LOGO
 62
     4
100
AcDbLine
 10
437.4436265052698
 20
247.0925021914978
 30
0.0
 11
437.4436265052698
 21
243.3970373589183
 31
0.0
  0
LINE
  5
17E6
330
1F
100
AcDbEntity
  8
LOGO
 62
     4
100
AcDbLine
 10
430.724599536944
 20
247.0925021914978
 30
0.0
 11
430.724599536944
 21
243.3970373589183
 31
0.0
  0
LINE
  5
17E7
330
1F
100
AcDbEntity
  8
LOGO
 62
     4
100
AcDbLine
 10
437.4436265052698
 20
243.3970373589183
 30
0.0
 11
430.724599536944
 21
243.3970373589183
 31
0.0
  0
LINE
  5
17E8
330
1F
100
AcDbEntity
  8
LOGO
 62
     4
100
AcDbLine
 10
440.016818105329
 20
251.6278453951175
 30
0.0
 11
428.8979858943727
 21
251.6278453951175
 31
0.0
  0
LINE
  5
17E9
330
1F
100
AcDbEntity
  8
LOGO
 62
     4
100
AcDbLine
 10
440.016818105329
 20
248.6042832593709
 30
0.0
 11
428.8979858943727
 21
248.6042832593709
 31
0.0
  0
LINE
  5
17EA
330
1F
100
AcDbEntity
  8
LOGO
 62
     4
100
AcDbLine
 10
428.8979858943727
 20
251.6278453951175
 30
0.0
 11
428.8979858943727
 21
248.6042832593709
 31
0.0
  0
LINE
  5
17EB
330
1F
100
AcDbEntity
  8
LOGO
 62
     4
100
AcDbLine
 10
440.016818105329
 20
251.6278453951175
 30
0.0
 11
440.016818105329
 21
248.6042832593709
 31
0.0
  0
LINE
  5
17EC
330
1F
100
AcDbEntity
  8
LOGO
 62
     4
100
AcDbLine
 10
434.434677467738
 20
248.6042832593709
 30
0.0
 11
434.434677467738
 21
247.0925021914978
 31
0.0
  0
TEXT
  5
17ED
330
1F
100
AcDbEntity
  8
LOGO
  6
Continuous
100
AcDbText
 10
431.5385358152562
 20
249.2354474347606
 30
0.0
 40
1.679999999999999
  1
PHS-5
100
AcDbText
  0
LINE
  5
17EE
330
1F
100
AcDbEntity
  8
LOGO
 62
     4
100
AcDbLine
 10
437.4436265052698
 20
247.0925021914978
 30
0.0
 11
430.724599536944
 21
247.0925021914978
 31
0.0
  0
TEXT
  5
17EF
330
1F
100
AcDbEntity
  8
LOGO
  6
Continuous
100
AcDbText
 10
432.8807140189641
 20
243.9186443836217
 30
66.05309378306509
 40
0.7560000000000001
  1
Model
 41
0.8
  7
CHINESET
100
AcDbText
  0
TEXT
  5
17F0
330
1F
100
AcDbEntity
  8
LOGO
100
AcDbText
 10
432.6794913950124
 20
245.3201054539931
 30
66.05309378306509
 40
1.26
  1
型號
  7
CHINESET
100
AcDbText
  0
TEXT
  5
1824
330
1F
100
AcDbEntity
  8
LOGO
100
AcDbText
 10
415.4351747482912
 20
243.093333362014
 30
0.0
 40
1.008
  1
01205030
 41
0.7
  7
CHINESET
 72
     1
 11
417.9551747482912
 21
243.093333362014
 31
0.0
100
AcDbText
  0
LINE
  5
1825
330
1F
100
AcDbEntity
  8
LOGO
 62
     4
100
AcDbLine
 10
421.0834008103069
 20
244.5728670783756
 30
0.0
 11
421.0834008103074
 21
242.5571589878778
 31
0.0
  0
LINE
  5
1826
330
1F
100
AcDbEntity
  8
LOGO
 62
     4
100
AcDbLine
 10
421.0834008103069
 20
244.5728670783756
 30
0.0
 11
415.0354008103074
 21
244.5728670783756
 31
0.0
  0
CIRCLE
  5
1827
330
1F
100
AcDbEntity
  8
LOGO
  6
Continuous
100
AcDbCircle
 10
410.1825416671511
 20
249.6142931117979
 30
0.0
 40
0.5851837808815982
  0
CIRCLE
  5
1828
330
1F
100
AcDbEntity
  8
LOGO
  6
Continuous
100
AcDbCircle
 10
410.1825416671511
 20
249.6142931117979
 30
0.0
 40
0.342865892207461
  0
LINE
  5
1829
330
1F
100
AcDbEntity
  8
LOGO
100
AcDbLine
 10
413.8599044480654
 20
249.0291093309162
 30
0.0
 11
413.8599044480654
 21
250.1994768926796
 31
0.0
  0
LINE
  5
182A
330
1F
100
AcDbEntity
  8
LOGO
100
AcDbLine
 10
412.0253868861535
 20
249.2714272195905
 30
0.0
 11
412.0253868861535
 21
249.9571590040054
 31
0.0
  0
LINE
  5
182B
330
1F
100
AcDbEntity
  8
LOGO
  6
Continuous
100
AcDbLine
 10
412.0253868861535
 20
249.9571590040054
 30
0.0
 11
413.8599044480654
 21
250.1994768926796
 31
0.0
  0
LINE
  5
182C
330
1F
100
AcDbEntity
  8
LOGO
  6
Continuous
100
AcDbLine
 10
412.0253868861535
 20
249.2714272195905
 30
0.0
 11
413.8599044480654
 21
249.0291093309162
 31
0.0
  0
LINE
  5
182D
330
1F
100
AcDbEntity
  8
LOGO
  6
AM_ISO08W050x2
 48
0.3
100
AcDbLine
 10
409.3758570627686
 20
249.6142931117979
 30
0.0
 11
410.9892262715335
 21
249.6142931117979
 31
0.0
1001
GENIUS_GENOREF_13
1005
1832
  0
LINE
  5
182E
330
1F
100
AcDbEntity
  8
LOGO
  6
AM_ISO08W050x2
 48
0.3
100
AcDbLine
 10
410.1825416671511
 20
248.8076085074155
 30
0.0
 11
410.1825416671511
 21
250.4209777161803
 31
0.0
1001
GENIUS_GENOREF_13
1005
1831
  0
LINE
  5
182F
330
1F
100
AcDbEntity
  8
LOGO
  6
CENTER
 48
0.5
100
AcDbLine
 10
411.8786764713776
 20
249.6142931117979
 30
0.0
 11
414.0446344279104
 21
249.6142931117979
 31
0.0
1001
GENIUS_GENOREF_13
1005
1830
  0
POINT
  5
1830
330
1F
100
AcDbEntity
  8
0
 60
     1
100
AcDbPoint
 10
-1582.868394589036
 20
-798.6687030228181
 30
0.0
1001
GENIUS_GENOBJ-N-CRS_13
1002
{
1000
OWNER
1000
GEN
1002
}
1001
GENIUS_GENOLIS_13
1002
{
1000
ENT
1005
0
1005
0
1005
0
1005
182F
1002
}
1001
GENIUS_GENOENT_13
1002
{
1000
MYREF
1005
1830
1002
}
1002
{
1000
GRP
1005
0
1002
}
1001
GENIUS_GENODEF_13
1002
{
1000
HIER
1070
    10
1002
}
1002
{
1000
MANEDIT
1070
     1
1002
}
1002
{
1000
NOSEL
1070
     0
1002
}
1002
{
1000
BEHIND
1070
     0
1002
}
1002
{
1000
OTHER
1070
     0
1002
}
1002
{
1000
REACTOR
1002
}
  0
POINT
  5
1831
330
1F
100
AcDbEntity
  8
0
 60
     1
100
AcDbPoint
 10
-1594.19297981189
 20
-789.7931165441819
 30
0.0
1001
GENIUS_GENOBJ-N-CRS_13
1002
{
1000
OWNER
1000
GEN
1002
}
1001
GENIUS_GENOLIS_13
1002
{
1000
ENT
1005
0
1005
0
1005
0
1005
182E
1002
}
1001
GENIUS_GENOENT_13
1002
{
1000
MYREF
1005
1831
1002
}
1002
{
1000
GRP
1005
0
1002
}
1001
GENIUS_GENODEF_13
1002
{
1000
HIER
1070
    10
1002
}
1002
{
1000
MANEDIT
1070
     1
1002
}
1002
{
1000
NOSEL
1070
     0
1002
}
1002
{
1000
BEHIND
1070
     0
1002
}
1002
{
1000
OTHER
1070
     0
1002
}
1002
{
1000
REACTOR
1002
}
  0
POINT
  5
1832
330
1F
100
AcDbEntity
  8
0
 60
     1
100
AcDbPoint
 10
-1587.834306114053
 20
-798.6687030228181
 30
0.0
1001
GENIUS_GENOBJ-N-CRS_13
1002
{
1000
OWNER
1000
GEN
1002
}
1001
GENIUS_GENOLIS_13
1002
{
1000
ENT
1005
0
1005
0
1005
0
1005
182D
1002
}
1001
GENIUS_GENOENT_13
1002
{
1000
MYREF
1005
1832
1002
}
1002
{
1000
GRP
1005
0
1002
}
1001
GENIUS_GENODEF_13
1002
{
1000
HIER
1070
    10
1002
}
1002
{
1000
MANEDIT
1070
     1
1002
}
1002
{
1000
NOSEL
1070
     0
1002
}
1002
{
1000
BEHIND
1070
     0
1002
}
1002
{
1000
OTHER
1070
     0
1002
}
1002
{
1000
REACTOR
1002
}
  0
LINE
  5
3B9B
330
1F
100
AcDbEntity
  8
AM_7
100
AcDbLine
 10
407.8929245193031
 20
303.7822783114125
 30
0.0
 11
409.8929245193032
 21
303.7822783114125
 31
0.0
  0
LINE
  5
3B9C
330
1F
100
AcDbEntity
  8
AM_7
100
AcDbLine
 10
408.8929245193031
 20
302.7822783114125
 30
0.0
 11
408.8929245193031
 21
304.7822783114125
 31
0.0
  0
LINE
  5
3B9D
102
{ACAD_REACTORS
330
3F21
102
}
330
1F
100
AcDbEntity
  8
AM_7
100
AcDbLine
 10
399.292924519303
 20
303.7822783114125
 30
0.0
 11
407.0929245193032
 21
303.7822783114125
 31
0.0
  0
LINE
  5
3B9E
102
{ACAD_REACTORS
330
3F21
330
3F6D
102
}
330
1F
100
AcDbEntity
  8
AM_7
100
AcDbLine
 10
410.6929245193031
 20
303.7822783114125
 30
0.0
 11
418.492924519303
 21
303.7822783114125
 31
0.0
  0
LINE
  5
3B9F
330
1F
100
AcDbEntity
  8
AM_7
100
AcDbLine
 10
408.8929245193031
 20
294.1822783114125
 30
0.0
 11
408.8929245193031
 21
301.9822783114125
 31
0.0
  0
LINE
  5
3BA0
330
1F
100
AcDbEntity
  8
AM_7
100
AcDbLine
 10
408.8929245193031
 20
305.5822783114125
 30
0.0
 11
408.8929245193031
 21
313.3822783114124
 31
0.0
  0
ARC
  5
3DF7
102
{ACAD_REACTORS
330
3FB4
102
}
330
1F
100
AcDbEntity
  8
0
  6
Continuous
 62
     7
370
    15
100
AcDbCircle
 10
414.5929245193031
 20
280.4822783114125
 30
0.0
 40
0.2999999999999971
100
AcDbArc
 50
0.0
 51
90.0
  0
ARC
  5
3DF8
330
1F
100
AcDbEntity
  8
0
  6
Continuous
 62
     7
370
    15
100
AcDbCircle
 10
414.5929245193031
 20
277.0822783114125
 30
0.0
 40
0.2999999999999971
100
AcDbArc
 50
270.0
 51
0.0
  0
SPLINE
  5
3DF9
330
1F
100
AcDbEntity
  8
0
  6
Continuous
 62
     7
370
    15
100
AcDbSpline
210
0.0
220
0.0
230
1.0
 70
    24
 71
     1
 72
     4
 73
     2
 74
     0
 42
0.0000000001
 43
0.0000000001
 40
0.0
 40
0.0
 40
1.0
 40
1.0
 10
414.8929245193031
 20
277.0822783114125
 30
0.0
 10
414.8929245193031
 20
280.4822783114125
 30
0.0
  0
ARC
  5
3DFA
330
1F
100
AcDbEntity
  8
0
  6
Continuous
 62
     7
370
    15
100
AcDbCircle
 10
403.1929245193031
 20
277.0822783114125
 30
0.0
 40
0.3000000000000007
100
AcDbArc
 50
180.0
 51
270.0
  0
SPLINE
  5
3DFB
330
1F
100
AcDbEntity
  8
0
  6
Continuous
 62
     7
370
    15
100
AcDbSpline
210
0.0
220
0.0
230
1.0
 70
    24
 71
     1
 72
     4
 73
     2
 74
     0
 42
0.0000000001
 43
0.0000000001
 40
0.0
 40
0.0
 40
1.0
 40
1.0
 10
402.8929245193031
 20
280.4822783114125
 30
0.0
 10
402.8929245193031
 20
277.0822783114125
 30
0.0
  0
ARC
  5
3DFC
330
1F
100
AcDbEntity
  8
0
  6
Continuous
 62
     7
370
    15
100
AcDbCircle
 10
403.1929245193031
 20
280.4822783114125
 30
0.0
 40
0.3000000000000007
100
AcDbArc
 50
90.0
 51
180.0
  0
LINE
  5
3E03
330
1F
100
AcDbEntity
  8
0
  6
Continuous
 62
     7
370
    15
100
AcDbLine
 10
411.8319325126703
 20
276.7822783114125
 30
0.0
 11
405.953916525936
 21
276.7822783114125
 31
0.0
  0
LINE
  5
3E05
330
1F
100
AcDbEntity
  8
0
  6
Continuous
 62
     7
370
    15
100
AcDbLine
 10
413.7929245193032
 20
280.7822783114125
 30
0.0
 11
414.5929245193031
 21
280.7822783114125
 31
0.0
  0
LINE
  5
3E06
102
{ACAD_REACTORS
330
3F47
330
3F6D
330
3FB4
102
}
330
1F
100
AcDbEntity
  8
0
  6
Continuous
 62
     7
370
    15
100
AcDbLine
 10
414.5929245193031
 20
276.7822783114125
 30
0.0
 11
411.8319325126703
 21
276.7822783114125
 31
0.0
  0
LINE
  5
3E07
330
1F
100
AcDbEntity
  8
0
  6
Continuous
 62
     7
370
    15
100
AcDbLine
 10
405.953916525936
 20
276.7822783114125
 30
0.0
 11
403.1929245193031
 21
276.7822783114125
 31
0.0
  0
LINE
  5
3E0A
330
1F
100
AcDbEntity
  8
0
  6
Continuous
 62
     7
370
    15
100
AcDbLine
 10
403.1929245193031
 20
280.7822783114125
 30
0.0
 11
403.9929245193031
 21
280.7822783114125
 31
0.0
  0
LINE
  5
3E0B
330
1F
100
AcDbEntity
  8
0
  6
Continuous
 62
     7
370
    15
100
AcDbLine
 10
408.7929245193032
 20
296.267900033751
 30
0.0
 11
408.9929245193031
 21
296.267900033751
 31
0.0
  0
ARC
  5
3E0C
330
1F
100
AcDbEntity
  8
0
  6
Continuous
 62
     7
370
    15
100
AcDbCircle
 10
408.9929245193031
 20
300.6679000337511
 30
0.0
 40
4.400000000000048
100
AcDbArc
 50
270.0
 51
298.5739270969594
  0
ARC
  5
3E0D
330
1F
100
AcDbEntity
  8
0
  6
Continuous
 62
     7
370
    15
100
AcDbCircle
 10
408.7929245193032
 20
300.6679000337511
 30
0.0
 40
4.400000000000048
100
AcDbArc
 50
241.4260729030406
 51
270.0
  0
SPLINE
  5
3E0E
330
1F
100
AcDbEntity
  8
0
  6
Continuous
 62
     7
370
    15
100
AcDbSpline
210
0.0
220
0.0
230
1.0
 70
     8
 71
     3
 72
     8
 73
     4
 74
     0
 42
0.0000000001
 43
0.0000000001
 40
0.0
 40
0.0
 40
0.0
 40
0.0
 40
1.0
 40
1.0
 40
1.0
 40
1.0
 10
406.5500950892859
 20
296.8750068149299
 30
0.0
 10
406.5968246087043
 20
296.8523066504294
 30
0.0
 10
406.6429482961146
 20
296.8285920999267
 30
0.0
 10
406.6884385083739
 20
296.8038168786153
 30
0.0
  0
SPLINE
  5
3E0F
330
1F
100
AcDbEntity
  8
0
  6
Continuous
 62
     7
370
    15
100
AcDbSpline
210
0.0
220
0.0
230
1.0
 70
     8
 71
     3
 72
     8
 73
     4
 74
     0
 42
0.0000000001
 43
0.0000000001
 40
0.0
 40
0.0
 40
0.0
 40
0.0
 40
1.0
 40
1.0
 40
1.0
 40
1.0
 10
411.0974105302323
 20
296.8038168786153
 30
0.0
 10
411.1427888211779
 20
296.8285311444996
 30
0.0
 10
411.188910600512
 20
296.8522513546357
 30
0.0
 10
411.2357539493364
 20
296.8750068149375
 30
0.0
  0
LINE
  5
3E11
330
1F
100
AcDbEntity
  8
0
  6
Continuous
 62
     7
370
    15
100
AcDbLine
 10
404.3929245193031
 20
281.1822783114125
 30
0.0
 11
404.3929245193031
 21
295.3117411383638
 31
0.0
  0
LINE
  5
3E12
330
1F
100
AcDbEntity
  8
0
  6
Continuous
 62
     7
370
    15
100
AcDbLine
 10
413.3929245193031
 20
295.3117411383638
 30
0.0
 11
413.3929245193031
 21
281.1822783114125
 31
0.0
  0
ARC
  5
3E16
330
1F
100
AcDbEntity
  8
0
  6
Continuous
 62
     7
370
    15
100
AcDbCircle
 10
413.7929245193032
 20
281.1822783114125
 30
0.0
 40
0.3999999999999986
100
AcDbArc
 50
180.0
 51
270.0
  0
ARC
  5
3E17
330
1F
100
AcDbEntity
  8
0
  6
Continuous
 62
     7
370
    15
100
AcDbCircle
 10
403.9929245193031
 20
281.1822783114125
 30
0.0
 40
0.4000000000000057
100
AcDbArc
 50
270.0
 51
0.0
  0
SPLINE
  5
3E18
330
1F
100
AcDbEntity
  8
0
  6
Continuous
 62
     7
370
    15
100
AcDbSpline
210
0.0
220
0.0
230
1.0
 70
     8
 71
     3
 72
    10
 73
     6
 74
     0
 42
0.0000000001
 43
0.0000000001
 40
0.0
 40
0.0
 40
0.0
 40
0.0
 40
0.5
 40
0.5
 40
1.0
 40
1.0
 40
1.0
 40
1.0
 10
411.2357539493364
 20
296.8750068149376
 30
0.0
 10
411.3862224228764
 20
296.9481010633686
 30
0.0
 10
411.5364516608418
 20
297.0294227804808
 30
0.0
 10
411.8385526219712
 20
297.2037260767145
 30
0.0
 10
411.9914908406936
 20
297.2962109176603
 30
0.0
 10
412.1422255985045
 20
297.3969762858128
 30
0.0
  0
SPLINE
  5
3E19
330
1F
100
AcDbEntity
  8
0
  6
Continuous
 62
     7
370
    15
100
AcDbSpline
210
0.0
220
0.0
230
1.0
 70
     8
 71
     3
 72
     8
 73
     4
 74
     0
 42
0.0000000001
 43
0.0000000001
 40
0.0
 40
0.0
 40
0.0
 40
0.0
 40
1.0
 40
1.0
 40
1.0
 40
1.0
 10
412.5961382003031
 20
297.7000526909216
 30
0.0
 10
412.4435344252191
 20
297.6006561337813
 30
0.0
 10
412.2930647936282
 20
297.4978114697428
 30
0.0
 10
412.1422255985045
 20
297.3969762858129
 30
0.0
  0
CIRCLE
  5
3E1A
330
1F
100
AcDbEntity
  8
0
  6
Continuous
 62
     7
370
    15
100
AcDbCircle
 10
408.8929245193031
 20
303.7822783114125
 30
0.0
 40
3.854610875302462
  0
CIRCLE
  5
3E1B
330
1F
100
AcDbEntity
  8
0
  6
Continuous
 62
     7
370
    15
100
AcDbCircle
 10
408.8929245193031
 20
303.7822783114125
 30
0.0
 40
2.5
  0
CIRCLE
  5
3E1C
330
1F
100
AcDbEntity
  8
0
  6
Continuous
 62
     7
370
    15
100
AcDbCircle
 10
408.8929245193031
 20
303.7822783114125
 30
0.0
 40
4.313702006397747
  0
SPLINE
  5
3E1D
330
1F
100
AcDbEntity
  8
0
  6
Continuous
 62
     7
370
    15
100
AcDbSpline
210
0.0
220
0.0
230
1.0
 70
     8
 71
     3
 72
     8
 73
     4
 74
     0
 42
0.0000000001
 43
0.0000000001
 40
0.0
 40
0.0
 40
0.0
 40
0.0
 40
1.0
 40
1.0
 40
1.0
 40
1.0
 10
405.1897108383026
 20
297.7000526909222
 30
0.0
 10
405.3423146133853
 20
297.6006561337789
 30
0.0
 10
405.4927842449679
 20
297.4978114697274
 30
0.0
 10
405.6436234400945
 20
297.3969762858009
 30
0.0
  0
SPLINE
  5
3E1E
330
1F
100
AcDbEntity
  8
0
  6
Continuous
 62
     7
370
    15
100
AcDbSpline
210
0.0
220
0.0
230
1.0
 70
     8
 71
     3
 72
    10
 73
     6
 74
     0
 42
0.0000000001
 43
0.0000000001
 40
0.0
 40
0.0
 40
0.0
 40
0.0
 40
0.5
 40
0.5
 40
1.0
 40
1.0
 40
1.0
 40
1.0
 10
406.5500950892808
 20
296.8750068149323
 30
0.0
 10
406.3996266157401
 20
296.9481010633633
 30
0.0
 10
406.2493973777687
 20
297.0294227804784
 30
0.0
 10
405.9472964166379
 20
297.2037260767129
 30
0.0
 10
405.7943581979142
 20
297.296210917659
 30
0.0
 10
405.6436234401023
 20
297.3969762858118
 30
0.0
  0
LINE
  5
3E1F
330
1F
100
AcDbEntity
  8
0
  6
Continuous
 62
     7
370
    15
100
AcDbLine
 10
405.6436234400945
 20
297.3969762858009
 30
0.0
 11
405.6436234401028
 21
297.5821135961242
 31
0.0
  0
LINE
  5
3E20
330
1F
100
AcDbEntity
  8
0
  6
Continuous
 62
     7
370
    15
100
AcDbLine
 10
405.6436234401028
 20
297.5821135961242
 30
0.0
 11
412.1422255985036
 21
297.5821135961242
 31
0.0
  0
LINE
  5
3E21
330
1F
100
AcDbEntity
  8
0
  6
Continuous
 62
     7
370
    15
100
AcDbLine
 10
412.1422255985045
 20
297.3969762858129
 30
0.0
 11
412.1422255985036
 21
297.5821135961242
 31
0.0
  0
SPLINE
  5
3E22
330
1F
100
AcDbEntity
  8
0
  6
Continuous
 62
     7
370
    15
100
AcDbSpline
210
0.0
220
0.0
230
1.0
 70
     8
 71
     3
 72
     8
 73
     4
 74
     0
 42
0.0000000001
 43
0.0000000001
 40
0.0
 40
0.0
 40
0.0
 40
0.0
 40
1.0
 40
1.0
 40
1.0
 40
1.0
 10
405.1897108383026
 20
297.7000526909222
 30
0.0
 10
405.3398721779292
 20
297.6564988038214
 30
0.0
 10
405.491190214624
 20
297.6172334360681
 30
0.0
 10
405.6436234401028
 20
297.5821135961242
 30
0.0
  0
SPLINE
  5
3E23
330
1F
100
AcDbEntity
  8
0
  6
Continuous
 62
     7
370
    15
100
AcDbSpline
210
0.0
220
0.0
230
1.0
 70
     8
 71
     3
 72
     8
 73
     4
 74
     0
 42
0.0000000001
 43
0.0000000001
 40
0.0
 40
0.0
 40
0.0
 40
0.0
 40
1.0
 40
1.0
 40
1.0
 40
1.0
 10
412.1422255985036
 20
297.5821135961242
 30
0.0
 10
412.2946588239821
 20
297.6172334360681
 30
0.0
 10
412.445976860677
 20
297.6564988038214
 30
0.0
 10
412.5961382003034
 20
297.7000526909221
 30
0.0
  0
ARC
  5
3E24
102
{ACAD_REACTORS
330
3F21
102
}
330
1F
100
AcDbEntity
  8
0
  6
Continuous
 62
     7
370
    15
100
AcDbCircle
 10
408.8929245193031
 20
303.7822783114125
 30
0.0
 40
8.000000000000007
100
AcDbArc
 50
312.5795059561955
 51
227.4204940438045
  0
ARC
  5
3E25
330
1F
100
AcDbEntity
  8
0
  6
Continuous
 62
     7
370
    15
100
AcDbCircle
 10
408.8929245193038
 20
303.717065385922
 30
0.0
 40
7.065283670097157
100
AcDbArc
 50
301.6105178887467
 51
238.3894821111159
  0
CIRCLE
  5
3E26
330
1F
100
AcDbEntity
  8
0
  6
Continuous
 62
     7
370
    15
100
AcDbCircle
 10
408.8929245193031
 20
303.7822783114125
 30
0.0
 40
5.549999999999997
  0
ARC
  5
3E27
330
1F
100
AcDbEntity
  8
0
  6
Continuous
 62
     7
370
    15
100
AcDbCircle
 10
400.1873395612056
 20
295.274977794911
 30
0.0
 40
4.205745639384022
100
AcDbArc
 50
0.5008413315007871
 51
38.47300768922401
  0
ARC
  5
3E28
330
1F
100
AcDbEntity
  8
0
  6
Continuous
 62
     7
370
    15
100
AcDbCircle
 10
417.6005281775296
 20
295.2742634541197
 30
0.0
 40
4.207770564269935
100
AcDbArc
 50
141.5364785963923
 51
179.4896723828826
  0
ARC
  5
3E2D
330
1F
100
AcDbEntity
  8
0
  6
Continuous
 62
     7
370
    15
100
AcDbCircle
 10
439.1742341083442
 20
310.7822783114125
 30
0.0
 40
1.0
100
AcDbArc
 50
90.0
 51
180.0
  0
SPLINE
  5
3E2E
330
1F
100
AcDbEntity
  8
0
  6
Continuous
 62
     7
370
    15
100
AcDbSpline
210
0.0
220
0.0
230
1.0
 70
    24
 71
     1
 72
     4
 73
     2
 74
     0
 42
0.0000000001
 43
0.0000000001
 40
0.0
 40
0.0
 40
1.0
 40
1.0
 10
444.1742341083442
 20
311.7822783114125
 30
0.0
 10
439.1742341083442
 20
311.7822783114125
 30
0.0
  0
ARC
  5
3E2F
330
1F
100
AcDbEntity
  8
0
  6
Continuous
 62
     7
370
    15
100
AcDbCircle
 10
444.1742341083442
 20
310.7822783114125
 30
0.0
 40
1.0
100
AcDbArc
 50
0.0
 51
90.0
  0
ARC
  5
3E30
330
1F
100
AcDbEntity
  8
0
  6
Continuous
 62
     7
370
    15
100
AcDbCircle
 10
441.6742341083441
 20
303.7822783114125
 30
0.0
 40
5.554999999999996
100
AcDbArc
 50
223.9395741948726
 51
230.9452288203434
  0
ARC
  5
3E31
102
{ACAD_REACTORS
330
4004
102
}
330
1F
100
AcDbEntity
  8
0
  6
Continuous
 62
     7
370
    15
100
AcDbCircle
 10
441.6742341083441
 20
303.7822783114125
 30
0.0
 40
5.555000000000006
100
AcDbArc
 50
129.0547711796566
 51
136.0604258051318
  0
ARC
  5
3E32
102
{ACAD_REACTORS
330
42D5
102
}
330
1F
100
AcDbEntity
  8
0
  6
Continuous
 62
     7
370
    15
100
AcDbCircle
 10
441.6742341083441
 20
303.7822783114125
 30
0.0
 40
5.555000000000006
100
AcDbArc
 50
309.0547711796616
 51
316.0604258051319
  0
ARC
  5
3E33
102
{ACAD_REACTORS
330
4004
330
42D5
102
}
330
1F
100
AcDbEntity
  8
0
  6
Continuous
 62
     7
370
    15
100
AcDbCircle
 10
441.6742341083441
 20
303.7822783114125
 30
0.0
 40
5.555000000000006
100
AcDbArc
 50
43.9395741948681
 51
50.94522882034342
  0
ARC
  5
3E34
330
1F
100
AcDbEntity
  8
0
  6
Continuous
 62
     7
370
    15
100
AcDbCircle
 10
445.8742373072011
 20
280.5586428264106
 30
0.0
 40
0.2999968011327095
100
AcDbArc
 50
359.9890685491342
 51
31.02450469561522
  0
ARC
  5
3E35
330
1F
100
AcDbEntity
  8
0
  6
Continuous
 62
     7
370
    15
100
AcDbCircle
 10
437.4742309090083
 20
280.5586428264973
 30
0.0
 40
0.299996800653725
100
AcDbArc
 50
148.9925045225988
 51
180.0109314674336
  0
SPLINE
  5
3E36
330
1F
100
AcDbEntity
  8
0
  6
Continuous
 62
     7
370
    15
100
AcDbSpline
210
0.0
220
0.0
230
1.0
 70
     8
 71
     3
 72
    22
 73
    18
 74
     0
 42
0.0000000001
 43
0.0000000001
 40
0.0
 40
0.0
 40
0.0
 40
0.0
 40
0.0625000000000058
 40
0.0625000000000058
 40
0.0937500000000066
 40
0.0937500000000066
 40
0.1250000000000074
 40
0.1250000000000074
 40
0.1875000000000067
 40
0.1875000000000067
 40
0.2500000000000059
 40
0.2500000000000059
 40
0.500000000000004
 40
0.500000000000004
 40
0.750000000000002
 40
0.750000000000002
 40
1.0
 40
1.0
 40
1.0
 40
1.0
 10
438.1815697866385
 20
297.7000526909218
 30
0.0
 10
438.1847811483306
 20
297.6561682877994
 30
0.0
 10
438.1894013878055
 20
297.6087180587608
 30
0.0
 10
438.2044759049553
 20
297.5367154228589
 30
0.0
 10
438.2108102866197
 20
297.514185075162
 30
0.0
 10
438.2249761331645
 20
297.4771153268559
 30
0.0
 10
438.2326589935719
 20
297.4625930458024
 30
0.0
 10
438.2556763006308
 20
297.4283836086013
 30
0.0
 10
438.271235180812
 20
297.4164811522114
 30
0.0
 10
438.302667691001
 20
297.4004063562083
 30
0.0
 10
438.3188007449636
 20
297.3966319918154
 30
0.0
 10
438.4012641111004
 20
297.3894070204271
 30
0.0
 10
438.4750315198093
 20
297.4164347350606
 30
0.0
 10
438.6451460310869
 20
297.4967919376974
 30
0.0
 10
438.7405007018339
 20
297.552408779335
 30
0.0
 10
438.9498761726837
 20
297.6966754972656
 30
0.0
 10
439.0620457287737
 20
297.7844404134925
 30
0.0
 10
439.1742341083443
 20
297.8915651049775
 30
0.0
  0
LINE
  5
3E37
102
{ACAD_REACTORS
330
41EA
102
}
330
1F
100
AcDbEntity
  8
0
  6
Continuous
 62
     7
370
    15
100
AcDbLine
 10
438.1742341083443
 20
297.5821135961242
 30
0.0
 11
438.1742341083442
 21
310.7822783114125
 31
0.0
  0
SPLINE
  5
3E38
330
1F
100
AcDbEntity
  8
0
  6
Continuous
 62
     7
370
    15
100
AcDbSpline
210
0.0
220
0.0
230
1.0
 70
     8
 71
     3
 72
    10
 73
     6
 74
     0
 42
0.0000000001
 43
0.0000000001
 40
0.0
 40
0.0
 40
0.0
 40
0.0
 40
0.5000000000000001
 40
0.5000000000000001
 40
1.0
 40
1.0
 40
1.0
 40
1.0
 10
441.6742341083443
 20
298.1352535293801
 30
0.0
 10
442.0980814489685
 20
298.1352535293801
 30
0.0
 10
442.5183146169401
 20
298.1136907619489
 30
0.0
 10
443.3518976847738
 20
298.0308964269249
 30
0.0
 10
443.7664640137781
 20
297.9694381355791
 30
0.0
 10
444.1742341083442
 20
297.8915651049775
 30
0.0
  0
SPLINE
  5
3E39
330
1F
100
AcDbEntity
  8
0
  6
Continuous
 62
     7
370
    15
100
AcDbSpline
210
0.0
220
0.0
230
1.0
 70
     8
 71
     3
 72
    10
 73
     6
 74
     0
 42
0.0000000001
 43
0.0000000001
 40
0.0
 40
0.0
 40
0.0
 40
0.0
 40
0.5
 40
0.5
 40
1.0
 40
1.0
 40
1.0
 40
1.0
 10
439.1742341083443
 20
297.8915651049775
 30
0.0
 10
439.5818921043545
 20
297.9694167277947
 30
0.0
 10
439.9939997886511
 20
298.0305581592959
 30
0.0
 10
440.8275761103101
 20
298.1135171787808
 30
0.0
 10
441.2504768592858
 20
298.1352535293801
 30
0.0
 10
441.6742341083443
 20
298.1352535293801
 30
0.0
  0
LINE
  5
3E3A
102
{ACAD_REACTORS
330
41EA
102
}
330
1F
100
AcDbEntity
  8
0
  6
Continuous
 62
     7
370
    15
100
AcDbLine
 10
445.1742341083441
 20
310.7822783114125
 30
0.0
 11
445.1742341083443
 21
297.5821135961242
 31
0.0
  0
SPLINE
  5
3E3B
330
1F
100
AcDbEntity
  8
0
  6
Continuous
 62
     7
370
    15
100
AcDbSpline
210
0.0
220
0.0
230
1.0
 70
     8
 71
     3
 72
     8
 73
     4
 74
     0
 42
0.0000000001
 43
0.0000000001
 40
0.0
 40
0.0
 40
0.0
 40
0.0
 40
1.0
 40
1.0
 40
1.0
 40
1.0
 10
445.1668984300499
 20
297.7000526909222
 30
0.0
 10
445.1718787099263
 20
297.6564988038214
 30
0.0
 10
445.1742341083443
 20
297.6172334360681
 30
0.0
 10
445.1742341083443
 20
297.5821135961242
 30
0.0
  0
SPLINE
  5
3E3C
330
1F
100
AcDbEntity
  8
0
  6
Continuous
 62
     7
370
    15
100
AcDbSpline
210
0.0
220
0.0
230
1.0
 70
     8
 71
     3
 72
    22
 73
    18
 74
     0
 42
0.0000000001
 43
0.0000000001
 40
0.0
 40
0.0
 40
0.0
 40
0.0
 40
0.2500000000000009
 40
0.2500000000000009
 40
0.5000000000000019
 40
0.5000000000000019
 40
0.7500000000000029
 40
0.7500000000000029
 40
0.8125000000000028
 40
0.8125000000000028
 40
0.8750000000000033
 40
0.8750000000000033
 40
0.9062500000000024
 40
0.9062500000000024
 40
0.9375000000000017
 40
0.9375000000000017
 40
1.0
 40
1.0
 40
1.0
 40
1.0
 10
444.1742341083442
 20
297.8915651049775
 30
0.0
 10
444.2863634879578
 20
297.7844967504519
 30
0.0
 10
444.3980809933957
 20
297.6970602054538
 30
0.0
 10
444.6075484901808
 20
297.5526650685183
 30
0.0
 10
444.7026213666966
 20
297.4971885099088
 30
0.0
 10
444.872686801914
 20
297.4167239952279
 30
0.0
 10
444.946731639785
 20
297.3896193414507
 30
0.0
 10
445.0289965922611
 20
297.396511299844
 30
0.0
 10
445.0450267362874
 20
297.4001428473846
 30
0.0
 10
445.07669320038
 20
297.4160782476628
 30
0.0
 10
445.0919401366612
 20
297.4275484997727
 30
0.0
 10
445.1150419468863
 20
297.4612535867761
 30
0.0
 10
445.1227531058215
 20
297.475499372864
 30
0.0
 10
445.1372304278248
 20
297.5127732475064
 30
0.0
 10
445.1436891719223
 20
297.5355322662895
 30
0.0
 10
445.1588525371046
 20
297.60718594384
 30
0.0
 10
445.1636575087112
 20
297.6557643446844
 30
0.0
 10
445.1668984300499
 20
297.7000526909222
 30
0.0
  0
SPLINE
  5
3E42
330
1F
100
AcDbEntity
  8
0
  6
Continuous
 62
     7
370
    15
100
AcDbSpline
210
0.0
220
0.0
230
1.0
 70
     8
 71
     3
 72
    10
 73
     6
 74
     0
 42
0.0000000001
 43
0.0000000001
 40
0.0
 40
0.0
 40
0.0
 40
0.0
 40
0.5
 40
0.5
 40
1.0
 40
1.0
 40
1.0
 40
1.0
 10
446.1742341083442
 20
277.0822783114125
 30
0.0
 10
446.1742341083442
 20
277.0022190101319
 30
0.0
 10
446.140901801028
 20
276.9241533848821
 30
0.0
 10
446.0297789075935
 20
276.814097465456
 30
0.0
 10
445.9515180661456
 20
276.7822783114125
 30
0.0
 10
445.8742341083442
 20
276.7822783114125
 30
0.0
  0
LINE
  5
3E43
102
{ACAD_REACTORS
330
4056
102
}
330
1F
100
AcDbEntity
  8
0
  6
Continuous
 62
     7
370
    15
100
AcDbLine
 10
445.8742341083442
 20
276.7822783114125
 30
0.0
 11
437.4742341083442
 21
276.7822783114125
 31
0.0
  0
SPLINE
  5
3E44
330
1F
100
AcDbEntity
  8
0
  6
Continuous
 62
     7
370
    15
100
AcDbSpline
210
0.0
220
0.0
230
1.0
 70
     8
 71
     3
 72
    10
 73
     6
 74
     0
 42
0.0000000001
 43
0.0000000001
 40
0.0
 40
0.0
 40
0.0
 40
0.0
 40
0.5
 40
0.5
 40
1.0
 40
1.0
 40
1.0
 40
1.0
 10
437.1742341083443
 20
277.0822783114125
 30
0.0
 10
437.1742341083443
 20
277.0022190101319
 30
0.0
 10
437.2075664156605
 20
276.9241533848821
 30
0.0
 10
437.3186893090949
 20
276.814097465456
 30
0.0
 10
437.3969501505428
 20
276.7822783114125
 30
0.0
 10
437.4742341083442
 20
276.7822783114125
 30
0.0
  0
LINE
  5
3E45
330
1F
100
AcDbEntity
  8
0
  6
Continuous
 62
     7
370
    15
100
AcDbLine
 10
446.1742341083441
 20
280.5586715136625
 30
0.0
 11
446.1742341083442
 21
277.0822783114125
 31
0.0
  0
LINE
  5
3E46
330
1F
100
AcDbEntity
  8
0
  6
Continuous
 62
     7
370
    15
100
AcDbLine
 10
437.1742341083442
 20
280.5586715136625
 30
0.0
 11
437.1742341083443
 21
277.0822783114125
 31
0.0
  0
SPLINE
  5
3E47
330
1F
100
AcDbEntity
  8
0
  6
Continuous
 62
     7
370
    15
100
AcDbSpline
210
0.0
220
0.0
230
1.0
 70
     8
 71
     3
 72
     8
 73
     4
 74
     0
 42
0.0000000001
 43
0.0000000001
 40
0.0
 40
0.0
 40
0.0
 40
0.0
 40
1.0
 40
1.0
 40
1.0
 40
1.0
 10
445.1668984300499
 20
297.7000526909222
 30
0.0
 10
445.1662240521041
 20
297.6006561337789
 30
0.0
 10
445.1725246880925
 20
297.4978114697274
 30
0.0
 10
445.1915214462064
 20
297.3969762858009
 30
0.0
  0
SPLINE
  5
3E48
330
1F
100
AcDbEntity
  8
0
  6
Continuous
 62
     7
370
    15
100
AcDbSpline
210
0.0
220
0.0
230
1.0
 70
     8
 71
     3
 72
    10
 73
     6
 74
     0
 42
0.0000000001
 43
0.0000000001
 40
0.0
 40
0.0
 40
0.0
 40
0.0
 40
0.5
 40
0.5
 40
1.0
 40
1.0
 40
1.0
 40
1.0
 10
445.4671273271629
 20
296.8750068149323
 30
0.0
 10
445.3940330787308
 20
296.9481010633633
 30
0.0
 10
445.3350500561491
 20
297.0294227804784
 30
0.0
 10
445.2433636037564
 20
297.2037260767129
 30
0.0
 10
445.210505051434
 20
297.296210917659
 30
0.0
 10
445.1915214462042
 20
297.3969762858118
 30
0.0
  0
SPLINE
  5
3E49
330
1F
100
AcDbEntity
  8
0
  6
Continuous
 62
     7
370
    15
100
AcDbSpline
210
0.0
220
0.0
230
1.0
 70
    24
 71
     3
 72
     8
 73
     4
 74
     0
 42
0.0000000001
 43
0.0000000001
 40
0.0
 40
0.0
 40
0.0
 40
0.0
 40
1.0
 40
1.0
 40
1.0
 40
1.0
 10
445.4671273271655
 20
296.8750068149299
 30
0.0
 10
445.4898274916659
 20
296.8523066504294
 30
0.0
 10
445.5135420421686
 20
296.8285920999267
 30
0.0
 10
445.5383172634799
 20
296.8038168786153
 30
0.0
  0
SPLINE
  5
3E4A
330
1F
100
AcDbEntity
  8
0
  6
Continuous
 62
     7
370
    15
100
AcDbSpline
210
0.0
220
0.0
230
1.0
 70
    24
 71
     3
 72
     8
 73
     4
 74
     0
 42
0.0000000001
 43
0.0000000001
 40
0.0
 40
0.0
 40
0.0
 40
0.0
 40
1.0
 40
1.0
 40
1.0
 40
1.0
 10
437.8101509532085
 20
296.8038168786153
 30
0.0
 10
437.8348650905791
 20
296.8285310159858
 30
0.0
 10
437.858585312074
 20
296.8522512374808
 30
0.0
 10
437.8813408895307
 20
296.8750068149375
 30
0.0
  0
SPLINE
  5
3E4B
330
1F
100
AcDbEntity
  8
0
  6
Continuous
 62
     7
370
    15
100
AcDbSpline
210
0.0
220
0.0
230
1.0
 70
     8
 71
     3
 72
    10
 73
     6
 74
     0
 42
0.0000000001
 43
0.0000000001
 40
0.0
 40
0.0
 40
0.0
 40
0.0
 40
0.5
 40
0.5
 40
1.0
 40
1.0
 40
1.0
 40
1.0
 10
437.8813408895307
 20
296.8750068149376
 30
0.0
 10
437.9544351379619
 20
296.9481010633686
 30
0.0
 10
438.0134181605408
 20
297.0294227804808
 30
0.0
 10
438.1051046129327
 20
297.2037260767146
 30
0.0
 10
438.1379631652548
 20
297.2962109176604
 30
0.0
 10
438.1569467704845
 20
297.3969762858128
 30
0.0
  0
SPLINE
  5
3E4C
330
1F
100
AcDbEntity
  8
0
  6
Continuous
 62
     7
370
    15
100
AcDbSpline
210
0.0
220
0.0
230
1.0
 70
     8
 71
     3
 72
     8
 73
     4
 74
     0
 42
0.0000000001
 43
0.0000000001
 40
0.0
 40
0.0
 40
0.0
 40
0.0
 40
1.0
 40
1.0
 40
1.0
 40
1.0
 10
438.1815697866384
 20
297.7000526909216
 30
0.0
 10
438.1822441645839
 20
297.6006561337802
 30
0.0
 10
438.1759435285977
 20
297.4978114697428
 30
0.0
 10
438.1569467704845
 20
297.3969762858129
 30
0.0
  0
LINE
  5
3E52
330
1F
100
AcDbEntity
  8
0
  6
Continuous
 62
     7
370
    15
100
AcDbLine
 10
437.2742341083442
 20
296.267900033751
 30
0.0
 11
437.8101509532085
 21
296.8038168786153
 31
0.0
  0
LINE
  5
3E55
330
1F
100
AcDbEntity
  8
0
  6
Continuous
 62
     7
370
    15
100
AcDbLine
 10
437.2742341083442
 20
280.9192266412089
 30
0.0
 11
437.2742341083442
 21
296.267900033751
 31
0.0
  0
LINE
  5
3E56
330
1F
100
AcDbEntity
  8
0
  6
Continuous
 62
     7
370
    15
100
AcDbLine
 10
445.5383172634799
 20
296.8038168786153
 30
0.0
 11
446.0742341083443
 21
296.267900033751
 31
0.0
  0
LINE
  5
3E57
330
1F
100
AcDbEntity
  8
0
  6
Continuous
 62
     7
370
    15
100
AcDbLine
 10
446.0742341083443
 20
296.267900033751
 30
0.0
 11
446.0742341083443
 21
280.9192266412089
 31
0.0
  0
LINE
  5
3E5A
330
1F
100
AcDbEntity
  8
0
  6
Continuous
 62
     7
370
    15
100
AcDbLine
 10
437.6742341083441
 20
299.92766743611
 30
0.0
 11
437.6742341083441
 21
307.636889186715
 31
0.0
  0
LINE
  5
3E5B
330
1F
100
AcDbEntity
  8
0
  6
Continuous
 62
     7
370
    15
100
AcDbLine
 10
445.6742341083441
 20
299.92766743611
 30
0.0
 11
445.6742341083441
 21
307.636889186715
 31
0.0
  0
ARC
  5
3E5C
330
1F
100
AcDbEntity
  8
0
  6
Continuous
 62
     7
370
    15
100
AcDbCircle
 10
446.1742341083443
 20
297.5821135961242
 30
0.0
 40
1.0
100
AcDbArc
 50
180.0
 51
190.6691379915995
  0
ARC
  5
3E5D
330
1F
100
AcDbEntity
  8
0
  6
Continuous
 62
     7
370
    15
100
AcDbCircle
 10
437.1742341083443
 20
297.5821135961242
 30
0.0
 40
1.0
100
AcDbArc
 50
349.3308620091096
 51
0.0
  0
ARC
  5
3E60
330
1F
100
AcDbEntity
  8
0
  6
Continuous
 62
     7
370
    15
100
AcDbCircle
 10
436.8742341083442
 20
280.9192266412089
 30
0.0
 40
0.3999999999999924
100
AcDbArc
 50
328.9972808661285
 51
0.0
  0
ARC
  5
3E61
330
1F
100
AcDbEntity
  8
0
  6
Continuous
 62
     7
370
    15
100
AcDbCircle
 10
437.4742341083442
 20
280.5586715136625
 30
0.0
 40
0.3000000000000035
100
AcDbArc
 50
148.9972808661285
 51
180.0
  0
ARC
  5
3E62
330
1F
100
AcDbEntity
  8
0
  6
Continuous
 62
     7
370
    15
100
AcDbCircle
 10
446.4742341083442
 20
280.9192266412089
 30
0.0
 40
0.3999999999999924
100
AcDbArc
 50
180.0
 51
211.0027191338715
  0
LINE
  5
3E63
330
1F
100
AcDbEntity
  8
0
  6
Continuous
 62
     7
370
    15
100
AcDbLine
 10
439.1742341083442
 20
311.7822783114125
 30
0.0
 11
439.1742341083443
 21
297.8915651049775
 31
0.0
  0
SPLINE
  5
3E64
330
1F
100
AcDbEntity
  8
0
  6
Continuous
 62
     7
370
    15
100
AcDbSpline
210
0.0
220
0.0
230
1.0
 70
    24
 71
     1
 72
     4
 73
     2
 74
     0
 42
0.0000000001
 43
0.0000000001
 40
0.0
 40
0.0
 40
1.0
 40
1.0
 10
438.1800769674105
 20
297.6760519453349
 30
0.0
 10
438.1815697866385
 20
297.7000526909221
 30
0.0
  0
LINE
  5
3E65
330
1F
100
AcDbEntity
  8
0
  6
Continuous
 62
     7
370
    15
100
AcDbLine
 10
444.1742341083442
 20
297.8915651049775
 30
0.0
 11
444.1742341083442
 21
311.7822783114125
 31
0.0
  0
SPLINE
  5
3E68
330
1F
100
AcDbEntity
  8
0
  6
HIDDEN
 62
     7
370
     0
100
AcDbSpline
210
0.0
220
0.0
230
1.0
 70
     8
 71
     3
 72
    22
 73
    18
 74
     0
 42
0.0000000001
 43
0.0000000001
 40
0.0
 40
0.0
 40
0.0
 40
0.0
 40
0.249999999999999
 40
0.249999999999999
 40
0.4999999999999981
 40
0.4999999999999981
 40
0.749999999999997
 40
0.749999999999997
 40
0.8124999999999968
 40
0.8124999999999968
 40
0.8749999999999966
 40
0.8749999999999966
 40
0.9062499999999975
 40
0.9062499999999975
 40
0.9374999999999982
 40
0.9374999999999982
 40
1.0
 40
1.0
 40
1.0
 40
1.0
 10
439.1742341083442
 20
297.8915651049775
 30
0.0
 10
439.0621047287306
 20
297.7844967504519
 30
0.0
 10
438.9503872232928
 20
297.6970602054538
 30
0.0
 10
438.7409197265076
 20
297.5526650685183
 30
0.0
 10
438.6458468499918
 20
297.4971885099088
 30
0.0
 10
438.4757814147745
 20
297.4167239952279
 30
0.0
 10
438.4017365769034
 20
297.3896193414507
 30
0.0
 10
438.3194716244274
 20
297.396511299844
 30
0.0
 10
438.3034414804011
 20
297.4001428473846
 30
0.0
 10
438.2717750163085
 20
297.4160782476628
 30
0.0
 10
438.2565280800272
 20
297.4275484997727
 30
0.0
 10
438.2334262698021
 20
297.4612535867761
 30
0.0
 10
438.2257151108669
 20
297.4754993728639
 30
0.0
 10
438.2112377888637
 20
297.5127732475064
 30
0.0
 10
438.2047790447662
 20
297.5355322662895
 30
0.0
 10
438.1896156795838
 20
297.60718594384
 30
0.0
 10
438.1848107079772
 20
297.6557643446844
 30
0.0
 10
438.1815697866385
 20
297.7000526909222
 30
0.0
  0
SPLINE
  5
3E69
330
1F
100
AcDbEntity
  8
0
  6
HIDDEN
 62
     7
370
     0
100
AcDbSpline
210
0.0
220
0.0
230
1.0
 70
     8
 71
     3
 72
    10
 73
     6
 74
     0
 42
0.0000000001
 43
0.0000000001
 40
0.0
 40
0.0
 40
0.0
 40
0.0
 40
0.5
 40
0.5
 40
1.0
 40
1.0
 40
1.0
 40
1.0
 10
441.6742341083441
 20
298.1352535293801
 30
0.0
 10
441.25038676772
 20
298.1352535293801
 30
0.0
 10
440.8301535997483
 20
298.1136907619489
 30
0.0
 10
439.9965705319146
 20
298.0308964269249
 30
0.0
 10
439.5820042029103
 20
297.9694381355791
 30
0.0
 10
439.1742341083442
 20
297.8915651049775
 30
0.0
  0
SPLINE
  5
3E6A
330
1F
100
AcDbEntity
  8
0
  6
HIDDEN
 62
     7
370
     0
100
AcDbSpline
210
0.0
220
0.0
230
1.0
 70
     8
 71
     3
 72
    10
 73
     6
 74
     0
 42
0.0000000001
 43
0.0000000001
 40
0.0
 40
0.0
 40
0.0
 40
0.0
 40
0.5
 40
0.5
 40
1.0
 40
1.0
 40
1.0
 40
1.0
 10
444.1742341083442
 20
297.8915651049775
 30
0.0
 10
443.7665761123339
 20
297.9694167277947
 30
0.0
 10
443.3544684280373
 20
298.0305581592959
 30
0.0
 10
442.5208921063783
 20
298.1135171787808
 30
0.0
 10
442.0979913574027
 20
298.1352535293801
 30
0.0
 10
441.6742341083441
 20
298.1352535293801
 30
0.0
  0
SPLINE
  5
3E6B
330
1F
100
AcDbEntity
  8
0
  6
HIDDEN
 62
     7
370
     0
100
AcDbSpline
210
0.0
220
0.0
230
1.0
 70
     8
 71
     3
 72
    22
 73
    18
 74
     0
 42
0.0000000001
 43
0.0000000001
 40
0.0
 40
0.0
 40
0.0
 40
0.0
 40
0.0624999999999973
 40
0.0624999999999973
 40
0.093749999999998
 40
0.093749999999998
 40
0.1249999999999988
 40
0.1249999999999988
 40
0.1874999999999985
 40
0.1874999999999985
 40
0.2499999999999987
 40
0.2499999999999987
 40
0.4999999999999992
 40
0.4999999999999992
 40
0.7499999999999996
 40
0.7499999999999996
 40
1.0
 40
1.0
 40
1.0
 40
1.0
 10
445.1668984300498
 20
297.7000526909218
 30
0.0
 10
445.1636870683578
 20
297.6561682877994
 30
0.0
 10
445.1590668288829
 20
297.6087180587608
 30
0.0
 10
445.1439923117332
 20
297.5367154228589
 30
0.0
 10
445.1376579300688
 20
297.514185075162
 30
0.0
 10
445.1234920835239
 20
297.4771153268559
 30
0.0
 10
445.1158092231166
 20
297.4625930458024
 30
0.0
 10
445.0927919160576
 20
297.4283836086013
 30
0.0
 10
445.0772330358764
 20
297.4164811522114
 30
0.0
 10
445.0458005256875
 20
297.4004063562083
 30
0.0
 10
445.0296674717248
 20
297.3966319918155
 30
0.0
 10
444.947204105588
 20
297.3894070204271
 30
0.0
 10
444.8734366968791
 20
297.4164347350606
 30
0.0
 10
444.7033221856016
 20
297.4967919376974
 30
0.0
 10
444.6079675148545
 20
297.552408779335
 30
0.0
 10
444.3985920440048
 20
297.6966754972656
 30
0.0
 10
444.2864224879148
 20
297.7844404134925
 30
0.0
 10
444.1742341083442
 20
297.8915651049775
 30
0.0
  0
LINE
  5
3E6F
102
{ACAD_REACTORS
330
4056
102
}
330
1F
100
AcDbEntity
  8
AM_4
100
AcDbLine
 10
444.1742341083442
 20
290.7822783114125
 30
0.0
 11
439.1742341083442
 21
290.7822783114125
 31
0.0
  0
ARC
  5
3E72
330
1F
100
AcDbEntity
  8
0
  6
HIDDEN
 62
     7
370
     0
100
AcDbCircle
 10
445.8742341083442
 20
280.5586715136625
 30
0.0
 40
0.2999999999999913
100
AcDbArc
 50
0.0
 51
31.00271913387147
  0
SPLINE
  5
3E88
330
1F
100
AcDbEntity
  8
AM_4
100
AcDbSpline
210
0.0
220
0.0
230
1.0
 70
    24
 71
     1
 72
     4
 73
     2
 74
     0
 42
0.0000000001
 43
0.0000000001
 40
0.0
 40
0.0
 40
1.0
 40
1.0
 10
445.6742341083441
 20
306.2822783114125
 30
0.0
 10
437.6742341083441
 20
306.2822783114125
 30
0.0
  0
SPLINE
  5
3E89
330
1F
100
AcDbEntity
  8
AM_4
100
AcDbSpline
210
0.0
220
0.0
230
1.0
 70
    24
 71
     1
 72
     4
 73
     2
 74
     0
 42
0.0000000001
 43
0.0000000001
 40
0.0
 40
0.0
 40
1.0
 40
1.0
 10
437.6742341083441
 20
301.2822783114125
 30
0.0
 10
445.6742341083441
 20
301.2822783114125
 30
0.0
  0
SPLINE
  5
3E8A
330
1F
100
AcDbEntity
  8
AM_4
100
AcDbSpline
210
0.0
220
0.0
230
1.0
 70
    24
 71
     1
 72
     4
 73
     2
 74
     0
 42
0.0000000001
 43
0.0000000001
 40
0.0
 40
0.0
 40
1.0
 40
1.0
 10
444.1742341083442
 20
276.7822783114125
 30
0.0
 10
444.1742341083442
 20
290.7822783114125
 30
0.0
  0
SPLINE
  5
3E8B
330
1F
100
AcDbEntity
  8
AM_4
100
AcDbSpline
210
0.0
220
0.0
230
1.0
 70
    24
 71
     1
 72
     4
 73
     2
 74
     0
 42
0.0000000001
 43
0.0000000001
 40
0.0
 40
0.0
 40
1.0
 40
1.0
 10
439.1742341083442
 20
290.7822783114125
 30
0.0
 10
439.1742341083442
 20
276.7822783114125
 30
0.0
  0
LINE
  5
3E8D
330
1F
100
AcDbEntity
  8
0
  6
HIDDEN
 62
     7
370
     0
100
AcDbLine
 10
446.1742341028737
 20
280.5585855900784
 30
0.0
 11
446.1742339182567
 21
280.5583051664095
 31
0.0
  0
LINE
  5
3E8F
330
1F
100
AcDbEntity
  8
0
  6
HIDDEN
 62
     7
370
     0
100
AcDbLine
 10
437.1742342984317
 20
280.5583051664095
 30
0.0
 11
437.1742341138147
 21
280.5585855900784
 31
0.0
  0
LINE
  5
3E90
330
1F
100
AcDbEntity
  8
0
  6
HIDDEN
 62
     7
370
     0
100
AcDbLine
 10
439.1742341083442
 20
297.8915651049775
 30
0.0
 11
439.1742341083442
 21
311.7822783114125
 31
0.0
  0
SPLINE
  5
3E91
330
1F
100
AcDbEntity
  8
0
  6
HIDDEN
 62
     7
370
     0
100
AcDbSpline
210
0.0
220
0.0
230
1.0
 70
    24
 71
     1
 72
     4
 73
     2
 74
     0
 42
0.0000000001
 43
0.0000000001
 40
0.0
 40
0.0
 40
1.0
 40
1.0
 10
438.1742341083443
 20
297.5821135961242
 30
0.0
 10
438.1800769674105
 20
297.6760519453349
 30
0.0
  0
LINE
  5
3E92
330
1F
100
AcDbEntity
  8
0
  6
HIDDEN
 62
     7
370
     0
100
AcDbLine
 10
444.1742341083442
 20
311.7822783114125
 30
0.0
 11
444.1742341083442
 21
297.8915651049775
 31
0.0
  0
DIMENSION
  5
3F13
102
{ACAD_XDICTIONARY
360
3F20
102
}
102
{ACAD_REACTORS
330
3F21
102
}
330
1F
100
AcDbEntity
  8
AM_REFDIM
100
AcDbDimension
  2
*D4
 10
416.8929245193031
 20
319.4636705208449
 30
0.0
 11
408.8929245193031
 21
319.4636705208449
 31
0.0
 70
   160
 71
     5
 42
16.0
  3
AM_ISO$0
100
AcDbAlignedDimension
 13
400.8929245193031
 23
303.7822783114125
 33
0.0
 14
416.8929245193031
 24
303.7822783114125
 34
0.0
100
AcDbRotatedDimension
1001
ACAD
1000
DSTYLE
1002
{
1070
    40
1040
0.6
1002
}
  0
DIMENSION
  5
3F39
102
{ACAD_XDICTIONARY
360
3F46
102
}
102
{ACAD_REACTORS
330
3F47
102
}
330
1F
100
AcDbEntity
  8
AM_REFDIM
100
AcDbDimension
  2
*D5
 10
427.2504022523561
 20
276.7822783114125
 30
0.0
 11
425.600402252356
 21
294.2822783114126
 31
0.0
 70
    32
 71
     5
 42
35.0
  3
AM_ISO$0
100
AcDbAlignedDimension
 13
408.8929245193031
 23
311.7822783114125
 33
0.0
 14
414.5929245193031
 24
276.7822783114125
 34
0.0
 50
90.0
100
AcDbRotatedDimension
1001
ACAD
1000
DSTYLE
1002
{
1070
    40
1040
0.6
1002
}
  0
DIMENSION
  5
3F5F
102
{ACAD_XDICTIONARY
360
3F6C
102
}
102
{ACAD_REACTORS
330
3F6D
102
}
330
1F
100
AcDbEntity
  8
AM_REFDIM
100
AcDbDimension
  2
*D6
 10
421.939476599702
 20
276.7822783114125
 30
0.0
 11
420.2892699067886
 21
290.2822783114126
 31
0.0
 70
    32
 71
     5
 42
27.0
  3
AM_ISO$0
100
AcDbAlignedDimension
 13
418.492924519303
 23
303.7822783114125
 33
0.0
 14
414.5929245193031
 24
276.7822783114125
 34
0.0
 50
90.00000000000003
100
AcDbRotatedDimension
1001
ACAD
1000
DSTYLE
1002
{
1070
    40
1040
0.6
1002
}
  0
DIMENSION
  5
3FA4
102
{ACAD_XDICTIONARY
360
3FB3
102
}
102
{ACAD_REACTORS
330
3FB4
102
}
330
1F
100
AcDbEntity
  8
AM_REFDIM
100
AcDbDimension
  2
*D7
 10
418.249038279035
 20
276.7822783114125
 30
0.0
 11
416.5990382790349
 21
278.7822783114126
 31
0.0
 70
    32
 71
     5
 42
4.000000000000056
  3
AM_ISO$0
100
AcDbAlignedDimension
 13
414.5929245193031
 23
280.7822783114125
 33
0.0
 14
414.5929245193031
 24
276.7822783114125
 34
0.0
 50
90.00000000000003
100
AcDbRotatedDimension
1001
ACAD
1000
DSTYLE
1002
{
1070
    40
1040
0.6
1002
}
  0
DIMENSION
  5
3FCE
330
1F
100
AcDbEntity
  8
AM_REFDIM
100
AcDbDimension
  2
*D8
 10
414.8929245193031
 20
269.0344070653812
 30
0.0
 11
408.8929245193031
 21
270.6846137582946
 31
0.0
 70
    32
 71
     5
 42
12.00000000000005
  3
AM_ISO$0
100
AcDbAlignedDimension
 13
402.8929245193031
 23
277.0822783114125
 33
0.0
 14
414.8929245193031
 24
277.0822783114125
 34
0.0
 50
0.0000000000001018
100
AcDbRotatedDimension
1001
ACAD
1000
DSTYLE
1002
{
1070
    40
1040
0.6
1002
}
  0
DIMENSION
  5
3FF4
102
{ACAD_XDICTIONARY
360
4003
102
}
102
{ACAD_REACTORS
330
4004
102
}
330
1F
100
AcDbEntity
  8
AM_REFDIM
100
AcDbDimension
  2
*D9
 10
445.6742341083443
 20
320.0190271259765
 30
0.0
 11
441.6742341083441
 21
320.0190271259765
 31
0.0
 70
   160
 71
     5
 42
8.000000000000227
  3
AM_ISO$0
100
AcDbAlignedDimension
 13
437.674234108344
 23
307.6368891867149
 33
0.0
 14
445.6742341083443
 24
307.6368891867149
 34
0.0
100
AcDbRotatedDimension
1001
ACAD
1000
DSTYLE
1002
{
1070
    40
1040
0.6
1002
}
  0
DIMENSION
  5
401E
330
1F
100
AcDbEntity
  8
AM_REFDIM
100
AcDbDimension
  2
*D10
 10
446.1742341083442
 20
269.0344070653809
 30
0.0
 11
441.6742341083441
 21
270.6844070653809
 31
0.0
 70
    32
 71
     5
 42
9.0
  3
AM_ISO$0
100
AcDbAlignedDimension
 13
437.1742341083441
 23
277.0822783114125
 33
0.0
 14
446.1742341083442
 24
277.0822783114125
 34
0.0
 50
0.0000000000001018
100
AcDbRotatedDimension
1001
ACAD
1000
DSTYLE
1002
{
1070
    40
1040
0.6
1002
}
  0
DIMENSION
  5
4048
102
{ACAD_XDICTIONARY
360
4055
102
}
102
{ACAD_REACTORS
330
4056
102
}
330
1F
100
AcDbEntity
  8
AM_REFDIM
100
AcDbDimension
  2
*D11
 10
453.1781196036873
 20
276.7822783114125
 30
0.0
 11
451.5281196036872
 21
283.7822783114126
 31
0.0
 70
    32
 71
     5
 42
14.0
  3
AM_ISO$0
100
AcDbAlignedDimension
 13
444.1742341083442
 23
290.7822783114125
 33
0.0
 14
445.8742341083442
 24
276.7822783114125
 34
0.0
 50
90.00000000000003
100
AcDbRotatedDimension
1001
ACAD
1000
DSTYLE
1002
{
1070
    40
1040
0.6
1002
}
  0
DIMENSION
  5
41DA
102
{ACAD_XDICTIONARY
360
41E9
102
}
102
{ACAD_REACTORS
330
41EA
102
}
330
1F
100
AcDbEntity
  8
AM_REFDIM
100
AcDbDimension
  2
*D12
 10
445.1742341083441
 20
314.5131452139955
 30
0.0
 11
441.6742341083441
 21
314.5131452139955
 31
0.0
 70
   160
 71
     5
 42
7.0
  3
AM_ISO$0
100
AcDbAlignedDimension
 13
438.1742341083442
 23
310.7822783114125
 33
0.0
 14
445.1742341083441
 24
310.7822783114125
 34
0.0
100
AcDbRotatedDimension
1001
ACAD
1000
DSTYLE
1002
{
1070
    40
1040
0.6
1002
}
  0
LINE
  5
4256
330
1F
100
AcDbEntity
  8
AM_7
100
AcDbLine
 10
436.1143855339072
 20
303.7822783114125
 30
0.0
 11
447.2011777786734
 21
303.7822783114125
 31
0.0
  0
DIMENSION
  5
42C5
102
{ACAD_XDICTIONARY
360
42D4
102
}
102
{ACAD_REACTORS
330
42D5
102
}
330
1F
100
AcDbEntity
  8
AM_REFDIM
100
AcDbDimension
  2
*D15
 10
456.7996800922083
 20
299.9276674361101
 30
0.0
 11
456.7996800922082
 21
303.3817798978597
 31
0.0
 70
   160
  1
%%c<>
 71
     5
 42
7.709221750604797
  3
AM_ISO$0
100
AcDbAlignedDimension
 13
445.6742341083443
 23
307.6368891867149
 33
0.0
 14
445.6742341083443
 24
299.9276674361101
 34
0.0
 50
90.0
100
AcDbRotatedDimension
1001
ACAD
1000
DSTYLE
1002
{
1070
    40
1040
0.6
1002
}
  0
DIMENSION
  5
4332
330
1F
100
AcDbEntity
  8
AM_REFDIM
100
AcDbDimension
  2
*D17
 10
451.4435268730442
 20
301.2822783114125
 30
0.0
 11
451.4435268730442
 21
303.7822783114126
 31
0.0
 70
   160
  1
%%c<>
 71
     5
 42
5.0
  3
AM_ISO$0
100
AcDbAlignedDimension
 13
445.6742341083441
 23
306.2822783114125
 33
0.0
 14
445.6742341083441
 24
301.2822783114125
 34
0.0
 50
90.00000000000003
100
AcDbRotatedDimension
1001
ACAD
1000
DSTYLE
1002
{
1070
    40
1040
0.6
1002
}
  0
ENDSEC
  0
SECTION
  2
OBJECTS
  0
DICTIONARY
  5
C
330
0
100
AcDbDictionary
281
     1
  3
ACAD_COLOR
350
BE
  3
ACAD_GROUP
350
D
  3
ACAD_LAYOUT
350
1A
  3
ACAD_MATERIAL
350
BD
  3
ACAD_MLINESTYLE
350
17
  3
ACAD_PLOTSETTINGS
350
19
  3
ACAD_PLOTSTYLENAME
350
E
  3
ACAD_TABLESTYLE
350
11A
  3
ACDBHEADERROUNDTRIPXREC
350
43DD
  3
AcDbVariableDictionary
350
94
  3
AcmDictionary
350
5B
  3
AMG
350
41
  3
AMGSNAPSETTINGS
350
1B8
  3
DWGPROPS
350
43DC
  3
MAPISURF_MODULE
350
3A15
  0
DICTIONARY
  5
3F9
330
2
100
AcDbDictionary
280
     1
281
     1
  3
ACAD_LAYERFILTERS
360
4276
  3
ACAD_LAYERSTATES
360
AD2
  3
ACLYDICTIONARY
360
4275
  0
DICTIONARY
  5
8F
330
1F
100
AcDbDictionary
280
     1
281
     1
  3
ACAD_INDEX
360
3D28
  0
DICTIONARY
  5
42A4
330
42A2
100
AcDbDictionary
280
     1
281
     1
  0
DICTIONARY
  5
3F20
330
3F13
100
AcDbDictionary
280
     1
281
     1
  3
ACAD_DIMASSOC
360
3F21
  0
DICTIONARY
  5
3F46
330
3F39
100
AcDbDictionary
280
     1
281
     1
  3
ACAD_DIMASSOC
360
3F47
  0
DICTIONARY
  5
3F6C
330
3F5F
100
AcDbDictionary
280
     1
281
     1
  3
ACAD_DIMASSOC
360
3F6D
  0
DICTIONARY
  5
3FB3
330
3FA4
100
AcDbDictionary
280
     1
281
     1
  3
ACAD_DIMASSOC
360
3FB4
  0
DICTIONARY
  5
4003
330
3FF4
100
AcDbDictionary
280
     1
281
     1
  3
ACAD_DIMASSOC
360
4004
  0
DICTIONARY
  5
4055
330
4048
100
AcDbDictionary
280
     1
281
     1
  3
ACAD_DIMASSOC
360
4056
  0
DICTIONARY
  5
41E9
330
41DA
100
AcDbDictionary
280
     1
281
     1
  3
ACAD_DIMASSOC
360
41EA
  0
DICTIONARY
  5
42D4
330
42C5
100
AcDbDictionary
280
     1
281
     1
  3
ACAD_DIMASSOC
360
42D5
  0
DICTIONARY
  5
BE
102
{ACAD_REACTORS
330
C
102
}
330
C
100
AcDbDictionary
281
     1
  0
DICTIONARY
  5
D
102
{ACAD_REACTORS
330
C
102
}
330
C
100
AcDbDictionary
281
     1
  0
DICTIONARY
  5
1A
102
{ACAD_REACTORS
330
C
102
}
330
C
100
AcDbDictionary
281
     1
  3
Model
350
22
  3
配置1
350
1E
  3
配置2
350
26
  0
DICTIONARY
  5
BD
102
{ACAD_REACTORS
330
C
102
}
330
C
100
AcDbDictionary
281
     1
  0
DICTIONARY
  5
17
102
{ACAD_REACTORS
330
C
102
}
330
C
100
AcDbDictionary
281
     1
  3
Standard
350
18
  0
DICTIONARY
  5
19
102
{ACAD_REACTORS
330
C
102
}
330
C
100
AcDbDictionary
281
     1
  0
ACDBDICTIONARYWDFLT
  5
E
102
{ACAD_REACTORS
330
C
102
}
330
C
100
AcDbDictionary
281
     1
  3
Normal
350
F
100
AcDbDictionaryWithDefault
340
F
  0
DICTIONARY
  5
11A
102
{ACAD_REACTORS
330
C
102
}
330
C
100
AcDbDictionary
281
     1
  3
Standard
350
11B
  0
DICTIONARY
  5
43DD
102
{ACAD_REACTORS
330
C
102
}
330
C
100
AcDbDictionary
281
     1
  0
DICTIONARY
  5
94
102
{ACAD_REACTORS
330
C
102
}
330
C
100
AcDbDictionary
281
     1
  3
CTABLESTYLE
350
138
  3
DIMASSOC
350
96
  3
INDEXCTL
350
95
  3
PROJECTNAME
350
1B44
  0
DICTIONARY
  5
5B
102
{ACAD_REACTORS
330
C
102
}
330
C
100
AcDbDictionary
281
     1
  3
AcmBOM
350
1B5
  3
AcmStdDictionary
350
61
  3
AMDTSECTSYM_ARROWCOLOR
350
123
  0
DICTIONARY
  5
41
102
{ACAD_REACTORS
330
C
102
}
330
C
100
AcDbDictionary
281
     1
  3
AcMgSettings
350
398F
  0
DICTIONARY
  5
1B8
102
{ACAD_REACTORS
330
C
102
}
330
C
100
AcDbDictionary
281
     1
  0
XRECORD
  5
43DC
102
{ACAD_REACTORS
330
C
102
}
330
C
100
AcDbXrecord
280
     1
  1
DWGPROPS COOKIE
  2

  3

  4

  6

  7

  8

  9

300
AmdtFileType=84
301
=
302
=
303
=
304
=
305
=
306
=
307
=
308
=
309
=
 40
0.1094409490740741
 41
2454392.703168762
 42
2456051.694340278
  1

 90
        1
  0
DICTIONARY
  5
4276
102
{ACAD_REACTORS
330
3F9
102
}
330
3F9
100
AcDbDictionary
281
     1
  0
DICTIONARY
  5
AD2
102
{ACAD_REACTORS
330
3F9
102
}
330
3F9
100
AcDbDictionary
281
     1
  0
DICTIONARY
  5
4275
102
{ACAD_REACTORS
330
3F9
102
}
330
3F9
100
AcDbDictionary
281
     1
1001
ACAD
1000
<All
  0
DICTIONARY
  5
3D28
102
{ACAD_REACTORS
330
8F
102
}
330
8F
100
AcDbDictionary
281
     1
  3
*A1
350
3D29
  0
DIMASSOC
  5
3F21
102
{ACAD_REACTORS
330
3F20
102
}
330
3F20
100
AcDbDimAssoc
330
3F13
 90
        3
 70
     0
 71
     0
  1
AcDbOsnapPointRef
 72
     6
331
3B9D
 73
     0
 91
        0
 40
0.2051282051282178
 10
0.0
 20
0.0
 30
0.0
332
3E24
 74
     0
 92
        0
 75
     0
  1
AcDbOsnapPointRef
 72
     6
331
3B9E
 73
     0
 91
        0
 40
0.7948717948718053
 10
0.0
 20
0.0
 30
0.0
332
3E24
 74
     0
 92
        0
 75
     0
  0
DIMASSOC
  5
3F47
102
{ACAD_REACTORS
330
3F46
102
}
330
3F46
100
AcDbDimAssoc
330
3F39
 90
        2
 70
     0
 71
     0
  1
AcDbOsnapPointRef
 72
    13
331
3E06
 73
     0
 91
        0
 40
0.0
 10
0.0
 20
0.0
 30
2.000000000000000E+50
 75
     0
  0
DIMASSOC
  5
3F6D
102
{ACAD_REACTORS
330
3F6C
102
}
330
3F6C
100
AcDbDimAssoc
330
3F5F
 90
        3
 70
     0
 71
     0
  1
AcDbOsnapPointRef
 72
     1
331
3B9E
 73
     0
 91
        0
 40
0.0
 10
0.0
 20
0.0
 30
2.000000000000000E+50
 75
     0
  1
AcDbOsnapPointRef
 72
    13
331
3E06
 73
     0
 91
        0
 40
0.0
 10
0.0
 20
0.0
 30
2.000000000000000E+50
 75
     0
  0
DIMASSOC
  5
3FB4
102
{ACAD_REACTORS
330
3FB3
102
}
330
3FB3
100
AcDbDimAssoc
330
3FA4
 90
        3
 70
     0
 71
     0
  1
AcDbOsnapPointRef
 72
     1
331
3DF7
 73
     0
 91
        0
 40
0.0
 10
0.0
 20
0.0
 30
2.000000000000000E+50
 75
     0
  1
AcDbOsnapPointRef
 72
    13
331
3E06
 73
     0
 91
        0
 40
0.0
 10
0.0
 20
0.0
 30
2.000000000000000E+50
 75
     0
  0
DIMASSOC
  5
4004
102
{ACAD_REACTORS
330
4003
102
}
330
4003
100
AcDbDimAssoc
330
3FF4
 90
        3
 70
     0
 71
     0
  1
AcDbOsnapPointRef
 72
     1
331
3E31
 73
     0
 91
        0
 40
0.0
 10
0.0
 20
0.0
 30
2.000000000000000E+50
 75
     0
  1
AcDbOsnapPointRef
 72
    13
331
3E33
 73
     0
 91
        0
 40
0.0
 10
0.0
 20
0.0
 30
2.000000000000000E+50
 75
     0
  0
DIMASSOC
  5
4056
102
{ACAD_REACTORS
330
4055
102
}
330
4055
100
AcDbDimAssoc
330
4048
 90
        3
 70
     0
 71
     0
  1
AcDbOsnapPointRef
 72
    13
331
3E6F
 73
     0
 91
        0
 40
0.0
 10
0.0
 20
0.0
 30
2.000000000000000E+50
 75
     0
  1
AcDbOsnapPointRef
 72
    13
331
3E43
 73
     0
 91
        0
 40
0.0
 10
0.0
 20
0.0
 30
2.000000000000000E+50
 75
     0
  0
DIMASSOC
  5
41EA
102
{ACAD_REACTORS
330
41E9
102
}
330
41E9
100
AcDbDimAssoc
330
41DA
 90
        3
 70
     0
 71
     0
  1
AcDbOsnapPointRef
 72
     1
331
3E37
 73
     0
 91
        0
 40
0.0
 10
0.0
 20
0.0
 30
2.000000000000000E+50
 75
     0
  1
AcDbOsnapPointRef
 72
    13
331
3E3A
 73
     0
 91
        0
 40
0.0
 10
0.0
 20
0.0
 30
2.000000000000000E+50
 75
     0
  0
DIMASSOC
  5
42D5
102
{ACAD_REACTORS
330
42D4
102
}
330
42D4
100
AcDbDimAssoc
330
42C5
 90
        3
 70
     0
 71
     0
  1
AcDbOsnapPointRef
 72
    13
331
3E33
 73
     0
 91
        0
 40
0.0
 10
0.0
 20
0.0
 30
2.000000000000000E+50
 75
     0
  1
AcDbOsnapPointRef
 72
     1
331
3E32
 73
     0
 91
        0
 40
0.0
 10
0.0
 20
0.0
 30
2.000000000000000E+50
 75
     0
  0
LAYOUT
  5
22
102
{ACAD_XDICTIONARY
360
43E0
102
}
102
{ACAD_REACTORS
330
1A
102
}
330
1A
100
AcDbPlotSettings
  1

  2
\\RD\EPSON Stylus C63 Series單色
  4
A4
  6

 40
3.757083177566528
 41
3.757076978683471
 42
3.757080078125
 43
3.757080078125
 44
209.9733276367187
 45
296.9683227539062
 46
0.0
 47
0.0
 48
0.0
 49
0.0
140
0.0
141
0.0
142
1.0
143
0.3405120737814363
 70
 11952
 72
     1
 73
     0
 74
     0
  7
單色出圖.ctb
 75
     0
147
2.936753428137963
148
-2047.07469463503
149
-1261.649717473083
100
AcDbLayout
  1
Model
 70
     1
 71
     0
 10
0.0
 20
0.0
 11
12.0
 21
9.0
 12
0.0
 22
0.0
 32
0.0
 14
0.0
 24
0.0
 34
0.0
 15
0.0
 25
0.0
 35
0.0
146
0.0
 13
0.0
 23
0.0
 33
0.0
 16
1.0
 26
0.0
 36
0.0
 17
0.0
 27
1.0
 37
0.0
 76
     0
330
1F
1001
ACAD_PSEXT
1000
\\RD\EPSON Stylus C63 Series單色
1000
EPSON Stylus C63 Series
1000
\\RD
1000

1070
     0
  0
LAYOUT
  5
1E
102
{ACAD_XDICTIONARY
360
43DE
102
}
102
{ACAD_REACTORS
330
1A
102
}
330
1A
100
AcDbPlotSettings
  1

  2

  4

  6

 40
0.0
 41
0.0
 42
0.0
 43
0.0
 44
0.0
 45
0.0
 46
0.0
 47
0.0
 48
0.0
 49
0.0
140
0.0
141
0.0
142
1.0
143
1.0
 70
   688
 72
     0
 73
     0
 74
     5
  7
單色出圖.ctb
 75
    16
147
1.0
148
0.0
149
0.0
100
AcDbLayout
  1
配置1
 70
     1
 71
     1
 10
0.0
 20
0.0
 11
420.0
 21
297.0
 12
0.0
 22
0.0
 32
0.0
 14
1.000000000000000E+20
 24
1.000000000000000E+20
 34
1.000000000000000E+20
 15
-1.000000000000000E+20
 25
-1.000000000000000E+20
 35
-1.000000000000000E+20
146
0.0
 13
0.0
 23
0.0
 33
0.0
 16
1.0
 26
0.0
 36
0.0
 17
0.0
 27
1.0
 37
0.0
 76
     0
330
1B
  0
LAYOUT
  5
26
102
{ACAD_XDICTIONARY
360
43E2
102
}
102
{ACAD_REACTORS
330
1A
102
}
330
1A
100
AcDbPlotSettings
  1

  2

  4

  6

 40
0.0
 41
0.0
 42
0.0
 43
0.0
 44
0.0
 45
0.0
 46
0.0
 47
0.0
 48
0.0
 49
0.0
140
0.0
141
0.0
142
1.0
143
1.0
 70
   688
 72
     0
 73
     0
 74
     5
  7
單色出圖.ctb
 75
    16
147
1.0
148
0.0
149
0.0
100
AcDbLayout
  1
配置2
 70
     1
 71
     2
 10
0.0
 20
0.0
 11
12.0
 21
9.0
 12
0.0
 22
0.0
 32
0.0
 14
0.0
 24
0.0
 34
0.0
 15
0.0
 25
0.0
 35
0.0
146
0.0
 13
0.0
 23
0.0
 33
0.0
 16
1.0
 26
0.0
 36
0.0
 17
0.0
 27
1.0
 37
0.0
 76
     0
330
23
  0
MLINESTYLE
  5
18
102
{ACAD_REACTORS
330
17
102
}
330
17
100
AcDbMlineStyle
  2
STANDARD
 70
     0
  3

 62
   256
 51
90.0
 52
90.0
 71
     2
 49
0.5
 62
   256
  6
BYLAYER
 49
-0.5
 62
   256
  6
BYLAYER
  0
ACDBPLACEHOLDER
  5
F
102
{ACAD_REACTORS
330
E
102
}
330
E
  0
TABLESTYLE
  5
11B
102
{ACAD_REACTORS
330
11A
102
}
330
11A
100
AcDbTableStyle
  3
Standard
 70
     0
 71
     0
 40
1.5
 41
1.5
280
     0
281
     0
  7
STANDARD
140
4.5
170
     2
 62
     0
 63
     7
283
     0
274
    -2
284
     1
 64
     0
275
    -2
285
     1
 65
     0
276
    -2
286
     1
 66
     0
277
    -2
287
     1
 67
     0
278
    -2
288
     1
 68
     0
279
    -2
289
     1
 69
     0
  7
STANDARD
140
6.0
170
     5
 62
     0
 63
     7
283
     0
274
    -2
284
     1
 64
     0
275
    -2
285
     1
 65
     0
276
    -2
286
     1
 66
     0
277
    -2
287
     1
 67
     0
278
    -2
288
     1
 68
     0
279
    -2
289
     1
 69
     0
  7
STANDARD
140
4.5
170
     5
 62
     0
 63
     7
283
     0
274
    -2
284
     1
 64
     0
275
    -2
285
     1
 65
     0
276
    -2
286
     1
 66
     0
277
    -2
287
     1
 67
     0
278
    -2
288
     1
 68
     0
279
    -2
289
     1
 69
     0
  0
DICTIONARYVAR
  5
138
102
{ACAD_REACTORS
330
94
102
}
330
94
100
DictionaryVariables
280
     0
  1
STANDARD
  0
DICTIONARYVAR
  5
96
102
{ACAD_REACTORS
330
94
102
}
330
94
100
DictionaryVariables
280
     0
  1
2
  0
DICTIONARYVAR
  5
95
102
{ACAD_REACTORS
330
94
102
}
330
94
100
DictionaryVariables
280
     0
  1
1
  0
DICTIONARYVAR
  5
1B44
102
{ACAD_REACTORS
330
94
102
}
330
94
100
DictionaryVariables
280
     0
  1

  0
DICTIONARY
  5
1B5
102
{ACAD_REACTORS
330
5B
102
}
330
5B
100
AcDbDictionary
281
     1
  0
DICTIONARY
  5
61
102
{ACAD_REACTORS
330
5B
102
}
330
5B
100
AcDbDictionary
281
     1
  0
XRECORD
  5
123
102
{ACAD_REACTORS
330
5B
102
}
330
5B
100
AcDbXrecord
280
     1
 90
-1023410169
  0
DICTIONARY
  5
398F
102
{ACAD_REACTORS
330
41
102
}
330
41
100
AcDbDictionary
281
     1
  3
DWGSETTINGS
350
3990
  3
TRANSSETTINGS
350
3993
  0
LAYER_INDEX
  5
3D29
102
{ACAD_REACTORS
330
3D28
102
}
330
3D28
100
AcDbIndex
 40
2456051.694340278
100
AcDbLayerIndex
  8
0
360
3D2A
 90
       91
  8
AM_VIS
360
3D2B
 90
        0
  8
AM_7
360
3D2C
 90
        7
  8
Defpoints
360
3D2D
 90
        0
  8
LOGO
360
3D2E
 90
       77
  8
AM_4
360
3D2F
 90
        5
  8
AM_REFDIM
360
3D30
 90
       11
  8
AM_HID
360
3D31
 90
        0
  8
AM_5
360
40C0
 90
        0
  0
DICTIONARY
  5
43E0
330
22
100
AcDbDictionary
280
     1
281
     1
  3
ACAD_XREC_ROUNDTRIP
360
43E1
  0
DICTIONARY
  5
43DE
330
1E
100
AcDbDictionary
280
     1
281
     1
  3
ACAD_XREC_ROUNDTRIP
360
43DF
  0
DICTIONARY
  5
43E2
330
26
100
AcDbDictionary
280
     1
281
     1
  3
ACAD_XREC_ROUNDTRIP
360
43E3
  0
IDBUFFER
  5
3D2A
330
0
100
AcDbIdBuffer
330
1830
330
1831
330
1832
330
3DF7
330
3DF8
330
3DF9
330
3DFA
330
3DFB
330
3DFC
330
3E03
330
3E05
330
3E06
330
3E07
330
3E0A
330
3E0B
330
3E0C
330
3E0D
330
3E0E
330
3E0F
330
3E11
330
3E12
330
3E16
330
3E17
330
3E18
330
3E19
330
3E1A
330
3E1B
330
3E1C
330
3E1D
330
3E1E
330
3E1F
330
3E20
330
3E21
330
3E22
330
3E23
330
3E24
330
3E25
330
3E26
330
3E27
330
3E28
330
3E2D
330
3E2E
330
3E2F
330
3E30
330
3E31
330
3E32
330
3E33
330
3E34
330
3E35
330
3E36
330
3E37
330
3E38
330
3E39
330
3E3A
330
3E3B
330
3E3C
330
3E42
330
3E43
330
3E44
330
3E45
330
3E46
330
3E47
330
3E48
330
3E49
330
3E4A
330
3E4B
330
3E4C
330
3E52
330
3E55
330
3E56
330
3E57
330
3E5A
330
3E5B
330
3E5C
330
3E5D
330
3E60
330
3E61
330
3E62
330
3E63
330
3E64
330
3E65
330
3E68
330
3E69
330
3E6A
330
3E6B
330
3E72
330
3E8D
330
3E8F
330
3E90
330
3E91
330
3E92
  0
IDBUFFER
  5
3D2B
330
0
100
AcDbIdBuffer
  0
IDBUFFER
  5
3D2C
330
0
100
AcDbIdBuffer
330
3B9B
330
3B9C
330
3B9D
330
3B9E
330
3B9F
330
3BA0
330
4256
  0
IDBUFFER
  5
3D2D
330
0
100
AcDbIdBuffer
  0
IDBUFFER
  5
3D2E
330
0
100
AcDbIdBuffer
330
179B
330
179C
330
179D
330
179E
330
179F
330
17A0
330
17A1
330
17A2
330
17A3
330
17A4
330
17A5
330
17A6
330
17A7
330
17A8
330
17A9
330
17AA
330
17AB
330
17AC
330
17AD
330
17AE
330
17AF
330
17B0
330
17B1
330
17B2
330
17B6
330
17BA
330
17BB
330
17BF
330
17C0
330
17C1
330
17C2
330
17C3
330
17C4
330
17C5
330
17C6
330
17CA
330
17CE
330
17D2
330
17D3
330
17D4
330
17D8
330
17D9
330
17DA
330
17DB
330
17DC
330
17DD
330
17DE
330
17DF
330
17E0
330
17E1
330
17E2
330
17E3
330
17E4
330
17E5
330
17E6
330
17E7
330
17E8
330
17E9
330
17EA
330
17EB
330
17EC
330
17ED
330
17EE
330
17EF
330
17F0
330
1824
330
1825
330
1826
330
1827
330
1828
330
1829
330
182A
330
182B
330
182C
330
182D
330
182E
330
182F
  0
IDBUFFER
  5
3D2F
330
0
100
AcDbIdBuffer
330
3E6F
330
3E88
330
3E89
330
3E8A
330
3E8B
  0
IDBUFFER
  5
3D30
330
0
100
AcDbIdBuffer
330
42C5
330
4332
330
3F13
330
3F39
330
3F5F
330
3FA4
330
3FCE
330
3FF4
330
401E
330
4048
330
41DA
  0
IDBUFFER
  5
3D31
330
0
100
AcDbIdBuffer
  0
IDBUFFER
  5
40C0
330
0
100
AcDbIdBuffer
  0
XRECORD
  5
43E1
102
{ACAD_REACTORS
330
43E0
102
}
330
43E0
100
AcDbXrecord
280
     1
102
SHADEPLOT
 70
     0
102
SHADEPLOTRESLEVEL
 70
     2
102
SHADEPLOTCUSTOMDPI
 70
   300
  0
XRECORD
  5
43DF
102
{ACAD_REACTORS
330
43DE
102
}
330
43DE
100
AcDbXrecord
280
     1
102
SHADEPLOT
 70
     0
102
SHADEPLOTRESLEVEL
 70
     2
102
SHADEPLOTCUSTOMDPI
 70
   300
  0
XRECORD
  5
43E3
102
{ACAD_REACTORS
330
43E2
102
}
330
43E2
100
AcDbXrecord
280
     1
102
SHADEPLOT
 70
     0
102
SHADEPLOTRESLEVEL
 70
     2
102
SHADEPLOTCUSTOMDPI
 70
   300
  0
ENDSEC
  0
EOF
