  0
SECTION
  2
HEADER
  9
$ACADVER
  1
AC1015
  9
$ACADMAINTVER
 70
    20
  9
$DWGCODEPAGE
  3
ANSI_950
  9
$INSBASE
 10
0.0
 20
0.0
 30
0.0
  9
$EXTMIN
 10
84.63158058884436
 20
283.7898063496778
 30
-0.0055985173595445
  9
$EXTMAX
 10
304.8913340712325
 20
443.9454958334526
 30
104.8481807381847
  9
$LIMMIN
 10
0.0
 20
0.0
  9
$LIMMAX
 10
420.0
 20
297.0
  9
$ORTHOMODE
 70
     1
  9
$REGENMODE
 70
     1
  9
$FILLMODE
 70
     1
  9
$QTEXTMODE
 70
     0
  9
$MIRRTEXT
 70
     1
  9
$LTSCALE
 40
1.0
  9
$ATTMODE
 70
     1
  9
$TEXTSIZE
 40
3.0
  9
$TRACEWID
 40
1.0
  9
$TEXTSTYLE
  7
STANDARD
  9
$CLAYER
  8
0
  9
$CELTYPE
  6
ByLayer
  9
$CECOLOR
 62
   256
  9
$CELTSCALE
 40
1.0
  9
$DISPSILH
 70
     0
  9
$DIMSCALE
 40
1.0
  9
$DIMASZ
 40
3.0
  9
$DIMEXO
 40
1.0
  9
$DIMDLI
 40
8.0
  9
$DIMRND
 40
0.0
  9
$DIMDLE
 40
0.0
  9
$DIMEXE
 40
1.5
  9
$DIMTP
 40
0.1
  9
$DIMTM
 40
0.1
  9
$DIMTXT
 40
3.5
  9
$DIMCEN
 40
0.0
  9
$DIMTSZ
 40
0.0
  9
$DIMTOL
 70
     0
  9
$DIMLIM
 70
     0
  9
$DIMTIH
 70
     0
  9
$DIMTOH
 70
     0
  9
$DIMSE1
 70
     0
  9
$DIMSE2
 70
     0
  9
$DIMTAD
 70
     1
  9
$DIMZIN
 70
     8
  9
$DIMBLK
  1

  9
$DIMASO
 70
     1
  9
$DIMSHO
 70
     1
  9
$DIMPOST
  1

  9
$DIMAPOST
  1
"
  9
$DIMALT
 70
     0
  9
$DIMALTD
 70
     2
  9
$DIMALTF
 40
0.0393701
  9
$DIMLFAC
 40
1.0
  9
$DIMTOFL
 70
     1
  9
$DIMTVP
 40
0.0
  9
$DIMTIX
 70
     0
  9
$DIMSOXD
 70
     0
  9
$DIMSAH
 70
     0
  9
$DIMBLK1
  1

  9
$DIMBLK2
  1

  9
$DIMSTYLE
  2
AM_ISO
  9
$DIMCLRD
 70
   256
  9
$DIMCLRE
 70
   256
  9
$DIMCLRT
 70
   256
  9
$DIMTFAC
 40
0.6
  9
$DIMGAP
 40
0.7
  9
$DIMJUST
 70
     0
  9
$DIMSD1
 70
     0
  9
$DIMSD2
 70
     0
  9
$DIMTOLJ
 70
     0
  9
$DIMTZIN
 70
     8
  9
$DIMALTZ
 70
     0
  9
$DIMALTTZ
 70
     0
  9
$DIMUPT
 70
     0
  9
$DIMDEC
 70
     2
  9
$DIMTDEC
 70
     8
  9
$DIMALTU
 70
     2
  9
$DIMALTTD
 70
     2
  9
$DIMTXSTY
  7
STANDARD
  9
$DIMAUNIT
 70
     0
  9
$DIMADEC
 70
     0
  9
$DIMALTRND
 40
0.0
  9
$DIMAZIN
 70
     2
  9
$DIMDSEP
 70
    46
  9
$DIMATFIT
 70
     3
  9
$DIMFRAC
 70
     0
  9
$DIMLDRBLK
  1

  9
$DIMLUNIT
 70
     2
  9
$DIMLWD
 70
    -1
  9
$DIMLWE
 70
    -1
  9
$DIMTMOVE
 70
     0
  9
$LUNITS
 70
     2
  9
$LUPREC
 70
     2
  9
$SKETCHINC
 40
1.0
  9
$FILLETRAD
 40
2.5
  9
$AUNITS
 70
     0
  9
$AUPREC
 70
     0
  9
$MENU
  1
.
  9
$ELEVATION
 40
0.0
  9
$PELEVATION
 40
0.0
  9
$THICKNESS
 40
0.0
  9
$LIMCHECK
 70
     0
  9
$CHAMFERA
 40
2.5
  9
$CHAMFERB
 40
2.5
  9
$CHAMFERC
 40
20.0
  9
$CHAMFERD
 40
0.0
  9
$SKPOLY
 70
     0
  9
$TDCREATE
 40
2453965.689012037
  9
$TDUCREATE
 40
2453965.355678704
  9
$TDUPDATE
 40
2455196.419275208
  9
$TDUUPDATE
 40
2455196.085941875
  9
$TDINDWG
 40
0.1580459606
  9
$TDUSRTIMER
 40
0.1580459606
  9
$USRTIMER
 70
     1
  9
$ANGBASE
 50
0.0
  9
$ANGDIR
 70
     0
  9
$PDMODE
 70
     0
  9
$PDSIZE
 40
0.0
  9
$PLINEWID
 40
0.0
  9
$SPLFRAME
 70
     0
  9
$SPLINETYPE
 70
     6
  9
$SPLINESEGS
 70
     8
  9
$HANDSEED
  5
26B4
  9
$SURFTAB1
 70
     6
  9
$SURFTAB2
 70
     6
  9
$SURFTYPE
 70
     6
  9
$SURFU
 70
     6
  9
$SURFV
 70
     6
  9
$UCSBASE
  2

  9
$UCSNAME
  2

  9
$UCSORG
 10
0.0
 20
0.0
 30
0.0
  9
$UCSXDIR
 10
1.0
 20
0.0
 30
0.0
  9
$UCSYDIR
 10
0.0
 20
1.0
 30
0.0
  9
$UCSORTHOREF
  2

  9
$UCSORTHOVIEW
 70
     0
  9
$UCSORGTOP
 10
0.0
 20
0.0
 30
0.0
  9
$UCSORGBOTTOM
 10
0.0
 20
0.0
 30
0.0
  9
$UCSORGLEFT
 10
0.0
 20
0.0
 30
0.0
  9
$UCSORGRIGHT
 10
0.0
 20
0.0
 30
0.0
  9
$UCSORGFRONT
 10
0.0
 20
0.0
 30
0.0
  9
$UCSORGBACK
 10
0.0
 20
0.0
 30
0.0
  9
$PUCSBASE
  2

  9
$PUCSNAME
  2

  9
$PUCSORG
 10
0.0
 20
0.0
 30
0.0
  9
$PUCSXDIR
 10
1.0
 20
0.0
 30
0.0
  9
$PUCSYDIR
 10
0.0
 20
1.0
 30
0.0
  9
$PUCSORTHOREF
  2

  9
$PUCSORTHOVIEW
 70
     0
  9
$PUCSORGTOP
 10
0.0
 20
0.0
 30
0.0
  9
$PUCSORGBOTTOM
 10
0.0
 20
0.0
 30
0.0
  9
$PUCSORGLEFT
 10
0.0
 20
0.0
 30
0.0
  9
$PUCSORGRIGHT
 10
0.0
 20
0.0
 30
0.0
  9
$PUCSORGFRONT
 10
0.0
 20
0.0
 30
0.0
  9
$PUCSORGBACK
 10
0.0
 20
0.0
 30
0.0
  9
$USERI1
 70
     0
  9
$USERI2
 70
     0
  9
$USERI3
 70
     0
  9
$USERI4
 70
     0
  9
$USERI5
 70
     0
  9
$USERR1
 40
0.0
  9
$USERR2
 40
0.0
  9
$USERR3
 40
0.0
  9
$USERR4
 40
0.0
  9
$USERR5
 40
0.0
  9
$WORLDVIEW
 70
     1
  9
$SHADEDGE
 70
     3
  9
$SHADEDIF
 70
    70
  9
$TILEMODE
 70
     1
  9
$MAXACTVP
 70
    64
  9
$PINSBASE
 10
0.0
 20
0.0
 30
0.0
  9
$PLIMCHECK
 70
     0
  9
$PEXTMIN
 10
1.000000000000000E+20
 20
1.000000000000000E+20
 30
1.000000000000000E+20
  9
$PEXTMAX
 10
-1.000000000000000E+20
 20
-1.000000000000000E+20
 30
-1.000000000000000E+20
  9
$PLIMMIN
 10
0.0
 20
0.0
  9
$PLIMMAX
 10
420.0
 20
297.0
  9
$UNITMODE
 70
     0
  9
$VISRETAIN
 70
     1
  9
$PLINEGEN
 70
     0
  9
$PSLTSCALE
 70
     1
  9
$TREEDEPTH
 70
  3020
  9
$CMLSTYLE
  2
Standard
  9
$CMLJUST
 70
     0
  9
$CMLSCALE
 40
20.0
  9
$PROXYGRAPHICS
 70
     1
  9
$MEASUREMENT
 70
     1
  9
$CELWEIGHT
370
    -1
  9
$ENDCAPS
280
     0
  9
$JOINSTYLE
280
     0
  9
$LWDISPLAY
290
     0
  9
$INSUNITS
 70
     4
  9
$HYPERLINKBASE
  1

  9
$STYLESHEET
  1
彩色出圖.ctb
  9
$XEDIT
290
     1
  9
$CEPSNTYPE
380
     0
  9
$PSTYLEMODE
290
     1
  9
$FINGERPRINTGUID
  2
{8012A336-B5C9-4CB1-A428-E581F243F217}
  9
$VERSIONGUID
  2
{24285900-0B0F-4222-8922-DF90D3B7AA31}
  9
$EXTNAMES
290
     1
  9
$PSVPSCALE
 40
0.0
  9
$OLESTARTUP
290
     0
  0
ENDSEC
  0
SECTION
  2
CLASSES
  0
CLASS
  1
ACDBDICTIONARYWDFLT
  2
AcDbDictionaryWithDefault
  3
ObjectDBX Classes
 90
        0
280
     0
281
     0
  0
CLASS
  1
ACDBPLACEHOLDER
  2
AcDbPlaceHolder
  3
ObjectDBX Classes
 90
        0
280
     0
281
     0
  0
CLASS
  1
LAYOUT
  2
AcDbLayout
  3
ObjectDBX Classes
 90
        0
280
     0
281
     0
  0
CLASS
  1
ACME_DOCUMENT
  2
AcMeDbDoc
  3
AcMeServices
 90
        0
280
     0
281
     0
  0
CLASS
  1
AMGSETTINGSOBJ
  2
AmgSettingsObj
  3
"AcadM|Product Description: AutoCAD Mechanical 2000|Company: Autodesk"
 90
        0
280
     0
281
     0
  0
CLASS
  1
ACMESCOPE
  2
AcMeScope
  3
AcMeServices
 90
        0
280
     0
281
     0
  0
CLASS
  1
ACMECOMMANDHISTORY
  2
AcMeCommandHistory
  3
AcMeServices
 90
        0
280
     0
281
     0
  0
CLASS
  1
ACIMSYSVARMAN
  2
AcImSysVarManager
  3
AcMeServices
 90
        0
280
     0
281
     0
  0
CLASS
  1
ACIMREALSYSVAR
  2
AcImRealSysVar
  3
AcMeServices
 90
        0
280
     0
281
     0
  0
CLASS
  1
ACIMINTSYSVAR
  2
AcImIntSysVar
  3
AcMeServices
 90
        0
280
     0
281
     0
  0
CLASS
  1
ACMEDRAWINGMAN
  2
AcMeDrawingMan
  3
AcMeServices
 90
        0
280
     0
281
     0
  0
CLASS
  1
ACMEVIEW
  2
AcMeView
  3
AcMeServices
 90
        0
280
     0
281
     0
  0
CLASS
  1
ACDBENTITYCACHE
  2
AcMeEntityCache
  3
AcMeServices
 90
        0
280
     0
281
     0
  0
CLASS
  1
GSMANAGER
  2
AcMeGSManager
  3
AcMeServices
 90
        0
280
     0
281
     0
  0
CLASS
  1
AMDTINTERNALREACTOR
  2
AmdtInternalReactor
  3
AcMeServices
 90
        0
280
     0
281
     0
  0
CLASS
  1
ACMESTATEMGR
  2
AcMeStateMgr
  3
AcMeServices
 90
        0
280
     0
281
     0
  0
CLASS
  1
ACGREFMASTER
  2
AcGrefMaster
  3
AcAttribServices
 90
        0
280
     0
281
     0
  0
CLASS
  1
ACME_DATABASE
  2
AcMeDbDatabase
  3
AcMeServices
 90
        0
280
     0
281
     0
  0
CLASS
  1
ACRFINSADJUSTERMGR
  2
AcRfInsAdjusterMgr
  3
AcMeServices
 90
        0
280
     0
281
     0
  0
CLASS
  1
ACGREFACADMASTER
  2
AcGrefacadMaster
  3
AcGrefServices
 90
        0
280
     0
281
     0
  0
CLASS
  1
AMIMASTER
  2
AmiMaster
  3
AmiServices
 90
        0
280
     0
281
     0
  0
CLASS
  1
ACMDATADICTIONARY
  2
AcmDataDictionary
  3
"AcmSymBB|Product Description: AutoCAD Mechanical 2004 DX|Company: Autodesk"
 90
        0
280
     0
281
     0
  0
CLASS
  1
ACMDATAENTRYBLOCK
  2
AcmDataEntryBlock
  3
"AcmSymBB|Product Description: AutoCAD Mechanical 2004 DX|Company: Autodesk"
 90
        0
280
     0
281
     0
  0
CLASS
  1
ACIMSTRSYSVAR
  2
AcImStrSysVar
  3
AcMeServices
 90
        0
280
     0
281
     0
  0
CLASS
  1
ACMSTANDARDISO
  2
AcmStandardISO
  3
"Amdt_StdImp|Product Description: AutoCAD Mechanical 2004 DX|Company: Autodesk"
 90
        0
280
     0
281
     0
  0
CLASS
  1
AMGOBJPROPCFG
  2
AmgObjPropCfg
  3
"AmgLay|Product Description: AutoCAD Mechanical 2000|Company: Autodesk"
 90
        1
280
     0
281
     0
  0
CLASS
  1
AMDTEDGESTANDARDISO
  2
AmdtEdgeStdISO
  3
"Amdt_StdImp|Product Description: AutoCAD Mechanical 2004 DX|Company: Autodesk"
 90
    32768
280
     0
281
     0
  0
CLASS
  1
ACMSURFSTANDARDISO
  2
AcmSurfTextStdISO
  3
"Amdt_StdImp|Product Description: AutoCAD Mechanical 2004 DX|Company: Autodesk"
 90
        0
280
     0
281
     0
  0
CLASS
  1
ACMFCFSTANDARDISO
  2
AcmFCFStdISO
  3
"Amdt_StdImp|Product Description: AutoCAD Mechanical 2004 DX|Company: Autodesk"
 90
        0
280
     0
281
     0
  0
CLASS
  1
ACMWELDSTANDARDISO
  2
AcmWeldingStdISO
  3
"Amdt_StdImp|Product Description: AutoCAD Mechanical 2004 DX|Company: Autodesk"
 90
        0
280
     0
281
     0
  0
CLASS
  1
ACMIDSTANDARDISO
  2
AcmIdStdISO
  3
"Amdt_StdImp|Product Description: AutoCAD Mechanical 2004 DX|Company: Autodesk"
 90
        0
280
     0
281
     0
  0
CLASS
  1
ACMDATUMSTANDARDISO
  2
AcmDatumStdISO
  3
"Amdt_StdImp|Product Description: AutoCAD Mechanical 2004 DX|Company: Autodesk"
 90
        0
280
     0
281
     0
  0
CLASS
  1
ACMBOMSTANDARDISO
  2
AcmBOMStdISO
  3
"Amdt_StdImp|Product Description: AutoCAD Mechanical 2004 DX|Company: Autodesk"
 90
        0
280
     0
281
     0
  0
CLASS
  1
ACMDETAILSTANDARDISO
  2
AmdtDetailSymStdISO
  3
"Amdt_StdImp|Product Description: AutoCAD Mechanical 2004 DX|Company: Autodesk"
 90
        0
280
     0
281
     0
  0
CLASS
  1
ACMSECTIONSTANDARDISO
  2
AmdtSectionSymStdISO
  3
"Amdt_StdImp|Product Description: AutoCAD Mechanical 2004 DX|Company: Autodesk"
 90
        0
280
     0
281
     0
  0
CLASS
  1
ACMCENTERLINESTANDARDISO
  2
AmdtCenterLineStdISO
  3
"Amdt_StdImp|Product Description: AutoCAD Mechanical 2004 DX|Company: Autodesk"
 90
        0
280
     0
281
     0
  0
CLASS
  1
ACMNOTESTANDARDISO
  2
AmdtNoteStdISO
  3
"Amdt_StdImp|Product Description: AutoCAD Mechanical 2004 DX|Company: Autodesk"
 90
        0
280
     0
281
     0
  0
CLASS
  1
ACAMGLAYSTD
  2
AcAmgLayStd
  3
"AcAmgLayStd|Product Description: AutoCAD Mechanical 2000|Company: Autodesk"
 90
        0
280
     0
281
     0
  0
CLASS
  1
ACAMGDIMSTD
  2
AcAmgDimStd
  3
"AcAmgDimStd|Product Description: AutoCAD Mechanical 2000|Company: Autodesk"
 90
        0
280
     0
281
     0
  0
CLASS
  1
ACAMGHOLECHARTSTDISO
  2
AcAmgHoleChartStdISO
  3
ACMSYMBB_MODULE_NAME
 90
        0
280
     0
281
     0
  0
CLASS
  1
ACAMGTITLESTD
  2
AcAmgTitleStd
  3
"TITLEAPP"
 90
        0
280
     0
281
     0
  0
CLASS
  1
LAYER_INDEX
  2
AcDbLayerIndex
  3
ObjectDBX Classes
 90
    32768
280
     0
281
     0
  0
CLASS
  1
IDBUFFER
  2
AcDbIdBuffer
  3
ObjectDBX Classes
 90
    32768
280
     0
281
     0
  0
CLASS
  1
DICTIONARYVAR
  2
AcDbDictionaryVar
  3
ObjectDBX Classes
 90
        0
280
     0
281
     0
  0
CLASS
  1
AM_DRAWING_MGR
  2
AcDmDwgMgr
  3
AcMechDwgViewMgmt
 90
        0
280
     0
281
     0
  0
CLASS
  1
AM_DWG_DOCUMENT
  2
AcDmDwgDocument
  3
AcMechDwgViewMgmt
 90
        0
280
     0
281
     0
  0
CLASS
  1
AM_DWG_SHEET
  2
AcDmSheet
  3
AcMechDwgViewMgmt
 90
        0
280
     0
281
     0
  0
CLASS
  1
AM_VIEWDIMPARMAP
  2
AcDmViewDimParMap
  3
AcMechDwgViewMgmt
 90
        0
280
     0
281
     0
  0
CLASS
  1
AM_DWGMGR_NAME
  2
AcDmDwgMgrName
  3
AcMechDwgViewMgmt
 90
        0
280
     0
281
     0
  0
CLASS
  1
AMDTMENUSTATEMGR
  2
AmdtMenuStateMgr
  3
McadcomServices
 90
        0
280
     0
281
     0
  0
CLASS
  1
AMDTMCOMMENUSTATE
  2
AmdtMcomMenuState
  3
McadcomServices
 90
        0
280
     0
281
     0
  0
CLASS
  1
MAPIAMMOUDLE
  2
MApiAmModule
  3
MApiAmServices
 90
        0
280
     0
281
     0
  0
CLASS
  1
AMDTADMENUSTATE
  2
AmdtAdMenuState
  3
DesignerServices
 90
        0
280
     0
281
     0
  0
CLASS
  1
ADAPPL
  2
AcAdAppl
  3
DesignerServices
 90
        0
280
     0
281
     0
  0
CLASS
  1
DEPMGR
  2
AcAdDepMgr
  3
DesignerServices
 90
        0
280
     0
281
     0
  0
CLASS
  1
PARAMMGR
  2
AcAdParamMgr
  3
DesignerServices
 90
        0
280
     0
281
     0
  0
CLASS
  1
PARAMSCOPE
  2
AcAdParamScope
  3
DesignerServices
 90
        0
280
     0
281
     0
  0
CLASS
  1
NAMEDAPPL
  2
AcAdNamedAppl
  3
DesignerServices
 90
        0
280
     0
281
     0
  0
CLASS
  1
AMDTDMMENUSTATE
  2
AmdtDmMenuState
  3
AcMechDwgViewMgmt
 90
        0
280
     0
281
     0
  0
CLASS
  1
AMDTAMMENUSTATE
  2
AmdtAmMenuState
  3
DesignerAssemblies
 90
        0
280
     0
281
     0
  0
CLASS
  1
ACAMPROJECT
  2
AcAmProject
  3
DesignerAssemblies
 90
        0
280
     0
281
     0
  0
CLASS
  1
ACAMGRCOMPDEF
  2
AcAmGrCompDef
  3
DesignerAssemblies
 90
        0
280
     0
281
     0
  0
CLASS
  1
ACCMCONTEXT
  2
AcCmContext
  3
DesignerAssemblies
 90
        0
280
     0
281
     0
  0
CLASS
  1
ACAMCOMPDEF
  2
AcAmCompDef
  3
DesignerAssemblies
 90
        0
280
     0
281
     0
  0
CLASS
  1
ACAMCOMPDEFMGR
  2
AcAmCompDefMgr
  3
DesignerAssemblies
 90
        0
280
     0
281
     0
  0
CLASS
  1
AMCONTEXTMGR
  2
AcAmContextMgr
  3
DesignerAssemblies
 90
        0
280
     0
281
     0
  0
CLASS
  1
ACAMCONTEXTMODELER
  2
AcAmContextModeler
  3
DesignerAssemblies
 90
        0
280
     0
281
     0
  0
CLASS
  1
ACMTHREADLINESTANDARDISO
  2
AmdtThreadLineStdISO
  3
"Amdt_StdImp|Product Description: AutoCAD Mechanical 2004 DX|Company: Autodesk"
 90
        0
280
     0
281
     0
  0
CLASS
  1
CATALOGSTATE
  2
AcAmCatalogState
  3
DesignerAssemblies
 90
        0
280
     0
281
     0
  0
CLASS
  1
ACAMGRCOMPDEFSET
  2
AcAmGrCompDefSet
  3
DesignerAssemblies
 90
        0
280
     0
281
     0
  0
CLASS
  1
AMDTBROWSERDBTAB
  2
AmdtBrowserDbTab
  3
McadcomServices
 90
        0
280
     0
281
     0
  0
CLASS
  1
CBROWSERAPPOBJECT
  2
CBrowserAppObject
  3
McadcomServices
 90
        0
280
     0
281
     0
  0
CLASS
  1
DM_PLACEHOLDER
  2
AcDmSelsetPlaceholder
  3
AcMechDwgViewMgmt
 90
        0
280
     0
281
     0
  0
CLASS
  1
TABLESTYLE
  2
AcDbTableStyle
  3
ObjectDBX Classes
 90
     2047
280
     0
281
     0
  0
CLASS
  1
VAACXREFPANELOBJECT
  2
VaAcXREFPanelObject
  3
VAAC_ADDIN
 90
    32768
280
     0
281
     0
  0
CLASS
  1
VAACIMAGEINVENTORY
  2
VaAcImageInventory
  3
VAAC_ADDIN
 90
    32768
280
     0
281
     0
  0
CLASS
  1
AMDTNOTETEMPLATEDB
  2
AmdtNoteTemplateDB
  3
AMDT_STDIMP_MODULE_NAME
 90
        0
280
     0
281
     0
  0
CLASS
  1
ACMBOM
  2
AcmBom
  3
"AcmSymBB|Product Description: AutoCAD Mechanical 2004 DX|Company: Autodesk"
 90
    32768
280
     0
281
     0
  0
CLASS
  1
AMDTFORMULAUPDATEDISPATCHER
  2
AmdtFormulaUpdateDispatcher
  3
AcMeServices
 90
    32768
280
     0
281
     0
  0
CLASS
  1
ACMPARTLIST
  2
AcmPartList
  3
"AcmSymBB|Product Description: AutoCAD Mechanical 2004 DX|Company: Autodesk"
 90
    33791
280
     0
281
     1
  0
CLASS
  1
ACAMGFILTERDAT
  2
AcAmgFilterDat
  3
"AcadM|Product Description: AutoCAD Mechanical 2000|Company: Autodesk"
 90
    32768
280
     0
281
     0
  0
CLASS
  1
DIMASSOC
  2
AcDbDimAssoc
  3
"AcDbDimAssoc|Product Desc:     AcDim ARX App For Dimension|Company:          Autodesk, Inc.|WEB Address:      www.autodesk.com"
 90
        0
280
     0
281
     0
  0
CLASS
  1
SORTENTSTABLE
  2
AcDbSortentsTable
  3
ObjectDBX Classes
 90
        0
280
     0
281
     0
  0
CLASS
  1
STDPART2D
  2
AmgStdPart
  3
"AmgStdPart|Product Description: AutoCAD Mechanical 2000|Company: Autodesk"
 90
    33791
280
     0
281
     1
  0
CLASS
  1
ACAMSTDPCOMPDEF
  2
AcAmStdpCompDef
  3
DesignerAssemblies
 90
    32768
280
     0
281
     0
  0
CLASS
  1
ACRFATTGENMGR
  2
AcRfAttGeneralMgr
  3
AcAttribServices
 90
        0
280
     0
281
     0
  0
CLASS
  1
ACRFOBJATTMGR
  2
AcRfObjAttGroupMgr
  3
AcAttribServices
 90
    32768
280
     0
281
     0
  0
CLASS
  1
ACRFMCADAPIATTHOLDER
  2
AcRfMCADAPIAttHolder
  3
AcAttribServices
 90
    32768
280
     0
281
     0
  0
CLASS
  1
AMDTSYSATTR
  2
AmdtSystemAttribute
  3
AcAttribServices
 90
    32768
280
     0
281
     0
  0
CLASS
  1
ACAMCOMP
  2
AcAmComp
  3
DesignerAssemblies
 90
    32768
280
     0
281
     0
  0
CLASS
  1
AC_AM_STDP_VIEW_DEF
  2
AcAmStdpViewDef
  3
DesignerAssemblies
 90
    32768
280
     0
281
     0
  0
CLASS
  1
AC_AM_MVD_DEP_MGR
  2
AcAmMVDdepMgr
  3
DesignerAssemblies
 90
    32768
280
     0
281
     0
  0
CLASS
  1
AC_AM_MASTER_VIEW_DEF
  2
AcAmMasterViewDef
  3
DesignerAssemblies
 90
    32768
280
     0
281
     0
  0
CLASS
  1
AC_AM_DIRTY_NODES
  2
AcAmDirtyNodes
  3
DesignerAssemblies
 90
    32768
280
     0
281
     0
  0
CLASS
  1
AC_AM_MAPPER_CACHE
  2
AcAmMapperCache
  3
DesignerAssemblies
 90
    32768
280
     0
281
     0
  0
CLASS
  1
ACAMMVDBACKUPOBJECT
  2
AcAmMVDBackupObject
  3
DesignerAssemblies
 90
    32768
280
     0
281
     0
  0
CLASS
  1
AC_AM_COMP_VIEW_INST
  2
AcAmCompView
  3
DesignerAssemblies
 90
    32768
280
     0
281
     0
  0
CLASS
  1
AC_AM_2D_XREF_MGR
  2
AcAmXrefMgr2d
  3
DesignerAssemblies
 90
    32768
280
     0
281
     0
  0
CLASS
  1
AMDTEDGESTANDARDISO13715
  2
AmdtEdgeStdISO13715
  3
"Amdt_StdImp|Product Description: AutoCAD Mechanical 2004 DX|Company: Autodesk"
 90
        0
280
     0
281
     0
  0
CLASS
  1
AMDTNOTE
  2
AmdtNote
  3
"AcmSymBB|Product Description: AutoCAD Mechanical 2004 DX|Company: Autodesk"
 90
     1023
280
     0
281
     1
  0
ENDSEC
  0
SECTION
  2
TABLES
  0
TABLE
  2
VPORT
  5
8
330
0
100
AcDbSymbolTable
 70
    42
  0
VPORT
  5
26AB
330
8
100
AcDbSymbolTableRecord
100
AcDbViewportTableRecord
  2
*Active
 70
     0
 10
0.0
 20
0.0
 11
1.0
 21
1.0
 12
194.7614573300384
 22
363.8676510915652
 13
0.0
 23
0.0
 14
2.5
 24
2.5
 15
10.0
 25
10.0
 16
0.0
 26
0.0
 36
1.0
 17
0.0
 27
0.0
 37
0.0
 40
243.9984509284976
 41
0.9105263157894738
 42
50.0
 43
0.0
 44
0.0
 50
0.0
 51
0.0
 71
     0
 72
   100
 73
     1
 74
     3
 75
     0
 76
     0
 77
     0
 78
     0
281
     0
 65
     1
110
0.0
120
0.0
130
0.0
111
1.0
121
0.0
131
0.0
112
0.0
122
1.0
132
0.0
 79
     0
146
0.0
  0
ENDTAB
  0
TABLE
  2
LTYPE
  5
5
330
0
100
AcDbSymbolTable
 70
    14
  0
LTYPE
  5
14
330
5
100
AcDbSymbolTableRecord
100
AcDbLinetypeTableRecord
  2
ByBlock
 70
     0
  3

 72
    65
 73
     0
 40
0.0
  0
LTYPE
  5
15
330
5
100
AcDbSymbolTableRecord
100
AcDbLinetypeTableRecord
  2
ByLayer
 70
     0
  3

 72
    65
 73
     0
 40
0.0
  0
LTYPE
  5
16
330
5
100
AcDbSymbolTableRecord
100
AcDbLinetypeTableRecord
  2
Continuous
 70
     0
  3
Solid line
 72
    65
 73
     0
 40
0.0
  0
LTYPE
  5
64
330
5
100
AcDbSymbolTableRecord
100
AcDbLinetypeTableRecord
  2
AM_ISO02W050
 70
     0
  3
__ __ __ __ __ __ __ __ __ __ __ __ __ __ __
 72
    65
 73
     2
 40
7.5
 49
6.0
 74
     0
 49
-1.5
 74
     0
  0
LTYPE
  5
65
330
5
100
AcDbSymbolTableRecord
100
AcDbLinetypeTableRecord
  2
AM_ISO08W050
 70
     0
  3
____ . ____ . ____ . ____ . ____ . ____ . ____
 72
    65
 73
     4
 40
18.0
 49
12.0
 74
     0
 49
-1.5
 74
     0
 49
3.0
 74
     0
 49
-1.5
 74
     0
  0
LTYPE
  5
66
330
5
100
AcDbSymbolTableRecord
100
AcDbLinetypeTableRecord
  2
AM_ISO09W050
 70
     0
  3
_____ . . _____ . . _____ . . ____ .. ____
 72
    65
 73
     6
 40
22.5
 49
12.0
 74
     0
 49
-1.5
 74
     0
 49
3.0
 74
     0
 49
-1.5
 74
     0
 49
3.0
 74
     0
 49
-1.5
 74
     0
  0
LTYPE
  5
67
330
5
100
AcDbSymbolTableRecord
100
AcDbLinetypeTableRecord
  2
Amconstr
 70
     0
  3
_______________________
 72
    65
 73
     2
 40
9999.0
 49
9999.0
 74
     0
 49
0.0
 74
     0
  0
LTYPE
  5
68
330
5
100
AcDbSymbolTableRecord
100
AcDbLinetypeTableRecord
  2
AM_ISO08W050x2
 70
     0
  3
__ . __ . __ . __ . __ . __
 72
    65
 73
     4
 40
9.0
 49
6.0
 74
     0
 49
-0.75
 74
     0
 49
1.5
 74
     0
 49
-0.75
 74
     0
  0
LTYPE
  5
69
330
5
100
AcDbSymbolTableRecord
100
AcDbLinetypeTableRecord
  2
AM_ISO02W050x2
 70
     0
  3
 _ _ _ _ _ _ _ _ _ _ _ _
 72
    65
 73
     2
 40
3.75
 49
3.0
 74
     0
 49
-0.75
 74
     0
  0
LTYPE
  5
6C
330
5
100
AcDbSymbolTableRecord
100
AcDbLinetypeTableRecord
  2
Amzigzag
 70
     0
  3
/\/-/\/-/\/-/\/-/\/-/\/
 72
    65
 73
     2
 40
11.0001
 49
0.0001
 74
     4
 75
   135
340
6B
 46
0.04
 50
0.0
 44
0.0
 45
0.0
 49
-11.0
 74
     0
  0
LTYPE
  5
7A
330
5
100
AcDbSymbolTableRecord
100
AcDbLinetypeTableRecord
  2
ACISOWELD
 70
     0
  3
_ _ _ _ _
 72
    65
 73
     2
 40
2.0
 49
2.0
 74
     0
 49
-1.0
 74
     0
  0
LTYPE
  5
7B
330
5
100
AcDbSymbolTableRecord
100
AcDbLinetypeTableRecord
  2
ACISOTGB
 70
     0
  3
__ . . __ . .
 72
    65
 73
     6
 40
9.0
 49
4.0
 74
     0
 49
-1.0
 74
     0
 49
1.0
 74
     0
 49
-1.0
 74
     0
 49
1.0
 74
     0
 49
-1.0
 74
     0
  0
LTYPE
  5
7C
330
5
100
AcDbSymbolTableRecord
100
AcDbLinetypeTableRecord
  2
ACISOTGL
 70
     0
  3
_ _ _ _ _
 72
    65
 73
     2
 40
3.0
 49
2.0
 74
     0
 49
-1.0
 74
     0
  0
LTYPE
  5
7E
330
5
100
AcDbSymbolTableRecord
100
AcDbLinetypeTableRecord
  2
CENTER
 70
     0
  3
__ . __
 72
    65
 73
     4
 40
7.0
 49
4.0
 74
     0
 49
-1.0
 74
     0
 49
1.0
 74
     0
 49
-1.0
 74
     0
  0
LTYPE
  5
D8
330
5
100
AcDbSymbolTableRecord
100
AcDbLinetypeTableRecord
  2
HIDDEN
 70
     0
  3
Hidden __ __ __ __ __ __ __ __ __ __ __ __ __ _
 72
    65
 73
     2
 40
9.524999999999998
 49
6.349999999999999
 74
     0
 49
-3.174999999999999
 74
     0
  0
LTYPE
  5
D9
330
5
100
AcDbSymbolTableRecord
100
AcDbLinetypeTableRecord
  2
PHANTOM2
 70
     0
  3
Phantom (.5x) ___ _ _ ___ _ _ ___ _ _ ___ _ _
 72
    65
 73
     6
 40
31.75
 49
15.875
 74
     0
 49
-3.174999999999999
 74
     0
 49
3.174999999999999
 74
     0
 49
-3.174999999999999
 74
     0
 49
3.174999999999999
 74
     0
 49
-3.174999999999999
 74
     0
  0
ENDTAB
  0
TABLE
  2
LAYER
  5
2
102
{ACAD_XDICTIONARY
360
3F9
102
}
330
0
100
AcDbSymbolTable
 70
     7
  0
LAYER
  5
10
330
2
100
AcDbSymbolTableRecord
100
AcDbLayerTableRecord
  2
0
 70
     0
 62
     7
  6
Continuous
370
    -3
390
F
  0
LAYER
  5
B0C
330
2
100
AcDbSymbolTableRecord
100
AcDbLayerTableRecord
  2
AM_5
 70
     0
 62
     5
  6
Continuous
370
    50
390
F
  0
LAYER
  5
B0D
330
2
100
AcDbSymbolTableRecord
100
AcDbLayerTableRecord
  2
Defpoints
 70
     0
 62
     7
  6
Continuous
290
     0
370
    -3
390
F
  0
LAYER
  5
1774
330
2
100
AcDbSymbolTableRecord
100
AcDbLayerTableRecord
  2
LOGO
 70
     0
 62
     7
  6
Continuous
370
    -3
390
F
  0
LAYER
  5
1CD2
330
2
100
AcDbSymbolTableRecord
100
AcDbLayerTableRecord
  2
圖層4
 70
     0
 62
     7
  6
Continuous
370
    -3
390
F
  0
ENDTAB
  0
TABLE
  2
STYLE
  5
3
330
0
100
AcDbSymbolTable
 70
     7
  0
STYLE
  5
11
330
3
100
AcDbSymbolTableRecord
100
AcDbTextStyleTableRecord
  2
STANDARD
 70
     0
 40
0.0
 41
1.0
 50
0.0
 71
     0
 42
3.0
  3
ISOCP.SHX
  4
CHINESET.SHX
  0
STYLE
  5
6B
330
3
100
AcDbSymbolTableRecord
100
AcDbTextStyleTableRecord
  2

 70
     1
 40
0.0
 41
1.0
 50
0.0
 71
     0
 42
2.5
  3
ltypeshp.shx
  4

  0
STYLE
  5
6D
330
3
100
AcDbSymbolTableRecord
100
AcDbTextStyleTableRecord
  2
ACISOTS
 70
     0
 40
1.0
 41
1.0
 50
0.0
 71
     0
 42
1.0
  3
isocp.shx
  4
chineset.shx
  0
STYLE
  5
79
330
3
100
AcDbSymbolTableRecord
100
AcDbTextStyleTableRecord
  2
ACISOGDT
 70
     0
 40
0.0
 41
1.0
 50
0.0
 71
     0
 42
2.5
  3
amgdt.shx
  4
chineset.shx
  0
STYLE
  5
F5C
330
3
100
AcDbSymbolTableRecord
100
AcDbTextStyleTableRecord
  2
CHINESET
 70
     0
 40
0.0
 41
1.0
 50
0.0
 71
     0
 42
2.5
  3
simplex.shx
  4
chineset.shx
  0
STYLE
  5
1CD4
330
3
100
AcDbSymbolTableRecord
100
AcDbTextStyleTableRecord
  2
ROMANT
 70
     0
 40
2.0
 41
1.0
 50
0.0
 71
     0
 42
2.0
  3
romant
  4

  0
ENDTAB
  0
TABLE
  2
VIEW
  5
6
330
0
100
AcDbSymbolTable
 70
     0
  0
ENDTAB
  0
TABLE
  2
UCS
  5
7
330
0
100
AcDbSymbolTable
 70
     0
  0
ENDTAB
  0
TABLE
  2
APPID
  5
9
330
0
100
AcDbSymbolTable
 70
    27
  0
APPID
  5
12
330
9
100
AcDbSymbolTableRecord
100
AcDbRegAppTableRecord
  2
ACAD
 70
     0
  0
APPID
  5
46
330
9
100
AcDbSymbolTableRecord
100
AcDbRegAppTableRecord
  2
MCAD_NO_VIS
 70
     0
  0
APPID
  5
47
330
9
100
AcDbSymbolTableRecord
100
AcDbRegAppTableRecord
  2
ACAD_TEMP_GRAPHIC
 70
     0
  0
APPID
  5
58
330
9
100
AcDbSymbolTableRecord
100
AcDbRegAppTableRecord
  2
ACATTRIBSERVICES
 70
     0
  0
APPID
  5
EE
330
9
100
AcDbSymbolTableRecord
100
AcDbRegAppTableRecord
  2
AD_DRAW
 70
     0
  0
APPID
  5
10C
330
9
100
AcDbSymbolTableRecord
100
AcDbRegAppTableRecord
  2
DESIGNERASSEMBLIES
 70
     0
  0
APPID
  5
111
330
9
100
AcDbSymbolTableRecord
100
AcDbRegAppTableRecord
  2
ACADM_DIM_EDIT
 70
     0
  0
APPID
  5
112
330
9
100
AcDbSymbolTableRecord
100
AcDbRegAppTableRecord
  2
AMDT_DM_ADJ
 70
     0
  0
APPID
  5
22C
330
9
100
AcDbSymbolTableRecord
100
AcDbRegAppTableRecord
  2
ACAD_DSTYLE_DIMTEXT_FILL
 70
     0
  0
APPID
  5
452
330
9
100
AcDbSymbolTableRecord
100
AcDbRegAppTableRecord
  2
GENIUS_GENOENT_13
 70
     0
  0
APPID
  5
453
330
9
100
AcDbSymbolTableRecord
100
AcDbRegAppTableRecord
  2
GENIUS_GENOBJ-N-CRS_13
 70
     0
  0
APPID
  5
454
330
9
100
AcDbSymbolTableRecord
100
AcDbRegAppTableRecord
  2
GENIUS_GENOLIS_13
 70
     0
  0
APPID
  5
455
330
9
100
AcDbSymbolTableRecord
100
AcDbRegAppTableRecord
  2
GENIUS_GENODEF_13
 70
     0
  0
APPID
  5
456
330
9
100
AcDbSymbolTableRecord
100
AcDbRegAppTableRecord
  2
GENIUS_GENOREF_13
 70
     0
  0
APPID
  5
6F3
330
9
100
AcDbSymbolTableRecord
100
AcDbRegAppTableRecord
  2
ACAD_PSEXT
 70
     0
  0
APPID
  5
808
330
9
100
AcDbSymbolTableRecord
100
AcDbRegAppTableRecord
  2
GENIUS_GENDTOL_13
 70
     0
  0
APPID
  5
B11
330
9
100
AcDbSymbolTableRecord
100
AcDbRegAppTableRecord
  2
GENIUS_GENOBJ-N-CEN_13
 70
     0
  0
APPID
  5
B12
330
9
100
AcDbSymbolTableRecord
100
AcDbRegAppTableRecord
  2
GENIUS_GENCEN_19
 70
     0
  0
APPID
  5
166E
330
9
100
AcDbSymbolTableRecord
100
AcDbRegAppTableRecord
  2
GEVID1155862074
 70
     0
  0
APPID
  5
166F
330
9
100
AcDbSymbolTableRecord
100
AcDbRegAppTableRecord
  2
GEVDC
 70
     0
  0
APPID
  5
1686
330
9
100
AcDbSymbolTableRecord
100
AcDbRegAppTableRecord
  2
AMG_2DHIDE
 70
     0
  0
APPID
  5
1687
330
9
100
AcDbSymbolTableRecord
100
AcDbRegAppTableRecord
  2
AMG_2DSTRUCT_BTR
 70
     0
  0
APPID
  5
1698
330
9
100
AcDbSymbolTableRecord
100
AcDbRegAppTableRecord
  2
ACADM_2DVIEW_IGN_NOTIFY
 70
     0
  0
APPID
  5
16CC
330
9
100
AcDbSymbolTableRecord
100
AcDbRegAppTableRecord
  2
GEVID1155862075
 70
     0
  0
APPID
  5
16CD
330
9
100
AcDbSymbolTableRecord
100
AcDbRegAppTableRecord
  2
GEVRADREF
 70
     0
  0
APPID
  5
1775
330
9
100
AcDbSymbolTableRecord
100
AcDbRegAppTableRecord
  2
GENIUS_GENREC_14
 70
     0
  0
APPID
  5
1776
330
9
100
AcDbSymbolTableRecord
100
AcDbRegAppTableRecord
  2
GENIUS_GENOBJ-N-REC_13
 70
     0
  0
ENDTAB
  0
TABLE
  2
DIMSTYLE
  5
A
330
0
100
AcDbSymbolTable
 70
    10
100
AcDbDimStyleTable
 71
     4
340
1CD6
340
81
340
8B
340
86
  0
DIMSTYLE
105
81
330
A
100
AcDbSymbolTableRecord
100
AcDbDimStyleTableRecord
  2
AM_ISO
 70
     0
  4
"
 41
3.0
 42
1.0
 43
8.0
 44
1.5
 47
0.1
 48
0.1
 73
     0
 74
     0
 77
     1
 78
     8
 79
     2
140
3.5
141
0.0
143
0.0393701
146
0.6
147
0.7
172
     1
176
   256
177
   256
178
   256
271
     2
272
     2
283
     0
284
     8
340
11
371
    -1
372
    -1
  0
DIMSTYLE
105
82
330
A
100
AcDbSymbolTableRecord
100
AcDbDimStyleTableRecord
  2
AM_ISO$3
 70
     0
  4
"
 41
3.0
 42
1.0
 43
8.0
 44
1.5
 47
0.1
 48
0.1
 73
     0
 77
     1
 78
     8
 79
     2
140
3.5
141
0.0
143
0.0393701
146
0.6
147
0.7
176
   256
177
   256
178
   256
271
     2
272
     2
283
     0
284
     8
288
     1
289
     0
340
11
371
    -1
372
    -1
  0
DIMSTYLE
105
83
330
A
100
AcDbSymbolTableRecord
100
AcDbDimStyleTableRecord
  2
AM_ISO$4
 70
     0
  4
"
 41
3.0
 42
1.0
 43
8.0
 44
1.5
 47
0.1
 48
0.1
 73
     0
 77
     1
 78
     8
 79
     2
140
3.5
141
0.0
143
0.0393701
146
0.6
147
0.7
176
   256
177
   256
178
   256
271
     2
272
     2
283
     0
284
     8
288
     1
289
     0
340
11
371
    -1
372
    -1
  0
DIMSTYLE
105
84
330
A
100
AcDbSymbolTableRecord
100
AcDbDimStyleTableRecord
  2
AM_ISO$6
 70
     0
  4
"
 41
3.0
 42
1.0
 43
8.0
 44
1.5
 47
0.1
 48
0.1
 73
     0
 74
     0
 78
     8
 79
     2
140
3.5
141
0.0
143
0.0393701
146
0.6
147
0.7
172
     1
176
   256
177
   256
178
   256
271
     2
272
     2
283
     0
284
     8
340
11
371
    -1
372
    -1
  0
DIMSTYLE
105
85
330
A
100
AcDbSymbolTableRecord
100
AcDbDimStyleTableRecord
  2
AM_ISO$7
 70
     0
  4
"
 41
3.0
 42
1.0
 43
8.0
 44
1.5
 47
0.1
 48
0.1
 73
     0
 74
     0
 77
     1
 78
     8
 79
     2
140
5.0
141
0.0
143
0.0393701
146
0.6
147
0.7
172
     1
176
   256
177
   256
178
   256
271
     2
272
     2
283
     0
284
     8
340
11
371
    -1
372
    -1
  0
DIMSTYLE
105
86
330
A
100
AcDbSymbolTableRecord
100
AcDbDimStyleTableRecord
  2
AM_ISO$SF
 70
     0
  4
"
 41
2.5
 42
1.0
 43
10.0
 44
1.0
 47
0.1
 48
0.1
 73
     0
 74
     0
 75
     1
 76
     1
 77
     1
 78
     8
 79
     2
140
3.5
141
0.0
143
0.0393701
146
0.71
147
1.5
172
     1
176
   256
177
   256
178
     2
271
     2
272
     3
274
     4
283
     0
284
     8
340
11
371
    -1
372
    -1
  0
DIMSTYLE
105
8B
330
A
100
AcDbSymbolTableRecord
100
AcDbDimStyleTableRecord
  2
AM_ISO$SH
 70
     0
  4
"
 41
2.5
 42
1.0
 43
10.0
 44
1.0
 47
0.1
 48
0.1
 73
     0
 74
     0
 75
     1
 76
     1
 77
     1
 78
     8
 79
     2
140
3.5
141
0.0
143
0.0393701
144
2.0
146
0.71
147
1.5
172
     1
173
     1
176
   256
177
   256
178
     2
271
     2
272
     3
274
     4
283
     0
284
     8
340
11
343
87
371
    -1
372
    -1
  0
DIMSTYLE
105
40B
330
A
100
AcDbSymbolTableRecord
100
AcDbDimStyleTableRecord
  2
AM_ISO$0
 70
     0
  4
"
 41
3.0
 42
1.0
 43
8.0
 44
1.5
 47
0.1
 48
0.1
 73
     0
 74
     0
 77
     1
 78
     8
 79
     2
140
3.5
141
0.0
143
0.0393701
146
0.6
147
0.7
172
     1
176
   256
177
   256
178
   256
271
     2
272
     2
283
     0
284
     8
340
11
371
    -1
372
    -1
  0
DIMSTYLE
105
1CD6
102
{ACAD_REACTORS
330
1CF8
330
1CE4
330
1CD8
330
1CE1
330
1D19
330
1D0F
330
1D0C
330
1D24
330
1E42
330
1E1F
330
1E4A
330
1DEE
330
1DB4
330
1D38
330
1DBC
330
1D41
330
1EC2
330
1EC3
330
1F35
330
1F3E
330
1FB1
330
1FB9
330
1FEB
330
201C
330
20BF
330
20C0
330
1ED5
330
1EDE
330
1EE1
330
1EF5
330
1F09
330
1F0C
330
1F16
330
1F21
330
2248
330
25B8
330
203F
330
25E3
102
}
330
A
100
AcDbSymbolTableRecord
100
AcDbDimStyleTableRecord
  2
STANDARD
 70
     0
 41
3.0
 42
1.5
 43
15.0
 44
1.0
 47
0.01
 48
0.01
 73
     0
 74
     0
 77
     1
 78
     8
 79
     2
140
3.5
141
3.0
146
0.6
147
0.8
172
     1
176
   256
177
   256
178
   256
271
     2
272
     2
283
     0
284
     8
340
11
371
    -1
372
    -1
  0
ENDTAB
  0
TABLE
  2
BLOCK_RECORD
  5
1
330
0
100
AcDbSymbolTable
 70
    46
  0
BLOCK_RECORD
  5
1F
102
{ACAD_XDICTIONARY
360
8F
102
}
330
1
100
AcDbSymbolTableRecord
100
AcDbBlockTableRecord
  2
*Model_Space
340
22
  0
BLOCK_RECORD
  5
1B
330
1
100
AcDbSymbolTableRecord
100
AcDbBlockTableRecord
  2
*Paper_Space
340
1E
  0
BLOCK_RECORD
  5
23
330
1
100
AcDbSymbolTableRecord
100
AcDbBlockTableRecord
  2
*Paper_Space0
340
26
  0
BLOCK_RECORD
  5
87
330
1
100
AcDbSymbolTableRecord
100
AcDbBlockTableRecord
  2
GENAXEH
340
0
  0
BLOCK_RECORD
  5
20CB
330
1
100
AcDbSymbolTableRecord
100
AcDbBlockTableRecord
  2
*D26
340
0
  0
BLOCK_RECORD
  5
20D7
330
1
100
AcDbSymbolTableRecord
100
AcDbBlockTableRecord
  2
*D27
340
0
  0
BLOCK_RECORD
  5
20E3
330
1
100
AcDbSymbolTableRecord
100
AcDbBlockTableRecord
  2
*D28
340
0
  0
BLOCK_RECORD
  5
20EF
330
1
100
AcDbSymbolTableRecord
100
AcDbBlockTableRecord
  2
*D29
340
0
  0
BLOCK_RECORD
  5
20FB
330
1
100
AcDbSymbolTableRecord
100
AcDbBlockTableRecord
  2
*D30
340
0
  0
BLOCK_RECORD
  5
2107
330
1
100
AcDbSymbolTableRecord
100
AcDbBlockTableRecord
  2
*D31
340
0
  0
BLOCK_RECORD
  5
2113
330
1
100
AcDbSymbolTableRecord
100
AcDbBlockTableRecord
  2
*D32
340
0
  0
BLOCK_RECORD
  5
212B
330
1
100
AcDbSymbolTableRecord
100
AcDbBlockTableRecord
  2
*D34
340
0
  0
BLOCK_RECORD
  5
2137
330
1
100
AcDbSymbolTableRecord
100
AcDbBlockTableRecord
  2
*D35
340
0
  0
BLOCK_RECORD
  5
2143
330
1
100
AcDbSymbolTableRecord
100
AcDbBlockTableRecord
  2
*D36
340
0
  0
BLOCK_RECORD
  5
214F
330
1
100
AcDbSymbolTableRecord
100
AcDbBlockTableRecord
  2
*D37
340
0
  0
BLOCK_RECORD
  5
215B
330
1
100
AcDbSymbolTableRecord
100
AcDbBlockTableRecord
  2
*D38
340
0
  0
BLOCK_RECORD
  5
2167
330
1
100
AcDbSymbolTableRecord
100
AcDbBlockTableRecord
  2
*D39
340
0
  0
BLOCK_RECORD
  5
2173
330
1
100
AcDbSymbolTableRecord
100
AcDbBlockTableRecord
  2
*D40
340
0
  0
BLOCK_RECORD
  5
217F
330
1
100
AcDbSymbolTableRecord
100
AcDbBlockTableRecord
  2
*D41
340
0
  0
BLOCK_RECORD
  5
218B
330
1
100
AcDbSymbolTableRecord
100
AcDbBlockTableRecord
  2
*D42
340
0
  0
BLOCK_RECORD
  5
2197
330
1
100
AcDbSymbolTableRecord
100
AcDbBlockTableRecord
  2
*D43
340
0
  0
BLOCK_RECORD
  5
25E6
330
1
100
AcDbSymbolTableRecord
100
AcDbBlockTableRecord
  2
*D45
340
0
  0
ENDTAB
  0
ENDSEC
  0
SECTION
  2
BLOCKS
  0
BLOCK
  5
20
330
1F
100
AcDbEntity
  8
0
100
AcDbBlockBegin
  2
*Model_Space
 70
     0
 10
0.0
 20
0.0
 30
0.0
  3
*Model_Space
  1

  0
ENDBLK
  5
21
330
1F
100
AcDbEntity
  8
0
100
AcDbBlockEnd
  0
BLOCK
  5
1C
330
1B
100
AcDbEntity
 67
     1
  8
0
100
AcDbBlockBegin
  2
*Paper_Space
 70
     0
 10
0.0
 20
0.0
 30
0.0
  3
*Paper_Space
  1

  0
ENDBLK
  5
1D
330
1B
100
AcDbEntity
 67
     1
  8
0
100
AcDbBlockEnd
  0
BLOCK
  5
24
330
23
100
AcDbEntity
  8
0
100
AcDbBlockBegin
  2
*Paper_Space0
 70
     0
 10
0.0
 20
0.0
 30
0.0
  3
*Paper_Space0
  1

  0
ENDBLK
  5
25
330
23
100
AcDbEntity
  8
0
100
AcDbBlockEnd
  0
BLOCK
  5
89
330
87
100
AcDbEntity
  8
0
100
AcDbBlockBegin
  2
GENAXEH
 70
     0
 10
0.0
 20
0.0
 30
0.0
  3
GENAXEH
  1

  0
LINE
  5
88
330
87
100
AcDbEntity
  8
0
100
AcDbLine
 10
-1.0
 20
0.0
 30
0.0
 11
1.0
 21
0.0
 31
0.0
  0
ENDBLK
  5
8A
330
87
100
AcDbEntity
  8
0
100
AcDbBlockEnd
  0
BLOCK
  5
20D5
330
20CB
100
AcDbEntity
  8
0
100
AcDbBlockBegin
  2
*D26
 70
     1
 10
0.0
 20
0.0
 30
0.0
  3
*D26
  1

  0
LINE
  5
2645
330
20CB
100
AcDbEntity
  8
AM_5
100
AcDbLine
 10
248.9733569538005
 20
357.2976451759965
 30
0.0
 11
248.9733569538005
 21
350.5788899804985
 31
0.0
  0
LINE
  5
2646
330
20CB
100
AcDbEntity
  8
AM_5
100
AcDbLine
 10
291.3553726227253
 20
357.2008172771486
 30
0.0
 11
291.3553726227253
 21
350.5788899804985
 31
0.0
  0
LINE
  5
2647
330
20CB
100
AcDbEntity
  8
AM_5
100
AcDbLine
 10
250.4733569538005
 20
351.5788899804985
 30
0.0
 11
289.8553726227253
 21
351.5788899804985
 31
0.0
  0
SOLID
  5
2648
330
20CB
100
AcDbEntity
  8
AM_5
100
AcDbTrace
 10
250.4733569538005
 20
351.8288899804985
 30
0.0
 11
250.4733569538005
 21
351.3288899804985
 31
0.0
 12
248.9733569538005
 22
351.5788899804985
 32
0.0
 13
248.9733569538005
 23
351.5788899804985
 33
0.0
  0
SOLID
  5
2649
330
20CB
100
AcDbEntity
  8
AM_5
100
AcDbTrace
 10
289.8553726227253
 20
351.8288899804985
 30
0.0
 11
289.8553726227253
 21
351.3288899804985
 31
0.0
 12
291.3553726227253
 22
351.5788899804985
 32
0.0
 13
291.3553726227253
 23
351.5788899804985
 33
0.0
  0
MTEXT
  5
264A
330
20CB
100
AcDbEntity
  8
AM_5
100
AcDbMText
 10
270.1643647882629
 20
352.8538899804985
 30
0.0
 40
1.75
 41
0.0
 71
     5
 72
     1
  1
150%%p10
 73
     1
 44
1.0
1001
ACAD
1000
MTEXTBEGIN
1070
    73
1070
     1
1070
    44
1040
1.0
1070
    74
1070
     0
1000
MTEXTEND
  0
POINT
  5
264B
330
20CB
100
AcDbEntity
  8
Defpoints
 62
     0
100
AcDbPoint
 10
248.9733569538005
 20
358.0476451759965
 30
0.0
  0
POINT
  5
264C
330
20CB
100
AcDbEntity
  8
Defpoints
 62
     0
100
AcDbPoint
 10
291.3553726227253
 20
357.9508172771486
 30
0.0
  0
POINT
  5
264D
330
20CB
100
AcDbEntity
  8
Defpoints
 62
     0
100
AcDbPoint
 10
291.3553726227253
 20
351.5788899804985
 30
0.0
  0
ENDBLK
  5
20D6
330
20CB
100
AcDbEntity
  8
0
100
AcDbBlockEnd
  0
BLOCK
  5
20E1
330
20D7
100
AcDbEntity
  8
0
100
AcDbBlockBegin
  2
*D27
 70
     1
 10
0.0
 20
0.0
 30
0.0
  3
*D27
  1

  0
LINE
  5
264E
330
20D7
100
AcDbEntity
  8
AM_5
100
AcDbLine
 10
213.0636992420188
 20
341.4155236983021
 30
0.0
 11
209.5207511667266
 21
341.4155236983021
 31
0.0
  0
LINE
  5
264F
330
20D7
100
AcDbEntity
  8
AM_5
100
AcDbLine
 10
212.3161533463243
 20
335.657582974622
 30
0.0
 11
209.5207511667266
 21
335.657582974622
 31
0.0
  0
LINE
  5
2650
330
20D7
100
AcDbEntity
  8
AM_5
100
AcDbLine
 10
210.5207511667266
 20
339.9155236983022
 30
0.0
 11
210.5207511667266
 21
337.157582974622
 31
0.0
  0
SOLID
  5
2651
330
20D7
100
AcDbEntity
  8
AM_5
100
AcDbTrace
 10
210.2707511667266
 20
339.9155236983022
 30
0.0
 11
210.7707511667266
 21
339.9155236983022
 31
0.0
 12
210.5207511667266
 22
341.4155236983021
 32
0.0
 13
210.5207511667266
 23
341.4155236983021
 33
0.0
  0
SOLID
  5
2652
330
20D7
100
AcDbEntity
  8
AM_5
100
AcDbTrace
 10
210.2707511667266
 20
337.157582974622
 30
0.0
 11
210.7707511667266
 21
337.157582974622
 31
0.0
 12
210.5207511667266
 22
335.657582974622
 32
0.0
 13
210.5207511667266
 23
335.657582974622
 33
0.0
  0
MTEXT
  5
2653
330
20D7
100
AcDbEntity
  8
AM_5
100
AcDbMText
 10
209.2457511667265
 20
338.5365533364621
 30
0.0
 40
1.75
 41
0.0
 71
     5
 72
     1
  1
4
 11
0.0000000000000001
 21
1.0
 31
0.0
 73
     1
 44
1.0
1001
ACAD
1000
MTEXTBEGIN
1070
    73
1070
     1
1070
    44
1040
1.0
1070
    74
1070
     0
1000
MTEXTEND
  0
POINT
  5
2654
330
20D7
100
AcDbEntity
  8
Defpoints
 62
     0
100
AcDbPoint
 10
213.8136992420188
 20
341.4155236983021
 30
0.0
  0
POINT
  5
2655
330
20D7
100
AcDbEntity
  8
Defpoints
 62
     0
100
AcDbPoint
 10
213.0661533463243
 20
335.657582974622
 30
0.0
  0
POINT
  5
2656
330
20D7
100
AcDbEntity
  8
Defpoints
 62
     0
100
AcDbPoint
 10
210.5207511667266
 20
335.657582974622
 30
0.0
  0
ENDBLK
  5
20E2
330
20D7
100
AcDbEntity
  8
0
100
AcDbBlockEnd
  0
BLOCK
  5
20ED
330
20E3
100
AcDbEntity
  8
0
100
AcDbBlockBegin
  2
*D28
 70
     1
 10
0.0
 20
0.0
 30
0.0
  3
*D28
  1

  0
LINE
  5
2657
330
20E3
100
AcDbEntity
  8
AM_5
100
AcDbLine
 10
223.4733569538002
 20
357.2976451759965
 30
0.0
 11
223.4733569538002
 21
350.5788899804985
 31
0.0
  0
LINE
  5
2658
330
20E3
100
AcDbEntity
  8
AM_5
100
AcDbLine
 10
248.9733569538005
 20
357.2976451759965
 30
0.0
 11
248.9733569538005
 21
350.5788899804985
 31
0.0
  0
LINE
  5
2659
330
20E3
100
AcDbEntity
  8
AM_5
100
AcDbLine
 10
224.9733569538002
 20
351.5788899804984
 30
0.0
 11
247.4733569538005
 21
351.5788899804984
 31
0.0
  0
SOLID
  5
265A
330
20E3
100
AcDbEntity
  8
AM_5
100
AcDbTrace
 10
224.9733569538002
 20
351.8288899804984
 30
0.0
 11
224.9733569538002
 21
351.3288899804984
 31
0.0
 12
223.4733569538002
 22
351.5788899804984
 32
0.0
 13
223.4733569538002
 23
351.5788899804984
 33
0.0
  0
SOLID
  5
265B
330
20E3
100
AcDbEntity
  8
AM_5
100
AcDbTrace
 10
247.4733569538005
 20
351.8288899804984
 30
0.0
 11
247.4733569538005
 21
351.3288899804984
 31
0.0
 12
248.9733569538005
 22
351.5788899804984
 32
0.0
 13
248.9733569538005
 23
351.5788899804984
 33
0.0
  0
MTEXT
  5
265C
330
20E3
100
AcDbEntity
  8
AM_5
100
AcDbMText
 10
236.2233569538004
 20
352.8540622245929
 30
0.0
 40
1.75
 41
0.0
 71
     5
 72
     1
  1
25.5
 73
     1
 44
1.0
1001
ACAD
1000
MTEXTBEGIN
1070
    73
1070
     1
1070
    44
1040
1.0
1070
    74
1070
     0
1000
MTEXTEND
  0
POINT
  5
265D
330
20E3
100
AcDbEntity
  8
Defpoints
 62
     0
100
AcDbPoint
 10
223.4733569538002
 20
358.0476451759965
 30
0.0
  0
POINT
  5
265E
330
20E3
100
AcDbEntity
  8
Defpoints
 62
     0
100
AcDbPoint
 10
248.9733569538005
 20
358.0476451759965
 30
0.0
  0
POINT
  5
265F
330
20E3
100
AcDbEntity
  8
Defpoints
 62
     0
100
AcDbPoint
 10
248.9733569538005
 20
351.5788899804984
 30
0.0
  0
ENDBLK
  5
20EE
330
20E3
100
AcDbEntity
  8
0
100
AcDbBlockEnd
  0
BLOCK
  5
20F9
330
20EF
100
AcDbEntity
  8
0
100
AcDbBlockBegin
  2
*D29
 70
     1
 10
0.0
 20
0.0
 30
0.0
  3
*D29
  1

  0
LINE
  5
2660
330
20EF
100
AcDbEntity
  8
AM_5
100
AcDbLine
 10
223.4733569538002
 20
334.907582974622
 30
0.0
 11
223.4733569538002
 21
330.1334527089524
 31
0.0
  0
LINE
  5
2661
330
20EF
100
AcDbEntity
  8
AM_5
100
AcDbLine
 10
230.9733569538005
 20
334.822582974622
 30
0.0
 11
230.9733569538005
 21
330.1334527089524
 31
0.0
  0
LINE
  5
2662
330
20EF
100
AcDbEntity
  8
AM_5
100
AcDbLine
 10
224.9733569538002
 20
331.1334527089524
 30
0.0
 11
229.4733569538005
 21
331.1334527089524
 31
0.0
  0
SOLID
  5
2663
330
20EF
100
AcDbEntity
  8
AM_5
100
AcDbTrace
 10
224.9733569538002
 20
331.3834527089524
 30
0.0
 11
224.9733569538002
 21
330.8834527089524
 31
0.0
 12
223.4733569538002
 22
331.1334527089524
 32
0.0
 13
223.4733569538002
 23
331.1334527089524
 33
0.0
  0
SOLID
  5
2664
330
20EF
100
AcDbEntity
  8
AM_5
100
AcDbTrace
 10
229.4733569538005
 20
331.3834527089524
 30
0.0
 11
229.4733569538005
 21
330.8834527089524
 31
0.0
 12
230.9733569538005
 22
331.1334527089524
 32
0.0
 13
230.9733569538005
 23
331.1334527089524
 33
0.0
  0
MTEXT
  5
2665
330
20EF
100
AcDbEntity
  8
AM_5
100
AcDbMText
 10
227.2233569538003
 20
332.4084527089524
 30
0.0
 40
1.75
 41
0.0
 71
     5
 72
     1
  1
7.5
 73
     1
 44
1.0
1001
ACAD
1000
MTEXTBEGIN
1070
    73
1070
     1
1070
    44
1040
1.0
1070
    74
1070
     0
1000
MTEXTEND
  0
POINT
  5
2666
330
20EF
100
AcDbEntity
  8
Defpoints
 62
     0
100
AcDbPoint
 10
223.4733569538002
 20
335.657582974622
 30
0.0
  0
POINT
  5
2667
330
20EF
100
AcDbEntity
  8
Defpoints
 62
     0
100
AcDbPoint
 10
230.9733569538005
 20
335.572582974622
 30
0.0
  0
POINT
  5
2668
330
20EF
100
AcDbEntity
  8
Defpoints
 62
     0
100
AcDbPoint
 10
230.9733569538005
 20
331.1334527089524
 30
0.0
  0
ENDBLK
  5
20FA
330
20EF
100
AcDbEntity
  8
0
100
AcDbBlockEnd
  0
BLOCK
  5
2105
330
20FB
100
AcDbEntity
  8
0
100
AcDbBlockBegin
  2
*D30
 70
     1
 10
0.0
 20
0.0
 30
0.0
  3
*D30
  1

  0
LINE
  5
2669
330
20FB
100
AcDbEntity
  8
AM_5
100
AcDbLine
 10
222.7233569538002
 20
363.0747880331394
 30
0.0
 11
219.3628855680212
 21
363.0747880331394
 31
0.0
  0
LINE
  5
266A
330
20FB
100
AcDbEntity
  8
AM_5
100
AcDbLine
 10
222.7233569538002
 20
358.1326451759964
 30
0.0
 11
219.3628855680212
 21
358.1326451759964
 31
0.0
  0
LINE
  5
266B
330
20FB
100
AcDbEntity
  8
AM_5
100
AcDbLine
 10
220.3628855680212
 20
361.5747880331394
 30
0.0
 11
220.3628855680212
 21
359.6326451759964
 31
0.0
  0
SOLID
  5
266C
330
20FB
100
AcDbEntity
  8
AM_5
100
AcDbTrace
 10
220.1128855680212
 20
361.5747880331394
 30
0.0
 11
220.6128855680212
 21
361.5747880331394
 31
0.0
 12
220.3628855680212
 22
363.0747880331394
 32
0.0
 13
220.3628855680212
 23
363.0747880331394
 33
0.0
  0
SOLID
  5
266D
330
20FB
100
AcDbEntity
  8
AM_5
100
AcDbTrace
 10
220.1128855680212
 20
359.6326451759964
 30
0.0
 11
220.6128855680212
 21
359.6326451759964
 31
0.0
 12
220.3628855680212
 22
358.1326451759964
 32
0.0
 13
220.3628855680212
 23
358.1326451759964
 33
0.0
  0
MTEXT
  5
266E
330
20FB
100
AcDbEntity
  8
AM_5
100
AcDbMText
 10
219.0878855680212
 20
360.6037166045681
 30
0.0
 40
1.75
 41
0.0
 71
     5
 72
     1
  1
4
 11
0.0000000000000001
 21
1.0
 31
0.0
 73
     1
 44
1.0
1001
ACAD
1000
MTEXTBEGIN
1070
    73
1070
     1
1070
    44
1040
1.0
1070
    74
1070
     0
1000
MTEXTEND
  0
POINT
  5
266F
330
20FB
100
AcDbEntity
  8
Defpoints
 62
     0
100
AcDbPoint
 10
223.4733569538002
 20
363.0747880331394
 30
0.0
  0
POINT
  5
2670
330
20FB
100
AcDbEntity
  8
Defpoints
 62
     0
100
AcDbPoint
 10
223.4733569538002
 20
358.1326451759964
 30
0.0
  0
POINT
  5
2671
330
20FB
100
AcDbEntity
  8
Defpoints
 62
     0
100
AcDbPoint
 10
220.3628855680212
 20
358.1326451759964
 30
0.0
  0
ENDBLK
  5
2106
330
20FB
100
AcDbEntity
  8
0
100
AcDbBlockEnd
  0
BLOCK
  5
2111
330
2107
100
AcDbEntity
  8
0
100
AcDbBlockBegin
  2
*D31
 70
     1
 10
0.0
 20
0.0
 30
0.0
  3
*D31
  1

  0
LINE
  5
2672
330
2107
100
AcDbEntity
  8
AM_5
100
AcDbLine
 10
213.0636992420188
 20
394.9026589043728
 30
0.0
 11
209.5207511667266
 21
394.9026589043728
 31
0.0
  0
LINE
  5
2673
330
2107
100
AcDbEntity
  8
AM_5
100
AcDbLine
 10
212.3161533463243
 20
389.1447181806926
 30
0.0
 11
209.5207511667266
 21
389.1447181806926
 31
0.0
  0
LINE
  5
2674
330
2107
100
AcDbEntity
  8
AM_5
100
AcDbLine
 10
210.5207511667266
 20
393.4026589043728
 30
0.0
 11
210.5207511667266
 21
390.6447181806926
 31
0.0
  0
SOLID
  5
2675
330
2107
100
AcDbEntity
  8
AM_5
100
AcDbTrace
 10
210.2707511667266
 20
393.4026589043728
 30
0.0
 11
210.7707511667266
 21
393.4026589043728
 31
0.0
 12
210.5207511667266
 22
394.9026589043728
 32
0.0
 13
210.5207511667266
 23
394.9026589043728
 33
0.0
  0
SOLID
  5
2676
330
2107
100
AcDbEntity
  8
AM_5
100
AcDbTrace
 10
210.2707511667266
 20
390.6447181806926
 30
0.0
 11
210.7707511667266
 21
390.6447181806926
 31
0.0
 12
210.5207511667266
 22
389.1447181806926
 32
0.0
 13
210.5207511667266
 23
389.1447181806926
 33
0.0
  0
MTEXT
  5
2677
330
2107
100
AcDbEntity
  8
AM_5
100
AcDbMText
 10
209.2457511667265
 20
392.0236885425329
 30
0.0
 40
1.75
 41
0.0
 71
     5
 72
     1
  1
4
 11
0.0000000000000001
 21
1.0
 31
0.0
 73
     1
 44
1.0
1001
ACAD
1000
MTEXTBEGIN
1070
    73
1070
     1
1070
    44
1040
1.0
1070
    74
1070
     0
1000
MTEXTEND
  0
POINT
  5
2678
330
2107
100
AcDbEntity
  8
Defpoints
 62
     0
100
AcDbPoint
 10
213.8136992420188
 20
394.9026589043728
 30
0.0
  0
POINT
  5
2679
330
2107
100
AcDbEntity
  8
Defpoints
 62
     0
100
AcDbPoint
 10
213.0661533463243
 20
389.1447181806926
 30
0.0
  0
POINT
  5
267A
330
2107
100
AcDbEntity
  8
Defpoints
 62
     0
100
AcDbPoint
 10
210.5207511667266
 20
389.1447181806926
 30
0.0
  0
ENDBLK
  5
2112
330
2107
100
AcDbEntity
  8
0
100
AcDbBlockEnd
  0
BLOCK
  5
211D
330
2113
100
AcDbEntity
  8
0
100
AcDbBlockBegin
  2
*D32
 70
     1
 10
0.0
 20
0.0
 30
0.0
  3
*D32
  1

  0
LINE
  5
267B
330
2113
100
AcDbEntity
  8
AM_5
100
AcDbLine
 10
223.4733569538008
 20
403.9695506967421
 30
0.0
 11
223.4733569538008
 21
398.9874302536281
 31
0.0
  0
LINE
  5
267C
330
2113
100
AcDbEntity
  8
AM_5
100
AcDbLine
 10
248.9733569538008
 20
403.9695506967421
 30
0.0
 11
248.9733569538008
 21
398.9874302536281
 31
0.0
  0
LINE
  5
267D
330
2113
100
AcDbEntity
  8
AM_5
100
AcDbLine
 10
224.9733569538008
 20
399.9874302536282
 30
0.0
 11
247.4733569538007
 21
399.9874302536282
 31
0.0
  0
SOLID
  5
267E
330
2113
100
AcDbEntity
  8
AM_5
100
AcDbTrace
 10
224.9733569538008
 20
400.2374302536281
 30
0.0
 11
224.9733569538008
 21
399.7374302536282
 31
0.0
 12
223.4733569538008
 22
399.9874302536282
 32
0.0
 13
223.4733569538008
 23
399.9874302536282
 33
0.0
  0
SOLID
  5
267F
330
2113
100
AcDbEntity
  8
AM_5
100
AcDbTrace
 10
247.4733569538007
 20
400.2374302536281
 30
0.0
 11
247.4733569538007
 21
399.7374302536282
 31
0.0
 12
248.9733569538008
 22
399.9874302536282
 32
0.0
 13
248.9733569538008
 23
399.9874302536282
 33
0.0
  0
MTEXT
  5
2680
330
2113
100
AcDbEntity
  8
AM_5
100
AcDbMText
 10
236.2233569538008
 20
401.2626024977226
 30
0.0
 40
1.75
 41
0.0
 71
     5
 72
     1
  1
25.5
 73
     1
 44
1.0
1001
ACAD
1000
MTEXTBEGIN
1070
    73
1070
     1
1070
    44
1040
1.0
1070
    74
1070
     0
1000
MTEXTEND
  0
POINT
  5
2681
330
2113
100
AcDbEntity
  8
Defpoints
 62
     0
100
AcDbPoint
 10
223.4733569538008
 20
404.7195506967422
 30
0.0
  0
POINT
  5
2682
330
2113
100
AcDbEntity
  8
Defpoints
 62
     0
100
AcDbPoint
 10
248.9733569538008
 20
404.7195506967422
 30
0.0
  0
POINT
  5
2683
330
2113
100
AcDbEntity
  8
Defpoints
 62
     0
100
AcDbPoint
 10
248.9733569538008
 20
399.9874302536282
 30
0.0
  0
ENDBLK
  5
211E
330
2113
100
AcDbEntity
  8
0
100
AcDbBlockEnd
  0
BLOCK
  5
2135
330
212B
100
AcDbEntity
  8
0
100
AcDbBlockBegin
  2
*D34
 70
     1
 10
0.0
 20
0.0
 30
0.0
  3
*D34
  1

  0
LINE
  5
2684
330
212B
100
AcDbEntity
  8
AM_5
100
AcDbLine
 10
222.7233569538002
 20
409.9166935538851
 30
0.0
 11
219.3628855680212
 21
409.9166935538851
 31
0.0
  0
LINE
  5
2685
330
212B
100
AcDbEntity
  8
AM_5
100
AcDbLine
 10
222.7233569538002
 20
404.974550696742
 30
0.0
 11
219.3628855680212
 21
404.974550696742
 31
0.0
  0
LINE
  5
2686
330
212B
100
AcDbEntity
  8
AM_5
100
AcDbLine
 10
220.3628855680212
 20
408.416693553885
 30
0.0
 11
220.3628855680212
 21
406.4745506967421
 31
0.0
  0
SOLID
  5
2687
330
212B
100
AcDbEntity
  8
AM_5
100
AcDbTrace
 10
220.1128855680212
 20
408.416693553885
 30
0.0
 11
220.6128855680212
 21
408.416693553885
 31
0.0
 12
220.3628855680212
 22
409.9166935538851
 32
0.0
 13
220.3628855680212
 23
409.9166935538851
 33
0.0
  0
SOLID
  5
2688
330
212B
100
AcDbEntity
  8
AM_5
100
AcDbTrace
 10
220.1128855680212
 20
406.4745506967421
 30
0.0
 11
220.6128855680212
 21
406.4745506967421
 31
0.0
 12
220.3628855680212
 22
404.974550696742
 32
0.0
 13
220.3628855680212
 23
404.974550696742
 33
0.0
  0
MTEXT
  5
2689
330
212B
100
AcDbEntity
  8
AM_5
100
AcDbMText
 10
219.0878855680212
 20
407.4456221253138
 30
0.0
 40
1.75
 41
0.0
 71
     5
 72
     1
  1
4
 11
0.0000000000000001
 21
1.0
 31
0.0
 73
     1
 44
1.0
1001
ACAD
1000
MTEXTBEGIN
1070
    73
1070
     1
1070
    44
1040
1.0
1070
    74
1070
     0
1000
MTEXTEND
  0
POINT
  5
268A
330
212B
100
AcDbEntity
  8
Defpoints
 62
     0
100
AcDbPoint
 10
223.4733569538002
 20
409.9166935538851
 30
0.0
  0
POINT
  5
268B
330
212B
100
AcDbEntity
  8
Defpoints
 62
     0
100
AcDbPoint
 10
223.4733569538002
 20
404.974550696742
 30
0.0
  0
POINT
  5
268C
330
212B
100
AcDbEntity
  8
Defpoints
 62
     0
100
AcDbPoint
 10
220.3628855680212
 20
404.974550696742
 30
0.0
  0
ENDBLK
  5
2136
330
212B
100
AcDbEntity
  8
0
100
AcDbBlockEnd
  0
BLOCK
  5
2141
330
2137
100
AcDbEntity
  8
0
100
AcDbBlockBegin
  2
*D35
 70
     1
 10
0.0
 20
0.0
 30
0.0
  3
*D35
  1

  0
LINE
  5
268D
330
2137
100
AcDbEntity
  8
AM_5
100
AcDbLine
 10
117.095782876262
 20
334.742272936592
 30
0.0
 11
117.095782876262
 21
328.9776150903572
 31
0.0
  0
LINE
  5
268E
330
2137
100
AcDbEntity
  8
AM_5
100
AcDbLine
 10
127.0957828762614
 20
334.827272936592
 30
0.0
 11
127.0957828762614
 21
328.9776150903572
 31
0.0
  0
LINE
  5
268F
330
2137
100
AcDbEntity
  8
AM_5
100
AcDbLine
 10
118.595782876262
 20
329.9776150903572
 30
0.0
 11
125.5957828762614
 21
329.9776150903572
 31
0.0
  0
SOLID
  5
2690
330
2137
100
AcDbEntity
  8
AM_5
100
AcDbTrace
 10
118.595782876262
 20
330.2276150903572
 30
0.0
 11
118.595782876262
 21
329.7276150903572
 31
0.0
 12
117.095782876262
 22
329.9776150903572
 32
0.0
 13
117.095782876262
 23
329.9776150903572
 33
0.0
  0
SOLID
  5
2691
330
2137
100
AcDbEntity
  8
AM_5
100
AcDbTrace
 10
125.5957828762614
 20
330.2276150903572
 30
0.0
 11
125.5957828762614
 21
329.7276150903572
 31
0.0
 12
127.0957828762614
 22
329.9776150903572
 32
0.0
 13
127.0957828762614
 23
329.9776150903572
 33
0.0
  0
MTEXT
  5
2692
330
2137
100
AcDbEntity
  8
AM_5
100
AcDbMText
 10
121.7820060880351
 20
331.2526150903571
 30
0.0
 40
1.75
 41
0.0
 71
     5
 72
     1
  1
10
 73
     1
 44
1.0
1001
ACAD
1000
MTEXTBEGIN
1070
    73
1070
     1
1070
    44
1040
1.0
1070
    74
1070
     0
1000
MTEXTEND
  0
POINT
  5
2693
330
2137
100
AcDbEntity
  8
Defpoints
 62
     0
100
AcDbPoint
 10
117.095782876262
 20
335.492272936592
 30
0.0
  0
POINT
  5
2694
330
2137
100
AcDbEntity
  8
Defpoints
 62
     0
100
AcDbPoint
 10
127.0957828762614
 20
335.577272936592
 30
0.0
  0
POINT
  5
2695
330
2137
100
AcDbEntity
  8
Defpoints
 62
     0
100
AcDbPoint
 10
127.0957828762614
 20
329.9776150903572
 30
0.0
  0
ENDBLK
  5
2142
330
2137
100
AcDbEntity
  8
0
100
AcDbBlockEnd
  0
BLOCK
  5
214D
330
2143
100
AcDbEntity
  8
0
100
AcDbBlockBegin
  2
*D36
 70
     1
 10
0.0
 20
0.0
 30
0.0
  3
*D36
  1

  0
LINE
  5
25FD
330
2143
100
AcDbEntity
  8
AM_5
100
AcDbLine
 10
142.5957828762618
 20
357.2173351379666
 30
0.0
 11
142.5957828762618
 21
350.5788899804985
 31
0.0
  0
LINE
  5
25FE
330
2143
100
AcDbEntity
  8
AM_5
100
AcDbLine
 10
184.9777985451867
 20
357.1205072391187
 30
0.0
 11
184.9777985451867
 21
350.5788899804985
 31
0.0
  0
LINE
  5
25FF
330
2143
100
AcDbEntity
  8
AM_5
100
AcDbLine
 10
144.0957828762618
 20
351.5788899804984
 30
0.0
 11
183.4777985451867
 21
351.5788899804984
 31
0.0
  0
SOLID
  5
2600
330
2143
100
AcDbEntity
  8
AM_5
100
AcDbTrace
 10
144.0957828762618
 20
351.8288899804984
 30
0.0
 11
144.0957828762618
 21
351.3288899804984
 31
0.0
 12
142.5957828762618
 22
351.5788899804984
 32
0.0
 13
142.5957828762618
 23
351.5788899804984
 33
0.0
  0
SOLID
  5
2601
330
2143
100
AcDbEntity
  8
AM_5
100
AcDbTrace
 10
183.4777985451867
 20
351.8288899804984
 30
0.0
 11
183.4777985451867
 21
351.3288899804984
 31
0.0
 12
184.9777985451867
 22
351.5788899804984
 32
0.0
 13
184.9777985451867
 23
351.5788899804984
 33
0.0
  0
MTEXT
  5
2602
330
2143
100
AcDbEntity
  8
AM_5
100
AcDbMText
 10
163.7867907107242
 20
352.8538899804984
 30
0.0
 40
1.75
 41
0.0
 71
     5
 72
     1
  1
150%%p10
 73
     1
 44
1.0
1001
ACAD
1000
MTEXTBEGIN
1070
    73
1070
     1
1070
    44
1040
1.0
1070
    74
1070
     0
1000
MTEXTEND
  0
POINT
  5
2603
330
2143
100
AcDbEntity
  8
Defpoints
 62
     0
100
AcDbPoint
 10
142.5957828762618
 20
357.9673351379666
 30
0.0
  0
POINT
  5
2604
330
2143
100
AcDbEntity
  8
Defpoints
 62
     0
100
AcDbPoint
 10
184.9777985451867
 20
357.8705072391187
 30
0.0
  0
POINT
  5
2605
330
2143
100
AcDbEntity
  8
Defpoints
 62
     0
100
AcDbPoint
 10
184.9777985451867
 20
351.5788899804984
 30
0.0
  0
ENDBLK
  5
214E
330
2143
100
AcDbEntity
  8
0
100
AcDbBlockEnd
  0
BLOCK
  5
2159
330
214F
100
AcDbEntity
  8
0
100
AcDbBlockBegin
  2
*D37
 70
     1
 10
0.0
 20
0.0
 30
0.0
  3
*D37
  1

  0
LINE
  5
2606
330
214F
100
AcDbEntity
  8
AM_5
100
AcDbLine
 10
117.0957828762618
 20
357.2173351379666
 30
0.0
 11
117.0957828762618
 21
350.5788899804985
 31
0.0
  0
LINE
  5
2607
330
214F
100
AcDbEntity
  8
AM_5
100
AcDbLine
 10
142.5957828762618
 20
357.2173351379666
 30
0.0
 11
142.5957828762618
 21
350.5788899804985
 31
0.0
  0
LINE
  5
2608
330
214F
100
AcDbEntity
  8
AM_5
100
AcDbLine
 10
118.5957828762618
 20
351.5788899804984
 30
0.0
 11
141.0957828762618
 21
351.5788899804984
 31
0.0
  0
SOLID
  5
2609
330
214F
100
AcDbEntity
  8
AM_5
100
AcDbTrace
 10
118.5957828762618
 20
351.8288899804984
 30
0.0
 11
118.5957828762618
 21
351.3288899804984
 31
0.0
 12
117.0957828762618
 22
351.5788899804984
 32
0.0
 13
117.0957828762618
 23
351.5788899804984
 33
0.0
  0
SOLID
  5
260A
330
214F
100
AcDbEntity
  8
AM_5
100
AcDbTrace
 10
141.0957828762618
 20
351.8288899804984
 30
0.0
 11
141.0957828762618
 21
351.3288899804984
 31
0.0
 12
142.5957828762618
 22
351.5788899804984
 32
0.0
 13
142.5957828762618
 23
351.5788899804984
 33
0.0
  0
MTEXT
  5
260B
330
214F
100
AcDbEntity
  8
AM_5
100
AcDbMText
 10
129.8457828762618
 20
352.8540622245929
 30
0.0
 40
1.75
 41
0.0
 71
     5
 72
     1
  1
25.5
 73
     1
 44
1.0
1001
ACAD
1000
MTEXTBEGIN
1070
    73
1070
     1
1070
    44
1040
1.0
1070
    74
1070
     0
1000
MTEXTEND
  0
POINT
  5
260C
330
214F
100
AcDbEntity
  8
Defpoints
 62
     0
100
AcDbPoint
 10
117.0957828762618
 20
357.9673351379666
 30
0.0
  0
POINT
  5
260D
330
214F
100
AcDbEntity
  8
Defpoints
 62
     0
100
AcDbPoint
 10
142.5957828762618
 20
357.9673351379666
 30
0.0
  0
POINT
  5
260E
330
214F
100
AcDbEntity
  8
Defpoints
 62
     0
100
AcDbPoint
 10
142.5957828762618
 20
351.5788899804984
 30
0.0
  0
ENDBLK
  5
215A
330
214F
100
AcDbEntity
  8
0
100
AcDbBlockEnd
  0
BLOCK
  5
2165
330
215B
100
AcDbEntity
  8
0
100
AcDbBlockBegin
  2
*D38
 70
     1
 10
0.0
 20
0.0
 30
0.0
  3
*D38
  1

  0
LINE
  5
260F
330
215B
100
AcDbEntity
  8
AM_5
100
AcDbLine
 10
106.6861251644798
 20
341.4202136602722
 30
0.0
 11
102.997882498913
 21
341.4202136602722
 31
0.0
  0
LINE
  5
2610
330
215B
100
AcDbEntity
  8
AM_5
100
AcDbLine
 10
105.9385792687853
 20
335.662272936592
 30
0.0
 11
102.997882498913
 21
335.662272936592
 31
0.0
  0
LINE
  5
2611
330
215B
100
AcDbEntity
  8
AM_5
100
AcDbLine
 10
103.997882498913
 20
339.9202136602722
 30
0.0
 11
103.997882498913
 21
337.162272936592
 31
0.0
  0
SOLID
  5
2612
330
215B
100
AcDbEntity
  8
AM_5
100
AcDbTrace
 10
103.747882498913
 20
339.9202136602722
 30
0.0
 11
104.247882498913
 21
339.9202136602722
 31
0.0
 12
103.997882498913
 22
341.4202136602722
 32
0.0
 13
103.997882498913
 23
341.4202136602722
 33
0.0
  0
SOLID
  5
2613
330
215B
100
AcDbEntity
  8
AM_5
100
AcDbTrace
 10
103.747882498913
 20
337.162272936592
 30
0.0
 11
104.247882498913
 21
337.162272936592
 31
0.0
 12
103.997882498913
 22
335.662272936592
 32
0.0
 13
103.997882498913
 23
335.662272936592
 33
0.0
  0
MTEXT
  5
2614
330
215B
100
AcDbEntity
  8
AM_5
100
AcDbMText
 10
102.722882498913
 20
338.5044924486683
 30
0.0
 40
1.75
 41
0.0
 71
     5
 72
     1
  1
4
 11
0.0000000000000001
 21
1.0
 31
0.0
 73
     1
 44
1.0
1001
ACAD
1000
MTEXTBEGIN
1070
    73
1070
     1
1070
    44
1040
1.0
1070
    74
1070
     0
1000
MTEXTEND
  0
POINT
  5
2615
330
215B
100
AcDbEntity
  8
Defpoints
 62
     0
100
AcDbPoint
 10
107.4361251644798
 20
341.4202136602722
 30
0.0
  0
POINT
  5
2616
330
215B
100
AcDbEntity
  8
Defpoints
 62
     0
100
AcDbPoint
 10
106.6885792687853
 20
335.662272936592
 30
0.0
  0
POINT
  5
2617
330
215B
100
AcDbEntity
  8
Defpoints
 62
     0
100
AcDbPoint
 10
103.997882498913
 20
335.662272936592
 30
0.0
  0
ENDBLK
  5
2166
330
215B
100
AcDbEntity
  8
0
100
AcDbBlockEnd
  0
BLOCK
  5
2171
330
2167
100
AcDbEntity
  8
0
100
AcDbBlockBegin
  2
*D39
 70
     1
 10
0.0
 20
0.0
 30
0.0
  3
*D39
  1

  0
LINE
  5
2618
330
2167
100
AcDbEntity
  8
AM_5
100
AcDbLine
 10
116.3457828762615
 20
362.9944779951095
 30
0.0
 11
111.6655295837166
 21
362.9944779951095
 31
0.0
  0
LINE
  5
2619
330
2167
100
AcDbEntity
  8
AM_5
100
AcDbLine
 10
116.3457828762615
 20
358.0523351379665
 30
0.0
 11
111.6655295837166
 21
358.0523351379665
 31
0.0
  0
LINE
  5
261A
330
2167
100
AcDbEntity
  8
AM_5
100
AcDbLine
 10
112.6655295837166
 20
361.4944779951095
 30
0.0
 11
112.6655295837166
 21
359.5523351379665
 31
0.0
  0
SOLID
  5
261B
330
2167
100
AcDbEntity
  8
AM_5
100
AcDbTrace
 10
112.4155295837166
 20
361.4944779951095
 30
0.0
 11
112.9155295837166
 21
361.4944779951095
 31
0.0
 12
112.6655295837166
 22
362.9944779951095
 32
0.0
 13
112.6655295837166
 23
362.9944779951095
 33
0.0
  0
SOLID
  5
261C
330
2167
100
AcDbEntity
  8
AM_5
100
AcDbTrace
 10
112.4155295837166
 20
359.5523351379665
 30
0.0
 11
112.9155295837166
 21
359.5523351379665
 31
0.0
 12
112.6655295837166
 22
358.0523351379665
 32
0.0
 13
112.6655295837166
 23
358.0523351379665
 33
0.0
  0
MTEXT
  5
261D
330
2167
100
AcDbEntity
  8
AM_5
100
AcDbMText
 10
111.3905295837165
 20
360.5234065665382
 30
0.0
 40
1.75
 41
0.0
 71
     5
 72
     1
  1
4
 11
0.0000000000000001
 21
1.0
 31
0.0
 73
     1
 44
1.0
1001
ACAD
1000
MTEXTBEGIN
1070
    73
1070
     1
1070
    44
1040
1.0
1070
    74
1070
     0
1000
MTEXTEND
  0
POINT
  5
261E
330
2167
100
AcDbEntity
  8
Defpoints
 62
     0
100
AcDbPoint
 10
117.0957828762615
 20
362.9944779951095
 30
0.0
  0
POINT
  5
261F
330
2167
100
AcDbEntity
  8
Defpoints
 62
     0
100
AcDbPoint
 10
117.0957828762615
 20
358.0523351379665
 30
0.0
  0
POINT
  5
2620
330
2167
100
AcDbEntity
  8
Defpoints
 62
     0
100
AcDbPoint
 10
112.6655295837166
 20
358.0523351379665
 30
0.0
  0
ENDBLK
  5
2172
330
2167
100
AcDbEntity
  8
0
100
AcDbBlockEnd
  0
BLOCK
  5
217D
330
2173
100
AcDbEntity
  8
0
100
AcDbBlockBegin
  2
*D40
 70
     1
 10
0.0
 20
0.0
 30
0.0
  3
*D40
  1

  0
LINE
  5
2621
330
2173
100
AcDbEntity
  8
AM_5
100
AcDbLine
 10
117.0957828762618
 20
403.9695506967421
 30
0.0
 11
117.0957828762618
 21
398.9874302536281
 31
0.0
  0
LINE
  5
2622
330
2173
100
AcDbEntity
  8
AM_5
100
AcDbLine
 10
142.5957828762618
 20
403.9695506967421
 30
0.0
 11
142.5957828762618
 21
398.9874302536281
 31
0.0
  0
LINE
  5
2623
330
2173
100
AcDbEntity
  8
AM_5
100
AcDbLine
 10
118.5957828762618
 20
399.9874302536282
 30
0.0
 11
141.0957828762618
 21
399.9874302536282
 31
0.0
  0
SOLID
  5
2624
330
2173
100
AcDbEntity
  8
AM_5
100
AcDbTrace
 10
118.5957828762618
 20
400.2374302536281
 30
0.0
 11
118.5957828762618
 21
399.7374302536282
 31
0.0
 12
117.0957828762618
 22
399.9874302536282
 32
0.0
 13
117.0957828762618
 23
399.9874302536282
 33
0.0
  0
SOLID
  5
2625
330
2173
100
AcDbEntity
  8
AM_5
100
AcDbTrace
 10
141.0957828762618
 20
400.2374302536281
 30
0.0
 11
141.0957828762618
 21
399.7374302536282
 31
0.0
 12
142.5957828762618
 22
399.9874302536282
 32
0.0
 13
142.5957828762618
 23
399.9874302536282
 33
0.0
  0
MTEXT
  5
2626
330
2173
100
AcDbEntity
  8
AM_5
100
AcDbMText
 10
129.8457828762618
 20
401.2626024977226
 30
0.0
 40
1.75
 41
0.0
 71
     5
 72
     1
  1
25.5
 73
     1
 44
1.0
1001
ACAD
1000
MTEXTBEGIN
1070
    73
1070
     1
1070
    44
1040
1.0
1070
    74
1070
     0
1000
MTEXTEND
  0
POINT
  5
2627
330
2173
100
AcDbEntity
  8
Defpoints
 62
     0
100
AcDbPoint
 10
117.0957828762618
 20
404.7195506967422
 30
0.0
  0
POINT
  5
2628
330
2173
100
AcDbEntity
  8
Defpoints
 62
     0
100
AcDbPoint
 10
142.5957828762618
 20
404.7195506967422
 30
0.0
  0
POINT
  5
2629
330
2173
100
AcDbEntity
  8
Defpoints
 62
     0
100
AcDbPoint
 10
142.5957828762618
 20
399.9874302536282
 30
0.0
  0
ENDBLK
  5
217E
330
2173
100
AcDbEntity
  8
0
100
AcDbBlockEnd
  0
BLOCK
  5
2189
330
217F
100
AcDbEntity
  8
0
100
AcDbBlockBegin
  2
*D41
 70
     1
 10
0.0
 20
0.0
 30
0.0
  3
*D41
  1

  0
LINE
  5
262A
330
217F
100
AcDbEntity
  8
AM_5
100
AcDbLine
 10
106.6861251644798
 20
394.9026589043729
 30
0.0
 11
103.3027802110383
 21
394.9026589043729
 31
0.0
  0
LINE
  5
262B
330
217F
100
AcDbEntity
  8
AM_5
100
AcDbLine
 10
105.9385792687853
 20
389.1447181806927
 30
0.0
 11
103.3027802110383
 21
389.1447181806927
 31
0.0
  0
LINE
  5
262C
330
217F
100
AcDbEntity
  8
AM_5
100
AcDbLine
 10
104.3027802110383
 20
393.4026589043729
 30
0.0
 11
104.3027802110383
 21
390.6447181806927
 31
0.0
  0
SOLID
  5
262D
330
217F
100
AcDbEntity
  8
AM_5
100
AcDbTrace
 10
104.0527802110382
 20
393.4026589043729
 30
0.0
 11
104.5527802110383
 21
393.4026589043729
 31
0.0
 12
104.3027802110383
 22
394.9026589043729
 32
0.0
 13
104.3027802110383
 23
394.9026589043729
 33
0.0
  0
SOLID
  5
262E
330
217F
100
AcDbEntity
  8
AM_5
100
AcDbTrace
 10
104.0527802110382
 20
390.6447181806927
 30
0.0
 11
104.5527802110383
 21
390.6447181806927
 31
0.0
 12
104.3027802110383
 22
389.1447181806927
 32
0.0
 13
104.3027802110383
 23
389.1447181806927
 33
0.0
  0
MTEXT
  5
262F
330
217F
100
AcDbEntity
  8
AM_5
100
AcDbMText
 10
103.0277802110382
 20
391.8767008570612
 30
0.0
 40
1.75
 41
0.0
 71
     5
 72
     1
  1
4
 11
0.0000000000000001
 21
1.0
 31
0.0
 73
     1
 44
1.0
1001
ACAD
1000
MTEXTBEGIN
1070
    73
1070
     1
1070
    44
1040
1.0
1070
    74
1070
     0
1000
MTEXTEND
  0
POINT
  5
2630
330
217F
100
AcDbEntity
  8
Defpoints
 62
     0
100
AcDbPoint
 10
107.4361251644798
 20
394.9026589043729
 30
0.0
  0
POINT
  5
2631
330
217F
100
AcDbEntity
  8
Defpoints
 62
     0
100
AcDbPoint
 10
106.6885792687853
 20
389.1447181806927
 30
0.0
  0
POINT
  5
2632
330
217F
100
AcDbEntity
  8
Defpoints
 62
     0
100
AcDbPoint
 10
104.3027802110383
 20
389.1447181806927
 30
0.0
  0
ENDBLK
  5
218A
330
217F
100
AcDbEntity
  8
0
100
AcDbBlockEnd
  0
BLOCK
  5
2195
330
218B
100
AcDbEntity
  8
0
100
AcDbBlockBegin
  2
*D42
 70
     1
 10
0.0
 20
0.0
 30
0.0
  3
*D42
  1

  0
LINE
  5
2633
330
218B
100
AcDbEntity
  8
AM_5
100
AcDbLine
 10
117.0957828762618
 20
388.3097181806927
 30
0.0
 11
117.0957828762618
 21
382.5450603344578
 31
0.0
  0
LINE
  5
2634
330
218B
100
AcDbEntity
  8
AM_5
100
AcDbLine
 10
127.0957828762614
 20
388.3097181806927
 30
0.0
 11
127.0957828762614
 21
382.5450603344578
 31
0.0
  0
LINE
  5
2635
330
218B
100
AcDbEntity
  8
AM_5
100
AcDbLine
 10
118.5957828762618
 20
383.5450603344579
 30
0.0
 11
125.5957828762614
 21
383.5450603344579
 31
0.0
  0
SOLID
  5
2636
330
218B
100
AcDbEntity
  8
AM_5
100
AcDbTrace
 10
118.5957828762618
 20
383.7950603344578
 30
0.0
 11
118.5957828762618
 21
383.2950603344579
 31
0.0
 12
117.0957828762618
 22
383.5450603344579
 32
0.0
 13
117.0957828762618
 23
383.5450603344579
 33
0.0
  0
SOLID
  5
2637
330
218B
100
AcDbEntity
  8
AM_5
100
AcDbTrace
 10
125.5957828762614
 20
383.7950603344578
 30
0.0
 11
125.5957828762614
 21
383.2950603344579
 31
0.0
 12
127.0957828762614
 22
383.5450603344579
 32
0.0
 13
127.0957828762614
 23
383.5450603344579
 33
0.0
  0
MTEXT
  5
2638
330
218B
100
AcDbEntity
  8
AM_5
100
AcDbMText
 10
121.7820060880348
 20
384.8200603344578
 30
0.0
 40
1.75
 41
0.0
 71
     5
 72
     1
  1
10
 73
     1
 44
1.0
1001
ACAD
1000
MTEXTBEGIN
1070
    73
1070
     1
1070
    44
1040
1.0
1070
    74
1070
     0
1000
MTEXTEND
  0
POINT
  5
2639
330
218B
100
AcDbEntity
  8
Defpoints
 62
     0
100
AcDbPoint
 10
117.0957828762618
 20
389.0597181806926
 30
0.0
  0
POINT
  5
263A
330
218B
100
AcDbEntity
  8
Defpoints
 62
     0
100
AcDbPoint
 10
127.0957828762614
 20
389.0597181806927
 30
0.0
  0
POINT
  5
263B
330
218B
100
AcDbEntity
  8
Defpoints
 62
     0
100
AcDbPoint
 10
127.0957828762614
 20
383.5450603344579
 30
0.0
  0
ENDBLK
  5
2196
330
218B
100
AcDbEntity
  8
0
100
AcDbBlockEnd
  0
BLOCK
  5
21A1
330
2197
100
AcDbEntity
  8
0
100
AcDbBlockBegin
  2
*D43
 70
     1
 10
0.0
 20
0.0
 30
0.0
  3
*D43
  1

  0
LINE
  5
263C
330
2197
100
AcDbEntity
  8
AM_5
100
AcDbLine
 10
116.3457828762615
 20
409.746693553885
 30
0.0
 11
111.6655295837166
 21
409.746693553885
 31
0.0
  0
LINE
  5
263D
330
2197
100
AcDbEntity
  8
AM_5
100
AcDbLine
 10
116.3457828762615
 20
404.8045506967421
 30
0.0
 11
111.6655295837166
 21
404.8045506967421
 31
0.0
  0
LINE
  5
263E
330
2197
100
AcDbEntity
  8
AM_5
100
AcDbLine
 10
112.6655295837166
 20
408.246693553885
 30
0.0
 11
112.6655295837166
 21
406.3045506967421
 31
0.0
  0
SOLID
  5
263F
330
2197
100
AcDbEntity
  8
AM_5
100
AcDbTrace
 10
112.4155295837166
 20
408.246693553885
 30
0.0
 11
112.9155295837166
 21
408.246693553885
 31
0.0
 12
112.6655295837166
 22
409.746693553885
 32
0.0
 13
112.6655295837166
 23
409.746693553885
 33
0.0
  0
SOLID
  5
2640
330
2197
100
AcDbEntity
  8
AM_5
100
AcDbTrace
 10
112.4155295837166
 20
406.3045506967421
 30
0.0
 11
112.9155295837166
 21
406.3045506967421
 31
0.0
 12
112.6655295837166
 22
404.8045506967421
 32
0.0
 13
112.6655295837166
 23
404.8045506967421
 33
0.0
  0
MTEXT
  5
2641
330
2197
100
AcDbEntity
  8
AM_5
100
AcDbMText
 10
111.3905295837165
 20
407.2756221253138
 30
0.0
 40
1.75
 41
0.0
 71
     5
 72
     1
  1
4
 11
0.0000000000000001
 21
1.0
 31
0.0
 73
     1
 44
1.0
1001
ACAD
1000
MTEXTBEGIN
1070
    73
1070
     1
1070
    44
1040
1.0
1070
    74
1070
     0
1000
MTEXTEND
  0
POINT
  5
2642
330
2197
100
AcDbEntity
  8
Defpoints
 62
     0
100
AcDbPoint
 10
117.0957828762615
 20
409.746693553885
 30
0.0
  0
POINT
  5
2643
330
2197
100
AcDbEntity
  8
Defpoints
 62
     0
100
AcDbPoint
 10
117.0957828762615
 20
404.8045506967421
 30
0.0
  0
POINT
  5
2644
330
2197
100
AcDbEntity
  8
Defpoints
 62
     0
100
AcDbPoint
 10
112.6655295837166
 20
404.8045506967421
 30
0.0
  0
ENDBLK
  5
21A2
330
2197
100
AcDbEntity
  8
0
100
AcDbBlockEnd
  0
BLOCK
  5
25F0
330
25E6
100
AcDbEntity
  8
0
100
AcDbBlockBegin
  2
*D45
 70
     1
 10
0.0
 20
0.0
 30
0.0
  3
*D45
  1

  0
LINE
  5
2696
330
25E6
100
AcDbEntity
  8
AM_5
100
AcDbLine
 10
223.4733569537999
 20
388.4797181806927
 30
0.0
 11
223.4733569537999
 21
383.7055879150231
 31
0.0
  0
LINE
  5
2697
330
25E6
100
AcDbEntity
  8
AM_5
100
AcDbLine
 10
230.9733569538002
 20
388.3947181806927
 30
0.0
 11
230.9733569538002
 21
383.7055879150231
 31
0.0
  0
LINE
  5
2698
330
25E6
100
AcDbEntity
  8
AM_5
100
AcDbLine
 10
224.9733569537999
 20
384.7055879150231
 30
0.0
 11
229.4733569538002
 21
384.7055879150231
 31
0.0
  0
SOLID
  5
2699
330
25E6
100
AcDbEntity
  8
AM_5
100
AcDbTrace
 10
224.9733569537999
 20
384.9555879150231
 30
0.0
 11
224.9733569537999
 21
384.4555879150231
 31
0.0
 12
223.4733569537999
 22
384.7055879150231
 32
0.0
 13
223.4733569537999
 23
384.7055879150231
 33
0.0
  0
SOLID
  5
269A
330
25E6
100
AcDbEntity
  8
AM_5
100
AcDbTrace
 10
229.4733569538002
 20
384.9555879150231
 30
0.0
 11
229.4733569538002
 21
384.4555879150231
 31
0.0
 12
230.9733569538002
 22
384.7055879150231
 32
0.0
 13
230.9733569538002
 23
384.7055879150231
 33
0.0
  0
MTEXT
  5
269B
330
25E6
100
AcDbEntity
  8
AM_5
100
AcDbMText
 10
227.2233569538001
 20
385.9805879150231
 30
0.0
 40
1.75
 41
0.0
 71
     5
 72
     1
  1
7.5
 73
     1
 44
1.0
1001
ACAD
1000
MTEXTBEGIN
1070
    73
1070
     1
1070
    44
1040
1.0
1070
    74
1070
     0
1000
MTEXTEND
  0
POINT
  5
269C
330
25E6
100
AcDbEntity
  8
Defpoints
 62
     0
100
AcDbPoint
 10
223.4733569537999
 20
389.2297181806926
 30
0.0
  0
POINT
  5
269D
330
25E6
100
AcDbEntity
  8
Defpoints
 62
     0
100
AcDbPoint
 10
230.9733569538002
 20
389.1447181806927
 30
0.0
  0
POINT
  5
269E
330
25E6
100
AcDbEntity
  8
Defpoints
 62
     0
100
AcDbPoint
 10
230.9733569538002
 20
384.7055879150231
 30
0.0
  0
ENDBLK
  5
25F1
330
25E6
100
AcDbEntity
  8
0
100
AcDbBlockEnd
  0
ENDSEC
  0
SECTION
  2
ENTITIES
  0
TEXT
  5
194A
330
1F
100
AcDbEntity
  8
LOGO
 62
     7
100
AcDbText
 10
120.8209498904339
 20
292.8603881363492
 30
0.0
 40
2.13302443438914
  1
Order example:
 41
0.8
  7
CHINESET
100
AcDbText
  0
TEXT
  5
194B
330
1F
100
AcDbEntity
  8
LOGO
 62
     7
100
AcDbText
 10
121.2036321133578
 20
295.8632448916246
 30
0.0
 40
3.19953665158371
  1
訂購代號：
  7
CHINESET
100
AcDbText
  0
LINE
  5
194C
330
1F
100
AcDbEntity
  8
LOGO
 62
     4
100
AcDbLine
 10
119.8941435388888
 20
283.8710176898826
 30
0.0
 11
119.8941435388888
 21
299.8687009478013
 31
0.0
  0
TEXT
  5
194D
330
1F
100
AcDbEntity
  8
LOGO
  6
Continuous
100
AcDbText
 10
90.44568010868998
 20
287.0137384232917
 30
0.0
 40
2.399652488687782
  1
金器工業股份有限公司
  7
CHINESET
100
AcDbText
  0
TEXT
  5
194E
330
1F
100
AcDbEntity
  8
LOGO
  6
Continuous
100
AcDbText
 10
86.03799323480334
 20
284.6136157908562
 30
0.0
 40
1.599768325791855
  1
MINDMAN INDUSTRIAL CO., LTD.
 41
0.85
  7
CHINESET
100
AcDbText
  0
LINE
  5
194F
330
1F
100
AcDbEntity
  8
LOGO
 62
     4
100
AcDbLine
 10
119.8941435388888
 20
296.6691642962175
 30
0.0
 11
96.4308747606082
 21
296.6691642962175
 31
0.0
  0
LINE
  5
1950
330
1F
100
AcDbEntity
  8
LOGO
 62
     4
100
AcDbLine
 10
119.8941435388888
 20
293.4696276446338
 30
0.0
 11
96.4308747606082
 21
293.4696276446338
 31
0.0
  0
LINE
  5
1951
330
1F
100
AcDbEntity
  8
LOGO
 62
     4
100
AcDbLine
 10
119.8941435388888
 20
290.2700909930502
 30
0.0
 11
84.69924037146801
 21
290.2700909930502
 31
0.0
  0
LINE
  5
1952
330
1F
100
AcDbEntity
  8
LOGO
 62
     4
100
AcDbLine
 10
96.4308747606082
 20
290.2700909930502
 30
0.0
 11
96.4308747606082
 21
299.8687009478013
 31
0.0
  0
TEXT
  5
1953
330
1F
100
AcDbEntity
  8
LOGO
100
AcDbText
 10
112.4669115211452
 20
291.0699751559459
 30
0.0
 40
1.599768325791855
  1
mm
  7
CHINESET
 72
     1
 11
114.4475770673637
 21
291.8698593188418
 31
0.0
100
AcDbText
 73
     2
  0
TEXT
  5
1954
330
1F
100
AcDbEntity
  8
LOGO
100
AcDbText
 10
111.6289376362066
 20
297.4690484591134
 30
0.0
 40
1.599768325791855
  1
1 : 1
  7
CHINESET
 72
     1
 11
114.4475770673637
 21
298.2689326220093
 31
0.0
100
AcDbText
 73
     2
  0
LINE
  5
1955
330
1F
100
AcDbEntity
  8
LOGO
 62
     4
100
AcDbLine
 10
109.2290213669431
 20
290.2700909930502
 30
0.0
 11
109.2290213669431
 21
299.8687009478013
 31
0.0
  0
TEXT
  5
1956
330
1F
100
AcDbEntity
  8
LOGO
100
AcDbText
 10
97.74996944709821
 20
297.4698357466753
 30
104.8461806080398
 40
1.599768325791855
  1
比例 Scale:
 41
0.9
  7
CHINESET
 72
     4
 11
102.8299480637756
 21
298.2689326220093
 31
104.8461806080398
100
AcDbText
  0
TEXT
  5
1957
330
1F
100
AcDbEntity
  8
LOGO
100
AcDbText
 10
97.65783993190751
 20
294.2920151103407
 30
104.8461806080398
 40
1.599768325791855
  1
投影  View:
 41
0.9
  7
CHINESET
 72
     4
 11
102.8299480637756
 21
295.0693959704255
 31
104.8461806080398
100
AcDbText
  0
TEXT
  5
1958
330
1F
100
AcDbEntity
  8
LOGO
100
AcDbText
 10
97.8142458530452
 20
291.0699751559459
 30
104.8461806080398
 40
1.599768325791855
  1
單位  Unit:
 41
0.9
  7
CHINESET
 72
     4
 11
102.8299480637756
 21
291.8698593188418
 31
104.8461806080398
100
AcDbText
  0
LWPOLYLINE
  5
1959
330
1F
100
AcDbEntity
  8
LOGO
 62
     4
100
AcDbPolyline
 90
        4
 70
     1
 43
0.0
 10
84.69924037146801
 20
299.8687009478013
 10
304.699240371468
 20
299.8687009478013
 10
304.699240371468
 20
443.8710176898823
 10
84.69924037146801
 20
443.8710176898823
1001
GENIUS_GENREC_14
1002
{
1000
PYDIR
1011
84.69924037146801
1021
443.8710176898823
1031
0.0
1002
}
1002
{
1000
PXDIR
1011
304.699240371468
1021
299.8687009478013
1031
0.0
1002
}
1002
{
1000
PORI
1011
84.69924037146801
1021
299.8687009478013
1031
0.0
1002
}
1002
{
1000
PINS
1011
84.69924037146801
1021
299.8687009478013
1031
0.0
1002
}
1002
{
1000
PINS2
1011
304.699240371468
1021
443.8710176898823
1031
0.0
1002
}
1002
{
1000
C
1070
     1
1002
}
1001
GENIUS_GENODEF_13
1002
{
1000
HIER
1070
     0
1002
}
1002
{
1000
MANEDIT
1070
     0
1002
}
1002
{
1000
NOSEL
1070
     0
1002
}
1002
{
1000
BEHIND
1070
     0
1002
}
1002
{
1000
OTHER
1070
     0
1002
}
1002
{
1000
REACTOR
1002
}
1001
GENIUS_GENOBJ-N-REC_13
1002
{
1000
OWNER
1000
GEN
1002
}
  0
SOLID
  5
195A
330
1F
100
AcDbEntity
  8
LOGO
 62
     5
100
AcDbTrace
 10
86.35902568380579
 20
292.929478125589
 30
0.0
 11
87.05072352995731
 21
292.9294781255888
 31
0.0
 12
89.93677316389975
 22
299.488681839095
 32
0.0
 13
90.62847101005164
 23
299.4886818390946
 33
0.0
  0
SOLID
  5
195B
330
1F
100
AcDbEntity
  8
LOGO
 62
     5
100
AcDbTrace
 10
87.33694332836558
 20
292.929478125589
 30
0.0
 11
88.0286411745171
 21
292.929478125589
 31
0.0
 12
90.62847101005164
 22
298.9639455420142
 32
0.0
 13
89.93677316389975
 23
296.4277201061253
 33
0.0
  0
SOLID
  5
195C
330
1F
100
AcDbEntity
  8
LOGO
 62
     2
100
AcDbTrace
 10
87.05072352995731
 20
292.9294781255888
 30
0.0
 11
87.33694332836558
 21
292.929478125589
 31
0.0
 12
90.62847101005164
 22
299.4886818390946
 32
0.0
 13
90.91469080845953
 23
299.4886818390946
 33
0.0
  0
SOLID
  5
195D
330
1F
100
AcDbEntity
  8
LOGO
 62
     5
100
AcDbTrace
 10
85.25006441133511
 20
290.5443131388597
 30
0.0
 11
85.48858091000829
 21
290.5443131388597
 31
0.0
 12
86.16026193491189
 22
291.7368956322242
 32
0.0
 13
86.39877843358435
 23
291.7368956322242
 33
0.0
  0
SOLID
  5
195E
330
1F
100
AcDbEntity
  8
LOGO
 62
     5
100
AcDbTrace
 10
86.16026193491189
 20
291.7368956322242
 30
0.0
 11
86.39877843358435
 21
291.7368956322242
 31
0.0
 12
86.16026193491189
 22
290.5443131388597
 32
0.0
 13
86.39877843358435
 23
290.5443131388597
 33
0.0
  0
SOLID
  5
195F
330
1F
100
AcDbEntity
  8
LOGO
 62
     5
100
AcDbTrace
 10
86.16026193491189
 20
290.5443131388597
 30
0.0
 11
86.39877843358435
 21
290.5443131388597
 31
0.0
 12
87.07045945848904
 22
291.7368956322242
 32
0.0
 13
87.30897595716188
 23
291.7368956322242
 33
0.0
  0
SOLID
  5
1960
330
1F
100
AcDbEntity
  8
LOGO
 62
     5
100
AcDbTrace
 10
87.07045945848904
 20
291.7368956322242
 30
0.0
 11
87.30897595716188
 21
291.7368956322242
 31
0.0
 12
87.07045945848904
 22
290.5443131388597
 32
0.0
 13
87.30897595716188
 23
290.5443131388597
 33
0.0
  0
POLYLINE
  5
1961
330
1F
100
AcDbEntity
  8
LOGO
 62
     5
100
AcDb2dPolyline
 66
     1
 10
0.0
 20
0.0
 30
0.0
 40
0.2388987366515836
 41
0.2388987366515836
  0
VERTEX
  5
1962
330
1961
100
AcDbEntity
  8
LOGO
 62
     5
100
AcDbVertex
100
AcDb2dVertex
 10
95.06545124233662
 20
291.2598626348784
 30
0.0
 42
1.0
  0
VERTEX
  5
1963
330
1961
100
AcDbEntity
  8
LOGO
 62
     5
100
AcDbVertex
100
AcDb2dVertex
 10
94.34875503238172
 20
291.2598626348784
 30
0.0
 42
1.0
  0
SEQEND
  5
1964
330
1961
100
AcDbEntity
  8
LOGO
 62
     5
  0
POLYLINE
  5
1965
330
1F
100
AcDbEntity
  8
LOGO
 62
     5
100
AcDb2dPolyline
 66
     1
 10
0.0
 20
0.0
 30
0.0
 70
     1
  0
VERTEX
  5
1966
330
1965
100
AcDbEntity
  8
LOGO
 62
     5
100
AcDbVertex
100
AcDb2dVertex
 10
92.99775079796919
 20
291.1406043855418
 30
0.0
 42
1.000000057330635
  0
VERTEX
  5
1967
330
1965
100
AcDbEntity
  8
LOGO
 62
     5
100
AcDbVertex
100
AcDb2dVertex
 10
93.71330029398805
 20
291.1406043855418
 30
0.0
 42
1.000000057330635
  0
SEQEND
  5
1968
330
1965
100
AcDbEntity
  8
LOGO
 62
     5
  0
CIRCLE
  5
1969
330
1F
100
AcDbEntity
  8
LOGO
 62
     5
100
AcDbCircle
 10
93.35552554597915
 20
291.1406043855418
 30
0.0
 40
0.3577747480094118
  0
POLYLINE
  5
196A
330
1F
100
AcDbEntity
  8
LOGO
 62
     5
100
AcDb2dPolyline
 66
     1
 10
0.0
 20
0.0
 30
0.0
 70
     1
 40
0.2388987366515836
 41
0.2388987366515836
  0
VERTEX
  5
196B
330
196A
100
AcDbEntity
  8
LOGO
 62
     5
100
AcDbVertex
100
AcDb2dVertex
 10
92.87772807267565
 20
291.1406043855418
 30
0.0
 42
1.0
  0
VERTEX
  5
196C
330
196A
100
AcDbEntity
  8
LOGO
 62
     5
100
AcDbVertex
100
AcDb2dVertex
 10
93.83332301928195
 20
291.1406043855418
 30
0.0
 42
1.0
  0
SEQEND
  5
196D
330
196A
100
AcDbEntity
  8
LOGO
 62
     5
  0
LINE
  5
196E
330
1F
100
AcDbEntity
  8
LOGO
100
AcDbLine
 10
95.18413613470466
 20
290.5443131388597
 30
0.0
 11
95.18413613470466
 21
291.2598626348784
 31
0.0
  0
SOLID
  5
196F
330
1F
100
AcDbEntity
  8
LOGO
 62
     5
100
AcDbTrace
 10
93.71327644233925
 20
291.7368956322242
 30
0.0
 11
93.95179294101172
 21
291.7368956322242
 31
0.0
 12
93.71327644233925
 22
290.5443131388597
 32
0.0
 13
93.95179294101172
 23
290.5443131388597
 33
0.0
  0
SOLID
  5
1970
330
1F
100
AcDbEntity
  8
LOGO
 62
     5
100
AcDbTrace
 10
94.23007014001296
 20
290.5443131388597
 30
0.0
 11
94.46858663868615
 21
290.5443131388597
 31
0.0
 12
94.23007014001296
 22
291.7368956322242
 32
0.0
 13
94.46858663868615
 23
291.7368956322242
 33
0.0
  0
SOLID
  5
1971
330
1F
100
AcDbEntity
  8
LOGO
 62
     5
100
AcDbTrace
 10
94.94561963603219
 20
291.2598626348784
 30
0.0
 11
95.18413613470466
 21
291.2598626348784
 31
0.0
 12
94.94561963603219
 22
290.5443131388597
 32
0.0
 13
95.18413613470466
 23
290.5443131388597
 33
0.0
  0
SOLID
  5
1972
330
1F
100
AcDbEntity
  8
LOGO
 62
     5
100
AcDbTrace
 10
94.2062184901456
 20
298.9639455420142
 30
0.0
 11
93.51452064399445
 21
296.4277201061253
 31
0.0
 12
94.2062184901456
 22
292.9294781255888
 32
0.0
 13
93.51452064399445
 23
292.9294781255888
 33
0.0
  0
SOLID
  5
1973
330
1F
100
AcDbEntity
  8
LOGO
 62
     5
100
AcDbTrace
 10
94.49243828855351
 20
292.9294781255888
 30
0.0
 11
95.18413613470466
 21
292.9294781255888
 31
0.0
 12
94.49243828855351
 22
299.4886818390946
 32
0.0
 13
95.18413613470466
 23
299.488681839095
 33
0.0
  0
SOLID
  5
1974
330
1F
100
AcDbEntity
  8
LOGO
 62
     2
100
AcDbTrace
 10
94.2062184901456
 20
299.488681839095
 30
0.0
 11
94.49243828855351
 21
299.4886818390946
 31
0.0
 12
94.2062184901456
 22
292.9294781255888
 32
0.0
 13
94.49243828855351
 23
292.9294781255888
 33
0.0
  0
POLYLINE
  5
1975
330
1F
100
AcDbEntity
  8
LOGO
 62
     5
100
AcDb2dPolyline
 66
     1
 10
0.0
 20
0.0
 30
0.0
 40
0.2388987366515836
 41
0.2388987366515836
  0
VERTEX
  5
1976
330
1975
100
AcDbEntity
  8
LOGO
 62
     5
100
AcDbVertex
100
AcDb2dVertex
 10
91.64669886025794
 20
291.2598626348784
 30
0.0
 42
1.0
  0
VERTEX
  5
1977
330
1975
100
AcDbEntity
  8
LOGO
 62
     5
100
AcDbVertex
100
AcDb2dVertex
 10
90.93000265030305
 20
291.2598626348784
 30
0.0
 42
1.0
  0
SEQEND
  5
1978
330
1975
100
AcDbEntity
  8
LOGO
 62
     5
  0
POLYLINE
  5
1979
330
1F
100
AcDbEntity
  8
LOGO
 62
     5
100
AcDb2dPolyline
 66
     1
 10
0.0
 20
0.0
 30
0.0
 40
0.2388987366515836
 41
0.2388987366515836
  0
VERTEX
  5
197A
330
1979
100
AcDbEntity
  8
LOGO
 62
     5
100
AcDbVertex
100
AcDb2dVertex
 10
92.36224835627607
 20
291.2598626348784
 30
0.0
 42
1.0
  0
VERTEX
  5
197B
330
1979
100
AcDbEntity
  8
LOGO
 62
     5
100
AcDbVertex
100
AcDb2dVertex
 10
91.64555214632155
 20
291.2598626348784
 30
0.0
 42
1.0
  0
SEQEND
  5
197C
330
1979
100
AcDbEntity
  8
LOGO
 62
     5
  0
POLYLINE
  5
197D
330
1F
100
AcDbEntity
  8
LOGO
 62
     5
100
AcDb2dPolyline
 66
     1
 10
0.0
 20
0.0
 30
0.0
 40
0.2388987366515836
 41
0.2388987366515836
  0
VERTEX
  5
197E
330
197D
100
AcDbEntity
  8
LOGO
 62
     5
100
AcDbVertex
100
AcDb2dVertex
 10
88.94349597419742
 20
291.2598626348784
 30
0.0
 42
1.0
  0
VERTEX
  5
197F
330
197D
100
AcDbEntity
  8
LOGO
 62
     5
100
AcDbVertex
100
AcDb2dVertex
 10
88.22679976424288
 20
291.2598626348784
 30
0.0
 42
1.0
  0
SEQEND
  5
1980
330
197D
100
AcDbEntity
  8
LOGO
 62
     5
  0
SOLID
  5
1981
330
1F
100
AcDbEntity
  8
LOGO
 62
     5
100
AcDbTrace
 10
88.10811487187448
 20
291.7368956322242
 30
0.0
 11
88.34663137054695
 21
291.7368956322242
 31
0.0
 12
88.10811487187448
 22
290.5443131388597
 32
0.0
 13
88.34663137054695
 23
290.5443131388597
 33
0.0
  0
SOLID
  5
1982
330
1F
100
AcDbEntity
  8
LOGO
 62
     5
100
AcDbTrace
 10
88.82366436789334
 20
291.2598626348784
 30
0.0
 11
89.06218086656654
 21
291.2598626348784
 31
0.0
 12
88.82366436789334
 22
290.5443131388597
 32
0.0
 13
89.06218086656654
 23
290.5443131388597
 33
0.0
  0
POLYLINE
  5
1983
330
1F
100
AcDbEntity
  8
LOGO
 62
     5
100
AcDb2dPolyline
 66
     1
 10
0.0
 20
0.0
 30
0.0
 70
     1
 40
0.2388987366515836
 41
0.2388987366515836
  0
VERTEX
  5
1984
330
1983
100
AcDbEntity
  8
LOGO
 62
     5
100
AcDbVertex
100
AcDb2dVertex
 10
89.45897569059662
 20
291.1406043855418
 30
0.0
 42
1.0
  0
VERTEX
  5
1985
330
1983
100
AcDbEntity
  8
LOGO
 62
     5
100
AcDbVertex
100
AcDb2dVertex
 10
90.41457063720327
 20
291.1406043855418
 30
0.0
 42
1.0
  0
SEQEND
  5
1986
330
1983
100
AcDbEntity
  8
LOGO
 62
     5
  0
SOLID
  5
1987
330
1F
100
AcDbEntity
  8
LOGO
 62
     5
100
AcDbTrace
 10
90.29452406025985
 20
292.0946703802339
 30
0.0
 11
90.53304055893269
 21
292.0946703802339
 31
0.0
 12
90.29452406025985
 22
290.5443131388597
 32
0.0
 13
90.53304055893269
 23
290.5443131388597
 33
0.0
  0
SOLID
  5
1988
330
1F
100
AcDbEntity
  8
LOGO
 62
     5
100
AcDbTrace
 10
90.81131775793501
 20
291.7368956322242
 30
0.0
 11
91.04983425660748
 21
291.7368956322242
 31
0.0
 12
90.81131775793501
 22
290.5443131388597
 32
0.0
 13
91.04983425660748
 23
290.5443131388597
 33
0.0
  0
SOLID
  5
1989
330
1F
100
AcDbEntity
  8
LOGO
 62
     5
100
AcDbTrace
 10
91.52686725395316
 20
291.2598626348784
 30
0.0
 11
91.76538375262635
 21
291.2598626348784
 31
0.0
 12
91.52686725395316
 22
290.5443131388597
 32
0.0
 13
91.76538375262635
 23
290.5443131388597
 33
0.0
  0
SOLID
  5
198A
330
1F
100
AcDbEntity
  8
LOGO
 62
     5
100
AcDbTrace
 10
92.24241674997202
 20
291.2598626348784
 30
0.0
 11
92.48093324864484
 21
291.2598626348784
 31
0.0
 12
92.24241674997202
 22
290.5443131388594
 32
0.0
 13
92.48093324864484
 23
290.5443131388594
 33
0.0
  0
SOLID
  5
198B
330
1F
100
AcDbEntity
  8
LOGO
 62
     5
100
AcDbTrace
 10
87.59132117419968
 20
291.9038571812954
 30
0.0
 11
87.82983767287324
 21
291.9038571812954
 31
0.0
 12
87.59132117419968
 22
292.0946703802339
 32
0.0
 13
87.82983767287324
 23
292.0946703802339
 33
0.0
  0
SOLID
  5
198C
330
1F
100
AcDbEntity
  8
LOGO
 62
     5
100
AcDbTrace
 10
87.59132117419968
 20
291.7368956322242
 30
0.0
 11
87.82983767287324
 21
291.7368956322242
 31
0.0
 12
87.59132117419968
 22
290.5443131388594
 32
0.0
 13
87.82983767287324
 23
290.5443131388597
 33
0.0
  0
SOLID
  5
198D
330
1F
100
AcDbEntity
  8
LOGO
 62
     5
100
AcDbTrace
 10
89.93677316389975
 20
292.929478125589
 30
0.0
 11
90.62847101005164
 21
292.929478125589
 31
0.0
 12
89.93677316389975
 22
296.4277201061253
 32
0.0
 13
90.62847101005164
 23
298.9639455420142
 33
0.0
  0
SOLID
  5
198E
330
1F
100
AcDbEntity
  8
LOGO
 62
     5
100
AcDbTrace
 10
90.91469080845953
 20
299.4886818390946
 30
0.0
 11
91.6063886546107
 21
299.488681839095
 31
0.0
 12
90.91469080845953
 22
293.4542144226693
 32
0.0
 13
91.6063886546107
 23
295.9904398585583
 33
0.0
  0
SOLID
  5
198F
330
1F
100
AcDbEntity
  8
LOGO
 62
     2
100
AcDbTrace
 10
90.62847101005164
 20
299.4886818390946
 30
0.0
 11
90.91469080845953
 21
299.4886818390946
 31
0.0
 12
90.62847101005164
 22
292.929478125589
 32
0.0
 13
90.91469080845953
 23
292.929478125589
 33
0.0
  0
SOLID
  5
1990
330
1F
100
AcDbEntity
  8
LOGO
 62
     5
100
AcDbTrace
 10
90.91469080845953
 20
293.4542144226693
 30
0.0
 11
91.6063886546107
 21
295.9904398585583
 31
0.0
 12
94.2062184901456
 22
299.488681839095
 32
0.0
 13
93.51452064399445
 23
299.488681839095
 33
0.0
  0
SOLID
  5
1991
330
1F
100
AcDbEntity
  8
LOGO
 62
     5
100
AcDbTrace
 10
90.91469080845953
 20
292.929478125589
 30
0.0
 11
91.6063886546107
 21
292.929478125589
 31
0.0
 12
94.2062184901456
 22
298.9639455420142
 32
0.0
 13
93.51452064399445
 23
296.4277201061253
 33
0.0
  0
SOLID
  5
1992
330
1F
100
AcDbEntity
  8
LOGO
 62
     2
100
AcDbTrace
 10
90.62847101005164
 20
292.929478125589
 30
0.0
 11
90.91469080845953
 21
292.929478125589
 31
0.0
 12
94.2062184901456
 22
299.488681839095
 32
0.0
 13
94.49243828855351
 23
299.4886818390946
 33
0.0
  0
LWPOLYLINE
  5
1993
330
1F
100
AcDbEntity
  8
LOGO
 62
     4
100
AcDbPolyline
 90
        4
 70
     1
 43
0.0
 10
84.69924037146801
 20
299.8687009478013
 10
304.699240371468
 20
299.8687009478013
 10
304.699240371468
 20
283.8710176898824
 10
84.69924037146801
 20
283.8710176898824
1001
GENIUS_GENREC_14
1002
{
1000
PYDIR
1011
84.69924037146801
1021
283.8710176898824
1031
0.0
1002
}
1002
{
1000
PXDIR
1011
304.699240371468
1021
299.8687009478013
1031
0.0
1002
}
1002
{
1000
PORI
1011
84.69924037146801
1021
299.8687009478013
1031
0.0
1002
}
1002
{
1000
PINS
1011
84.69924037146801
1021
299.8687009478013
1031
0.0
1002
}
1002
{
1000
PINS2
1011
304.699240371468
1021
283.8710176898824
1031
0.0
1002
}
1002
{
1000
C
1070
     1
1002
}
1001
GENIUS_GENOBJ-N-REC_13
1002
{
1000
OWNER
1000
GEN
1002
}
1001
GENIUS_GENODEF_13
1002
{
1000
HIER
1070
     0
1002
}
1002
{
1000
MANEDIT
1070
     0
1002
}
1002
{
1000
NOSEL
1070
     0
1002
}
1002
{
1000
BEHIND
1070
     0
1002
}
1002
{
1000
OTHER
1070
     0
1002
}
1002
{
1000
REACTOR
1002
}
  0
LINE
  5
1994
330
1F
100
AcDbEntity
  8
LOGO
 62
     4
100
AcDbLine
 10
152.5633690188747
 20
291.0699751559462
 30
0.0
 11
152.5633690188747
 21
285.2041579613758
 31
0.0
  0
LINE
  5
1995
330
1F
100
AcDbEntity
  8
LOGO
 62
     4
100
AcDbLine
 10
141.8982468469289
 20
291.0699751559462
 30
0.0
 11
141.8982468469289
 21
285.2041579613758
 31
0.0
  0
LINE
  5
1996
330
1F
100
AcDbEntity
  8
LOGO
 62
     4
100
AcDbLine
 10
152.5633690188747
 20
285.2041579613758
 30
0.0
 11
141.8982468469289
 21
285.2041579613758
 31
0.0
  0
LINE
  5
1997
330
1F
100
AcDbEntity
  8
LOGO
 62
     4
100
AcDbLine
 10
154.476272024053
 20
298.2689326220093
 30
0.0
 11
141.8982468469289
 21
298.2689326220093
 31
0.0
  0
LINE
  5
1998
330
1F
100
AcDbEntity
  8
LOGO
 62
     4
100
AcDbLine
 10
154.476272024053
 20
293.4696276446338
 30
0.0
 11
141.8982468469289
 21
293.4696276446338
 31
0.0
  0
LINE
  5
1999
330
1F
100
AcDbEntity
  8
LOGO
 62
     4
100
AcDbLine
 10
141.8982468469289
 20
298.2689326220093
 30
0.0
 11
141.8982468469289
 21
293.4696276446338
 31
0.0
  0
LINE
  5
199A
330
1F
100
AcDbEntity
  8
LOGO
 62
     4
100
AcDbLine
 10
154.476272024053
 20
298.2689326220093
 30
0.0
 11
154.476272024053
 21
293.4696276446338
 31
0.0
  0
LINE
  5
199B
330
1F
100
AcDbEntity
  8
LOGO
 62
     4
100
AcDbLine
 10
147.7872594354909
 20
293.4696276446338
 30
0.0
 11
147.7872594354909
 21
291.0699751559462
 31
0.0
  0
TEXT
  5
199C
330
1F
100
AcDbEntity
  8
LOGO
  6
Continuous
 62
     7
100
AcDbText
 10
144.2154562057712
 20
294.4714755420778
 30
0.0
 40
2.8
  1
RCD
  7
CHINESET
100
AcDbText
  0
LINE
  5
199D
330
1F
100
AcDbEntity
  8
LOGO
 62
     4
100
AcDbLine
 10
152.5633690188747
 20
291.0699751559462
 30
0.0
 11
141.8982468469289
 21
291.0699751559462
 31
0.0
  0
TEXT
  5
199E
330
1F
100
AcDbEntity
  8
LOGO
  6
Continuous
100
AcDbText
 10
145.3206507866434
 20
286.0321056196351
 30
104.8461806080398
 40
1.2
  1
Model
 41
0.8
  7
CHINESET
100
AcDbText
  0
TEXT
  5
199F
330
1F
100
AcDbEntity
  8
LOGO
100
AcDbText
 10
145.001249796244
 20
288.2566470011769
 30
104.8461806080398
 40
2.0
  1
型號
  7
CHINESET
100
AcDbText
  0
TEXT
  5
19D3
330
1F
100
AcDbEntity
  8
LOGO
100
AcDbText
 10
120.5287053452123
 20
284.7220881250197
 30
0.0
 40
1.6
  1
20912302
 41
0.7
  7
CHINESET
 72
     1
 11
124.5287053452123
 21
284.7220881250197
 31
0.0
100
AcDbText
  0
LINE
  5
19D4
330
1F
100
AcDbEntity
  8
LOGO
 62
     4
100
AcDbLine
 10
129.4941435388881
 20
287.0705543414667
 30
0.0
 11
129.4941435388888
 21
283.8710176898828
 31
0.0
  0
LINE
  5
19D5
330
1F
100
AcDbEntity
  8
LOGO
 62
     4
100
AcDbLine
 10
129.4941435388881
 20
287.0705543414667
 30
0.0
 11
119.8941435388888
 21
287.0705543414667
 31
0.0
  0
CIRCLE
  5
19D6
330
1F
100
AcDbEntity
  8
LOGO
  6
Continuous
100
AcDbCircle
 10
112.1911925180057
 20
295.0728178865814
 30
0.0
 40
0.9288631442565051
  0
CIRCLE
  5
19D7
330
1F
100
AcDbEntity
  8
LOGO
  6
Continuous
100
AcDbCircle
 10
112.1911925180057
 20
295.0728178865814
 30
0.0
 40
0.5442315749324778
  0
LINE
  5
19D8
330
1F
100
AcDbEntity
  8
LOGO
100
AcDbLine
 10
118.028276297235
 20
294.1439547423247
 30
0.0
 11
118.028276297235
 21
296.0016810308381
 31
0.0
  0
LINE
  5
19D9
330
1F
100
AcDbEntity
  8
LOGO
100
AcDbLine
 10
115.1163436592796
 20
294.528586311649
 30
0.0
 11
115.1163436592796
 21
295.617049461514
 31
0.0
  0
LINE
  5
19DA
330
1F
100
AcDbEntity
  8
LOGO
  6
Continuous
100
AcDbLine
 10
115.1163436592796
 20
295.617049461514
 30
0.0
 11
118.028276297235
 21
296.0016810308381
 31
0.0
  0
LINE
  5
19DB
330
1F
100
AcDbEntity
  8
LOGO
  6
Continuous
100
AcDbLine
 10
115.1163436592796
 20
294.528586311649
 30
0.0
 11
118.028276297235
 21
294.1439547423247
 31
0.0
  0
LINE
  5
19DC
330
1F
100
AcDbEntity
  8
LOGO
  6
AM_ISO08W050x2
 48
0.3
100
AcDbLine
 10
110.9107407650178
 20
295.0728178865814
 30
0.0
 11
113.4716442709937
 21
295.0728178865814
 31
0.0
1001
GENIUS_GENOREF_13
1005
19E1
  0
LINE
  5
19DD
330
1F
100
AcDbEntity
  8
LOGO
  6
AM_ISO08W050x2
 48
0.3
100
AcDbLine
 10
112.1911925180057
 20
293.7923661335934
 30
0.0
 11
112.1911925180057
 21
296.3532696395693
 31
0.0
1001
GENIUS_GENOREF_13
1005
19E0
  0
LINE
  5
19DE
330
1F
100
AcDbEntity
  8
LOGO
  6
CENTER
 48
0.5
100
AcDbLine
 10
114.8834699850321
 20
295.0728178865814
 30
0.0
 11
118.3214984874651
 21
295.0728178865814
 31
0.0
1001
GENIUS_GENOREF_13
1005
19DF
  0
POINT
  5
19DF
330
1F
100
AcDbEntity
  8
0
 60
     1
100
AcDbPoint
 10
-1987.641919368515
 20
-658.2617054303233
 30
0.0
1001
GENIUS_GENOBJ-N-CRS_13
1002
{
1000
OWNER
1000
GEN
1002
}
1001
GENIUS_GENOLIS_13
1002
{
1000
ENT
1005
0
1005
0
1005
0
1005
19DE
1002
}
1001
GENIUS_GENOENT_13
1002
{
1000
MYREF
1005
19DF
1002
}
1002
{
1000
GRP
1005
0
1002
}
1001
GENIUS_GENODEF_13
1002
{
1000
HIER
1070
    10
1002
}
1002
{
1000
MANEDIT
1070
     1
1002
}
1002
{
1000
NOSEL
1070
     0
1002
}
1002
{
1000
BEHIND
1070
     0
1002
}
1002
{
1000
OTHER
1070
     0
1002
}
1002
{
1000
REACTOR
1002
}
  0
POINT
  5
19E0
330
1F
100
AcDbEntity
  8
0
 60
     1
100
AcDbPoint
 10
-1998.966504591369
 20
-649.386118951687
 30
0.0
1001
GENIUS_GENOBJ-N-CRS_13
1002
{
1000
OWNER
1000
GEN
1002
}
1001
GENIUS_GENOLIS_13
1002
{
1000
ENT
1005
0
1005
0
1005
0
1005
19DD
1002
}
1001
GENIUS_GENOENT_13
1002
{
1000
MYREF
1005
19E0
1002
}
1002
{
1000
GRP
1005
0
1002
}
1001
GENIUS_GENODEF_13
1002
{
1000
HIER
1070
    10
1002
}
1002
{
1000
MANEDIT
1070
     1
1002
}
1002
{
1000
NOSEL
1070
     0
1002
}
1002
{
1000
BEHIND
1070
     0
1002
}
1002
{
1000
OTHER
1070
     0
1002
}
1002
{
1000
REACTOR
1002
}
  0
POINT
  5
19E1
330
1F
100
AcDbEntity
  8
0
 60
     1
100
AcDbPoint
 10
-1992.607830893533
 20
-658.2617054303233
 30
0.0
1001
GENIUS_GENOBJ-N-CRS_13
1002
{
1000
OWNER
1000
GEN
1002
}
1001
GENIUS_GENOLIS_13
1002
{
1000
ENT
1005
0
1005
0
1005
0
1005
19DC
1002
}
1001
GENIUS_GENOENT_13
1002
{
1000
MYREF
1005
19E1
1002
}
1002
{
1000
GRP
1005
0
1002
}
1001
GENIUS_GENODEF_13
1002
{
1000
HIER
1070
    10
1002
}
1002
{
1000
MANEDIT
1070
     1
1002
}
1002
{
1000
NOSEL
1070
     0
1002
}
1002
{
1000
BEHIND
1070
     0
1002
}
1002
{
1000
OTHER
1070
     0
1002
}
1002
{
1000
REACTOR
1002
}
  0
DIMENSION
  5
1ED5
330
1F
100
AcDbEntity
  8
AM_5
100
AcDbDimension
  2
*D36
 10
184.9777985451867
 20
351.5788899804984
 30
0.0
 11
163.7867907107242
 21
352.8538899804984
 31
0.0
 70
    32
  1
150%%p10
 71
     5
 42
42.38201566892491
  3
STANDARD
100
AcDbAlignedDimension
 13
142.5957828762618
 23
357.9673351379666
 33
0.0
 14
184.9777985451867
 24
357.8705072391187
 34
0.0
100
AcDbRotatedDimension
1001
ACAD
1000
DSTYLE
1002
{
1070
    40
1040
0.5
1070
    44
1040
2.0
1002
}
  0
LINE
  5
1ED6
330
1F
100
AcDbEntity
  8
0
370
     9
100
AcDbLine
 10
142.5957828762618
 20
359.2484065665381
 30
0.0
 11
151.6406427154644
 21
359.2484065665382
 31
0.0
  0
LINE
  5
1ED7
330
1F
100
AcDbEntity
  8
0
370
     9
100
AcDbLine
 10
142.5957828762618
 20
361.798406566538
 30
0.0
 11
153.0600190723498
 21
361.7984065665381
 31
0.0
  0
LINE
  5
1ED8
330
1F
100
AcDbEntity
  8
0
370
     9
100
AcDbLine
 10
142.5957828762618
 20
339.5297729365921
 30
0.0
 11
153.0600190723498
 21
339.5297729365922
 31
0.0
  0
LINE
  5
1ED9
330
1F
100
AcDbEntity
  8
0
370
     9
100
AcDbLine
 10
142.5957828762618
 20
336.9797729365921
 30
0.0
 11
151.6406427154644
 21
336.9797729365921
 31
0.0
  0
LINE
  5
1EDA
330
1F
100
AcDbEntity
  8
0
370
     9
100
AcDbLine
 10
142.5957828762618
 20
406.0006221253137
 30
0.0
 11
151.6406427154644
 21
406.0006221253137
 31
0.0
  0
LINE
  5
1EDB
330
1F
100
AcDbEntity
  8
0
370
     9
100
AcDbLine
 10
142.5957828762618
 20
408.5506221253136
 30
0.0
 11
153.0600190723498
 21
408.5506221253137
 31
0.0
  0
LINE
  5
1EDC
330
1F
100
AcDbEntity
  8
0
370
     9
100
AcDbLine
 10
142.5957828762618
 20
393.0122181806927
 30
0.0
 11
153.0600190723498
 21
393.0122181806928
 31
0.0
  0
LINE
  5
1EDD
330
1F
100
AcDbEntity
  8
0
370
     9
100
AcDbLine
 10
142.5957828762618
 20
390.4622181806928
 30
0.0
 11
151.6406427154644
 21
390.4622181806928
 31
0.0
  0
DIMENSION
  5
1EDE
330
1F
100
AcDbEntity
  8
AM_5
100
AcDbDimension
  2
*D37
 10
142.5957828762618
 20
351.5788899804984
 30
0.0
 11
129.8457828762618
 21
352.8540622245929
 31
0.0
 70
    32
  1
25.5
 71
     5
 42
25.5
  3
STANDARD
100
AcDbAlignedDimension
 13
117.0957828762618
 23
357.9673351379666
 33
0.0
 14
142.5957828762618
 24
357.9673351379666
 34
0.0
100
AcDbRotatedDimension
1001
ACAD
1000
DSTYLE
1002
{
1070
    40
1040
0.5
1070
    44
1040
2.0
1002
}
  0
LINE
  5
1EDF
330
1F
100
AcDbEntity
  8
0
100
AcDbLine
 10
110.8973546032568
 20
340.8472729365922
 30
0.0
 11
106.6885792687853
 21
340.8472729365921
 31
0.0
  0
LINE
  5
1EE0
330
1F
100
AcDbEntity
  8
0
100
AcDbLine
 10
110.8973546032568
 20
335.662272936592
 30
0.0
 11
106.6885792687853
 21
335.662272936592
 31
0.0
  0
DIMENSION
  5
1EE1
330
1F
100
AcDbEntity
  8
AM_5
100
AcDbDimension
  2
*D38
 10
103.997882498913
 20
335.662272936592
 30
0.0
 11
103.997882498913
 21
338.5044924486683
 31
0.0
 70
   160
  1
4
 71
     5
 42
5.757940723680178
  3
STANDARD
100
AcDbAlignedDimension
 13
107.4361251644798
 23
341.4202136602722
 33
0.0
 14
106.6885792687853
 24
335.662272936592
 34
0.0
 50
90.0
100
AcDbRotatedDimension
1001
ACAD
1000
DSTYLE
1002
{
1070
    40
1040
0.5
1070
    44
1040
2.0
1002
}
  0
LINE
  5
1EE2
330
1F
100
AcDbEntity
  8
0
 48
5.0
370
     9
100
AcDbLine
 10
106.6885792687853
 20
335.662272936592
 30
0.0
 11
106.6885792687853
 21
340.8472729365922
 31
0.0
  0
LINE
  5
1EE3
330
1F
100
AcDbEntity
  8
0
100
AcDbLine
 10
110.149808707562
 20
341.4202136602722
 30
0.0
 11
107.4361251644798
 21
341.4202136602722
 31
0.0
  0
LINE
  5
1EE4
330
1F
100
AcDbEntity
  8
0
100
AcDbLine
 10
110.149808707562
 20
340.8472729365922
 30
0.0
 11
110.149808707562
 21
341.4202136602722
 31
0.0
  0
LINE
  5
1EE5
330
1F
100
AcDbEntity
  8
0
100
AcDbLine
 10
107.4361251644798
 20
340.8472729365922
 30
0.0
 11
107.4361251644798
 21
341.4202136602722
 31
0.0
  0
LINE
  5
1EE6
330
1F
100
AcDbEntity
  8
0
 48
5.0
370
     9
100
AcDbLine
 10
142.5957828762618
 20
335.577272936592
 30
0.0
 11
142.5957828762618
 21
340.9322729365921
 31
0.0
  0
LINE
  5
1EE7
330
1F
100
AcDbEntity
  8
0
 48
5.0
370
     9
100
AcDbLine
 10
117.0957828762618
 20
340.9322729365921
 30
0.0
 11
117.0957828762618
 21
335.577272936592
 31
0.0
  0
LINE
  5
1EE8
330
1F
100
AcDbEntity
  8
0
 48
5.0
370
     9
100
AcDbLine
 10
117.0957828762615
 20
335.662272936592
 30
0.0
 11
117.0957828762615
 21
340.8472729365922
 31
0.0
  0
LINE
  5
1EE9
330
1F
100
AcDbEntity
  8
0
 48
5.0
370
     9
100
AcDbLine
 10
110.8973546032568
 20
335.662272936592
 30
0.0
 11
110.8973546032568
 21
340.8472729365922
 31
0.0
  0
LINE
  5
1EEA
330
1F
100
AcDbEntity
  8
0
 48
5.0
370
     9
100
AcDbLine
 10
120.9207828762614
 20
335.577272936592
 30
0.0
 11
142.5957828762618
 21
335.577272936592
 31
0.0
  0
LINE
  5
1EEB
330
1F
100
AcDbEntity
  8
0
 48
5.0
370
     9
100
AcDbLine
 10
117.0957828762618
 20
335.577272936592
 30
0.0
 11
120.9207828762617
 21
335.577272936592
 31
0.0
  0
LINE
  5
1EEC
330
1F
100
AcDbEntity
  8
0
 48
5.0
370
     9
100
AcDbLine
 10
120.9207828762614
 20
340.9322729365921
 30
0.0
 11
142.5957828762618
 21
340.9322729365921
 31
0.0
  0
LINE
  5
1EED
330
1F
100
AcDbEntity
  8
0
 48
5.0
370
     9
100
AcDbLine
 10
120.9207828762614
 20
341.4202136602723
 30
0.0
 11
142.5957828762618
 21
341.4202136602723
 31
0.0
  0
LINE
  5
1EEE
330
1F
100
AcDbEntity
  8
0
 48
5.0
370
     9
100
AcDbLine
 10
117.0957828762618
 20
340.9322729365921
 30
0.0
 11
120.9207828762617
 21
340.9322729365921
 31
0.0
  0
CIRCLE
  5
1EEF
330
1F
100
AcDbEntity
  8
0
 48
5.0
370
     9
100
AcDbCircle
 10
119.0082828762616
 20
338.2547729365921
 30
0.0
 40
1.275000000000014
  0
LINE
  5
1EF0
330
1F
100
AcDbEntity
  8
0
100
AcDbLine
 10
119.5406226486594
 20
339.4196696121316
 30
0.0
 11
118.2685203909338
 21
337.2163238693281
 31
0.0
  0
LINE
  5
1EF1
330
1F
100
AcDbEntity
  8
0
100
AcDbLine
 10
119.750943103864
 20
339.298241040703
 30
0.0
 11
118.4788408461387
 21
337.0948952978994
 31
0.0
  0
LINE
  5
1EF2
330
1F
100
AcDbEntity
  8
0
 48
5.0
370
     9
100
AcDbLine
 10
120.9207828762614
 20
340.9322729365921
 30
0.0
 11
120.9207828762614
 21
341.4202136602723
 31
0.0
  0
LINE
  5
1EF3
330
1F
100
AcDbEntity
  8
0
100
AcDbLine
 10
142.5957828762618
 20
339.5297729365921
 30
0.0
 11
142.5957828762618
 21
336.9797729365921
 31
0.0
  0
LINE
  5
1EF4
330
1F
100
AcDbEntity
  8
0
100
AcDbLine
 10
142.5957828762618
 20
340.9322729365921
 30
0.0
 11
142.5957828762621
 21
341.4202136602723
 31
0.0
  0
DIMENSION
  5
1EF5
330
1F
100
AcDbEntity
  8
AM_5
100
AcDbDimension
  2
*D39
 10
112.6655295837166
 20
358.0523351379665
 30
0.0
 11
112.6655295837165
 21
360.5234065665382
 31
0.0
 70
   160
  1
4
 71
     5
 42
4.942142857142982
  3
STANDARD
100
AcDbAlignedDimension
 13
117.0957828762615
 23
362.9944779951095
 33
0.0
 14
117.0957828762615
 24
358.0523351379665
 34
0.0
 50
90.0
100
AcDbRotatedDimension
1001
ACAD
1000
DSTYLE
1002
{
1070
    40
1040
0.5
1070
    44
1040
2.0
1002
}
  0
LINE
  5
1EF6
330
1F
100
AcDbEntity
  8
0
 48
5.0
370
     9
100
AcDbLine
 10
120.9207828762614
 20
357.9673351379666
 30
0.0
 11
142.5957828762618
 21
357.9673351379666
 31
0.0
  0
LINE
  5
1EF7
330
1F
100
AcDbEntity
  8
0
 48
5.0
370
     9
100
AcDbLine
 10
120.9207828762614
 20
363.0794779951096
 30
0.0
 11
142.5957828762618
 21
363.0794779951096
 31
0.0
  0
LINE
  5
1EF8
330
1F
100
AcDbEntity
  8
0
 48
5.0
370
     9
100
AcDbLine
 10
120.9207828762614
 20
358.738406566538
 30
0.0
 11
142.5957828762618
 21
358.738406566538
 31
0.0
  0
LINE
  5
1EF9
330
1F
100
AcDbEntity
  8
0
 48
5.0
370
     9
100
AcDbLine
 10
120.9207828762614
 20
362.1869779951096
 30
0.0
 11
142.5957828762618
 21
362.1869779951096
 31
0.0
  0
LINE
  5
1EFA
330
1F
100
AcDbEntity
  8
0
 48
5.0
370
     9
100
AcDbLine
 10
117.0957828762618
 20
357.9673351379666
 30
0.0
 11
120.9207828762617
 21
357.9673351379666
 31
0.0
  0
CIRCLE
  5
1EFB
330
1F
100
AcDbEntity
  8
0
 48
5.0
370
     9
100
AcDbCircle
 10
119.0082828762616
 20
360.5234065665381
 30
0.0
 40
1.275000000000014
  0
LINE
  5
1EFC
330
1F
100
AcDbEntity
  8
0
 48
5.0
370
     9
100
AcDbLine
 10
117.0957828762618
 20
363.0794779951094
 30
0.0
 11
120.9207828762617
 21
363.0794779951094
 31
0.0
  0
LINE
  5
1EFD
330
1F
100
AcDbEntity
  8
0
100
AcDbLine
 10
119.5406226486594
 20
361.6883032420776
 30
0.0
 11
118.2685203909338
 21
359.484957499274
 31
0.0
  0
LINE
  5
1EFE
330
1F
100
AcDbEntity
  8
0
100
AcDbLine
 10
119.750943103864
 20
361.566874670649
 30
0.0
 11
118.4788408461387
 21
359.3635289278454
 31
0.0
  0
LINE
  5
1EFF
330
1F
100
AcDbEntity
  8
0
 48
5.0
370
     9
100
AcDbLine
 10
117.0957828762618
 20
363.0794779951094
 30
0.0
 11
117.0957828762618
 21
357.9673351379666
 31
0.0
  0
LINE
  5
1F00
330
1F
100
AcDbEntity
  8
0
 48
5.0
370
     9
100
AcDbLine
 10
117.0957828762615
 20
358.0523351379666
 30
0.0
 11
117.0957828762615
 21
362.9944779951095
 31
0.0
  0
LINE
  5
1F01
330
1F
100
AcDbEntity
  8
0
 48
5.0
370
     9
100
AcDbLine
 10
120.9207828762617
 20
362.1869779951096
 30
0.0
 11
120.9207828762617
 21
358.738406566538
 31
0.0
  0
LINE
  5
1F02
330
1F
100
AcDbEntity
  8
0
 48
5.0
370
     9
100
AcDbLine
 10
120.9207828762614
 20
358.738406566538
 30
0.0
 11
120.9207828762614
 21
362.1869779951096
 31
0.0
  0
LINE
  5
1F03
330
1F
100
AcDbEntity
  8
0
  6
CENTER
100
AcDbLine
 10
132.768599646083
 20
361.6769779951095
 30
0.0
 11
132.768599646083
 21
359.3698351379666
 31
0.0
  0
LINE
  5
1F04
330
1F
100
AcDbEntity
  8
0
  6
CENTER
100
AcDbLine
 10
129.2874880515717
 20
359.3698351379666
 30
0.0
 11
129.2874880515717
 21
361.6769779951095
 31
0.0
  0
LINE
  5
1F05
330
1F
100
AcDbEntity
  8
0
  6
CENTER
100
AcDbLine
 10
132.768599646083
 20
359.3698351379666
 30
0.0
 11
129.2874880515717
 21
359.3698351379666
 31
0.0
  0
LINE
  5
1F06
330
1F
100
AcDbEntity
  8
0
  6
CENTER
100
AcDbLine
 10
129.2874880515717
 20
361.6769779951095
 30
0.0
 11
132.768599646083
 21
361.6769779951095
 31
0.0
  0
LINE
  5
1F07
330
1F
100
AcDbEntity
  8
0
 48
5.0
370
     9
100
AcDbLine
 10
142.5957828762618
 20
357.9673351379666
 30
0.0
 11
142.5957828762618
 21
363.0794779951096
 31
0.0
  0
LINE
  5
1F08
330
1F
100
AcDbEntity
  8
0
100
AcDbLine
 10
142.5957828762618
 20
361.798406566538
 30
0.0
 11
142.5957828762618
 21
359.2484065665381
 31
0.0
  0
DIMENSION
  5
1F09
330
1F
100
AcDbEntity
  8
AM_5
100
AcDbDimension
  2
*D40
 10
142.5957828762618
 20
399.9874302536282
 30
0.0
 11
129.8457828762618
 21
401.2626024977226
 31
0.0
 70
    32
  1
25.5
 71
     5
 42
25.5
  3
STANDARD
100
AcDbAlignedDimension
 13
117.0957828762618
 23
404.7195506967422
 33
0.0
 14
142.5957828762618
 24
404.7195506967422
 34
0.0
100
AcDbRotatedDimension
1001
ACAD
1000
DSTYLE
1002
{
1070
    40
1040
0.5
1070
    44
1040
2.0
1002
}
  0
LINE
  5
1F0A
330
1F
100
AcDbEntity
  8
0
100
AcDbLine
 10
110.8973546032568
 20
394.3297181806928
 30
0.0
 11
106.6885792687853
 21
394.3297181806928
 31
0.0
  0
LINE
  5
1F0B
330
1F
100
AcDbEntity
  8
0
100
AcDbLine
 10
110.8973546032568
 20
389.1447181806927
 30
0.0
 11
106.6885792687853
 21
389.1447181806927
 31
0.0
  0
DIMENSION
  5
1F0C
330
1F
100
AcDbEntity
  8
AM_5
100
AcDbDimension
  2
*D41
 10
104.3027802110383
 20
389.1447181806927
 30
0.0
 11
104.3027802110382
 21
391.8767008570612
 31
0.0
 70
   160
  1
4
 71
     5
 42
5.757940723680178
  3
STANDARD
100
AcDbAlignedDimension
 13
107.4361251644798
 23
394.9026589043729
 33
0.0
 14
106.6885792687853
 24
389.1447181806927
 34
0.0
 50
90.0
100
AcDbRotatedDimension
1001
ACAD
1000
DSTYLE
1002
{
1070
    40
1040
0.5
1070
    44
1040
2.0
1002
}
  0
LINE
  5
1F0D
330
1F
100
AcDbEntity
  8
0
 48
5.0
370
     9
100
AcDbLine
 10
106.6885792687853
 20
389.1447181806927
 30
0.0
 11
106.6885792687853
 21
394.3297181806928
 31
0.0
  0
LINE
  5
1F0E
330
1F
100
AcDbEntity
  8
0
100
AcDbLine
 10
110.149808707562
 20
394.9026589043729
 30
0.0
 11
107.4361251644798
 21
394.9026589043729
 31
0.0
  0
LINE
  5
1F0F
330
1F
100
AcDbEntity
  8
0
100
AcDbLine
 10
110.149808707562
 20
394.3297181806928
 30
0.0
 11
110.149808707562
 21
394.9026589043729
 31
0.0
  0
LINE
  5
1F10
330
1F
100
AcDbEntity
  8
0
100
AcDbLine
 10
107.4361251644798
 20
394.3297181806928
 30
0.0
 11
107.4361251644798
 21
394.9026589043729
 31
0.0
  0
LINE
  5
1F11
330
1F
100
AcDbEntity
  8
0
 48
5.0
370
     9
100
AcDbLine
 10
142.5957828762618
 20
389.0597181806927
 30
0.0
 11
142.5957828762618
 21
394.4147181806928
 31
0.0
  0
LINE
  5
1F12
330
1F
100
AcDbEntity
  8
0
 48
5.0
370
     9
100
AcDbLine
 10
117.0957828762618
 20
394.4147181806927
 30
0.0
 11
117.0957828762618
 21
389.0597181806927
 31
0.0
  0
LINE
  5
1F13
330
1F
100
AcDbEntity
  8
0
 48
5.0
370
     9
100
AcDbLine
 10
117.0957828762615
 20
389.1447181806927
 30
0.0
 11
117.0957828762615
 21
394.3297181806928
 31
0.0
  0
LINE
  5
1F14
330
1F
100
AcDbEntity
  8
0
 48
5.0
370
     9
100
AcDbLine
 10
110.8973546032568
 20
389.1447181806927
 30
0.0
 11
110.8973546032568
 21
394.3297181806928
 31
0.0
  0
LINE
  5
1F15
330
1F
100
AcDbEntity
  8
0
 48
5.0
370
     9
100
AcDbLine
 10
120.9207828762614
 20
389.0597181806927
 30
0.0
 11
142.5957828762618
 21
389.0597181806927
 31
0.0
  0
DIMENSION
  5
1F16
330
1F
100
AcDbEntity
  8
AM_5
100
AcDbDimension
  2
*D42
 10
127.0957828762614
 20
383.5450603344579
 30
0.0
 11
121.7820060880348
 21
383.5450603344579
 31
0.0
 70
   160
  1
<>
 71
     5
 42
9.999999999999658
  3
STANDARD
100
AcDbAlignedDimension
 13
117.0957828762618
 23
389.0597181806926
 33
0.0
 14
127.0957828762614
 24
389.0597181806927
 34
0.0
100
AcDbRotatedDimension
1001
ACAD
1000
DSTYLE
1002
{
1070
    40
1040
0.5
1070
    44
1040
2.0
1002
}
  0
LINE
  5
1F17
330
1F
100
AcDbEntity
  8
0
 48
5.0
370
     9
100
AcDbLine
 10
117.0957828762618
 20
389.0597181806927
 30
0.0
 11
120.9207828762617
 21
389.0597181806927
 31
0.0
  0
LINE
  5
1F18
330
1F
100
AcDbEntity
  8
0
 48
5.0
370
     9
100
AcDbLine
 10
120.9207828762614
 20
394.4147181806928
 30
0.0
 11
142.5957828762618
 21
394.4147181806928
 31
0.0
  0
LINE
  5
1F19
330
1F
100
AcDbEntity
  8
0
 48
5.0
370
     9
100
AcDbLine
 10
120.9207828762614
 20
394.9026589043729
 30
0.0
 11
142.5957828762618
 21
394.9026589043729
 31
0.0
  0
LINE
  5
1F1A
330
1F
100
AcDbEntity
  8
0
 48
5.0
370
     9
100
AcDbLine
 10
117.0957828762618
 20
394.4147181806927
 30
0.0
 11
120.9207828762617
 21
394.4147181806927
 31
0.0
  0
CIRCLE
  5
1F1B
330
1F
100
AcDbEntity
  8
0
 48
5.0
370
     9
100
AcDbCircle
 10
119.0082828762616
 20
391.7372181806927
 30
0.0
 40
1.275000000000014
  0
LINE
  5
1F1C
330
1F
100
AcDbEntity
  8
0
100
AcDbLine
 10
119.5406226486594
 20
392.9021148562322
 30
0.0
 11
118.2685203909338
 21
390.6987691134287
 31
0.0
  0
LINE
  5
1F1D
330
1F
100
AcDbEntity
  8
0
100
AcDbLine
 10
119.750943103864
 20
392.7806862848036
 30
0.0
 11
118.4788408461387
 21
390.5773405420001
 31
0.0
  0
LINE
  5
1F1E
330
1F
100
AcDbEntity
  8
0
 48
5.0
370
     9
100
AcDbLine
 10
120.9207828762614
 20
394.4147181806928
 30
0.0
 11
120.9207828762614
 21
394.9026589043729
 31
0.0
  0
LINE
  5
1F1F
330
1F
100
AcDbEntity
  8
0
100
AcDbLine
 10
142.5957828762618
 20
393.0122181806927
 30
0.0
 11
142.5957828762618
 21
390.4622181806928
 31
0.0
  0
LINE
  5
1F20
330
1F
100
AcDbEntity
  8
0
100
AcDbLine
 10
142.5957828762618
 20
394.4147181806928
 30
0.0
 11
142.5957828762621
 21
394.9026589043729
 31
0.0
  0
DIMENSION
  5
1F21
330
1F
100
AcDbEntity
  8
AM_5
100
AcDbDimension
  2
*D43
 10
112.6655295837166
 20
404.8045506967421
 30
0.0
 11
112.6655295837165
 21
407.2756221253138
 31
0.0
 70
   160
  1
4
 71
     5
 42
4.942142857142926
  3
STANDARD
100
AcDbAlignedDimension
 13
117.0957828762615
 23
409.746693553885
 33
0.0
 14
117.0957828762615
 24
404.8045506967421
 34
0.0
 50
90.0
100
AcDbRotatedDimension
1001
ACAD
1000
DSTYLE
1002
{
1070
    40
1040
0.5
1070
    44
1040
2.0
1002
}
  0
LINE
  5
1F22
330
1F
100
AcDbEntity
  8
0
 48
5.0
370
     9
100
AcDbLine
 10
120.9207828762614
 20
404.7195506967422
 30
0.0
 11
142.5957828762618
 21
404.7195506967422
 31
0.0
  0
LINE
  5
1F23
330
1F
100
AcDbEntity
  8
0
 48
5.0
370
     9
100
AcDbLine
 10
120.9207828762614
 20
409.8316935538852
 30
0.0
 11
142.5957828762618
 21
409.8316935538852
 31
0.0
  0
LINE
  5
1F24
330
1F
100
AcDbEntity
  8
0
 48
5.0
370
     9
100
AcDbLine
 10
120.9207828762614
 20
405.4906221253136
 30
0.0
 11
142.5957828762618
 21
405.4906221253136
 31
0.0
  0
LINE
  5
1F25
330
1F
100
AcDbEntity
  8
0
 48
5.0
370
     9
100
AcDbLine
 10
120.9207828762614
 20
408.9391935538851
 30
0.0
 11
142.5957828762618
 21
408.9391935538851
 31
0.0
  0
LINE
  5
1F26
330
1F
100
AcDbEntity
  8
0
 48
5.0
370
     9
100
AcDbLine
 10
117.0957828762618
 20
404.7195506967422
 30
0.0
 11
120.9207828762617
 21
404.7195506967422
 31
0.0
  0
CIRCLE
  5
1F27
330
1F
100
AcDbEntity
  8
0
 48
5.0
370
     9
100
AcDbCircle
 10
119.0082828762616
 20
407.2756221253136
 30
0.0
 40
1.275000000000014
  0
LINE
  5
1F28
330
1F
100
AcDbEntity
  8
0
 48
5.0
370
     9
100
AcDbLine
 10
117.0957828762618
 20
409.8316935538851
 30
0.0
 11
120.9207828762617
 21
409.8316935538851
 31
0.0
  0
LINE
  5
1F29
330
1F
100
AcDbEntity
  8
0
100
AcDbLine
 10
119.5406226486594
 20
408.4405188008532
 30
0.0
 11
118.2685203909338
 21
406.2371730580495
 31
0.0
  0
LINE
  5
1F2A
330
1F
100
AcDbEntity
  8
0
100
AcDbLine
 10
119.750943103864
 20
408.3190902294246
 30
0.0
 11
118.4788408461387
 21
406.115744486621
 31
0.0
  0
LINE
  5
1F2B
330
1F
100
AcDbEntity
  8
0
 48
5.0
370
     9
100
AcDbLine
 10
117.0957828762618
 20
409.8316935538851
 30
0.0
 11
117.0957828762618
 21
404.7195506967422
 31
0.0
  0
LINE
  5
1F2C
330
1F
100
AcDbEntity
  8
0
 48
5.0
370
     9
100
AcDbLine
 10
117.0957828762615
 20
404.8045506967421
 30
0.0
 11
117.0957828762615
 21
409.7466935538851
 31
0.0
  0
LINE
  5
1F2D
330
1F
100
AcDbEntity
  8
0
 48
5.0
370
     9
100
AcDbLine
 10
120.9207828762617
 20
408.9391935538851
 30
0.0
 11
120.9207828762617
 21
405.4906221253136
 31
0.0
  0
LINE
  5
1F2E
330
1F
100
AcDbEntity
  8
0
 48
5.0
370
     9
100
AcDbLine
 10
120.9207828762614
 20
405.4906221253136
 30
0.0
 11
120.9207828762614
 21
408.9391935538852
 31
0.0
  0
LINE
  5
1F2F
330
1F
100
AcDbEntity
  8
0
  6
CENTER
100
AcDbLine
 10
132.768599646083
 20
408.4291935538852
 30
0.0
 11
132.768599646083
 21
406.1220506967422
 31
0.0
  0
LINE
  5
1F30
330
1F
100
AcDbEntity
  8
0
  6
CENTER
100
AcDbLine
 10
129.2874880515717
 20
406.1220506967422
 30
0.0
 11
129.2874880515717
 21
408.4291935538852
 31
0.0
  0
LINE
  5
1F31
330
1F
100
AcDbEntity
  8
0
  6
CENTER
100
AcDbLine
 10
132.768599646083
 20
406.1220506967422
 30
0.0
 11
129.2874880515717
 21
406.1220506967422
 31
0.0
  0
LINE
  5
1F32
330
1F
100
AcDbEntity
  8
0
  6
CENTER
100
AcDbLine
 10
129.2874880515717
 20
408.4291935538852
 30
0.0
 11
132.768599646083
 21
408.4291935538852
 31
0.0
  0
LINE
  5
1F33
330
1F
100
AcDbEntity
  8
0
 48
5.0
370
     9
100
AcDbLine
 10
142.5957828762618
 20
404.7195506967422
 30
0.0
 11
142.5957828762618
 21
409.8316935538852
 31
0.0
  0
LINE
  5
1F34
330
1F
100
AcDbEntity
  8
0
100
AcDbLine
 10
142.5957828762618
 20
408.5506221253136
 30
0.0
 11
142.5957828762618
 21
406.0006221253137
 31
0.0
  0
DIMENSION
  5
1F35
330
1F
100
AcDbEntity
  8
AM_5
100
AcDbDimension
  2
*D26
 10
291.3553726227253
 20
351.5788899804985
 30
0.0
 11
270.1643647882629
 21
352.8538899804985
 31
0.0
 70
    32
  1
150%%p10
 71
     5
 42
42.38201566892479
  3
STANDARD
100
AcDbAlignedDimension
 13
248.9733569538005
 23
358.0476451759965
 33
0.0
 14
291.3553726227253
 24
357.9508172771486
 34
0.0
100
AcDbRotatedDimension
1001
ACAD
1000
DSTYLE
1002
{
1070
    40
1040
0.5
1070
    44
1040
2.0
1002
}
  0
LINE
  5
1F36
330
1F
100
AcDbEntity
  8
0
370
     9
100
AcDbLine
 10
286.6391071517575
 20
334.7128838713961
 30
0.0
 11
274.0623992291768
 21
334.7128838713961
 31
0.0
  0
LINE
  5
1F37
330
1F
100
AcDbEntity
  8
0
370
     9
100
AcDbLine
 10
286.6391071517575
 20
341.7872820778478
 30
0.0
 11
274.0623992291768
 21
341.7872820778478
 31
0.0
  0
LINE
  5
1F38
330
1F
100
AcDbEntity
  8
0
370
     9
100
AcDbLine
 10
286.6391071517575
 20
364.0559157077938
 30
0.0
 11
274.0623992291768
 21
364.0559157077938
 31
0.0
  0
LINE
  5
1F39
330
1F
100
AcDbEntity
  8
0
370
     9
100
AcDbLine
 10
286.6391071517575
 20
356.9815175013421
 30
0.0
 11
274.0623992291768
 21
356.9815175013421
 31
0.0
  0
LINE
  5
1F3A
330
1F
100
AcDbEntity
  8
0
370
     9
100
AcDbLine
 10
258.9393328785269
 20
406.0856221253136
 30
0.0
 11
269.3058123380181
 21
406.0856221253136
 31
0.0
  0
LINE
  5
1F3B
330
1F
100
AcDbEntity
  8
0
370
     9
100
AcDbLine
 10
260.3433099372294
 20
408.6356221253136
 30
0.0
 11
269.3058123380181
 21
408.6356221253136
 31
0.0
  0
LINE
  5
1F3C
330
1F
100
AcDbEntity
  8
0
370
     9
100
AcDbLine
 10
260.3433099372294
 20
393.0122181806927
 30
0.0
 11
269.3058123380181
 21
393.0122181806927
 31
0.0
  0
LINE
  5
1F3D
330
1F
100
AcDbEntity
  8
0
370
     9
100
AcDbLine
 10
258.9393328785269
 20
390.4622181806928
 30
0.0
 11
269.3058123380181
 21
390.4622181806928
 31
0.0
  0
DIMENSION
  5
1F3E
330
1F
100
AcDbEntity
  8
AM_5
100
AcDbDimension
  2
*D27
 10
210.5207511667266
 20
335.657582974622
 30
0.0
 11
210.5207511667265
 21
338.5365533364621
 31
0.0
 70
   160
  1
4
 71
     5
 42
5.757940723680178
  3
STANDARD
100
AcDbAlignedDimension
 13
213.8136992420188
 23
341.4155236983021
 33
0.0
 14
213.0661533463243
 24
335.657582974622
 34
0.0
 50
90.0
100
AcDbRotatedDimension
1001
ACAD
1000
DSTYLE
1002
{
1070
    40
1040
0.5
1070
    44
1040
2.0
1002
}
  0
LINE
  5
1F3F
330
1F
100
AcDbEntity
  8
0
370
     9
100
AcDbLine
 10
180.2615330742185
 20
334.7175738333662
 30
0.0
 11
167.6848251516378
 21
334.7175738333662
 31
0.0
  0
LINE
  5
1F40
330
1F
100
AcDbEntity
  8
0
370
     9
100
AcDbLine
 10
180.2615330742185
 20
341.7919720398179
 30
0.0
 11
167.6848251516378
 21
341.7919720398179
 31
0.0
  0
LINE
  5
1F41
330
1F
100
AcDbEntity
  8
0
370
     9
100
AcDbLine
 10
167.6848251516378
 20
337.4687286914308
 30
0.0
 11
167.6848251516378
 21
334.7175738333662
 31
0.0
  0
LINE
  5
1F42
330
1F
100
AcDbEntity
  8
0
370
     9
100
AcDbLine
 10
166.5057587838956
 20
337.4687286914308
 30
0.0
 11
166.5057587838956
 21
334.8485812075598
 31
0.0
  0
LINE
  5
1F43
330
1F
100
AcDbEntity
  8
0
370
     9
100
AcDbLine
 10
165.326692416154
 20
341.5299572914309
 30
0.0
 11
165.326692416154
 21
334.9795885817534
 31
0.0
  0
LINE
  5
1F44
330
1F
100
AcDbEntity
  8
0
370
     9
100
AcDbLine
 10
164.1476260484117
 20
341.3989499172373
 30
0.0
 11
164.1476260484117
 21
335.1105959559469
 31
0.0
  0
LINE
  5
1F45
330
1F
100
AcDbEntity
  8
0
370
     9
100
AcDbLine
 10
161.7894933129279
 20
337.4687286914308
 30
0.0
 11
161.7894933129279
 21
335.372610704334
 31
0.0
  0
LINE
  5
1F46
330
1F
100
AcDbEntity
  8
0
370
     9
100
AcDbLine
 10
162.9685596806701
 20
337.4687286914308
 30
0.0
 11
162.9685596806701
 21
335.2416033301405
 31
0.0
  0
LINE
  5
1F47
330
1F
100
AcDbEntity
  8
0
100
AcDbLine
 10
160.6104269451863
 20
341.0059277946566
 30
0.0
 11
160.6104269451863
 21
335.5036180785276
 31
0.0
  0
LINE
  5
1F48
330
1F
100
AcDbEntity
  8
0
100
AcDbLine
 10
151.0728206334428
 20
335.9596444117432
 30
0.0
 11
153.3680203702721
 21
340.0831168794391
 31
0.0
  0
LINE
  5
1F49
330
1F
100
AcDbEntity
  8
0
100
AcDbLine
 10
152.0141059605013
 20
335.9850880629433
 30
0.0
 11
154.2725442389811
 21
340.0870194829952
 31
0.0
  0
LINE
  5
1F4A
330
1F
100
AcDbEntity
  8
0
370
     9
100
AcDbLine
 10
160.610426945186
 20
335.5036180785276
 30
0.0
 11
161.7894933129279
 21
335.372610704334
 31
0.0
  0
LINE
  5
1F4B
330
1F
100
AcDbEntity
  8
0
370
     9
100
AcDbLine
 10
162.9685596806701
 20
335.2416033301405
 30
0.0
 11
166.5057587838956
 21
334.8485812075598
 31
0.0
  0
LINE
  5
1F4C
330
1F
100
AcDbEntity
  8
0
370
     9
100
AcDbLine
 10
160.610426945186
 20
341.0059277946566
 30
0.0
 11
161.7894933129279
 21
341.1369351688501
 31
0.0
  0
LINE
  5
1F4D
330
1F
100
AcDbEntity
  8
0
370
     9
100
AcDbLine
 10
152.5617588009876
 20
336.9797729365922
 30
0.0
 11
160.610426945186
 21
336.9797729365921
 31
0.0
  0
LINE
  5
1F4E
330
1F
100
AcDbEntity
  8
0
370
     9
100
AcDbLine
 10
153.9657358596902
 20
339.5297729365921
 30
0.0
 11
160.6104269451863
 21
339.5297729365922
 31
0.0
  0
LINE
  5
1F4F
330
1F
100
AcDbEntity
  8
0
370
     9
100
AcDbLine
 10
166.5057587838956
 20
336.9797729365921
 30
0.0
 11
167.6848251516378
 21
336.9797729365921
 31
0.0
  0
LINE
  5
1F50
330
1F
100
AcDbEntity
  8
0
370
     9
100
AcDbLine
 10
166.5057587838956
 20
339.5297729365921
 30
0.0
 11
167.6848251516378
 21
339.5297729365921
 31
0.0
  0
LINE
  5
1F51
330
1F
100
AcDbEntity
  8
0
370
     9
100
AcDbLine
 10
167.6848251516378
 20
337.4687286914308
 30
0.0
 11
166.5057587838956
 21
337.4687286914308
 31
0.0
  0
LINE
  5
1F52
330
1F
100
AcDbEntity
  8
0
370
     9
100
AcDbLine
 10
167.6848251516378
 20
339.0408171817534
 30
0.0
 11
166.5057587838956
 21
339.0408171817534
 31
0.0
  0
LINE
  5
1F53
330
1F
100
AcDbEntity
  8
0
370
     9
100
AcDbLine
 10
165.326692416154
 20
337.4687286914308
 30
0.0
 11
164.1476260484117
 21
337.4687286914308
 31
0.0
  0
LINE
  5
1F54
330
1F
100
AcDbEntity
  8
0
370
     9
100
AcDbLine
 10
165.326692416154
 20
339.0408171817534
 30
0.0
 11
164.1476260484117
 21
339.0408171817534
 31
0.0
  0
LINE
  5
1F55
330
1F
100
AcDbEntity
  8
0
370
     9
100
AcDbLine
 10
167.6848251516378
 20
341.7919720398179
 30
0.0
 11
167.6848251516378
 21
339.0408171817534
 31
0.0
  0
LINE
  5
1F56
330
1F
100
AcDbEntity
  8
0
370
     9
100
AcDbLine
 10
166.5057587838956
 20
341.6609646656245
 30
0.0
 11
166.5057587838956
 21
339.0408171817534
 31
0.0
  0
LINE
  5
1F57
330
1F
100
AcDbEntity
  8
0
370
     9
100
AcDbLine
 10
161.7894933129279
 20
339.5297729365921
 30
0.0
 11
162.9685596806701
 21
339.5297729365922
 31
0.0
  0
LINE
  5
1F58
330
1F
100
AcDbEntity
  8
0
370
     9
100
AcDbLine
 10
161.7894933129279
 20
336.9797729365921
 30
0.0
 11
162.9685596806701
 21
336.9797729365921
 31
0.0
  0
LINE
  5
1F59
330
1F
100
AcDbEntity
  8
0
370
     9
100
AcDbLine
 10
162.9685596806701
 20
339.0408171817534
 30
0.0
 11
161.7894933129279
 21
339.0408171817534
 31
0.0
  0
LINE
  5
1F5A
330
1F
100
AcDbEntity
  8
0
370
     9
100
AcDbLine
 10
162.9685596806701
 20
337.4687286914308
 30
0.0
 11
161.7894933129279
 21
337.4687286914308
 31
0.0
  0
LINE
  5
1F5B
330
1F
100
AcDbEntity
  8
0
370
     9
100
AcDbLine
 10
162.9685596806701
 20
341.2679425430438
 30
0.0
 11
162.9685596806701
 21
339.0408171817534
 31
0.0
  0
LINE
  5
1F5C
330
1F
100
AcDbEntity
  8
0
370
     9
100
AcDbLine
 10
161.7894933129279
 20
341.1369351688501
 30
0.0
 11
161.7894933129279
 21
339.0408171817534
 31
0.0
  0
LINE
  5
1F5D
330
1F
100
AcDbEntity
  8
0
370
     9
100
AcDbLine
 10
162.9685596806701
 20
341.2679425430438
 30
0.0
 11
166.5057587838956
 21
341.6609646656245
 31
0.0
  0
LINE
  5
1F5E
330
1F
100
AcDbEntity
  8
0
370
     9
100
AcDbLine
 10
184.9777985451864
 20
340.9076722640114
 30
0.0
 11
184.9777985451864
 21
335.6018736091727
 31
0.0
  0
LINE
  5
1F5F
330
1F
100
AcDbEntity
  8
0
370
     9
100
AcDbLine
 10
182.2266436871218
 20
341.3989499172373
 30
0.0
 11
181.4405994419604
 21
335.1105959559469
 31
0.0
  0
LINE
  5
1F60
330
1F
100
AcDbEntity
  8
0
370
     9
100
AcDbLine
 10
181.4405994419604
 20
341.3989499172373
 30
0.0
 11
180.6545551967992
 21
335.1105959559469
 31
0.0
  0
LINE
  5
1F61
330
1F
100
AcDbEntity
  8
0
370
     9
100
AcDbLine
 10
180.2615330742185
 20
341.7919720398179
 30
0.0
 11
180.2615330742185
 21
334.7175738333662
 31
0.0
  0
LINE
  5
1F62
330
1F
100
AcDbEntity
  8
0
370
     9
100
AcDbLine
 10
183.4057100548638
 20
341.1434855375599
 30
0.0
 11
183.4057100548638
 21
335.3660603356244
 31
0.0
  0
LINE
  5
1F63
330
1F
100
AcDbEntity
  8
0
370
     9
100
AcDbLine
 10
182.95127822563
 20
340.9076722640114
 30
0.0
 11
182.2266436871218
 21
335.1105959559469
 31
0.0
  0
LINE
  5
1F64
330
1F
100
AcDbEntity
  8
0
370
     9
100
AcDbLine
 10
181.1569601566236
 20
335.6018736091727
 30
0.0
 11
180.938194482136
 21
335.6018736091727
 31
0.0
  0
LINE
  5
1F65
330
1F
100
AcDbEntity
  8
0
370
     9
100
AcDbLine
 10
180.3709159114624
 20
335.6018736091727
 30
0.0
 11
180.2615330742185
 21
335.6018736091727
 31
0.0
  0
LINE
  5
1F66
330
1F
100
AcDbEntity
  8
0
370
     9
100
AcDbLine
 10
181.943004401785
 20
335.6018736091727
 30
0.0
 11
181.7242387272972
 21
335.6018736091727
 31
0.0
  0
LINE
  5
1F67
330
1F
100
AcDbEntity
  8
0
370
     9
100
AcDbLine
 10
183.4057100548638
 20
335.6018736091727
 30
0.0
 11
182.5102829724586
 21
335.6018736091727
 31
0.0
  0
LINE
  5
1F68
330
1F
100
AcDbEntity
  8
0
370
     9
100
AcDbLine
 10
181.943004401785
 20
335.6018736091727
 30
0.0
 11
182.2266436871218
 21
335.1105959559469
 31
0.0
  0
LINE
  5
1F69
330
1F
100
AcDbEntity
  8
0
370
     9
100
AcDbLine
 10
182.2266436871218
 20
335.1105959559469
 30
0.0
 11
182.5102829724586
 21
335.6018736091727
 31
0.0
  0
LINE
  5
1F6A
330
1F
100
AcDbEntity
  8
0
370
     9
100
AcDbLine
 10
180.3709159114624
 20
335.6018736091727
 30
0.0
 11
180.6545551967992
 21
335.1105959559469
 31
0.0
  0
LINE
  5
1F6B
330
1F
100
AcDbEntity
  8
0
370
     9
100
AcDbLine
 10
180.6545551967992
 20
335.1105959559469
 30
0.0
 11
180.938194482136
 21
335.6018736091727
 31
0.0
  0
LINE
  5
1F6C
330
1F
100
AcDbEntity
  8
0
370
     9
100
AcDbLine
 10
181.4405994419604
 20
335.1105959559469
 30
0.0
 11
181.7242387272972
 21
335.6018736091727
 31
0.0
  0
LINE
  5
1F6D
330
1F
100
AcDbEntity
  8
0
370
     9
100
AcDbLine
 10
181.1569601566236
 20
335.6018736091727
 30
0.0
 11
181.4405994419604
 21
335.1105959559469
 31
0.0
  0
LINE
  5
1F6E
330
1F
100
AcDbEntity
  8
0
370
     9
100
AcDbLine
 10
184.9777985451864
 20
335.6018736091727
 30
0.0
 11
183.4057100548638
 21
335.3660603356244
 31
0.0
  0
LINE
  5
1F6F
330
1F
100
AcDbEntity
  8
0
370
     9
100
AcDbLine
 10
182.2266436871218
 20
341.3989499172373
 30
0.0
 11
181.943004401785
 21
340.9076722640114
 31
0.0
  0
LINE
  5
1F70
330
1F
100
AcDbEntity
  8
0
370
     9
100
AcDbLine
 10
182.2266436871218
 20
341.3989499172373
 30
0.0
 11
182.5102829724586
 21
340.9076722640114
 31
0.0
  0
LINE
  5
1F71
330
1F
100
AcDbEntity
  8
0
370
     9
100
AcDbLine
 10
181.4405994419604
 20
341.3989499172373
 30
0.0
 11
181.7242387272972
 21
340.9076722640114
 31
0.0
  0
LINE
  5
1F72
330
1F
100
AcDbEntity
  8
0
370
     9
100
AcDbLine
 10
181.4405994419604
 20
341.3989499172373
 30
0.0
 11
181.1569601566236
 21
340.9076722640114
 31
0.0
  0
LINE
  5
1F73
330
1F
100
AcDbEntity
  8
0
370
     9
100
AcDbLine
 10
181.1569601566236
 20
340.9076722640114
 30
0.0
 11
180.2615330742185
 21
340.9076722640114
 31
0.0
  0
LINE
  5
1F74
330
1F
100
AcDbEntity
  8
0
370
     9
100
AcDbLine
 10
181.943004401785
 20
340.9076722640114
 30
0.0
 11
181.7242387272972
 21
340.9076722640114
 31
0.0
  0
LINE
  5
1F75
330
1F
100
AcDbEntity
  8
0
370
     9
100
AcDbLine
 10
183.4057100548638
 20
340.9076722640114
 30
0.0
 11
182.5102829724586
 21
340.9076722640114
 31
0.0
  0
LINE
  5
1F76
330
1F
100
AcDbEntity
  8
0
370
     9
100
AcDbLine
 10
184.9777985451864
 20
340.9076722640114
 30
0.0
 11
183.4057100548638
 21
341.1434855375599
 31
0.0
  0
LINE
  5
1F77
330
1F
100
AcDbEntity
  8
0
370
     9
100
AcDbLine
 10
180.2615330742188
 20
364.0606056697639
 30
0.0
 11
167.6848251516381
 21
364.0606056697639
 31
0.0
  0
LINE
  5
1F78
330
1F
100
AcDbEntity
  8
0
370
     9
100
AcDbLine
 10
180.2615330742188
 20
356.9862074633121
 30
0.0
 11
167.6848251516381
 21
356.9862074633121
 31
0.0
  0
LINE
  5
1F79
330
1F
100
AcDbEntity
  8
0
370
     9
100
AcDbLine
 10
160.6104269451863
 20
357.7722517084735
 30
0.0
 11
161.7894933129282
 21
357.64124433428
 31
0.0
  0
LINE
  5
1F7A
330
1F
100
AcDbEntity
  8
0
370
     9
100
AcDbLine
 10
160.6104269451863
 20
363.2745614246025
 30
0.0
 11
161.7894933129282
 21
363.4055687987961
 31
0.0
  0
LINE
  5
1F7B
330
1F
100
AcDbEntity
  8
0
100
AcDbLine
 10
160.6104269451863
 20
363.2745614246025
 30
0.0
 11
160.6104269451863
 21
357.7722517084735
 31
0.0
  0
LINE
  5
1F7C
330
1F
100
AcDbEntity
  8
0
100
AcDbLine
 10
152.0141059605013
 20
358.2537216928892
 30
0.0
 11
154.2725442389814
 21
362.3556531129413
 31
0.0
  0
LINE
  5
1F7D
330
1F
100
AcDbEntity
  8
0
100
AcDbLine
 10
151.0728206334428
 20
358.2282780416893
 30
0.0
 11
153.3680203702724
 21
362.3517505093851
 31
0.0
  0
LINE
  5
1F7E
330
1F
100
AcDbEntity
  8
0
370
     9
100
AcDbLine
 10
152.5617588009879
 20
359.2484065665382
 30
0.0
 11
160.6104269451863
 21
359.2484065665381
 31
0.0
  0
LINE
  5
1F7F
330
1F
100
AcDbEntity
  8
0
 62
     7
370
     9
100
AcDbLine
 10
157.198482745382
 20
359.2484065665381
 30
0.0
 11
157.3716514654565
 21
359.2484065665381
 31
0.0
  0
LINE
  5
1F80
330
1F
100
AcDbEntity
  8
0
 62
     7
370
     9
100
AcDbLine
 10
157.198482745382
 20
361.7984065665381
 30
0.0
 11
157.3716514654565
 21
361.7984065665381
 31
0.0
  0
LINE
  5
1F81
330
1F
100
AcDbEntity
  8
0
370
     9
100
AcDbLine
 10
153.9657358596907
 20
361.798406566538
 30
0.0
 11
160.6104269451866
 21
361.7984065665381
 31
0.0
  0
LINE
  5
1F82
330
1F
100
AcDbEntity
  8
0
370
     9
100
AcDbLine
 10
162.9685596806704
 20
359.7373623213768
 30
0.0
 11
162.9685596806704
 21
357.5102369600864
 31
0.0
  0
LINE
  5
1F83
330
1F
100
AcDbEntity
  8
0
370
     9
100
AcDbLine
 10
161.7894933129282
 20
359.7373623213768
 30
0.0
 11
161.7894933129282
 21
357.64124433428
 31
0.0
  0
LINE
  5
1F84
330
1F
100
AcDbEntity
  8
0
370
     9
100
AcDbLine
 10
164.147626048412
 20
363.6675835471832
 30
0.0
 11
164.147626048412
 21
357.3792295858928
 31
0.0
  0
LINE
  5
1F85
330
1F
100
AcDbEntity
  8
0
370
     9
100
AcDbLine
 10
165.3266924161542
 20
363.7985909213768
 30
0.0
 11
165.3266924161542
 21
357.2482222116993
 31
0.0
  0
LINE
  5
1F86
330
1F
100
AcDbEntity
  8
0
370
     9
100
AcDbLine
 10
166.5057587838959
 20
359.7373623213768
 30
0.0
 11
166.5057587838959
 21
357.1172148375058
 31
0.0
  0
LINE
  5
1F87
330
1F
100
AcDbEntity
  8
0
370
     9
100
AcDbLine
 10
167.6848251516381
 20
359.7373623213768
 30
0.0
 11
167.6848251516381
 21
356.9862074633121
 31
0.0
  0
LINE
  5
1F88
330
1F
100
AcDbEntity
  8
0
370
     9
100
AcDbLine
 10
162.9685596806704
 20
357.5102369600864
 30
0.0
 11
166.5057587838959
 21
357.1172148375058
 31
0.0
  0
LINE
  5
1F89
330
1F
100
AcDbEntity
  8
0
370
     9
100
AcDbLine
 10
162.9685596806704
 20
363.5365761729898
 30
0.0
 11
166.5057587838959
 21
363.9295982955705
 31
0.0
  0
LINE
  5
1F8A
330
1F
100
AcDbEntity
  8
0
370
     9
100
AcDbLine
 10
161.7894933129282
 20
363.4055687987961
 30
0.0
 11
161.7894933129282
 21
361.3094508116993
 31
0.0
  0
LINE
  5
1F8B
330
1F
100
AcDbEntity
  8
0
370
     9
100
AcDbLine
 10
162.9685596806704
 20
363.5365761729898
 30
0.0
 11
162.9685596806704
 21
361.3094508116993
 31
0.0
  0
LINE
  5
1F8C
330
1F
100
AcDbEntity
  8
0
370
     9
100
AcDbLine
 10
162.9685596806704
 20
359.7373623213768
 30
0.0
 11
161.7894933129282
 21
359.7373623213768
 31
0.0
  0
LINE
  5
1F8D
330
1F
100
AcDbEntity
  8
0
370
     9
100
AcDbLine
 10
162.9685596806704
 20
361.3094508116993
 30
0.0
 11
161.7894933129282
 21
361.3094508116993
 31
0.0
  0
LINE
  5
1F8E
330
1F
100
AcDbEntity
  8
0
370
     9
100
AcDbLine
 10
161.7894933129282
 20
359.2484065665381
 30
0.0
 11
162.9685596806704
 21
359.2484065665381
 31
0.0
  0
LINE
  5
1F8F
330
1F
100
AcDbEntity
  8
0
370
     9
100
AcDbLine
 10
161.7894933129282
 20
361.798406566538
 30
0.0
 11
162.9685596806704
 21
361.7984065665381
 31
0.0
  0
LINE
  5
1F90
330
1F
100
AcDbEntity
  8
0
370
     9
100
AcDbLine
 10
166.5057587838959
 20
363.9295982955705
 30
0.0
 11
166.5057587838959
 21
361.3094508116993
 31
0.0
  0
LINE
  5
1F91
330
1F
100
AcDbEntity
  8
0
370
     9
100
AcDbLine
 10
167.6848251516381
 20
364.0606056697639
 30
0.0
 11
167.6848251516381
 21
361.3094508116993
 31
0.0
  0
LINE
  5
1F92
330
1F
100
AcDbEntity
  8
0
370
     9
100
AcDbLine
 10
165.3266924161542
 20
361.3094508116993
 30
0.0
 11
164.147626048412
 21
361.3094508116993
 31
0.0
  0
LINE
  5
1F93
330
1F
100
AcDbEntity
  8
0
370
     9
100
AcDbLine
 10
165.3266924161542
 20
359.7373623213768
 30
0.0
 11
164.147626048412
 21
359.7373623213768
 31
0.0
  0
LINE
  5
1F94
330
1F
100
AcDbEntity
  8
0
370
     9
100
AcDbLine
 10
167.6848251516381
 20
361.3094508116993
 30
0.0
 11
166.5057587838959
 21
361.3094508116993
 31
0.0
  0
LINE
  5
1F95
330
1F
100
AcDbEntity
  8
0
370
     9
100
AcDbLine
 10
167.6848251516381
 20
359.7373623213768
 30
0.0
 11
166.5057587838959
 21
359.7373623213768
 31
0.0
  0
LINE
  5
1F96
330
1F
100
AcDbEntity
  8
0
370
     9
100
AcDbLine
 10
166.5057587838959
 20
361.798406566538
 30
0.0
 11
167.6848251516381
 21
361.798406566538
 31
0.0
  0
LINE
  5
1F97
330
1F
100
AcDbEntity
  8
0
370
     9
100
AcDbLine
 10
166.5057587838959
 20
359.2484065665381
 30
0.0
 11
167.6848251516381
 21
359.2484065665381
 31
0.0
  0
LINE
  5
1F98
330
1F
100
AcDbEntity
  8
0
370
     9
100
AcDbLine
 10
184.9777985451867
 20
357.8705072391187
 30
0.0
 11
183.405710054864
 21
357.6346939655703
 31
0.0
  0
LINE
  5
1F99
330
1F
100
AcDbEntity
  8
0
370
     9
100
AcDbLine
 10
182.9512782256303
 20
363.1763058939574
 30
0.0
 11
182.2266436871221
 21
357.3792295858928
 31
0.0
  0
LINE
  5
1F9A
330
1F
100
AcDbEntity
  8
0
370
     9
100
AcDbLine
 10
183.405710054864
 20
363.4121191675059
 30
0.0
 11
183.405710054864
 21
357.6346939655703
 31
0.0
  0
LINE
  5
1F9B
330
1F
100
AcDbEntity
  8
0
370
     9
100
AcDbLine
 10
180.2615330742188
 20
364.0606056697639
 30
0.0
 11
180.2615330742188
 21
356.9862074633121
 31
0.0
  0
LINE
  5
1F9C
330
1F
100
AcDbEntity
  8
0
370
     9
100
AcDbLine
 10
181.4405994419606
 20
363.6675835471832
 30
0.0
 11
180.6545551967995
 21
357.3792295858928
 31
0.0
  0
LINE
  5
1F9D
330
1F
100
AcDbEntity
  8
0
370
     9
100
AcDbLine
 10
182.2266436871221
 20
363.6675835471832
 30
0.0
 11
181.4405994419606
 21
357.3792295858928
 31
0.0
  0
LINE
  5
1F9E
330
1F
100
AcDbEntity
  8
0
370
     9
100
AcDbLine
 10
181.1569601566239
 20
357.8705072391187
 30
0.0
 11
181.4405994419606
 21
357.3792295858928
 31
0.0
  0
LINE
  5
1F9F
330
1F
100
AcDbEntity
  8
0
370
     9
100
AcDbLine
 10
181.4405994419606
 20
357.3792295858928
 30
0.0
 11
181.7242387272974
 21
357.8705072391187
 31
0.0
  0
LINE
  5
1FA0
330
1F
100
AcDbEntity
  8
0
370
     9
100
AcDbLine
 10
180.6545551967995
 20
357.3792295858928
 30
0.0
 11
180.9381944821362
 21
357.8705072391187
 31
0.0
  0
LINE
  5
1FA1
330
1F
100
AcDbEntity
  8
0
370
     9
100
AcDbLine
 10
180.3709159114627
 20
357.8705072391187
 30
0.0
 11
180.6545551967995
 21
357.3792295858928
 31
0.0
  0
LINE
  5
1FA2
330
1F
100
AcDbEntity
  8
0
370
     9
100
AcDbLine
 10
182.2266436871221
 20
357.3792295858928
 30
0.0
 11
182.5102829724589
 21
357.8705072391187
 31
0.0
  0
LINE
  5
1FA3
330
1F
100
AcDbEntity
  8
0
370
     9
100
AcDbLine
 10
181.9430044017854
 20
357.8705072391187
 30
0.0
 11
182.2266436871221
 21
357.3792295858928
 31
0.0
  0
LINE
  5
1FA4
330
1F
100
AcDbEntity
  8
0
370
     9
100
AcDbLine
 10
184.9777985451867
 20
363.1763058939574
 30
0.0
 11
183.405710054864
 21
363.4121191675059
 31
0.0
  0
LINE
  5
1FA5
330
1F
100
AcDbEntity
  8
0
370
     9
100
AcDbLine
 10
183.405710054864
 20
357.8705072391187
 30
0.0
 11
182.5102829724589
 21
357.8705072391187
 31
0.0
  0
LINE
  5
1FA6
330
1F
100
AcDbEntity
  8
0
370
     9
100
AcDbLine
 10
181.9430044017854
 20
357.8705072391187
 30
0.0
 11
181.7242387272974
 21
357.8705072391187
 31
0.0
  0
LINE
  5
1FA7
330
1F
100
AcDbEntity
  8
0
370
     9
100
AcDbLine
 10
180.3709159114627
 20
357.8705072391187
 30
0.0
 11
180.2615330742188
 21
357.8705072391187
 31
0.0
  0
LINE
  5
1FA8
330
1F
100
AcDbEntity
  8
0
370
     9
100
AcDbLine
 10
181.1569601566239
 20
357.8705072391187
 30
0.0
 11
180.9381944821362
 21
357.8705072391187
 31
0.0
  0
LINE
  5
1FA9
330
1F
100
AcDbEntity
  8
0
370
     9
100
AcDbLine
 10
183.405710054864
 20
363.1763058939574
 30
0.0
 11
182.5102829724589
 21
363.1763058939574
 31
0.0
  0
LINE
  5
1FAA
330
1F
100
AcDbEntity
  8
0
370
     9
100
AcDbLine
 10
181.9430044017854
 20
363.1763058939574
 30
0.0
 11
181.7242387272974
 21
363.1763058939574
 31
0.0
  0
LINE
  5
1FAB
330
1F
100
AcDbEntity
  8
0
370
     9
100
AcDbLine
 10
181.1569601566239
 20
363.1763058939574
 30
0.0
 11
180.2615330742188
 21
363.1763058939574
 31
0.0
  0
LINE
  5
1FAC
330
1F
100
AcDbEntity
  8
0
370
     9
100
AcDbLine
 10
181.4405994419606
 20
363.6675835471832
 30
0.0
 11
181.1569601566239
 21
363.1763058939574
 31
0.0
  0
LINE
  5
1FAD
330
1F
100
AcDbEntity
  8
0
370
     9
100
AcDbLine
 10
181.4405994419606
 20
363.6675835471832
 30
0.0
 11
181.7242387272974
 21
363.1763058939574
 31
0.0
  0
LINE
  5
1FAE
330
1F
100
AcDbEntity
  8
0
370
     9
100
AcDbLine
 10
182.2266436871221
 20
363.6675835471832
 30
0.0
 11
182.5102829724589
 21
363.1763058939574
 31
0.0
  0
LINE
  5
1FAF
330
1F
100
AcDbEntity
  8
0
370
     9
100
AcDbLine
 10
182.2266436871221
 20
363.6675835471832
 30
0.0
 11
181.9430044017854
 21
363.1763058939574
 31
0.0
  0
LINE
  5
1FB0
330
1F
100
AcDbEntity
  8
0
370
     9
100
AcDbLine
 10
184.9777985451867
 20
363.1763058939574
 30
0.0
 11
184.9777985451867
 21
357.8705072391187
 31
0.0
  0
DIMENSION
  5
1FB1
330
1F
100
AcDbEntity
  8
AM_5
100
AcDbDimension
  2
*D28
 10
248.9733569538005
 20
351.5788899804984
 30
0.0
 11
236.2233569538004
 21
352.8540622245929
 31
0.0
 70
    32
  1
<>
 71
     5
 42
25.50000000000034
  3
STANDARD
100
AcDbAlignedDimension
 13
223.4733569538002
 23
358.0476451759965
 33
0.0
 14
248.9733569538005
 24
358.0476451759965
 34
0.0
100
AcDbRotatedDimension
1001
ACAD
1000
DSTYLE
1002
{
1070
    40
1040
0.5
1070
    44
1040
2.0
1002
}
  0
LINE
  5
1FB2
330
1F
100
AcDbEntity
  8
0
 48
5.0
370
     9
100
AcDbLine
 10
227.2983569538003
 20
341.4155236983022
 30
0.0
 11
248.9733569538005
 21
341.4155236983022
 31
0.0
  0
LINE
  5
1FB3
330
1F
100
AcDbEntity
  8
0
 48
5.0
370
     9
100
AcDbLine
 10
227.2983569538003
 20
340.9275829746221
 30
0.0
 11
248.9733569538005
 21
340.9275829746221
 31
0.0
  0
LINE
  5
1FB4
330
1F
100
AcDbEntity
  8
0
 48
5.0
370
     9
100
AcDbLine
 10
227.2983569538003
 20
335.572582974622
 30
0.0
 11
248.9733569538005
 21
335.572582974622
 31
0.0
  0
LINE
  5
1FB5
330
1F
100
AcDbEntity
  8
0
 48
5.0
370
     9
100
AcDbLine
 10
223.4733569538002
 20
335.657582974622
 30
0.0
 11
223.4733569538002
 21
340.842582974622
 31
0.0
  0
LINE
  5
1FB6
330
1F
100
AcDbEntity
  8
0
 48
5.0
370
     9
100
AcDbLine
 10
223.4733569538005
 20
340.9275829746219
 30
0.0
 11
223.4733569538005
 21
335.572582974622
 31
0.0
  0
LINE
  5
1FB7
330
1F
100
AcDbEntity
  8
0
 48
5.0
370
     9
100
AcDbLine
 10
213.0661533463243
 20
335.657582974622
 30
0.0
 11
213.0661533463243
 21
340.842582974622
 31
0.0
  0
LINE
  5
1FB8
330
1F
100
AcDbEntity
  8
0
 48
5.0
370
     9
100
AcDbLine
 10
217.2749286807955
 20
335.657582974622
 30
0.0
 11
217.2749286807955
 21
340.842582974622
 31
0.0
  0
DIMENSION
  5
1FB9
330
1F
100
AcDbEntity
  8
AM_5
100
AcDbDimension
  2
*D29
 10
230.9733569538005
 20
331.1334527089524
 30
0.0
 11
227.2233569538003
 21
332.4084527089524
 31
0.0
 70
    32
  1
7.5
 71
     5
 42
7.500000000000284
  3
STANDARD
100
AcDbAlignedDimension
 13
223.4733569538002
 23
335.657582974622
 33
0.0
 14
230.9733569538005
 24
335.572582974622
 34
0.0
100
AcDbRotatedDimension
1001
ACAD
1000
DSTYLE
1002
{
1070
    40
1040
0.5
1070
    44
1040
2.0
1002
}
  0
LINE
  5
1FBA
330
1F
100
AcDbEntity
  8
0
 48
5.0
370
     9
100
AcDbLine
 10
223.4733569538005
 20
335.572582974622
 30
0.0
 11
227.2983569538003
 21
335.572582974622
 31
0.0
  0
LINE
  5
1FBB
330
1F
100
AcDbEntity
  8
0
100
AcDbLine
 10
217.2749286807955
 20
335.657582974622
 30
0.0
 11
213.0661533463243
 21
335.657582974622
 31
0.0
  0
LINE
  5
1FBC
330
1F
100
AcDbEntity
  8
0
 48
5.0
370
     9
100
AcDbLine
 10
223.4733569538005
 20
340.9275829746219
 30
0.0
 11
227.2983569538003
 21
340.9275829746219
 31
0.0
  0
LINE
  5
1FBD
330
1F
100
AcDbEntity
  8
0
100
AcDbLine
 10
217.2749286807955
 20
340.842582974622
 30
0.0
 11
213.0661533463243
 21
340.842582974622
 31
0.0
  0
LINE
  5
1FBE
330
1F
100
AcDbEntity
  8
0
100
AcDbLine
 10
216.5273827851009
 20
341.4155236983021
 30
0.0
 11
213.8136992420188
 21
341.4155236983021
 31
0.0
  0
LINE
  5
1FBF
330
1F
100
AcDbEntity
  8
0
100
AcDbLine
 10
213.8136992420188
 20
340.842582974622
 30
0.0
 11
213.8136992420188
 21
341.4155236983021
 31
0.0
  0
LINE
  5
1FC0
330
1F
100
AcDbEntity
  8
0
100
AcDbLine
 10
216.5273827851009
 20
340.842582974622
 30
0.0
 11
216.5273827851009
 21
341.4155236983021
 31
0.0
  0
LINE
  5
1FC1
330
1F
100
AcDbEntity
  8
0
 48
5.0
370
     9
100
AcDbLine
 10
227.2983569538001
 20
340.9275829746221
 30
0.0
 11
227.2983569538001
 21
341.4155236983021
 31
0.0
  0
LINE
  5
1FC2
330
1F
100
AcDbEntity
  8
0
100
AcDbLine
 10
226.1285171814027
 20
339.2935510787329
 30
0.0
 11
224.8564149236774
 21
337.0902053359293
 31
0.0
  0
LINE
  5
1FC3
330
1F
100
AcDbEntity
  8
0
100
AcDbLine
 10
225.9181967261981
 20
339.4149796501616
 30
0.0
 11
224.6460944684725
 21
337.2116339073579
 31
0.0
  0
CIRCLE
  5
1FC4
330
1F
100
AcDbEntity
  8
0
 48
5.0
370
     9
100
AcDbCircle
 10
225.3858569538006
 20
338.250082974622
 30
0.0
 40
1.275000000000014
  0
LINE
  5
1FC5
330
1F
100
AcDbEntity
  8
0
370
     9
100
AcDbLine
 10
274.0623992291768
 20
337.4640387294608
 30
0.0
 11
274.0623992291768
 21
334.7128838713961
 31
0.0
  0
LINE
  5
1FC6
330
1F
100
AcDbEntity
  8
0
370
     9
100
AcDbLine
 10
270.5252001259507
 20
341.3942599552672
 30
0.0
 11
270.5252001259507
 21
335.1059059939768
 31
0.0
  0
LINE
  5
1FC7
330
1F
100
AcDbEntity
  8
0
370
     9
100
AcDbLine
 10
268.1670673904668
 20
337.4640387294608
 30
0.0
 11
268.1670673904668
 21
335.3679207423639
 31
0.0
  0
LINE
  5
1FC8
330
1F
100
AcDbEntity
  8
0
370
     9
100
AcDbLine
 10
269.3461337582091
 20
337.4640387294608
 30
0.0
 11
269.3461337582091
 21
335.2369133681703
 31
0.0
  0
LINE
  5
1FC9
330
1F
100
AcDbEntity
  8
0
370
     9
100
AcDbLine
 10
272.8833328614346
 20
337.4640387294608
 30
0.0
 11
272.8833328614346
 21
334.8438912455897
 31
0.0
  0
LINE
  5
1FCA
330
1F
100
AcDbEntity
  8
0
370
     9
100
AcDbLine
 10
271.7042664936929
 20
341.5252673294608
 30
0.0
 11
271.7042664936929
 21
334.9748986197833
 31
0.0
  0
LINE
  5
1FCB
330
1F
100
AcDbEntity
  8
0
100
AcDbLine
 10
266.9880010227252
 20
341.0012378326864
 30
0.0
 11
266.9880010227249
 21
335.4989281165575
 31
0.0
  0
LINE
  5
1FCC
330
1F
100
AcDbEntity
  8
0
 48
5.0
370
     9
100
AcDbLine
 10
248.9733569538005
 20
335.572582974622
 30
0.0
 11
248.9733569538005
 21
340.9275829746221
 31
0.0
  0
LINE
  5
1FCD
330
1F
100
AcDbEntity
  8
0
100
AcDbLine
 10
258.39168003804
 20
335.9803981009731
 30
0.0
 11
260.6501183165201
 21
340.0823295210252
 31
0.0
  0
LINE
  5
1FCE
330
1F
100
AcDbEntity
  8
0
100
AcDbLine
 10
257.4503947109816
 20
335.9549544497732
 30
0.0
 11
259.7455944478111
 21
340.078426917469
 31
0.0
  0
LINE
  5
1FCF
330
1F
100
AcDbEntity
  8
0
370
     9
100
AcDbLine
 10
269.3461337582091
 20
335.2369133681703
 30
0.0
 11
272.8833328614346
 21
334.8438912455897
 31
0.0
  0
LINE
  5
1FD0
330
1F
100
AcDbEntity
  8
0
370
     9
100
AcDbLine
 10
266.9880010227252
 20
335.4989281165575
 30
0.0
 11
268.1670673904668
 21
335.3679207423639
 31
0.0
  0
LINE
  5
1FD1
330
1F
100
AcDbEntity
  8
0
370
     9
100
AcDbLine
 10
248.9733569538005
 20
336.975082974622
 30
0.0
 11
258.018216793003
 21
336.975082974622
 31
0.0
  0
LINE
  5
1FD2
330
1F
100
AcDbEntity
  8
0
370
     9
100
AcDbLine
 10
248.9733569538005
 20
339.525082974622
 30
0.0
 11
259.4375931498885
 21
339.5250829746221
 31
0.0
  0
LINE
  5
1FD3
330
1F
100
AcDbEntity
  8
0
100
AcDbLine
 10
248.9733569538005
 20
340.9275829746221
 30
0.0
 11
248.9733569538008
 21
341.4155236983022
 31
0.0
  0
LINE
  5
1FD4
330
1F
100
AcDbEntity
  8
0
100
AcDbLine
 10
248.9733569538005
 20
339.525082974622
 30
0.0
 11
248.9733569538005
 21
336.975082974622
 31
0.0
  0
LINE
  5
1FD5
330
1F
100
AcDbEntity
  8
0
370
     9
100
AcDbLine
 10
260.3433099372294
 20
339.525082974622
 30
0.0
 11
266.9880010227252
 21
339.5250829746221
 31
0.0
  0
LINE
  5
1FD6
330
1F
100
AcDbEntity
  8
0
370
     9
100
AcDbLine
 10
258.9393328785267
 20
336.9750829746221
 30
0.0
 11
266.9880010227252
 21
336.975082974622
 31
0.0
  0
LINE
  5
1FD7
330
1F
100
AcDbEntity
  8
0
370
     9
100
AcDbLine
 10
274.0623992291768
 20
341.7872820778478
 30
0.0
 11
274.0623992291768
 21
339.0361272197833
 31
0.0
  0
LINE
  5
1FD8
330
1F
100
AcDbEntity
  8
0
370
     9
100
AcDbLine
 10
271.7042664936929
 20
337.4640387294608
 30
0.0
 11
270.5252001259507
 21
337.4640387294608
 31
0.0
  0
LINE
  5
1FD9
330
1F
100
AcDbEntity
  8
0
370
     9
100
AcDbLine
 10
271.7042664936929
 20
339.0361272197833
 30
0.0
 11
270.5252001259507
 21
339.0361272197833
 31
0.0
  0
LINE
  5
1FDA
330
1F
100
AcDbEntity
  8
0
370
     9
100
AcDbLine
 10
269.3461337582091
 20
341.2632525810737
 30
0.0
 11
272.8833328614346
 21
341.6562747036544
 31
0.0
  0
LINE
  5
1FDB
330
1F
100
AcDbEntity
  8
0
370
     9
100
AcDbLine
 10
268.1670673904668
 20
339.525082974622
 30
0.0
 11
269.3461337582091
 21
339.5250829746221
 31
0.0
  0
LINE
  5
1FDC
330
1F
100
AcDbEntity
  8
0
370
     9
100
AcDbLine
 10
268.1670673904668
 20
336.975082974622
 30
0.0
 11
269.3461337582091
 21
336.975082974622
 31
0.0
  0
LINE
  5
1FDD
330
1F
100
AcDbEntity
  8
0
370
     9
100
AcDbLine
 10
269.3461337582091
 20
339.0361272197833
 30
0.0
 11
268.1670673904668
 21
339.0361272197833
 31
0.0
  0
LINE
  5
1FDE
330
1F
100
AcDbEntity
  8
0
370
     9
100
AcDbLine
 10
269.3461337582091
 20
337.4640387294608
 30
0.0
 11
268.1670673904668
 21
337.4640387294608
 31
0.0
  0
LINE
  5
1FDF
330
1F
100
AcDbEntity
  8
0
370
     9
100
AcDbLine
 10
269.3461337582091
 20
341.2632525810737
 30
0.0
 11
269.3461337582091
 21
339.0361272197833
 31
0.0
  0
LINE
  5
1FE0
330
1F
100
AcDbEntity
  8
0
370
     9
100
AcDbLine
 10
268.1670673904668
 20
341.13224520688
 30
0.0
 11
268.1670673904668
 21
339.0361272197833
 31
0.0
  0
LINE
  5
1FE1
330
1F
100
AcDbEntity
  8
0
370
     9
100
AcDbLine
 10
272.8833328614346
 20
341.6562747036544
 30
0.0
 11
272.8833328614346
 21
339.0361272197833
 31
0.0
  0
LINE
  5
1FE2
330
1F
100
AcDbEntity
  8
0
370
     9
100
AcDbLine
 10
272.8833328614346
 20
336.975082974622
 30
0.0
 11
274.0623992291768
 21
336.975082974622
 31
0.0
  0
LINE
  5
1FE3
330
1F
100
AcDbEntity
  8
0
370
     9
100
AcDbLine
 10
272.8833328614346
 20
339.525082974622
 30
0.0
 11
274.0623992291768
 21
339.525082974622
 31
0.0
  0
LINE
  5
1FE4
330
1F
100
AcDbEntity
  8
0
370
     9
100
AcDbLine
 10
274.0623992291768
 20
337.4640387294608
 30
0.0
 11
272.8833328614346
 21
337.4640387294608
 31
0.0
  0
LINE
  5
1FE5
330
1F
100
AcDbEntity
  8
0
370
     9
100
AcDbLine
 10
274.0623992291768
 20
339.0361272197833
 30
0.0
 11
272.8833328614346
 21
339.0361272197833
 31
0.0
  0
LINE
  5
1FE6
330
1F
100
AcDbEntity
  8
0
370
     9
100
AcDbLine
 10
266.9880010227252
 20
341.0012378326864
 30
0.0
 11
268.1670673904668
 21
341.13224520688
 31
0.0
  0
LINE
  5
1FE7
330
1F
100
AcDbEntity
  8
0
 48
5.0
370
     9
100
AcDbLine
 10
227.2983569538003
 20
357.9626451759964
 30
0.0
 11
248.9733569538005
 21
357.9626451759964
 31
0.0
  0
LINE
  5
1FE8
330
1F
100
AcDbEntity
  8
0
 48
5.0
370
     9
100
AcDbLine
 10
227.2983569538003
 20
362.1822880331395
 30
0.0
 11
248.9733569538005
 21
362.1822880331395
 31
0.0
  0
LINE
  5
1FE9
330
1F
100
AcDbEntity
  8
0
 48
5.0
370
     9
100
AcDbLine
 10
227.2983569538003
 20
363.0747880331394
 30
0.0
 11
248.9733569538005
 21
363.0747880331394
 31
0.0
  0
LINE
  5
1FEA
330
1F
100
AcDbEntity
  8
0
 48
5.0
370
     9
100
AcDbLine
 10
227.2983569538003
 20
358.733716604568
 30
0.0
 11
248.9733569538005
 21
358.733716604568
 31
0.0
  0
DIMENSION
  5
1FEB
330
1F
100
AcDbEntity
  8
AM_5
100
AcDbDimension
  2
*D30
 10
220.3628855680212
 20
358.1326451759964
 30
0.0
 11
220.3628855680212
 21
360.6037166045681
 31
0.0
 70
   160
  1
4
 71
     5
 42
4.942142857143039
  3
STANDARD
100
AcDbAlignedDimension
 13
223.4733569538002
 23
363.0747880331394
 33
0.0
 14
223.4733569538002
 24
358.1326451759964
 34
0.0
 50
90.0
100
AcDbRotatedDimension
1001
ACAD
1000
DSTYLE
1002
{
1070
    40
1040
0.5
1070
    44
1040
2.0
1002
}
  0
LINE
  5
1FEC
330
1F
100
AcDbEntity
  8
0
 48
5.0
370
     9
100
AcDbLine
 10
223.4733569538005
 20
357.9626451759964
 30
0.0
 11
227.2983569538003
 21
357.9626451759964
 31
0.0
  0
LINE
  5
1FED
330
1F
100
AcDbEntity
  8
0
 48
5.0
370
     9
100
AcDbLine
 10
223.4733569538005
 20
363.0747880331394
 30
0.0
 11
227.2983569538003
 21
363.0747880331394
 31
0.0
  0
LINE
  5
1FEE
330
1F
100
AcDbEntity
  8
0
 48
5.0
370
     9
100
AcDbLine
 10
223.4733569538002
 20
358.0476451759965
 30
0.0
 11
223.4733569538002
 21
362.9897880331395
 31
0.0
  0
LINE
  5
1FEF
330
1F
100
AcDbEntity
  8
0
 48
5.0
370
     9
100
AcDbLine
 10
223.4733569538005
 20
363.0747880331394
 30
0.0
 11
223.4733569538005
 21
357.9626451759964
 31
0.0
  0
LINE
  5
1FF0
330
1F
100
AcDbEntity
  8
0
 48
5.0
370
     9
100
AcDbLine
 10
227.2983569538003
 20
358.733716604568
 30
0.0
 11
227.2983569538003
 21
362.1822880331395
 31
0.0
  0
LINE
  5
1FF1
330
1F
100
AcDbEntity
  8
0
 48
5.0
370
     9
100
AcDbLine
 10
227.2983569538003
 20
362.1822880331395
 30
0.0
 11
227.2983569538003
 21
358.733716604568
 31
0.0
  0
CIRCLE
  5
1FF2
330
1F
100
AcDbEntity
  8
0
 48
5.0
370
     9
100
AcDbCircle
 10
225.3858569538006
 20
360.518716604568
 30
0.0
 40
1.275000000000014
  0
LINE
  5
1FF3
330
1F
100
AcDbEntity
  8
0
100
AcDbLine
 10
225.9181967261981
 20
361.6836132801075
 30
0.0
 11
224.6460944684725
 21
359.480267537304
 31
0.0
  0
LINE
  5
1FF4
330
1F
100
AcDbEntity
  8
0
100
AcDbLine
 10
226.1285171814027
 20
361.5621847086789
 30
0.0
 11
224.8564149236774
 21
359.3588389658754
 31
0.0
  0
LINE
  5
1FF5
330
1F
100
AcDbEntity
  8
0
  6
CENTER
100
AcDbLine
 10
235.6650621291104
 20
361.6722880331394
 30
0.0
 11
239.1461737236219
 21
361.6722880331394
 31
0.0
  0
LINE
  5
1FF6
330
1F
100
AcDbEntity
  8
0
  6
CENTER
100
AcDbLine
 10
239.1461737236219
 20
359.3651451759966
 30
0.0
 11
235.6650621291104
 21
359.3651451759966
 31
0.0
  0
LINE
  5
1FF7
330
1F
100
AcDbEntity
  8
0
  6
CENTER
100
AcDbLine
 10
235.6650621291104
 20
359.3651451759966
 30
0.0
 11
235.6650621291104
 21
361.6722880331394
 31
0.0
  0
LINE
  5
1FF8
330
1F
100
AcDbEntity
  8
0
  6
CENTER
100
AcDbLine
 10
239.1461737236219
 20
361.6722880331394
 30
0.0
 11
239.1461737236219
 21
359.3651451759966
 31
0.0
  0
LINE
  5
1FF9
330
1F
100
AcDbEntity
  8
0
370
     9
100
AcDbLine
 10
248.9733569538005
 20
359.243716604568
 30
0.0
 11
258.0182167930033
 21
359.243716604568
 31
0.0
  0
LINE
  5
1FFA
330
1F
100
AcDbEntity
  8
0
370
     9
100
AcDbLine
 10
248.9733569538005
 20
361.793716604568
 30
0.0
 11
259.4375931498888
 21
361.793716604568
 31
0.0
  0
LINE
  5
1FFB
330
1F
100
AcDbEntity
  8
0
100
AcDbLine
 10
257.4503947109816
 20
358.2235880797191
 30
0.0
 11
259.7455944478111
 21
362.347060547415
 31
0.0
  0
LINE
  5
1FFC
330
1F
100
AcDbEntity
  8
0
 48
5.0
370
     9
100
AcDbLine
 10
248.9733569538005
 20
357.9626451759964
 30
0.0
 11
248.9733569538005
 21
363.0747880331394
 31
0.0
  0
LINE
  5
1FFD
330
1F
100
AcDbEntity
  8
0
100
AcDbLine
 10
248.9733569538005
 20
361.793716604568
 30
0.0
 11
248.9733569538005
 21
359.243716604568
 31
0.0
  0
LINE
  5
1FFE
330
1F
100
AcDbEntity
  8
0
370
     9
100
AcDbLine
 10
271.7042664936929
 20
363.7939009594068
 30
0.0
 11
271.7042664936929
 21
357.2435322497292
 31
0.0
  0
LINE
  5
1FFF
330
1F
100
AcDbEntity
  8
0
370
     9
100
AcDbLine
 10
272.8833328614346
 20
359.7326723594067
 30
0.0
 11
272.8833328614346
 21
357.1125248755358
 31
0.0
  0
LINE
  5
2000
330
1F
100
AcDbEntity
  8
0
370
     9
100
AcDbLine
 10
269.3461337582091
 20
359.7326723594067
 30
0.0
 11
269.3461337582091
 21
357.5055469981164
 31
0.0
  0
LINE
  5
2001
330
1F
100
AcDbEntity
  8
0
370
     9
100
AcDbLine
 10
268.1670673904668
 20
359.7326723594067
 30
0.0
 11
268.1670673904668
 21
357.6365543723099
 31
0.0
  0
LINE
  5
2002
330
1F
100
AcDbEntity
  8
0
370
     9
100
AcDbLine
 10
270.5252001259507
 20
363.6628935852132
 30
0.0
 11
270.5252001259507
 21
357.3745396239228
 31
0.0
  0
LINE
  5
2003
330
1F
100
AcDbEntity
  8
0
370
     9
100
AcDbLine
 10
274.0623992291768
 20
359.7326723594067
 30
0.0
 11
274.0623992291768
 21
356.9815175013421
 31
0.0
  0
LINE
  5
2004
330
1F
100
AcDbEntity
  8
0
100
AcDbLine
 10
266.9880010227252
 20
363.2698714626325
 30
0.0
 11
266.9880010227249
 21
357.7675617465034
 31
0.0
  0
LINE
  5
2005
330
1F
100
AcDbEntity
  8
0
370
     9
100
AcDbLine
 10
269.3461337582091
 20
357.5055469981164
 30
0.0
 11
272.8833328614346
 21
357.1125248755358
 31
0.0
  0
LINE
  5
2006
330
1F
100
AcDbEntity
  8
0
370
     9
100
AcDbLine
 10
266.9880010227252
 20
357.7675617465034
 30
0.0
 11
268.1670673904668
 21
357.6365543723099
 31
0.0
  0
LINE
  5
2007
330
1F
100
AcDbEntity
  8
0
370
     9
100
AcDbLine
 10
258.9393328785267
 20
359.243716604568
 30
0.0
 11
266.9880010227252
 21
359.243716604568
 31
0.0
  0
LINE
  5
2008
330
1F
100
AcDbEntity
  8
0
370
     9
100
AcDbLine
 10
260.3433099372294
 20
361.793716604568
 30
0.0
 11
266.9880010227252
 21
361.793716604568
 31
0.0
  0
LINE
  5
2009
330
1F
100
AcDbEntity
  8
0
 62
     7
370
     9
100
AcDbLine
 10
263.576056822921
 20
359.243716604568
 30
0.0
 11
263.7492255429954
 21
359.243716604568
 31
0.0
  0
LINE
  5
200A
330
1F
100
AcDbEntity
  8
0
 62
     7
370
     9
100
AcDbLine
 10
263.576056822921
 20
361.793716604568
 30
0.0
 11
263.7492255429954
 21
361.793716604568
 31
0.0
  0
LINE
  5
200B
330
1F
100
AcDbEntity
  8
0
100
AcDbLine
 10
258.3916800380403
 20
358.2490317309191
 30
0.0
 11
260.6501183165201
 21
362.3509631509711
 31
0.0
  0
LINE
  5
200C
330
1F
100
AcDbEntity
  8
0
370
     9
100
AcDbLine
 10
274.0623992291768
 20
361.3047608497292
 30
0.0
 11
272.8833328614346
 21
361.3047608497292
 31
0.0
  0
LINE
  5
200D
330
1F
100
AcDbEntity
  8
0
370
     9
100
AcDbLine
 10
274.0623992291768
 20
359.7326723594067
 30
0.0
 11
272.8833328614346
 21
359.7326723594067
 31
0.0
  0
LINE
  5
200E
330
1F
100
AcDbEntity
  8
0
370
     9
100
AcDbLine
 10
272.8833328614346
 20
361.793716604568
 30
0.0
 11
274.0623992291768
 21
361.793716604568
 31
0.0
  0
LINE
  5
200F
330
1F
100
AcDbEntity
  8
0
370
     9
100
AcDbLine
 10
272.8833328614346
 20
359.243716604568
 30
0.0
 11
274.0623992291768
 21
359.243716604568
 31
0.0
  0
LINE
  5
2010
330
1F
100
AcDbEntity
  8
0
370
     9
100
AcDbLine
 10
272.8833328614346
 20
363.9249083336003
 30
0.0
 11
272.8833328614346
 21
361.3047608497292
 31
0.0
  0
LINE
  5
2011
330
1F
100
AcDbEntity
  8
0
370
     9
100
AcDbLine
 10
268.1670673904668
 20
363.4008788368261
 30
0.0
 11
268.1670673904668
 21
361.3047608497292
 31
0.0
  0
LINE
  5
2012
330
1F
100
AcDbEntity
  8
0
370
     9
100
AcDbLine
 10
269.3461337582091
 20
363.5318862110197
 30
0.0
 11
269.3461337582091
 21
361.3047608497292
 31
0.0
  0
LINE
  5
2013
330
1F
100
AcDbEntity
  8
0
370
     9
100
AcDbLine
 10
269.3461337582091
 20
359.7326723594067
 30
0.0
 11
268.1670673904668
 21
359.7326723594067
 31
0.0
  0
LINE
  5
2014
330
1F
100
AcDbEntity
  8
0
370
     9
100
AcDbLine
 10
269.3461337582091
 20
361.3047608497292
 30
0.0
 11
268.1670673904668
 21
361.3047608497292
 31
0.0
  0
LINE
  5
2015
330
1F
100
AcDbEntity
  8
0
370
     9
100
AcDbLine
 10
268.1670673904668
 20
359.243716604568
 30
0.0
 11
269.3461337582091
 21
359.243716604568
 31
0.0
  0
LINE
  5
2016
330
1F
100
AcDbEntity
  8
0
370
     9
100
AcDbLine
 10
268.1670673904668
 20
361.793716604568
 30
0.0
 11
269.3461337582091
 21
361.793716604568
 31
0.0
  0
LINE
  5
2017
330
1F
100
AcDbEntity
  8
0
370
     9
100
AcDbLine
 10
269.3461337582091
 20
363.5318862110197
 30
0.0
 11
272.8833328614346
 21
363.9249083336003
 31
0.0
  0
LINE
  5
2018
330
1F
100
AcDbEntity
  8
0
370
     9
100
AcDbLine
 10
271.7042664936929
 20
361.3047608497292
 30
0.0
 11
270.5252001259507
 21
361.3047608497292
 31
0.0
  0
LINE
  5
2019
330
1F
100
AcDbEntity
  8
0
370
     9
100
AcDbLine
 10
271.7042664936929
 20
359.7326723594067
 30
0.0
 11
270.5252001259507
 21
359.7326723594067
 31
0.0
  0
LINE
  5
201A
330
1F
100
AcDbEntity
  8
0
370
     9
100
AcDbLine
 10
274.0623992291768
 20
364.0559157077938
 30
0.0
 11
274.0623992291768
 21
361.3047608497292
 31
0.0
  0
LINE
  5
201B
330
1F
100
AcDbEntity
  8
0
370
     9
100
AcDbLine
 10
266.9880010227252
 20
363.2698714626325
 30
0.0
 11
268.1670673904668
 21
363.4008788368261
 31
0.0
  0
DIMENSION
  5
201C
330
1F
100
AcDbEntity
  8
AM_5
100
AcDbDimension
  2
*D31
 10
210.5207511667266
 20
389.1447181806926
 30
0.0
 11
210.5207511667265
 21
392.0236885425329
 31
0.0
 70
   160
  1
4
 71
     5
 42
5.757940723680178
  3
STANDARD
100
AcDbAlignedDimension
 13
213.8136992420188
 23
394.9026589043728
 33
0.0
 14
213.0661533463243
 24
389.1447181806926
 34
0.0
 50
90.0
100
AcDbRotatedDimension
1001
ACAD
1000
DSTYLE
1002
{
1070
    40
1040
0.5
1070
    44
1040
2.0
1002
}
  0
LINE
  5
201D
330
1F
100
AcDbEntity
  8
0
370
     9
100
AcDbLine
 10
162.9282382604795
 20
390.6443610378356
 30
0.0
 11
182.4009697550222
 21
390.6443610378356
 31
0.0
  0
LINE
  5
201E
330
1F
100
AcDbEntity
  8
0
370
     9
100
AcDbLine
 10
162.9282382604795
 20
392.8300753235498
 30
0.0
 11
182.4009697550222
 21
392.8300753235498
 31
0.0
  0
LINE
  5
201F
330
1F
100
AcDbEntity
  8
0
370
     9
100
AcDbLine
 10
162.9282382604795
 20
391.4943610378356
 30
0.0
 11
182.4009697550222
 21
391.4943610378356
 31
0.0
  0
LINE
  5
2020
330
1F
100
AcDbEntity
  8
0
370
     9
100
AcDbLine
 10
162.9282382604795
 20
391.9800753235499
 30
0.0
 11
182.4009697550222
 21
391.9800753235499
 31
0.0
  0
LINE
  5
2021
330
1F
100
AcDbEntity
  8
0
100
AcDbLine
 10
151.0728206334428
 20
389.4420896558438
 30
0.0
 11
153.3680203702721
 21
393.5655621235397
 31
0.0
  0
LINE
  5
2022
330
1F
100
AcDbEntity
  8
0
100
AcDbLine
 10
152.0141059605013
 20
389.4675333070439
 30
0.0
 11
154.2725442389811
 21
393.5694647270959
 31
0.0
  0
LINE
  5
2023
330
1F
100
AcDbEntity
  8
0
370
     9
100
AcDbLine
 10
152.5617588009883
 20
390.4622181806928
 30
0.0
 11
162.9282382604795
 21
390.4622181806928
 31
0.0
  0
LINE
  5
2024
330
1F
100
AcDbEntity
  8
0
370
     9
100
AcDbLine
 10
153.9657358596907
 20
393.0122181806927
 30
0.0
 11
162.9282382604795
 21
393.0122181806927
 31
0.0
  0
LINE
  5
2025
330
1F
100
AcDbEntity
  8
0
370
     9
100
AcDbLine
 10
162.9282382604795
 20
390.4622181806928
 30
0.0
 11
162.9282382604792
 21
393.0122181806927
 31
0.0
  0
LINE
  5
2026
330
1F
100
AcDbEntity
  8
0
370
     9
100
AcDbLine
 10
182.4009697550222
 20
390.8872181806927
 30
0.0
 11
187.5389983732973
 21
390.8872181806927
 31
0.0
  0
LINE
  5
2027
330
1F
100
AcDbEntity
  8
0
370
     9
100
AcDbLine
 10
182.4009697550222
 20
391.2515038949785
 30
0.0
 11
187.5389983732973
 21
391.2515038949785
 31
0.0
  0
LINE
  5
2028
330
1F
100
AcDbEntity
  8
0
370
     9
100
AcDbLine
 10
182.4009697550222
 20
392.5872181806927
 30
0.0
 11
187.5389983732973
 21
392.5872181806927
 31
0.0
  0
LINE
  5
2029
330
1F
100
AcDbEntity
  8
0
370
     9
100
AcDbLine
 10
182.4009697550222
 20
392.2229324664071
 30
0.0
 11
187.5389983732973
 21
392.2229324664071
 31
0.0
  0
LINE
  5
202A
330
1F
100
AcDbEntity
  8
0
370
     9
100
AcDbLine
 10
182.4009697550222
 20
390.6443610378356
 30
0.0
 11
182.4009697550222
 21
391.4943610378356
 31
0.0
  0
LINE
  5
202B
330
1F
100
AcDbEntity
  8
0
370
     9
100
AcDbLine
 10
182.4009697550222
 20
391.98007532355
 30
0.0
 11
182.4009697550225
 21
392.8300753235498
 31
0.0
  0
LINE
  5
202C
330
1F
100
AcDbEntity
  8
0
370
     9
100
AcDbLine
 10
187.5389983732978
 20
390.8872181806927
 30
0.0
 11
187.5389983732978
 21
391.2515038949785
 31
0.0
  0
LINE
  5
202D
330
1F
100
AcDbEntity
  8
0
370
     9
100
AcDbLine
 10
187.5389983732973
 20
392.2229324664071
 30
0.0
 11
187.5389983732975
 21
392.5872181806927
 31
0.0
  0
LINE
  5
202E
330
1F
100
AcDbEntity
  8
0
370
     9
100
AcDbLine
 10
162.9282382604795
 20
407.5184792681708
 30
0.0
 11
182.4009697550225
 21
407.5184792681708
 31
0.0
  0
LINE
  5
202F
330
1F
100
AcDbEntity
  8
0
370
     9
100
AcDbLine
 10
162.9282382604795
 20
407.0327649824565
 30
0.0
 11
182.4009697550225
 21
407.0327649824565
 31
0.0
  0
LINE
  5
2030
330
1F
100
AcDbEntity
  8
0
370
     9
100
AcDbLine
 10
162.9282382604795
 20
408.3684792681708
 30
0.0
 11
182.4009697550225
 21
408.3684792681708
 31
0.0
  0
LINE
  5
2031
330
1F
100
AcDbEntity
  8
0
370
     9
100
AcDbLine
 10
162.9282382604795
 20
406.1827649824564
 30
0.0
 11
182.4009697550225
 21
406.1827649824564
 31
0.0
  0
LINE
  5
2032
330
1F
100
AcDbEntity
  8
0
370
     9
100
AcDbLine
 10
153.9657358596907
 20
408.5506221253136
 30
0.0
 11
162.9282382604795
 21
408.5506221253136
 31
0.0
  0
LINE
  5
2033
330
1F
100
AcDbEntity
  8
0
370
     9
100
AcDbLine
 10
152.5617588009883
 20
406.0006221253137
 30
0.0
 11
162.9282382604795
 21
406.0006221253137
 31
0.0
  0
LINE
  5
2034
330
1F
100
AcDbEntity
  8
0
100
AcDbLine
 10
152.0141059605013
 20
405.0059372516647
 30
0.0
 11
154.2725442389814
 21
409.1078686717168
 31
0.0
  0
LINE
  5
2035
330
1F
100
AcDbEntity
  8
0
100
AcDbLine
 10
151.0728206334428
 20
404.9804936004647
 30
0.0
 11
153.3680203702724
 21
409.1039660681606
 31
0.0
  0
LINE
  5
2036
330
1F
100
AcDbEntity
  8
0
370
     9
100
AcDbLine
 10
162.9282382604795
 20
406.0006221253137
 30
0.0
 11
162.9282382604795
 21
408.5506221253136
 31
0.0
  0
LINE
  5
2037
330
1F
100
AcDbEntity
  8
0
370
     9
100
AcDbLine
 10
182.4009697550225
 20
407.761336411028
 30
0.0
 11
187.5389983732975
 21
407.761336411028
 31
0.0
  0
LINE
  5
2038
330
1F
100
AcDbEntity
  8
0
370
     9
100
AcDbLine
 10
182.4009697550225
 20
408.1256221253136
 30
0.0
 11
187.5389983732975
 21
408.1256221253136
 31
0.0
  0
LINE
  5
2039
330
1F
100
AcDbEntity
  8
0
370
     9
100
AcDbLine
 10
182.4009697550225
 20
406.7899078395994
 30
0.0
 11
187.5389983732975
 21
406.7899078395994
 31
0.0
  0
LINE
  5
203A
330
1F
100
AcDbEntity
  8
0
370
     9
100
AcDbLine
 10
182.4009697550225
 20
406.4256221253137
 30
0.0
 11
187.5389983732975
 21
406.4256221253137
 31
0.0
  0
LINE
  5
203B
330
1F
100
AcDbEntity
  8
0
370
     9
100
AcDbLine
 10
182.4009697550225
 20
407.5184792681708
 30
0.0
 11
182.4009697550228
 21
408.3684792681708
 31
0.0
  0
LINE
  5
203C
330
1F
100
AcDbEntity
  8
0
370
     9
100
AcDbLine
 10
182.4009697550222
 20
406.1827649824564
 30
0.0
 11
182.4009697550225
 21
407.0327649824565
 31
0.0
  0
LINE
  5
203D
330
1F
100
AcDbEntity
  8
0
370
     9
100
AcDbLine
 10
187.5389983732975
 20
407.761336411028
 30
0.0
 11
187.5389983732978
 21
408.1256221253136
 31
0.0
  0
LINE
  5
203E
330
1F
100
AcDbEntity
  8
0
370
     9
100
AcDbLine
 10
187.5389983732978
 20
406.4256221253137
 30
0.0
 11
187.5389983732978
 21
406.7899078395994
 31
0.0
  0
DIMENSION
  5
203F
330
1F
100
AcDbEntity
  8
AM_5
100
AcDbDimension
  2
*D32
 10
248.9733569538008
 20
399.9874302536282
 30
0.0
 11
236.2233569538008
 21
401.2626024977226
 31
0.0
 70
    32
  1
25.5
 71
     5
 42
25.5
  3
STANDARD
100
AcDbAlignedDimension
 13
223.4733569538008
 23
404.7195506967422
 33
0.0
 14
248.9733569538008
 24
404.7195506967422
 34
0.0
100
AcDbRotatedDimension
1001
ACAD
1000
DSTYLE
1002
{
1070
    40
1040
0.5
1070
    44
1040
2.0
1002
}
  0
LINE
  5
2040
330
1F
100
AcDbEntity
  8
0
 48
5.0
370
     9
100
AcDbLine
 10
227.2983569538003
 20
394.9026589043729
 30
0.0
 11
248.9733569538005
 21
394.9026589043729
 31
0.0
  0
LINE
  5
2041
330
1F
100
AcDbEntity
  8
0
 48
5.0
370
     9
100
AcDbLine
 10
227.2983569538003
 20
394.4147181806928
 30
0.0
 11
248.9733569538005
 21
394.4147181806928
 31
0.0
  0
LINE
  5
2042
330
1F
100
AcDbEntity
  8
0
 48
5.0
370
     9
100
AcDbLine
 10
227.2983569538003
 20
389.0597181806927
 30
0.0
 11
248.9733569538005
 21
389.0597181806927
 31
0.0
  0
LINE
  5
2043
330
1F
100
AcDbEntity
  8
0
 48
5.0
370
     9
100
AcDbLine
 10
223.4733569538002
 20
389.1447181806927
 30
0.0
 11
223.4733569538002
 21
394.3297181806928
 31
0.0
  0
LINE
  5
2044
330
1F
100
AcDbEntity
  8
0
 48
5.0
370
     9
100
AcDbLine
 10
223.4733569538005
 20
394.4147181806927
 30
0.0
 11
223.4733569538005
 21
389.0597181806927
 31
0.0
  0
LINE
  5
2045
330
1F
100
AcDbEntity
  8
0
 48
5.0
370
     9
100
AcDbLine
 10
213.0661533463243
 20
389.1447181806927
 30
0.0
 11
213.0661533463243
 21
394.3297181806928
 31
0.0
  0
LINE
  5
2046
330
1F
100
AcDbEntity
  8
0
 48
5.0
370
     9
100
AcDbLine
 10
217.2749286807955
 20
389.1447181806927
 30
0.0
 11
217.2749286807955
 21
394.3297181806928
 31
0.0
  0
LINE
  5
2048
330
1F
100
AcDbEntity
  8
0
 48
5.0
370
     9
100
AcDbLine
 10
223.4733569538005
 20
389.0597181806927
 30
0.0
 11
227.2983569538003
 21
389.0597181806927
 31
0.0
  0
LINE
  5
2049
330
1F
100
AcDbEntity
  8
0
100
AcDbLine
 10
217.2749286807955
 20
389.1447181806927
 30
0.0
 11
213.0661533463243
 21
389.1447181806927
 31
0.0
  0
LINE
  5
204A
330
1F
100
AcDbEntity
  8
0
 48
5.0
370
     9
100
AcDbLine
 10
223.4733569538005
 20
394.4147181806927
 30
0.0
 11
227.2983569538003
 21
394.4147181806927
 31
0.0
  0
LINE
  5
204B
330
1F
100
AcDbEntity
  8
0
100
AcDbLine
 10
217.2749286807955
 20
394.3297181806928
 30
0.0
 11
213.0661533463243
 21
394.3297181806928
 31
0.0
  0
LINE
  5
204C
330
1F
100
AcDbEntity
  8
0
100
AcDbLine
 10
216.5273827851009
 20
394.9026589043729
 30
0.0
 11
213.8136992420188
 21
394.9026589043729
 31
0.0
  0
LINE
  5
204D
330
1F
100
AcDbEntity
  8
0
100
AcDbLine
 10
213.8136992420188
 20
394.3297181806928
 30
0.0
 11
213.8136992420188
 21
394.9026589043729
 31
0.0
  0
LINE
  5
204E
330
1F
100
AcDbEntity
  8
0
100
AcDbLine
 10
216.5273827851009
 20
394.3297181806928
 30
0.0
 11
216.5273827851009
 21
394.9026589043729
 31
0.0
  0
LINE
  5
204F
330
1F
100
AcDbEntity
  8
0
 48
5.0
370
     9
100
AcDbLine
 10
227.2983569538001
 20
394.4147181806928
 30
0.0
 11
227.2983569538001
 21
394.9026589043729
 31
0.0
  0
LINE
  5
2050
330
1F
100
AcDbEntity
  8
0
100
AcDbLine
 10
226.1285171814027
 20
392.7806862848036
 30
0.0
 11
224.8564149236774
 21
390.5773405420001
 31
0.0
  0
LINE
  5
2051
330
1F
100
AcDbEntity
  8
0
100
AcDbLine
 10
225.9181967261981
 20
392.9021148562322
 30
0.0
 11
224.6460944684725
 21
390.6987691134286
 31
0.0
  0
CIRCLE
  5
2052
330
1F
100
AcDbEntity
  8
0
 48
5.0
370
     9
100
AcDbCircle
 10
225.3858569538006
 20
391.7372181806927
 30
0.0
 40
1.275000000000014
  0
LINE
  5
2053
330
1F
100
AcDbEntity
  8
0
 48
5.0
370
     9
100
AcDbLine
 10
248.9733569538005
 20
389.0597181806927
 30
0.0
 11
248.9733569538005
 21
394.4147181806928
 31
0.0
  0
LINE
  5
2054
330
1F
100
AcDbEntity
  8
0
100
AcDbLine
 10
258.39168003804
 20
389.4675333070439
 30
0.0
 11
260.6501183165201
 21
393.5694647270959
 31
0.0
  0
LINE
  5
2055
330
1F
100
AcDbEntity
  8
0
100
AcDbLine
 10
257.4503947109816
 20
389.4420896558438
 30
0.0
 11
259.7455944478111
 21
393.5655621235397
 31
0.0
  0
LINE
  5
2056
330
1F
100
AcDbEntity
  8
0
370
     9
100
AcDbLine
 10
248.9733569538005
 20
390.4622181806928
 30
0.0
 11
258.018216793003
 21
390.4622181806928
 31
0.0
  0
LINE
  5
2057
330
1F
100
AcDbEntity
  8
0
370
     9
100
AcDbLine
 10
248.9733569538005
 20
393.0122181806927
 30
0.0
 11
259.4375931498885
 21
393.0122181806928
 31
0.0
  0
LINE
  5
2058
330
1F
100
AcDbEntity
  8
0
100
AcDbLine
 10
248.9733569538005
 20
394.4147181806928
 30
0.0
 11
248.9733569538008
 21
394.9026589043729
 31
0.0
  0
LINE
  5
2059
330
1F
100
AcDbEntity
  8
0
100
AcDbLine
 10
248.9733569538005
 20
393.0122181806927
 30
0.0
 11
248.9733569538005
 21
390.4622181806928
 31
0.0
  0
LINE
  5
205A
330
1F
100
AcDbEntity
  8
0
 48
5.0
370
     9
100
AcDbLine
 10
227.2983569538003
 20
404.8045506967421
 30
0.0
 11
248.9733569538005
 21
404.8045506967421
 31
0.0
  0
LINE
  5
205B
330
1F
100
AcDbEntity
  8
0
 48
5.0
370
     9
100
AcDbLine
 10
227.2983569538003
 20
409.0241935538852
 30
0.0
 11
248.9733569538005
 21
409.0241935538852
 31
0.0
  0
LINE
  5
205C
330
1F
100
AcDbEntity
  8
0
 48
5.0
370
     9
100
AcDbLine
 10
227.2983569538003
 20
409.9166935538851
 30
0.0
 11
248.9733569538005
 21
409.9166935538851
 31
0.0
  0
LINE
  5
205D
330
1F
100
AcDbEntity
  8
0
 48
5.0
370
     9
100
AcDbLine
 10
227.2983569538003
 20
405.5756221253136
 30
0.0
 11
248.9733569538005
 21
405.5756221253136
 31
0.0
  0
LINE
  5
205E
330
1F
100
AcDbEntity
  8
0
 48
5.0
370
     9
100
AcDbLine
 10
223.4733569538005
 20
404.8045506967421
 30
0.0
 11
227.2983569538003
 21
404.8045506967421
 31
0.0
  0
LINE
  5
205F
330
1F
100
AcDbEntity
  8
0
 48
5.0
370
     9
100
AcDbLine
 10
223.4733569538005
 20
409.9166935538851
 30
0.0
 11
227.2983569538003
 21
409.9166935538851
 31
0.0
  0
LINE
  5
2060
330
1F
100
AcDbEntity
  8
0
 48
5.0
370
     9
100
AcDbLine
 10
223.4733569538002
 20
404.8895506967422
 30
0.0
 11
223.4733569538002
 21
409.8316935538852
 31
0.0
  0
LINE
  5
2061
330
1F
100
AcDbEntity
  8
0
 48
5.0
370
     9
100
AcDbLine
 10
223.4733569538005
 20
409.9166935538851
 30
0.0
 11
223.4733569538005
 21
404.8045506967421
 31
0.0
  0
LINE
  5
2062
330
1F
100
AcDbEntity
  8
0
 48
5.0
370
     9
100
AcDbLine
 10
227.2983569538003
 20
405.5756221253136
 30
0.0
 11
227.2983569538003
 21
409.0241935538852
 31
0.0
  0
LINE
  5
2063
330
1F
100
AcDbEntity
  8
0
 48
5.0
370
     9
100
AcDbLine
 10
227.2983569538003
 20
409.0241935538852
 30
0.0
 11
227.2983569538003
 21
405.5756221253136
 31
0.0
  0
CIRCLE
  5
2064
330
1F
100
AcDbEntity
  8
0
 48
5.0
370
     9
100
AcDbCircle
 10
225.3858569538006
 20
407.3606221253136
 30
0.0
 40
1.275000000000014
  0
LINE
  5
2065
330
1F
100
AcDbEntity
  8
0
100
AcDbLine
 10
225.9181967261981
 20
408.5255188008532
 30
0.0
 11
224.6460944684725
 21
406.3221730580496
 31
0.0
  0
LINE
  5
2066
330
1F
100
AcDbEntity
  8
0
100
AcDbLine
 10
226.1285171814027
 20
408.4040902294246
 30
0.0
 11
224.8564149236774
 21
406.200744486621
 31
0.0
  0
LINE
  5
2067
330
1F
100
AcDbEntity
  8
0
  6
CENTER
100
AcDbLine
 10
235.6650621291104
 20
408.5141935538851
 30
0.0
 11
239.1461737236219
 21
408.5141935538851
 31
0.0
  0
LINE
  5
2068
330
1F
100
AcDbEntity
  8
0
  6
CENTER
100
AcDbLine
 10
239.1461737236219
 20
406.2070506967423
 30
0.0
 11
235.6650621291104
 21
406.2070506967423
 31
0.0
  0
LINE
  5
2069
330
1F
100
AcDbEntity
  8
0
  6
CENTER
100
AcDbLine
 10
235.6650621291104
 20
406.2070506967423
 30
0.0
 11
235.6650621291104
 21
408.5141935538851
 31
0.0
  0
LINE
  5
206A
330
1F
100
AcDbEntity
  8
0
  6
CENTER
100
AcDbLine
 10
239.1461737236219
 20
408.5141935538851
 30
0.0
 11
239.1461737236219
 21
406.2070506967423
 31
0.0
  0
LINE
  5
206B
330
1F
100
AcDbEntity
  8
0
370
     9
100
AcDbLine
 10
248.9733569538005
 20
406.0856221253136
 30
0.0
 11
258.0182167930033
 21
406.0856221253136
 31
0.0
  0
LINE
  5
206C
330
1F
100
AcDbEntity
  8
0
370
     9
100
AcDbLine
 10
248.9733569538005
 20
408.6356221253136
 30
0.0
 11
259.4375931498888
 21
408.6356221253137
 31
0.0
  0
LINE
  5
206D
330
1F
100
AcDbEntity
  8
0
100
AcDbLine
 10
257.4503947109816
 20
405.0654936004647
 30
0.0
 11
259.7455944478111
 21
409.1889660681606
 31
0.0
  0
LINE
  5
206E
330
1F
100
AcDbEntity
  8
0
 48
5.0
370
     9
100
AcDbLine
 10
248.9733569538005
 20
404.8045506967421
 30
0.0
 11
248.9733569538005
 21
409.9166935538851
 31
0.0
  0
LINE
  5
206F
330
1F
100
AcDbEntity
  8
0
100
AcDbLine
 10
248.9733569538005
 20
408.6356221253136
 30
0.0
 11
248.9733569538005
 21
406.0856221253136
 31
0.0
  0
LINE
  5
2070
330
1F
100
AcDbEntity
  8
0
100
AcDbLine
 10
258.3916800380403
 20
405.0909372516648
 30
0.0
 11
260.6501183165201
 21
409.1928686717167
 31
0.0
  0
LINE
  5
2071
330
1F
100
AcDbEntity
  8
0
370
     9
100
AcDbLine
 10
291.3553726227257
 20
340.9029823020414
 30
0.0
 11
291.3553726227257
 21
335.5971836472027
 31
0.0
  0
LINE
  5
2072
330
1F
100
AcDbEntity
  8
0
370
     9
100
AcDbLine
 10
286.6391071517575
 20
341.7872820778478
 30
0.0
 11
286.6391071517575
 21
334.7128838713961
 31
0.0
  0
LINE
  5
2073
330
1F
100
AcDbEntity
  8
0
370
     9
100
AcDbLine
 10
288.6042177646611
 20
341.3942599552672
 30
0.0
 11
287.8181735194996
 21
335.1059059939768
 31
0.0
  0
LINE
  5
2074
330
1F
100
AcDbEntity
  8
0
370
     9
100
AcDbLine
 10
287.8181735194996
 20
341.3942599552672
 30
0.0
 11
287.0321292743381
 21
335.1059059939768
 31
0.0
  0
LINE
  5
2075
330
1F
100
AcDbEntity
  8
0
370
     9
100
AcDbLine
 10
289.7832841324028
 20
341.1387955755898
 30
0.0
 11
289.7832841324028
 21
335.3613703736542
 31
0.0
  0
LINE
  5
2076
330
1F
100
AcDbEntity
  8
0
370
     9
100
AcDbLine
 10
289.328852303169
 20
340.9029823020414
 30
0.0
 11
288.6042177646611
 21
335.1059059939768
 31
0.0
  0
LINE
  5
2077
330
1F
100
AcDbEntity
  8
0
370
     9
100
AcDbLine
 10
288.3205784793243
 20
335.5971836472027
 30
0.0
 11
288.1018128048364
 21
335.5971836472027
 31
0.0
  0
LINE
  5
2078
330
1F
100
AcDbEntity
  8
0
370
     9
100
AcDbLine
 10
289.7832841324028
 20
335.5971836472027
 30
0.0
 11
288.8878570499978
 21
335.5971836472027
 31
0.0
  0
LINE
  5
2079
330
1F
100
AcDbEntity
  8
0
370
     9
100
AcDbLine
 10
287.5345342341628
 20
335.5971836472027
 30
0.0
 11
287.3157685596749
 21
335.5971836472027
 31
0.0
  0
LINE
  5
207A
330
1F
100
AcDbEntity
  8
0
370
     9
100
AcDbLine
 10
286.7484899890014
 20
335.5971836472027
 30
0.0
 11
286.6391071517575
 21
335.5971836472027
 31
0.0
  0
LINE
  5
207B
330
1F
100
AcDbEntity
  8
0
370
     9
100
AcDbLine
 10
288.3205784793243
 20
335.5971836472027
 30
0.0
 11
288.6042177646611
 21
335.1059059939768
 31
0.0
  0
LINE
  5
207C
330
1F
100
AcDbEntity
  8
0
370
     9
100
AcDbLine
 10
288.6042177646611
 20
335.1059059939768
 30
0.0
 11
288.8878570499978
 21
335.5971836472027
 31
0.0
  0
LINE
  5
207D
330
1F
100
AcDbEntity
  8
0
370
     9
100
AcDbLine
 10
286.7484899890014
 20
335.5971836472027
 30
0.0
 11
287.0321292743381
 21
335.1059059939768
 31
0.0
  0
LINE
  5
207E
330
1F
100
AcDbEntity
  8
0
370
     9
100
AcDbLine
 10
287.0321292743381
 20
335.1059059939768
 30
0.0
 11
287.3157685596749
 21
335.5971836472027
 31
0.0
  0
LINE
  5
207F
330
1F
100
AcDbEntity
  8
0
370
     9
100
AcDbLine
 10
287.8181735194996
 20
335.1059059939768
 30
0.0
 11
288.1018128048364
 21
335.5971836472027
 31
0.0
  0
LINE
  5
2080
330
1F
100
AcDbEntity
  8
0
370
     9
100
AcDbLine
 10
287.5345342341628
 20
335.5971836472027
 30
0.0
 11
287.8181735194996
 21
335.1059059939768
 31
0.0
  0
LINE
  5
2081
330
1F
100
AcDbEntity
  8
0
370
     9
100
AcDbLine
 10
291.3553726227257
 20
335.5971836472027
 30
0.0
 11
289.7832841324028
 21
335.3613703736542
 31
0.0
  0
LINE
  5
2082
330
1F
100
AcDbEntity
  8
0
370
     9
100
AcDbLine
 10
288.6042177646611
 20
341.3942599552672
 30
0.0
 11
288.3205784793243
 21
340.9029823020414
 31
0.0
  0
LINE
  5
2083
330
1F
100
AcDbEntity
  8
0
370
     9
100
AcDbLine
 10
288.6042177646611
 20
341.3942599552672
 30
0.0
 11
288.8878570499978
 21
340.9029823020414
 31
0.0
  0
LINE
  5
2084
330
1F
100
AcDbEntity
  8
0
370
     9
100
AcDbLine
 10
288.3205784793243
 20
340.9029823020414
 30
0.0
 11
288.1018128048364
 21
340.9029823020414
 31
0.0
  0
LINE
  5
2085
330
1F
100
AcDbEntity
  8
0
370
     9
100
AcDbLine
 10
289.7832841324028
 20
340.9029823020414
 30
0.0
 11
288.8878570499978
 21
340.9029823020414
 31
0.0
  0
LINE
  5
2086
330
1F
100
AcDbEntity
  8
0
370
     9
100
AcDbLine
 10
291.3553726227257
 20
340.9029823020414
 30
0.0
 11
289.7832841324028
 21
341.1387955755898
 31
0.0
  0
LINE
  5
2087
330
1F
100
AcDbEntity
  8
0
370
     9
100
AcDbLine
 10
287.8181735194996
 20
341.3942599552672
 30
0.0
 11
287.5345342341628
 21
340.9029823020414
 31
0.0
  0
LINE
  5
2088
330
1F
100
AcDbEntity
  8
0
370
     9
100
AcDbLine
 10
287.5345342341628
 20
340.9029823020414
 30
0.0
 11
286.6391071517575
 21
340.9029823020414
 31
0.0
  0
LINE
  5
2089
330
1F
100
AcDbEntity
  8
0
370
     9
100
AcDbLine
 10
287.8181735194996
 20
341.3942599552672
 30
0.0
 11
288.1018128048364
 21
340.9029823020414
 31
0.0
  0
LINE
  5
208A
330
1F
100
AcDbEntity
  8
0
370
     9
100
AcDbLine
 10
291.3553726227257
 20
357.8658172771486
 30
0.0
 11
289.7832841324028
 21
357.6300040036003
 31
0.0
  0
LINE
  5
208B
330
1F
100
AcDbEntity
  8
0
370
     9
100
AcDbLine
 10
289.328852303169
 20
363.1716159319873
 30
0.0
 11
288.6042177646611
 21
357.3745396239228
 31
0.0
  0
LINE
  5
208C
330
1F
100
AcDbEntity
  8
0
370
     9
100
AcDbLine
 10
289.7832841324028
 20
363.4074292055359
 30
0.0
 11
289.7832841324028
 21
357.6300040036003
 31
0.0
  0
LINE
  5
208D
330
1F
100
AcDbEntity
  8
0
370
     9
100
AcDbLine
 10
287.8181735194996
 20
363.6628935852132
 30
0.0
 11
287.0321292743381
 21
357.3745396239228
 31
0.0
  0
LINE
  5
208E
330
1F
100
AcDbEntity
  8
0
370
     9
100
AcDbLine
 10
288.6042177646611
 20
363.6628935852132
 30
0.0
 11
287.8181735194996
 21
357.3745396239228
 31
0.0
  0
LINE
  5
208F
330
1F
100
AcDbEntity
  8
0
370
     9
100
AcDbLine
 10
287.5345342341628
 20
357.8658172771486
 30
0.0
 11
287.8181735194996
 21
357.3745396239228
 31
0.0
  0
LINE
  5
2090
330
1F
100
AcDbEntity
  8
0
370
     9
100
AcDbLine
 10
287.8181735194996
 20
357.3745396239228
 30
0.0
 11
288.1018128048364
 21
357.8658172771486
 31
0.0
  0
LINE
  5
2091
330
1F
100
AcDbEntity
  8
0
370
     9
100
AcDbLine
 10
287.0321292743381
 20
357.3745396239228
 30
0.0
 11
287.3157685596749
 21
357.8658172771486
 31
0.0
  0
LINE
  5
2092
330
1F
100
AcDbEntity
  8
0
370
     9
100
AcDbLine
 10
286.7484899890014
 20
357.8658172771486
 30
0.0
 11
287.0321292743381
 21
357.3745396239228
 31
0.0
  0
LINE
  5
2093
330
1F
100
AcDbEntity
  8
0
370
     9
100
AcDbLine
 10
288.6042177646611
 20
357.3745396239228
 30
0.0
 11
288.8878570499978
 21
357.8658172771486
 31
0.0
  0
LINE
  5
2094
330
1F
100
AcDbEntity
  8
0
370
     9
100
AcDbLine
 10
288.3205784793243
 20
357.8658172771486
 30
0.0
 11
288.6042177646611
 21
357.3745396239228
 31
0.0
  0
LINE
  5
2095
330
1F
100
AcDbEntity
  8
0
370
     9
100
AcDbLine
 10
286.6391071517575
 20
364.0559157077938
 30
0.0
 11
286.6391071517575
 21
356.9815175013421
 31
0.0
  0
LINE
  5
2096
330
1F
100
AcDbEntity
  8
0
370
     9
100
AcDbLine
 10
287.8181735194996
 20
363.6628935852132
 30
0.0
 11
288.1018128048364
 21
363.1716159319873
 31
0.0
  0
LINE
  5
2097
330
1F
100
AcDbEntity
  8
0
370
     9
100
AcDbLine
 10
286.7484899890014
 20
357.8658172771486
 30
0.0
 11
286.6391071517575
 21
357.8658172771486
 31
0.0
  0
LINE
  5
2098
330
1F
100
AcDbEntity
  8
0
370
     9
100
AcDbLine
 10
287.5345342341628
 20
357.8658172771486
 30
0.0
 11
287.3157685596749
 21
357.8658172771486
 31
0.0
  0
LINE
  5
2099
330
1F
100
AcDbEntity
  8
0
370
     9
100
AcDbLine
 10
287.5345342341628
 20
363.1716159319873
 30
0.0
 11
286.6391071517575
 21
363.1716159319873
 31
0.0
  0
LINE
  5
209A
330
1F
100
AcDbEntity
  8
0
370
     9
100
AcDbLine
 10
287.8181735194996
 20
363.6628935852132
 30
0.0
 11
287.5345342341628
 21
363.1716159319873
 31
0.0
  0
LINE
  5
209B
330
1F
100
AcDbEntity
  8
0
370
     9
100
AcDbLine
 10
291.3553726227257
 20
363.1716159319873
 30
0.0
 11
289.7832841324028
 21
363.4074292055359
 31
0.0
  0
LINE
  5
209C
330
1F
100
AcDbEntity
  8
0
370
     9
100
AcDbLine
 10
289.7832841324028
 20
357.8658172771486
 30
0.0
 11
288.8878570499978
 21
357.8658172771486
 31
0.0
  0
LINE
  5
209D
330
1F
100
AcDbEntity
  8
0
370
     9
100
AcDbLine
 10
288.3205784793243
 20
357.8658172771486
 30
0.0
 11
288.1018128048364
 21
357.8658172771486
 31
0.0
  0
LINE
  5
209E
330
1F
100
AcDbEntity
  8
0
370
     9
100
AcDbLine
 10
289.7832841324028
 20
363.1716159319873
 30
0.0
 11
288.8878570499978
 21
363.1716159319873
 31
0.0
  0
LINE
  5
209F
330
1F
100
AcDbEntity
  8
0
370
     9
100
AcDbLine
 10
288.3205784793243
 20
363.1716159319873
 30
0.0
 11
288.1018128048364
 21
363.1716159319873
 31
0.0
  0
LINE
  5
20A0
330
1F
100
AcDbEntity
  8
0
370
     9
100
AcDbLine
 10
288.6042177646611
 20
363.6628935852132
 30
0.0
 11
288.8878570499978
 21
363.1716159319873
 31
0.0
  0
LINE
  5
20A1
330
1F
100
AcDbEntity
  8
0
370
     9
100
AcDbLine
 10
288.6042177646611
 20
363.6628935852132
 30
0.0
 11
288.3205784793243
 21
363.1716159319873
 31
0.0
  0
LINE
  5
20A2
330
1F
100
AcDbEntity
  8
0
370
     9
100
AcDbLine
 10
291.3553726227257
 20
363.1716159319873
 30
0.0
 11
291.3553726227257
 21
357.8658172771486
 31
0.0
  0
LINE
  5
20A3
330
1F
100
AcDbEntity
  8
0
370
     9
100
AcDbLine
 10
269.3058123380181
 20
391.9800753235499
 30
0.0
 11
288.7785438325612
 21
391.9800753235499
 31
0.0
  0
LINE
  5
20A4
330
1F
100
AcDbEntity
  8
0
370
     9
100
AcDbLine
 10
269.3058123380181
 20
391.4943610378356
 30
0.0
 11
288.7785438325612
 21
391.4943610378356
 31
0.0
  0
LINE
  5
20A5
330
1F
100
AcDbEntity
  8
0
370
     9
100
AcDbLine
 10
269.3058123380181
 20
392.8300753235498
 30
0.0
 11
288.7785438325612
 21
392.8300753235498
 31
0.0
  0
LINE
  5
20A6
330
1F
100
AcDbEntity
  8
0
370
     9
100
AcDbLine
 10
269.3058123380181
 20
390.6443610378356
 30
0.0
 11
288.7785438325612
 21
390.6443610378356
 31
0.0
  0
LINE
  5
20A7
330
1F
100
AcDbEntity
  8
0
370
     9
100
AcDbLine
 10
269.3058123380184
 20
390.4622181806928
 30
0.0
 11
269.3058123380179
 21
393.0122181806927
 31
0.0
  0
LINE
  5
20A8
330
1F
100
AcDbEntity
  8
0
370
     9
100
AcDbLine
 10
288.7785438325612
 20
392.2229324664071
 30
0.0
 11
293.9165724508362
 21
392.2229324664071
 31
0.0
  0
LINE
  5
20A9
330
1F
100
AcDbEntity
  8
0
370
     9
100
AcDbLine
 10
288.7785438325612
 20
392.5872181806927
 30
0.0
 11
293.9165724508362
 21
392.5872181806927
 31
0.0
  0
LINE
  5
20AA
330
1F
100
AcDbEntity
  8
0
370
     9
100
AcDbLine
 10
288.7785438325612
 20
391.2515038949785
 30
0.0
 11
293.9165724508362
 21
391.2515038949785
 31
0.0
  0
LINE
  5
20AB
330
1F
100
AcDbEntity
  8
0
370
     9
100
AcDbLine
 10
288.7785438325612
 20
390.8872181806927
 30
0.0
 11
293.9165724508362
 21
390.8872181806927
 31
0.0
  0
LINE
  5
20AC
330
1F
100
AcDbEntity
  8
0
370
     9
100
AcDbLine
 10
288.7785438325612
 20
391.98007532355
 30
0.0
 11
288.7785438325612
 21
392.8300753235498
 31
0.0
  0
LINE
  5
20AD
330
1F
100
AcDbEntity
  8
0
370
     9
100
AcDbLine
 10
288.7785438325612
 20
390.6443610378356
 30
0.0
 11
288.7785438325612
 21
391.4943610378356
 31
0.0
  0
LINE
  5
20AE
330
1F
100
AcDbEntity
  8
0
370
     9
100
AcDbLine
 10
293.9165724508362
 20
392.2229324664071
 30
0.0
 11
293.9165724508362
 21
392.5872181806927
 31
0.0
  0
LINE
  5
20AF
330
1F
100
AcDbEntity
  8
0
370
     9
100
AcDbLine
 10
293.9165724508366
 20
390.8872181806927
 30
0.0
 11
293.9165724508366
 21
391.2515038949785
 31
0.0
  0
LINE
  5
20B0
330
1F
100
AcDbEntity
  8
0
370
     9
100
AcDbLine
 10
269.3058123380181
 20
406.2677649824564
 30
0.0
 11
288.7785438325612
 21
406.2677649824564
 31
0.0
  0
LINE
  5
20B1
330
1F
100
AcDbEntity
  8
0
370
     9
100
AcDbLine
 10
269.3058123380181
 20
408.4534792681708
 30
0.0
 11
288.7785438325612
 21
408.4534792681708
 31
0.0
  0
LINE
  5
20B2
330
1F
100
AcDbEntity
  8
0
370
     9
100
AcDbLine
 10
269.3058123380181
 20
407.1177649824566
 30
0.0
 11
288.7785438325612
 21
407.1177649824566
 31
0.0
  0
LINE
  5
20B3
330
1F
100
AcDbEntity
  8
0
370
     9
100
AcDbLine
 10
269.3058123380181
 20
407.6034792681708
 30
0.0
 11
288.7785438325612
 21
407.6034792681708
 31
0.0
  0
LINE
  5
20B4
330
1F
100
AcDbEntity
  8
0
370
     9
100
AcDbLine
 10
269.3058123380184
 20
406.0856221253136
 30
0.0
 11
269.3058123380179
 21
408.6356221253136
 31
0.0
  0
LINE
  5
20B5
330
1F
100
AcDbEntity
  8
0
370
     9
100
AcDbLine
 10
288.7785438325612
 20
406.5106221253136
 30
0.0
 11
293.9165724508362
 21
406.5106221253136
 31
0.0
  0
LINE
  5
20B6
330
1F
100
AcDbEntity
  8
0
370
     9
100
AcDbLine
 10
288.7785438325612
 20
406.8749078395994
 30
0.0
 11
293.9165724508362
 21
406.8749078395994
 31
0.0
  0
LINE
  5
20B7
330
1F
100
AcDbEntity
  8
0
370
     9
100
AcDbLine
 10
288.7785438325612
 20
408.2106221253136
 30
0.0
 11
293.9165724508362
 21
408.2106221253136
 31
0.0
  0
LINE
  5
20B8
330
1F
100
AcDbEntity
  8
0
370
     9
100
AcDbLine
 10
288.7785438325612
 20
407.8463364110279
 30
0.0
 11
293.9165724508362
 21
407.8463364110279
 31
0.0
  0
LINE
  5
20B9
330
1F
100
AcDbEntity
  8
0
370
     9
100
AcDbLine
 10
288.7785438325612
 20
406.2677649824564
 30
0.0
 11
288.7785438325612
 21
407.1177649824566
 31
0.0
  0
LINE
  5
20BA
330
1F
100
AcDbEntity
  8
0
370
     9
100
AcDbLine
 10
288.7785438325612
 20
407.6034792681708
 30
0.0
 11
288.7785438325612
 21
408.4534792681708
 31
0.0
  0
LINE
  5
20BB
330
1F
100
AcDbEntity
  8
0
370
     9
100
AcDbLine
 10
293.9165724508366
 20
406.5106221253136
 30
0.0
 11
293.9165724508366
 21
406.8749078395994
 31
0.0
  0
LINE
  5
20BC
330
1F
100
AcDbEntity
  8
0
370
     9
100
AcDbLine
 10
293.9165724508362
 20
407.8463364110279
 30
0.0
 11
293.9165724508362
 21
408.2106221253136
 31
0.0
  0
DIMENSION
  5
20BF
330
1F
100
AcDbEntity
  8
AM_5
100
AcDbDimension
  2
*D34
 10
220.3628855680212
 20
404.974550696742
 30
0.0
 11
220.3628855680212
 21
407.4456221253138
 31
0.0
 70
   160
  1
4
 71
     5
 42
4.942142857142982
  3
STANDARD
100
AcDbAlignedDimension
 13
223.4733569538002
 23
409.9166935538851
 33
0.0
 14
223.4733569538002
 24
404.974550696742
 34
0.0
 50
90.0
100
AcDbRotatedDimension
1001
ACAD
1000
DSTYLE
1002
{
1070
    40
1040
0.5
1070
    44
1040
2.0
1002
}
  0
DIMENSION
  5
20C0
330
1F
100
AcDbEntity
  8
AM_5
100
AcDbDimension
  2
*D35
 10
127.0957828762614
 20
329.9776150903572
 30
0.0
 11
121.7820060880351
 21
329.9776150903572
 31
0.0
 70
   160
  1
10
 71
     5
 42
9.999999999999431
  3
STANDARD
100
AcDbAlignedDimension
 13
117.095782876262
 23
335.492272936592
 33
0.0
 14
127.0957828762614
 24
335.577272936592
 34
0.0
100
AcDbRotatedDimension
1001
ACAD
1000
DSTYLE
1002
{
1070
    40
1040
0.5
1070
    44
1040
2.0
1002
}
  0
TEXT
  5
20C1
330
1F
100
AcDbEntity
  8
圖層4
100
AcDbText
 10
103.6675714503857
 20
415.788743621401
 30
0.0
 40
3.237771428571464
  1
RCD
 41
0.8
  7
ROMANT
100
AcDbText
  0
TEXT
  5
20C2
330
1F
100
AcDbEntity
  8
圖層4
100
AcDbText
 10
103.6675714503857
 20
368.4599764517357
 30
0.0
 40
3.237771428571464
  1
RCD-QD
 41
0.8
  7
ROMANT
100
AcDbText
  0
TEXT
  5
20C3
330
1F
100
AcDbEntity
  8
圖層4
100
AcDbText
 10
209.6108685926056
 20
415.788743621401
 30
0.0
 40
3.237771428571464
  1
RND/RPD
 41
0.8
  7
ROMANT
100
AcDbText
  0
TEXT
  5
20C4
330
1F
100
AcDbEntity
  8
圖層4
100
AcDbText
 10
209.6108685926056
 20
368.4599764517357
 30
0.0
 40
3.237771428571464
  1
RND-QD/RPD-QD
 41
0.8
  7
ROMANT
100
AcDbText
  0
LINE
  5
25A7
102
{ACAD_REACTORS
330
25BB
102
}
330
1F
100
AcDbEntity
  8
0
 48
5.0
370
     9
100
AcDbLine
 10
127.0957828762614
 20
335.577272936592
 30
0.0
 11
127.0957828762615
 21
340.8472729365922
 31
0.0
  0
LEADER
  5
25B8
102
{ACAD_XDICTIONARY
360
25BA
102
}
102
{ACAD_REACTORS
330
25BB
102
}
330
1F
100
AcDbEntity
  8
AM_5
100
AcDbLeader
  3
STANDARD
 73
     0
 74
     0
 75
     1
 40
1.881349901574802
 41
11.1986875
 76
     3
 10
127.0957828762614
 20
335.577272936592
 30
0.0
 10
132.2361191946374
 20
330.9364128639209
 30
0.0
 10
133.7361191946374
 20
330.9364128639209
 30
0.0
340
25B9
213
1.399749135214904
223
0.0220630235355088
233
0.0
1001
ACAD
1000
DSTYLE
1002
{
1070
    40
1040
0.5
1070
    44
1040
2.0
1002
}
  0
MTEXT
  5
25B9
102
{ACAD_REACTORS
330
25B8
102
}
330
1F
100
AcDbEntity
  8
AM_5
100
AcDbMText
 10
132.7363700594225
 20
331.3143498403853
 30
0.0
 40
1.75
 41
0.0
 71
     7
 72
     1
  1
{\H1.074x;最高感應距離}
 73
     1
 44
1.0
1001
ACAD
1000
MTEXTBEGIN
1070
    73
1070
     1
1070
    44
1040
1.0
1070
    74
1070
     0
1000
MTEXTEND
  0
LEADER
  5
25BC
330
1F
100
AcDbEntity
  8
AM_5
100
AcDbLeader
  3
STANDARD
 73
     0
 74
     0
 75
     1
 40
1.881349901574802
 41
11.1986875
 76
     3
 10
127.0957828762611
 20
389.1447181806926
 30
0.0
 10
132.2361191946371
 20
384.5038581080215
 30
0.0
 10
133.7361191946371
 20
384.5038581080215
 30
0.0
340
25BF
213
1.399749135214904
223
0.0220630235355088
233
0.0
1001
ACAD
1000
DSTYLE
1002
{
1070
    40
1040
0.5
1070
    44
1040
2.0
1002
}
  0
MTEXT
  5
25BF
102
{ACAD_REACTORS
330
25BC
102
}
330
1F
100
AcDbEntity
  8
AM_5
100
AcDbMText
 10
132.7363700594222
 20
384.8817950844859
 30
0.0
 40
1.75
 41
0.0
 71
     7
 72
     1
  1
{\H1.074x;最高感應距離}
 73
     1
 44
1.0
1001
ACAD
1000
MTEXTBEGIN
1070
    73
1070
     1
1070
    44
1040
1.0
1070
    74
1070
     0
1000
MTEXTEND
  0
LEADER
  5
25DF
330
1F
100
AcDbEntity
  8
AM_5
100
AcDbLeader
  3
STANDARD
 73
     0
 74
     0
 75
     1
 40
1.881349901574802
 41
11.1986875
 76
     3
 10
230.9733569538005
 20
335.572582974622
 30
0.0
 10
236.1136932721764
 20
330.9317229019508
 30
0.0
 10
237.6136932721764
 20
330.9317229019508
 30
0.0
340
25E2
213
1.399749135214904
223
0.0220630235355088
233
0.0
1001
ACAD
1000
DSTYLE
1002
{
1070
    40
1040
0.5
1070
    44
1040
2.0
1002
}
  0
MTEXT
  5
25E2
102
{ACAD_REACTORS
330
25DF
102
}
330
1F
100
AcDbEntity
  8
AM_5
100
AcDbMText
 10
236.6139441369615
 20
331.3096598784153
 30
0.0
 40
1.75
 41
0.0
 71
     7
 72
     1
  1
{\H1.074x;最高感應距離}
 73
     1
 44
1.0
1001
ACAD
1000
MTEXTBEGIN
1070
    73
1070
     1
1070
    44
1040
1.0
1070
    74
1070
     0
1000
MTEXTEND
  0
DIMENSION
  5
25E3
330
1F
100
AcDbEntity
  8
AM_5
100
AcDbDimension
  2
*D45
 10
230.9733569538002
 20
384.7055879150231
 30
0.0
 11
227.2233569538001
 21
385.9805879150231
 31
0.0
 70
    32
  1
7.5
 71
     5
 42
7.500000000000284
  3
STANDARD
100
AcDbAlignedDimension
 13
223.4733569537999
 23
389.2297181806926
 33
0.0
 14
230.9733569538002
 24
389.1447181806927
 34
0.0
100
AcDbRotatedDimension
1001
ACAD
1000
DSTYLE
1002
{
1070
    40
1040
0.5
1070
    44
1040
2.0
1002
}
  0
LEADER
  5
25E4
330
1F
100
AcDbEntity
  8
AM_5
100
AcDbLeader
  3
STANDARD
 73
     0
 74
     0
 75
     1
 40
1.881349901574802
 41
11.1986875
 76
     3
 10
230.9733569538002
 20
389.1447181806927
 30
0.0
 10
236.1136932721762
 20
384.5038581080215
 30
0.0
 10
237.6136932721762
 20
384.5038581080215
 30
0.0
340
25E5
213
1.399749135214904
223
0.0220630235355088
233
0.0
1001
ACAD
1000
DSTYLE
1002
{
1070
    40
1040
0.5
1070
    44
1040
2.0
1002
}
  0
MTEXT
  5
25E5
102
{ACAD_REACTORS
330
25E4
102
}
330
1F
100
AcDbEntity
  8
AM_5
100
AcDbMText
 10
236.6139441369613
 20
384.881795084486
 30
0.0
 40
1.75
 41
0.0
 71
     7
 72
     1
  1
{\H1.074x;最高感應距離}
 73
     1
 44
1.0
1001
ACAD
1000
MTEXTBEGIN
1070
    73
1070
     1
1070
    44
1040
1.0
1070
    74
1070
     0
1000
MTEXTEND
  0
ENDSEC
  0
SECTION
  2
OBJECTS
  0
DICTIONARY
  5
C
330
0
100
AcDbDictionary
281
     1
  3
ACAD_COLOR
350
BE
  3
ACAD_GROUP
350
D
  3
ACAD_LAYOUT
350
1A
  3
ACAD_MATERIAL
350
BD
  3
ACAD_MLINESTYLE
350
17
  3
ACAD_PLOTSETTINGS
350
19
  3
ACAD_PLOTSTYLENAME
350
E
  3
ACAD_TABLESTYLE
350
11A
  3
AcadDim
350
25B7
  3
ACDBHEADERROUNDTRIPXREC
350
26AD
  3
AcDbVariableDictionary
350
94
  3
AcmDictionary
350
5B
  3
AMG
350
41
  3
AMGSNAPSETTINGS
350
1B8
  3
DWGPROPS
350
26AC
  0
DICTIONARY
  5
3F9
330
2
100
AcDbDictionary
280
     1
281
     1
  3
ACAD_LAYERFILTERS
360
5B7
  3
ACAD_LAYERSTATES
360
B13
  3
ACLYDICTIONARY
360
5B6
  0
DICTIONARY
  5
8F
330
1F
100
AcDbDictionary
280
     1
281
     1
  3
ACAD_SORTENTS
360
1430
  0
DICTIONARY
  5
25BA
330
25B8
100
AcDbDictionary
280
     1
281
     1
  3
ACAD_DIMASSOC
360
25BB
  0
DICTIONARY
  5
BE
102
{ACAD_REACTORS
330
C
102
}
330
C
100
AcDbDictionary
281
     1
  0
DICTIONARY
  5
D
102
{ACAD_REACTORS
330
C
102
}
330
C
100
AcDbDictionary
281
     1
  0
DICTIONARY
  5
1A
102
{ACAD_REACTORS
330
C
102
}
330
C
100
AcDbDictionary
281
     1
  3
Model
350
22
  3
配置1
350
1E
  3
配置2
350
26
  0
DICTIONARY
  5
BD
102
{ACAD_REACTORS
330
C
102
}
330
C
100
AcDbDictionary
281
     1
  0
DICTIONARY
  5
17
102
{ACAD_REACTORS
330
C
102
}
330
C
100
AcDbDictionary
281
     1
  3
Standard
350
18
  0
DICTIONARY
  5
19
102
{ACAD_REACTORS
330
C
102
}
330
C
100
AcDbDictionary
281
     1
  0
ACDBDICTIONARYWDFLT
  5
E
102
{ACAD_REACTORS
330
C
102
}
330
C
100
AcDbDictionary
281
     1
  3
Normal
350
F
100
AcDbDictionaryWithDefault
340
F
  0
DICTIONARY
  5
11A
102
{ACAD_REACTORS
330
C
102
}
330
C
100
AcDbDictionary
281
     1
  3
Standard
350
11B
  0
XRECORD
  5
25B7
102
{ACAD_REACTORS
330
C
102
}
330
C
100
AcDbXrecord
280
     1
 90
   990106
  3

 60
     0
 61
     0
 62
     1
 63
     3
 64
     1
 65
     0
 66
     0
 67
     3
 68
     0
 69
     0
 70
     0
 71
     0
 72
     0
 40
0.0
170
     2
340
25B9
  0
DICTIONARY
  5
26AD
102
{ACAD_REACTORS
330
C
102
}
330
C
100
AcDbDictionary
281
     1
  0
DICTIONARY
  5
94
102
{ACAD_REACTORS
330
C
102
}
330
C
100
AcDbDictionary
281
     1
  3
CTABLESTYLE
350
138
  3
DIMASSOC
350
96
  3
INDEXCTL
350
95
  3
PROJECTNAME
350
1B7E
  0
DICTIONARY
  5
5B
102
{ACAD_REACTORS
330
C
102
}
330
C
100
AcDbDictionary
281
     1
  3
AcmBOM
350
1B5
  3
AcmStdDictionary
350
61
  3
AMDTSECTSYM_ARROWCOLOR
350
123
  0
DICTIONARY
  5
41
102
{ACAD_REACTORS
330
C
102
}
330
C
100
AcDbDictionary
281
     1
  0
DICTIONARY
  5
1B8
102
{ACAD_REACTORS
330
C
102
}
330
C
100
AcDbDictionary
281
     1
  0
XRECORD
  5
26AC
102
{ACAD_REACTORS
330
C
102
}
330
C
100
AcDbXrecord
280
     1
  1
DWGPROPS COOKIE
  2

  3

  4

  6

  7

  8

  9

300
AmdtFileType=84
301
=
302
=
303
=
304
=
305
=
306
=
307
=
308
=
309
=
 40
0.1580454166666667
 41
2453965.689012037
 42
2455196.419275208
  1

 90
        1
  0
DICTIONARY
  5
5B7
102
{ACAD_REACTORS
330
3F9
102
}
330
3F9
100
AcDbDictionary
281
     1
  0
DICTIONARY
  5
B13
102
{ACAD_REACTORS
330
3F9
102
}
330
3F9
100
AcDbDictionary
281
     1
  0
DICTIONARY
  5
5B6
102
{ACAD_REACTORS
330
3F9
102
}
330
3F9
100
AcDbDictionary
281
     1
1001
ACAD
1000
<All
  0
SORTENTSTABLE
  5
1430
102
{ACAD_REACTORS
330
8F
102
}
330
8F
100
AcDbSortentsTable
330
1F
  0
DIMASSOC
  5
25BB
102
{ACAD_REACTORS
330
25BA
102
}
330
25BA
100
AcDbDimAssoc
330
25B8
 90
        1
 70
     0
 71
     0
  1
AcDbOsnapPointRef
 72
    13
331
25A7
 73
     2
 91
        0
 40
0.0
 10
0.0
 20
0.0
 30
2.000000000000000E+50
 75
     0
  0
LAYOUT
  5
22
102
{ACAD_XDICTIONARY
360
26B0
102
}
102
{ACAD_REACTORS
330
1A
102
}
330
1A
100
AcDbPlotSettings
  1

  2
\\RD\EPSON Stylus C63 Series單色
  4
A4
  6

 40
3.757083177566528
 41
3.757076978683471
 42
3.757080078125
 43
3.757080078125
 44
209.9733276367187
 45
296.9683227539062
 46
0.0
 47
0.0
 48
0.0
 49
0.0
140
0.0
141
0.0
142
1.0
143
0.3405120737814363
 70
 11952
 72
     1
 73
     0
 74
     0
  7
單色出圖.ctb
 75
     0
147
2.936753428137963
148
-2047.07469463503
149
-1261.649717473083
100
AcDbLayout
  1
Model
 70
     1
 71
     0
 10
0.0
 20
0.0
 11
12.0
 21
9.0
 12
0.0
 22
0.0
 32
0.0
 14
0.0
 24
0.0
 34
0.0
 15
0.0
 25
0.0
 35
0.0
146
0.0
 13
0.0
 23
0.0
 33
0.0
 16
1.0
 26
0.0
 36
0.0
 17
0.0
 27
1.0
 37
0.0
 76
     0
330
1F
1001
ACAD_PSEXT
1000
\\RD\EPSON Stylus C63 Series單色
1000
EPSON Stylus C63 Series
1000
\\RD
1000

1070
     0
  0
LAYOUT
  5
1E
102
{ACAD_XDICTIONARY
360
26AE
102
}
102
{ACAD_REACTORS
330
1A
102
}
330
1A
100
AcDbPlotSettings
  1

  2

  4

  6

 40
0.0
 41
0.0
 42
0.0
 43
0.0
 44
0.0
 45
0.0
 46
0.0
 47
0.0
 48
0.0
 49
0.0
140
0.0
141
0.0
142
1.0
143
1.0
 70
   688
 72
     0
 73
     0
 74
     5
  7
單色出圖.ctb
 75
    16
147
1.0
148
0.0
149
0.0
100
AcDbLayout
  1
配置1
 70
     1
 71
     1
 10
0.0
 20
0.0
 11
420.0
 21
297.0
 12
0.0
 22
0.0
 32
0.0
 14
1.000000000000000E+20
 24
1.000000000000000E+20
 34
1.000000000000000E+20
 15
-1.000000000000000E+20
 25
-1.000000000000000E+20
 35
-1.000000000000000E+20
146
0.0
 13
0.0
 23
0.0
 33
0.0
 16
1.0
 26
0.0
 36
0.0
 17
0.0
 27
1.0
 37
0.0
 76
     0
330
1B
  0
LAYOUT
  5
26
102
{ACAD_XDICTIONARY
360
26B2
102
}
102
{ACAD_REACTORS
330
1A
102
}
330
1A
100
AcDbPlotSettings
  1

  2

  4

  6

 40
0.0
 41
0.0
 42
0.0
 43
0.0
 44
0.0
 45
0.0
 46
0.0
 47
0.0
 48
0.0
 49
0.0
140
0.0
141
0.0
142
1.0
143
1.0
 70
   688
 72
     0
 73
     0
 74
     5
  7
單色出圖.ctb
 75
    16
147
1.0
148
0.0
149
0.0
100
AcDbLayout
  1
配置2
 70
     1
 71
     2
 10
0.0
 20
0.0
 11
12.0
 21
9.0
 12
0.0
 22
0.0
 32
0.0
 14
0.0
 24
0.0
 34
0.0
 15
0.0
 25
0.0
 35
0.0
146
0.0
 13
0.0
 23
0.0
 33
0.0
 16
1.0
 26
0.0
 36
0.0
 17
0.0
 27
1.0
 37
0.0
 76
     0
330
23
  0
MLINESTYLE
  5
18
102
{ACAD_REACTORS
330
17
102
}
330
17
100
AcDbMlineStyle
  2
STANDARD
 70
     0
  3

 62
   256
 51
90.0
 52
90.0
 71
     2
 49
0.5
 62
   256
  6
BYLAYER
 49
-0.5
 62
   256
  6
BYLAYER
  0
ACDBPLACEHOLDER
  5
F
102
{ACAD_REACTORS
330
E
102
}
330
E
  0
TABLESTYLE
  5
11B
102
{ACAD_REACTORS
330
11A
102
}
330
11A
100
AcDbTableStyle
  3
Standard
 70
     0
 71
     0
 40
1.5
 41
1.5
280
     0
281
     0
  7
STANDARD
140
4.5
170
     2
 62
     0
 63
     7
283
     0
274
    -2
284
     1
 64
     0
275
    -2
285
     1
 65
     0
276
    -2
286
     1
 66
     0
277
    -2
287
     1
 67
     0
278
    -2
288
     1
 68
     0
279
    -2
289
     1
 69
     0
  7
STANDARD
140
6.0
170
     5
 62
     0
 63
     7
283
     0
274
    -2
284
     1
 64
     0
275
    -2
285
     1
 65
     0
276
    -2
286
     1
 66
     0
277
    -2
287
     1
 67
     0
278
    -2
288
     1
 68
     0
279
    -2
289
     1
 69
     0
  7
STANDARD
140
4.5
170
     5
 62
     0
 63
     7
283
     0
274
    -2
284
     1
 64
     0
275
    -2
285
     1
 65
     0
276
    -2
286
     1
 66
     0
277
    -2
287
     1
 67
     0
278
    -2
288
     1
 68
     0
279
    -2
289
     1
 69
     0
  0
DICTIONARYVAR
  5
138
102
{ACAD_REACTORS
330
94
102
}
330
94
100
DictionaryVariables
280
     0
  1
STANDARD
  0
DICTIONARYVAR
  5
96
102
{ACAD_REACTORS
330
94
102
}
330
94
100
DictionaryVariables
280
     0
  1
2
  0
DICTIONARYVAR
  5
95
102
{ACAD_REACTORS
330
94
102
}
330
94
100
DictionaryVariables
280
     0
  1
0
  0
DICTIONARYVAR
  5
1B7E
102
{ACAD_REACTORS
330
94
102
}
330
94
100
DictionaryVariables
280
     0
  1

  0
DICTIONARY
  5
1B5
102
{ACAD_REACTORS
330
5B
102
}
330
5B
100
AcDbDictionary
281
     1
  0
DICTIONARY
  5
61
102
{ACAD_REACTORS
330
5B
102
}
330
5B
100
AcDbDictionary
281
     1
  0
XRECORD
  5
123
102
{ACAD_REACTORS
330
5B
102
}
330
5B
100
AcDbXrecord
280
     1
 90
-1023410169
  0
DICTIONARY
  5
26B0
330
22
100
AcDbDictionary
280
     1
281
     1
  3
ACAD_XREC_ROUNDTRIP
360
26B1
  0
DICTIONARY
  5
26AE
330
1E
100
AcDbDictionary
280
     1
281
     1
  3
ACAD_XREC_ROUNDTRIP
360
26AF
  0
DICTIONARY
  5
26B2
330
26
100
AcDbDictionary
280
     1
281
     1
  3
ACAD_XREC_ROUNDTRIP
360
26B3
  0
XRECORD
  5
26B1
102
{ACAD_REACTORS
330
26B0
102
}
330
26B0
100
AcDbXrecord
280
     1
102
SHADEPLOT
 70
     0
102
SHADEPLOTRESLEVEL
 70
     2
102
SHADEPLOTCUSTOMDPI
 70
   300
  0
XRECORD
  5
26AF
102
{ACAD_REACTORS
330
26AE
102
}
330
26AE
100
AcDbXrecord
280
     1
102
SHADEPLOT
 70
     0
102
SHADEPLOTRESLEVEL
 70
     2
102
SHADEPLOTCUSTOMDPI
 70
   300
  0
XRECORD
  5
26B3
102
{ACAD_REACTORS
330
26B2
102
}
330
26B2
100
AcDbXrecord
280
     1
102
SHADEPLOT
 70
     0
102
SHADEPLOTRESLEVEL
 70
     2
102
SHADEPLOTCUSTOMDPI
 70
   300
  0
ENDSEC
  0
EOF
