  0
SECTION
  2
HEADER
  9
$ACADVER
  1
AC1015
  9
$ACADMAINTVER
 70
    20
  9
$DWGCODEPAGE
  3
ANSI_950
  9
$INSBASE
 10
0.0
 20
0.0
 30
0.0
  9
$EXTMIN
 10
105.217896608191
 20
300.3420986255023
 30
-0.0049584332673192
  9
$EXTMAX
 10
281.2646492538795
 20
428.3607274914395
 30
83.87966454665946
  9
$LIMMIN
 10
0.0
 20
0.0
  9
$LIMMAX
 10
420.0
 20
297.0
  9
$ORTHOMODE
 70
     1
  9
$REGENMODE
 70
     1
  9
$FILLMODE
 70
     1
  9
$QTEXTMODE
 70
     0
  9
$MIRRTEXT
 70
     1
  9
$LTSCALE
 40
1.0
  9
$ATTMODE
 70
     1
  9
$TEXTSIZE
 40
3.0
  9
$TRACEWID
 40
1.0
  9
$TEXTSTYLE
  7
STANDARD
  9
$CLAYER
  8
0
  9
$CELTYPE
  6
ByLayer
  9
$CECOLOR
 62
   256
  9
$CELTSCALE
 40
1.0
  9
$DISPSILH
 70
     0
  9
$DIMSCALE
 40
1.0
  9
$DIMASZ
 40
3.0
  9
$DIMEXO
 40
1.0
  9
$DIMDLI
 40
8.0
  9
$DIMRND
 40
0.0
  9
$DIMDLE
 40
0.0
  9
$DIMEXE
 40
1.5
  9
$DIMTP
 40
0.1
  9
$DIMTM
 40
0.1
  9
$DIMTXT
 40
3.5
  9
$DIMCEN
 40
0.0
  9
$DIMTSZ
 40
0.0
  9
$DIMTOL
 70
     0
  9
$DIMLIM
 70
     0
  9
$DIMTIH
 70
     0
  9
$DIMTOH
 70
     0
  9
$DIMSE1
 70
     0
  9
$DIMSE2
 70
     0
  9
$DIMTAD
 70
     1
  9
$DIMZIN
 70
     8
  9
$DIMBLK
  1

  9
$DIMASO
 70
     1
  9
$DIMSHO
 70
     1
  9
$DIMPOST
  1

  9
$DIMAPOST
  1
"
  9
$DIMALT
 70
     0
  9
$DIMALTD
 70
     2
  9
$DIMALTF
 40
0.0393701
  9
$DIMLFAC
 40
1.0
  9
$DIMTOFL
 70
     1
  9
$DIMTVP
 40
0.0
  9
$DIMTIX
 70
     0
  9
$DIMSOXD
 70
     0
  9
$DIMSAH
 70
     0
  9
$DIMBLK1
  1

  9
$DIMBLK2
  1

  9
$DIMSTYLE
  2
AM_ISO
  9
$DIMCLRD
 70
   256
  9
$DIMCLRE
 70
   256
  9
$DIMCLRT
 70
   256
  9
$DIMTFAC
 40
0.6
  9
$DIMGAP
 40
0.7
  9
$DIMJUST
 70
     0
  9
$DIMSD1
 70
     0
  9
$DIMSD2
 70
     0
  9
$DIMTOLJ
 70
     0
  9
$DIMTZIN
 70
     8
  9
$DIMALTZ
 70
     0
  9
$DIMALTTZ
 70
     0
  9
$DIMUPT
 70
     0
  9
$DIMDEC
 70
     2
  9
$DIMTDEC
 70
     8
  9
$DIMALTU
 70
     2
  9
$DIMALTTD
 70
     2
  9
$DIMTXSTY
  7
STANDARD
  9
$DIMAUNIT
 70
     0
  9
$DIMADEC
 70
     0
  9
$DIMALTRND
 40
0.0
  9
$DIMAZIN
 70
     2
  9
$DIMDSEP
 70
    46
  9
$DIMATFIT
 70
     3
  9
$DIMFRAC
 70
     0
  9
$DIMLDRBLK
  1

  9
$DIMLUNIT
 70
     2
  9
$DIMLWD
 70
    -1
  9
$DIMLWE
 70
    -1
  9
$DIMTMOVE
 70
     0
  9
$LUNITS
 70
     2
  9
$LUPREC
 70
     2
  9
$SKETCHINC
 40
1.0
  9
$FILLETRAD
 40
2.5
  9
$AUNITS
 70
     0
  9
$AUPREC
 70
     0
  9
$MENU
  1
.
  9
$ELEVATION
 40
0.0
  9
$PELEVATION
 40
0.0
  9
$THICKNESS
 40
0.0
  9
$LIMCHECK
 70
     0
  9
$CHAMFERA
 40
2.5
  9
$CHAMFERB
 40
2.5
  9
$CHAMFERC
 40
20.0
  9
$CHAMFERD
 40
0.0
  9
$SKPOLY
 70
     0
  9
$TDCREATE
 40
2453965.689012037
  9
$TDUCREATE
 40
2453965.355678704
  9
$TDUPDATE
 40
2454705.357083414
  9
$TDUUPDATE
 40
2454705.023750081
  9
$TDINDWG
 40
0.0841093056
  9
$TDUSRTIMER
 40
0.0841093056
  9
$USRTIMER
 70
     1
  9
$ANGBASE
 50
0.0
  9
$ANGDIR
 70
     0
  9
$PDMODE
 70
     0
  9
$PDSIZE
 40
0.0
  9
$PLINEWID
 40
0.0
  9
$SPLFRAME
 70
     0
  9
$SPLINETYPE
 70
     6
  9
$SPLINESEGS
 70
     8
  9
$HANDSEED
  5
23D1
  9
$SURFTAB1
 70
     6
  9
$SURFTAB2
 70
     6
  9
$SURFTYPE
 70
     6
  9
$SURFU
 70
     6
  9
$SURFV
 70
     6
  9
$UCSBASE
  2

  9
$UCSNAME
  2

  9
$UCSORG
 10
0.0
 20
0.0
 30
0.0
  9
$UCSXDIR
 10
1.0
 20
0.0
 30
0.0
  9
$UCSYDIR
 10
0.0
 20
1.0
 30
0.0
  9
$UCSORTHOREF
  2

  9
$UCSORTHOVIEW
 70
     0
  9
$UCSORGTOP
 10
0.0
 20
0.0
 30
0.0
  9
$UCSORGBOTTOM
 10
0.0
 20
0.0
 30
0.0
  9
$UCSORGLEFT
 10
0.0
 20
0.0
 30
0.0
  9
$UCSORGRIGHT
 10
0.0
 20
0.0
 30
0.0
  9
$UCSORGFRONT
 10
0.0
 20
0.0
 30
0.0
  9
$UCSORGBACK
 10
0.0
 20
0.0
 30
0.0
  9
$PUCSBASE
  2

  9
$PUCSNAME
  2

  9
$PUCSORG
 10
0.0
 20
0.0
 30
0.0
  9
$PUCSXDIR
 10
1.0
 20
0.0
 30
0.0
  9
$PUCSYDIR
 10
0.0
 20
1.0
 30
0.0
  9
$PUCSORTHOREF
  2

  9
$PUCSORTHOVIEW
 70
     0
  9
$PUCSORGTOP
 10
0.0
 20
0.0
 30
0.0
  9
$PUCSORGBOTTOM
 10
0.0
 20
0.0
 30
0.0
  9
$PUCSORGLEFT
 10
0.0
 20
0.0
 30
0.0
  9
$PUCSORGRIGHT
 10
0.0
 20
0.0
 30
0.0
  9
$PUCSORGFRONT
 10
0.0
 20
0.0
 30
0.0
  9
$PUCSORGBACK
 10
0.0
 20
0.0
 30
0.0
  9
$USERI1
 70
     0
  9
$USERI2
 70
     0
  9
$USERI3
 70
     0
  9
$USERI4
 70
     0
  9
$USERI5
 70
     0
  9
$USERR1
 40
0.0
  9
$USERR2
 40
0.0
  9
$USERR3
 40
0.0
  9
$USERR4
 40
0.0
  9
$USERR5
 40
0.0
  9
$WORLDVIEW
 70
     1
  9
$SHADEDGE
 70
     3
  9
$SHADEDIF
 70
    70
  9
$TILEMODE
 70
     1
  9
$MAXACTVP
 70
    64
  9
$PINSBASE
 10
0.0
 20
0.0
 30
0.0
  9
$PLIMCHECK
 70
     0
  9
$PEXTMIN
 10
1.000000000000000E+20
 20
1.000000000000000E+20
 30
1.000000000000000E+20
  9
$PEXTMAX
 10
-1.000000000000000E+20
 20
-1.000000000000000E+20
 30
-1.000000000000000E+20
  9
$PLIMMIN
 10
0.0
 20
0.0
  9
$PLIMMAX
 10
420.0
 20
297.0
  9
$UNITMODE
 70
     0
  9
$VISRETAIN
 70
     1
  9
$PLINEGEN
 70
     0
  9
$PSLTSCALE
 70
     1
  9
$TREEDEPTH
 70
  3020
  9
$CMLSTYLE
  2
Standard
  9
$CMLJUST
 70
     0
  9
$CMLSCALE
 40
20.0
  9
$PROXYGRAPHICS
 70
     1
  9
$MEASUREMENT
 70
     1
  9
$CELWEIGHT
370
    -1
  9
$ENDCAPS
280
     0
  9
$JOINSTYLE
280
     0
  9
$LWDISPLAY
290
     0
  9
$INSUNITS
 70
     4
  9
$HYPERLINKBASE
  1

  9
$STYLESHEET
  1
acad.ctb
  9
$XEDIT
290
     1
  9
$CEPSNTYPE
380
     0
  9
$PSTYLEMODE
290
     1
  9
$FINGERPRINTGUID
  2
{8012A336-B5C9-4CB1-A428-E581F243F217}
  9
$VERSIONGUID
  2
{693BAF77-A31F-4485-BF6C-3AA42B33E9CC}
  9
$EXTNAMES
290
     1
  9
$PSVPSCALE
 40
0.0
  9
$OLESTARTUP
290
     0
  0
ENDSEC
  0
SECTION
  2
CLASSES
  0
CLASS
  1
ACDBDICTIONARYWDFLT
  2
AcDbDictionaryWithDefault
  3
ObjectDBX Classes
 90
        0
280
     0
281
     0
  0
CLASS
  1
ACDBPLACEHOLDER
  2
AcDbPlaceHolder
  3
ObjectDBX Classes
 90
        0
280
     0
281
     0
  0
CLASS
  1
LAYOUT
  2
AcDbLayout
  3
ObjectDBX Classes
 90
        0
280
     0
281
     0
  0
CLASS
  1
ACME_DOCUMENT
  2
AcMeDbDoc
  3
AcMeServices
 90
        0
280
     0
281
     0
  0
CLASS
  1
AMGSETTINGSOBJ
  2
AmgSettingsObj
  3
"AcadM|Product Description: AutoCAD Mechanical 2000|Company: Autodesk"
 90
        0
280
     0
281
     0
  0
CLASS
  1
ACMESCOPE
  2
AcMeScope
  3
AcMeServices
 90
        0
280
     0
281
     0
  0
CLASS
  1
ACMECOMMANDHISTORY
  2
AcMeCommandHistory
  3
AcMeServices
 90
        0
280
     0
281
     0
  0
CLASS
  1
ACIMSYSVARMAN
  2
AcImSysVarManager
  3
AcMeServices
 90
        0
280
     0
281
     0
  0
CLASS
  1
ACIMREALSYSVAR
  2
AcImRealSysVar
  3
AcMeServices
 90
        0
280
     0
281
     0
  0
CLASS
  1
ACIMINTSYSVAR
  2
AcImIntSysVar
  3
AcMeServices
 90
        0
280
     0
281
     0
  0
CLASS
  1
ACMEDRAWINGMAN
  2
AcMeDrawingMan
  3
AcMeServices
 90
        0
280
     0
281
     0
  0
CLASS
  1
ACMEVIEW
  2
AcMeView
  3
AcMeServices
 90
        0
280
     0
281
     0
  0
CLASS
  1
ACDBENTITYCACHE
  2
AcMeEntityCache
  3
AcMeServices
 90
        0
280
     0
281
     0
  0
CLASS
  1
GSMANAGER
  2
AcMeGSManager
  3
AcMeServices
 90
        0
280
     0
281
     0
  0
CLASS
  1
AMDTINTERNALREACTOR
  2
AmdtInternalReactor
  3
AcMeServices
 90
        0
280
     0
281
     0
  0
CLASS
  1
ACMESTATEMGR
  2
AcMeStateMgr
  3
AcMeServices
 90
        0
280
     0
281
     0
  0
CLASS
  1
ACGREFMASTER
  2
AcGrefMaster
  3
AcAttribServices
 90
        0
280
     0
281
     0
  0
CLASS
  1
ACME_DATABASE
  2
AcMeDbDatabase
  3
AcMeServices
 90
        0
280
     0
281
     0
  0
CLASS
  1
ACRFINSADJUSTERMGR
  2
AcRfInsAdjusterMgr
  3
AcMeServices
 90
        0
280
     0
281
     0
  0
CLASS
  1
ACGREFACADMASTER
  2
AcGrefacadMaster
  3
AcGrefServices
 90
        0
280
     0
281
     0
  0
CLASS
  1
AMIMASTER
  2
AmiMaster
  3
AmiServices
 90
        0
280
     0
281
     0
  0
CLASS
  1
ACMDATADICTIONARY
  2
AcmDataDictionary
  3
"AcmSymBB|Product Description: AutoCAD Mechanical 2004 DX|Company: Autodesk"
 90
        0
280
     0
281
     0
  0
CLASS
  1
ACMDATAENTRYBLOCK
  2
AcmDataEntryBlock
  3
"AcmSymBB|Product Description: AutoCAD Mechanical 2004 DX|Company: Autodesk"
 90
    32768
280
     0
281
     0
  0
CLASS
  1
ACIMSTRSYSVAR
  2
AcImStrSysVar
  3
AcMeServices
 90
        0
280
     0
281
     0
  0
CLASS
  1
ACMSTANDARDISO
  2
AcmStandardISO
  3
"Amdt_StdImp|Product Description: AutoCAD Mechanical 2004 DX|Company: Autodesk"
 90
        0
280
     0
281
     0
  0
CLASS
  1
AMGOBJPROPCFG
  2
AmgObjPropCfg
  3
"AmgLay|Product Description: AutoCAD Mechanical 2000|Company: Autodesk"
 90
        1
280
     0
281
     0
  0
CLASS
  1
AMDTEDGESTANDARDISO
  2
AmdtEdgeStdISO
  3
"Amdt_StdImp|Product Description: AutoCAD Mechanical 2004 DX|Company: Autodesk"
 90
    32768
280
     0
281
     0
  0
CLASS
  1
ACMSURFSTANDARDISO
  2
AcmSurfTextStdISO
  3
"Amdt_StdImp|Product Description: AutoCAD Mechanical 2004 DX|Company: Autodesk"
 90
        0
280
     0
281
     0
  0
CLASS
  1
ACMFCFSTANDARDISO
  2
AcmFCFStdISO
  3
"Amdt_StdImp|Product Description: AutoCAD Mechanical 2004 DX|Company: Autodesk"
 90
        0
280
     0
281
     0
  0
CLASS
  1
ACMWELDSTANDARDISO
  2
AcmWeldingStdISO
  3
"Amdt_StdImp|Product Description: AutoCAD Mechanical 2004 DX|Company: Autodesk"
 90
        0
280
     0
281
     0
  0
CLASS
  1
ACMIDSTANDARDISO
  2
AcmIdStdISO
  3
"Amdt_StdImp|Product Description: AutoCAD Mechanical 2004 DX|Company: Autodesk"
 90
        0
280
     0
281
     0
  0
CLASS
  1
ACMDATUMSTANDARDISO
  2
AcmDatumStdISO
  3
"Amdt_StdImp|Product Description: AutoCAD Mechanical 2004 DX|Company: Autodesk"
 90
        0
280
     0
281
     0
  0
CLASS
  1
ACMBOMSTANDARDISO
  2
AcmBOMStdISO
  3
"Amdt_StdImp|Product Description: AutoCAD Mechanical 2004 DX|Company: Autodesk"
 90
        0
280
     0
281
     0
  0
CLASS
  1
ACMDETAILSTANDARDISO
  2
AmdtDetailSymStdISO
  3
"Amdt_StdImp|Product Description: AutoCAD Mechanical 2004 DX|Company: Autodesk"
 90
        0
280
     0
281
     0
  0
CLASS
  1
ACMSECTIONSTANDARDISO
  2
AmdtSectionSymStdISO
  3
"Amdt_StdImp|Product Description: AutoCAD Mechanical 2004 DX|Company: Autodesk"
 90
        0
280
     0
281
     0
  0
CLASS
  1
ACMCENTERLINESTANDARDISO
  2
AmdtCenterLineStdISO
  3
"Amdt_StdImp|Product Description: AutoCAD Mechanical 2004 DX|Company: Autodesk"
 90
        0
280
     0
281
     0
  0
CLASS
  1
ACMNOTESTANDARDISO
  2
AmdtNoteStdISO
  3
"Amdt_StdImp|Product Description: AutoCAD Mechanical 2004 DX|Company: Autodesk"
 90
        0
280
     0
281
     0
  0
CLASS
  1
ACAMGLAYSTD
  2
AcAmgLayStd
  3
"AcAmgLayStd|Product Description: AutoCAD Mechanical 2000|Company: Autodesk"
 90
        0
280
     0
281
     0
  0
CLASS
  1
ACAMGDIMSTD
  2
AcAmgDimStd
  3
"AcAmgDimStd|Product Description: AutoCAD Mechanical 2000|Company: Autodesk"
 90
        0
280
     0
281
     0
  0
CLASS
  1
ACAMGHOLECHARTSTDISO
  2
AcAmgHoleChartStdISO
  3
ACMSYMBB_MODULE_NAME
 90
        0
280
     0
281
     0
  0
CLASS
  1
ACAMGTITLESTD
  2
AcAmgTitleStd
  3
"TITLEAPP"
 90
        0
280
     0
281
     0
  0
CLASS
  1
LAYER_INDEX
  2
AcDbLayerIndex
  3
ObjectDBX Classes
 90
    32768
280
     0
281
     0
  0
CLASS
  1
IDBUFFER
  2
AcDbIdBuffer
  3
ObjectDBX Classes
 90
    32768
280
     0
281
     0
  0
CLASS
  1
DICTIONARYVAR
  2
AcDbDictionaryVar
  3
ObjectDBX Classes
 90
        0
280
     0
281
     0
  0
CLASS
  1
AM_DRAWING_MGR
  2
AcDmDwgMgr
  3
AcMechDwgViewMgmt
 90
        0
280
     0
281
     0
  0
CLASS
  1
AM_DWG_DOCUMENT
  2
AcDmDwgDocument
  3
AcMechDwgViewMgmt
 90
        0
280
     0
281
     0
  0
CLASS
  1
AM_DWG_SHEET
  2
AcDmSheet
  3
AcMechDwgViewMgmt
 90
        0
280
     0
281
     0
  0
CLASS
  1
AM_VIEWDIMPARMAP
  2
AcDmViewDimParMap
  3
AcMechDwgViewMgmt
 90
        0
280
     0
281
     0
  0
CLASS
  1
AM_DWGMGR_NAME
  2
AcDmDwgMgrName
  3
AcMechDwgViewMgmt
 90
        0
280
     0
281
     0
  0
CLASS
  1
AMDTMENUSTATEMGR
  2
AmdtMenuStateMgr
  3
McadcomServices
 90
        0
280
     0
281
     0
  0
CLASS
  1
AMDTMCOMMENUSTATE
  2
AmdtMcomMenuState
  3
McadcomServices
 90
        0
280
     0
281
     0
  0
CLASS
  1
MAPIAMMOUDLE
  2
MApiAmModule
  3
MApiAmServices
 90
        0
280
     0
281
     0
  0
CLASS
  1
AMDTADMENUSTATE
  2
AmdtAdMenuState
  3
DesignerServices
 90
        0
280
     0
281
     0
  0
CLASS
  1
ADAPPL
  2
AcAdAppl
  3
DesignerServices
 90
        0
280
     0
281
     0
  0
CLASS
  1
DEPMGR
  2
AcAdDepMgr
  3
DesignerServices
 90
        0
280
     0
281
     0
  0
CLASS
  1
PARAMMGR
  2
AcAdParamMgr
  3
DesignerServices
 90
        0
280
     0
281
     0
  0
CLASS
  1
PARAMSCOPE
  2
AcAdParamScope
  3
DesignerServices
 90
        0
280
     0
281
     0
  0
CLASS
  1
NAMEDAPPL
  2
AcAdNamedAppl
  3
DesignerServices
 90
        0
280
     0
281
     0
  0
CLASS
  1
AMDTDMMENUSTATE
  2
AmdtDmMenuState
  3
AcMechDwgViewMgmt
 90
        0
280
     0
281
     0
  0
CLASS
  1
AMDTAMMENUSTATE
  2
AmdtAmMenuState
  3
DesignerAssemblies
 90
        0
280
     0
281
     0
  0
CLASS
  1
ACAMPROJECT
  2
AcAmProject
  3
DesignerAssemblies
 90
        0
280
     0
281
     0
  0
CLASS
  1
ACAMGRCOMPDEF
  2
AcAmGrCompDef
  3
DesignerAssemblies
 90
        0
280
     0
281
     0
  0
CLASS
  1
ACCMCONTEXT
  2
AcCmContext
  3
DesignerAssemblies
 90
        0
280
     0
281
     0
  0
CLASS
  1
ACAMCOMPDEF
  2
AcAmCompDef
  3
DesignerAssemblies
 90
        0
280
     0
281
     0
  0
CLASS
  1
ACAMCOMPDEFMGR
  2
AcAmCompDefMgr
  3
DesignerAssemblies
 90
        0
280
     0
281
     0
  0
CLASS
  1
AMCONTEXTMGR
  2
AcAmContextMgr
  3
DesignerAssemblies
 90
        0
280
     0
281
     0
  0
CLASS
  1
ACAMCONTEXTMODELER
  2
AcAmContextModeler
  3
DesignerAssemblies
 90
        0
280
     0
281
     0
  0
CLASS
  1
ACMTHREADLINESTANDARDISO
  2
AmdtThreadLineStdISO
  3
"Amdt_StdImp|Product Description: AutoCAD Mechanical 2004 DX|Company: Autodesk"
 90
        0
280
     0
281
     0
  0
CLASS
  1
CATALOGSTATE
  2
AcAmCatalogState
  3
DesignerAssemblies
 90
        0
280
     0
281
     0
  0
CLASS
  1
ACAMGRCOMPDEFSET
  2
AcAmGrCompDefSet
  3
DesignerAssemblies
 90
        0
280
     0
281
     0
  0
CLASS
  1
AMDTBROWSERDBTAB
  2
AmdtBrowserDbTab
  3
McadcomServices
 90
        0
280
     0
281
     0
  0
CLASS
  1
CBROWSERAPPOBJECT
  2
CBrowserAppObject
  3
McadcomServices
 90
        0
280
     0
281
     0
  0
CLASS
  1
DM_PLACEHOLDER
  2
AcDmSelsetPlaceholder
  3
AcMechDwgViewMgmt
 90
        0
280
     0
281
     0
  0
CLASS
  1
TABLESTYLE
  2
AcDbTableStyle
  3
ObjectDBX Classes
 90
     2047
280
     0
281
     0
  0
CLASS
  1
VAACXREFPANELOBJECT
  2
VaAcXREFPanelObject
  3
VAAC_ADDIN
 90
    32768
280
     0
281
     0
  0
CLASS
  1
VAACIMAGEINVENTORY
  2
VaAcImageInventory
  3
VAAC_ADDIN
 90
    32768
280
     0
281
     0
  0
CLASS
  1
AMDTNOTETEMPLATEDB
  2
AmdtNoteTemplateDB
  3
AMDT_STDIMP_MODULE_NAME
 90
        0
280
     0
281
     0
  0
CLASS
  1
ACMBOM
  2
AcmBom
  3
"AcmSymBB|Product Description: AutoCAD Mechanical 2004 DX|Company: Autodesk"
 90
    32768
280
     0
281
     0
  0
CLASS
  1
AMDTFORMULAUPDATEDISPATCHER
  2
AmdtFormulaUpdateDispatcher
  3
AcMeServices
 90
    32768
280
     0
281
     0
  0
CLASS
  1
ACMPARTLIST
  2
AcmPartList
  3
"AcmSymBB|Product Description: AutoCAD Mechanical 2004 DX|Company: Autodesk"
 90
    33791
280
     0
281
     1
  0
CLASS
  1
ACAMGFILTERDAT
  2
AcAmgFilterDat
  3
"AcadM|Product Description: AutoCAD Mechanical 2000|Company: Autodesk"
 90
    32768
280
     0
281
     0
  0
CLASS
  1
DIMASSOC
  2
AcDbDimAssoc
  3
"AcDbDimAssoc|Product Desc:     AcDim ARX App For Dimension|Company:          Autodesk, Inc.|WEB Address:      www.autodesk.com"
 90
    32768
280
     0
281
     0
  0
CLASS
  1
SORTENTSTABLE
  2
AcDbSortentsTable
  3
ObjectDBX Classes
 90
        0
280
     0
281
     0
  0
CLASS
  1
STDPART2D
  2
AmgStdPart
  3
"AmgStdPart|Product Description: AutoCAD Mechanical 2000|Company: Autodesk"
 90
    33791
280
     0
281
     1
  0
CLASS
  1
ACAMSTDPCOMPDEF
  2
AcAmStdpCompDef
  3
DesignerAssemblies
 90
    32768
280
     0
281
     0
  0
CLASS
  1
ACRFATTGENMGR
  2
AcRfAttGeneralMgr
  3
AcAttribServices
 90
    32768
280
     0
281
     0
  0
CLASS
  1
ACRFOBJATTMGR
  2
AcRfObjAttGroupMgr
  3
AcAttribServices
 90
    32768
280
     0
281
     0
  0
CLASS
  1
ACRFMCADAPIATTHOLDER
  2
AcRfMCADAPIAttHolder
  3
AcAttribServices
 90
    32768
280
     0
281
     0
  0
CLASS
  1
AMDTSYSATTR
  2
AmdtSystemAttribute
  3
AcAttribServices
 90
    32768
280
     0
281
     0
  0
CLASS
  1
ACAMCOMP
  2
AcAmComp
  3
DesignerAssemblies
 90
    32768
280
     0
281
     0
  0
CLASS
  1
AC_AM_STDP_VIEW_DEF
  2
AcAmStdpViewDef
  3
DesignerAssemblies
 90
    32768
280
     0
281
     0
  0
CLASS
  1
AC_AM_MVD_DEP_MGR
  2
AcAmMVDdepMgr
  3
DesignerAssemblies
 90
    32768
280
     0
281
     0
  0
CLASS
  1
AC_AM_MASTER_VIEW_DEF
  2
AcAmMasterViewDef
  3
DesignerAssemblies
 90
    32768
280
     0
281
     0
  0
CLASS
  1
AC_AM_DIRTY_NODES
  2
AcAmDirtyNodes
  3
DesignerAssemblies
 90
    32768
280
     0
281
     0
  0
CLASS
  1
AC_AM_MAPPER_CACHE
  2
AcAmMapperCache
  3
DesignerAssemblies
 90
    32768
280
     0
281
     0
  0
CLASS
  1
ACAMMVDBACKUPOBJECT
  2
AcAmMVDBackupObject
  3
DesignerAssemblies
 90
    32768
280
     0
281
     0
  0
CLASS
  1
AC_AM_COMP_VIEW_INST
  2
AcAmCompView
  3
DesignerAssemblies
 90
    32768
280
     0
281
     0
  0
CLASS
  1
AC_AM_2D_XREF_MGR
  2
AcAmXrefMgr2d
  3
DesignerAssemblies
 90
    32768
280
     0
281
     0
  0
CLASS
  1
AMDTEDGESTANDARDISO13715
  2
AmdtEdgeStdISO13715
  3
"Amdt_StdImp|Product Description: AutoCAD Mechanical 2004 DX|Company: Autodesk"
 90
        0
280
     0
281
     0
  0
ENDSEC
  0
SECTION
  2
TABLES
  0
TABLE
  2
VPORT
  5
8
330
0
100
AcDbSymbolTable
 70
     3
  0
VPORT
  5
23C8
330
8
100
AcDbSymbolTableRecord
100
AcDbViewportTableRecord
  2
*Active
 70
     0
 10
0.0
 20
0.0
 11
1.0
 21
1.0
 12
193.2412729310352
 22
364.3514130584709
 13
0.0
 23
0.0
 14
2.5
 24
2.5
 15
10.0
 25
10.0
 16
0.0
 26
0.0
 36
1.0
 17
0.0
 27
0.0
 37
0.0
 40
174.0321676886676
 41
1.019181585677749
 42
50.0
 43
0.0
 44
0.0
 50
0.0
 51
0.0
 71
     0
 72
   100
 73
     1
 74
     3
 75
     0
 76
     0
 77
     0
 78
     0
281
     0
 65
     1
110
0.0
120
0.0
130
0.0
111
1.0
121
0.0
131
0.0
112
0.0
122
1.0
132
0.0
 79
     0
146
0.0
  0
ENDTAB
  0
TABLE
  2
LTYPE
  5
5
330
0
100
AcDbSymbolTable
 70
    15
  0
LTYPE
  5
14
330
5
100
AcDbSymbolTableRecord
100
AcDbLinetypeTableRecord
  2
ByBlock
 70
     0
  3

 72
    65
 73
     0
 40
0.0
  0
LTYPE
  5
15
330
5
100
AcDbSymbolTableRecord
100
AcDbLinetypeTableRecord
  2
ByLayer
 70
     0
  3

 72
    65
 73
     0
 40
0.0
  0
LTYPE
  5
16
330
5
100
AcDbSymbolTableRecord
100
AcDbLinetypeTableRecord
  2
Continuous
 70
     0
  3
Solid line
 72
    65
 73
     0
 40
0.0
  0
LTYPE
  5
64
330
5
100
AcDbSymbolTableRecord
100
AcDbLinetypeTableRecord
  2
AM_ISO02W050
 70
     0
  3
__ __ __ __ __ __ __ __ __ __ __ __ __ __ __
 72
    65
 73
     2
 40
7.5
 49
6.0
 74
     0
 49
-1.5
 74
     0
  0
LTYPE
  5
65
330
5
100
AcDbSymbolTableRecord
100
AcDbLinetypeTableRecord
  2
AM_ISO08W050
 70
     0
  3
____ . ____ . ____ . ____ . ____ . ____ . ____
 72
    65
 73
     4
 40
18.0
 49
12.0
 74
     0
 49
-1.5
 74
     0
 49
3.0
 74
     0
 49
-1.5
 74
     0
  0
LTYPE
  5
66
330
5
100
AcDbSymbolTableRecord
100
AcDbLinetypeTableRecord
  2
AM_ISO09W050
 70
     0
  3
_____ . . _____ . . _____ . . ____ .. ____
 72
    65
 73
     6
 40
22.5
 49
12.0
 74
     0
 49
-1.5
 74
     0
 49
3.0
 74
     0
 49
-1.5
 74
     0
 49
3.0
 74
     0
 49
-1.5
 74
     0
  0
LTYPE
  5
67
330
5
100
AcDbSymbolTableRecord
100
AcDbLinetypeTableRecord
  2
Amconstr
 70
     0
  3
_______________________
 72
    65
 73
     2
 40
9999.0
 49
9999.0
 74
     0
 49
0.0
 74
     0
  0
LTYPE
  5
68
330
5
100
AcDbSymbolTableRecord
100
AcDbLinetypeTableRecord
  2
AM_ISO08W050x2
 70
     0
  3
__ . __ . __ . __ . __ . __
 72
    65
 73
     4
 40
9.0
 49
6.0
 74
     0
 49
-0.75
 74
     0
 49
1.5
 74
     0
 49
-0.75
 74
     0
  0
LTYPE
  5
69
330
5
100
AcDbSymbolTableRecord
100
AcDbLinetypeTableRecord
  2
AM_ISO02W050x2
 70
     0
  3
 _ _ _ _ _ _ _ _ _ _ _ _
 72
    65
 73
     2
 40
3.75
 49
3.0
 74
     0
 49
-0.75
 74
     0
  0
LTYPE
  5
6C
330
5
100
AcDbSymbolTableRecord
100
AcDbLinetypeTableRecord
  2
Amzigzag
 70
     0
  3
/\/-/\/-/\/-/\/-/\/-/\/
 72
    65
 73
     2
 40
11.0001
 49
0.0001
 74
     4
 75
   135
340
6B
 46
0.04
 50
0.0
 44
0.0
 45
0.0
 49
-11.0
 74
     0
  0
LTYPE
  5
7A
330
5
100
AcDbSymbolTableRecord
100
AcDbLinetypeTableRecord
  2
ACISOWELD
 70
     0
  3
_ _ _ _ _
 72
    65
 73
     2
 40
2.0
 49
2.0
 74
     0
 49
-1.0
 74
     0
  0
LTYPE
  5
7B
330
5
100
AcDbSymbolTableRecord
100
AcDbLinetypeTableRecord
  2
ACISOTGB
 70
     0
  3
__ . . __ . .
 72
    65
 73
     6
 40
9.0
 49
4.0
 74
     0
 49
-1.0
 74
     0
 49
1.0
 74
     0
 49
-1.0
 74
     0
 49
1.0
 74
     0
 49
-1.0
 74
     0
  0
LTYPE
  5
7C
330
5
100
AcDbSymbolTableRecord
100
AcDbLinetypeTableRecord
  2
ACISOTGL
 70
     0
  3
_ _ _ _ _
 72
    65
 73
     2
 40
3.0
 49
2.0
 74
     0
 49
-1.0
 74
     0
  0
LTYPE
  5
7E
330
5
100
AcDbSymbolTableRecord
100
AcDbLinetypeTableRecord
  2
CENTER
 70
     0
  3
__ . __
 72
    65
 73
     4
 40
7.0
 49
4.0
 74
     0
 49
-1.0
 74
     0
 49
1.0
 74
     0
 49
-1.0
 74
     0
  0
LTYPE
  5
D8
330
5
100
AcDbSymbolTableRecord
100
AcDbLinetypeTableRecord
  2
HIDDEN
 70
     0
  3
Hidden __ __ __ __ __ __ __ __ __ __ __ __ __ _
 72
    65
 73
     2
 40
9.524999999999998
 49
6.349999999999999
 74
     0
 49
-3.174999999999999
 74
     0
  0
LTYPE
  5
D9
330
5
100
AcDbSymbolTableRecord
100
AcDbLinetypeTableRecord
  2
PHANTOM2
 70
     0
  3
Phantom (.5x) ___ _ _ ___ _ _ ___ _ _ ___ _ _
 72
    65
 73
     6
 40
31.75
 49
15.875
 74
     0
 49
-3.174999999999999
 74
     0
 49
3.174999999999999
 74
     0
 49
-3.174999999999999
 74
     0
 49
3.174999999999999
 74
     0
 49
-3.174999999999999
 74
     0
  0
LTYPE
  5
1CD9
330
5
100
AcDbSymbolTableRecord
100
AcDbLinetypeTableRecord
  2
DASHEDX2
 70
     0
  3
____  ____  ____  ____  ____  ____  ____  ____ 
 72
    65
 73
     2
 40
1.5
 49
1.0
 74
     0
 49
-0.5
 74
     0
  0
ENDTAB
  0
TABLE
  2
LAYER
  5
2
102
{ACAD_XDICTIONARY
360
3F9
102
}
330
0
100
AcDbSymbolTable
 70
     5
  0
LAYER
  5
10
330
2
100
AcDbSymbolTableRecord
100
AcDbLayerTableRecord
  2
0
 70
     0
 62
     7
  6
Continuous
370
    -3
390
F
  0
LAYER
  5
B0C
330
2
100
AcDbSymbolTableRecord
100
AcDbLayerTableRecord
  2
AM_5
 70
     0
 62
     5
  6
Continuous
370
    50
390
F
  0
LAYER
  5
B0D
330
2
100
AcDbSymbolTableRecord
100
AcDbLayerTableRecord
  2
Defpoints
 70
     0
 62
     7
  6
Continuous
290
     0
370
    -3
390
F
  0
LAYER
  5
1774
330
2
100
AcDbSymbolTableRecord
100
AcDbLayerTableRecord
  2
LOGO
 70
     0
 62
     7
  6
Continuous
370
    -3
390
F
  0
LAYER
  5
1CDA
330
2
100
AcDbSymbolTableRecord
100
AcDbLayerTableRecord
  2
DEFAULT_2
 70
     0
 62
     8
  6
DASHEDX2
370
    -3
390
F
  0
ENDTAB
  0
TABLE
  2
STYLE
  5
3
330
0
100
AcDbSymbolTable
 70
     8
  0
STYLE
  5
11
330
3
100
AcDbSymbolTableRecord
100
AcDbTextStyleTableRecord
  2
STANDARD
 70
     0
 40
0.0
 41
1.0
 50
0.0
 71
     0
 42
3.0
  3
ISOCP.SHX
  4
CHINESET.SHX
  0
STYLE
  5
6B
330
3
100
AcDbSymbolTableRecord
100
AcDbTextStyleTableRecord
  2

 70
     1
 40
0.0
 41
1.0
 50
0.0
 71
     0
 42
2.5
  3
ltypeshp.shx
  4

  0
STYLE
  5
6D
330
3
100
AcDbSymbolTableRecord
100
AcDbTextStyleTableRecord
  2
ACISOTS
 70
     0
 40
1.0
 41
1.0
 50
0.0
 71
     0
 42
1.0
  3
isocp.shx
  4
chineset.shx
  0
STYLE
  5
79
330
3
100
AcDbSymbolTableRecord
100
AcDbTextStyleTableRecord
  2
ACISOGDT
 70
     0
 40
0.0
 41
1.0
 50
0.0
 71
     0
 42
2.5
  3
amgdt.shx
  4
chineset.shx
  0
STYLE
  5
F5C
330
3
100
AcDbSymbolTableRecord
100
AcDbTextStyleTableRecord
  2
CHINESET
 70
     0
 40
0.0
 41
1.0
 50
0.0
 71
     0
 42
2.5
  3
simplex.shx
  4
chineset.shx
  0
STYLE
  5
1CDC
330
3
100
AcDbSymbolTableRecord
100
AcDbTextStyleTableRecord
  2
DAYUS
 70
     0
 40
0.0
 41
1.0
 50
0.0
 71
     0
 42
2.5
  3
simplex.shx
  4

  0
STYLE
  5
1CDD
330
3
100
AcDbSymbolTableRecord
100
AcDbTextStyleTableRecord
  2
型式1
 70
     0
 40
0.0
 41
1.0
 50
0.0
 71
     0
 42
3.0
  3
ARIAL.TTF
  4

1001
ACAD
1000
Arial
1071
       34
  0
ENDTAB
  0
TABLE
  2
VIEW
  5
6
330
0
100
AcDbSymbolTable
 70
     0
  0
ENDTAB
  0
TABLE
  2
UCS
  5
7
330
0
100
AcDbSymbolTable
 70
     0
  0
ENDTAB
  0
TABLE
  2
APPID
  5
9
330
0
100
AcDbSymbolTable
 70
    28
  0
APPID
  5
12
330
9
100
AcDbSymbolTableRecord
100
AcDbRegAppTableRecord
  2
ACAD
 70
     0
  0
APPID
  5
46
330
9
100
AcDbSymbolTableRecord
100
AcDbRegAppTableRecord
  2
MCAD_NO_VIS
 70
     0
  0
APPID
  5
47
330
9
100
AcDbSymbolTableRecord
100
AcDbRegAppTableRecord
  2
ACAD_TEMP_GRAPHIC
 70
     0
  0
APPID
  5
58
330
9
100
AcDbSymbolTableRecord
100
AcDbRegAppTableRecord
  2
ACATTRIBSERVICES
 70
     0
  0
APPID
  5
EE
330
9
100
AcDbSymbolTableRecord
100
AcDbRegAppTableRecord
  2
AD_DRAW
 70
     0
  0
APPID
  5
10C
330
9
100
AcDbSymbolTableRecord
100
AcDbRegAppTableRecord
  2
DESIGNERASSEMBLIES
 70
     0
  0
APPID
  5
111
330
9
100
AcDbSymbolTableRecord
100
AcDbRegAppTableRecord
  2
ACADM_DIM_EDIT
 70
     0
  0
APPID
  5
112
330
9
100
AcDbSymbolTableRecord
100
AcDbRegAppTableRecord
  2
AMDT_DM_ADJ
 70
     0
  0
APPID
  5
22C
330
9
100
AcDbSymbolTableRecord
100
AcDbRegAppTableRecord
  2
ACAD_DSTYLE_DIMTEXT_FILL
 70
     0
  0
APPID
  5
452
330
9
100
AcDbSymbolTableRecord
100
AcDbRegAppTableRecord
  2
GENIUS_GENOENT_13
 70
     0
  0
APPID
  5
453
330
9
100
AcDbSymbolTableRecord
100
AcDbRegAppTableRecord
  2
GENIUS_GENOBJ-N-CRS_13
 70
     0
  0
APPID
  5
454
330
9
100
AcDbSymbolTableRecord
100
AcDbRegAppTableRecord
  2
GENIUS_GENOLIS_13
 70
     0
  0
APPID
  5
455
330
9
100
AcDbSymbolTableRecord
100
AcDbRegAppTableRecord
  2
GENIUS_GENODEF_13
 70
     0
  0
APPID
  5
456
330
9
100
AcDbSymbolTableRecord
100
AcDbRegAppTableRecord
  2
GENIUS_GENOREF_13
 70
     0
  0
APPID
  5
6F3
330
9
100
AcDbSymbolTableRecord
100
AcDbRegAppTableRecord
  2
ACAD_PSEXT
 70
     0
  0
APPID
  5
808
330
9
100
AcDbSymbolTableRecord
100
AcDbRegAppTableRecord
  2
GENIUS_GENDTOL_13
 70
     0
  0
APPID
  5
B11
330
9
100
AcDbSymbolTableRecord
100
AcDbRegAppTableRecord
  2
GENIUS_GENOBJ-N-CEN_13
 70
     0
  0
APPID
  5
B12
330
9
100
AcDbSymbolTableRecord
100
AcDbRegAppTableRecord
  2
GENIUS_GENCEN_19
 70
     0
  0
APPID
  5
166E
330
9
100
AcDbSymbolTableRecord
100
AcDbRegAppTableRecord
  2
GEVID1155862074
 70
     0
  0
APPID
  5
166F
330
9
100
AcDbSymbolTableRecord
100
AcDbRegAppTableRecord
  2
GEVDC
 70
     0
  0
APPID
  5
1686
330
9
100
AcDbSymbolTableRecord
100
AcDbRegAppTableRecord
  2
AMG_2DHIDE
 70
     0
  0
APPID
  5
1687
330
9
100
AcDbSymbolTableRecord
100
AcDbRegAppTableRecord
  2
AMG_2DSTRUCT_BTR
 70
     0
  0
APPID
  5
1698
330
9
100
AcDbSymbolTableRecord
100
AcDbRegAppTableRecord
  2
ACADM_2DVIEW_IGN_NOTIFY
 70
     0
  0
APPID
  5
16CC
330
9
100
AcDbSymbolTableRecord
100
AcDbRegAppTableRecord
  2
GEVID1155862075
 70
     0
  0
APPID
  5
16CD
330
9
100
AcDbSymbolTableRecord
100
AcDbRegAppTableRecord
  2
GEVRADREF
 70
     0
  0
APPID
  5
1775
330
9
100
AcDbSymbolTableRecord
100
AcDbRegAppTableRecord
  2
GENIUS_GENREC_14
 70
     0
  0
APPID
  5
1776
330
9
100
AcDbSymbolTableRecord
100
AcDbRegAppTableRecord
  2
GENIUS_GENOBJ-N-REC_13
 70
     0
  0
APPID
  5
1CDE
330
9
100
AcDbSymbolTableRecord
100
AcDbRegAppTableRecord
  2
AcAecLayerStandard
 70
     0
  0
ENDTAB
  0
TABLE
  2
DIMSTYLE
  5
A
330
0
100
AcDbSymbolTable
 70
     9
100
AcDbDimStyleTable
 71
     3
340
81
340
8B
340
86
  0
DIMSTYLE
105
81
330
A
100
AcDbSymbolTableRecord
100
AcDbDimStyleTableRecord
  2
AM_ISO
 70
     0
  4
"
 41
3.0
 42
1.0
 43
8.0
 44
1.5
 47
0.1
 48
0.1
 73
     0
 74
     0
 77
     1
 78
     8
 79
     2
140
3.5
141
0.0
143
0.0393701
146
0.6
147
0.7
172
     1
176
   256
177
   256
178
   256
271
     2
272
     2
283
     0
284
     8
340
11
371
    -1
372
    -1
  0
DIMSTYLE
105
82
330
A
100
AcDbSymbolTableRecord
100
AcDbDimStyleTableRecord
  2
AM_ISO$3
 70
     0
  4
"
 41
3.0
 42
1.0
 43
8.0
 44
1.5
 47
0.1
 48
0.1
 73
     0
 77
     1
 78
     8
 79
     2
140
3.5
141
0.0
143
0.0393701
146
0.6
147
0.7
176
   256
177
   256
178
   256
271
     2
272
     2
283
     0
284
     8
288
     1
289
     0
340
11
371
    -1
372
    -1
  0
DIMSTYLE
105
83
330
A
100
AcDbSymbolTableRecord
100
AcDbDimStyleTableRecord
  2
AM_ISO$4
 70
     0
  4
"
 41
3.0
 42
1.0
 43
8.0
 44
1.5
 47
0.1
 48
0.1
 73
     0
 77
     1
 78
     8
 79
     2
140
3.5
141
0.0
143
0.0393701
146
0.6
147
0.7
176
   256
177
   256
178
   256
271
     2
272
     2
283
     0
284
     8
288
     1
289
     0
340
11
371
    -1
372
    -1
  0
DIMSTYLE
105
84
330
A
100
AcDbSymbolTableRecord
100
AcDbDimStyleTableRecord
  2
AM_ISO$6
 70
     0
  4
"
 41
3.0
 42
1.0
 43
8.0
 44
1.5
 47
0.1
 48
0.1
 73
     0
 74
     0
 78
     8
 79
     2
140
3.5
141
0.0
143
0.0393701
146
0.6
147
0.7
172
     1
176
   256
177
   256
178
   256
271
     2
272
     2
283
     0
284
     8
340
11
371
    -1
372
    -1
  0
DIMSTYLE
105
85
330
A
100
AcDbSymbolTableRecord
100
AcDbDimStyleTableRecord
  2
AM_ISO$7
 70
     0
  4
"
 41
3.0
 42
1.0
 43
8.0
 44
1.5
 47
0.1
 48
0.1
 73
     0
 74
     0
 77
     1
 78
     8
 79
     2
140
5.0
141
0.0
143
0.0393701
146
0.6
147
0.7
172
     1
176
   256
177
   256
178
   256
271
     2
272
     2
283
     0
284
     8
340
11
371
    -1
372
    -1
  0
DIMSTYLE
105
86
330
A
100
AcDbSymbolTableRecord
100
AcDbDimStyleTableRecord
  2
AM_ISO$SF
 70
     0
  4
"
 41
2.5
 42
1.0
 43
10.0
 44
1.0
 47
0.1
 48
0.1
 73
     0
 74
     0
 75
     1
 76
     1
 77
     1
 78
     8
 79
     2
140
3.5
141
0.0
143
0.0393701
146
0.71
147
1.5
172
     1
176
   256
177
   256
178
     2
271
     2
272
     3
274
     4
283
     0
284
     8
340
11
371
    -1
372
    -1
  0
DIMSTYLE
105
8B
330
A
100
AcDbSymbolTableRecord
100
AcDbDimStyleTableRecord
  2
AM_ISO$SH
 70
     0
  4
"
 41
2.5
 42
1.0
 43
10.0
 44
1.0
 47
0.1
 48
0.1
 73
     0
 74
     0
 75
     1
 76
     1
 77
     1
 78
     8
 79
     2
140
3.5
141
0.0
143
0.0393701
144
2.0
146
0.71
147
1.5
172
     1
173
     1
176
   256
177
   256
178
     2
271
     2
272
     3
274
     4
283
     0
284
     8
340
11
343
87
371
    -1
372
    -1
  0
DIMSTYLE
105
40B
102
{ACAD_REACTORS
330
1F79
330
2024
330
2025
330
2026
330
2027
330
20FA
330
20FB
330
20FC
102
}
330
A
100
AcDbSymbolTableRecord
100
AcDbDimStyleTableRecord
  2
AM_ISO$0
 70
     0
  4
"
 41
3.0
 42
1.0
 43
8.0
 44
1.5
 47
0.1
 48
0.1
 73
     0
 74
     0
 77
     1
 78
     8
 79
     2
140
3.5
141
0.0
143
0.0393701
146
0.6
147
0.7
172
     1
176
   256
177
   256
178
   256
271
     2
272
     2
283
     0
284
     8
340
11
371
    -1
372
    -1
  0
ENDTAB
  0
TABLE
  2
BLOCK_RECORD
  5
1
330
0
100
AcDbSymbolTable
 70
    12
  0
BLOCK_RECORD
  5
1F
102
{ACAD_XDICTIONARY
360
8F
102
}
330
1
100
AcDbSymbolTableRecord
100
AcDbBlockTableRecord
  2
*Model_Space
340
22
  0
BLOCK_RECORD
  5
1B
330
1
100
AcDbSymbolTableRecord
100
AcDbBlockTableRecord
  2
*Paper_Space
340
1E
  0
BLOCK_RECORD
  5
23
330
1
100
AcDbSymbolTableRecord
100
AcDbBlockTableRecord
  2
*Paper_Space0
340
26
  0
BLOCK_RECORD
  5
87
330
1
100
AcDbSymbolTableRecord
100
AcDbBlockTableRecord
  2
GENAXEH
340
0
  0
BLOCK_RECORD
  5
2153
330
1
100
AcDbSymbolTableRecord
100
AcDbBlockTableRecord
  2
*D2
340
0
  0
BLOCK_RECORD
  5
215F
330
1
100
AcDbSymbolTableRecord
100
AcDbBlockTableRecord
  2
*D3
340
0
  0
BLOCK_RECORD
  5
216B
330
1
100
AcDbSymbolTableRecord
100
AcDbBlockTableRecord
  2
*D4
340
0
  0
BLOCK_RECORD
  5
2179
330
1
100
AcDbSymbolTableRecord
100
AcDbBlockTableRecord
  2
*D5
340
0
  0
BLOCK_RECORD
  5
2185
330
1
100
AcDbSymbolTableRecord
100
AcDbBlockTableRecord
  2
*D6
340
0
  0
BLOCK_RECORD
  5
2193
330
1
100
AcDbSymbolTableRecord
100
AcDbBlockTableRecord
  2
*D7
340
0
  0
BLOCK_RECORD
  5
219F
330
1
100
AcDbSymbolTableRecord
100
AcDbBlockTableRecord
  2
*D8
340
0
  0
BLOCK_RECORD
  5
21AD
330
1
100
AcDbSymbolTableRecord
100
AcDbBlockTableRecord
  2
*D9
340
0
  0
ENDTAB
  0
ENDSEC
  0
SECTION
  2
BLOCKS
  0
BLOCK
  5
20
330
1F
100
AcDbEntity
  8
0
100
AcDbBlockBegin
  2
*Model_Space
 70
     0
 10
0.0
 20
0.0
 30
0.0
  3
*Model_Space
  1

  0
ENDBLK
  5
21
330
1F
100
AcDbEntity
  8
0
100
AcDbBlockEnd
  0
BLOCK
  5
1C
330
1B
100
AcDbEntity
 67
     1
  8
0
100
AcDbBlockBegin
  2
*Paper_Space
 70
     0
 10
0.0
 20
0.0
 30
0.0
  3
*Paper_Space
  1

  0
ENDBLK
  5
1D
330
1B
100
AcDbEntity
 67
     1
  8
0
100
AcDbBlockEnd
  0
BLOCK
  5
24
330
23
100
AcDbEntity
  8
0
100
AcDbBlockBegin
  2
*Paper_Space0
 70
     0
 10
0.0
 20
0.0
 30
0.0
  3
*Paper_Space0
  1

  0
ENDBLK
  5
25
330
23
100
AcDbEntity
  8
0
100
AcDbBlockEnd
  0
BLOCK
  5
89
330
87
100
AcDbEntity
  8
0
100
AcDbBlockBegin
  2
GENAXEH
 70
     0
 10
0.0
 20
0.0
 30
0.0
  3
GENAXEH
  1

  0
LINE
  5
88
330
87
100
AcDbEntity
  8
0
100
AcDbLine
 10
-1.0
 20
0.0
 30
0.0
 11
1.0
 21
0.0
 31
0.0
  0
ENDBLK
  5
8A
330
87
100
AcDbEntity
  8
0
100
AcDbBlockEnd
  0
BLOCK
  5
215D
330
2153
100
AcDbEntity
  8
0
100
AcDbBlockBegin
  2
*D2
 70
     1
 10
0.0
 20
0.0
 30
0.0
  3
*D2
  1

  0
LINE
  5
236F
330
2153
100
AcDbEntity
  8
AM_5
100
AcDbLine
 10
227.2169222157056
 20
351.1158882534662
 30
0.0
 11
227.2169222157056
 21
359.7442544631432
 31
0.0
  0
LINE
  5
2370
330
2153
100
AcDbEntity
  8
AM_5
100
AcDbLine
 10
270.2250505719149
 20
355.8908882534662
 30
0.0
 11
270.2250505719149
 21
359.7442544631432
 31
0.0
  0
LINE
  5
2371
330
2153
100
AcDbEntity
  8
AM_5
100
AcDbLine
 10
230.2169222157055
 20
358.2442544631433
 30
0.0
 11
267.2250505719148
 21
358.2442544631433
 31
0.0
  0
SOLID
  5
2372
330
2153
100
AcDbEntity
  8
AM_5
100
AcDbTrace
 10
230.2169222157055
 20
358.7442544631433
 30
0.0
 11
230.2169222157055
 21
357.7442544631432
 31
0.0
 12
227.2169222157056
 22
358.2442544631433
 32
0.0
 13
227.2169222157056
 23
358.2442544631433
 33
0.0
  0
SOLID
  5
2373
330
2153
100
AcDbEntity
  8
AM_5
100
AcDbTrace
 10
267.2250505719148
 20
358.7442544631433
 30
0.0
 11
267.2250505719148
 21
357.7442544631432
 31
0.0
 12
270.2250505719149
 22
358.2442544631433
 32
0.0
 13
270.2250505719149
 23
358.2442544631433
 33
0.0
  0
MTEXT
  5
2374
330
2153
100
AcDbEntity
  8
AM_5
100
AcDbMText
 10
248.7209863938102
 20
360.6942544631432
 30
0.0
 40
3.5
 41
0.0
 71
     5
 72
     1
  1
150%%p10
 73
     1
 44
1.0
1001
ACAD
1000
MTEXTBEGIN
1070
    73
1070
     1
1070
    44
1040
1.0
1070
    74
1070
     0
1000
MTEXTEND
  0
POINT
  5
2375
330
2153
100
AcDbEntity
  8
Defpoints
 62
     0
100
AcDbPoint
 10
227.2169222157056
 20
350.1158882534662
 30
0.0
  0
POINT
  5
2376
330
2153
100
AcDbEntity
  8
Defpoints
 62
     0
100
AcDbPoint
 10
270.2250505719149
 20
354.8908882534662
 30
0.0
  0
POINT
  5
2377
330
2153
100
AcDbEntity
  8
Defpoints
 62
     0
100
AcDbPoint
 10
270.2250505719149
 20
358.2442544631433
 30
0.0
  0
ENDBLK
  5
215E
330
2153
100
AcDbEntity
  8
0
100
AcDbBlockEnd
  0
BLOCK
  5
2169
330
215F
100
AcDbEntity
  8
0
100
AcDbBlockBegin
  2
*D3
 70
     1
 10
0.0
 20
0.0
 30
0.0
  3
*D3
  1

  0
LINE
  5
2378
330
215F
100
AcDbEntity
  8
AM_5
100
AcDbLine
 10
127.4778036730761
 20
353.7408882534662
 30
0.0
 11
127.4778036730761
 21
359.7442544631432
 31
0.0
  0
LINE
  5
2379
330
215F
100
AcDbEntity
  8
AM_5
100
AcDbLine
 10
151.4778036730761
 20
354.8908882534662
 30
0.0
 11
151.4778036730761
 21
359.7442544631432
 31
0.0
  0
LINE
  5
237A
330
215F
100
AcDbEntity
  8
AM_5
100
AcDbLine
 10
130.4778036730761
 20
358.2442544631433
 30
0.0
 11
148.4778036730761
 21
358.2442544631433
 31
0.0
  0
SOLID
  5
237B
330
215F
100
AcDbEntity
  8
AM_5
100
AcDbTrace
 10
130.4778036730761
 20
358.7442544631433
 30
0.0
 11
130.4778036730761
 21
357.7442544631432
 31
0.0
 12
127.4778036730761
 22
358.2442544631433
 32
0.0
 13
127.4778036730761
 23
358.2442544631433
 33
0.0
  0
SOLID
  5
237C
330
215F
100
AcDbEntity
  8
AM_5
100
AcDbTrace
 10
148.4778036730761
 20
358.7442544631433
 30
0.0
 11
148.4778036730761
 21
357.7442544631432
 31
0.0
 12
151.4778036730761
 22
358.2442544631433
 32
0.0
 13
151.4778036730761
 23
358.2442544631433
 33
0.0
  0
MTEXT
  5
237D
330
215F
100
AcDbEntity
  8
AM_5
100
AcDbMText
 10
139.4778036730761
 20
360.6945989513322
 30
0.0
 40
3.5
 41
0.0
 71
     5
 72
     1
  1
24
 73
     1
 44
1.0
1001
ACAD
1000
MTEXTBEGIN
1070
    73
1070
     1
1070
    44
1040
1.0
1070
    74
1070
     0
1000
MTEXTEND
  0
POINT
  5
237E
330
215F
100
AcDbEntity
  8
Defpoints
 62
     0
100
AcDbPoint
 10
127.4778036730761
 20
352.7408882534662
 30
0.0
  0
POINT
  5
237F
330
215F
100
AcDbEntity
  8
Defpoints
 62
     0
100
AcDbPoint
 10
151.4778036730761
 20
353.8908882534662
 30
0.0
  0
POINT
  5
2380
330
215F
100
AcDbEntity
  8
Defpoints
 62
     0
100
AcDbPoint
 10
151.4778036730761
 20
358.2442544631433
 30
0.0
  0
ENDBLK
  5
216A
330
215F
100
AcDbEntity
  8
0
100
AcDbBlockEnd
  0
BLOCK
  5
2177
330
216B
100
AcDbEntity
  8
0
100
AcDbBlockBegin
  2
*D4
 70
     1
 10
0.0
 20
0.0
 30
0.0
  3
*D4
  1

  0
LINE
  5
2381
330
216B
100
AcDbEntity
  8
AM_5
100
AcDbLine
 10
130.4778036730761
 20
353.8908882534662
 30
0.0
 11
123.2607833585755
 21
353.8908882534662
 31
0.0
  0
LINE
  5
2382
330
216B
100
AcDbEntity
  8
AM_5
100
AcDbLine
 10
130.4778036730761
 20
348.8908882534662
 30
0.0
 11
123.2607833585755
 21
348.8908882534663
 31
0.0
  0
LINE
  5
2383
330
216B
100
AcDbEntity
  8
AM_5
100
AcDbLine
 10
124.7607833585755
 20
356.8908882534663
 30
0.0
 11
124.7607833585755
 21
359.8908882534662
 31
0.0
  0
LINE
  5
2384
330
216B
100
AcDbEntity
  8
AM_5
100
AcDbLine
 10
124.7607833585755
 20
345.8908882534662
 30
0.0
 11
124.7607833585755
 21
342.8908882534662
 31
0.0
  0
LINE
  5
2385
330
216B
100
AcDbEntity
  8
AM_5
100
AcDbLine
 10
124.7607833585755
 20
353.8908882534662
 30
0.0
 11
124.7607833585755
 21
348.8908882534663
 31
0.0
  0
SOLID
  5
2386
330
216B
100
AcDbEntity
  8
AM_5
100
AcDbTrace
 10
124.2607833585755
 20
356.8908882534663
 30
0.0
 11
125.2607833585756
 21
356.8908882534663
 31
0.0
 12
124.7607833585755
 22
353.8908882534662
 32
0.0
 13
124.7607833585755
 23
353.8908882534662
 33
0.0
  0
SOLID
  5
2387
330
216B
100
AcDbEntity
  8
AM_5
100
AcDbTrace
 10
124.2607833585755
 20
345.8908882534662
 30
0.0
 11
125.2607833585755
 21
345.8908882534662
 31
0.0
 12
124.7607833585755
 22
348.8908882534663
 32
0.0
 13
124.7607833585755
 23
348.8908882534663
 33
0.0
  0
MTEXT
  5
2388
330
216B
100
AcDbEntity
  8
AM_5
100
AcDbMText
 10
121.8107833585755
 20
351.3908882534662
 30
0.0
 40
3.5
 41
0.0
 71
     5
 72
     1
  1
5
 11
0.0000000000000001
 21
1.0
 31
0.0
 73
     1
 44
1.0
1001
ACAD
1000
MTEXTBEGIN
1070
    73
1070
     1
1070
    44
1040
1.0
1070
    74
1070
     0
1000
MTEXTEND
  0
POINT
  5
2389
330
216B
100
AcDbEntity
  8
Defpoints
 62
     0
100
AcDbPoint
 10
131.4778036730761
 20
353.8908882534662
 30
0.0
  0
POINT
  5
238A
330
216B
100
AcDbEntity
  8
Defpoints
 62
     0
100
AcDbPoint
 10
131.4778036730761
 20
348.8908882534662
 30
0.0
  0
POINT
  5
238B
330
216B
100
AcDbEntity
  8
Defpoints
 62
     0
100
AcDbPoint
 10
124.7607833585755
 20
348.8908882534663
 30
0.0
  0
ENDBLK
  5
2178
330
216B
100
AcDbEntity
  8
0
100
AcDbBlockEnd
  0
BLOCK
  5
2183
330
2179
100
AcDbEntity
  8
0
100
AcDbBlockBegin
  2
*D5
 70
     1
 10
0.0
 20
0.0
 30
0.0
  3
*D5
  1

  0
LINE
  5
238C
330
2179
100
AcDbEntity
  8
AM_5
100
AcDbLine
 10
151.4778036730761
 20
351.1158882534662
 30
0.0
 11
151.4778036730761
 21
359.7442544631432
 31
0.0
  0
LINE
  5
238D
330
2179
100
AcDbEntity
  8
AM_5
100
AcDbLine
 10
175.9862199680865
 20
353.3908882534662
 30
0.0
 11
175.9862199680865
 21
359.7442544631432
 31
0.0
  0
LINE
  5
238E
330
2179
100
AcDbEntity
  8
AM_5
100
AcDbLine
 10
154.4778036730761
 20
358.2442544631433
 30
0.0
 11
172.9862199680865
 21
358.2442544631433
 31
0.0
  0
SOLID
  5
238F
330
2179
100
AcDbEntity
  8
AM_5
100
AcDbTrace
 10
154.4778036730761
 20
358.7442544631433
 30
0.0
 11
154.4778036730761
 21
357.7442544631432
 31
0.0
 12
151.4778036730761
 22
358.2442544631433
 32
0.0
 13
151.4778036730761
 23
358.2442544631433
 33
0.0
  0
SOLID
  5
2390
330
2179
100
AcDbEntity
  8
AM_5
100
AcDbTrace
 10
172.9862199680865
 20
358.7442544631433
 30
0.0
 11
172.9862199680865
 21
357.7442544631432
 31
0.0
 12
175.9862199680865
 22
358.2442544631433
 32
0.0
 13
175.9862199680865
 23
358.2442544631433
 33
0.0
  0
MTEXT
  5
2391
330
2179
100
AcDbEntity
  8
AM_5
100
AcDbMText
 10
163.7320118205813
 20
360.6945989513322
 30
0.0
 40
3.5
 41
0.0
 71
     5
 72
     1
  1
2000
 73
     1
 44
1.0
1001
ACAD
1000
MTEXTBEGIN
1070
    73
1070
     1
1070
    44
1040
1.0
1070
    74
1070
     0
1000
MTEXTEND
  0
POINT
  5
2392
330
2179
100
AcDbEntity
  8
Defpoints
 62
     0
100
AcDbPoint
 10
151.4778036730761
 20
350.1158882534662
 30
0.0
  0
POINT
  5
2393
330
2179
100
AcDbEntity
  8
Defpoints
 62
     0
100
AcDbPoint
 10
175.9862199680865
 20
352.3908882534662
 30
0.0
  0
POINT
  5
2394
330
2179
100
AcDbEntity
  8
Defpoints
 62
     0
100
AcDbPoint
 10
175.9862199680865
 20
358.2442544631433
 30
0.0
  0
ENDBLK
  5
2184
330
2179
100
AcDbEntity
  8
0
100
AcDbBlockEnd
  0
BLOCK
  5
2191
330
2185
100
AcDbEntity
  8
0
100
AcDbBlockBegin
  2
*D6
 70
     1
 10
0.0
 20
0.0
 30
0.0
  3
*D6
  1

  0
LINE
  5
2395
330
2185
100
AcDbEntity
  8
AM_5
100
AcDbLine
 10
126.4778036730761
 20
383.0608419098147
 30
0.0
 11
123.2607833585755
 21
383.0608419098147
 31
0.0
  0
LINE
  5
2396
330
2185
100
AcDbEntity
  8
AM_5
100
AcDbLine
 10
126.4776900536192
 20
387.0608419066651
 30
0.0
 11
123.2607833585755
 21
387.0608419066651
 31
0.0
  0
LINE
  5
2397
330
2185
100
AcDbEntity
  8
AM_5
100
AcDbLine
 10
124.7607833585755
 20
380.0608419098147
 30
0.0
 11
124.7607833585755
 21
377.0608419098147
 31
0.0
  0
LINE
  5
2398
330
2185
100
AcDbEntity
  8
AM_5
100
AcDbLine
 10
124.7607833585755
 20
390.0608419066651
 30
0.0
 11
124.7607833585755
 21
393.0608419066651
 31
0.0
  0
LINE
  5
2399
330
2185
100
AcDbEntity
  8
AM_5
100
AcDbLine
 10
124.7607833585755
 20
383.0608419098147
 30
0.0
 11
124.7607833585755
 21
387.0608419066651
 31
0.0
  0
SOLID
  5
239A
330
2185
100
AcDbEntity
  8
AM_5
100
AcDbTrace
 10
124.2607833585755
 20
380.0608419098147
 30
0.0
 11
125.2607833585756
 21
380.0608419098147
 31
0.0
 12
124.7607833585755
 22
383.0608419098147
 32
0.0
 13
124.7607833585755
 23
383.0608419098147
 33
0.0
  0
SOLID
  5
239B
330
2185
100
AcDbEntity
  8
AM_5
100
AcDbTrace
 10
124.2607833585755
 20
390.0608419066651
 30
0.0
 11
125.2607833585756
 21
390.0608419066651
 31
0.0
 12
124.7607833585755
 22
387.0608419066651
 32
0.0
 13
124.7607833585755
 23
387.0608419066651
 33
0.0
  0
MTEXT
  5
239C
330
2185
100
AcDbEntity
  8
AM_5
100
AcDbMText
 10
121.8107833585755
 20
385.0608419082399
 30
0.0
 40
3.5
 41
0.0
 71
     5
 72
     1
  1
4
 11
0.0000000000000001
 21
1.0
 31
0.0
 73
     1
 44
1.0
1001
ACAD
1000
MTEXTBEGIN
1070
    73
1070
     1
1070
    44
1040
1.0
1070
    74
1070
     0
1000
MTEXTEND
  0
POINT
  5
239D
330
2185
100
AcDbEntity
  8
Defpoints
 62
     0
100
AcDbPoint
 10
127.4778036730761
 20
383.0608419098147
 30
0.0
  0
POINT
  5
239E
330
2185
100
AcDbEntity
  8
Defpoints
 62
     0
100
AcDbPoint
 10
127.4776900536192
 20
387.0608419066651
 30
0.0
  0
POINT
  5
239F
330
2185
100
AcDbEntity
  8
Defpoints
 62
     0
100
AcDbPoint
 10
124.7607833585755
 20
387.0608419066651
 30
0.0
  0
ENDBLK
  5
2192
330
2185
100
AcDbEntity
  8
0
100
AcDbBlockEnd
  0
BLOCK
  5
219D
330
2193
100
AcDbEntity
  8
0
100
AcDbBlockBegin
  2
*D7
 70
     1
 10
0.0
 20
0.0
 30
0.0
  3
*D7
  1

  0
LINE
  5
23A0
330
2193
100
AcDbEntity
  8
AM_5
100
AcDbLine
 10
203.2169222157055
 20
353.7408882534662
 30
0.0
 11
203.2169222157055
 21
359.7442544631432
 31
0.0
  0
LINE
  5
23A1
330
2193
100
AcDbEntity
  8
AM_5
100
AcDbLine
 10
227.2169222157056
 20
354.8908882534662
 30
0.0
 11
227.2169222157056
 21
359.7442544631432
 31
0.0
  0
LINE
  5
23A2
330
2193
100
AcDbEntity
  8
AM_5
100
AcDbLine
 10
206.2169222157055
 20
358.2442544631433
 30
0.0
 11
224.2169222157055
 21
358.2442544631433
 31
0.0
  0
SOLID
  5
23A3
330
2193
100
AcDbEntity
  8
AM_5
100
AcDbTrace
 10
206.2169222157055
 20
358.7442544631433
 30
0.0
 11
206.2169222157055
 21
357.7442544631432
 31
0.0
 12
203.2169222157055
 22
358.2442544631433
 32
0.0
 13
203.2169222157055
 23
358.2442544631433
 33
0.0
  0
SOLID
  5
23A4
330
2193
100
AcDbEntity
  8
AM_5
100
AcDbTrace
 10
224.2169222157055
 20
358.7442544631433
 30
0.0
 11
224.2169222157055
 21
357.7442544631432
 31
0.0
 12
227.2169222157056
 22
358.2442544631433
 32
0.0
 13
227.2169222157056
 23
358.2442544631433
 33
0.0
  0
MTEXT
  5
23A5
330
2193
100
AcDbEntity
  8
AM_5
100
AcDbMText
 10
215.2169222157056
 20
360.6945989513322
 30
0.0
 40
3.5
 41
0.0
 71
     5
 72
     1
  1
24
 73
     1
 44
1.0
1001
ACAD
1000
MTEXTBEGIN
1070
    73
1070
     1
1070
    44
1040
1.0
1070
    74
1070
     0
1000
MTEXTEND
  0
POINT
  5
23A6
330
2193
100
AcDbEntity
  8
Defpoints
 62
     0
100
AcDbPoint
 10
203.2169222157055
 20
352.7408882534662
 30
0.0
  0
POINT
  5
23A7
330
2193
100
AcDbEntity
  8
Defpoints
 62
     0
100
AcDbPoint
 10
227.2169222157056
 20
353.8908882534662
 30
0.0
  0
POINT
  5
23A8
330
2193
100
AcDbEntity
  8
Defpoints
 62
     0
100
AcDbPoint
 10
227.2169222157056
 20
358.2442544631433
 30
0.0
  0
ENDBLK
  5
219E
330
2193
100
AcDbEntity
  8
0
100
AcDbBlockEnd
  0
BLOCK
  5
21AB
330
219F
100
AcDbEntity
  8
0
100
AcDbBlockBegin
  2
*D8
 70
     1
 10
0.0
 20
0.0
 30
0.0
  3
*D8
  1

  0
LINE
  5
23A9
330
219F
100
AcDbEntity
  8
AM_5
100
AcDbLine
 10
206.2169222157055
 20
353.8908882534662
 30
0.0
 11
198.9999019012049
 21
353.8908882534662
 31
0.0
  0
LINE
  5
23AA
330
219F
100
AcDbEntity
  8
AM_5
100
AcDbLine
 10
206.2169222157055
 20
348.8908882534662
 30
0.0
 11
198.9999019012049
 21
348.8908882534662
 31
0.0
  0
LINE
  5
23AB
330
219F
100
AcDbEntity
  8
AM_5
100
AcDbLine
 10
200.4999019012049
 20
356.8908882534662
 30
0.0
 11
200.4999019012049
 21
359.8908882534662
 31
0.0
  0
LINE
  5
23AC
330
219F
100
AcDbEntity
  8
AM_5
100
AcDbLine
 10
200.4999019012049
 20
345.8908882534662
 30
0.0
 11
200.4999019012049
 21
342.8908882534662
 31
0.0
  0
LINE
  5
23AD
330
219F
100
AcDbEntity
  8
AM_5
100
AcDbLine
 10
200.4999019012049
 20
353.8908882534662
 30
0.0
 11
200.4999019012049
 21
348.8908882534662
 31
0.0
  0
SOLID
  5
23AE
330
219F
100
AcDbEntity
  8
AM_5
100
AcDbTrace
 10
199.9999019012049
 20
356.8908882534662
 30
0.0
 11
200.999901901205
 21
356.8908882534662
 31
0.0
 12
200.4999019012049
 22
353.8908882534662
 32
0.0
 13
200.4999019012049
 23
353.8908882534662
 33
0.0
  0
SOLID
  5
23AF
330
219F
100
AcDbEntity
  8
AM_5
100
AcDbTrace
 10
199.9999019012049
 20
345.8908882534662
 30
0.0
 11
200.999901901205
 21
345.8908882534662
 31
0.0
 12
200.4999019012049
 22
348.8908882534662
 32
0.0
 13
200.4999019012049
 23
348.8908882534662
 33
0.0
  0
MTEXT
  5
23B0
330
219F
100
AcDbEntity
  8
AM_5
100
AcDbMText
 10
197.5499019012049
 20
351.3908882534662
 30
0.0
 40
3.5
 41
0.0
 71
     5
 72
     1
  1
5
 11
0.0000000000000001
 21
1.0
 31
0.0
 73
     1
 44
1.0
1001
ACAD
1000
MTEXTBEGIN
1070
    73
1070
     1
1070
    44
1040
1.0
1070
    74
1070
     0
1000
MTEXTEND
  0
POINT
  5
23B1
330
219F
100
AcDbEntity
  8
Defpoints
 62
     0
100
AcDbPoint
 10
207.2169222157056
 20
353.8908882534662
 30
0.0
  0
POINT
  5
23B2
330
219F
100
AcDbEntity
  8
Defpoints
 62
     0
100
AcDbPoint
 10
207.2169222157056
 20
348.8908882534662
 30
0.0
  0
POINT
  5
23B3
330
219F
100
AcDbEntity
  8
Defpoints
 62
     0
100
AcDbPoint
 10
200.4999019012049
 20
348.8908882534662
 30
0.0
  0
ENDBLK
  5
21AC
330
219F
100
AcDbEntity
  8
0
100
AcDbBlockEnd
  0
BLOCK
  5
21B9
330
21AD
100
AcDbEntity
  8
0
100
AcDbBlockBegin
  2
*D9
 70
     1
 10
0.0
 20
0.0
 30
0.0
  3
*D9
  1

  0
LINE
  5
23B4
330
21AD
100
AcDbEntity
  8
AM_5
100
AcDbLine
 10
202.2169222157056
 20
383.0608419098147
 30
0.0
 11
198.9999019012049
 21
383.0608419098147
 31
0.0
  0
LINE
  5
23B5
330
21AD
100
AcDbEntity
  8
AM_5
100
AcDbLine
 10
202.2168085962487
 20
387.0608419066651
 30
0.0
 11
198.9999019012049
 21
387.0608419066651
 31
0.0
  0
LINE
  5
23B6
330
21AD
100
AcDbEntity
  8
AM_5
100
AcDbLine
 10
200.4999019012049
 20
380.0608419098147
 30
0.0
 11
200.4999019012049
 21
377.0608419098147
 31
0.0
  0
LINE
  5
23B7
330
21AD
100
AcDbEntity
  8
AM_5
100
AcDbLine
 10
200.4999019012049
 20
390.0608419066651
 30
0.0
 11
200.4999019012049
 21
393.0608419066651
 31
0.0
  0
LINE
  5
23B8
330
21AD
100
AcDbEntity
  8
AM_5
100
AcDbLine
 10
200.4999019012049
 20
383.0608419098147
 30
0.0
 11
200.4999019012049
 21
387.0608419066651
 31
0.0
  0
SOLID
  5
23B9
330
21AD
100
AcDbEntity
  8
AM_5
100
AcDbTrace
 10
199.9999019012049
 20
380.0608419098147
 30
0.0
 11
200.999901901205
 21
380.0608419098147
 31
0.0
 12
200.4999019012049
 22
383.0608419098147
 32
0.0
 13
200.4999019012049
 23
383.0608419098147
 33
0.0
  0
SOLID
  5
23BA
330
21AD
100
AcDbEntity
  8
AM_5
100
AcDbTrace
 10
199.9999019012049
 20
390.0608419066651
 30
0.0
 11
200.999901901205
 21
390.0608419066651
 31
0.0
 12
200.4999019012049
 22
387.0608419066651
 32
0.0
 13
200.4999019012049
 23
387.0608419066651
 33
0.0
  0
MTEXT
  5
23BB
330
21AD
100
AcDbEntity
  8
AM_5
100
AcDbMText
 10
197.5499019012049
 20
385.0608419082399
 30
0.0
 40
3.5
 41
0.0
 71
     5
 72
     1
  1
4
 11
0.0000000000000001
 21
1.0
 31
0.0
 73
     1
 44
1.0
1001
ACAD
1000
MTEXTBEGIN
1070
    73
1070
     1
1070
    44
1040
1.0
1070
    74
1070
     0
1000
MTEXTEND
  0
POINT
  5
23BC
330
21AD
100
AcDbEntity
  8
Defpoints
 62
     0
100
AcDbPoint
 10
203.2169222157055
 20
383.0608419098147
 30
0.0
  0
POINT
  5
23BD
330
21AD
100
AcDbEntity
  8
Defpoints
 62
     0
100
AcDbPoint
 10
203.2168085962486
 20
387.0608419066651
 30
0.0
  0
POINT
  5
23BE
330
21AD
100
AcDbEntity
  8
Defpoints
 62
     0
100
AcDbPoint
 10
200.4999019012049
 20
387.0608419066651
 30
0.0
  0
ENDBLK
  5
21BA
330
21AD
100
AcDbEntity
  8
0
100
AcDbBlockEnd
  0
ENDSEC
  0
SECTION
  2
ENTITIES
  0
TEXT
  5
194A
330
1F
100
AcDbEntity
  8
LOGO
 62
     7
100
AcDbText
 10
134.1337608357387
 20
307.5474656529029
 30
0.0
 40
1.706419547511312
  1
Order example:
 41
0.8
  7
CHINESET
100
AcDbText
  0
TEXT
  5
194B
330
1F
100
AcDbEntity
  8
LOGO
 62
     7
100
AcDbText
 10
134.4399066140778
 20
309.9497510571232
 30
0.0
 40
2.559629321266968
  1
訂購代號：
  7
CHINESET
100
AcDbText
  0
LINE
  5
194C
330
1F
100
AcDbEntity
  8
LOGO
 62
     4
100
AcDbLine
 10
133.3923157545027
 20
300.3559692957296
 30
0.0
 11
133.3923157545027
 21
313.1541159020645
 31
0.0
  0
TEXT
  5
194D
330
1F
100
AcDbEntity
  8
LOGO
  6
Continuous
100
AcDbText
 10
109.8335450103436
 20
302.8701458824569
 30
0.0
 40
1.919721990950226
  1
金器工業股份有限公司
  7
CHINESET
100
AcDbText
  0
TEXT
  5
194E
330
1F
100
AcDbEntity
  8
LOGO
  6
Continuous
100
AcDbText
 10
106.3073955112343
 20
300.9500477765084
 30
0.0
 40
1.279814660633484
  1
MINDMAN INDUSTRIAL CO., LTD.
 41
0.85
  7
CHINESET
100
AcDbText
  0
LINE
  5
194F
330
1F
100
AcDbEntity
  8
LOGO
 62
     4
100
AcDbLine
 10
133.3923157545027
 20
310.5944865807976
 30
0.0
 11
114.6217007318782
 21
310.5944865807976
 31
0.0
  0
LINE
  5
1950
330
1F
100
AcDbEntity
  8
LOGO
 62
     4
100
AcDbLine
 10
133.3923157545027
 20
308.0348572595306
 30
0.0
 11
114.6217007318782
 21
308.0348572595306
 31
0.0
  0
LINE
  5
1951
330
1F
100
AcDbEntity
  8
LOGO
 62
     4
100
AcDbLine
 10
133.3923157545027
 20
305.4752279382638
 30
0.0
 11
105.236393220566
 21
305.4752279382638
 31
0.0
  0
LINE
  5
1952
330
1F
100
AcDbEntity
  8
LOGO
 62
     4
100
AcDbLine
 10
114.6217007318782
 20
305.4752279382638
 30
0.0
 11
114.6217007318782
 21
313.1541159020645
 31
0.0
  0
TEXT
  5
1953
330
1F
100
AcDbEntity
  8
LOGO
100
AcDbText
 10
127.4505301403078
 20
306.1151352685802
 30
0.0
 40
1.279814660633484
  1
mm
  7
CHINESET
 72
     1
 11
129.0350625772826
 21
306.755042598897
 31
0.0
100
AcDbText
 73
     2
  0
TEXT
  5
1954
330
1F
100
AcDbEntity
  8
LOGO
100
AcDbText
 10
126.7801510323569
 20
311.2343939111142
 30
0.0
 40
1.279814660633484
  1
1 : 1
  7
CHINESET
 72
     1
 11
129.0350625772826
 21
311.8743012414309
 31
0.0
100
AcDbText
 73
     2
  0
LINE
  5
1955
330
1F
100
AcDbEntity
  8
LOGO
 62
     4
100
AcDbLine
 10
124.8602180169461
 20
305.4752279382638
 30
0.0
 11
124.8602180169461
 21
313.1541159020645
 31
0.0
  0
TEXT
  5
1956
330
1F
100
AcDbEntity
  8
LOGO
100
AcDbText
 10
115.6769764810702
 20
311.2350237411637
 30
83.87694448643188
 40
1.279814660633484
  1
比例 Scale:
 41
0.9
  7
CHINESET
 72
     4
 11
119.7409593744121
 21
311.8743012414309
 31
83.87694448643188
100
AcDbText
  0
TEXT
  5
1957
330
1F
100
AcDbEntity
  8
LOGO
100
AcDbText
 10
115.6032728689176
 20
308.6927672320961
 30
83.87694448643188
 40
1.279814660633484
  1
投影  View:
 41
0.9
  7
CHINESET
 72
     4
 11
119.7409593744121
 21
309.3146719201639
 31
83.87694448643188
100
AcDbText
  0
TEXT
  5
1958
330
1F
100
AcDbEntity
  8
LOGO
100
AcDbText
 10
115.7283976058278
 20
306.1151352685802
 30
83.87694448643188
 40
1.279814660633484
  1
單位  Unit:
 41
0.9
  7
CHINESET
 72
     4
 11
119.7409593744121
 21
306.755042598897
 31
83.87694448643188
100
AcDbText
  0
LWPOLYLINE
  5
1959
330
1F
100
AcDbEntity
  8
LOGO
 62
     4
100
AcDbPolyline
 90
        4
 70
     1
 43
0.0
 10
105.236393220566
 20
313.1541159020645
 10
281.2363932205661
 20
313.1541159020645
 10
281.2363932205661
 20
428.3559692957294
 10
105.236393220566
 20
428.3559692957294
1001
GENIUS_GENREC_14
1002
{
1000
PYDIR
1011
105.236393220566
1021
428.3559692957294
1031
0.0
1002
}
1002
{
1000
PXDIR
1011
281.2363932205661
1021
313.1541159020645
1031
0.0
1002
}
1002
{
1000
PORI
1011
105.236393220566
1021
313.1541159020645
1031
0.0
1002
}
1002
{
1000
PINS
1011
105.236393220566
1021
313.1541159020645
1031
0.0
1002
}
1002
{
1000
PINS2
1011
281.2363932205661
1021
428.3559692957294
1031
0.0
1002
}
1002
{
1000
C
1070
     1
1002
}
1001
GENIUS_GENODEF_13
1002
{
1000
HIER
1070
     0
1002
}
1002
{
1000
MANEDIT
1070
     0
1002
}
1002
{
1000
NOSEL
1070
     0
1002
}
1002
{
1000
BEHIND
1070
     0
1002
}
1002
{
1000
OTHER
1070
     0
1002
}
1002
{
1000
REACTOR
1002
}
1001
GENIUS_GENOBJ-N-REC_13
1002
{
1000
OWNER
1000
GEN
1002
}
  0
SOLID
  5
195A
330
1F
100
AcDbEntity
  8
LOGO
 62
     5
100
AcDbTrace
 10
106.5642214704362
 20
307.6027376442947
 30
0.0
 11
107.1175797473574
 21
307.6027376442945
 31
0.0
 12
109.4264194545114
 22
312.8501006150995
 32
0.0
 13
109.9797777314329
 23
312.8501006150992
 33
0.0
  0
SOLID
  5
195B
330
1F
100
AcDbEntity
  8
LOGO
 62
     5
100
AcDbTrace
 10
107.3465555860841
 20
307.6027376442947
 30
0.0
 11
107.8999138630053
 21
307.6027376442947
 31
0.0
 12
109.9797777314329
 22
312.4303115774349
 32
0.0
 13
109.4264194545114
 23
310.4013312287237
 33
0.0
  0
SOLID
  5
195C
330
1F
100
AcDbEntity
  8
LOGO
 62
     2
100
AcDbTrace
 10
107.1175797473574
 20
307.6027376442945
 30
0.0
 11
107.3465555860841
 21
307.6027376442947
 31
0.0
 12
109.9797777314329
 22
312.8501006150992
 32
0.0
 13
110.2087535701592
 23
312.8501006150992
 33
0.0
  0
SOLID
  5
195D
330
1F
100
AcDbEntity
  8
LOGO
 62
     5
100
AcDbTrace
 10
105.6770524524597
 20
305.6946056549113
 30
0.0
 11
105.8678656513982
 21
305.6946056549113
 31
0.0
 12
106.4052104713211
 22
306.6486716496029
 32
0.0
 13
106.5960236702591
 23
306.6486716496029
 33
0.0
  0
SOLID
  5
195E
330
1F
100
AcDbEntity
  8
LOGO
 62
     5
100
AcDbTrace
 10
106.4052104713211
 20
306.6486716496029
 30
0.0
 11
106.5960236702591
 21
306.6486716496029
 31
0.0
 12
106.4052104713211
 22
305.6946056549113
 32
0.0
 13
106.5960236702591
 23
305.6946056549113
 33
0.0
  0
SOLID
  5
195F
330
1F
100
AcDbEntity
  8
LOGO
 62
     5
100
AcDbTrace
 10
106.4052104713211
 20
305.6946056549113
 30
0.0
 11
106.5960236702591
 21
305.6946056549113
 31
0.0
 12
107.1333684901828
 22
306.6486716496029
 32
0.0
 13
107.3241816891211
 23
306.6486716496029
 33
0.0
  0
SOLID
  5
1960
330
1F
100
AcDbEntity
  8
LOGO
 62
     5
100
AcDbTrace
 10
107.1333684901828
 20
306.6486716496029
 30
0.0
 11
107.3241816891211
 21
306.6486716496029
 31
0.0
 12
107.1333684901828
 22
305.6946056549113
 32
0.0
 13
107.3241816891211
 23
305.6946056549113
 33
0.0
  0
POLYLINE
  5
1961
330
1F
100
AcDbEntity
  8
LOGO
 62
     5
100
AcDb2dPolyline
 66
     1
 10
0.0
 20
0.0
 30
0.0
 40
0.1911189893212669
 41
0.1911189893212669
  0
VERTEX
  5
1962
330
1961
100
AcDbEntity
  8
LOGO
 62
     5
100
AcDbVertex
100
AcDb2dVertex
 10
113.5293619172609
 20
306.2670452517262
 30
0.0
 42
1.0
  0
VERTEX
  5
1963
330
1961
100
AcDbEntity
  8
LOGO
 62
     5
100
AcDbVertex
100
AcDb2dVertex
 10
112.956004949297
 20
306.2670452517262
 30
0.0
 42
1.0
  0
SEQEND
  5
1964
330
1961
100
AcDbEntity
  8
LOGO
 62
     5
  0
POLYLINE
  5
1965
330
1F
100
AcDbEntity
  8
LOGO
 62
     5
100
AcDb2dPolyline
 66
     1
 10
0.0
 20
0.0
 30
0.0
 70
     1
  0
VERTEX
  5
1966
330
1965
100
AcDbEntity
  8
LOGO
 62
     5
100
AcDbVertex
100
AcDb2dVertex
 10
111.875201561767
 20
306.171638652257
 30
0.0
 42
1.000000057330635
  0
VERTEX
  5
1967
330
1965
100
AcDbEntity
  8
LOGO
 62
     5
100
AcDbVertex
100
AcDb2dVertex
 10
112.4476411585821
 20
306.171638652257
 30
0.0
 42
1.000000057330635
  0
SEQEND
  5
1968
330
1965
100
AcDbEntity
  8
LOGO
 62
     5
  0
CIRCLE
  5
1969
330
1F
100
AcDbEntity
  8
LOGO
 62
     5
100
AcDbCircle
 10
112.1614213601749
 20
306.171638652257
 30
0.0
 40
0.2862197984075294
  0
POLYLINE
  5
196A
330
1F
100
AcDbEntity
  8
LOGO
 62
     5
100
AcDb2dPolyline
 66
     1
 10
0.0
 20
0.0
 30
0.0
 70
     1
 40
0.1911189893212669
 41
0.1911189893212669
  0
VERTEX
  5
196B
330
196A
100
AcDbEntity
  8
LOGO
 62
     5
100
AcDbVertex
100
AcDb2dVertex
 10
111.7791833815321
 20
306.171638652257
 30
0.0
 42
1.0
  0
VERTEX
  5
196C
330
196A
100
AcDbEntity
  8
LOGO
 62
     5
100
AcDbVertex
100
AcDb2dVertex
 10
112.5436593388172
 20
306.171638652257
 30
0.0
 42
1.0
  0
SEQEND
  5
196D
330
196A
100
AcDbEntity
  8
LOGO
 62
     5
  0
LINE
  5
196E
330
1F
100
AcDbEntity
  8
LOGO
100
AcDbLine
 10
113.6243098311553
 20
305.6946056549113
 30
0.0
 11
113.6243098311553
 21
306.2670452517262
 31
0.0
  0
SOLID
  5
196F
330
1F
100
AcDbEntity
  8
LOGO
 62
     5
100
AcDbTrace
 10
112.447622077263
 20
306.6486716496029
 30
0.0
 11
112.638435276201
 21
306.6486716496029
 31
0.0
 12
112.447622077263
 22
305.6946056549113
 32
0.0
 13
112.638435276201
 23
305.6946056549113
 33
0.0
  0
SOLID
  5
1970
330
1F
100
AcDbEntity
  8
LOGO
 62
     5
100
AcDbTrace
 10
112.861057035402
 20
305.6946056549113
 30
0.0
 11
113.0518702343405
 21
305.6946056549113
 31
0.0
 12
112.861057035402
 22
306.6486716496029
 32
0.0
 13
113.0518702343405
 23
306.6486716496029
 33
0.0
  0
SOLID
  5
1971
330
1F
100
AcDbEntity
  8
LOGO
 62
     5
100
AcDbTrace
 10
113.4334966322174
 20
306.2670452517262
 30
0.0
 11
113.6243098311553
 21
306.2670452517262
 31
0.0
 12
113.4334966322174
 22
305.6946056549113
 32
0.0
 13
113.6243098311553
 23
305.6946056549113
 33
0.0
  0
SOLID
  5
1972
330
1F
100
AcDbEntity
  8
LOGO
 62
     5
100
AcDbTrace
 10
112.8419757155081
 20
312.4303115774349
 30
0.0
 11
112.2886174385872
 21
310.4013312287237
 31
0.0
 12
112.8419757155081
 22
307.6027376442945
 32
0.0
 13
112.2886174385872
 23
307.6027376442945
 33
0.0
  0
SOLID
  5
1973
330
1F
100
AcDbEntity
  8
LOGO
 62
     5
100
AcDbTrace
 10
113.0709515542344
 20
307.6027376442945
 30
0.0
 11
113.6243098311553
 21
307.6027376442945
 31
0.0
 12
113.0709515542344
 22
312.8501006150992
 32
0.0
 13
113.6243098311553
 23
312.8501006150995
 33
0.0
  0
SOLID
  5
1974
330
1F
100
AcDbEntity
  8
LOGO
 62
     2
100
AcDbTrace
 10
112.8419757155081
 20
312.8501006150995
 30
0.0
 11
113.0709515542344
 21
312.8501006150992
 31
0.0
 12
112.8419757155081
 22
307.6027376442945
 32
0.0
 13
113.0709515542344
 23
307.6027376442945
 33
0.0
  0
POLYLINE
  5
1975
330
1F
100
AcDbEntity
  8
LOGO
 62
     5
100
AcDb2dPolyline
 66
     1
 10
0.0
 20
0.0
 30
0.0
 40
0.1911189893212669
 41
0.1911189893212669
  0
VERTEX
  5
1976
330
1975
100
AcDbEntity
  8
LOGO
 62
     5
100
AcDbVertex
100
AcDb2dVertex
 10
110.794360011598
 20
306.2670452517262
 30
0.0
 42
1.0
  0
VERTEX
  5
1977
330
1975
100
AcDbEntity
  8
LOGO
 62
     5
100
AcDbVertex
100
AcDb2dVertex
 10
110.221003043634
 20
306.2670452517262
 30
0.0
 42
1.0
  0
SEQEND
  5
1978
330
1975
100
AcDbEntity
  8
LOGO
 62
     5
  0
POLYLINE
  5
1979
330
1F
100
AcDbEntity
  8
LOGO
 62
     5
100
AcDb2dPolyline
 66
     1
 10
0.0
 20
0.0
 30
0.0
 40
0.1911189893212669
 41
0.1911189893212669
  0
VERTEX
  5
197A
330
1979
100
AcDbEntity
  8
LOGO
 62
     5
100
AcDbVertex
100
AcDb2dVertex
 10
111.3667996084125
 20
306.2670452517262
 30
0.0
 42
1.0
  0
VERTEX
  5
197B
330
1979
100
AcDbEntity
  8
LOGO
 62
     5
100
AcDbVertex
100
AcDb2dVertex
 10
110.7934426404489
 20
306.2670452517262
 30
0.0
 42
1.0
  0
SEQEND
  5
197C
330
1979
100
AcDbEntity
  8
LOGO
 62
     5
  0
POLYLINE
  5
197D
330
1F
100
AcDbEntity
  8
LOGO
 62
     5
100
AcDb2dPolyline
 66
     1
 10
0.0
 20
0.0
 30
0.0
 40
0.1911189893212669
 41
0.1911189893212669
  0
VERTEX
  5
197E
330
197D
100
AcDbEntity
  8
LOGO
 62
     5
100
AcDbVertex
100
AcDb2dVertex
 10
108.6317977027495
 20
306.2670452517262
 30
0.0
 42
1.0
  0
VERTEX
  5
197F
330
197D
100
AcDbEntity
  8
LOGO
 62
     5
100
AcDbVertex
100
AcDb2dVertex
 10
108.0584407347859
 20
306.2670452517262
 30
0.0
 42
1.0
  0
SEQEND
  5
1980
330
197D
100
AcDbEntity
  8
LOGO
 62
     5
  0
SOLID
  5
1981
330
1F
100
AcDbEntity
  8
LOGO
 62
     5
100
AcDbTrace
 10
107.9634928208912
 20
306.6486716496029
 30
0.0
 11
108.1543060198292
 21
306.6486716496029
 31
0.0
 12
107.9634928208912
 22
305.6946056549113
 32
0.0
 13
108.1543060198292
 23
305.6946056549113
 33
0.0
  0
SOLID
  5
1982
330
1F
100
AcDbEntity
  8
LOGO
 62
     5
100
AcDbTrace
 10
108.5359324177063
 20
306.2670452517262
 30
0.0
 11
108.7267456166448
 21
306.2670452517262
 31
0.0
 12
108.5359324177063
 22
305.6946056549113
 32
0.0
 13
108.7267456166448
 23
305.6946056549113
 33
0.0
  0
POLYLINE
  5
1983
330
1F
100
AcDbEntity
  8
LOGO
 62
     5
100
AcDb2dPolyline
 66
     1
 10
0.0
 20
0.0
 30
0.0
 70
     1
 40
0.1911189893212669
 41
0.1911189893212669
  0
VERTEX
  5
1984
330
1983
100
AcDbEntity
  8
LOGO
 62
     5
100
AcDbVertex
100
AcDb2dVertex
 10
109.0441814758689
 20
306.171638652257
 30
0.0
 42
1.0
  0
VERTEX
  5
1985
330
1983
100
AcDbEntity
  8
LOGO
 62
     5
100
AcDbVertex
100
AcDb2dVertex
 10
109.8086574331542
 20
306.171638652257
 30
0.0
 42
1.0
  0
SEQEND
  5
1986
330
1983
100
AcDbEntity
  8
LOGO
 62
     5
  0
SOLID
  5
1987
330
1F
100
AcDbEntity
  8
LOGO
 62
     5
100
AcDbTrace
 10
109.7126201715995
 20
306.9348914480106
 30
0.0
 11
109.9034333705377
 21
306.9348914480106
 31
0.0
 12
109.7126201715995
 22
305.6946056549113
 32
0.0
 13
109.9034333705377
 23
305.6946056549113
 33
0.0
  0
SOLID
  5
1988
330
1F
100
AcDbEntity
  8
LOGO
 62
     5
100
AcDbTrace
 10
110.1260551297396
 20
306.6486716496029
 30
0.0
 11
110.3168683286776
 21
306.6486716496029
 31
0.0
 12
110.1260551297396
 22
305.6946056549113
 32
0.0
 13
110.3168683286776
 23
305.6946056549113
 33
0.0
  0
SOLID
  5
1989
330
1F
100
AcDbEntity
  8
LOGO
 62
     5
100
AcDbTrace
 10
110.6984947265541
 20
306.2670452517262
 30
0.0
 11
110.8893079254927
 21
306.2670452517262
 31
0.0
 12
110.6984947265541
 22
305.6946056549113
 32
0.0
 13
110.8893079254927
 23
305.6946056549113
 33
0.0
  0
SOLID
  5
198A
330
1F
100
AcDbEntity
  8
LOGO
 62
     5
100
AcDbTrace
 10
111.2709343233692
 20
306.2670452517262
 30
0.0
 11
111.4617475223075
 21
306.2670452517262
 31
0.0
 12
111.2709343233692
 22
305.694605654911
 32
0.0
 13
111.4617475223075
 23
305.694605654911
 33
0.0
  0
SOLID
  5
198B
330
1F
100
AcDbEntity
  8
LOGO
 62
     5
100
AcDbTrace
 10
107.5500578627514
 20
306.7822408888599
 30
0.0
 11
107.7408710616902
 21
306.7822408888599
 31
0.0
 12
107.5500578627514
 22
306.9348914480106
 32
0.0
 13
107.7408710616902
 23
306.9348914480106
 33
0.0
  0
SOLID
  5
198C
330
1F
100
AcDbEntity
  8
LOGO
 62
     5
100
AcDbTrace
 10
107.5500578627514
 20
306.6486716496029
 30
0.0
 11
107.7408710616902
 21
306.6486716496029
 31
0.0
 12
107.5500578627514
 22
305.694605654911
 32
0.0
 13
107.7408710616902
 23
305.6946056549113
 33
0.0
  0
SOLID
  5
198D
330
1F
100
AcDbEntity
  8
LOGO
 62
     5
100
AcDbTrace
 10
109.4264194545114
 20
307.6027376442947
 30
0.0
 11
109.9797777314329
 21
307.6027376442947
 31
0.0
 12
109.4264194545114
 22
310.4013312287237
 32
0.0
 13
109.9797777314329
 23
312.4303115774349
 33
0.0
  0
SOLID
  5
198E
330
1F
100
AcDbEntity
  8
LOGO
 62
     5
100
AcDbTrace
 10
110.2087535701592
 20
312.8501006150992
 30
0.0
 11
110.7621118470802
 21
312.8501006150995
 31
0.0
 12
110.2087535701592
 22
308.022526681959
 32
0.0
 13
110.7621118470802
 23
310.0515070306702
 33
0.0
  0
SOLID
  5
198F
330
1F
100
AcDbEntity
  8
LOGO
 62
     2
100
AcDbTrace
 10
109.9797777314329
 20
312.8501006150992
 30
0.0
 11
110.2087535701592
 21
312.8501006150992
 31
0.0
 12
109.9797777314329
 22
307.6027376442947
 32
0.0
 13
110.2087535701592
 23
307.6027376442947
 33
0.0
  0
SOLID
  5
1990
330
1F
100
AcDbEntity
  8
LOGO
 62
     5
100
AcDbTrace
 10
110.2087535701592
 20
308.022526681959
 30
0.0
 11
110.7621118470802
 21
310.0515070306702
 31
0.0
 12
112.8419757155081
 22
312.8501006150995
 32
0.0
 13
112.2886174385872
 23
312.8501006150995
 33
0.0
  0
SOLID
  5
1991
330
1F
100
AcDbEntity
  8
LOGO
 62
     5
100
AcDbTrace
 10
110.2087535701592
 20
307.6027376442947
 30
0.0
 11
110.7621118470802
 21
307.6027376442947
 31
0.0
 12
112.8419757155081
 22
312.4303115774349
 32
0.0
 13
112.2886174385872
 23
310.4013312287237
 33
0.0
  0
SOLID
  5
1992
330
1F
100
AcDbEntity
  8
LOGO
 62
     2
100
AcDbTrace
 10
109.9797777314329
 20
307.6027376442947
 30
0.0
 11
110.2087535701592
 21
307.6027376442947
 31
0.0
 12
112.8419757155081
 22
312.8501006150995
 32
0.0
 13
113.0709515542344
 23
312.8501006150992
 33
0.0
  0
LWPOLYLINE
  5
1993
330
1F
100
AcDbEntity
  8
LOGO
 62
     4
100
AcDbPolyline
 90
        4
 70
     1
 43
0.0
 10
105.236393220566
 20
313.1541159020645
 10
281.2363932205661
 20
313.1541159020645
 10
281.2363932205661
 20
300.3559692957294
 10
105.236393220566
 20
300.3559692957294
1001
GENIUS_GENREC_14
1002
{
1000
PYDIR
1011
105.236393220566
1021
300.3559692957294
1031
0.0
1002
}
1002
{
1000
PXDIR
1011
281.2363932205661
1021
313.1541159020645
1031
0.0
1002
}
1002
{
1000
PORI
1011
105.236393220566
1021
313.1541159020645
1031
0.0
1002
}
1002
{
1000
PINS
1011
105.236393220566
1021
313.1541159020645
1031
0.0
1002
}
1002
{
1000
PINS2
1011
281.2363932205661
1021
300.3559692957294
1031
0.0
1002
}
1002
{
1000
C
1070
     1
1002
}
1001
GENIUS_GENOBJ-N-REC_13
1002
{
1000
OWNER
1000
GEN
1002
}
1001
GENIUS_GENODEF_13
1002
{
1000
HIER
1070
     0
1002
}
1002
{
1000
MANEDIT
1070
     0
1002
}
1002
{
1000
NOSEL
1070
     0
1002
}
1002
{
1000
BEHIND
1070
     0
1002
}
1002
{
1000
OTHER
1070
     0
1002
}
1002
{
1000
REACTOR
1002
}
  0
LINE
  5
1994
330
1F
100
AcDbEntity
  8
LOGO
 62
     4
100
AcDbLine
 10
159.5276961384914
 20
306.1151352685805
 30
0.0
 11
159.5276961384914
 21
301.4224815129241
 31
0.0
  0
LINE
  5
1995
330
1F
100
AcDbEntity
  8
LOGO
 62
     4
100
AcDbLine
 10
150.9955984009348
 20
306.1151352685805
 30
0.0
 11
150.9955984009348
 21
301.4224815129241
 31
0.0
  0
LINE
  5
1996
330
1F
100
AcDbEntity
  8
LOGO
 62
     4
100
AcDbLine
 10
159.5276961384914
 20
301.4224815129241
 30
0.0
 11
150.9955984009348
 21
301.4224815129241
 31
0.0
  0
LINE
  5
1997
330
1F
100
AcDbEntity
  8
LOGO
 62
     4
100
AcDbLine
 10
161.058018542634
 20
311.8743012414309
 30
0.0
 11
150.9955984009348
 21
311.8743012414309
 31
0.0
  0
LINE
  5
1998
330
1F
100
AcDbEntity
  8
LOGO
 62
     4
100
AcDbLine
 10
161.058018542634
 20
308.0348572595306
 30
0.0
 11
150.9955984009348
 21
308.0348572595306
 31
0.0
  0
LINE
  5
1999
330
1F
100
AcDbEntity
  8
LOGO
 62
     4
100
AcDbLine
 10
150.9955984009348
 20
311.8743012414309
 30
0.0
 11
150.9955984009348
 21
308.0348572595306
 31
0.0
  0
LINE
  5
199A
330
1F
100
AcDbEntity
  8
LOGO
 62
     4
100
AcDbLine
 10
161.058018542634
 20
311.8743012414309
 30
0.0
 11
161.058018542634
 21
308.0348572595306
 31
0.0
  0
LINE
  5
199B
330
1F
100
AcDbEntity
  8
LOGO
 62
     4
100
AcDbLine
 10
155.7068084717844
 20
308.0348572595306
 30
0.0
 11
155.7068084717844
 21
306.1151352685805
 31
0.0
  0
TEXT
  5
199C
330
1F
100
AcDbEntity
  8
LOGO
  6
Continuous
 62
     7
100
AcDbText
 10
152.8493658880085
 20
308.8363355774857
 30
0.0
 40
2.24
  1
RCE
  7
CHINESET
100
AcDbText
  0
LINE
  5
199D
330
1F
100
AcDbEntity
  8
LOGO
 62
     4
100
AcDbLine
 10
159.5276961384914
 20
306.1151352685805
 30
0.0
 11
150.9955984009348
 21
306.1151352685805
 31
0.0
  0
TEXT
  5
199E
330
1F
100
AcDbEntity
  8
LOGO
  6
Continuous
100
AcDbText
 10
153.7335215527063
 20
302.0848396395316
 30
83.87694448643188
 40
0.9600000000000001
  1
Model
 41
0.8
  7
CHINESET
100
AcDbText
  0
TEXT
  5
199F
330
1F
100
AcDbEntity
  8
LOGO
100
AcDbText
 10
153.4780007603868
 20
303.8644727447651
 30
83.87694448643188
 40
1.6
  1
型號
  7
CHINESET
100
AcDbText
  0
TEXT
  5
19D3
330
1F
100
AcDbEntity
  8
LOGO
100
AcDbText
 10
133.8146318662282
 20
301.0368256438393
 30
0.0
 40
1.28
  1
20808262
 41
0.7
  7
CHINESET
 72
     1
 11
137.0999651995615
 21
301.0368256438393
 31
0.0
100
AcDbText
  0
LINE
  5
19D4
330
1F
100
AcDbEntity
  8
LOGO
 62
     4
100
AcDbLine
 10
141.0723157545021
 20
302.9155986169969
 30
0.0
 11
141.0723157545027
 21
300.3559692957297
 31
0.0
  0
LINE
  5
19D5
330
1F
100
AcDbEntity
  8
LOGO
 62
     4
100
AcDbLine
 10
141.0723157545021
 20
302.9155986169969
 30
0.0
 11
133.3923157545027
 21
302.9155986169969
 31
0.0
  0
CIRCLE
  5
19D6
330
1F
100
AcDbEntity
  8
LOGO
  6
Continuous
100
AcDbCircle
 10
127.2299549377962
 20
309.3174094530886
 30
0.0
 40
0.7430905154052043
  0
CIRCLE
  5
19D7
330
1F
100
AcDbEntity
  8
LOGO
  6
Continuous
100
AcDbCircle
 10
127.2299549377962
 20
309.3174094530886
 30
0.0
 40
0.4353852599459822
  0
LINE
  5
19D8
330
1F
100
AcDbEntity
  8
LOGO
100
AcDbLine
 10
131.8996219611796
 20
308.5743189376833
 30
0.0
 11
131.8996219611796
 21
310.060499968494
 31
0.0
  0
LINE
  5
19D9
330
1F
100
AcDbEntity
  8
LOGO
100
AcDbLine
 10
129.5700758508153
 20
308.8820241931427
 30
0.0
 11
129.5700758508153
 21
309.7527947130347
 31
0.0
  0
LINE
  5
19DA
330
1F
100
AcDbEntity
  8
LOGO
  6
Continuous
100
AcDbLine
 10
129.5700758508153
 20
309.7527947130347
 30
0.0
 11
131.8996219611796
 21
310.060499968494
 31
0.0
  0
LINE
  5
19DB
330
1F
100
AcDbEntity
  8
LOGO
  6
Continuous
100
AcDbLine
 10
129.5700758508153
 20
308.8820241931427
 30
0.0
 11
131.8996219611796
 21
308.5743189376833
 31
0.0
  0
LINE
  5
19DC
330
1F
100
AcDbEntity
  8
LOGO
  6
AM_ISO08W050x2
 48
0.3
100
AcDbLine
 10
126.2055935354059
 20
309.3174094530886
 30
0.0
 11
128.2543163401866
 21
309.3174094530886
 31
0.0
1001
GENIUS_GENOREF_13
1005
19E1
  0
LINE
  5
19DD
330
1F
100
AcDbEntity
  8
LOGO
  6
AM_ISO08W050x2
 48
0.3
100
AcDbLine
 10
127.2299549377962
 20
308.2930480506982
 30
0.0
 11
127.2299549377962
 21
310.341770855479
 31
0.0
1001
GENIUS_GENOREF_13
1005
19E0
  0
LINE
  5
19DE
330
1F
100
AcDbEntity
  8
LOGO
  6
CENTER
 48
0.5
100
AcDbLine
 10
129.3837769114173
 20
309.3174094530886
 30
0.0
 11
132.1341997133637
 21
309.3174094530886
 31
0.0
1001
GENIUS_GENOREF_13
1005
19DF
  0
POINT
  5
19DF
330
1F
100
AcDbEntity
  8
0
 60
     1
100
AcDbPoint
 10
-1987.641919368515
 20
-658.2617054303233
 30
0.0
1001
GENIUS_GENOBJ-N-CRS_13
1002
{
1000
OWNER
1000
GEN
1002
}
1001
GENIUS_GENOLIS_13
1002
{
1000
ENT
1005
0
1005
0
1005
0
1005
19DE
1002
}
1001
GENIUS_GENOENT_13
1002
{
1000
MYREF
1005
19DF
1002
}
1002
{
1000
GRP
1005
0
1002
}
1001
GENIUS_GENODEF_13
1002
{
1000
HIER
1070
    10
1002
}
1002
{
1000
MANEDIT
1070
     1
1002
}
1002
{
1000
NOSEL
1070
     0
1002
}
1002
{
1000
BEHIND
1070
     0
1002
}
1002
{
1000
OTHER
1070
     0
1002
}
1002
{
1000
REACTOR
1002
}
  0
POINT
  5
19E0
330
1F
100
AcDbEntity
  8
0
 60
     1
100
AcDbPoint
 10
-1998.966504591369
 20
-649.386118951687
 30
0.0
1001
GENIUS_GENOBJ-N-CRS_13
1002
{
1000
OWNER
1000
GEN
1002
}
1001
GENIUS_GENOLIS_13
1002
{
1000
ENT
1005
0
1005
0
1005
0
1005
19DD
1002
}
1001
GENIUS_GENOENT_13
1002
{
1000
MYREF
1005
19E0
1002
}
1002
{
1000
GRP
1005
0
1002
}
1001
GENIUS_GENODEF_13
1002
{
1000
HIER
1070
    10
1002
}
1002
{
1000
MANEDIT
1070
     1
1002
}
1002
{
1000
NOSEL
1070
     0
1002
}
1002
{
1000
BEHIND
1070
     0
1002
}
1002
{
1000
OTHER
1070
     0
1002
}
1002
{
1000
REACTOR
1002
}
  0
POINT
  5
19E1
330
1F
100
AcDbEntity
  8
0
 60
     1
100
AcDbPoint
 10
-1992.607830893533
 20
-658.2617054303233
 30
0.0
1001
GENIUS_GENOBJ-N-CRS_13
1002
{
1000
OWNER
1000
GEN
1002
}
1001
GENIUS_GENOLIS_13
1002
{
1000
ENT
1005
0
1005
0
1005
0
1005
19DC
1002
}
1001
GENIUS_GENOENT_13
1002
{
1000
MYREF
1005
19E1
1002
}
1002
{
1000
GRP
1005
0
1002
}
1001
GENIUS_GENODEF_13
1002
{
1000
HIER
1070
    10
1002
}
1002
{
1000
MANEDIT
1070
     1
1002
}
1002
{
1000
NOSEL
1070
     0
1002
}
1002
{
1000
BEHIND
1070
     0
1002
}
1002
{
1000
OTHER
1070
     0
1002
}
1002
{
1000
REACTOR
1002
}
  0
LINE
  5
1F1C
330
1F
100
AcDbEntity
  8
0
  6
Continuous
 62
     7
370
     9
100
AcDbLine
 10
239.2250505719148
 20
382.8582483659626
 30
0.0
 11
239.2250505719148
 21
386.9134354536667
 31
0.0
  0
LINE
  5
1F1D
330
1F
100
AcDbEntity
  8
0
370
     9
100
AcDbLine
 10
270.2250505719149
 20
388.4358419098147
 30
0.0
 11
270.2250505719149
 21
381.6858419098147
 31
0.0
  0
LINE
  5
1F1E
330
1F
100
AcDbEntity
  8
0
370
     9
100
AcDbLine
 10
268.2250505719149
 20
388.4358419098147
 30
0.0
 11
267.0858944901579
 21
388.4358419098147
 31
0.0
  0
LINE
  5
1F1F
330
1F
100
AcDbEntity
  8
0
370
     9
100
AcDbLine
 10
268.2250505719149
 20
381.6858419098147
 30
0.0
 11
267.0858944901579
 21
381.6858419098147
 31
0.0
  0
LINE
  5
1F20
330
1F
100
AcDbEntity
  8
0
370
     9
100
AcDbLine
 10
266.7250505719149
 20
389.0608419098147
 30
0.0
 11
267.0858944901579
 21
388.4358419098147
 31
0.0
  0
LINE
  5
1F21
330
1F
100
AcDbEntity
  8
0
370
     9
100
AcDbLine
 10
266.7250505719149
 20
389.0608419098147
 30
0.0
 11
266.3642066536714
 21
388.4358419098147
 31
0.0
  0
LINE
  5
1F22
330
1F
100
AcDbEntity
  8
0
370
     9
100
AcDbLine
 10
265.7250505719144
 20
389.0608419098147
 30
0.0
 11
266.0858944901585
 21
388.4358419098147
 31
0.0
  0
LINE
  5
1F23
330
1F
100
AcDbEntity
  8
0
370
     9
100
AcDbLine
 10
266.3642066536714
 20
388.4358419098147
 30
0.0
 11
266.0858944901585
 21
388.4358419098147
 31
0.0
  0
LINE
  5
1F24
330
1F
100
AcDbEntity
  8
0
370
     9
100
AcDbLine
 10
265.7250505719144
 20
389.0608419098147
 30
0.0
 11
265.3642066536715
 21
388.4358419098147
 31
0.0
  0
LINE
  5
1F25
330
1F
100
AcDbEntity
  8
0
370
     9
100
AcDbLine
 10
265.3642066536715
 20
388.4358419098147
 30
0.0
 11
264.2250505719145
 21
388.4358419098147
 31
0.0
  0
LINE
  5
1F26
330
1F
100
AcDbEntity
  8
0
370
     9
100
AcDbLine
 10
265.7250505719144
 20
381.0608419098145
 30
0.0
 11
266.0858944901585
 21
381.6858419098144
 31
0.0
  0
LINE
  5
1F27
330
1F
100
AcDbEntity
  8
0
370
     9
100
AcDbLine
 10
266.3642066536714
 20
381.6858419098144
 30
0.0
 11
266.7250505719149
 21
381.0608419098145
 31
0.0
  0
LINE
  5
1F28
330
1F
100
AcDbEntity
  8
0
370
     9
100
AcDbLine
 10
266.7250505719149
 20
381.0608419098145
 30
0.0
 11
267.0858944901579
 21
381.6858419098144
 31
0.0
  0
LINE
  5
1F29
330
1F
100
AcDbEntity
  8
0
370
     9
100
AcDbLine
 10
266.3642066536714
 20
381.6858419098147
 30
0.0
 11
266.0858944901585
 21
381.6858419098147
 31
0.0
  0
LINE
  5
1F2A
330
1F
100
AcDbEntity
  8
0
370
     9
100
AcDbLine
 10
265.3642066536715
 20
381.6858419098144
 30
0.0
 11
265.7250505719144
 21
381.0608419098145
 31
0.0
  0
LINE
  5
1F2B
330
1F
100
AcDbEntity
  8
0
370
     9
100
AcDbLine
 10
264.364206653671
 20
381.6858419098147
 30
0.0
 11
264.7250505719151
 21
381.0608419098145
 31
0.0
  0
LINE
  5
1F2C
330
1F
100
AcDbEntity
  8
0
370
     9
100
AcDbLine
 10
264.364206653671
 20
381.6858419098147
 30
0.0
 11
264.2250505719145
 21
381.6858419098147
 31
0.0
  0
LINE
  5
1F2D
330
1F
100
AcDbEntity
  8
0
370
     9
100
AcDbLine
 10
264.7250505719151
 20
381.0608419098145
 30
0.0
 11
265.0858944901585
 21
381.6858419098147
 31
0.0
  0
LINE
  5
1F2E
330
1F
100
AcDbEntity
  8
0
370
     9
100
AcDbLine
 10
265.3642066536715
 20
381.6858419098147
 30
0.0
 11
265.0858944901585
 21
381.6858419098147
 31
0.0
  0
LINE
  5
1F2F
330
1F
100
AcDbEntity
  8
0
370
     9
100
AcDbLine
 10
266.7250505719149
 20
389.0608419098147
 30
0.0
 11
265.7250505719144
 21
381.0608419098145
 31
0.0
  0
LINE
  5
1F30
330
1F
100
AcDbEntity
  8
0
370
     9
100
AcDbLine
 10
267.6469255719144
 20
388.4358419098147
 30
0.0
 11
266.7250505719149
 21
381.0608419098145
 31
0.0
  0
LINE
  5
1F31
330
1F
100
AcDbEntity
  8
0
370
     9
100
AcDbLine
 10
264.2250505719145
 20
389.5608419098147
 30
0.0
 11
264.2250505719145
 21
380.5608419098145
 31
0.0
  0
LINE
  5
1F32
330
1F
100
AcDbEntity
  8
0
370
     9
100
AcDbLine
 10
265.7250505719144
 20
389.0608419098147
 30
0.0
 11
264.7250505719151
 21
381.0608419098145
 31
0.0
  0
LINE
  5
1F33
330
1F
100
AcDbEntity
  8
0
370
     9
100
AcDbLine
 10
268.2250505719149
 20
388.7358419098146
 30
0.0
 11
268.2250505719149
 21
381.3858419098145
 31
0.0
  0
LINE
  5
1F34
330
1F
100
AcDbEntity
  8
0
370
     9
100
AcDbLine
 10
270.2250505719149
 20
388.4358419098147
 30
0.0
 11
268.2250505719149
 21
388.7358419098146
 31
0.0
  0
LINE
  5
1F35
330
1F
100
AcDbEntity
  8
0
370
     9
100
AcDbLine
 10
270.2250505719149
 20
381.6858419098147
 30
0.0
 11
268.2250505719149
 21
381.3858419098145
 31
0.0
  0
LINE
  5
1F36
330
1F
100
AcDbEntity
  8
0
370
     9
100
AcDbLine
 10
248.2250505719145
 20
389.5608419098147
 30
0.0
 11
248.2250505719145
 21
386.0608419098146
 31
0.0
  0
LINE
  5
1F37
330
1F
100
AcDbEntity
  8
0
370
     9
100
AcDbLine
 10
248.2250505719145
 20
384.0608419098145
 30
0.0
 11
248.2250505719145
 21
380.5608419098145
 31
0.0
  0
LINE
  5
1F38
330
1F
100
AcDbEntity
  8
0
370
     9
100
AcDbLine
 10
246.7250505719146
 20
389.3941752431479
 30
0.0
 11
246.7250505719146
 21
386.0608419098146
 31
0.0
  0
LINE
  5
1F39
330
1F
100
AcDbEntity
  8
0
370
     9
100
AcDbLine
 10
246.7250505719146
 20
384.0608419098145
 30
0.0
 11
246.7250505719146
 21
380.7275085764812
 31
0.0
  0
LINE
  5
1F3A
330
1F
100
AcDbEntity
  8
0
370
     9
100
AcDbLine
 10
248.2250505719145
 20
386.0608419098146
 30
0.0
 11
246.7250505719146
 21
386.0608419098146
 31
0.0
  0
LINE
  5
1F3B
330
1F
100
AcDbEntity
  8
0
370
     9
100
AcDbLine
 10
248.2250505719145
 20
384.0608419098145
 30
0.0
 11
246.7250505719146
 21
384.0608419098145
 31
0.0
  0
LINE
  5
1F3C
330
1F
100
AcDbEntity
  8
0
370
     9
100
AcDbLine
 10
239.2250505719149
 20
387.1233420089526
 30
0.0
 11
239.2250505719149
 21
382.6483418106765
 31
0.0
  0
LINE
  5
1F3D
330
1F
100
AcDbEntity
  8
0
370
     9
100
AcDbLine
 10
242.2250505719147
 20
384.0608419098145
 30
0.0
 11
240.7250505719148
 21
384.0608419098145
 31
0.0
  0
LINE
  5
1F3E
330
1F
100
AcDbEntity
  8
0
370
     9
100
AcDbLine
 10
242.2250505719147
 20
386.0608419098146
 30
0.0
 11
240.7250505719148
 21
386.0608419098146
 31
0.0
  0
LINE
  5
1F3F
330
1F
100
AcDbEntity
  8
0
370
     9
100
AcDbLine
 10
239.2250505719149
 20
388.5608419098147
 30
0.0
 11
240.7250505719148
 21
388.7275085764812
 31
0.0
  0
LINE
  5
1F40
330
1F
100
AcDbEntity
  8
0
370
     9
100
AcDbLine
 10
240.7250505719148
 20
388.7275085764812
 30
0.0
 11
240.7250505719148
 21
386.0608419098146
 31
0.0
  0
LINE
  5
1F41
330
1F
100
AcDbEntity
  8
0
370
     9
100
AcDbLine
 10
242.2250505719147
 20
388.8941752431479
 30
0.0
 11
242.2250505719147
 21
386.0608419098146
 31
0.0
  0
LINE
  5
1F42
330
1F
100
AcDbEntity
  8
0
370
     9
100
AcDbLine
 10
239.2250505719149
 20
381.5608419098144
 30
0.0
 11
240.7250505719148
 21
381.3941752431479
 31
0.0
  0
LINE
  5
1F43
330
1F
100
AcDbEntity
  8
0
370
     9
100
AcDbLine
 10
245.2250505719146
 20
389.2275085764813
 30
0.0
 11
245.2250505719146
 21
380.8941752431479
 31
0.0
  0
LINE
  5
1F44
330
1F
100
AcDbEntity
  8
0
370
     9
100
AcDbLine
 10
243.7250505719147
 20
389.0608419098147
 30
0.0
 11
243.7250505719147
 21
381.0608419098145
 31
0.0
  0
LINE
  5
1F45
330
1F
100
AcDbEntity
  8
0
370
     9
100
AcDbLine
 10
239.2250505719149
 20
388.5608419098147
 30
0.0
 11
239.2250505719149
 21
381.5608419098144
 31
0.0
  0
LINE
  5
1F46
330
1F
100
AcDbEntity
  8
0
370
     9
100
AcDbLine
 10
240.7250505719148
 20
384.0608419098145
 30
0.0
 11
240.7250505719148
 21
381.3941752431479
 31
0.0
  0
LINE
  5
1F47
330
1F
100
AcDbEntity
  8
0
370
     9
100
AcDbLine
 10
242.2250505719147
 20
384.0608419098145
 30
0.0
 11
242.2250505719147
 21
381.2275085764812
 31
0.0
  0
LINE
  5
1F48
330
1F
100
AcDbEntity
  8
0
370
     9
100
AcDbLine
 10
242.2250505719147
 20
388.8941752431479
 30
0.0
 11
246.7250505719146
 21
389.3941752431479
 31
0.0
  0
LINE
  5
1F49
330
1F
100
AcDbEntity
  8
0
370
     9
100
AcDbLine
 10
242.2250505719147
 20
381.2275085764812
 30
0.0
 11
246.7250505719146
 21
380.7275085764812
 31
0.0
  0
LINE
  5
1F4A
330
1F
100
AcDbEntity
  8
0
370
     9
100
AcDbLine
 10
264.2250505719145
 20
380.5608419098145
 30
0.0
 11
248.2250505719145
 21
380.5608419098145
 31
0.0
  0
LINE
  5
1F4B
330
1F
100
AcDbEntity
  8
0
370
     9
100
AcDbLine
 10
264.2250505719145
 20
389.5608419098147
 30
0.0
 11
248.2250505719145
 21
389.5608419098147
 31
0.0
  0
ARC
  5
1F4C
330
1F
100
AcDbEntity
  8
0
  6
Continuous
 62
     7
370
     9
100
AcDbCircle
 10
235.8171954851508
 20
385.9249458550829
 30
0.0
 40
1.209152595828989
100
AcDbArc
 50
153.6917871835371
 51
225.0
  0
ARC
  5
1F4D
330
1F
100
AcDbEntity
  8
0
  6
Continuous
 62
     7
370
     9
100
AcDbCircle
 10
234.3613891816243
 20
385.9067379645464
 30
0.0
 40
1.209152595828989
100
AcDbArc
 50
152.7252385029191
 51
225.0
  0
ARC
  5
1F4E
330
1F
100
AcDbEntity
  8
0
  6
Continuous
 62
     7
370
     9
100
AcDbCircle
 10
232.6513891816243
 20
384.1967379645465
 30
0.0
 40
1.209152595829016
100
AcDbArc
 50
333.6917871835408
 51
45.0
  0
ARC
  5
1F4F
330
1F
100
AcDbEntity
  8
0
  6
Continuous
 62
     7
370
     9
100
AcDbCircle
 10
234.1071954851508
 20
384.2149458550829
 30
0.0
 40
1.209152595829016
100
AcDbArc
 50
332.7252385029228
 51
45.0
  0
LINE
  5
1F50
330
1F
100
AcDbEntity
  8
0
 62
     7
370
     9
100
AcDbLine
 10
240.7250505719148
 20
386.4608419098147
 30
0.0
 11
242.2250505719147
 21
386.4608419098147
 31
0.0
  0
LINE
  5
1F51
330
1F
100
AcDbEntity
  8
0
 62
     7
370
     9
100
AcDbLine
 10
243.7250505719147
 20
386.4608419098147
 30
0.0
 11
245.2250505719146
 21
386.4608419098147
 31
0.0
  0
LINE
  5
1F52
330
1F
100
AcDbEntity
  8
0
 62
     7
370
     9
100
AcDbLine
 10
246.7250505719146
 20
386.4608419098147
 30
0.0
 11
248.2250505719145
 21
386.4608419098147
 31
0.0
  0
LINE
  5
1F53
330
1F
100
AcDbEntity
  8
0
 62
     7
370
     9
100
AcDbLine
 10
240.7250505719148
 20
383.6608419098147
 30
0.0
 11
242.2250505719147
 21
383.6608419098147
 31
0.0
  0
LINE
  5
1F54
330
1F
100
AcDbEntity
  8
0
 62
     7
370
     9
100
AcDbLine
 10
243.7250505719147
 20
383.6608419098147
 30
0.0
 11
245.2250505719146
 21
383.6608419098147
 31
0.0
  0
LINE
  5
1F55
330
1F
100
AcDbEntity
  8
0
 62
     7
370
     9
100
AcDbLine
 10
246.7250505719146
 20
383.6608419098147
 30
0.0
 11
248.2250505719145
 21
383.6608419098147
 31
0.0
  0
LINE
  5
1F56
330
1F
100
AcDbEntity
  8
0
 62
     7
370
     9
100
AcDbLine
 10
227.2169222157056
 20
386.4608419098147
 30
0.0
 11
233.2866711637992
 21
386.4608419098147
 31
0.0
  0
LINE
  5
1F57
330
1F
100
AcDbEntity
  8
0
 62
     7
370
     9
100
AcDbLine
 10
234.7332833953009
 20
386.4608419098147
 30
0.0
 11
239.2250505719148
 21
386.4608419098147
 31
0.0
  0
LINE
  5
1F58
330
1F
100
AcDbEntity
  8
0
 62
     7
370
     9
100
AcDbLine
 10
227.2169222157056
 20
383.6608419098147
 30
0.0
 11
233.7353012714743
 21
383.6608419098147
 31
0.0
  0
LINE
  5
1F59
330
1F
100
AcDbEntity
  8
0
 62
     7
370
     9
100
AcDbLine
 10
235.1819135029761
 20
383.6608419098147
 30
0.0
 11
239.2250505719148
 21
383.6608419098148
 31
0.0
  0
ARC
  5
1F5A
330
1F
100
AcDbEntity
  8
0
  6
Continuous
 62
     7
370
     9
100
AcDbCircle
 10
157.2486642455281
 20
385.9249458550829
 30
0.0
 40
1.209152595828989
100
AcDbArc
 50
153.6917871835371
 51
225.0
  0
ARC
  5
1F5B
330
1F
100
AcDbEntity
  8
0
  6
Continuous
 62
     7
370
     9
100
AcDbCircle
 10
234.3613891816243
 20
352.3617843081979
 30
0.0
 40
1.209152595828989
100
AcDbArc
 50
152.7252385029191
 51
225.0
  0
ARC
  5
1F5C
330
1F
100
AcDbEntity
  8
0
  6
Continuous
 62
     7
370
     9
100
AcDbCircle
 10
232.6513891816243
 20
350.651784308198
 30
0.0
 40
1.209152595829016
100
AcDbArc
 50
333.6917871835408
 51
45.0
  0
ARC
  5
1F5D
330
1F
100
AcDbEntity
  8
0
  6
Continuous
 62
     7
370
     9
100
AcDbCircle
 10
155.5386642455281
 20
384.2149458550829
 30
0.0
 40
1.209152595829016
100
AcDbArc
 50
332.7252385029228
 51
45.0
  0
LINE
  5
1F5E
330
1F
100
AcDbEntity
  8
0
 62
     7
370
     9
100
AcDbLine
 10
227.2169222157056
 20
352.9158882534663
 30
0.0
 11
233.2866711637992
 21
352.9158882534663
 31
0.0
  0
LINE
  5
1F5F
330
1F
100
AcDbEntity
  8
0
 62
     7
370
     9
100
AcDbLine
 10
157.5500771756646
 20
386.4608419098147
 30
0.0
 11
162.9862199680866
 21
386.4608419098147
 31
0.0
  0
LINE
  5
1F60
330
1F
100
AcDbEntity
  8
0
 62
     7
370
     9
100
AcDbLine
 10
229.1387764340371
 20
350.1158882534663
 30
0.0
 11
233.7353012714743
 21
350.1158882534663
 31
0.0
  0
LINE
  5
1F61
330
1F
100
AcDbEntity
  8
0
 62
     7
370
     9
100
AcDbLine
 10
157.9987072833397
 20
383.6608419098147
 30
0.0
 11
162.9862199680866
 21
383.6608419098147
 31
0.0
  0
LINE
  5
1F62
330
1F
100
AcDbEntity
  8
0
 62
     7
370
     9
100
AcDbLine
 10
227.2169222157056
 20
350.1158882534662
 30
0.0
 11
229.1387764340371
 21
350.1158882534663
 31
0.0
  0
LINE
  5
1F63
330
1F
100
AcDbEntity
  8
0
 62
     7
370
     9
100
AcDbLine
 10
175.9862199680865
 20
385.9358419098147
 30
0.0
 11
175.9862199680865
 21
385.4358419098147
 31
0.0
  0
LINE
  5
1F64
330
1F
100
AcDbEntity
  8
0
 62
     7
370
     9
100
AcDbLine
 10
175.9862199680865
 20
384.1858419098146
 30
0.0
 11
175.9862199680865
 21
384.6858419098147
 31
0.0
  0
LINE
  5
1F65
330
1F
100
AcDbEntity
  8
0
 62
     7
370
     9
100
AcDbLine
 10
171.9862199680865
 20
386.0358419098147
 30
0.0
 11
171.9862199680865
 21
385.2358419098146
 31
0.0
  0
LINE
  5
1F66
330
1F
100
AcDbEntity
  8
0
 62
     7
370
     9
100
AcDbLine
 10
171.9862199680865
 20
384.0858419098148
 30
0.0
 11
171.9862199680865
 21
384.8858419098147
 31
0.0
  0
LINE
  5
1F67
330
1F
100
AcDbEntity
  8
0
 62
     7
370
     9
100
AcDbLine
 10
171.9862199680865
 20
384.1858419098146
 30
0.0
 11
175.9862199680865
 21
384.1858419098146
 31
0.0
  0
LINE
  5
1F68
330
1F
100
AcDbEntity
  8
0
 62
     7
370
     9
100
AcDbLine
 10
171.9862199680865
 20
384.6858419098147
 30
0.0
 11
175.9862199680865
 21
384.6858419098147
 31
0.0
  0
LINE
  5
1F69
330
1F
100
AcDbEntity
  8
0
 62
     7
370
     9
100
AcDbLine
 10
171.9862199680865
 20
385.4358419098147
 30
0.0
 11
175.9862199680865
 21
385.4358419098147
 31
0.0
  0
LINE
  5
1F6A
330
1F
100
AcDbEntity
  8
0
 62
     7
370
     9
100
AcDbLine
 10
171.9862199680865
 20
385.9358419098147
 30
0.0
 11
175.9862199680865
 21
385.9358419098147
 31
0.0
  0
LINE
  5
1F6B
330
1F
100
AcDbEntity
  8
0
 62
     7
370
     9
100
AcDbLine
 10
162.9862199680866
 20
384.8858419098147
 30
0.0
 11
167.5509156971525
 21
384.8858419098147
 31
0.0
  0
LINE
  5
1F6C
330
1F
100
AcDbEntity
  8
0
 62
     7
370
     9
100
AcDbLine
 10
162.9862199680866
 20
384.0858419098146
 30
0.0
 11
167.68809689734
 21
384.0858419098148
 31
0.0
  0
LINE
  5
1F6D
330
1F
100
AcDbEntity
  8
0
 62
     7
370
     9
100
AcDbLine
 10
162.9862199680866
 20
386.0358419098147
 30
0.0
 11
166.9996137100964
 21
386.0358419098146
 31
0.0
  0
LINE
  5
1F6E
330
1F
100
AcDbEntity
  8
0
 62
     7
370
     9
100
AcDbLine
 10
162.9862199680866
 20
385.2358419098146
 30
0.0
 11
167.2725364680975
 21
385.2358419098146
 31
0.0
  0
LINE
  5
1F6F
330
1F
100
AcDbEntity
  8
0
 62
     7
370
     9
100
AcDbLine
 10
169.0167522010059
 20
384.8858419098147
 30
0.0
 11
171.9862199680865
 21
384.8858419098147
 31
0.0
  0
LINE
  5
1F70
330
1F
100
AcDbEntity
  8
0
 62
     7
370
     9
100
AcDbLine
 10
169.1552880097363
 20
384.0858419098146
 30
0.0
 11
171.9862199680865
 21
384.0858419098146
 31
0.0
  0
LINE
  5
1F71
330
1F
100
AcDbEntity
  8
0
 62
     7
370
     9
100
AcDbLine
 10
168.4565758421389
 20
386.0358419098147
 30
0.0
 11
171.9862199680865
 21
386.0358419098147
 31
0.0
  0
LINE
  5
1F72
330
1F
100
AcDbEntity
  8
0
 62
     7
370
     9
100
AcDbLine
 10
168.7436012329554
 20
385.2358419098146
 30
0.0
 11
171.9862199680865
 21
385.2358419098146
 31
0.0
  0
LINE
  5
1F73
330
1F
100
AcDbEntity
  8
0
370
     9
100
AcDbLine
 10
162.9862199680866
 20
386.4608419098147
 30
0.0
 11
162.9862199680866
 21
383.6608419098147
 31
0.0
  0
LINE
  5
1F74
330
1F
100
AcDbEntity
  8
0
370
     9
100
AcDbLine
 10
162.9862199680866
 20
385.9358419098147
 30
0.0
 11
162.9862199680866
 21
384.1858419098146
 31
0.0
  0
ARC
  5
1F75
330
1F
100
AcDbEntity
  8
0
  6
Continuous
 62
     7
370
     9
100
AcDbCircle
 10
168.2068809841715
 20
386.0033380500541
 30
0.0
 40
1.209152595828989
100
AcDbArc
 50
170.1185020473043
 51
225.0
  0
ARC
  5
1F76
330
1F
100
AcDbEntity
  8
0
  6
Continuous
 62
     7
370
     9
100
AcDbCircle
 10
169.6626872876981
 20
386.0215459405905
 30
0.0
 40
1.209152595828989
100
AcDbArc
 50
170.9931475738522
 51
225.0
  0
ARC
  5
1F77
330
1F
100
AcDbEntity
  8
0
  6
Continuous
 62
     7
370
     9
100
AcDbCircle
 10
167.952687287698
 20
384.3115459405905
 30
0.0
 40
1.209152595829016
100
AcDbArc
 50
340.6466871802776
 51
45.0
  0
ARC
  5
1F78
330
1F
100
AcDbEntity
  8
0
  6
Continuous
 62
     7
370
     9
100
AcDbCircle
 10
166.4968809841715
 20
384.293338050054
 30
0.0
 40
1.209152595829016
100
AcDbArc
 50
341.5586319037369
 51
45.0
  0
DIMENSION
  5
1F79
330
1F
100
AcDbEntity
  8
AM_5
100
AcDbDimension
  2
*D2
 10
270.2250505719149
 20
358.2442544631433
 30
0.0
 11
248.7209863938102
 21
360.6942544631432
 31
0.0
 70
    32
  1
150%%p10
 71
     5
 42
43.00812835620928
  3
AM_ISO$0
100
AcDbAlignedDimension
 13
227.2169222157056
 23
350.1158882534662
 33
0.0
 14
270.2250505719149
 24
354.8908882534662
 34
0.0
100
AcDbRotatedDimension
  0
LINE
  5
1F7A
330
1F
100
AcDbEntity
  8
0
  6
Continuous
 62
     7
370
     9
100
AcDbLine
 10
239.2250505719148
 20
349.3132947096142
 30
0.0
 11
239.2250505719148
 21
353.3684817973182
 31
0.0
  0
LINE
  5
1F7B
330
1F
100
AcDbEntity
  8
0
370
     9
100
AcDbLine
 10
270.2250505719149
 20
354.8908882534662
 30
0.0
 11
270.2250505719149
 21
348.1408882534662
 31
0.0
  0
LINE
  5
1F7C
330
1F
100
AcDbEntity
  8
0
370
     9
100
AcDbLine
 10
268.2250505719149
 20
354.8908882534662
 30
0.0
 11
267.0858944901579
 21
354.8908882534662
 31
0.0
  0
LINE
  5
1F7D
330
1F
100
AcDbEntity
  8
0
370
     9
100
AcDbLine
 10
268.2250505719149
 20
348.1408882534662
 30
0.0
 11
267.0858944901579
 21
348.1408882534662
 31
0.0
  0
LINE
  5
1F7E
330
1F
100
AcDbEntity
  8
0
370
     9
100
AcDbLine
 10
266.7250505719149
 20
355.5158882534662
 30
0.0
 11
267.0858944901579
 21
354.8908882534662
 31
0.0
  0
LINE
  5
1F7F
330
1F
100
AcDbEntity
  8
0
370
     9
100
AcDbLine
 10
266.7250505719149
 20
355.5158882534662
 30
0.0
 11
266.3642066536714
 21
354.8908882534662
 31
0.0
  0
LINE
  5
1F80
330
1F
100
AcDbEntity
  8
0
370
     9
100
AcDbLine
 10
265.7250505719144
 20
355.5158882534662
 30
0.0
 11
266.0858944901585
 21
354.8908882534662
 31
0.0
  0
LINE
  5
1F81
330
1F
100
AcDbEntity
  8
0
370
     9
100
AcDbLine
 10
266.3642066536714
 20
354.8908882534662
 30
0.0
 11
266.0858944901585
 21
354.8908882534662
 31
0.0
  0
LINE
  5
1F82
330
1F
100
AcDbEntity
  8
0
370
     9
100
AcDbLine
 10
265.7250505719144
 20
355.5158882534662
 30
0.0
 11
265.3642066536715
 21
354.8908882534662
 31
0.0
  0
LINE
  5
1F83
330
1F
100
AcDbEntity
  8
0
370
     9
100
AcDbLine
 10
265.3642066536715
 20
354.8908882534662
 30
0.0
 11
264.2250505719145
 21
354.8908882534662
 31
0.0
  0
LINE
  5
1F84
330
1F
100
AcDbEntity
  8
0
370
     9
100
AcDbLine
 10
265.7250505719144
 20
347.5158882534661
 30
0.0
 11
266.0858944901585
 21
348.140888253466
 31
0.0
  0
LINE
  5
1F85
330
1F
100
AcDbEntity
  8
0
370
     9
100
AcDbLine
 10
266.3642066536714
 20
348.140888253466
 30
0.0
 11
266.7250505719149
 21
347.5158882534661
 31
0.0
  0
LINE
  5
1F86
330
1F
100
AcDbEntity
  8
0
370
     9
100
AcDbLine
 10
266.7250505719149
 20
347.5158882534661
 30
0.0
 11
267.0858944901579
 21
348.140888253466
 31
0.0
  0
LINE
  5
1F87
330
1F
100
AcDbEntity
  8
0
370
     9
100
AcDbLine
 10
266.3642066536714
 20
348.1408882534662
 30
0.0
 11
266.0858944901585
 21
348.1408882534662
 31
0.0
  0
LINE
  5
1F88
330
1F
100
AcDbEntity
  8
0
370
     9
100
AcDbLine
 10
265.3642066536715
 20
348.140888253466
 30
0.0
 11
265.7250505719144
 21
347.5158882534661
 31
0.0
  0
LINE
  5
1F89
330
1F
100
AcDbEntity
  8
0
370
     9
100
AcDbLine
 10
264.364206653671
 20
348.1408882534662
 30
0.0
 11
264.7250505719151
 21
347.5158882534661
 31
0.0
  0
LINE
  5
1F8A
330
1F
100
AcDbEntity
  8
0
370
     9
100
AcDbLine
 10
264.364206653671
 20
348.1408882534662
 30
0.0
 11
264.2250505719145
 21
348.1408882534662
 31
0.0
  0
LINE
  5
1F8B
330
1F
100
AcDbEntity
  8
0
370
     9
100
AcDbLine
 10
264.7250505719151
 20
347.5158882534661
 30
0.0
 11
265.0858944901585
 21
348.1408882534662
 31
0.0
  0
LINE
  5
1F8C
330
1F
100
AcDbEntity
  8
0
370
     9
100
AcDbLine
 10
265.3642066536715
 20
348.1408882534662
 30
0.0
 11
265.0858944901585
 21
348.1408882534662
 31
0.0
  0
LINE
  5
1F8D
330
1F
100
AcDbEntity
  8
0
370
     9
100
AcDbLine
 10
266.7250505719149
 20
355.5158882534662
 30
0.0
 11
265.7250505719144
 21
347.5158882534661
 31
0.0
  0
LINE
  5
1F8E
330
1F
100
AcDbEntity
  8
0
370
     9
100
AcDbLine
 10
267.6469255719144
 20
354.8908882534662
 30
0.0
 11
266.7250505719149
 21
347.5158882534661
 31
0.0
  0
LINE
  5
1F8F
330
1F
100
AcDbEntity
  8
0
370
     9
100
AcDbLine
 10
264.2250505719145
 20
356.0158882534661
 30
0.0
 11
264.2250505719145
 21
347.0158882534661
 31
0.0
  0
LINE
  5
1F90
330
1F
100
AcDbEntity
  8
0
370
     9
100
AcDbLine
 10
265.7250505719144
 20
355.5158882534662
 30
0.0
 11
264.7250505719151
 21
347.5158882534661
 31
0.0
  0
LINE
  5
1F91
330
1F
100
AcDbEntity
  8
0
370
     9
100
AcDbLine
 10
268.2250505719149
 20
355.1908882534661
 30
0.0
 11
268.2250505719149
 21
347.840888253466
 31
0.0
  0
LINE
  5
1F92
330
1F
100
AcDbEntity
  8
0
370
     9
100
AcDbLine
 10
270.2250505719149
 20
354.8908882534662
 30
0.0
 11
268.2250505719149
 21
355.1908882534661
 31
0.0
  0
LINE
  5
1F93
330
1F
100
AcDbEntity
  8
0
370
     9
100
AcDbLine
 10
270.2250505719149
 20
348.1408882534662
 30
0.0
 11
268.2250505719149
 21
347.840888253466
 31
0.0
  0
LINE
  5
1F94
330
1F
100
AcDbEntity
  8
0
370
     9
100
AcDbLine
 10
248.2250505719145
 20
356.0158882534661
 30
0.0
 11
248.2250505719145
 21
352.5158882534662
 31
0.0
  0
LINE
  5
1F95
330
1F
100
AcDbEntity
  8
0
370
     9
100
AcDbLine
 10
248.2250505719145
 20
350.5158882534661
 30
0.0
 11
248.2250505719145
 21
347.0158882534661
 31
0.0
  0
LINE
  5
1F96
330
1F
100
AcDbEntity
  8
0
370
     9
100
AcDbLine
 10
246.7250505719146
 20
355.8492215867995
 30
0.0
 11
246.7250505719146
 21
352.5158882534662
 31
0.0
  0
LINE
  5
1F97
330
1F
100
AcDbEntity
  8
0
370
     9
100
AcDbLine
 10
246.7250505719146
 20
350.5158882534661
 30
0.0
 11
246.7250505719146
 21
347.1825549201327
 31
0.0
  0
LINE
  5
1F98
330
1F
100
AcDbEntity
  8
0
370
     9
100
AcDbLine
 10
248.2250505719145
 20
352.5158882534662
 30
0.0
 11
246.7250505719146
 21
352.5158882534662
 31
0.0
  0
LINE
  5
1F99
330
1F
100
AcDbEntity
  8
0
370
     9
100
AcDbLine
 10
248.2250505719145
 20
350.5158882534661
 30
0.0
 11
246.7250505719146
 21
350.5158882534661
 31
0.0
  0
LINE
  5
1F9A
330
1F
100
AcDbEntity
  8
0
370
     9
100
AcDbLine
 10
239.2250505719149
 20
353.5783883526042
 30
0.0
 11
239.2250505719149
 21
349.1033881543281
 31
0.0
  0
LINE
  5
1F9B
330
1F
100
AcDbEntity
  8
0
370
     9
100
AcDbLine
 10
242.2250505719147
 20
350.5158882534661
 30
0.0
 11
240.7250505719148
 21
350.5158882534661
 31
0.0
  0
LINE
  5
1F9C
330
1F
100
AcDbEntity
  8
0
370
     9
100
AcDbLine
 10
242.2250505719147
 20
352.5158882534662
 30
0.0
 11
240.7250505719148
 21
352.5158882534662
 31
0.0
  0
LINE
  5
1F9D
330
1F
100
AcDbEntity
  8
0
370
     9
100
AcDbLine
 10
239.2250505719149
 20
355.0158882534662
 30
0.0
 11
240.7250505719148
 21
355.1825549201327
 31
0.0
  0
LINE
  5
1F9E
330
1F
100
AcDbEntity
  8
0
370
     9
100
AcDbLine
 10
240.7250505719148
 20
355.1825549201327
 30
0.0
 11
240.7250505719148
 21
352.5158882534662
 31
0.0
  0
LINE
  5
1F9F
330
1F
100
AcDbEntity
  8
0
370
     9
100
AcDbLine
 10
242.2250505719147
 20
355.3492215867994
 30
0.0
 11
242.2250505719147
 21
352.5158882534662
 31
0.0
  0
LINE
  5
1FA0
330
1F
100
AcDbEntity
  8
0
370
     9
100
AcDbLine
 10
239.2250505719149
 20
348.015888253466
 30
0.0
 11
240.7250505719148
 21
347.8492215867994
 31
0.0
  0
LINE
  5
1FA1
330
1F
100
AcDbEntity
  8
0
370
     9
100
AcDbLine
 10
245.2250505719146
 20
355.6825549201328
 30
0.0
 11
245.2250505719146
 21
347.3492215867994
 31
0.0
  0
LINE
  5
1FA2
330
1F
100
AcDbEntity
  8
0
370
     9
100
AcDbLine
 10
243.7250505719147
 20
355.5158882534662
 30
0.0
 11
243.7250505719147
 21
347.5158882534661
 31
0.0
  0
LINE
  5
1FA3
330
1F
100
AcDbEntity
  8
0
370
     9
100
AcDbLine
 10
239.2250505719149
 20
355.0158882534662
 30
0.0
 11
239.2250505719149
 21
348.015888253466
 31
0.0
  0
LINE
  5
1FA4
330
1F
100
AcDbEntity
  8
0
370
     9
100
AcDbLine
 10
240.7250505719148
 20
350.5158882534661
 30
0.0
 11
240.7250505719148
 21
347.8492215867994
 31
0.0
  0
LINE
  5
1FA5
330
1F
100
AcDbEntity
  8
0
370
     9
100
AcDbLine
 10
242.2250505719147
 20
350.5158882534661
 30
0.0
 11
242.2250505719147
 21
347.6825549201327
 31
0.0
  0
LINE
  5
1FA6
330
1F
100
AcDbEntity
  8
0
370
     9
100
AcDbLine
 10
242.2250505719147
 20
355.3492215867994
 30
0.0
 11
246.7250505719146
 21
355.8492215867995
 31
0.0
  0
LINE
  5
1FA7
330
1F
100
AcDbEntity
  8
0
370
     9
100
AcDbLine
 10
242.2250505719147
 20
347.6825549201327
 30
0.0
 11
246.7250505719146
 21
347.1825549201327
 31
0.0
  0
LINE
  5
1FA8
330
1F
100
AcDbEntity
  8
0
370
     9
100
AcDbLine
 10
264.2250505719145
 20
347.0158882534661
 30
0.0
 11
248.2250505719145
 21
347.0158882534661
 31
0.0
  0
LINE
  5
1FA9
330
1F
100
AcDbEntity
  8
0
370
     9
100
AcDbLine
 10
264.2250505719145
 20
356.0158882534661
 30
0.0
 11
248.2250505719145
 21
356.0158882534661
 31
0.0
  0
ARC
  5
1FAA
330
1F
100
AcDbEntity
  8
0
  6
Continuous
 62
     7
370
     9
100
AcDbCircle
 10
235.8171954851508
 20
352.3799921987344
 30
0.0
 40
1.209152595828989
100
AcDbArc
 50
153.6917871835371
 51
225.0
  0
ARC
  5
1FAB
330
1F
100
AcDbEntity
  8
0
  6
Continuous
 62
     7
370
     9
100
AcDbCircle
 10
234.1071954851508
 20
350.6699921987344
 30
0.0
 40
1.209152595829016
100
AcDbArc
 50
332.7252385029228
 51
45.0
  0
LINE
  5
1FAC
330
1F
100
AcDbEntity
  8
0
 62
     7
370
     9
100
AcDbLine
 10
240.7250505719148
 20
352.9158882534662
 30
0.0
 11
242.2250505719147
 21
352.9158882534663
 31
0.0
  0
LINE
  5
1FAD
330
1F
100
AcDbEntity
  8
0
 62
     7
370
     9
100
AcDbLine
 10
243.7250505719147
 20
352.9158882534662
 30
0.0
 11
245.2250505719146
 21
352.9158882534662
 31
0.0
  0
LINE
  5
1FAE
330
1F
100
AcDbEntity
  8
0
 62
     7
370
     9
100
AcDbLine
 10
246.7250505719146
 20
352.9158882534662
 30
0.0
 11
248.2250505719145
 21
352.9158882534663
 31
0.0
  0
LINE
  5
1FAF
330
1F
100
AcDbEntity
  8
0
 62
     7
370
     9
100
AcDbLine
 10
240.7250505719148
 20
350.1158882534662
 30
0.0
 11
242.2250505719147
 21
350.1158882534662
 31
0.0
  0
LINE
  5
1FB0
330
1F
100
AcDbEntity
  8
0
 62
     7
370
     9
100
AcDbLine
 10
243.7250505719147
 20
350.1158882534662
 30
0.0
 11
245.2250505719146
 21
350.1158882534662
 31
0.0
  0
LINE
  5
1FB1
330
1F
100
AcDbEntity
  8
0
 62
     7
370
     9
100
AcDbLine
 10
246.7250505719146
 20
350.1158882534662
 30
0.0
 11
248.2250505719145
 21
350.1158882534662
 31
0.0
  0
LINE
  5
1FB2
330
1F
100
AcDbEntity
  8
0
 62
     7
370
     9
100
AcDbLine
 10
234.7332833953009
 20
352.9158882534663
 30
0.0
 11
239.2250505719148
 21
352.9158882534663
 31
0.0
  0
LINE
  5
1FB3
330
1F
100
AcDbEntity
  8
0
 62
     7
370
     9
100
AcDbLine
 10
235.1819135029761
 20
350.1158882534662
 30
0.0
 11
239.2250505719148
 21
350.1158882534663
 31
0.0
  0
LINE
  5
1FB4
330
1F
100
AcDbEntity
  8
0
370
     9
100
AcDbLine
 10
127.4778036730761
 20
352.2408882534662
 30
0.0
 11
127.4778036730761
 21
353.2408882534662
 31
0.0
  0
LINE
  5
1FB5
330
1F
100
AcDbEntity
  8
0
370
     9
100
AcDbLine
 10
127.4778036730761
 20
383.0608419098147
 30
0.0
 11
127.4778036730761
 21
387.0608419098147
 31
0.0
  0
LINE
  5
1FB6
330
1F
100
AcDbEntity
  8
0
370
     9
100
AcDbLine
 10
131.4778036730761
 20
383.5108419098147
 30
0.0
 11
131.4778036730761
 21
386.6108419098146
 31
0.0
  0
LINE
  5
1FB7
330
1F
100
AcDbEntity
  8
0
370
     9
100
AcDbLine
 10
151.4778036730761
 20
383.0602320629897
 30
0.0
 11
127.4778036730761
 21
383.0608419098147
 31
0.0
  0
LINE
  5
1FB8
330
1F
100
AcDbEntity
  8
0
370
     9
100
AcDbLine
 10
151.4778036730761
 20
383.5108419098147
 30
0.0
 11
127.4778036730761
 21
383.5108419098147
 31
0.0
  0
LINE
  5
1FB9
330
1F
100
AcDbEntity
  8
0
370
     9
100
AcDbLine
 10
127.4778036730761
 20
386.6108419098146
 30
0.0
 11
151.4778036730761
 21
386.6108419098146
 31
0.0
  0
LINE
  5
1FBA
330
1F
100
AcDbEntity
  8
0
370
     9
100
AcDbLine
 10
151.4778036730761
 20
387.0614517566147
 30
0.0
 11
127.4778036730761
 21
387.0608419098147
 31
0.0
  0
LINE
  5
1FBB
330
1F
100
AcDbEntity
  8
0
370
     9
100
AcDbLine
 10
151.4778036730761
 20
383.0602320629897
 30
0.0
 11
151.4778036730761
 21
387.0614517566147
 31
0.0
  0
CIRCLE
  5
1FBC
330
1F
100
AcDbEntity
  8
0
370
     9
100
AcDbCircle
 10
129.4778036730761
 20
385.0608419098147
 30
0.0
 40
1.3
  0
LINE
  5
1FBD
330
1F
100
AcDbEntity
  8
0
370
     9
100
AcDbLine
 10
127.4778036730761
 20
348.8908882534662
 30
0.0
 11
127.4778036730761
 21
351.2408882534662
 31
0.0
  0
LINE
  5
1FBE
330
1F
100
AcDbEntity
  8
0
370
     9
100
AcDbLine
 10
131.4778036730761
 20
351.2408882534662
 30
0.0
 11
131.4778036730761
 21
352.2408882534662
 31
0.0
  0
LINE
  5
1FBF
330
1F
100
AcDbEntity
  8
0
370
     9
100
AcDbLine
 10
131.4778036730761
 20
353.2408882534662
 30
0.0
 11
131.4778036730761
 21
353.8908882534662
 31
0.0
  0
LINE
  5
1FC0
330
1F
100
AcDbEntity
  8
DEFAULT_2
 48
3.0
370
     9
100
AcDbLine
 10
130.7780526939261
 20
348.8908882534662
 30
0.0
 11
130.7723234564511
 21
348.8908882534662
 31
0.0
  0
LINE
  5
1FC1
330
1F
100
AcDbEntity
  8
0
370
     9
100
AcDbLine
 10
151.4778036730761
 20
348.8908882534662
 30
0.0
 11
130.7780526939261
 21
348.8908882534662
 31
0.0
  0
LINE
  5
1FC2
330
1F
100
AcDbEntity
  8
DEFAULT_2
 48
3.0
370
     9
100
AcDbLine
 10
128.1832836774011
 20
348.8908882534662
 30
0.0
 11
128.1775526558512
 21
348.8908882534662
 31
0.0
  0
LINE
  5
1FC3
330
1F
100
AcDbEntity
  8
0
370
     9
100
AcDbLine
 10
128.1775526558512
 20
348.8908882534662
 30
0.0
 11
127.4778036730761
 21
348.8908882534662
 31
0.0
  0
LINE
  5
1FC4
330
1F
100
AcDbEntity
  8
0
370
     9
100
AcDbLine
 10
131.4778036730761
 20
351.2408882534662
 30
0.0
 11
127.4778036730761
 21
351.2408882534662
 31
0.0
  0
LINE
  5
1FC5
330
1F
100
AcDbEntity
  8
0
370
     9
100
AcDbLine
 10
131.4778036730761
 20
352.2408882534662
 30
0.0
 11
127.4778036730761
 21
352.2408882534662
 31
0.0
  0
LINE
  5
1FC6
330
1F
100
AcDbEntity
  8
0
370
     9
100
AcDbLine
 10
131.4778036730761
 20
353.2408882534662
 30
0.0
 11
127.4778036730761
 21
353.2408882534662
 31
0.0
  0
LINE
  5
1FC7
330
1F
100
AcDbEntity
  8
0
370
     9
100
AcDbLine
 10
151.4778036730761
 20
353.8908882534662
 30
0.0
 11
131.4778036730761
 21
353.8908882534662
 31
0.0
  0
LINE
  5
1FC8
330
1F
100
AcDbEntity
  8
0
370
     9
100
AcDbLine
 10
151.4778036730761
 20
348.8908882534662
 30
0.0
 11
151.4778036730761
 21
353.8908882534662
 31
0.0
  0
SPLINE
  5
1FC9
330
1F
100
AcDbEntity
  8
DEFAULT_2
 48
3.0
370
     9
100
AcDbSpline
210
0.0
220
0.0
230
1.0
 70
     8
 71
     3
 72
     8
 73
     4
 74
     2
 42
0.0000000001
 43
0.0000000001
 44
0.0000000001
 12
0.8451040590166007
 22
-0.5346018419662112
 32
0.0
 13
-0.4827628273608195
 23
-0.8757511361788735
 33
0.0
 40
0.0
 40
0.0
 40
0.0
 40
0.0
 40
0.0042563040375404
 40
0.0042563040375404
 40
0.0042563040375404
 40
0.0042563040375404
 10
130.7724700717511
 20
348.8942663822162
 30
0.0
 10
130.7736690783573
 20
348.8935079062234
 30
0.0
 10
130.7767482046832
 20
348.8932274217652
 30
0.0
 10
130.7760632762262
 20
348.8919849340663
 30
0.0
 11
130.7724700717511
 21
348.8942663822162
 31
0.0
 11
130.7760632762262
 21
348.8919849340663
 31
0.0
  0
SPLINE
  5
1FCA
330
1F
100
AcDbEntity
  8
DEFAULT_2
 48
3.0
370
     9
100
AcDbSpline
210
0.0
220
0.0
230
1.0
 70
     8
 71
     3
 72
     9
 73
     5
 74
     3
 42
0.0000000001
 43
0.0000000001
 44
0.0000000001
 12
0.8463944276438681
 22
-0.5325565442780786
 32
0.0
 13
0.8451040591771674
 23
-0.5346018417123855
 33
0.0
 40
0.0
 40
0.0
 40
0.0
 40
0.0
 40
0.0133048527677887
 40
0.0136565857312191
 40
0.0136565857312191
 40
0.0136565857312191
 40
0.0136565857312191
 10
130.7609200583512
 20
348.9015533237912
 30
0.0
 10
130.7646737760989
 20
348.8991914616538
 30
0.0
 10
130.7685238333298
 20
348.8967625528449
 30
0.0
 10
130.7723709880994
 20
348.8943290612462
 30
0.0
 10
130.7724700717511
 20
348.8942663822162
 30
0.0
 11
130.7609200583512
 21
348.9015533237912
 31
0.0
 11
130.7721728149511
 21
348.8944544100663
 31
0.0
 11
130.7724700717511
 21
348.8942663822162
 31
0.0
  0
SPLINE
  5
1FCB
330
1F
100
AcDbEntity
  8
DEFAULT_2
 48
3.0
370
     9
100
AcDbSpline
210
0.0
220
0.0
230
1.0
 70
     8
 71
     3
 72
     8
 73
     4
 74
     2
 42
0.0000000001
 43
0.0000000001
 44
0.0000000001
 12
0.8503474161623728
 22
-0.5262216945603598
 32
0.0
 13
0.8463944273434156
 23
-0.5325565447555892
 33
0.0
 40
0.0
 40
0.0
 40
0.0
 40
0.0
 40
0.0404157878553918
 40
0.0404157878553918
 40
0.0404157878553918
 40
0.0404157878553918
 10
130.7266328546011
 20
348.9229501358662
 30
0.0
 10
130.7380886748594
 20
348.9158609144088
 30
0.0
 10
130.7495174924787
 20
348.9087278879025
 30
0.0
 10
130.7609200583512
 20
348.9015533237912
 30
0.0
 11
130.7266328546011
 21
348.9229501358662
 31
0.0
 11
130.7609200583512
 21
348.9015533237912
 31
0.0
  0
SPLINE
  5
1FCC
330
1F
100
AcDbEntity
  8
DEFAULT_2
 48
3.0
370
     9
100
AcDbSpline
210
0.0
220
0.0
230
1.0
 70
     8
 71
     3
 72
     9
 73
     5
 74
     3
 42
0.0000000001
 43
0.0000000001
 44
0.0000000001
 12
0.8552296572215571
 22
-0.5182492001042528
 32
0.0
 13
0.850347415962007
 23
-0.5262216948841403
 33
0.0
 40
0.0
 40
0.0
 40
0.0
 40
0.0
 40
0.0477726951224259
 40
0.0484723475705459
 40
0.0484723475705459
 40
0.0484723475705459
 40
0.0484723475705459
 10
130.6852967690261
 20
348.9482660555662
 30
0.0
 10
130.6989156442508
 20
348.9400133352216
 30
0.0
 10
130.7126945350852
 20
348.9315743553742
 30
0.0
 10
130.7264345387173
 20
348.9230728599653
 30
0.0
 10
130.7266328546011
 20
348.9229501358662
 30
0.0
 11
130.6852967690261
 21
348.9482660555662
 31
0.0
 11
130.7260378827261
 21
348.9233182690163
 31
0.0
 11
130.7266328546011
 21
348.9229501358662
 31
0.0
  0
SPLINE
  5
1FCD
330
1F
100
AcDbEntity
  8
DEFAULT_2
 48
3.0
370
     9
100
AcDbSpline
210
0.0
220
0.0
230
1.0
 70
     8
 71
     3
 72
     8
 73
     4
 74
     2
 42
0.0000000001
 43
0.0000000001
 44
0.0000000001
 12
0.8611800650454982
 22
-0.5083000054773084
 32
0.0
 13
0.8552296571131487
 23
-0.5182492002831518
 33
0.0
 40
0.0
 40
0.0
 40
0.0
 40
0.0
 40
0.0566400607813992
 40
0.0566400607813992
 40
0.0566400607813992
 40
0.0566400607813992
 10
130.6366890649261
 20
348.9773416052162
 30
0.0
 10
130.6529481620021
 20
348.9677448908144
 30
0.0
 10
130.6691500157725
 20
348.9580506109676
 30
0.0
 10
130.6852967690261
 20
348.9482660555662
 30
0.0
 11
130.6366890649261
 21
348.9773416052162
 31
0.0
 11
130.6852967690261
 21
348.9482660555662
 31
0.0
  0
SPLINE
  5
1FCE
330
1F
100
AcDbEntity
  8
DEFAULT_2
 48
3.0
370
     9
100
AcDbSpline
210
0.0
220
0.0
230
1.0
 70
     8
 71
     3
 72
     8
 73
     4
 74
     2
 42
0.0000000001
 43
0.0000000001
 44
0.0000000001
 12
0.8723631686130687
 22
-0.4888583660400698
 32
0.0
 13
0.8611800650241567
 23
-0.5083000055134658
 33
0.0
 40
0.0
 40
0.0
 40
0.0
 40
0.0
 40
0.0996228846692156
 40
0.0996228846692156
 40
0.0996228846692156
 40
0.0996228846692156
 10
130.5503443168511
 20
349.0270336934162
 30
0.0
 10
130.5793134286299
 20
349.010799866543
 30
0.0
 10
130.6080913174937
 20
348.9942210428251
 30
0.0
 10
130.6366890649261
 20
348.9773416052162
 30
0.0
 11
130.5503443168511
 21
349.0270336934162
 31
0.0
 11
130.6366890649261
 21
348.9773416052162
 31
0.0
  0
SPLINE
  5
1FCF
330
1F
100
AcDbEntity
  8
DEFAULT_2
 48
3.0
370
     9
100
AcDbSpline
210
0.0
220
0.0
230
1.0
 70
     8
 71
     3
 72
     8
 73
     4
 74
     2
 42
0.0000000001
 43
0.0000000001
 44
0.0000000001
 12
0.8780554361215246
 22
-0.4785589316870382
 32
0.0
 13
0.8723631685932144
 23
-0.4888583660754997
 33
0.0
 40
0.0
 40
0.0
 40
0.0
 40
0.0
 40
0.0481156330958711
 40
0.0481156330958711
 40
0.0481156330958711
 40
0.0481156330958711
 10
130.5082334960511
 20
349.0503101390162
 30
0.0
 10
130.5223162271186
 20
349.042634750359
 30
0.0
 10
130.536352881469
 20
349.0348742700088
 30
0.0
 10
130.5503443168511
 20
349.0270336934162
 30
0.0
 11
130.5082334960511
 21
349.0503101390162
 31
0.0
 11
130.5503443168511
 21
349.0270336934162
 31
0.0
  0
SPLINE
  5
1FD0
330
1F
100
AcDbEntity
  8
DEFAULT_2
 48
3.0
370
     9
100
AcDbSpline
210
0.0
220
0.0
230
1.0
 70
     8
 71
     3
 72
     8
 73
     4
 74
     2
 42
0.0000000001
 43
0.0000000001
 44
0.0000000001
 12
0.9012224301243982
 22
-0.4333568176926195
 32
0.0
 13
0.8780554361692239
 23
-0.4785589315995199
 33
0.0
 40
0.0
 40
0.0
 40
0.0
 40
0.0
 40
0.1811959148087197
 40
0.1811959148087197
 40
0.1811959148087197
 40
0.1811959148087197
 10
130.3470568216511
 20
349.1330992637412
 30
0.0
 10
130.4014894292087
 20
349.1069251020677
 30
0.0
 10
130.4552001433813
 20
349.0792144468166
 30
0.0
 10
130.5082334960511
 20
349.0503101390162
 30
0.0
 11
130.3470568216511
 21
349.1330992637412
 31
0.0
 11
130.5082334960511
 21
349.0503101390162
 31
0.0
  0
SPLINE
  5
1FD1
330
1F
100
AcDbEntity
  8
DEFAULT_2
 48
3.0
370
     9
100
AcDbSpline
210
0.0
220
0.0
230
1.0
 70
     8
 71
     3
 72
    17
 73
    13
 74
    11
 42
0.0000000001
 43
0.0000000001
 44
0.0000000001
 12
0.90122243013781
 22
-0.4333568176647279
 32
0.0
 13
-0.9105379044594389
 23
0.4134255973480763
 33
0.0
 40
0.0
 40
0.0
 40
0.0
 40
0.0
 40
0.1808831682744081
 40
0.3282159909079232
 40
0.433341057851958
 40
0.4877612225420037
 40
0.4881129555054342
 40
0.5418469123320796
 40
0.6468376499834544
 40
0.7948067722029011
 40
0.9763473929968991
 40
1.042662834615966
 40
1.042662834615966
 40
1.042662834615966
 40
1.042662834615966
 10
130.3470568216511
 20
349.1330992637412
 30
0.0
 10
130.4013954778122
 20
349.106970279017
 30
0.0
 10
130.4986977353038
 20
349.0567750549268
 30
0.0
 10
130.624186550403
 20
348.9853547422317
 30
0.0
 10
130.7118584174624
 20
348.9323002888237
 30
0.0
 10
130.7568320273421
 20
348.9041581338482
 30
0.0
 10
130.7876182848894
 20
348.8846844787649
 30
0.0
 10
130.68475111889
 20
348.949458035754
 30
0.0
 10
130.6385705079373
 20
348.9763004330209
 30
0.0
 10
130.4937954335651
 20
349.0598927906829
 30
0.0
 10
130.3824464001922
 20
349.1167992306708
 30
0.0
 10
130.3069709788912
 20
349.1520360907779
 30
0.0
 10
130.2868434044761
 20
349.1611749244662
 30
0.0
 11
130.3470568216511
 21
349.1330992637412
 31
0.0
 11
130.5079587990511
 21
349.0504598407413
 31
0.0
 11
130.6360743724511
 21
348.9777043565662
 31
0.0
 11
130.7260378827261
 21
348.9233182690163
 31
0.0
 11
130.7721728149511
 21
348.8944544100663
 31
0.0
 11
130.7724700717511
 21
348.8942663822162
 31
0.0
 11
130.7269205061261
 21
348.9227720866912
 31
0.0
 11
130.6370839584261
 21
348.9771085356912
 31
0.0
 11
130.5084293606511
 21
349.0502033754662
 31
0.0
 11
130.3469471020511
 21
349.1331520171412
 31
0.0
 11
130.2868434044761
 21
349.1611749244662
 31
0.0
  0
SPLINE
  5
1FD2
330
1F
100
AcDbEntity
  8
DEFAULT_2
 48
3.0
370
     9
100
AcDbSpline
210
0.0
220
0.0
230
1.0
 70
     8
 71
     3
 72
     8
 73
     4
 74
     2
 42
0.0000000001
 43
0.0000000001
 44
0.0000000001
 12
-0.9105379044383077
 22
0.4134255973946159
 32
0.0
 13
-0.930278090247515
 23
0.3668551141873809
 33
0.0
 40
0.0
 40
0.0
 40
0.0
 40
0.0
 40
0.1423873582816907
 40
0.1423873582816907
 40
0.1423873582816907
 40
0.1423873582816907
 10
130.2868434044761
 20
349.1611749244662
 30
0.0
 10
130.2436270422
 20
349.1807971173525
 30
0.0
 10
130.1999600312887
 20
349.1994726433391
 30
0.0
 10
130.1558067513762
 20
349.2168844868662
 30
0.0
 11
130.2868434044761
 21
349.1611749244662
 31
0.0
 11
130.1558067513762
 21
349.2168844868662
 31
0.0
  0
SPLINE
  5
1FD3
330
1F
100
AcDbEntity
  8
DEFAULT_2
 48
3.0
370
     9
100
AcDbSpline
210
0.0
220
0.0
230
1.0
 70
     8
 71
     3
 72
    19
 73
    15
 74
    13
 42
0.0000000001
 43
0.0000000001
 44
0.0000000001
 12
0.9491881254974131
 22
-0.314709234714692
 32
0.0
 13
-0.9302780902214477
 23
0.3668551142534831
 33
0.0
 40
0.0
 40
0.0
 40
0.0
 40
0.0
 40
0.1288780060083084
 40
0.337581414649281
 40
0.5183736700999936
 40
0.6657064927335086
 40
0.7708315596775434
 40
0.8252517243675889
 40
0.8256034573310195
 40
0.8793374141576649
 40
0.9843281518090398
 40
1.132297274028486
 40
1.313837894822484
 40
1.522514103678196
 40
1.522514103678196
 40
1.522514103678196
 40
1.522514103678196
 10
130.0348305425511
 20
349.2607767851163
 30
0.0
 10
130.0756070335314
 20
349.2472570855688
 30
0.0
 10
130.1813971803114
 20
349.2087188918678
 30
0.0
 10
130.3396048691467
 20
349.1388483791662
 30
0.0
 10
130.498718604776
 20
349.0567626135026
 30
0.0
 10
130.6241874936161
 20
348.9853543028531
 30
0.0
 10
130.7118583024403
 20
348.9323003424237
 30
0.0
 10
130.7568320300748
 20
348.9041581325528
 30
0.0
 10
130.7876182821415
 20
348.8846844800674
 30
0.0
 10
130.6847546911271
 20
348.9494563414979
 30
0.0
 10
130.6385401664938
 20
348.9763148234978
 30
0.0
 10
130.4939721940811
 20
349.0598089559061
 30
0.0
 10
130.3415303067361
 20
349.1376780043992
 30
0.0
 10
130.2205157197258
 20
349.191366508719
 30
0.0
 10
130.1558067513762
 20
349.2168844868662
 30
0.0
 11
130.0348305425511
 21
349.2607767851163
 31
0.0
 11
130.1559794578261
 21
349.2168167946662
 31
0.0
 11
130.3471387820011
 21
349.1330598513163
 31
0.0
 11
130.5079587990511
 21
349.0504598407413
 31
0.0
 11
130.6360743724511
 21
348.9777043565662
 31
0.0
 11
130.7260378827261
 21
348.9233182690163
 31
0.0
 11
130.7721728149511
 21
348.8944544100663
 31
0.0
 11
130.7724700717511
 21
348.8942663822162
 31
0.0
 11
130.7269205061261
 21
348.9227720866912
 31
0.0
 11
130.6370839584261
 21
348.9771085356912
 31
0.0
 11
130.5084293606511
 21
349.0502033754662
 31
0.0
 11
130.3469471020511
 21
349.1331520171412
 31
0.0
 11
130.1558067513762
 21
349.2168844868662
 31
0.0
  0
SPLINE
  5
1FD4
330
1F
100
AcDbEntity
  8
DEFAULT_2
 48
3.0
370
     9
100
AcDbSpline
210
0.0
220
0.0
230
1.0
 70
     8
 71
     3
 72
    20
 73
    16
 74
    14
 42
0.0000000001
 43
0.0000000001
 44
0.0000000001
 12
0.9491881254964543
 22
-0.3147092347175837
 32
0.0
 13
-0.9628791375939275
 23
0.2699328923758173
 33
0.0
 40
0.0
 40
0.0
 40
0.0
 40
0.0
 40
0.1288780060083084
 40
0.337581414649281
 40
0.5183736700999936
 40
0.6657064927335086
 40
0.7708315596775434
 40
0.8252517243675889
 40
0.8256034573310195
 40
0.8793374141576649
 40
0.9843281518090398
 40
1.132297274028486
 40
1.313837894822484
 40
1.522749482489145
 40
1.748644221142317
 40
1.748644221142317
 40
1.748644221142317
 40
1.748644221142317
 10
130.0348305425511
 20
349.2607767851163
 30
0.0
 10
130.0756070335314
 20
349.2472570855686
 30
0.0
 10
130.1813971803071
 20
349.2087188918695
 30
0.0
 10
130.3396048691704
 20
349.1388483791567
 30
0.0
 10
130.4987186047076
 20
349.0567626135298
 30
0.0
 10
130.6241874937958
 20
348.9853543027814
 30
0.0
 10
130.7118583020681
 20
348.9323003425723
 30
0.0
 10
130.7568320304848
 20
348.9041581323892
 30
0.0
 10
130.7876182817289
 20
348.8846844802322
 30
0.0
 10
130.6847552438384
 20
348.9494561208668
 30
0.0
 10
130.6385354718487
 20
348.9763166975049
 30
0.0
 10
130.4939995437629
 20
349.0597980384685
 30
0.0
 10
130.3413291400512
 20
349.1377657486901
 30
0.0
 10
130.150913522854
 20
349.2222699330152
 30
0.0
 10
130.0141026254816
 20
349.2690161310739
 30
0.0
 10
129.9415995151012
 20
349.2893416044662
 30
0.0
 11
130.0348305425511
 21
349.2607767851163
 31
0.0
 11
130.1559794578261
 21
349.2168167946662
 31
0.0
 11
130.3471387820011
 21
349.1330598513163
 31
0.0
 11
130.5079587990511
 21
349.0504598407413
 31
0.0
 11
130.6360743724511
 21
348.9777043565662
 31
0.0
 11
130.7260378827261
 21
348.9233182690163
 31
0.0
 11
130.7721728149511
 21
348.8944544100663
 31
0.0
 11
130.7724700717511
 21
348.8942663822162
 31
0.0
 11
130.7269205061261
 21
348.9227720866912
 31
0.0
 11
130.6370839584261
 21
348.9771085356912
 31
0.0
 11
130.5084293606511
 21
349.0502033754662
 31
0.0
 11
130.3469471020511
 21
349.1331520171412
 31
0.0
 11
130.1555876272011
 21
349.2169708864162
 31
0.0
 11
129.9415995151012
 21
349.2893416044662
 31
0.0
  0
SPLINE
  5
1FD5
330
1F
100
AcDbEntity
  8
DEFAULT_2
 48
3.0
370
     9
100
AcDbSpline
210
0.0
220
0.0
230
1.0
 70
     8
 71
     3
 72
    21
 73
    17
 74
    15
 42
0.0000000001
 43
0.0000000001
 44
0.0000000001
 12
0.9896591522964651
 22
-0.1434390542210938
 32
0.0
 13
-0.9628791375937721
 23
0.2699328923763712
 33
0.0
 40
0.0
 40
0.0
 40
0.0
 40
0.0
 40
0.2367901168613508
 40
0.4629714524145158
 40
0.6716748610554884
 40
0.8524671165062008
 40
0.9997999391397158
 40
1.10492500608375
 40
1.159345170773796
 40
1.159696903737226
 40
1.213430860563872
 40
1.318421598215247
 40
1.466390720434693
 40
1.647931341228692
 40
1.856842928895352
 40
2.082737667548524
 40
2.082737667548524
 40
2.082737667548524
 40
2.082737667548524
 10
129.7101815677761
 20
349.3388584528663
 30
0.0
 10
129.7882954032179
 20
349.3275368027291
 30
0.0
 10
129.9395935555661
 20
349.294540212046
 30
0.0
 10
130.1517089864151
 20
349.2218290235301
 30
0.0
 10
130.3396029148549
 20
349.1388495313074
 30
0.0
 10
130.4987190013693
 20
349.0567623796818
 30
0.0
 10
130.6241874253193
 20
348.9853543431493
 30
0.0
 10
130.7118583102548
 20
348.9323003377497
 30
0.0
 10
130.756832030478
 20
348.9041581323892
 30
0.0
 10
130.7876182817355
 20
348.8846844802323
 30
0.0
 10
130.6847552438323
 20
348.9494561208668
 30
0.0
 10
130.6385354718516
 20
348.9763166975047
 30
0.0
 10
130.4939995437618
 20
349.0597980384685
 30
0.0
 10
130.3413291400516
 20
349.1377657486901
 30
0.0
 10
130.1509135228539
 20
349.2222699330152
 30
0.0
 10
130.0141026254816
 20
349.2690161310739
 30
0.0
 10
129.9415995151012
 20
349.2893416044662
 30
0.0
 11
129.7101815677761
 21
349.3388584528663
 31
0.0
 11
129.9417286280761
 21
349.2893052661913
 31
0.0
 11
130.1559794578261
 21
349.2168167946662
 31
0.0
 11
130.3471387820011
 21
349.1330598513163
 31
0.0
 11
130.5079587990511
 21
349.0504598407413
 31
0.0
 11
130.6360743724511
 21
348.9777043565662
 31
0.0
 11
130.7260378827261
 21
348.9233182690163
 31
0.0
 11
130.7721728149511
 21
348.8944544100663
 31
0.0
 11
130.7724700717511
 21
348.8942663822162
 31
0.0
 11
130.7269205061261
 21
348.9227720866912
 31
0.0
 11
130.6370839584261
 21
348.9771085356912
 31
0.0
 11
130.5084293606511
 21
349.0502033754662
 31
0.0
 11
130.3469471020511
 21
349.1331520171412
 31
0.0
 11
130.1555876272011
 21
349.2169708864162
 31
0.0
 11
129.9415995151012
 21
349.2893416044662
 31
0.0
  0
SPLINE
  5
1FD6
330
1F
100
AcDbEntity
  8
DEFAULT_2
 48
3.0
370
     9
100
AcDbSpline
210
0.0
220
0.0
230
1.0
 70
     8
 71
     3
 72
    23
 73
    19
 74
    17
 42
0.0000000001
 43
0.0000000001
 44
0.0000000001
 12
-1.0
 22
0.0
 32
0.0
 13
0.9896270508228257
 23
0.1436603643310023
 33
0.0
 40
0.0
 40
0.0
 40
0.0
 40
0.0
 40
0.2331819339785049
 40
0.4699332074878353
 40
0.6959281462861027
 40
0.9044133708521764
 40
1.085047875865503
 40
1.232371729211607
 40
1.337660320309659
 40
1.392262328433355
 40
1.392764876782604
 40
1.446371253484014
 40
1.551286939208059
 40
1.699232198067148
 40
1.880791576268288
 40
2.089749587013815
 40
2.315874294785466
 40
2.552392206005435
 40
2.552392206005435
 40
2.552392206005435
 40
2.552392206005435
 10
129.4778036730761
 20
349.3558015050412
 30
0.0
 10
129.40007636175
 20
349.3558015050412
 30
0.0
 10
129.2432087393608
 20
349.3441099370276
 30
0.0
 10
129.0159535126087
 20
349.2945137135978
 30
0.0
 10
128.8039366902338
 20
349.221839792312
 30
0.0
 10
128.6162235143742
 20
349.1389503432566
 30
0.0
 10
128.4572012473387
 20
349.0569304608679
 30
0.0
 10
128.3317551765962
 20
348.9855527510983
 30
0.0
 10
128.2439222094148
 20
348.9324070093608
 30
0.0
 10
128.1988967570037
 20
348.9042349454008
 30
0.0
 10
128.1679578473694
 20
348.8846647400104
 30
0.0
 10
128.2705926975301
 20
348.94929471909
 30
0.0
 10
128.3168856419341
 20
348.9762082450039
 30
0.0
 10
128.4613447347478
 20
349.0596542527993
 30
0.0
 10
128.6140394957886
 20
349.1376520350087
 30
0.0
 10
128.8045163711986
 20
349.2222040048945
 30
0.0
 10
129.015903131609
 20
349.2944488829098
 30
0.0
 10
129.167262828727
 20
349.3275118446673
 30
0.0
 10
129.2452843363761
 20
349.3388379277662
 30
0.0
 11
129.4778036730761
 21
349.3558015050412
 31
0.0
 11
129.2452400616761
 21
349.3388315024912
 31
0.0
 11
129.0137355645261
 21
349.2892650490412
 31
0.0
 11
128.7996632042511
 21
349.2168306861412
 31
0.0
 11
128.6086995191511
 21
349.1331708998912
 31
0.0
 11
128.4480121312011
 21
349.0506579448162
 31
0.0
 11
128.3198973139011
 21
348.9779192937912
 31
0.0
 11
128.2297901300011
 21
348.9234547840163
 31
0.0
 11
128.1835001434261
 21
348.8944959091413
 31
0.0
 11
128.1830754293011
 21
348.8942272592662
 31
0.0
 11
128.2285161333761
 21
348.9226664230412
 31
0.0
 11
128.3182858713511
 21
348.9769683130162
 31
0.0
 11
128.4469148548761
 21
349.0500599282412
 31
0.0
 11
128.6084070527511
 21
349.1330302713663
 31
0.0
 11
128.7998014712761
 21
349.2168850673662
 31
0.0
 11
129.0140037382762
 21
349.2893403796412
 31
0.0
 11
129.2452843363761
 21
349.3388379277662
 31
0.0
  0
SPLINE
  5
1FD7
330
1F
100
AcDbEntity
  8
DEFAULT_2
 48
3.0
370
     9
100
AcDbSpline
210
0.0
220
0.0
230
1.0
 70
     8
 71
     3
 72
    14
 73
    10
 74
     8
 42
0.0000000001
 43
0.0000000001
 44
0.0000000001
 12
-0.8450971398055424
 22
-0.5346127797691444
 32
0.0
 13
0.9896270508219252
 23
0.1436603643372049
 33
0.0
 40
0.0
 40
0.0
 40
0.0
 40
0.0
 40
0.0536063767014098
 40
0.1585220624254544
 40
0.3064673212845441
 40
0.4880266994856843
 40
0.6969847102312107
 40
0.9231094180028618
 40
1.15962732922283
 40
1.15962732922283
 40
1.15962732922283
 40
1.15962732922283
 10
128.1830754293011
 20
348.8942272592662
 30
0.0
 10
128.1679745640925
 20
348.884674374579
 30
0.0
 10
128.2708769946383
 20
348.9494745676583
 30
0.0
 10
128.3167469996899
 20
348.9761205388388
 30
0.0
 10
128.4613975453212
 20
349.05968766118
 30
0.0
 10
128.6140216056338
 20
349.1376407175571
 30
0.0
 10
128.8045219271666
 20
349.2222075196432
 30
0.0
 10
129.0159014101125
 20
349.2944477938778
 30
0.0
 10
129.1672628287271
 20
349.3275118446669
 30
0.0
 10
129.2452843363761
 20
349.3388379277662
 30
0.0
 11
128.1830754293011
 21
348.8942272592662
 31
0.0
 11
128.2285161333761
 21
348.9226664230412
 31
0.0
 11
128.3182858713511
 21
348.9769683130162
 31
0.0
 11
128.4469148548761
 21
349.0500599282412
 31
0.0
 11
128.6084070527511
 21
349.1330302713663
 31
0.0
 11
128.7998014712761
 21
349.2168850673662
 31
0.0
 11
129.0140037382762
 21
349.2893403796412
 31
0.0
 11
129.2452843363761
 21
349.3388379277662
 31
0.0
  0
SPLINE
  5
1FD8
330
1F
100
AcDbEntity
  8
DEFAULT_2
 48
3.0
370
     9
100
AcDbSpline
210
0.0
220
0.0
230
1.0
 70
     8
 71
     3
 72
    10
 73
     6
 74
     4
 42
0.0000000001
 43
0.0000000001
 44
0.0000000001
 12
-0.8463817312339275
 22
-0.532576722203909
 32
0.0
 13
0.4818578456733244
 23
-0.8762494031741551
 33
0.0
 40
0.0
 40
0.0
 40
0.0
 40
0.0
 40
0.0131332033208474
 40
0.0136357516700963
 40
0.0178419807517586
 40
0.0178419807517586
 40
0.0178419807517586
 40
0.0178419807517586
 10
128.1946076817511
 20
348.9015033067913
 30
0.0
 10
128.1909024472967
 20
348.8991718273324
 30
0.0
 10
128.1868611875102
 20
348.8967968473249
 30
0.0
 10
128.1821126077683
 20
348.8935467660147
 30
0.0
 10
128.1788489267816
 20
348.8932011737654
 30
0.0
 10
128.1795245282761
 20
348.8919726051912
 30
0.0
 11
128.1946076817511
 21
348.9015033067913
 31
0.0
 11
128.1835001434261
 21
348.8944959091413
 31
0.0
 11
128.1830754293011
 21
348.8942272592662
 31
0.0
 11
128.1795245282761
 21
348.8919726051912
 31
0.0
  0
SPLINE
  5
1FD9
330
1F
100
AcDbEntity
  8
0
370
     9
100
AcDbSpline
210
0.0
220
0.0
230
1.0
 70
     8
 71
     3
 72
     8
 73
     4
 74
     2
 42
0.0000000001
 43
0.0000000001
 44
0.0000000001
 12
-0.8450971391660512
 22
-0.5346127807800296
 32
0.0
 13
0.4818579350832695
 23
-0.8762493540067735
 33
0.0
 40
0.0
 40
0.0
 40
0.0
 40
0.0
 40
0.0042062290816623
 40
0.0042062290816623
 40
0.0042062290816623
 40
0.0042062290816623
 10
128.1830754293011
 20
348.8942272592662
 30
0.0
 10
128.1818905385799
 20
348.8934776913243
 30
0.0
 10
128.1788489266562
 20
348.8932011736964
 30
0.0
 10
128.1795245282761
 20
348.8919726051912
 30
0.0
 11
128.1830754293011
 21
348.8942272592662
 31
0.0
 11
128.1795245282761
 21
348.8919726051912
 31
0.0
  0
SPLINE
  5
1FDA
330
1F
100
AcDbEntity
  8
0
370
     9
100
AcDbSpline
210
0.0
220
0.0
230
1.0
 70
     8
 71
     3
 72
    16
 73
    12
 74
    10
 42
0.0000000001
 43
0.0000000001
 44
0.0000000001
 12
-1.0
 22
0.0
 32
0.0
 13
-0.8450971398041536
 23
-0.5346127797713397
 33
0.0
 40
0.0
 40
0.0
 40
0.0
 40
0.0
 40
0.2331819339785049
 40
0.4699332074878353
 40
0.6959281462861027
 40
0.9044133708521764
 40
1.085047875865503
 40
1.232371729211607
 40
1.337660320309659
 40
1.392262328433355
 40
1.392764876782604
 40
1.392764876782604
 40
1.392764876782604
 40
1.392764876782604
 10
129.4778036730761
 20
349.3558015050412
 30
0.0
 10
129.40007636175
 20
349.3558015050412
 30
0.0
 10
129.2432089684061
 20
349.3441100819235
 30
0.0
 10
129.0159527136842
 20
349.294513208192
 30
0.0
 10
128.8039394151382
 20
349.2218415161078
 30
0.0
 10
128.6162147288017
 20
349.1389447854351
 30
0.0
 10
128.4572271179438
 20
349.056946826814
 30
0.0
 10
128.3316870080545
 20
348.9855096271481
 30
0.0
 10
128.2440637260963
 20
348.9324965339151
 30
0.0
 10
128.1987403344283
 20
348.9041359912619
 30
0.0
 10
128.183216996692
 20
348.8943168155229
 30
0.0
 10
128.1830754293011
 20
348.8942272592662
 30
0.0
 11
129.4778036730761
 21
349.3558015050412
 31
0.0
 11
129.2452400616761
 21
349.3388315024912
 31
0.0
 11
129.0137355645261
 21
349.2892650490412
 31
0.0
 11
128.7996632042511
 21
349.2168306861412
 31
0.0
 11
128.6086995191511
 21
349.1331708998912
 31
0.0
 11
128.4480121312011
 21
349.0506579448162
 31
0.0
 11
128.3198973139011
 21
348.9779192937912
 31
0.0
 11
128.2297901300011
 21
348.9234547840163
 31
0.0
 11
128.1835001434261
 21
348.8944959091413
 31
0.0
 11
128.1830754293011
 21
348.8942272592662
 31
0.0
  0
SPLINE
  5
1FDB
330
1F
100
AcDbEntity
  8
0
370
     9
100
AcDbSpline
210
0.0
220
0.0
230
1.0
 70
     8
 71
     3
 72
    17
 73
    13
 74
    11
 42
0.0000000001
 43
0.0000000001
 44
0.0000000001
 12
1.0
 22
0.0
 32
0.0
 13
-0.4827636864152535
 23
-0.8757506626196493
 33
0.0
 40
0.0
 40
0.0
 40
0.0
 40
0.0
 40
0.2329839361986916
 40
0.469784868830444
 40
0.695966204383609
 40
0.9046696130245816
 40
1.085461868475294
 40
1.232794691108809
 40
1.337919758052844
 40
1.392339922742889
 40
1.39269165570632
 40
1.39694795974386
 40
1.39694795974386
 40
1.39694795974386
 40
1.39694795974386
 10
129.4778036730761
 20
349.3558015050412
 30
0.0
 10
129.5554649851424
 20
349.3558015050412
 30
0.0
 10
129.7122815702225
 20
349.3441238182116
 30
0.0
 10
129.939559552512
 20
349.2945467635418
 30
0.0
 10
130.1517048877146
 20
349.2218263830585
 30
0.0
 10
130.3396409402792
 20
349.1388544505212
 30
0.0
 10
130.4986020510573
 20
349.056748630984
 30
0.0
 10
130.6244960632424
 20
348.9853903860554
 30
0.0
 10
130.7112188684616
 20
348.9322256962651
 30
0.0
 10
130.7575362963012
 20
348.9042403385106
 30
0.0
 10
130.7735154892624
 20
348.8935567484099
 30
0.0
 10
130.776748205902
 20
348.8932274210934
 30
0.0
 10
130.7760632762262
 20
348.8919849340663
 30
0.0
 11
129.4778036730761
 21
349.3558015050412
 31
0.0
 11
129.7101708398511
 21
349.3388600077162
 31
0.0
 11
129.9417286280761
 21
349.2893052661913
 31
0.0
 11
130.1559794578261
 21
349.2168167946662
 31
0.0
 11
130.3471387820011
 21
349.1330598513163
 31
0.0
 11
130.5079587990511
 21
349.0504598407413
 31
0.0
 11
130.6360743724511
 21
348.9777043565662
 31
0.0
 11
130.7260378827261
 21
348.9233182690163
 31
0.0
 11
130.7721728149511
 21
348.8944544100663
 31
0.0
 11
130.7724700717511
 21
348.8942663822162
 31
0.0
 11
130.7760632762262
 21
348.8919849340663
 31
0.0
  0
LINE
  5
1FDC
330
1F
100
AcDbEntity
  8
0
  6
Continuous
 62
     7
370
     9
100
AcDbLine
 10
128.3074931178797
 20
348.8937871121472
 30
0.0
 11
130.6594380203225
 21
348.8937871121472
 31
0.0
  0
LINE
  5
1FDD
330
1F
100
AcDbEntity
  8
0
  6
Continuous
 62
     7
370
     9
100
AcDbLine
 10
130.7104708759433
 20
348.9330168557082
 30
0.0
 11
130.6511345663212
 21
348.8986039967693
 31
0.0
  0
LINE
  5
1FDE
330
1F
100
AcDbEntity
  8
0
  6
Continuous
 62
     7
370
     9
100
AcDbLine
 10
130.8123258390258
 20
353.9645188194643
 30
0.0
 11
128.3074477902453
 21
353.9645188194643
 31
0.0
  0
LINE
  5
1FDF
330
1F
100
AcDbEntity
  8
0
  6
Continuous
 62
     7
370
     9
100
AcDbLine
 10
130.7159775200437
 20
354.0608602828788
 30
0.0
 11
128.4037961092274
 21
354.0608602828788
 31
0.0
  0
LINE
  5
1FE0
330
1F
100
AcDbEntity
  8
0
  6
Continuous
 62
     7
370
     9
100
AcDbLine
 10
130.6397725624601
 20
348.9051977805848
 30
0.0
 11
130.6594347265065
 21
348.8937871121472
 31
0.0
  0
LINE
  5
1FE1
330
1F
100
AcDbEntity
  8
0
  6
Continuous
 62
     7
370
     9
100
AcDbLine
 10
130.8123258390258
 20
353.9645188194643
 30
0.0
 11
130.8123258390258
 21
353.752567599952
 31
0.0
  0
LINE
  5
1FE2
330
1F
100
AcDbEntity
  8
0
  6
Continuous
 62
     7
370
     9
100
AcDbLine
 10
130.7159843756111
 20
354.0608602828788
 30
0.0
 11
130.7159843756111
 21
353.9645188194643
 31
0.0
  0
LINE
  5
1FE3
330
1F
100
AcDbEntity
  8
0
  6
Continuous
 62
     7
370
     9
100
AcDbLine
 10
128.4037892536599
 20
354.0608602828788
 30
0.0
 11
128.4037892536599
 21
353.9645188194643
 31
0.0
  0
LINE
  5
1FE4
330
1F
100
AcDbEntity
  8
0
  6
Continuous
 62
     7
370
     9
100
AcDbLine
 10
128.3074477902453
 20
353.9645188194643
 30
0.0
 11
128.3074477902453
 21
353.9548846731227
 31
0.0
  0
LINE
  5
1FE5
330
1F
100
AcDbEntity
  8
0
  6
Continuous
 62
     7
370
     9
100
AcDbLine
 10
128.3074477902453
 20
353.7622017462935
 30
0.0
 11
128.3074477902453
 21
353.5791529658057
 31
0.0
  0
LINE
  5
1FE6
330
1F
100
AcDbEntity
  8
0
  6
Continuous
 62
     7
370
     9
100
AcDbLine
 10
128.3074477902453
 20
348.9706823337257
 30
0.0
 11
128.3074477902453
 21
348.8937871121472
 31
0.0
  0
SPLINE
  5
1FE7
330
1F
100
AcDbEntity
  8
0
  6
Continuous
 62
     7
370
     9
100
AcDbSpline
210
0.0
220
0.0
230
1.0
 70
     8
 71
     3
 72
    16
 73
    12
 74
     0
 42
0.0000000001
 43
0.0000000001
 40
0.595890618899867
 40
0.595890618899867
 40
0.595890618899867
 40
0.595890618899867
 40
0.8657261285620654
 40
1.310224987957592
 40
1.819638045332858
 40
2.360244588621366
 40
2.898614408191475
 40
3.42835617672368
 40
3.929874306063356
 40
4.36991343130872
 40
4.520421916389475
 40
4.520421916389475
 40
4.520421916389475
 40
4.520421916389475
 10
130.5292189594736
 20
349.0388146977468
 30
0.0
 10
130.4857200818885
 20
349.0422237554358
 30
0.0
 10
130.3731101365339
 20
349.0512286676429
 30
0.0
 10
130.1759237113542
 20
349.0631345652801
 30
0.0
 10
129.9366995183303
 20
349.0766075860579
 30
0.0
 10
129.6818855482181
 20
349.0898523374608
 30
0.0
 10
129.4239499469303
 20
349.1030733972874
 30
0.0
 10
129.1722259793999
 20
349.1161786217386
 30
0.0
 10
128.9364368462279
 20
349.1295402233151
 30
0.0
 10
128.761203143528
 20
349.1400698415215
 30
0.0
 10
128.6668906582729
 20
349.1474306663176
 30
0.0
 10
128.6428311806572
 20
349.1493317599267
 30
0.0
  0
SPLINE
  5
1FE8
330
1F
100
AcDbEntity
  8
0
  6
Continuous
 62
     7
370
     9
100
AcDbSpline
210
0.0
220
0.0
230
1.0
 70
     8
 71
     3
 72
    15
 73
    11
 74
     0
 42
0.0000000001
 43
0.0000000001
 40
0.0
 40
0.0
 40
0.0
 40
0.0
 40
0.5486245757508414
 40
1.090158531085224
 40
1.600581487773396
 40
2.05722002481677
 40
2.439843553160319
 40
2.731630918933078
 40
2.92008792422476
 40
2.926312536530969
 40
2.926312536530969
 40
2.926312536530969
 40
2.926312536530969
 10
129.746553165035
 20
348.8937871121472
 30
0.0
 10
129.6585798675488
 20
348.898361731298
 30
0.0
 10
129.4838038493025
 20
348.9073200983763
 30
0.0
 10
129.2269656627876
 20
348.9205774659593
 30
0.0
 10
128.9856908421861
 20
348.9340008621239
 30
0.0
 10
128.7675036635007
 20
348.9467050946994
 30
0.0
 10
128.5916768511323
 20
348.9611219196777
 30
0.0
 10
128.4405060392951
 20
348.9703794276548
 30
0.0
 10
128.3853861219609
 20
348.9864795361211
 30
0.0
 10
128.3407915058326
 20
348.9892451646407
 30
0.0
 10
128.3393567653974
 20
348.9893356238946
 30
0.0
  0
SPLINE
  5
1FE9
330
1F
100
AcDbEntity
  8
0
  6
Continuous
 62
     7
370
     9
100
AcDbSpline
210
0.0
220
0.0
230
1.0
 70
     8
 71
     3
 72
    20
 73
    16
 74
     0
 42
0.0000000001
 43
0.0000000001
 40
0.0666007840830642
 40
0.0666007840830642
 40
0.0666007840830642
 40
0.0666007840830642
 40
0.1028231016993314
 40
0.3109532684454975
 40
0.6149349416071724
 40
1.000087320395704
 40
1.447451678967494
 40
1.934895422249374
 40
2.438261149098655
 40
2.932589746460125
 40
3.39337698815961
 40
3.797810909230546
 40
4.125943530724192
 40
4.36179334058943
 40
4.494684072789572
 40
4.494684072789572
 40
4.494684072789572
 40
4.494684072789572
 10
128.5036589687208
 20
349.0805719901625
 30
0.0
 10
128.5108625193305
 20
349.0803614552214
 30
0.0
 10
128.5641970314615
 20
349.0833012378802
 30
0.0
 10
128.6339595905636
 20
349.0592769020093
 30
0.0
 10
128.7867290308487
 20
349.0524328873336
 30
0.0
 10
128.9651186434291
 20
349.0360464297946
 30
0.0
 10
129.1778135670639
 20
349.0229572438369
 30
0.0
 10
129.4079394816431
 20
349.008662796053
 30
0.0
 10
129.6461142089585
 20
348.9947244301959
 30
0.0
 10
129.8797940215504
 20
348.980567928444
 30
0.0
 10
130.0978529375452
 20
348.9669457880288
 30
0.0
 10
130.2883663815549
 20
348.9519992300078
 30
0.0
 10
130.4449094694962
 20
348.9412880239885
 30
0.0
 10
130.5523560551556
 20
348.9215612516499
 30
0.0
 10
130.6162152551914
 20
348.9207346556184
 30
0.0
 10
130.6334713117605
 20
348.9081829630066
 30
0.0
  0
SPLINE
  5
1FEA
330
1F
100
AcDbEntity
  8
0
  6
Continuous
 62
     7
370
     9
100
AcDbSpline
210
0.0
220
0.0
230
1.0
 70
     8
 71
     3
 72
     8
 73
     4
 74
     2
 42
0.0000000001
 43
0.0000000001
 44
0.0000000001
 12
0.808695215438054
 22
-0.5882278882606633
 32
0.0
 13
0.7446278994753776
 23
-0.6674798059289039
 33
0.0
 40
0.0
 40
0.0
 40
0.0
 40
0.0
 40
0.006696016990814
 40
0.006696016990814
 40
0.006696016990814
 40
0.006696016990814
 10
130.6334713117605
 20
348.9081829630066
 30
0.0
 10
130.6352763240615
 20
348.9068700350285
 30
0.0
 10
130.6370473392115
 20
348.9055015027062
 30
0.0
 10
130.6387093529004
 20
348.904011683999
 30
0.0
 11
130.6334713117605
 21
348.9081829630066
 31
0.0
 11
130.6387093529004
 21
348.904011683999
 31
0.0
  0
SPLINE
  5
1FEB
330
1F
100
AcDbEntity
  8
0
  6
Continuous
 62
     7
370
     9
100
AcDbSpline
210
0.0
220
0.0
230
1.0
 70
     8
 71
     3
 72
    11
 73
     7
 74
     0
 42
0.0000000001
 43
0.0000000001
 40
1.821986655074827
 40
1.821986655074827
 40
1.821986655074827
 40
1.821986655074827
 40
2.338234224365551
 40
2.876002695113283
 40
3.40999909530977
 40
3.417881139440553
 40
3.417881139440553
 40
3.417881139440553
 40
3.417881139440553
 10
129.179298264377
 20
349.3279380416824
 30
0.0
 10
129.2620266972297
 20
349.32345615773
 30
0.0
 10
129.4311120434619
 20
349.3146553019836
 30
0.0
 10
129.6857277290568
 20
349.3016043388546
 30
0.0
 10
129.8588736862648
 20
349.2926061424134
 30
0.0
 10
129.9457441208084
 20
349.2878860898202
 30
0.0
 10
129.9470077124892
 20
349.2878173899882
 30
0.0
  0
LINE
  5
1FEC
330
1F
100
AcDbEntity
  8
0
  6
Continuous
 62
     7
370
     9
100
AcDbLine
 10
130.8073877360951
 20
353.7468469914011
 30
0.0
 11
130.6885136429324
 21
353.6779042471888
 31
0.0
  0
LINE
  5
1FED
330
1F
100
AcDbEntity
  8
0
  6
Continuous
 62
     7
370
     9
100
AcDbLine
 10
130.8073877360951
 20
353.7468469914011
 30
0.0
 11
130.8123258390258
 21
353.752567599952
 31
0.0
  0
LINE
  5
1FEE
330
1F
100
AcDbEntity
  8
0
  6
Continuous
 62
     7
370
     9
100
AcDbLine
 10
128.431260035909
 20
353.8802187288197
 30
0.0
 11
128.312385893138
 21
353.9491640645717
 31
0.0
  0
LINE
  5
1FEF
330
1F
100
AcDbEntity
  8
0
  6
Continuous
 62
     7
370
     9
100
AcDbLine
 10
130.8073877455396
 20
353.9702394225154
 30
0.0
 11
130.8123258390258
 21
353.9645188194643
 31
0.0
  0
LINE
  5
1FF0
330
1F
100
AcDbEntity
  8
0
  6
Continuous
 62
     7
370
     9
100
AcDbLine
 10
130.8123258390258
 20
353.9645188194643
 30
0.0
 11
130.8123258390258
 21
353.752567599952
 31
0.0
  0
LINE
  5
1FF1
330
1F
100
AcDbEntity
  8
0
  6
Continuous
 62
     7
370
     9
100
AcDbLine
 10
128.312385893138
 20
353.9491640645717
 30
0.0
 11
128.3074477902453
 21
353.9548846731227
 31
0.0
  0
LINE
  5
1FF2
330
1F
100
AcDbEntity
  8
0
  6
Continuous
 62
     7
370
     9
100
AcDbLine
 10
128.3074477902453
 20
353.9645188194643
 30
0.0
 11
128.3074477902453
 21
353.9548846731227
 31
0.0
  0
SPLINE
  5
1FF3
330
1F
100
AcDbEntity
  8
0
  6
Continuous
 62
     7
370
     9
100
AcDbSpline
210
0.0
220
0.0
230
1.0
 70
     8
 71
     3
 72
     8
 73
     4
 74
     2
 42
0.0000000001
 43
0.0000000001
 44
0.0000000001
 12
0.0
 22
1.0
 32
0.0
 13
-0.1002776267664013
 23
0.9949594954419492
 33
0.0
 40
0.0
 40
0.0
 40
0.0
 40
0.0
 40
0.0010097984766727
 40
0.0010097984766727
 40
0.0010097984766727
 40
0.0010097984766727
 10
130.8123258390258
 20
353.752567599952
 30
0.0
 10
130.8123258390258
 20
353.7529041994443
 30
0.0
 10
130.8123099067038
 20
353.7532412724689
 30
0.0
 10
130.8122761533055
 20
353.7535761753298
 30
0.0
 11
130.8123258390258
 21
353.752567599952
 31
0.0
 11
130.8122761533055
 21
353.7535761753298
 31
0.0
  0
SPLINE
  5
1FF4
330
1F
100
AcDbEntity
  8
0
  6
Continuous
 62
     7
370
     9
100
AcDbSpline
210
0.0
220
0.0
230
1.0
 70
     8
 71
     3
 72
    22
 73
    18
 74
     0
 42
0.0000000001
 43
0.0000000001
 40
0.0
 40
0.0
 40
0.0
 40
0.0
 40
0.0625539071472585
 40
0.237497225069584
 40
0.5176054333016972
 40
0.8816614543622151
 40
1.317289644486971
 40
1.816276466746716
 40
2.350272866943202
 40
2.888041337690935
 40
3.417823123612691
 40
3.909590707584616
 40
4.345643369104711
 40
4.709547232664416
 40
4.989234968708814
 40
5.163851404221457
 40
5.186641955932113
 40
5.186641955932113
 40
5.186641955932113
 40
5.186641955932113
 10
130.8122761533055
 20
353.7535761753298
 30
0.0
 10
130.8112689423201
 20
353.7635697723018
 30
0.0
 10
130.7582408910848
 20
353.7678945899053
 30
0.0
 10
130.690577209461
 20
353.7845901447088
 30
0.0
 10
130.5517624517371
 20
353.7944230890889
 30
0.0
 10
130.382026964053
 20
353.808334548569
 30
0.0
 10
130.1727799155982
 20
353.8209330822318
 30
0.0
 10
129.937697389336
 20
353.8341711248867
 30
0.0
 10
129.685714481742
 20
353.8472777043489
 30
0.0
 10
129.4289287677912
 20
353.8604398904563
 30
0.0
 10
129.1788574583069
 20
353.8734474349936
 30
0.0
 10
128.94526224491
 20
353.886652065294
 30
0.0
 10
128.7379818451095
 20
353.8990174968702
 30
0.0
 10
128.5658566937401
 20
353.9134100597735
 30
0.0
 10
128.433170250924
 20
353.9220656289447
 30
0.0
 10
128.3605223766915
 20
353.939488769453
 30
0.0
 10
128.3272012284583
 20
353.9420392047798
 30
0.0
 10
128.323528907599
 20
353.9427012724507
 30
0.0
  0
LINE
  5
1FF5
330
1F
100
AcDbEntity
  8
0
  6
Continuous
 62
     7
370
     9
100
AcDbLine
 10
127.6954865999054
 20
351.2774736193199
 30
0.0
 11
131.2601207462469
 21
351.2774736193199
 31
0.0
  0
LINE
  5
1FF6
330
1F
100
AcDbEntity
  8
0
  6
Continuous
 62
     7
370
     9
100
AcDbLine
 10
131.4528036730761
 20
352.2408882534662
 30
0.0
 11
127.5028036730762
 21
352.2408882534662
 31
0.0
  0
LINE
  5
1FF7
330
1F
100
AcDbEntity
  8
0
  6
Continuous
 62
     7
370
     9
100
AcDbLine
 10
131.4528036730761
 20
352.2408882534662
 30
0.0
 11
131.4528036730761
 21
351.4701565461491
 31
0.0
  0
LINE
  5
1FF8
330
1F
100
AcDbEntity
  8
0
  6
Continuous
 62
     7
370
     9
100
AcDbLine
 10
127.5028036730762
 20
352.2408882534662
 30
0.0
 11
127.5028036730762
 21
351.4701565461491
 31
0.0
  0
ARC
  5
1FF9
330
1F
100
AcDbEntity
  8
0
  6
Continuous
 62
     7
370
     9
100
AcDbCircle
 10
131.2601207462469
 20
351.4701565461491
 30
0.0
 40
0.1926829268292686
100
AcDbArc
 50
270.0
 51
0.0
  0
ARC
  5
1FFA
330
1F
100
AcDbEntity
  8
0
  6
Continuous
 62
     7
370
     9
100
AcDbCircle
 10
127.6954865999054
 20
351.4701565461491
 30
0.0
 40
0.1926829268292686
100
AcDbArc
 50
180.0
 51
270.0
  0
LINE
  5
1FFB
330
1F
100
AcDbEntity
  8
0
  6
Continuous
 62
     7
370
     9
100
AcDbLine
 10
130.6413155186841
 20
351.2774736193198
 30
0.0
 11
130.7043952608463
 21
351.2408882534662
 31
0.0
  0
LINE
  5
1FFC
330
1F
100
AcDbEntity
  8
0
  6
Continuous
 62
     7
370
     9
100
AcDbLine
 10
128.3074477902453
 20
351.27747361932
 30
0.0
 11
128.3074477902453
 21
351.2408882534662
 31
0.0
  0
SPLINE
  5
1FFD
330
1F
100
AcDbEntity
  8
0
  6
Continuous
 62
     7
370
     9
100
AcDbSpline
210
0.0
220
0.0
230
1.0
 70
     8
 71
     3
 72
    11
 73
     7
 74
     0
 42
0.0000000001
 43
0.0000000001
 40
1.241597923702358
 40
1.241597923702358
 40
1.241597923702358
 40
1.241597923702358
 40
1.402728077449061
 40
1.655086371594345
 40
1.89306618230636
 40
1.919614319383117
 40
1.919614319383117
 40
1.919614319383117
 40
1.919614319383117
 10
129.5427459327931
 20
351.2774736193198
 30
0.0
 10
129.5963845206776
 20
351.2747139347153
 30
0.0
 10
129.7340197510959
 20
351.2676362199773
 30
0.0
 10
129.9509076127397
 20
351.2563327166287
 30
0.0
 10
130.1228712548555
 20
351.2465812899853
 30
0.0
 10
130.2109415261425
 20
351.2414105941301
 30
0.0
 10
130.2197803729933
 20
351.2408882534638
 30
0.0
  0
LINE
  5
1FFE
330
1F
100
AcDbEntity
  8
0
  6
Continuous
 62
     7
370
     9
100
AcDbLine
 10
130.6609612485592
 20
351.2774736193198
 30
0.0
 11
130.65113523176
 21
351.2717748792094
 31
0.0
  0
LINE
  5
1FFF
330
1F
100
AcDbEntity
  8
0
  6
Continuous
 62
     7
370
     9
100
AcDbLine
 10
128.3123858836935
 20
353.4066418615399
 30
0.0
 11
128.4686383974731
 21
353.4972626840874
 31
0.0
  0
LINE
  5
2000
330
1F
100
AcDbEntity
  8
0
  6
Continuous
 62
     7
370
     9
100
AcDbLine
 10
130.6397725624601
 20
353.3015392439996
 30
0.0
 11
130.7443457642158
 21
353.2408882534662
 31
0.0
  0
LINE
  5
2001
330
1F
100
AcDbEntity
  8
0
  6
Continuous
 62
     7
370
     9
100
AcDbLine
 10
128.3123858836935
 20
353.4066418615399
 30
0.0
 11
128.3074477902453
 21
353.4009212584888
 31
0.0
  0
LINE
  5
2002
330
1F
100
AcDbEntity
  8
0
  6
Continuous
 62
     7
370
     9
100
AcDbLine
 10
128.3074477902453
 20
353.4009212584888
 30
0.0
 11
128.3074477902453
 21
353.2408882534662
 31
0.0
  0
SPLINE
  5
2003
330
1F
100
AcDbEntity
  8
0
  6
Continuous
 62
     7
370
     9
100
AcDbSpline
210
0.0
220
0.0
230
1.0
 70
     8
 71
     3
 72
    21
 73
    17
 74
    15
 42
0.0000000001
 43
0.0000000001
 44
0.0000000001
 12
0.4929694063175559
 22
-0.8700466449765302
 32
0.0
 13
0.1614492973955897
 23
-0.9868810082124745
 33
0.0
 40
0.0
 40
0.0
 40
0.0
 40
0.0
 40
0.0038981267535599
 40
0.0647748160097273
 40
0.1754507488063399
 40
0.3309790420049522
 40
0.5237965155287215
 40
0.7443965130675915
 40
0.981859353590527
 40
1.224414352872575
 40
1.460034496184742
 40
1.677041923561832
 40
1.864698778165323
 40
2.013763148888212
 40
2.117019835434119
 40
2.169991042339985
 40
2.169991042339985
 40
2.169991042339985
 40
2.169991042339985
 10
128.4820817049221
 20
353.4918480241254
 30
0.0
 10
128.4827222573326
 20
353.4907175067575
 30
0.0
 10
128.4944862317182
 20
353.4722520229866
 30
0.0
 10
128.5658322993609
 20
353.478201496862
 30
0.0
 10
128.6649118954574
 20
353.4538808024746
 30
0.0
 10
128.8214317237407
 20
353.4453096545667
 30
0.0
 10
129.0090487981792
 20
353.4295761226322
 30
0.0
 10
129.226069533108
 20
353.4162235223736
 30
0.0
 10
129.4590106950591
 20
353.4019899205852
 30
0.0
 10
129.6972798365009
 20
353.3880686924724
 30
0.0
 10
129.9282363599728
 20
353.3737831509758
 30
0.0
 10
130.1423112015099
 20
353.3606380701388
 30
0.0
 10
130.3230924911357
 20
353.3443770522776
 30
0.0
 10
130.4777628820347
 20
353.3372099953688
 30
0.0
 10
130.5601756644822
 20
353.3105755809064
 30
0.0
 10
130.6370962301294
 20
353.318993199274
 30
0.0
 10
130.6399469515085
 20
353.3015677732482
 30
0.0
 11
128.4820817049221
 21
353.4918480241254
 31
0.0
 11
128.4841909509861
 21
353.4885698427349
 31
0.0
 11
128.5433410209169
 21
353.4741739918755
 31
0.0
 11
128.6530767105463
 21
353.459778141016
 31
0.0
 11
128.8079373235611
 21
353.4453822901566
 31
0.0
 11
129.0002166453149
 21
353.4309864392973
 31
0.0
 11
129.2203464215656
 21
353.4165905884379
 31
0.0
 11
129.4573724963069
 21
353.4021947375784
 31
0.0
 11
129.6994999155612
 21
353.387798886719
 31
0.0
 11
129.9346798709434
 21
353.3734030358975
 31
0.0
 11
130.1512092754474
 21
353.3590071850381
 31
0.0
 11
130.338313135797
 21
353.3446113341787
 31
0.0
 11
130.4866807404047
 21
353.3302154833192
 31
0.0
 11
130.5889289814383
 21
353.3158196324598
 31
0.0
 11
130.6399469515085
 21
353.3015677732482
 31
0.0
  0
SPLINE
  5
2004
330
1F
100
AcDbEntity
  8
0
  6
Continuous
 62
     7
370
     9
100
AcDbSpline
210
0.0
220
0.0
230
1.0
 70
     8
 71
     3
 72
     8
 73
     4
 74
     2
 42
0.0000000001
 43
0.0000000001
 44
0.0000000001
 12
0.0
 22
-1.0
 32
0.0
 13
0.1003076508315724
 23
-0.9949564689898002
 33
0.0
 40
0.0
 40
0.0
 40
0.0
 40
0.0
 40
0.0010096964126587
 40
0.0010096964126587
 40
0.0010096964126587
 40
0.0010096964126587
 10
128.3074477902453
 20
353.4009212584888
 30
0.0
 10
128.3074477902453
 20
353.4005846930179
 30
0.0
 10
128.3074637257734
 20
353.4002476537791
 30
0.0
 10
128.3074974858651
 20
353.3999127857866
 30
0.0
 11
128.3074477902453
 21
353.4009212584888
 31
0.0
 11
128.3074974858651
 21
353.3999127857866
 31
0.0
  0
SPLINE
  5
2005
330
1F
100
AcDbEntity
  8
0
  6
Continuous
 62
     7
370
     9
100
AcDbSpline
210
0.0
220
0.0
230
1.0
 70
     8
 71
     3
 72
    19
 73
    15
 74
     0
 42
0.0000000001
 43
0.0000000001
 40
0.0
 40
0.0
 40
0.0
 40
0.0
 40
0.0301234345751199
 40
0.1141331004611503
 40
0.2482683442512446
 40
0.4231560690566267
 40
0.6380576403533429
 40
0.8836717243099155
 40
1.143719148680869
 40
1.402728077449061
 40
1.655086371594345
 40
1.89306618230636
 40
2.103557152357958
 40
2.24951706967652
 40
2.24951706967652
 40
2.24951706967652
 40
2.24951706967652
 10
128.3074974858651
 20
353.3999127857866
 30
0.0
 10
128.3085046894821
 20
353.3899222837501
 30
0.0
 10
128.3614114526077
 20
353.3856060140815
 30
0.0
 10
128.4287887906671
 20
353.368967826665
 30
0.0
 10
128.5670410765453
 20
353.3591433942275
 30
0.0
 10
128.7380220730372
 20
353.345115394923
 30
0.0
 10
128.9505698988896
 20
353.3323409826267
 30
0.0
 10
129.1900102816853
 20
353.3188893059961
 30
0.0
 10
129.4446685809328
 20
353.3056669132243
 30
0.0
 10
129.701433791712
 20
353.2925052279193
 30
0.0
 10
129.9509076127397
 20
353.2795034483361
 30
0.0
 10
130.1840674658073
 20
353.2662818093001
 30
0.0
 10
130.382073614224
 20
353.2543809869703
 30
0.0
 10
130.5001121384065
 20
353.2446412095237
 30
0.0
 10
130.5487466377204
 20
353.2408882534662
 30
0.0
  0
LINE
  5
2006
330
1F
100
AcDbEntity
  8
0
  6
Continuous
 62
     7
370
     9
100
AcDbLine
 10
130.8073877360951
 20
353.3855665035963
 30
0.0
 11
130.65113523176
 21
353.2949456109167
 31
0.0
  0
LINE
  5
2007
330
1F
100
AcDbEntity
  8
0
  6
Continuous
 62
     7
370
     9
100
AcDbLine
 10
128.3123858836935
 20
353.8112760078814
 30
0.0
 11
128.4686383974731
 21
353.9018968304289
 31
0.0
  0
LINE
  5
2008
330
1F
100
AcDbEntity
  8
0
  6
Continuous
 62
     7
370
     9
100
AcDbLine
 10
130.8073877360951
 20
353.3855665035963
 30
0.0
 11
130.8123258390258
 21
353.3912871121473
 31
0.0
  0
LINE
  5
2009
330
1F
100
AcDbEntity
  8
0
  6
Continuous
 62
     7
370
     9
100
AcDbLine
 10
130.6397725624601
 20
353.706173390341
 30
0.0
 11
130.8073877455396
 21
353.6089589347107
 31
0.0
  0
LINE
  5
200A
330
1F
100
AcDbEntity
  8
0
  6
Continuous
 62
     7
370
     9
100
AcDbLine
 10
128.4800010618801
 20
353.4906691294811
 30
0.0
 11
128.312385893138
 21
353.587883576767
 31
0.0
  0
LINE
  5
200B
330
1F
100
AcDbEntity
  8
0
  6
Continuous
 62
     7
370
     9
100
AcDbLine
 10
130.8073877455396
 20
353.6089589347107
 30
0.0
 11
130.8123258390258
 21
353.6032383316594
 31
0.0
  0
LINE
  5
200C
330
1F
100
AcDbEntity
  8
0
  6
Continuous
 62
     7
370
     9
100
AcDbLine
 10
128.3123858836935
 20
353.8112760078814
 30
0.0
 11
128.3074477902453
 21
353.8055554048302
 31
0.0
  0
LINE
  5
200D
330
1F
100
AcDbEntity
  8
0
  6
Continuous
 62
     7
370
     9
100
AcDbLine
 10
130.8123258390258
 20
353.6032383316594
 30
0.0
 11
130.8123258390258
 21
353.3912871121473
 31
0.0
  0
LINE
  5
200E
330
1F
100
AcDbEntity
  8
0
  6
Continuous
 62
     7
370
     9
100
AcDbLine
 10
128.312385893138
 20
353.587883576767
 30
0.0
 11
128.3074477902453
 21
353.593604185318
 31
0.0
  0
LINE
  5
200F
330
1F
100
AcDbEntity
  8
0
  6
Continuous
 62
     7
370
     9
100
AcDbLine
 10
128.3074477902453
 20
353.8055554048302
 30
0.0
 11
128.3074477902453
 21
353.593604185318
 31
0.0
  0
SPLINE
  5
2010
330
1F
100
AcDbEntity
  8
0
  6
Continuous
 62
     7
370
     9
100
AcDbSpline
210
0.0
220
0.0
230
1.0
 70
     8
 71
     3
 72
     8
 73
     4
 74
     2
 42
0.0000000001
 43
0.0000000001
 44
0.0000000001
 12
0.0
 22
1.0
 32
0.0
 13
-0.1002776267664013
 23
0.9949594954419492
 33
0.0
 40
0.0
 40
0.0
 40
0.0
 40
0.0
 40
0.0010097984766727
 40
0.0010097984766727
 40
0.0010097984766727
 40
0.0010097984766727
 10
130.8123258390258
 20
353.3912871121473
 30
0.0
 10
130.8123258390258
 20
353.3916237116396
 30
0.0
 10
130.8123099067038
 20
353.3919607846641
 30
0.0
 10
130.8122761533055
 20
353.3922956875251
 30
0.0
 11
130.8123258390258
 21
353.3912871121473
 31
0.0
 11
130.8122761533055
 21
353.3922956875251
 31
0.0
  0
SPLINE
  5
2011
330
1F
100
AcDbEntity
  8
0
  6
Continuous
 62
     7
370
     9
100
AcDbSpline
210
0.0
220
0.0
230
1.0
 70
     8
 71
     3
 72
    22
 73
    18
 74
    16
 42
0.0000000001
 43
0.0000000001
 44
0.0000000001
 12
-0.1002776214911201
 22
0.994959495973622
 32
0.0
 13
-0.7965581643165197
 23
0.6045618999413512
 33
0.0
 40
0.0
 40
0.0
 40
0.0
 40
0.0
 40
0.0301326747843044
 40
0.1144041511006164
 40
0.2493343245782681
 40
0.4247027737476659
 40
0.6345480604540914
 40
0.8749136638596915
 40
1.132143637125073
 40
1.391190644375496
 40
1.646390407106071
 40
1.883278450604804
 40
2.093328208288222
 40
2.268623362076103
 40
2.403350991024359
 40
2.487465005692051
 40
2.511921273880282
 40
2.511921273880282
 40
2.511921273880282
 40
2.511921273880282
 10
130.8122761533055
 20
353.3922956875251
 30
0.0
 10
130.81126894232
 20
353.4022892844971
 30
0.0
 10
130.7582408910848
 20
353.4066141021006
 30
0.0
 10
130.690577209461
 20
353.4233096569042
 30
0.0
 10
130.5517624517371
 20
353.4331426012841
 30
0.0
 10
130.382026964053
 20
353.4470540607643
 30
0.0
 10
130.1727799155981
 20
353.4596525944271
 30
0.0
 10
129.9376973893359
 20
353.4728906370819
 30
0.0
 10
129.685714481742
 20
353.4859972165442
 30
0.0
 10
129.4289287677912
 20
353.4991594026515
 30
0.0
 10
129.1788574583069
 20
353.5121669471889
 30
0.0
 10
128.94526224491
 20
353.5253715774892
 30
0.0
 10
128.7379818451096
 20
353.5377370090655
 30
0.0
 10
128.5658566937401
 20
353.5521295719689
 30
0.0
 10
128.433170250924
 20
353.5607851411399
 30
0.0
 10
128.3562619112402
 20
353.5792300691261
 30
0.0
 10
128.3176901780021
 20
353.5813880996639
 30
0.0
 10
128.3111965646374
 20
353.5863165423177
 30
0.0
 11
130.8122761533055
 21
353.3922956875251
 31
0.0
 11
130.7848599604206
 21
353.4047989054049
 31
0.0
 11
130.70171889182
 21
353.4185555195412
 31
0.0
 11
130.5674846404311
 21
353.4322419167569
 31
0.0
 11
130.3926260303797
 21
353.4456045308342
 31
0.0
 11
130.1832022575868
 21
353.4588984295143
 31
0.0
 11
129.9432169177189
 21
353.4724136042814
 31
0.0
 11
129.6863424265315
 21
353.4859322922121
 31
0.0
 11
129.4276384161124
 21
353.4992584678996
 31
0.0
 11
129.1727918921341
 21
353.5126811395382
 31
0.0
 11
128.9362791409438
 21
353.5260101934081
 31
0.0
 11
128.7266515540301
 21
353.5393209224488
 31
0.0
 11
128.5518666383709
 21
353.552685958907
 31
0.0
 11
128.4178350569151
 21
353.566363282274
 31
0.0
 11
128.3348515788256
 21
353.5801077294317
 31
0.0
 11
128.3111965646374
 21
353.5863165423177
 31
0.0
  0
SPLINE
  5
2012
330
1F
100
AcDbEntity
  8
0
  6
Continuous
 62
     7
370
     9
100
AcDbSpline
210
0.0
220
0.0
230
1.0
 70
     8
 71
     3
 72
    22
 73
    18
 74
    16
 42
0.0000000001
 43
0.0000000001
 44
0.0000000001
 12
0.250508813973156
 22
-0.9681143187257188
 32
0.0
 13
0.3906703237736134
 23
-0.9205306611529135
 33
0.0
 40
0.0
 40
0.0
 40
0.0
 40
0.0
 40
0.0007783791048324
 40
0.0561623758608577
 40
0.161656803943458
 40
0.3126787806438572
 40
0.5019071846104389
 40
0.7200193838127338
 40
0.9562215850123381
 40
1.198806603669833
 40
1.435745914641455
 40
1.655295202339011
 40
1.846587941705603
 40
2.000195601688541
 40
2.108657885506754
 40
2.167180311737852
 40
2.169573836629236
 40
2.169573836629236
 40
2.169573836629236
 40
2.169573836629236
 10
128.4807757845515
 20
353.4908695963431
 30
0.0
 10
128.4808407814936
 20
353.4906184096908
 30
0.0
 10
128.4859364158441
 20
353.4724975329211
 30
0.0
 10
128.561437658658
 20
353.4809660000759
 30
0.0
 10
128.6487532049367
 20
353.4545007827803
 30
0.0
 10
128.8040119152334
 20
353.447137163439
 30
0.0
 10
128.9868698429396
 20
353.4309517904176
 30
0.0
 10
129.2018519486611
 20
353.4177711702558
 30
0.0
 10
129.4334345278213
 20
353.4034926308174
 30
0.0
 10
129.6717311129803
 20
353.3895755670611
 30
0.0
 10
129.9041111314817
 20
353.3753182251465
 30
0.0
 10
130.1202590289102
 20
353.3620532232776
 30
0.0
 10
130.3058897137635
 20
353.346082527111
 30
0.0
 10
130.4617855097319
 20
353.3381493665418
 30
0.0
 10
130.555989573492
 20
353.3126219820062
 30
0.0
 10
130.6289476116667
 20
353.3201107916537
 30
0.0
 10
130.6377513985089
 20
353.3015481875652
 30
0.0
 10
130.638063091557
 20
353.3008137498816
 30
0.0
 11
128.4807757845515
 21
353.4908695963431
 31
0.0
 11
128.4809860864355
 21
353.4901201651264
 31
0.0
 11
128.5344664246422
 21
353.475724314267
 31
0.0
 11
128.638974002523
 21
353.4613284634076
 31
0.0
 11
128.7893082864523
 21
353.4469326125482
 31
0.0
 11
128.9779883022085
 21
353.4325367616887
 31
0.0
 11
129.1956249051017
 21
353.4181409108294
 31
0.0
 11
129.4313880051209
 21
353.4037450600079
 31
0.0
 11
129.6735454967562
 21
353.3893492091485
 31
0.0
 11
129.9100470751056
 21
353.374953358289
 31
0.0
 11
130.1291238863078
 21
353.3605575074296
 31
0.0
 11
130.3198741723165
 21
353.3461616565702
 31
0.0
 11
130.4728057671014
 21
353.3317658057108
 31
0.0
 11
130.5803084484126
 21
353.3173699548513
 31
0.0
 11
130.6370326394603
 21
353.3029741039919
 31
0.0
 11
130.638063091557
 21
353.3008137498816
 31
0.0
  0
SPLINE
  5
2013
330
1F
100
AcDbEntity
  8
0
  6
Continuous
 62
     7
370
     9
100
AcDbSpline
210
0.0
220
0.0
230
1.0
 70
     8
 71
     3
 72
    21
 73
    17
 74
    15
 42
0.0000000001
 43
0.0000000001
 44
0.0000000001
 12
0.4929694063175559
 22
-0.8700466449765302
 32
0.0
 13
0.1614492973955897
 23
-0.9868810082124747
 33
0.0
 40
0.0
 40
0.0
 40
0.0
 40
0.0
 40
0.0178170539526863
 40
0.0786937432088672
 40
0.189369676005465
 40
0.3448979692040774
 40
0.5377154427278552
 40
0.7583154402667251
 40
0.9957782807896538
 40
1.238333280071705
 40
1.473953423383869
 40
1.690960850760963
 40
1.878617705364458
 40
2.027682076087341
 40
2.130938762633241
 40
2.183909969539122
 40
2.183909969539122
 40
2.183909969539122
 40
2.183909969539122
 10
128.4686383974731
 20
353.9018968304289
 30
0.0
 10
128.4715661516429
 20
353.8967296077573
 30
0.0
 10
128.4999325475207
 20
353.8887313999816
 30
0.0
 10
128.5578626694539
 20
353.8739971424729
 30
0.0
 10
128.6687071694976
 20
353.862723994
 30
0.0
 10
128.8199712183649
 20
353.8483240672467
 30
0.0
 10
129.0095421111369
 20
353.8347573642576
 30
0.0
 10
129.2259181422054
 20
353.8206897727627
 30
0.0
 10
129.4590535626212
 20
353.8066716080276
 30
0.0
 10
129.6972685794283
 20
353.7926903544645
 30
0.0
 10
129.928239093776
 20
353.7784203291673
 30
0.0
 10
130.142310594832
 20
353.7652715436607
 30
0.0
 10
130.3230926108589
 20
353.7490113313947
 30
0.0
 10
130.4777628622735
 20
353.7418441197946
 30
0.0
 10
130.5601756667874
 20
353.7152097298044
 30
0.0
 10
130.6370962301294
 20
353.7236273456155
 30
0.0
 10
130.6399469515085
 20
353.7062019195897
 30
0.0
 11
128.4686383974731
 21
353.9018968304289
 31
0.0
 11
128.4841909509861
 21
353.8932039890764
 31
0.0
 11
128.5433410209169
 21
353.878808138217
 31
0.0
 11
128.6530767105463
 21
353.8644122873576
 31
0.0
 11
128.8079373235611
 21
353.8500164364982
 31
0.0
 11
129.0002166453149
 21
353.8356205856387
 31
0.0
 11
129.2203464215656
 21
353.8212247347793
 31
0.0
 11
129.4573724963069
 21
353.8068288839199
 31
0.0
 11
129.6994999155612
 21
353.7924330330605
 31
0.0
 11
129.9346798709434
 21
353.778037182239
 31
0.0
 11
130.1512092754474
 21
353.7636413313796
 31
0.0
 11
130.338313135797
 21
353.7492454805201
 31
0.0
 11
130.4866807404047
 21
353.7348496296607
 31
0.0
 11
130.5889289814383
 21
353.7204537788014
 31
0.0
 11
130.6399469515085
 21
353.7062019195897
 31
0.0
  0
SPLINE
  5
2014
330
1F
100
AcDbEntity
  8
0
  6
Continuous
 62
     7
370
     9
100
AcDbSpline
210
0.0
220
0.0
230
1.0
 70
     8
 71
     3
 72
     8
 73
     4
 74
     2
 42
0.0000000001
 43
0.0000000001
 44
0.0000000001
 12
0.0
 22
-1.0
 32
0.0
 13
0.1003076508315724
 23
-0.9949564689898002
 33
0.0
 40
0.0
 40
0.0
 40
0.0
 40
0.0
 40
0.0010096964125451
 40
0.0010096964125451
 40
0.0010096964125451
 40
0.0010096964125451
 10
128.3074477902453
 20
353.8055554048302
 30
0.0
 10
128.3074477902453
 20
353.8052188393594
 30
0.0
 10
128.3074637257734
 20
353.8048818001206
 30
0.0
 10
128.3074974858651
 20
353.8045469321281
 30
0.0
 11
128.3074477902453
 21
353.8055554048302
 31
0.0
 11
128.3074974858651
 21
353.8045469321281
 31
0.0
  0
SPLINE
  5
2015
330
1F
100
AcDbEntity
  8
0
  6
Continuous
 62
     7
370
     9
100
AcDbSpline
210
0.0
220
0.0
230
1.0
 70
     8
 71
     3
 72
    22
 73
    18
 74
    16
 42
0.0000000001
 43
0.0000000001
 44
0.0000000001
 12
0.1003076473057551
 22
-0.9949564693452595
 32
0.0
 13
0.8034306909058082
 23
-0.5953982909873153
 33
0.0
 40
0.0
 40
0.0
 40
0.0
 40
0.0
 40
0.0301234345751199
 40
0.114133100461183
 40
0.2482683442512519
 40
0.4231560690566317
 40
0.6380576403533782
 40
0.8836717243098926
 40
1.143719148680903
 40
1.402728077449096
 40
1.65508637159435
 40
1.893066182306336
 40
2.103557152357962
 40
2.276687168779106
 40
2.407649432601953
 40
2.488296796547137
 40
2.511875241497095
 40
2.511875241497095
 40
2.511875241497095
 40
2.511875241497095
 10
128.3074974858651
 20
353.8045469321281
 30
0.0
 10
128.3085046894821
 20
353.7945564300916
 30
0.0
 10
128.3614114526077
 20
353.7902401604229
 30
0.0
 10
128.4287887906672
 20
353.7736019730065
 30
0.0
 10
128.5670410765453
 20
353.7637775405688
 30
0.0
 10
128.7380220730372
 20
353.7497495412645
 30
0.0
 10
128.9505698988896
 20
353.7369751289682
 30
0.0
 10
129.1900102816853
 20
353.7235234523373
 30
0.0
 10
129.4446685809328
 20
353.7103010595658
 30
0.0
 10
129.7014337917121
 20
353.6971393742607
 30
0.0
 10
129.9509076127396
 20
353.6841375946776
 30
0.0
 10
130.1840674658073
 20
353.6709159556416
 30
0.0
 10
130.3911240328729
 20
353.6584711733125
 30
0.0
 10
130.5614514147864
 20
353.6441240565067
 30
0.0
 10
130.69087363928
 20
353.6353760893796
 30
0.0
 10
130.7653574070509
 20
353.6175741874733
 30
0.0
 10
130.8022026559137
 20
353.6151625492467
 30
0.0
 10
130.8085172046859
 20
353.6104830273043
 30
0.0
 11
128.3074974858651
 21
353.8045469321281
 31
0.0
 11
128.3349045076497
 21
353.7920458734729
 31
0.0
 11
128.417785411097
 21
353.7783207211587
 31
0.0
 11
128.5512265583185
 21
353.7646926671953
 31
0.0
 11
128.7256041309294
 21
353.7513443168131
 31
0.0
 11
128.940074444963
 21
353.7377366078151
 31
0.0
 11
129.1853016954839
 21
353.7239571361356
 31
0.0
 11
129.4449909364168
 21
353.7103130507631
 31
0.0
 11
129.7036568748516
 21
353.6969879813335
 31
0.0
 11
129.955664629792
 21
353.6836913624483
 31
0.0
 11
130.1932646319852
 21
353.6702515237471
 31
0.0
 11
130.4033263308022
 21
353.6568153351735
 31
0.0
 11
130.5759401026002
 21
353.6434553811448
 31
0.0
 11
130.7062031055002
 21
353.629940033532
 31
0.0
 11
130.78572842216
 21
353.6165340154256
 31
0.0
 11
130.8085172046859
 21
353.6104830273043
 31
0.0
  0
LINE
  5
2016
330
1F
100
AcDbEntity
  8
0
370
     9
100
AcDbLine
 10
130.5503008891083
 20
385.7955185200339
 30
0.0
 11
128.3053064570439
 21
384.4993703803524
 31
0.0
  0
LINE
  5
2017
330
1F
100
AcDbEntity
  8
0
370
     9
100
AcDbLine
 10
130.6503008891083
 20
385.622313439277
 30
0.0
 11
128.4053064570439
 21
384.3261652995955
 31
0.0
  0
TEXT
  5
2018
330
1F
100
AcDbEntity
  8
0
 62
     7
370
     9
100
AcDbText
 10
131.6221763647768
 20
384.0901229902924
 30
0.0
 40
2.0
  1
RCE
  7
型式1
100
AcDbText
  0
ARC
  5
2019
330
1F
100
AcDbEntity
  8
0
  6
Continuous
 62
     7
370
     9
100
AcDbCircle
 10
158.6247951934897
 20
385.9067379645464
 30
0.0
 40
1.209152595828989
100
AcDbArc
 50
152.7252385029191
 51
225.0
  0
ARC
  5
201A
330
1F
100
AcDbEntity
  8
0
  6
Continuous
 62
     7
370
     9
100
AcDbCircle
 10
156.9147951934897
 20
384.1967379645465
 30
0.0
 40
1.209152595829013
100
AcDbArc
 50
333.6917871835408
 51
45.0
  0
LINE
  5
201B
330
1F
100
AcDbEntity
  8
0
 62
     7
370
     9
100
AcDbLine
 10
151.4778036730761
 20
386.4608419098147
 30
0.0
 11
156.1647521556782
 21
386.4608419098147
 31
0.0
  0
LINE
  5
201C
330
1F
100
AcDbEntity
  8
0
 62
     7
370
     9
100
AcDbLine
 10
151.4778036730761
 20
383.6608419098147
 30
0.0
 11
156.6133822633534
 21
383.6608419098147
 31
0.0
  0
ARC
  5
201D
330
1F
100
AcDbEntity
  8
0
  6
Continuous
 62
     7
370
     9
100
AcDbCircle
 10
157.2394701735033
 20
352.3617843081979
 30
0.0
 40
1.209152595828989
100
AcDbArc
 50
152.7252385029191
 51
225.0
  0
ARC
  5
201E
330
1F
100
AcDbEntity
  8
0
  6
Continuous
 62
     7
370
     9
100
AcDbCircle
 10
155.5294701735033
 20
350.651784308198
 30
0.0
 40
1.209152595829016
100
AcDbArc
 50
333.6917871835408
 51
45.0
  0
LINE
  5
201F
330
1F
100
AcDbEntity
  8
0
 62
     7
370
     9
100
AcDbLine
 10
151.4778036730761
 20
352.9158882534663
 30
0.0
 11
156.1647521556782
 21
352.9158882534663
 31
0.0
  0
LINE
  5
2020
330
1F
100
AcDbEntity
  8
0
 62
     7
370
     9
100
AcDbLine
 10
153.0168574259162
 20
350.1158882534663
 30
0.0
 11
156.6133822633534
 21
350.1158882534663
 31
0.0
  0
LINE
  5
2021
330
1F
100
AcDbEntity
  8
0
 62
     7
370
     9
100
AcDbLine
 10
151.4778036730761
 20
350.1158882534662
 30
0.0
 11
153.0168574259162
 21
350.1158882534663
 31
0.0
  0
LINE
  5
2022
330
1F
100
AcDbEntity
  8
0
370
     9
100
AcDbLine
 10
151.4778036730761
 20
386.4608419098147
 30
0.0
 11
151.4778036730761
 21
383.6608419098147
 31
0.0
  0
LINE
  5
2023
330
1F
100
AcDbEntity
  8
0
370
     9
100
AcDbLine
 10
151.4778036730761
 20
353.0158882534662
 30
0.0
 11
151.4778036730761
 21
350.1158882534662
 31
0.0
  0
DIMENSION
  5
2024
330
1F
100
AcDbEntity
  8
AM_5
100
AcDbDimension
  2
*D3
 10
151.4778036730761
 20
358.2442544631433
 30
0.0
 11
139.4778036730761
 21
358.2442544631433
 31
0.0
 70
   160
 71
     5
 42
24.0
  3
AM_ISO$0
100
AcDbAlignedDimension
 13
127.4778036730761
 23
352.7408882534662
 33
0.0
 14
151.4778036730761
 24
353.8908882534662
 34
0.0
100
AcDbRotatedDimension
  0
DIMENSION
  5
2025
330
1F
100
AcDbEntity
  8
AM_5
100
AcDbDimension
  2
*D4
 10
124.7607833585755
 20
348.8908882534663
 30
0.0
 11
124.7607833585755
 21
351.3908882534662
 31
0.0
 70
   160
 71
     5
 42
5.0
  3
AM_ISO$0
100
AcDbAlignedDimension
 13
131.4778036730761
 23
353.8908882534662
 33
0.0
 14
131.4778036730761
 24
348.8908882534662
 34
0.0
 50
90.0
100
AcDbRotatedDimension
1001
ACAD
1000
DSTYLE
1002
{
1070
   147
1040
1.199999999999999
1002
}
  0
DIMENSION
  5
2026
330
1F
100
AcDbEntity
  8
AM_5
100
AcDbDimension
  2
*D5
 10
175.9862199680865
 20
358.2442544631433
 30
0.0
 11
163.7320118205813
 21
360.6945989513322
 31
0.0
 70
    32
  1
2000
 71
     5
 42
24.50841629501037
  3
AM_ISO$0
100
AcDbAlignedDimension
 13
151.4778036730761
 23
350.1158882534662
 33
0.0
 14
175.9862199680865
 24
352.3908882534662
 34
0.0
100
AcDbRotatedDimension
  0
DIMENSION
  5
2027
330
1F
100
AcDbEntity
  8
AM_5
100
AcDbDimension
  2
*D6
 10
124.7607833585755
 20
387.0608419066651
 30
0.0
 11
124.7607833585755
 21
385.0608419082399
 31
0.0
 70
   160
 71
     5
 42
3.999999996850419
  3
AM_ISO$0
100
AcDbAlignedDimension
 13
127.4778036730761
 23
383.0608419098147
 33
0.0
 14
127.4776900536192
 24
387.0608419066651
 34
0.0
 50
90.0
100
AcDbRotatedDimension
1001
ACAD
1000
DSTYLE
1002
{
1070
   147
1040
1.199999999999999
1002
}
  0
LEADER
  5
2028
330
1F
100
AcDbEntity
  8
AM_5
100
AcDbLeader
  3
AM_ISO$7
 73
     0
 74
     0
 75
     1
 40
3.5
 41
20.33333333333333
 76
     3
 10
129.8365582206552
 20
386.1749357481918
 30
0.0
 10
133.7715184282824
 20
391.165268353946
 30
0.0
 10
136.7715184282824
 20
391.165268353946
 30
0.0
213
1.735985865149586
223
-0.3286996798672277
233
0.0
1001
ACAD
1000
DSTYLE
1002
{
1070
   147
1040
0.2
1070
    77
1070
     1
1002
}
  0
MTEXT
  5
2029
102
{ACAD_REACTORS
330
2028
102
}
330
1F
100
AcDbEntity
  8
AM_5
100
AcDbMText
 10
135.2755325631328
 20
395.2339680338133
 30
0.0
 40
3.5
 41
0.0
 71
     1
 72
     1
  1
M2.6*5L
  7
DAYUS
 73
     1
 44
1.0
1001
ACAD
1000
MTEXTBEGIN
1070
    73
1070
     1
1070
    44
1040
1.0
1070
    74
1070
     0
1000
MTEXTEND
  0
LINE
  5
202A
330
1F
100
AcDbEntity
  8
0
 62
     7
370
     9
100
AcDbLine
 10
157.5500771756646
 20
352.9158882534662
 30
0.0
 11
162.9862199680866
 21
352.9158882534662
 31
0.0
  0
LINE
  5
202B
330
1F
100
AcDbEntity
  8
0
 62
     7
370
     9
100
AcDbLine
 10
157.9987072833397
 20
350.1158882534662
 30
0.0
 11
162.9862199680866
 21
350.1158882534662
 31
0.0
  0
LINE
  5
202C
330
1F
100
AcDbEntity
  8
0
 62
     7
370
     9
100
AcDbLine
 10
175.9862199680865
 20
352.3908882534662
 30
0.0
 11
175.9862199680865
 21
351.8908882534662
 31
0.0
  0
LINE
  5
202D
330
1F
100
AcDbEntity
  8
0
 62
     7
370
     9
100
AcDbLine
 10
175.9862199680865
 20
350.6408882534662
 30
0.0
 11
175.9862199680865
 21
351.1408882534662
 31
0.0
  0
LINE
  5
202E
330
1F
100
AcDbEntity
  8
0
 62
     7
370
     9
100
AcDbLine
 10
171.9862199680865
 20
352.4908882534662
 30
0.0
 11
171.9862199680865
 21
351.6908882534662
 31
0.0
  0
LINE
  5
202F
330
1F
100
AcDbEntity
  8
0
 62
     7
370
     9
100
AcDbLine
 10
171.9862199680865
 20
350.5408882534663
 30
0.0
 11
171.9862199680865
 21
351.3408882534662
 31
0.0
  0
LINE
  5
2030
330
1F
100
AcDbEntity
  8
0
 62
     7
370
     9
100
AcDbLine
 10
171.9862199680865
 20
350.6408882534662
 30
0.0
 11
175.9862199680865
 21
350.6408882534662
 31
0.0
  0
LINE
  5
2031
330
1F
100
AcDbEntity
  8
0
 62
     7
370
     9
100
AcDbLine
 10
171.9862199680865
 20
351.1408882534662
 30
0.0
 11
175.9862199680865
 21
351.1408882534662
 31
0.0
  0
LINE
  5
2032
330
1F
100
AcDbEntity
  8
0
 62
     7
370
     9
100
AcDbLine
 10
171.9862199680865
 20
351.8908882534662
 30
0.0
 11
175.9862199680865
 21
351.8908882534662
 31
0.0
  0
LINE
  5
2033
330
1F
100
AcDbEntity
  8
0
 62
     7
370
     9
100
AcDbLine
 10
171.9862199680865
 20
352.3908882534662
 30
0.0
 11
175.9862199680865
 21
352.3908882534662
 31
0.0
  0
LINE
  5
2034
330
1F
100
AcDbEntity
  8
0
 62
     7
370
     9
100
AcDbLine
 10
162.9862199680866
 20
351.3408882534662
 30
0.0
 11
167.5509156971525
 21
351.3408882534662
 31
0.0
  0
LINE
  5
2035
330
1F
100
AcDbEntity
  8
0
 62
     7
370
     9
100
AcDbLine
 10
162.9862199680866
 20
350.5408882534662
 30
0.0
 11
167.68809689734
 21
350.5408882534663
 31
0.0
  0
LINE
  5
2036
330
1F
100
AcDbEntity
  8
0
 62
     7
370
     9
100
AcDbLine
 10
162.9862199680866
 20
352.4908882534662
 30
0.0
 11
166.9996137100964
 21
352.4908882534662
 31
0.0
  0
LINE
  5
2037
330
1F
100
AcDbEntity
  8
0
 62
     7
370
     9
100
AcDbLine
 10
162.9862199680866
 20
351.6908882534662
 30
0.0
 11
167.2725364680975
 21
351.6908882534662
 31
0.0
  0
LINE
  5
2038
330
1F
100
AcDbEntity
  8
0
 62
     7
370
     9
100
AcDbLine
 10
169.0167522010059
 20
351.3408882534662
 30
0.0
 11
171.9862199680865
 21
351.3408882534662
 31
0.0
  0
LINE
  5
2039
330
1F
100
AcDbEntity
  8
0
 62
     7
370
     9
100
AcDbLine
 10
169.1552880097363
 20
350.5408882534662
 30
0.0
 11
171.9862199680865
 21
350.5408882534662
 31
0.0
  0
LINE
  5
203A
330
1F
100
AcDbEntity
  8
0
 62
     7
370
     9
100
AcDbLine
 10
168.4565758421389
 20
352.4908882534662
 30
0.0
 11
171.9862199680865
 21
352.4908882534662
 31
0.0
  0
LINE
  5
203B
330
1F
100
AcDbEntity
  8
0
 62
     7
370
     9
100
AcDbLine
 10
168.7436012329554
 20
351.6908882534662
 30
0.0
 11
171.9862199680865
 21
351.6908882534662
 31
0.0
  0
LINE
  5
203C
330
1F
100
AcDbEntity
  8
0
370
     9
100
AcDbLine
 10
162.9862199680866
 20
352.9158882534662
 30
0.0
 11
162.9862199680866
 21
350.1158882534662
 31
0.0
  0
LINE
  5
203D
330
1F
100
AcDbEntity
  8
0
370
     9
100
AcDbLine
 10
162.9862199680866
 20
352.3908882534662
 30
0.0
 11
162.9862199680866
 21
350.6408882534662
 31
0.0
  0
ARC
  5
203E
330
1F
100
AcDbEntity
  8
0
  6
Continuous
 62
     7
370
     9
100
AcDbCircle
 10
168.2068809841715
 20
352.4583843937056
 30
0.0
 40
1.209152595828989
100
AcDbArc
 50
170.1185020473043
 51
225.0
  0
ARC
  5
203F
330
1F
100
AcDbEntity
  8
0
  6
Continuous
 62
     7
370
     9
100
AcDbCircle
 10
169.6626872876981
 20
352.4765922842421
 30
0.0
 40
1.209152595828989
100
AcDbArc
 50
170.9931475738522
 51
225.0
  0
ARC
  5
2040
330
1F
100
AcDbEntity
  8
0
  6
Continuous
 62
     7
370
     9
100
AcDbCircle
 10
167.952687287698
 20
350.766592284242
 30
0.0
 40
1.209152595829016
100
AcDbArc
 50
340.6466871802776
 51
45.0
  0
ARC
  5
2041
330
1F
100
AcDbEntity
  8
0
  6
Continuous
 62
     7
370
     9
100
AcDbCircle
 10
166.4968809841715
 20
350.7483843937056
 30
0.0
 40
1.209152595829016
100
AcDbArc
 50
341.5586319037369
 51
45.0
  0
ARC
  5
2042
330
1F
100
AcDbEntity
  8
0
  6
Continuous
 62
     7
370
     9
100
AcDbCircle
 10
158.6247951934897
 20
352.3617843081979
 30
0.0
 40
1.209152595828989
100
AcDbArc
 50
152.7252385029191
 51
225.0
  0
ARC
  5
2043
330
1F
100
AcDbEntity
  8
0
  6
Continuous
 62
     7
370
     9
100
AcDbCircle
 10
156.9147951934897
 20
350.651784308198
 30
0.0
 40
1.209152595829016
100
AcDbArc
 50
333.6917871835408
 51
45.0
  0
LINE
  5
2044
330
1F
100
AcDbEntity
  8
0
370
     9
100
AcDbLine
 10
140.4778036730761
 20
384.3608419098146
 30
0.0
 11
142.2778036730761
 21
384.3608419098146
 31
0.0
  0
LINE
  5
2045
330
1F
100
AcDbEntity
  8
0
370
     9
100
AcDbLine
 10
142.2778036730761
 20
385.7608419098147
 30
0.0
 11
140.4778036730761
 21
385.7608419098147
 31
0.0
  0
LINE
  5
2046
330
1F
100
AcDbEntity
  8
0
370
     9
100
AcDbLine
 10
139.9778036730761
 20
385.2608419098147
 30
0.0
 11
139.9778036730761
 21
384.8608419098146
 31
0.0
  0
LINE
  5
2047
330
1F
100
AcDbEntity
  8
0
370
     9
100
AcDbLine
 10
142.7778036730761
 20
384.8608419098146
 30
0.0
 11
142.7778036730761
 21
385.2608419098147
 31
0.0
  0
ARC
  5
2048
330
1F
100
AcDbEntity
  8
0
370
     9
100
AcDbCircle
 10
140.4778036730761
 20
384.8608419098146
 30
0.0
 40
0.5
100
AcDbArc
 50
180.0
 51
270.0
  0
ARC
  5
2049
330
1F
100
AcDbEntity
  8
0
370
     9
100
AcDbCircle
 10
140.4778036730761
 20
385.2608419098147
 30
0.0
 40
0.5
100
AcDbArc
 50
90.0
 51
180.0
  0
ARC
  5
204A
330
1F
100
AcDbEntity
  8
0
370
     9
100
AcDbCircle
 10
142.2778036730761
 20
385.2608419098147
 30
0.0
 40
0.5
100
AcDbArc
 50
0.0
 51
90.0
  0
ARC
  5
204B
330
1F
100
AcDbEntity
  8
0
370
     9
100
AcDbCircle
 10
142.2778036730761
 20
384.8608419098146
 30
0.0
 40
0.5
100
AcDbArc
 50
270.0
 51
0.0
  0
LEADER
  5
204C
330
1F
100
AcDbEntity
  8
AM_5
100
AcDbLeader
  3
AM_ISO$7
 73
     0
 74
     0
 75
     1
 40
3.0
 41
7.142857142857142
 76
     3
 10
141.1572540806064
 20
384.8054229878492
 30
0.0
 10
148.5459647837354
 20
375.5817196878902
 30
0.0
 10
151.5459647837353
 20
375.5817196878902
 30
0.0
213
1.498102521800547
223
-0.3912552379740788
233
0.0
1001
ACAD
1000
DSTYLE
1002
{
1070
   147
1040
0.2
1070
    77
1070
     1
1002
}
  0
MTEXT
  5
204D
102
{ACAD_REACTORS
330
204C
102
}
330
1F
100
AcDbEntity
  8
AM_5
100
AcDbMText
 10
150.2878622619348
 20
379.2129749258643
 30
0.0
 40
3.0
 41
0.0
 71
     1
 72
     1
  1
LED
  7
DAYUS
 73
     1
 44
1.0
1001
ACAD
1000
MTEXTBEGIN
1070
    73
1070
     1
1070
    44
1040
1.0
1070
    74
1070
     0
1000
MTEXTEND
  0
SOLID
  5
204E
330
1F
100
AcDbEntity
  8
0
 48
6.0
100
AcDbTrace
 10
144.4158659847202
 20
385.4660505587775
 30
0.0
 11
144.4158659847202
 21
385.2073726948981
 31
0.0
 12
143.6624692912186
 22
384.4789156963378
 32
0.0
 13
143.8598962637068
 23
384.4789156963378
 33
0.0
  0
SOLID
  5
204F
330
1F
100
AcDbEntity
  8
0
 48
6.0
100
AcDbTrace
 10
143.6624692912186
 20
385.4660505587775
 30
0.0
 11
143.6624692912186
 21
385.2073726948981
 31
0.0
 12
142.9090725977173
 22
384.4789156963378
 32
0.0
 13
143.1064995702052
 23
384.4789156963378
 33
0.0
  0
SOLID
  5
2050
330
1F
100
AcDbEntity
  8
0
 48
6.0
100
AcDbTrace
 10
143.8598962637068
 20
385.4660505587775
 30
0.0
 11
143.8598962637068
 21
384.7375935602173
 31
0.0
 12
143.6624692912186
 22
385.4660505587775
 32
0.0
 13
143.6624692912186
 23
384.4789156963378
 33
0.0
  0
POLYLINE
  5
2051
330
1F
100
AcDbEntity
  8
0
 48
6.0
100
AcDb2dPolyline
 66
     1
 10
0.0
 20
0.0
 30
0.0
 40
0.197426972487932
 41
0.197426972487932
  0
VERTEX
  5
2052
330
2051
100
AcDbEntity
  8
0
100
AcDbVertex
100
AcDb2dVertex
 10
148.2032764966429
 20
384.4789156963378
 30
0.0
  0
VERTEX
  5
2053
330
2051
100
AcDbEntity
  8
0
100
AcDbVertex
100
AcDb2dVertex
 10
148.2032764966429
 20
385.0711966138017
 30
0.0
  0
SEQEND
  5
2054
330
2051
100
AcDbEntity
  8
0
  0
POLYLINE
  5
2055
330
1F
100
AcDbEntity
  8
0
 48
6.0
100
AcDb2dPolyline
 66
     1
 10
0.0
 20
0.0
 30
0.0
 40
0.197426972487932
 41
0.197426972487932
  0
VERTEX
  5
2056
330
2055
100
AcDbEntity
  8
0
100
AcDbVertex
100
AcDb2dVertex
 10
148.7955574141066
 20
385.0711966138017
 30
0.0
 42
1.0
  0
VERTEX
  5
2057
330
2055
100
AcDbEntity
  8
0
100
AcDbVertex
100
AcDb2dVertex
 10
148.2032764966429
 20
385.0711966138017
 30
0.0
 42
1.0
  0
SEQEND
  5
2058
330
2055
100
AcDbEntity
  8
0
  0
POLYLINE
  5
2059
330
1F
100
AcDbEntity
  8
0
 48
6.0
100
AcDb2dPolyline
 66
     1
 10
0.0
 20
0.0
 30
0.0
 40
0.197426972487932
 41
0.197426972487932
  0
VERTEX
  5
205A
330
2059
100
AcDbEntity
  8
0
100
AcDbVertex
100
AcDb2dVertex
 10
148.2032764966429
 20
385.0711966138017
 30
0.0
 42
1.0
  0
VERTEX
  5
205B
330
2059
100
AcDbEntity
  8
0
100
AcDbVertex
100
AcDb2dVertex
 10
147.6109955791793
 20
385.0711966138017
 30
0.0
 42
1.0
  0
SEQEND
  5
205C
330
2059
100
AcDbEntity
  8
0
  0
SOLID
  5
205D
330
1F
100
AcDbEntity
  8
0
 48
6.0
100
AcDbTrace
 10
144.613292957208
 20
385.4660505587775
 30
0.0
 11
144.613292957208
 21
384.4789156963378
 31
0.0
 12
144.4158659847202
 22
385.4660505587775
 32
0.0
 13
144.4158659847202
 23
384.4789156963378
 33
0.0
  0
SOLID
  5
205E
330
1F
100
AcDbEntity
  8
0
 48
6.0
100
AcDbTrace
 10
145.0444251941391
 20
385.4660505587775
 30
0.0
 11
145.0444251941391
 21
384.4789156963378
 31
0.0
 12
144.8469982216509
 22
385.4660505587775
 32
0.0
 13
144.8469982216509
 23
384.4789156963378
 33
0.0
  0
SOLID
  5
205F
330
1F
100
AcDbEntity
  8
0
 48
6.0
100
AcDbTrace
 10
145.0444251941391
 20
385.7621910175095
 30
0.0
 11
145.0444251941391
 21
385.604249439519
 31
0.0
 12
144.8469982216509
 22
385.7621910175095
 32
0.0
 13
144.8469982216509
 23
385.604249439519
 33
0.0
  0
POLYLINE
  5
2060
330
1F
100
AcDbEntity
  8
0
 48
6.0
100
AcDb2dPolyline
 66
     1
 10
0.0
 20
0.0
 30
0.0
 40
0.197426972487932
 41
0.197426972487932
  0
VERTEX
  5
2061
330
2060
100
AcDbEntity
  8
0
100
AcDbVertex
100
AcDb2dVertex
 10
145.3734767291845
 20
384.4789156963378
 30
0.0
  0
VERTEX
  5
2062
330
2060
100
AcDbEntity
  8
0
100
AcDbVertex
100
AcDb2dVertex
 10
145.3734767291845
 20
385.4660505587775
 30
0.0
  0
SEQEND
  5
2063
330
2060
100
AcDbEntity
  8
0
  0
POLYLINE
  5
2064
330
1F
100
AcDbEntity
  8
0
 48
6.0
100
AcDb2dPolyline
 66
     1
 10
0.0
 20
0.0
 30
0.0
 40
0.197426972487932
 41
0.197426972487932
  0
VERTEX
  5
2065
330
2064
100
AcDbEntity
  8
0
100
AcDbVertex
100
AcDb2dVertex
 10
145.3734767291845
 20
385.0711966138017
 30
0.0
 42
-1.0
  0
VERTEX
  5
2066
330
2064
100
AcDbEntity
  8
0
100
AcDbVertex
100
AcDb2dVertex
 10
145.9657576466481
 20
385.0711966138017
 30
0.0
 42
-0.0000000000000001
  0
SEQEND
  5
2067
330
2064
100
AcDbEntity
  8
0
  0
POLYLINE
  5
2068
330
1F
100
AcDbEntity
  8
0
 48
6.0
100
AcDb2dPolyline
 66
     1
 10
0.0
 20
0.0
 30
0.0
 40
0.197426972487932
 41
0.197426972487932
  0
VERTEX
  5
2069
330
2068
100
AcDbEntity
  8
0
100
AcDbVertex
100
AcDb2dVertex
 10
145.9657576466481
 20
385.0711966138017
 30
0.0
  0
VERTEX
  5
206A
330
2068
100
AcDbEntity
  8
0
100
AcDbVertex
100
AcDb2dVertex
 10
145.9657576466481
 20
384.4789156963378
 30
0.0
  0
SEQEND
  5
206B
330
2068
100
AcDbEntity
  8
0
  0
POLYLINE
  5
206C
330
1F
100
AcDbEntity
  8
0
 48
6.0
100
AcDb2dPolyline
 66
     1
 10
0.0
 20
0.0
 30
0.0
 40
0.197426972487932
 41
0.197426972487932
  0
VERTEX
  5
206D
330
206C
100
AcDbEntity
  8
0
100
AcDbVertex
100
AcDb2dVertex
 10
147.1832305578895
 20
384.4789156963378
 30
0.0
  0
VERTEX
  5
206E
330
206C
100
AcDbEntity
  8
0
100
AcDbVertex
100
AcDb2dVertex
 10
147.1832305578895
 20
385.7621910175095
 30
0.0
  0
SEQEND
  5
206F
330
206C
100
AcDbEntity
  8
0
  0
POLYLINE
  5
2070
330
1F
100
AcDbEntity
  8
0
 48
6.0
100
AcDb2dPolyline
 66
     1
 10
0.0
 20
0.0
 30
0.0
 70
     1
 40
0.197426972487932
 41
0.197426972487932
  0
VERTEX
  5
2071
330
2070
100
AcDbEntity
  8
0
100
AcDbVertex
100
AcDb2dVertex
 10
146.3935424106352
 20
384.9724831275576
 30
0.0
 42
1.0
  0
VERTEX
  5
2072
330
2070
100
AcDbEntity
  8
0
100
AcDbVertex
100
AcDb2dVertex
 10
147.183250300587
 20
384.9724831275576
 30
0.0
 42
1.0
  0
SEQEND
  5
2073
330
2070
100
AcDbEntity
  8
0
  0
POLYLINE
  5
2074
330
1F
100
AcDbEntity
  8
0
 48
6.0
100
AcDb2dPolyline
 66
     1
 10
0.0
 20
0.0
 30
0.0
 40
0.197426972487932
 41
0.197426972487932
  0
VERTEX
  5
2075
330
2074
100
AcDbEntity
  8
0
100
AcDbVertex
100
AcDb2dVertex
 10
147.6109955791793
 20
384.4789156963378
 30
0.0
  0
VERTEX
  5
2076
330
2074
100
AcDbEntity
  8
0
100
AcDbVertex
100
AcDb2dVertex
 10
147.6109955791793
 20
385.4660505587775
 30
0.0
  0
SEQEND
  5
2077
330
2074
100
AcDbEntity
  8
0
  0
POLYLINE
  5
2078
330
1F
100
AcDbEntity
  8
0
 48
6.0
100
AcDb2dPolyline
 66
     1
 10
0.0
 20
0.0
 30
0.0
 40
0.197426972487932
 41
0.197426972487932
  0
VERTEX
  5
2079
330
2078
100
AcDbEntity
  8
0
100
AcDbVertex
100
AcDb2dVertex
 10
150.4407953466378
 20
384.4789156963378
 30
0.0
  0
VERTEX
  5
207A
330
2078
100
AcDbEntity
  8
0
100
AcDbVertex
100
AcDb2dVertex
 10
150.4407953466378
 20
385.4660505587775
 30
0.0
  0
SEQEND
  5
207B
330
2078
100
AcDbEntity
  8
0
  0
POLYLINE
  5
207C
330
1F
100
AcDbEntity
  8
0
 48
6.0
100
AcDb2dPolyline
 66
     1
 10
0.0
 20
0.0
 30
0.0
 40
0.197426972487932
 41
0.197426972487932
  0
VERTEX
  5
207D
330
207C
100
AcDbEntity
  8
0
100
AcDbVertex
100
AcDb2dVertex
 10
150.4407953466378
 20
385.0711966138017
 30
0.0
 42
-1.0
  0
VERTEX
  5
207E
330
207C
100
AcDbEntity
  8
0
100
AcDbVertex
100
AcDb2dVertex
 10
151.0330762641017
 20
385.0711966138017
 30
0.0
 42
-0.0000000000000001
  0
SEQEND
  5
207F
330
207C
100
AcDbEntity
  8
0
  0
POLYLINE
  5
2080
330
1F
100
AcDbEntity
  8
0
 48
6.0
100
AcDb2dPolyline
 66
     1
 10
0.0
 20
0.0
 30
0.0
 70
     1
 40
0.197426972487932
 41
0.197426972487932
  0
VERTEX
  5
2081
330
2080
100
AcDbEntity
  8
0
100
AcDbVertex
100
AcDb2dVertex
 10
149.2233421780939
 20
384.9724831275576
 30
0.0
 42
1.0
  0
VERTEX
  5
2082
330
2080
100
AcDbEntity
  8
0
100
AcDbVertex
100
AcDb2dVertex
 10
150.0130500680454
 20
384.9724831275576
 30
0.0
 42
1.0
  0
SEQEND
  5
2083
330
2080
100
AcDbEntity
  8
0
  0
POLYLINE
  5
2084
330
1F
100
AcDbEntity
  8
0
 48
6.0
100
AcDb2dPolyline
 66
     1
 10
0.0
 20
0.0
 30
0.0
 40
0.197426972487932
 41
0.197426972487932
  0
VERTEX
  5
2085
330
2084
100
AcDbEntity
  8
0
100
AcDbVertex
100
AcDb2dVertex
 10
148.7955574141066
 20
384.4789156963378
 30
0.0
  0
VERTEX
  5
2086
330
2084
100
AcDbEntity
  8
0
100
AcDbVertex
100
AcDb2dVertex
 10
148.7955574141066
 20
385.0711966138017
 30
0.0
  0
SEQEND
  5
2087
330
2084
100
AcDbEntity
  8
0
  0
POLYLINE
  5
2088
330
1F
100
AcDbEntity
  8
0
 48
6.0
100
AcDb2dPolyline
 66
     1
 10
0.0
 20
0.0
 30
0.0
 40
0.197426972487932
 41
0.197426972487932
  0
VERTEX
  5
2089
330
2088
100
AcDbEntity
  8
0
100
AcDbVertex
100
AcDb2dVertex
 10
150.013030325348
 20
384.4789156963378
 30
0.0
  0
VERTEX
  5
208A
330
2088
100
AcDbEntity
  8
0
100
AcDbVertex
100
AcDb2dVertex
 10
150.013030325348
 20
385.4660505587775
 30
0.0
  0
SEQEND
  5
208B
330
2088
100
AcDbEntity
  8
0
  0
POLYLINE
  5
208C
330
1F
100
AcDbEntity
  8
0
 48
6.0
100
AcDb2dPolyline
 66
     1
 10
0.0
 20
0.0
 30
0.0
 40
0.197426972487932
 41
0.197426972487932
  0
VERTEX
  5
208D
330
208C
100
AcDbEntity
  8
0
100
AcDbVertex
100
AcDb2dVertex
 10
151.0330762641017
 20
385.0711966138017
 30
0.0
  0
VERTEX
  5
208E
330
208C
100
AcDbEntity
  8
0
100
AcDbVertex
100
AcDb2dVertex
 10
151.0330762641017
 20
384.4789156963378
 30
0.0
  0
SEQEND
  5
208F
330
208C
100
AcDbEntity
  8
0
  0
MTEXT
  5
2091
330
1F
100
AcDbEntity
  8
0
100
AcDbMText
 10
117.9502546604255
 20
402.4171586676794
 30
0.0
 40
3.5
 41
13.53437909775562
 71
     1
 72
     5
  1
RCE
  7
DAYUS
 73
     1
 44
1.0
1001
ACAD
1000
MTEXTBEGIN
1070
    73
1070
     1
1070
    44
1040
1.0
1070
    74
1070
     0
1000
MTEXTEND
  0
MTEXT
  5
2092
330
1F
100
AcDbEntity
  8
0
100
AcDbMText
 10
200.6574046458756
 20
402.4171586676794
 30
0.0
 40
3.5
 41
25.14814814814815
 71
     1
 72
     5
  1
RCE-QD
  7
DAYUS
 73
     1
 44
1.0
1001
ACAD
1000
MTEXTBEGIN
1070
    73
1070
     1
1070
    44
1040
1.0
1070
    74
1070
     0
1000
MTEXTEND
  0
LINE
  5
2093
330
1F
100
AcDbEntity
  8
0
370
     9
100
AcDbLine
 10
203.2169222157055
 20
352.2408882534662
 30
0.0
 11
203.2169222157055
 21
353.2408882534662
 31
0.0
  0
LINE
  5
2094
330
1F
100
AcDbEntity
  8
0
370
     9
100
AcDbLine
 10
203.2169222157055
 20
383.0608419098147
 30
0.0
 11
203.2169222157055
 21
387.0608419098147
 31
0.0
  0
LINE
  5
2095
330
1F
100
AcDbEntity
  8
0
370
     9
100
AcDbLine
 10
207.2169222157056
 20
383.5108419098147
 30
0.0
 11
207.2169222157056
 21
386.6108419098146
 31
0.0
  0
LINE
  5
2096
330
1F
100
AcDbEntity
  8
0
370
     9
100
AcDbLine
 10
227.2169222157056
 20
383.0602320629897
 30
0.0
 11
203.2169222157055
 21
383.0608419098147
 31
0.0
  0
LINE
  5
2097
330
1F
100
AcDbEntity
  8
0
370
     9
100
AcDbLine
 10
227.2169222157056
 20
383.5108419098147
 30
0.0
 11
203.2169222157055
 21
383.5108419098147
 31
0.0
  0
LINE
  5
2098
330
1F
100
AcDbEntity
  8
0
370
     9
100
AcDbLine
 10
203.2169222157055
 20
386.6108419098146
 30
0.0
 11
227.2169222157056
 21
386.6108419098146
 31
0.0
  0
LINE
  5
2099
330
1F
100
AcDbEntity
  8
0
370
     9
100
AcDbLine
 10
227.2169222157056
 20
387.0614517566147
 30
0.0
 11
203.2169222157055
 21
387.0608419098147
 31
0.0
  0
LINE
  5
209A
330
1F
100
AcDbEntity
  8
0
370
     9
100
AcDbLine
 10
227.2169222157055
 20
383.0602320629897
 30
0.0
 11
227.2169222157056
 21
387.0614517566147
 31
0.0
  0
CIRCLE
  5
209B
330
1F
100
AcDbEntity
  8
0
370
     9
100
AcDbCircle
 10
205.2169222157055
 20
385.0608419098147
 30
0.0
 40
1.3
  0
LINE
  5
209C
330
1F
100
AcDbEntity
  8
0
370
     9
100
AcDbLine
 10
203.2169222157055
 20
348.8908882534662
 30
0.0
 11
203.2169222157055
 21
351.2408882534662
 31
0.0
  0
LINE
  5
209D
330
1F
100
AcDbEntity
  8
0
370
     9
100
AcDbLine
 10
207.2169222157056
 20
351.2408882534662
 30
0.0
 11
207.2169222157056
 21
352.2408882534662
 31
0.0
  0
LINE
  5
209E
330
1F
100
AcDbEntity
  8
0
370
     9
100
AcDbLine
 10
207.2169222157056
 20
353.2408882534662
 30
0.0
 11
207.2169222157056
 21
353.8908882534662
 31
0.0
  0
LINE
  5
209F
330
1F
100
AcDbEntity
  8
DEFAULT_2
 48
3.0
370
     9
100
AcDbLine
 10
206.5171712365556
 20
348.8908882534662
 30
0.0
 11
206.5114419990806
 21
348.8908882534662
 31
0.0
  0
LINE
  5
20A0
330
1F
100
AcDbEntity
  8
0
370
     9
100
AcDbLine
 10
227.2169222157056
 20
348.8908882534662
 30
0.0
 11
206.5171712365556
 21
348.8908882534662
 31
0.0
  0
LINE
  5
20A1
330
1F
100
AcDbEntity
  8
DEFAULT_2
 48
3.0
370
     9
100
AcDbLine
 10
203.9224022200305
 20
348.8908882534662
 30
0.0
 11
203.9166711984806
 21
348.8908882534662
 31
0.0
  0
LINE
  5
20A2
330
1F
100
AcDbEntity
  8
0
370
     9
100
AcDbLine
 10
203.9166711984806
 20
348.8908882534662
 30
0.0
 11
203.2169222157055
 21
348.8908882534662
 31
0.0
  0
LINE
  5
20A3
330
1F
100
AcDbEntity
  8
0
370
     9
100
AcDbLine
 10
207.2169222157056
 20
351.2408882534662
 30
0.0
 11
203.2169222157055
 21
351.2408882534662
 31
0.0
  0
LINE
  5
20A4
330
1F
100
AcDbEntity
  8
0
370
     9
100
AcDbLine
 10
207.2169222157056
 20
352.2408882534662
 30
0.0
 11
203.2169222157055
 21
352.2408882534662
 31
0.0
  0
LINE
  5
20A5
330
1F
100
AcDbEntity
  8
0
370
     9
100
AcDbLine
 10
207.2169222157056
 20
353.2408882534662
 30
0.0
 11
203.2169222157055
 21
353.2408882534662
 31
0.0
  0
LINE
  5
20A6
330
1F
100
AcDbEntity
  8
0
370
     9
100
AcDbLine
 10
227.2169222157056
 20
353.8908882534662
 30
0.0
 11
207.2169222157056
 21
353.8908882534662
 31
0.0
  0
LINE
  5
20A7
330
1F
100
AcDbEntity
  8
0
370
     9
100
AcDbLine
 10
227.2169222157056
 20
348.8908882534662
 30
0.0
 11
227.2169222157056
 21
353.8908882534662
 31
0.0
  0
SPLINE
  5
20A8
330
1F
100
AcDbEntity
  8
DEFAULT_2
 48
3.0
370
     9
100
AcDbSpline
210
0.0
220
0.0
230
1.0
 70
     8
 71
     3
 72
     8
 73
     4
 74
     2
 42
0.0000000001
 43
0.0000000001
 44
0.0000000001
 12
0.8451040590166007
 22
-0.5346018419662112
 32
0.0
 13
-0.4827628273608195
 23
-0.8757511361788735
 33
0.0
 40
0.0
 40
0.0
 40
0.0
 40
0.0
 40
0.0042563040375404
 40
0.0042563040375404
 40
0.0042563040375404
 40
0.0042563040375404
 10
206.5115886143806
 20
348.8942663822162
 30
0.0
 10
206.5127876209868
 20
348.8935079062234
 30
0.0
 10
206.5158667473127
 20
348.8932274217652
 30
0.0
 10
206.5151818188556
 20
348.8919849340663
 30
0.0
 11
206.5115886143806
 21
348.8942663822162
 31
0.0
 11
206.5151818188556
 21
348.8919849340663
 31
0.0
  0
SPLINE
  5
20A9
330
1F
100
AcDbEntity
  8
DEFAULT_2
 48
3.0
370
     9
100
AcDbSpline
210
0.0
220
0.0
230
1.0
 70
     8
 71
     3
 72
     9
 73
     5
 74
     3
 42
0.0000000001
 43
0.0000000001
 44
0.0000000001
 12
0.8463944276438681
 22
-0.5325565442780786
 32
0.0
 13
0.8451040591771674
 23
-0.5346018417123855
 33
0.0
 40
0.0
 40
0.0
 40
0.0
 40
0.0
 40
0.0133048527677887
 40
0.0136565857312191
 40
0.0136565857312191
 40
0.0136565857312191
 40
0.0136565857312191
 10
206.5000386009806
 20
348.9015533237912
 30
0.0
 10
206.5037923187284
 20
348.8991914616538
 30
0.0
 10
206.5076423759593
 20
348.8967625528449
 30
0.0
 10
206.5114895307289
 20
348.8943290612462
 30
0.0
 10
206.5115886143806
 20
348.8942663822162
 30
0.0
 11
206.5000386009806
 21
348.9015533237912
 31
0.0
 11
206.5112913575805
 21
348.8944544100663
 31
0.0
 11
206.5115886143806
 21
348.8942663822162
 31
0.0
  0
SPLINE
  5
20AA
330
1F
100
AcDbEntity
  8
DEFAULT_2
 48
3.0
370
     9
100
AcDbSpline
210
0.0
220
0.0
230
1.0
 70
     8
 71
     3
 72
     8
 73
     4
 74
     2
 42
0.0000000001
 43
0.0000000001
 44
0.0000000001
 12
0.8503474161623728
 22
-0.5262216945603598
 32
0.0
 13
0.8463944273434156
 23
-0.5325565447555892
 33
0.0
 40
0.0
 40
0.0
 40
0.0
 40
0.0
 40
0.0404157878553918
 40
0.0404157878553918
 40
0.0404157878553918
 40
0.0404157878553918
 10
206.4657513972305
 20
348.9229501358662
 30
0.0
 10
206.4772072174889
 20
348.9158609144088
 30
0.0
 10
206.4886360351081
 20
348.9087278879025
 30
0.0
 10
206.5000386009806
 20
348.9015533237912
 30
0.0
 11
206.4657513972305
 21
348.9229501358662
 31
0.0
 11
206.5000386009806
 21
348.9015533237912
 31
0.0
  0
SPLINE
  5
20AB
330
1F
100
AcDbEntity
  8
DEFAULT_2
 48
3.0
370
     9
100
AcDbSpline
210
0.0
220
0.0
230
1.0
 70
     8
 71
     3
 72
     9
 73
     5
 74
     3
 42
0.0000000001
 43
0.0000000001
 44
0.0000000001
 12
0.8552296572215571
 22
-0.5182492001042528
 32
0.0
 13
0.850347415962007
 23
-0.5262216948841403
 33
0.0
 40
0.0
 40
0.0
 40
0.0
 40
0.0
 40
0.0477726951224259
 40
0.0484723475705459
 40
0.0484723475705459
 40
0.0484723475705459
 40
0.0484723475705459
 10
206.4244153116555
 20
348.9482660555662
 30
0.0
 10
206.4380341868802
 20
348.9400133352216
 30
0.0
 10
206.4518130777149
 20
348.9315743553742
 30
0.0
 10
206.4655530813467
 20
348.9230728599653
 30
0.0
 10
206.4657513972305
 20
348.9229501358662
 30
0.0
 11
206.4244153116555
 21
348.9482660555662
 31
0.0
 11
206.4651564253555
 21
348.9233182690163
 31
0.0
 11
206.4657513972305
 21
348.9229501358662
 31
0.0
  0
SPLINE
  5
20AC
330
1F
100
AcDbEntity
  8
DEFAULT_2
 48
3.0
370
     9
100
AcDbSpline
210
0.0
220
0.0
230
1.0
 70
     8
 71
     3
 72
     8
 73
     4
 74
     2
 42
0.0000000001
 43
0.0000000001
 44
0.0000000001
 12
0.8611800650454982
 22
-0.5083000054773084
 32
0.0
 13
0.8552296571131487
 23
-0.5182492002831518
 33
0.0
 40
0.0
 40
0.0
 40
0.0
 40
0.0
 40
0.0566400607813992
 40
0.0566400607813992
 40
0.0566400607813992
 40
0.0566400607813992
 10
206.3758076075556
 20
348.9773416052162
 30
0.0
 10
206.3920667046315
 20
348.9677448908144
 30
0.0
 10
206.4082685584019
 20
348.9580506109676
 30
0.0
 10
206.4244153116555
 20
348.9482660555662
 30
0.0
 11
206.3758076075556
 21
348.9773416052162
 31
0.0
 11
206.4244153116555
 21
348.9482660555662
 31
0.0
  0
SPLINE
  5
20AD
330
1F
100
AcDbEntity
  8
DEFAULT_2
 48
3.0
370
     9
100
AcDbSpline
210
0.0
220
0.0
230
1.0
 70
     8
 71
     3
 72
     8
 73
     4
 74
     2
 42
0.0000000001
 43
0.0000000001
 44
0.0000000001
 12
0.8723631686130687
 22
-0.4888583660400698
 32
0.0
 13
0.8611800650241567
 23
-0.5083000055134658
 33
0.0
 40
0.0
 40
0.0
 40
0.0
 40
0.0
 40
0.0996228846692156
 40
0.0996228846692156
 40
0.0996228846692156
 40
0.0996228846692156
 10
206.2894628594805
 20
349.0270336934162
 30
0.0
 10
206.3184319712593
 20
349.010799866543
 30
0.0
 10
206.3472098601231
 20
348.9942210428251
 30
0.0
 10
206.3758076075556
 20
348.9773416052162
 30
0.0
 11
206.2894628594805
 21
349.0270336934162
 31
0.0
 11
206.3758076075556
 21
348.9773416052162
 31
0.0
  0
SPLINE
  5
20AE
330
1F
100
AcDbEntity
  8
DEFAULT_2
 48
3.0
370
     9
100
AcDbSpline
210
0.0
220
0.0
230
1.0
 70
     8
 71
     3
 72
     8
 73
     4
 74
     2
 42
0.0000000001
 43
0.0000000001
 44
0.0000000001
 12
0.8780554361215246
 22
-0.4785589316870382
 32
0.0
 13
0.8723631685932144
 23
-0.4888583660754997
 33
0.0
 40
0.0
 40
0.0
 40
0.0
 40
0.0
 40
0.0481156330958711
 40
0.0481156330958711
 40
0.0481156330958711
 40
0.0481156330958711
 10
206.2473520386805
 20
349.0503101390162
 30
0.0
 10
206.261434769748
 20
349.042634750359
 30
0.0
 10
206.2754714240984
 20
349.0348742700088
 30
0.0
 10
206.2894628594805
 20
349.0270336934162
 30
0.0
 11
206.2473520386805
 21
349.0503101390162
 31
0.0
 11
206.2894628594805
 21
349.0270336934162
 31
0.0
  0
SPLINE
  5
20AF
330
1F
100
AcDbEntity
  8
DEFAULT_2
 48
3.0
370
     9
100
AcDbSpline
210
0.0
220
0.0
230
1.0
 70
     8
 71
     3
 72
     8
 73
     4
 74
     2
 42
0.0000000001
 43
0.0000000001
 44
0.0000000001
 12
0.9012224301243982
 22
-0.4333568176926195
 32
0.0
 13
0.8780554361692239
 23
-0.4785589315995199
 33
0.0
 40
0.0
 40
0.0
 40
0.0
 40
0.0
 40
0.1811959148087197
 40
0.1811959148087197
 40
0.1811959148087197
 40
0.1811959148087197
 10
206.0861753642805
 20
349.1330992637412
 30
0.0
 10
206.1406079718381
 20
349.1069251020677
 30
0.0
 10
206.1943186860108
 20
349.0792144468166
 30
0.0
 10
206.2473520386805
 20
349.0503101390162
 30
0.0
 11
206.0861753642805
 21
349.1330992637412
 31
0.0
 11
206.2473520386805
 21
349.0503101390162
 31
0.0
  0
SPLINE
  5
20B0
330
1F
100
AcDbEntity
  8
DEFAULT_2
 48
3.0
370
     9
100
AcDbSpline
210
0.0
220
0.0
230
1.0
 70
     8
 71
     3
 72
    17
 73
    13
 74
    11
 42
0.0000000001
 43
0.0000000001
 44
0.0000000001
 12
0.90122243013781
 22
-0.4333568176647279
 32
0.0
 13
-0.9105379044594389
 23
0.4134255973480763
 33
0.0
 40
0.0
 40
0.0
 40
0.0
 40
0.0
 40
0.1808831682744081
 40
0.3282159909079232
 40
0.433341057851958
 40
0.4877612225420037
 40
0.4881129555054342
 40
0.5418469123320796
 40
0.6468376499834544
 40
0.7948067722029011
 40
0.9763473929968991
 40
1.042662834615966
 40
1.042662834615966
 40
1.042662834615966
 40
1.042662834615966
 10
206.0861753642805
 20
349.1330992637412
 30
0.0
 10
206.1405140204417
 20
349.106970279017
 30
0.0
 10
206.2378162779332
 20
349.0567750549268
 30
0.0
 10
206.3633050930325
 20
348.9853547422317
 30
0.0
 10
206.4509769600918
 20
348.9323002888237
 30
0.0
 10
206.4959505699715
 20
348.9041581338482
 30
0.0
 10
206.5267368275188
 20
348.8846844787649
 30
0.0
 10
206.4238696615195
 20
348.949458035754
 30
0.0
 10
206.3776890505668
 20
348.9763004330209
 30
0.0
 10
206.2329139761944
 20
349.0598927906829
 30
0.0
 10
206.1215649428216
 20
349.1167992306708
 30
0.0
 10
206.0460895215206
 20
349.1520360907779
 30
0.0
 10
206.0259619471056
 20
349.1611749244662
 30
0.0
 11
206.0861753642805
 21
349.1330992637412
 31
0.0
 11
206.2470773416805
 21
349.0504598407413
 31
0.0
 11
206.3751929150805
 21
348.9777043565662
 31
0.0
 11
206.4651564253555
 21
348.9233182690163
 31
0.0
 11
206.5112913575805
 21
348.8944544100663
 31
0.0
 11
206.5115886143806
 21
348.8942663822162
 31
0.0
 11
206.4660390487556
 21
348.9227720866912
 31
0.0
 11
206.3762025010555
 21
348.9771085356912
 31
0.0
 11
206.2475479032805
 21
349.0502033754662
 31
0.0
 11
206.0860656446806
 21
349.1331520171412
 31
0.0
 11
206.0259619471056
 21
349.1611749244662
 31
0.0
  0
SPLINE
  5
20B1
330
1F
100
AcDbEntity
  8
DEFAULT_2
 48
3.0
370
     9
100
AcDbSpline
210
0.0
220
0.0
230
1.0
 70
     8
 71
     3
 72
     8
 73
     4
 74
     2
 42
0.0000000001
 43
0.0000000001
 44
0.0000000001
 12
-0.9105379044383077
 22
0.4134255973946159
 32
0.0
 13
-0.930278090247515
 23
0.3668551141873809
 33
0.0
 40
0.0
 40
0.0
 40
0.0
 40
0.0
 40
0.1423873582816907
 40
0.1423873582816907
 40
0.1423873582816907
 40
0.1423873582816907
 10
206.0259619471056
 20
349.1611749244662
 30
0.0
 10
205.9827455848294
 20
349.1807971173525
 30
0.0
 10
205.9390785739182
 20
349.1994726433391
 30
0.0
 10
205.8949252940056
 20
349.2168844868662
 30
0.0
 11
206.0259619471056
 21
349.1611749244662
 31
0.0
 11
205.8949252940056
 21
349.2168844868662
 31
0.0
  0
SPLINE
  5
20B2
330
1F
100
AcDbEntity
  8
DEFAULT_2
 48
3.0
370
     9
100
AcDbSpline
210
0.0
220
0.0
230
1.0
 70
     8
 71
     3
 72
    19
 73
    15
 74
    13
 42
0.0000000001
 43
0.0000000001
 44
0.0000000001
 12
0.9491881254974131
 22
-0.314709234714692
 32
0.0
 13
-0.9302780902214477
 23
0.3668551142534831
 33
0.0
 40
0.0
 40
0.0
 40
0.0
 40
0.0
 40
0.1288780060083084
 40
0.337581414649281
 40
0.5183736700999936
 40
0.6657064927335086
 40
0.7708315596775434
 40
0.8252517243675889
 40
0.8256034573310195
 40
0.8793374141576649
 40
0.9843281518090398
 40
1.132297274028486
 40
1.313837894822484
 40
1.522514103678196
 40
1.522514103678196
 40
1.522514103678196
 40
1.522514103678196
 10
205.7739490851806
 20
349.2607767851163
 30
0.0
 10
205.8147255761608
 20
349.2472570855688
 30
0.0
 10
205.9205157229408
 20
349.2087188918678
 30
0.0
 10
206.0787234117761
 20
349.1388483791662
 30
0.0
 10
206.2378371474056
 20
349.0567626135026
 30
0.0
 10
206.3633060362449
 20
348.9853543028531
 30
0.0
 10
206.4509768450708
 20
348.9323003424237
 30
0.0
 10
206.4959505727031
 20
348.9041581325528
 30
0.0
 10
206.5267368247721
 20
348.8846844800674
 30
0.0
 10
206.4238732337555
 20
348.9494563414979
 30
0.0
 10
206.3776587091238
 20
348.9763148234978
 30
0.0
 10
206.2330907367103
 20
349.0598089559061
 30
0.0
 10
206.0806488493656
 20
349.1376780043992
 30
0.0
 10
205.9596342623552
 20
349.191366508719
 30
0.0
 10
205.8949252940056
 20
349.2168844868662
 30
0.0
 11
205.7739490851806
 21
349.2607767851163
 31
0.0
 11
205.8950980004556
 21
349.2168167946662
 31
0.0
 11
206.0862573246305
 21
349.1330598513163
 31
0.0
 11
206.2470773416805
 21
349.0504598407413
 31
0.0
 11
206.3751929150805
 21
348.9777043565662
 31
0.0
 11
206.4651564253555
 21
348.9233182690163
 31
0.0
 11
206.5112913575805
 21
348.8944544100663
 31
0.0
 11
206.5115886143806
 21
348.8942663822162
 31
0.0
 11
206.4660390487556
 21
348.9227720866912
 31
0.0
 11
206.3762025010555
 21
348.9771085356912
 31
0.0
 11
206.2475479032805
 21
349.0502033754662
 31
0.0
 11
206.0860656446806
 21
349.1331520171412
 31
0.0
 11
205.8949252940056
 21
349.2168844868662
 31
0.0
  0
SPLINE
  5
20B3
330
1F
100
AcDbEntity
  8
DEFAULT_2
 48
3.0
370
     9
100
AcDbSpline
210
0.0
220
0.0
230
1.0
 70
     8
 71
     3
 72
    20
 73
    16
 74
    14
 42
0.0000000001
 43
0.0000000001
 44
0.0000000001
 12
0.9491881254964543
 22
-0.3147092347175837
 32
0.0
 13
-0.9628791375939275
 23
0.2699328923758173
 33
0.0
 40
0.0
 40
0.0
 40
0.0
 40
0.0
 40
0.1288780060083084
 40
0.337581414649281
 40
0.5183736700999936
 40
0.6657064927335086
 40
0.7708315596775434
 40
0.8252517243675889
 40
0.8256034573310195
 40
0.8793374141576649
 40
0.9843281518090398
 40
1.132297274028486
 40
1.313837894822484
 40
1.522749482489145
 40
1.748644221142317
 40
1.748644221142317
 40
1.748644221142317
 40
1.748644221142317
 10
205.7739490851806
 20
349.2607767851163
 30
0.0
 10
205.8147255761608
 20
349.2472570855686
 30
0.0
 10
205.9205157229365
 20
349.2087188918695
 30
0.0
 10
206.0787234117998
 20
349.1388483791567
 30
0.0
 10
206.2378371473372
 20
349.0567626135298
 30
0.0
 10
206.3633060364246
 20
348.9853543027814
 30
0.0
 10
206.4509768446987
 20
348.9323003425723
 30
0.0
 10
206.495950573113
 20
348.9041581323892
 30
0.0
 10
206.5267368243594
 20
348.8846844802322
 30
0.0
 10
206.4238737864667
 20
348.9494561208668
 30
0.0
 10
206.3776540144786
 20
348.9763166975049
 30
0.0
 10
206.2331180863921
 20
349.0597980384685
 30
0.0
 10
206.0804476826807
 20
349.1377657486901
 30
0.0
 10
205.8900320654835
 20
349.2222699330152
 30
0.0
 10
205.7532211681111
 20
349.2690161310739
 30
0.0
 10
205.6807180577306
 20
349.2893416044662
 30
0.0
 11
205.7739490851806
 21
349.2607767851163
 31
0.0
 11
205.8950980004556
 21
349.2168167946662
 31
0.0
 11
206.0862573246305
 21
349.1330598513163
 31
0.0
 11
206.2470773416805
 21
349.0504598407413
 31
0.0
 11
206.3751929150805
 21
348.9777043565662
 31
0.0
 11
206.4651564253555
 21
348.9233182690163
 31
0.0
 11
206.5112913575805
 21
348.8944544100663
 31
0.0
 11
206.5115886143806
 21
348.8942663822162
 31
0.0
 11
206.4660390487556
 21
348.9227720866912
 31
0.0
 11
206.3762025010555
 21
348.9771085356912
 31
0.0
 11
206.2475479032805
 21
349.0502033754662
 31
0.0
 11
206.0860656446806
 21
349.1331520171412
 31
0.0
 11
205.8947061698305
 21
349.2169708864162
 31
0.0
 11
205.6807180577306
 21
349.2893416044662
 31
0.0
  0
SPLINE
  5
20B4
330
1F
100
AcDbEntity
  8
DEFAULT_2
 48
3.0
370
     9
100
AcDbSpline
210
0.0
220
0.0
230
1.0
 70
     8
 71
     3
 72
    21
 73
    17
 74
    15
 42
0.0000000001
 43
0.0000000001
 44
0.0000000001
 12
0.9896591522964651
 22
-0.1434390542210938
 32
0.0
 13
-0.9628791375937721
 23
0.2699328923763712
 33
0.0
 40
0.0
 40
0.0
 40
0.0
 40
0.0
 40
0.2367901168613508
 40
0.4629714524145158
 40
0.6716748610554884
 40
0.8524671165062008
 40
0.9997999391397158
 40
1.10492500608375
 40
1.159345170773796
 40
1.159696903737226
 40
1.213430860563872
 40
1.318421598215247
 40
1.466390720434693
 40
1.647931341228692
 40
1.856842928895352
 40
2.082737667548524
 40
2.082737667548524
 40
2.082737667548524
 40
2.082737667548524
 10
205.4493001104055
 20
349.3388584528663
 30
0.0
 10
205.5274139458473
 20
349.3275368027291
 30
0.0
 10
205.6787120981955
 20
349.294540212046
 30
0.0
 10
205.8908275290446
 20
349.2218290235301
 30
0.0
 10
206.0787214574842
 20
349.1388495313074
 30
0.0
 10
206.237837543999
 20
349.0567623796818
 30
0.0
 10
206.363305967948
 20
348.9853543431493
 30
0.0
 10
206.4509768528856
 20
348.9323003377497
 30
0.0
 10
206.4959505731058
 20
348.9041581323892
 30
0.0
 10
206.5267368243665
 20
348.8846844802323
 30
0.0
 10
206.4238737864602
 20
348.9494561208668
 30
0.0
 10
206.3776540144817
 20
348.9763166975047
 30
0.0
 10
206.2331180863909
 20
349.0597980384685
 30
0.0
 10
206.0804476826811
 20
349.1377657486901
 30
0.0
 10
205.8900320654832
 20
349.2222699330152
 30
0.0
 10
205.753221168111
 20
349.2690161310739
 30
0.0
 10
205.6807180577306
 20
349.2893416044662
 30
0.0
 11
205.4493001104055
 21
349.3388584528663
 31
0.0
 11
205.6808471707055
 21
349.2893052661913
 31
0.0
 11
205.8950980004556
 21
349.2168167946662
 31
0.0
 11
206.0862573246305
 21
349.1330598513163
 31
0.0
 11
206.2470773416805
 21
349.0504598407413
 31
0.0
 11
206.3751929150805
 21
348.9777043565662
 31
0.0
 11
206.4651564253555
 21
348.9233182690163
 31
0.0
 11
206.5112913575805
 21
348.8944544100663
 31
0.0
 11
206.5115886143806
 21
348.8942663822162
 31
0.0
 11
206.4660390487556
 21
348.9227720866912
 31
0.0
 11
206.3762025010555
 21
348.9771085356912
 31
0.0
 11
206.2475479032805
 21
349.0502033754662
 31
0.0
 11
206.0860656446806
 21
349.1331520171412
 31
0.0
 11
205.8947061698305
 21
349.2169708864162
 31
0.0
 11
205.6807180577306
 21
349.2893416044662
 31
0.0
  0
SPLINE
  5
20B5
330
1F
100
AcDbEntity
  8
DEFAULT_2
 48
3.0
370
     9
100
AcDbSpline
210
0.0
220
0.0
230
1.0
 70
     8
 71
     3
 72
    23
 73
    19
 74
    17
 42
0.0000000001
 43
0.0000000001
 44
0.0000000001
 12
-1.0
 22
0.0
 32
0.0
 13
0.9896270508228257
 23
0.1436603643310023
 33
0.0
 40
0.0
 40
0.0
 40
0.0
 40
0.0
 40
0.2331819339785049
 40
0.4699332074878353
 40
0.6959281462861027
 40
0.9044133708521764
 40
1.085047875865503
 40
1.232371729211607
 40
1.337660320309659
 40
1.392262328433355
 40
1.392764876782604
 40
1.446371253484014
 40
1.551286939208059
 40
1.699232198067148
 40
1.880791576268288
 40
2.089749587013815
 40
2.315874294785466
 40
2.552392206005435
 40
2.552392206005435
 40
2.552392206005435
 40
2.552392206005435
 10
205.2169222157055
 20
349.3558015050412
 30
0.0
 10
205.1391949043794
 20
349.3558015050412
 30
0.0
 10
204.9823272819902
 20
349.3441099370276
 30
0.0
 10
204.7550720552381
 20
349.2945137135978
 30
0.0
 10
204.5430552328632
 20
349.221839792312
 30
0.0
 10
204.3553420570036
 20
349.1389503432566
 30
0.0
 10
204.196319789968
 20
349.0569304608679
 30
0.0
 10
204.070873719226
 20
348.9855527510983
 30
0.0
 10
203.9830407520433
 20
348.9324070093608
 30
0.0
 10
203.9380152996342
 20
348.9042349454008
 30
0.0
 10
203.9070763899978
 20
348.8846647400104
 30
0.0
 10
204.0097112401605
 20
348.94929471909
 30
0.0
 10
204.0560041845631
 20
348.9762082450039
 30
0.0
 10
204.2004632773774
 20
349.0596542527993
 30
0.0
 10
204.353158038418
 20
349.1376520350087
 30
0.0
 10
204.5436349138281
 20
349.2222040048945
 30
0.0
 10
204.7550216742383
 20
349.2944488829098
 30
0.0
 10
204.9063813713564
 20
349.3275118446673
 30
0.0
 10
204.9844028790055
 20
349.3388379277662
 30
0.0
 11
205.2169222157055
 21
349.3558015050412
 31
0.0
 11
204.9843586043055
 21
349.3388315024912
 31
0.0
 11
204.7528541071555
 21
349.2892650490412
 31
0.0
 11
204.5387817468805
 21
349.2168306861412
 31
0.0
 11
204.3478180617806
 21
349.1331708998912
 31
0.0
 11
204.1871306738305
 21
349.0506579448162
 31
0.0
 11
204.0590158565306
 21
348.9779192937912
 31
0.0
 11
203.9689086726306
 21
348.9234547840163
 31
0.0
 11
203.9226186860556
 21
348.8944959091413
 31
0.0
 11
203.9221939719305
 21
348.8942272592662
 31
0.0
 11
203.9676346760056
 21
348.9226664230412
 31
0.0
 11
204.0574044139805
 21
348.9769683130162
 31
0.0
 11
204.1860333975055
 21
349.0500599282412
 31
0.0
 11
204.3475255953806
 21
349.1330302713663
 31
0.0
 11
204.5389200139056
 21
349.2168850673662
 31
0.0
 11
204.7531222809056
 21
349.2893403796412
 31
0.0
 11
204.9844028790055
 21
349.3388379277662
 31
0.0
  0
SPLINE
  5
20B6
330
1F
100
AcDbEntity
  8
DEFAULT_2
 48
3.0
370
     9
100
AcDbSpline
210
0.0
220
0.0
230
1.0
 70
     8
 71
     3
 72
    14
 73
    10
 74
     8
 42
0.0000000001
 43
0.0000000001
 44
0.0000000001
 12
-0.8450971398055424
 22
-0.5346127797691444
 32
0.0
 13
0.9896270508219252
 23
0.1436603643372049
 33
0.0
 40
0.0
 40
0.0
 40
0.0
 40
0.0
 40
0.0536063767014098
 40
0.1585220624254544
 40
0.3064673212845441
 40
0.4880266994856843
 40
0.6969847102312107
 40
0.9231094180028618
 40
1.15962732922283
 40
1.15962732922283
 40
1.15962732922283
 40
1.15962732922283
 10
203.9221939719305
 20
348.8942272592662
 30
0.0
 10
203.9070931067219
 20
348.884674374579
 30
0.0
 10
204.0099955372678
 20
348.9494745676583
 30
0.0
 10
204.0558655423193
 20
348.9761205388388
 30
0.0
 10
204.2005160879506
 20
349.05968766118
 30
0.0
 10
204.3531401482632
 20
349.1376407175571
 30
0.0
 10
204.5436404697961
 20
349.2222075196432
 30
0.0
 10
204.7550199527419
 20
349.2944477938778
 30
0.0
 10
204.9063813713565
 20
349.3275118446669
 30
0.0
 10
204.9844028790055
 20
349.3388379277662
 30
0.0
 11
203.9221939719305
 21
348.8942272592662
 31
0.0
 11
203.9676346760056
 21
348.9226664230412
 31
0.0
 11
204.0574044139805
 21
348.9769683130162
 31
0.0
 11
204.1860333975055
 21
349.0500599282412
 31
0.0
 11
204.3475255953806
 21
349.1330302713663
 31
0.0
 11
204.5389200139056
 21
349.2168850673662
 31
0.0
 11
204.7531222809056
 21
349.2893403796412
 31
0.0
 11
204.9844028790055
 21
349.3388379277662
 31
0.0
  0
SPLINE
  5
20B7
330
1F
100
AcDbEntity
  8
DEFAULT_2
 48
3.0
370
     9
100
AcDbSpline
210
0.0
220
0.0
230
1.0
 70
     8
 71
     3
 72
    10
 73
     6
 74
     4
 42
0.0000000001
 43
0.0000000001
 44
0.0000000001
 12
-0.8463817312339275
 22
-0.532576722203909
 32
0.0
 13
0.4818578456733244
 23
-0.8762494031741551
 33
0.0
 40
0.0
 40
0.0
 40
0.0
 40
0.0
 40
0.0131332033208474
 40
0.0136357516700963
 40
0.0178419807517586
 40
0.0178419807517586
 40
0.0178419807517586
 40
0.0178419807517586
 10
203.9337262243805
 20
348.9015033067913
 30
0.0
 10
203.9300209899261
 20
348.8991718273324
 30
0.0
 10
203.9259797301395
 20
348.8967968473249
 30
0.0
 10
203.9212311503978
 20
348.8935467660147
 30
0.0
 10
203.917967469411
 20
348.8932011737654
 30
0.0
 10
203.9186430709055
 20
348.8919726051912
 30
0.0
 11
203.9337262243805
 21
348.9015033067913
 31
0.0
 11
203.9226186860556
 21
348.8944959091413
 31
0.0
 11
203.9221939719305
 21
348.8942272592662
 31
0.0
 11
203.9186430709055
 21
348.8919726051912
 31
0.0
  0
SPLINE
  5
20B8
330
1F
100
AcDbEntity
  8
0
370
     9
100
AcDbSpline
210
0.0
220
0.0
230
1.0
 70
     8
 71
     3
 72
     8
 73
     4
 74
     2
 42
0.0000000001
 43
0.0000000001
 44
0.0000000001
 12
-0.8450971391660512
 22
-0.5346127807800296
 32
0.0
 13
0.4818579350832695
 23
-0.8762493540067735
 33
0.0
 40
0.0
 40
0.0
 40
0.0
 40
0.0
 40
0.0042062290816623
 40
0.0042062290816623
 40
0.0042062290816623
 40
0.0042062290816623
 10
203.9221939719305
 20
348.8942272592662
 30
0.0
 10
203.9210090812094
 20
348.8934776913243
 30
0.0
 10
203.9179674692856
 20
348.8932011736964
 30
0.0
 10
203.9186430709055
 20
348.8919726051912
 30
0.0
 11
203.9221939719305
 21
348.8942272592662
 31
0.0
 11
203.9186430709055
 21
348.8919726051912
 31
0.0
  0
SPLINE
  5
20B9
330
1F
100
AcDbEntity
  8
0
370
     9
100
AcDbSpline
210
0.0
220
0.0
230
1.0
 70
     8
 71
     3
 72
    16
 73
    12
 74
    10
 42
0.0000000001
 43
0.0000000001
 44
0.0000000001
 12
-1.0
 22
0.0
 32
0.0
 13
-0.8450971398041536
 23
-0.5346127797713397
 33
0.0
 40
0.0
 40
0.0
 40
0.0
 40
0.0
 40
0.2331819339785049
 40
0.4699332074878353
 40
0.6959281462861027
 40
0.9044133708521764
 40
1.085047875865503
 40
1.232371729211607
 40
1.337660320309659
 40
1.392262328433355
 40
1.392764876782604
 40
1.392764876782604
 40
1.392764876782604
 40
1.392764876782604
 10
205.2169222157055
 20
349.3558015050412
 30
0.0
 10
205.1391949043794
 20
349.3558015050412
 30
0.0
 10
204.9823275110355
 20
349.3441100819235
 30
0.0
 10
204.7550712563136
 20
349.294513208192
 30
0.0
 10
204.5430579577677
 20
349.2218415161078
 30
0.0
 10
204.3553332714312
 20
349.1389447854351
 30
0.0
 10
204.1963456605731
 20
349.056946826814
 30
0.0
 10
204.0708055506842
 20
348.9855096271481
 30
0.0
 10
203.9831822687249
 20
348.9324965339151
 30
0.0
 10
203.9378588770587
 20
348.9041359912619
 30
0.0
 10
203.9223355393214
 20
348.8943168155229
 30
0.0
 10
203.9221939719305
 20
348.8942272592662
 30
0.0
 11
205.2169222157055
 21
349.3558015050412
 31
0.0
 11
204.9843586043055
 21
349.3388315024912
 31
0.0
 11
204.7528541071555
 21
349.2892650490412
 31
0.0
 11
204.5387817468805
 21
349.2168306861412
 31
0.0
 11
204.3478180617806
 21
349.1331708998912
 31
0.0
 11
204.1871306738305
 21
349.0506579448162
 31
0.0
 11
204.0590158565306
 21
348.9779192937912
 31
0.0
 11
203.9689086726306
 21
348.9234547840163
 31
0.0
 11
203.9226186860556
 21
348.8944959091413
 31
0.0
 11
203.9221939719305
 21
348.8942272592662
 31
0.0
  0
SPLINE
  5
20BA
330
1F
100
AcDbEntity
  8
0
370
     9
100
AcDbSpline
210
0.0
220
0.0
230
1.0
 70
     8
 71
     3
 72
    17
 73
    13
 74
    11
 42
0.0000000001
 43
0.0000000001
 44
0.0000000001
 12
1.0
 22
0.0
 32
0.0
 13
-0.4827636864152535
 23
-0.8757506626196493
 33
0.0
 40
0.0
 40
0.0
 40
0.0
 40
0.0
 40
0.2329839361986916
 40
0.469784868830444
 40
0.695966204383609
 40
0.9046696130245816
 40
1.085461868475294
 40
1.232794691108809
 40
1.337919758052844
 40
1.392339922742889
 40
1.39269165570632
 40
1.39694795974386
 40
1.39694795974386
 40
1.39694795974386
 40
1.39694795974386
 10
205.2169222157055
 20
349.3558015050412
 30
0.0
 10
205.2945835277718
 20
349.3558015050412
 30
0.0
 10
205.4514001128519
 20
349.3441238182116
 30
0.0
 10
205.6786780951414
 20
349.2945467635418
 30
0.0
 10
205.890823430344
 20
349.2218263830585
 30
0.0
 10
206.0787594829086
 20
349.1388544505212
 30
0.0
 10
206.2377205936869
 20
349.056748630984
 30
0.0
 10
206.3636146058716
 20
348.9853903860554
 30
0.0
 10
206.4503374110916
 20
348.9322256962651
 30
0.0
 10
206.4966548389301
 20
348.9042403385106
 30
0.0
 10
206.5126340318919
 20
348.8935567484099
 30
0.0
 10
206.5158667485315
 20
348.8932274210934
 30
0.0
 10
206.5151818188556
 20
348.8919849340663
 30
0.0
 11
205.2169222157055
 21
349.3558015050412
 31
0.0
 11
205.4492893824805
 21
349.3388600077162
 31
0.0
 11
205.6808471707055
 21
349.2893052661913
 31
0.0
 11
205.8950980004556
 21
349.2168167946662
 31
0.0
 11
206.0862573246305
 21
349.1330598513163
 31
0.0
 11
206.2470773416805
 21
349.0504598407413
 31
0.0
 11
206.3751929150805
 21
348.9777043565662
 31
0.0
 11
206.4651564253555
 21
348.9233182690163
 31
0.0
 11
206.5112913575805
 21
348.8944544100663
 31
0.0
 11
206.5115886143806
 21
348.8942663822162
 31
0.0
 11
206.5151818188556
 21
348.8919849340663
 31
0.0
  0
LINE
  5
20BB
330
1F
100
AcDbEntity
  8
0
  6
Continuous
 62
     7
370
     9
100
AcDbLine
 10
204.0466116605091
 20
348.8937871121472
 30
0.0
 11
206.398556562952
 21
348.8937871121472
 31
0.0
  0
LINE
  5
20BC
330
1F
100
AcDbEntity
  8
0
  6
Continuous
 62
     7
370
     9
100
AcDbLine
 10
206.4495894185727
 20
348.9330168557082
 30
0.0
 11
206.3902531089507
 21
348.8986039967693
 31
0.0
  0
LINE
  5
20BD
330
1F
100
AcDbEntity
  8
0
  6
Continuous
 62
     7
370
     9
100
AcDbLine
 10
206.5514443816552
 20
353.9645188194643
 30
0.0
 11
204.0465663328747
 21
353.9645188194643
 31
0.0
  0
LINE
  5
20BE
330
1F
100
AcDbEntity
  8
0
  6
Continuous
 62
     7
370
     9
100
AcDbLine
 10
206.4550960626731
 20
354.0608602828788
 30
0.0
 11
204.1429146518568
 21
354.0608602828788
 31
0.0
  0
LINE
  5
20BF
330
1F
100
AcDbEntity
  8
0
  6
Continuous
 62
     7
370
     9
100
AcDbLine
 10
206.3788911050895
 20
348.9051977805848
 30
0.0
 11
206.398553269136
 21
348.8937871121472
 31
0.0
  0
LINE
  5
20C0
330
1F
100
AcDbEntity
  8
0
  6
Continuous
 62
     7
370
     9
100
AcDbLine
 10
206.5514443816552
 20
353.9645188194643
 30
0.0
 11
206.5514443816552
 21
353.752567599952
 31
0.0
  0
LINE
  5
20C1
330
1F
100
AcDbEntity
  8
0
  6
Continuous
 62
     7
370
     9
100
AcDbLine
 10
206.4551029182405
 20
354.0608602828788
 30
0.0
 11
206.4551029182405
 21
353.9645188194643
 31
0.0
  0
LINE
  5
20C2
330
1F
100
AcDbEntity
  8
0
  6
Continuous
 62
     7
370
     9
100
AcDbLine
 10
204.1429077962894
 20
354.0608602828788
 30
0.0
 11
204.1429077962894
 21
353.9645188194643
 31
0.0
  0
LINE
  5
20C3
330
1F
100
AcDbEntity
  8
0
  6
Continuous
 62
     7
370
     9
100
AcDbLine
 10
204.0465663328747
 20
353.9645188194643
 30
0.0
 11
204.0465663328747
 21
353.9548846731227
 31
0.0
  0
LINE
  5
20C4
330
1F
100
AcDbEntity
  8
0
  6
Continuous
 62
     7
370
     9
100
AcDbLine
 10
204.0465663328747
 20
353.7622017462935
 30
0.0
 11
204.0465663328747
 21
353.5791529658057
 31
0.0
  0
LINE
  5
20C5
330
1F
100
AcDbEntity
  8
0
  6
Continuous
 62
     7
370
     9
100
AcDbLine
 10
204.0465663328747
 20
348.9706823337257
 30
0.0
 11
204.0465663328747
 21
348.8937871121472
 31
0.0
  0
SPLINE
  5
20C6
330
1F
100
AcDbEntity
  8
0
  6
Continuous
 62
     7
370
     9
100
AcDbSpline
210
0.0
220
0.0
230
1.0
 70
     8
 71
     3
 72
    16
 73
    12
 74
     0
 42
0.0000000001
 43
0.0000000001
 40
0.595890618899867
 40
0.595890618899867
 40
0.595890618899867
 40
0.595890618899867
 40
0.8657261285620654
 40
1.310224987957592
 40
1.819638045332858
 40
2.360244588621366
 40
2.898614408191475
 40
3.42835617672368
 40
3.929874306063356
 40
4.36991343130872
 40
4.520421916389475
 40
4.520421916389475
 40
4.520421916389475
 40
4.520421916389475
 10
206.268337502103
 20
349.0388146977468
 30
0.0
 10
206.2248386245179
 20
349.0422237554358
 30
0.0
 10
206.1122286791633
 20
349.0512286676429
 30
0.0
 10
205.9150422539836
 20
349.0631345652801
 30
0.0
 10
205.6758180609597
 20
349.0766075860579
 30
0.0
 10
205.4210040908475
 20
349.0898523374608
 30
0.0
 10
205.1630684895597
 20
349.1030733972874
 30
0.0
 10
204.9113445220293
 20
349.1161786217386
 30
0.0
 10
204.6755553888573
 20
349.1295402233151
 30
0.0
 10
204.5003216861574
 20
349.1400698415215
 30
0.0
 10
204.4060092009023
 20
349.1474306663176
 30
0.0
 10
204.3819497232866
 20
349.1493317599267
 30
0.0
  0
SPLINE
  5
20C7
330
1F
100
AcDbEntity
  8
0
  6
Continuous
 62
     7
370
     9
100
AcDbSpline
210
0.0
220
0.0
230
1.0
 70
     8
 71
     3
 72
    15
 73
    11
 74
     0
 42
0.0000000001
 43
0.0000000001
 40
0.0
 40
0.0
 40
0.0
 40
0.0
 40
0.5486245757508414
 40
1.090158531085224
 40
1.600581487773396
 40
2.05722002481677
 40
2.439843553160319
 40
2.731630918933078
 40
2.92008792422476
 40
2.926312536530969
 40
2.926312536530969
 40
2.926312536530969
 40
2.926312536530969
 10
205.4856717076644
 20
348.8937871121472
 30
0.0
 10
205.3976984101782
 20
348.898361731298
 30
0.0
 10
205.222922391932
 20
348.9073200983763
 30
0.0
 10
204.966084205417
 20
348.9205774659593
 30
0.0
 10
204.7248093848156
 20
348.9340008621239
 30
0.0
 10
204.5066222061302
 20
348.9467050946994
 30
0.0
 10
204.3307953937617
 20
348.9611219196777
 30
0.0
 10
204.1796245819246
 20
348.9703794276548
 30
0.0
 10
204.1245046645904
 20
348.9864795361211
 30
0.0
 10
204.079910048462
 20
348.9892451646407
 30
0.0
 10
204.0784753080268
 20
348.9893356238946
 30
0.0
  0
SPLINE
  5
20C8
330
1F
100
AcDbEntity
  8
0
  6
Continuous
 62
     7
370
     9
100
AcDbSpline
210
0.0
220
0.0
230
1.0
 70
     8
 71
     3
 72
    20
 73
    16
 74
     0
 42
0.0000000001
 43
0.0000000001
 40
0.0666007840830642
 40
0.0666007840830642
 40
0.0666007840830642
 40
0.0666007840830642
 40
0.1028231016993314
 40
0.3109532684454975
 40
0.6149349416071724
 40
1.000087320395704
 40
1.447451678967494
 40
1.934895422249374
 40
2.438261149098655
 40
2.932589746460125
 40
3.39337698815961
 40
3.797810909230546
 40
4.125943530724192
 40
4.36179334058943
 40
4.494684072789572
 40
4.494684072789572
 40
4.494684072789572
 40
4.494684072789572
 10
204.2427775113503
 20
349.0805719901625
 30
0.0
 10
204.2499810619599
 20
349.0803614552214
 30
0.0
 10
204.3033155740909
 20
349.0833012378802
 30
0.0
 10
204.3730781331931
 20
349.0592769020093
 30
0.0
 10
204.5258475734781
 20
349.0524328873336
 30
0.0
 10
204.7042371860586
 20
349.0360464297946
 30
0.0
 10
204.9169321096933
 20
349.0229572438369
 30
0.0
 10
205.1470580242725
 20
349.008662796053
 30
0.0
 10
205.385232751588
 20
348.9947244301959
 30
0.0
 10
205.6189125641798
 20
348.980567928444
 30
0.0
 10
205.8369714801746
 20
348.9669457880288
 30
0.0
 10
206.0274849241843
 20
348.9519992300078
 30
0.0
 10
206.1840280121256
 20
348.9412880239885
 30
0.0
 10
206.2914745977851
 20
348.9215612516499
 30
0.0
 10
206.3553337978208
 20
348.9207346556184
 30
0.0
 10
206.3725898543899
 20
348.9081829630066
 30
0.0
  0
SPLINE
  5
20C9
330
1F
100
AcDbEntity
  8
0
  6
Continuous
 62
     7
370
     9
100
AcDbSpline
210
0.0
220
0.0
230
1.0
 70
     8
 71
     3
 72
     8
 73
     4
 74
     2
 42
0.0000000001
 43
0.0000000001
 44
0.0000000001
 12
0.808695215438054
 22
-0.5882278882606633
 32
0.0
 13
0.7446278994753776
 23
-0.6674798059289039
 33
0.0
 40
0.0
 40
0.0
 40
0.0
 40
0.0
 40
0.006696016990814
 40
0.006696016990814
 40
0.006696016990814
 40
0.006696016990814
 10
206.3725898543899
 20
348.9081829630066
 30
0.0
 10
206.374394866691
 20
348.9068700350285
 30
0.0
 10
206.3761658818409
 20
348.9055015027062
 30
0.0
 10
206.3778278955298
 20
348.904011683999
 30
0.0
 11
206.3725898543899
 21
348.9081829630066
 31
0.0
 11
206.3778278955298
 21
348.904011683999
 31
0.0
  0
SPLINE
  5
20CA
330
1F
100
AcDbEntity
  8
0
  6
Continuous
 62
     7
370
     9
100
AcDbSpline
210
0.0
220
0.0
230
1.0
 70
     8
 71
     3
 72
    11
 73
     7
 74
     0
 42
0.0000000001
 43
0.0000000001
 40
1.821986655074827
 40
1.821986655074827
 40
1.821986655074827
 40
1.821986655074827
 40
2.338234224365551
 40
2.876002695113283
 40
3.40999909530977
 40
3.417881139440553
 40
3.417881139440553
 40
3.417881139440553
 40
3.417881139440553
 10
204.9184168070064
 20
349.3279380416824
 30
0.0
 10
205.0011452398592
 20
349.32345615773
 30
0.0
 10
205.1702305860913
 20
349.3146553019836
 30
0.0
 10
205.4248462716862
 20
349.3016043388546
 30
0.0
 10
205.5979922288942
 20
349.2926061424134
 30
0.0
 10
205.6848626634378
 20
349.2878860898202
 30
0.0
 10
205.6861262551186
 20
349.2878173899882
 30
0.0
  0
LINE
  5
20CB
330
1F
100
AcDbEntity
  8
0
  6
Continuous
 62
     7
370
     9
100
AcDbLine
 10
206.5465062787245
 20
353.7468469914011
 30
0.0
 11
206.4276321855618
 21
353.6779042471888
 31
0.0
  0
LINE
  5
20CC
330
1F
100
AcDbEntity
  8
0
  6
Continuous
 62
     7
370
     9
100
AcDbLine
 10
206.5465062787245
 20
353.7468469914011
 30
0.0
 11
206.5514443816552
 21
353.752567599952
 31
0.0
  0
LINE
  5
20CD
330
1F
100
AcDbEntity
  8
0
  6
Continuous
 62
     7
370
     9
100
AcDbLine
 10
204.1703785785384
 20
353.8802187288197
 30
0.0
 11
204.0515044357675
 21
353.9491640645717
 31
0.0
  0
LINE
  5
20CE
330
1F
100
AcDbEntity
  8
0
  6
Continuous
 62
     7
370
     9
100
AcDbLine
 10
206.546506288169
 20
353.9702394225154
 30
0.0
 11
206.5514443816552
 21
353.9645188194643
 31
0.0
  0
LINE
  5
20CF
330
1F
100
AcDbEntity
  8
0
  6
Continuous
 62
     7
370
     9
100
AcDbLine
 10
206.5514443816552
 20
353.9645188194643
 30
0.0
 11
206.5514443816552
 21
353.752567599952
 31
0.0
  0
LINE
  5
20D0
330
1F
100
AcDbEntity
  8
0
  6
Continuous
 62
     7
370
     9
100
AcDbLine
 10
204.0515044357675
 20
353.9491640645717
 30
0.0
 11
204.0465663328747
 21
353.9548846731227
 31
0.0
  0
LINE
  5
20D1
330
1F
100
AcDbEntity
  8
0
  6
Continuous
 62
     7
370
     9
100
AcDbLine
 10
204.0465663328747
 20
353.9645188194643
 30
0.0
 11
204.0465663328747
 21
353.9548846731227
 31
0.0
  0
SPLINE
  5
20D2
330
1F
100
AcDbEntity
  8
0
  6
Continuous
 62
     7
370
     9
100
AcDbSpline
210
0.0
220
0.0
230
1.0
 70
     8
 71
     3
 72
     8
 73
     4
 74
     2
 42
0.0000000001
 43
0.0000000001
 44
0.0000000001
 12
0.0
 22
1.0
 32
0.0
 13
-0.1002776267664013
 23
0.9949594954419492
 33
0.0
 40
0.0
 40
0.0
 40
0.0
 40
0.0
 40
0.0010097984766727
 40
0.0010097984766727
 40
0.0010097984766727
 40
0.0010097984766727
 10
206.5514443816552
 20
353.752567599952
 30
0.0
 10
206.5514443816552
 20
353.7529041994443
 30
0.0
 10
206.5514284493332
 20
353.7532412724689
 30
0.0
 10
206.551394695935
 20
353.7535761753298
 30
0.0
 11
206.5514443816552
 21
353.752567599952
 31
0.0
 11
206.551394695935
 21
353.7535761753298
 31
0.0
  0
SPLINE
  5
20D3
330
1F
100
AcDbEntity
  8
0
  6
Continuous
 62
     7
370
     9
100
AcDbSpline
210
0.0
220
0.0
230
1.0
 70
     8
 71
     3
 72
    22
 73
    18
 74
     0
 42
0.0000000001
 43
0.0000000001
 40
0.0
 40
0.0
 40
0.0
 40
0.0
 40
0.0625539071472585
 40
0.237497225069584
 40
0.5176054333016972
 40
0.8816614543622151
 40
1.317289644486971
 40
1.816276466746716
 40
2.350272866943202
 40
2.888041337690935
 40
3.417823123612691
 40
3.909590707584616
 40
4.345643369104711
 40
4.709547232664416
 40
4.989234968708814
 40
5.163851404221457
 40
5.186641955932113
 40
5.186641955932113
 40
5.186641955932113
 40
5.186641955932113
 10
206.551394695935
 20
353.7535761753298
 30
0.0
 10
206.5503874849495
 20
353.7635697723018
 30
0.0
 10
206.4973594337142
 20
353.7678945899053
 30
0.0
 10
206.4296957520904
 20
353.7845901447088
 30
0.0
 10
206.2908809943666
 20
353.7944230890889
 30
0.0
 10
206.1211455066824
 20
353.808334548569
 30
0.0
 10
205.9118984582276
 20
353.8209330822318
 30
0.0
 10
205.6768159319654
 20
353.8341711248867
 30
0.0
 10
205.4248330243714
 20
353.8472777043489
 30
0.0
 10
205.1680473104206
 20
353.8604398904563
 30
0.0
 10
204.9179760009363
 20
353.8734474349936
 30
0.0
 10
204.6843807875394
 20
353.886652065294
 30
0.0
 10
204.4771003877389
 20
353.8990174968702
 30
0.0
 10
204.3049752363695
 20
353.9134100597735
 30
0.0
 10
204.1722887935534
 20
353.9220656289447
 30
0.0
 10
204.0996409193209
 20
353.939488769453
 30
0.0
 10
204.0663197710877
 20
353.9420392047798
 30
0.0
 10
204.0626474502285
 20
353.9427012724507
 30
0.0
  0
LINE
  5
20D4
330
1F
100
AcDbEntity
  8
0
  6
Continuous
 62
     7
370
     9
100
AcDbLine
 10
203.4346051425348
 20
351.2774736193199
 30
0.0
 11
206.9992392888763
 21
351.2774736193199
 31
0.0
  0
LINE
  5
20D5
330
1F
100
AcDbEntity
  8
0
  6
Continuous
 62
     7
370
     9
100
AcDbLine
 10
207.1919222157056
 20
352.2408882534662
 30
0.0
 11
203.2419222157056
 21
352.2408882534662
 31
0.0
  0
LINE
  5
20D6
330
1F
100
AcDbEntity
  8
0
  6
Continuous
 62
     7
370
     9
100
AcDbLine
 10
207.1919222157056
 20
352.2408882534662
 30
0.0
 11
207.1919222157056
 21
351.4701565461491
 31
0.0
  0
LINE
  5
20D7
330
1F
100
AcDbEntity
  8
0
  6
Continuous
 62
     7
370
     9
100
AcDbLine
 10
203.2419222157056
 20
352.2408882534662
 30
0.0
 11
203.2419222157056
 21
351.4701565461491
 31
0.0
  0
ARC
  5
20D8
330
1F
100
AcDbEntity
  8
0
  6
Continuous
 62
     7
370
     9
100
AcDbCircle
 10
206.9992392888763
 20
351.4701565461491
 30
0.0
 40
0.1926829268292686
100
AcDbArc
 50
270.0
 51
0.0
  0
ARC
  5
20D9
330
1F
100
AcDbEntity
  8
0
  6
Continuous
 62
     7
370
     9
100
AcDbCircle
 10
203.4346051425348
 20
351.4701565461491
 30
0.0
 40
0.1926829268292686
100
AcDbArc
 50
180.0
 51
270.0
  0
LINE
  5
20DA
330
1F
100
AcDbEntity
  8
0
  6
Continuous
 62
     7
370
     9
100
AcDbLine
 10
206.3804340613136
 20
351.2774736193198
 30
0.0
 11
206.4435138034757
 21
351.2408882534662
 31
0.0
  0
LINE
  5
20DB
330
1F
100
AcDbEntity
  8
0
  6
Continuous
 62
     7
370
     9
100
AcDbLine
 10
204.0465663328747
 20
351.27747361932
 30
0.0
 11
204.0465663328747
 21
351.2408882534662
 31
0.0
  0
SPLINE
  5
20DC
330
1F
100
AcDbEntity
  8
0
  6
Continuous
 62
     7
370
     9
100
AcDbSpline
210
0.0
220
0.0
230
1.0
 70
     8
 71
     3
 72
    11
 73
     7
 74
     0
 42
0.0000000001
 43
0.0000000001
 40
1.241597923702358
 40
1.241597923702358
 40
1.241597923702358
 40
1.241597923702358
 40
1.402728077449061
 40
1.655086371594345
 40
1.89306618230636
 40
1.919614319383117
 40
1.919614319383117
 40
1.919614319383117
 40
1.919614319383117
 10
205.2818644754225
 20
351.2774736193198
 30
0.0
 10
205.335503063307
 20
351.2747139347153
 30
0.0
 10
205.4731382937253
 20
351.2676362199773
 30
0.0
 10
205.6900261553691
 20
351.2563327166287
 30
0.0
 10
205.861989797485
 20
351.2465812899853
 30
0.0
 10
205.9500600687719
 20
351.2414105941301
 30
0.0
 10
205.9588989156227
 20
351.2408882534638
 30
0.0
  0
LINE
  5
20DD
330
1F
100
AcDbEntity
  8
0
  6
Continuous
 62
     7
370
     9
100
AcDbLine
 10
206.4000797911887
 20
351.2774736193198
 30
0.0
 11
206.3902537743895
 21
351.2717748792094
 31
0.0
  0
LINE
  5
20DE
330
1F
100
AcDbEntity
  8
0
  6
Continuous
 62
     7
370
     9
100
AcDbLine
 10
204.051504426323
 20
353.4066418615399
 30
0.0
 11
204.2077569401025
 21
353.4972626840874
 31
0.0
  0
LINE
  5
20DF
330
1F
100
AcDbEntity
  8
0
  6
Continuous
 62
     7
370
     9
100
AcDbLine
 10
206.3788911050895
 20
353.3015392439996
 30
0.0
 11
206.4834643068452
 21
353.2408882534662
 31
0.0
  0
LINE
  5
20E0
330
1F
100
AcDbEntity
  8
0
  6
Continuous
 62
     7
370
     9
100
AcDbLine
 10
204.051504426323
 20
353.4066418615399
 30
0.0
 11
204.0465663328747
 21
353.4009212584888
 31
0.0
  0
LINE
  5
20E1
330
1F
100
AcDbEntity
  8
0
  6
Continuous
 62
     7
370
     9
100
AcDbLine
 10
204.0465663328747
 20
353.4009212584888
 30
0.0
 11
204.0465663328747
 21
353.2408882534662
 31
0.0
  0
SPLINE
  5
20E2
330
1F
100
AcDbEntity
  8
0
  6
Continuous
 62
     7
370
     9
100
AcDbSpline
210
0.0
220
0.0
230
1.0
 70
     8
 71
     3
 72
    21
 73
    17
 74
    15
 42
0.0000000001
 43
0.0000000001
 44
0.0000000001
 12
0.4929694063175559
 22
-0.8700466449765302
 32
0.0
 13
0.1614492973955897
 23
-0.9868810082124745
 33
0.0
 40
0.0
 40
0.0
 40
0.0
 40
0.0
 40
0.0038981267535599
 40
0.0647748160097273
 40
0.1754507488063399
 40
0.3309790420049522
 40
0.5237965155287215
 40
0.7443965130675915
 40
0.981859353590527
 40
1.224414352872575
 40
1.460034496184742
 40
1.677041923561832
 40
1.864698778165323
 40
2.013763148888212
 40
2.117019835434119
 40
2.169991042339985
 40
2.169991042339985
 40
2.169991042339985
 40
2.169991042339985
 10
204.2212002475515
 20
353.4918480241254
 30
0.0
 10
204.221840799962
 20
353.4907175067575
 30
0.0
 10
204.2336047743477
 20
353.4722520229866
 30
0.0
 10
204.3049508419902
 20
353.478201496862
 30
0.0
 10
204.4040304380869
 20
353.4538808024746
 30
0.0
 10
204.5605502663702
 20
353.4453096545667
 30
0.0
 10
204.7481673408086
 20
353.4295761226322
 30
0.0
 10
204.9651880757373
 20
353.4162235223736
 30
0.0
 10
205.1981292376886
 20
353.4019899205852
 30
0.0
 10
205.4363983791303
 20
353.3880686924724
 30
0.0
 10
205.6673549026022
 20
353.3737831509758
 30
0.0
 10
205.8814297441393
 20
353.3606380701388
 30
0.0
 10
206.0622110337651
 20
353.3443770522776
 30
0.0
 10
206.2168814246642
 20
353.3372099953688
 30
0.0
 10
206.2992942071116
 20
353.3105755809064
 30
0.0
 10
206.3762147727588
 20
353.318993199274
 30
0.0
 10
206.3790654941379
 20
353.3015677732482
 30
0.0
 11
204.2212002475515
 21
353.4918480241254
 31
0.0
 11
204.2233094936155
 21
353.4885698427349
 31
0.0
 11
204.2824595635464
 21
353.4741739918755
 31
0.0
 11
204.3921952531757
 21
353.459778141016
 31
0.0
 11
204.5470558661905
 21
353.4453822901566
 31
0.0
 11
204.7393351879443
 21
353.4309864392973
 31
0.0
 11
204.959464964195
 21
353.4165905884379
 31
0.0
 11
205.1964910389363
 21
353.4021947375784
 31
0.0
 11
205.4386184581906
 21
353.387798886719
 31
0.0
 11
205.6737984135728
 21
353.3734030358975
 31
0.0
 11
205.8903278180768
 21
353.3590071850381
 31
0.0
 11
206.0774316784264
 21
353.3446113341787
 31
0.0
 11
206.2257992830341
 21
353.3302154833192
 31
0.0
 11
206.3280475240678
 21
353.3158196324598
 31
0.0
 11
206.3790654941379
 21
353.3015677732482
 31
0.0
  0
SPLINE
  5
20E3
330
1F
100
AcDbEntity
  8
0
  6
Continuous
 62
     7
370
     9
100
AcDbSpline
210
0.0
220
0.0
230
1.0
 70
     8
 71
     3
 72
     8
 73
     4
 74
     2
 42
0.0000000001
 43
0.0000000001
 44
0.0000000001
 12
0.0
 22
-1.0
 32
0.0
 13
0.1003076508315724
 23
-0.9949564689898002
 33
0.0
 40
0.0
 40
0.0
 40
0.0
 40
0.0
 40
0.0010096964126587
 40
0.0010096964126587
 40
0.0010096964126587
 40
0.0010096964126587
 10
204.0465663328747
 20
353.4009212584888
 30
0.0
 10
204.0465663328747
 20
353.4005846930179
 30
0.0
 10
204.0465822684028
 20
353.4002476537791
 30
0.0
 10
204.0466160284946
 20
353.3999127857866
 30
0.0
 11
204.0465663328747
 21
353.4009212584888
 31
0.0
 11
204.0466160284946
 21
353.3999127857866
 31
0.0
  0
SPLINE
  5
20E4
330
1F
100
AcDbEntity
  8
0
  6
Continuous
 62
     7
370
     9
100
AcDbSpline
210
0.0
220
0.0
230
1.0
 70
     8
 71
     3
 72
    19
 73
    15
 74
     0
 42
0.0000000001
 43
0.0000000001
 40
0.0
 40
0.0
 40
0.0
 40
0.0
 40
0.0301234345751199
 40
0.1141331004611503
 40
0.2482683442512446
 40
0.4231560690566267
 40
0.6380576403533429
 40
0.8836717243099155
 40
1.143719148680869
 40
1.402728077449061
 40
1.655086371594345
 40
1.89306618230636
 40
2.103557152357958
 40
2.24951706967652
 40
2.24951706967652
 40
2.24951706967652
 40
2.24951706967652
 10
204.0466160284946
 20
353.3999127857866
 30
0.0
 10
204.0476232321116
 20
353.3899222837501
 30
0.0
 10
204.1005299952371
 20
353.3856060140815
 30
0.0
 10
204.1679073332966
 20
353.368967826665
 30
0.0
 10
204.3061596191747
 20
353.3591433942275
 30
0.0
 10
204.4771406156666
 20
353.345115394923
 30
0.0
 10
204.689688441519
 20
353.3323409826267
 30
0.0
 10
204.9291288243148
 20
353.3188893059961
 30
0.0
 10
205.1837871235622
 20
353.3056669132243
 30
0.0
 10
205.4405523343414
 20
353.2925052279193
 30
0.0
 10
205.6900261553691
 20
353.2795034483361
 30
0.0
 10
205.9231860084367
 20
353.2662818093001
 30
0.0
 10
206.1211921568534
 20
353.2543809869703
 30
0.0
 10
206.2392306810359
 20
353.2446412095237
 30
0.0
 10
206.2878651803498
 20
353.2408882534662
 30
0.0
  0
LINE
  5
20E5
330
1F
100
AcDbEntity
  8
0
  6
Continuous
 62
     7
370
     9
100
AcDbLine
 10
206.5465062787245
 20
353.3855665035963
 30
0.0
 11
206.3902537743895
 21
353.2949456109167
 31
0.0
  0
LINE
  5
20E6
330
1F
100
AcDbEntity
  8
0
  6
Continuous
 62
     7
370
     9
100
AcDbLine
 10
204.051504426323
 20
353.8112760078814
 30
0.0
 11
204.2077569401025
 21
353.9018968304289
 31
0.0
  0
LINE
  5
20E7
330
1F
100
AcDbEntity
  8
0
  6
Continuous
 62
     7
370
     9
100
AcDbLine
 10
206.5465062787245
 20
353.3855665035963
 30
0.0
 11
206.5514443816552
 21
353.3912871121473
 31
0.0
  0
LINE
  5
20E8
330
1F
100
AcDbEntity
  8
0
  6
Continuous
 62
     7
370
     9
100
AcDbLine
 10
206.3788911050895
 20
353.706173390341
 30
0.0
 11
206.546506288169
 21
353.6089589347107
 31
0.0
  0
LINE
  5
20E9
330
1F
100
AcDbEntity
  8
0
  6
Continuous
 62
     7
370
     9
100
AcDbLine
 10
204.2191196045095
 20
353.4906691294811
 30
0.0
 11
204.0515044357675
 21
353.587883576767
 31
0.0
  0
LINE
  5
20EA
330
1F
100
AcDbEntity
  8
0
  6
Continuous
 62
     7
370
     9
100
AcDbLine
 10
206.546506288169
 20
353.6089589347107
 30
0.0
 11
206.5514443816552
 21
353.6032383316594
 31
0.0
  0
LINE
  5
20EB
330
1F
100
AcDbEntity
  8
0
  6
Continuous
 62
     7
370
     9
100
AcDbLine
 10
204.051504426323
 20
353.8112760078814
 30
0.0
 11
204.0465663328747
 21
353.8055554048302
 31
0.0
  0
LINE
  5
20EC
330
1F
100
AcDbEntity
  8
0
  6
Continuous
 62
     7
370
     9
100
AcDbLine
 10
206.5514443816552
 20
353.6032383316594
 30
0.0
 11
206.5514443816552
 21
353.3912871121473
 31
0.0
  0
LINE
  5
20ED
330
1F
100
AcDbEntity
  8
0
  6
Continuous
 62
     7
370
     9
100
AcDbLine
 10
204.0515044357675
 20
353.587883576767
 30
0.0
 11
204.0465663328747
 21
353.593604185318
 31
0.0
  0
LINE
  5
20EE
330
1F
100
AcDbEntity
  8
0
  6
Continuous
 62
     7
370
     9
100
AcDbLine
 10
204.0465663328747
 20
353.8055554048302
 30
0.0
 11
204.0465663328747
 21
353.593604185318
 31
0.0
  0
SPLINE
  5
20EF
330
1F
100
AcDbEntity
  8
0
  6
Continuous
 62
     7
370
     9
100
AcDbSpline
210
0.0
220
0.0
230
1.0
 70
     8
 71
     3
 72
     8
 73
     4
 74
     2
 42
0.0000000001
 43
0.0000000001
 44
0.0000000001
 12
0.0
 22
1.0
 32
0.0
 13
-0.1002776267664013
 23
0.9949594954419492
 33
0.0
 40
0.0
 40
0.0
 40
0.0
 40
0.0
 40
0.0010097984766727
 40
0.0010097984766727
 40
0.0010097984766727
 40
0.0010097984766727
 10
206.5514443816552
 20
353.3912871121473
 30
0.0
 10
206.5514443816552
 20
353.3916237116396
 30
0.0
 10
206.5514284493332
 20
353.3919607846641
 30
0.0
 10
206.551394695935
 20
353.3922956875251
 30
0.0
 11
206.5514443816552
 21
353.3912871121473
 31
0.0
 11
206.551394695935
 21
353.3922956875251
 31
0.0
  0
SPLINE
  5
20F0
330
1F
100
AcDbEntity
  8
0
  6
Continuous
 62
     7
370
     9
100
AcDbSpline
210
0.0
220
0.0
230
1.0
 70
     8
 71
     3
 72
    22
 73
    18
 74
    16
 42
0.0000000001
 43
0.0000000001
 44
0.0000000001
 12
-0.1002776214911201
 22
0.994959495973622
 32
0.0
 13
-0.7965581643165197
 23
0.6045618999413512
 33
0.0
 40
0.0
 40
0.0
 40
0.0
 40
0.0
 40
0.0301326747843044
 40
0.1144041511006164
 40
0.2493343245782681
 40
0.4247027737476659
 40
0.6345480604540914
 40
0.8749136638596915
 40
1.132143637125073
 40
1.391190644375496
 40
1.646390407106071
 40
1.883278450604804
 40
2.093328208288222
 40
2.268623362076103
 40
2.403350991024359
 40
2.487465005692051
 40
2.511921273880282
 40
2.511921273880282
 40
2.511921273880282
 40
2.511921273880282
 10
206.551394695935
 20
353.3922956875251
 30
0.0
 10
206.5503874849495
 20
353.4022892844971
 30
0.0
 10
206.4973594337143
 20
353.4066141021006
 30
0.0
 10
206.4296957520904
 20
353.4233096569042
 30
0.0
 10
206.2908809943665
 20
353.4331426012841
 30
0.0
 10
206.1211455066825
 20
353.4470540607643
 30
0.0
 10
205.9118984582275
 20
353.4596525944271
 30
0.0
 10
205.6768159319654
 20
353.4728906370819
 30
0.0
 10
205.4248330243714
 20
353.4859972165442
 30
0.0
 10
205.1680473104207
 20
353.4991594026515
 30
0.0
 10
204.9179760009363
 20
353.5121669471889
 30
0.0
 10
204.6843807875394
 20
353.5253715774892
 30
0.0
 10
204.477100387739
 20
353.5377370090655
 30
0.0
 10
204.3049752363695
 20
353.5521295719689
 30
0.0
 10
204.1722887935534
 20
353.5607851411399
 30
0.0
 10
204.0953804538696
 20
353.5792300691261
 30
0.0
 10
204.0568087206315
 20
353.5813880996639
 30
0.0
 10
204.0503151072668
 20
353.5863165423177
 30
0.0
 11
206.551394695935
 21
353.3922956875251
 31
0.0
 11
206.52397850305
 21
353.4047989054049
 31
0.0
 11
206.4408374344495
 21
353.4185555195412
 31
0.0
 11
206.3066031830605
 21
353.4322419167569
 31
0.0
 11
206.1317445730091
 21
353.4456045308342
 31
0.0
 11
205.9223208002162
 21
353.4588984295143
 31
0.0
 11
205.6823354603483
 21
353.4724136042814
 31
0.0
 11
205.4254609691609
 21
353.4859322922121
 31
0.0
 11
205.1667569587418
 21
353.4992584678996
 31
0.0
 11
204.9119104347635
 21
353.5126811395382
 31
0.0
 11
204.6753976835733
 21
353.5260101934081
 31
0.0
 11
204.4657700966595
 21
353.5393209224488
 31
0.0
 11
204.2909851810003
 21
353.552685958907
 31
0.0
 11
204.1569535995446
 21
353.566363282274
 31
0.0
 11
204.073970121455
 21
353.5801077294317
 31
0.0
 11
204.0503151072668
 21
353.5863165423177
 31
0.0
  0
SPLINE
  5
20F1
330
1F
100
AcDbEntity
  8
0
  6
Continuous
 62
     7
370
     9
100
AcDbSpline
210
0.0
220
0.0
230
1.0
 70
     8
 71
     3
 72
    22
 73
    18
 74
    16
 42
0.0000000001
 43
0.0000000001
 44
0.0000000001
 12
0.250508813973156
 22
-0.9681143187257188
 32
0.0
 13
0.3906703237736134
 23
-0.9205306611529135
 33
0.0
 40
0.0
 40
0.0
 40
0.0
 40
0.0
 40
0.0007783791048324
 40
0.0561623758608577
 40
0.161656803943458
 40
0.3126787806438572
 40
0.5019071846104389
 40
0.7200193838127338
 40
0.9562215850123381
 40
1.198806603669833
 40
1.435745914641455
 40
1.655295202339011
 40
1.846587941705603
 40
2.000195601688541
 40
2.108657885506754
 40
2.167180311737852
 40
2.169573836629236
 40
2.169573836629236
 40
2.169573836629236
 40
2.169573836629236
 10
204.2198943271809
 20
353.4908695963431
 30
0.0
 10
204.219959324123
 20
353.4906184096908
 30
0.0
 10
204.2250549584738
 20
353.4724975329211
 30
0.0
 10
204.3005562012872
 20
353.4809660000759
 30
0.0
 10
204.3878717475662
 20
353.4545007827803
 30
0.0
 10
204.5431304578628
 20
353.447137163439
 30
0.0
 10
204.7259883855691
 20
353.4309517904176
 30
0.0
 10
204.9409704912905
 20
353.4177711702558
 30
0.0
 10
205.1725530704507
 20
353.4034926308174
 30
0.0
 10
205.4108496556097
 20
353.3895755670611
 30
0.0
 10
205.6432296741111
 20
353.3753182251465
 30
0.0
 10
205.8593775715396
 20
353.3620532232776
 30
0.0
 10
206.0450082563928
 20
353.346082527111
 30
0.0
 10
206.2009040523615
 20
353.3381493665418
 30
0.0
 10
206.2951081161212
 20
353.3126219820062
 30
0.0
 10
206.3680661542963
 20
353.3201107916537
 30
0.0
 10
206.3768699411383
 20
353.3015481875652
 30
0.0
 10
206.3771816341864
 20
353.3008137498816
 30
0.0
 11
204.2198943271809
 21
353.4908695963431
 31
0.0
 11
204.2201046290649
 21
353.4901201651264
 31
0.0
 11
204.2735849672716
 21
353.475724314267
 31
0.0
 11
204.3780925451524
 21
353.4613284634076
 31
0.0
 11
204.5284268290817
 21
353.4469326125482
 31
0.0
 11
204.7171068448379
 21
353.4325367616887
 31
0.0
 11
204.9347434477311
 21
353.4181409108294
 31
0.0
 11
205.1705065477503
 21
353.4037450600079
 31
0.0
 11
205.4126640393856
 21
353.3893492091485
 31
0.0
 11
205.649165617735
 21
353.374953358289
 31
0.0
 11
205.8682424289372
 21
353.3605575074296
 31
0.0
 11
206.0589927149459
 21
353.3461616565702
 31
0.0
 11
206.2119243097309
 21
353.3317658057108
 31
0.0
 11
206.3194269910421
 21
353.3173699548513
 31
0.0
 11
206.3761511820897
 21
353.3029741039919
 31
0.0
 11
206.3771816341864
 21
353.3008137498816
 31
0.0
  0
SPLINE
  5
20F2
330
1F
100
AcDbEntity
  8
0
  6
Continuous
 62
     7
370
     9
100
AcDbSpline
210
0.0
220
0.0
230
1.0
 70
     8
 71
     3
 72
    21
 73
    17
 74
    15
 42
0.0000000001
 43
0.0000000001
 44
0.0000000001
 12
0.4929694063175559
 22
-0.8700466449765302
 32
0.0
 13
0.1614492973955897
 23
-0.9868810082124747
 33
0.0
 40
0.0
 40
0.0
 40
0.0
 40
0.0
 40
0.0178170539526863
 40
0.0786937432088672
 40
0.189369676005465
 40
0.3448979692040774
 40
0.5377154427278552
 40
0.7583154402667251
 40
0.9957782807896538
 40
1.238333280071705
 40
1.473953423383869
 40
1.690960850760963
 40
1.878617705364458
 40
2.027682076087341
 40
2.130938762633241
 40
2.183909969539122
 40
2.183909969539122
 40
2.183909969539122
 40
2.183909969539122
 10
204.2077569401025
 20
353.9018968304289
 30
0.0
 10
204.2106846942723
 20
353.8967296077573
 30
0.0
 10
204.2390510901501
 20
353.8887313999816
 30
0.0
 10
204.2969812120833
 20
353.8739971424729
 30
0.0
 10
204.407825712127
 20
353.862723994
 30
0.0
 10
204.5590897609943
 20
353.8483240672467
 30
0.0
 10
204.7486606537662
 20
353.8347573642576
 30
0.0
 10
204.9650366848349
 20
353.8206897727627
 30
0.0
 10
205.1981721052506
 20
353.8066716080276
 30
0.0
 10
205.4363871220578
 20
353.7926903544645
 30
0.0
 10
205.6673576364054
 20
353.7784203291673
 30
0.0
 10
205.8814291374614
 20
353.7652715436607
 30
0.0
 10
206.0622111534883
 20
353.7490113313947
 30
0.0
 10
206.2168814049029
 20
353.7418441197946
 30
0.0
 10
206.2992942094167
 20
353.7152097298044
 30
0.0
 10
206.3762147727588
 20
353.7236273456155
 30
0.0
 10
206.3790654941379
 20
353.7062019195897
 30
0.0
 11
204.2077569401025
 21
353.9018968304289
 31
0.0
 11
204.2233094936155
 21
353.8932039890764
 31
0.0
 11
204.2824595635464
 21
353.878808138217
 31
0.0
 11
204.3921952531757
 21
353.8644122873576
 31
0.0
 11
204.5470558661905
 21
353.8500164364982
 31
0.0
 11
204.7393351879443
 21
353.8356205856387
 31
0.0
 11
204.959464964195
 21
353.8212247347793
 31
0.0
 11
205.1964910389363
 21
353.8068288839199
 31
0.0
 11
205.4386184581906
 21
353.7924330330605
 31
0.0
 11
205.6737984135728
 21
353.778037182239
 31
0.0
 11
205.8903278180768
 21
353.7636413313796
 31
0.0
 11
206.0774316784264
 21
353.7492454805201
 31
0.0
 11
206.2257992830341
 21
353.7348496296607
 31
0.0
 11
206.3280475240678
 21
353.7204537788014
 31
0.0
 11
206.3790654941379
 21
353.7062019195897
 31
0.0
  0
SPLINE
  5
20F3
330
1F
100
AcDbEntity
  8
0
  6
Continuous
 62
     7
370
     9
100
AcDbSpline
210
0.0
220
0.0
230
1.0
 70
     8
 71
     3
 72
     8
 73
     4
 74
     2
 42
0.0000000001
 43
0.0000000001
 44
0.0000000001
 12
0.0
 22
-1.0
 32
0.0
 13
0.1003076508315724
 23
-0.9949564689898002
 33
0.0
 40
0.0
 40
0.0
 40
0.0
 40
0.0
 40
0.0010096964125451
 40
0.0010096964125451
 40
0.0010096964125451
 40
0.0010096964125451
 10
204.0465663328747
 20
353.8055554048302
 30
0.0
 10
204.0465663328747
 20
353.8052188393594
 30
0.0
 10
204.0465822684028
 20
353.8048818001206
 30
0.0
 10
204.0466160284946
 20
353.8045469321281
 30
0.0
 11
204.0465663328747
 21
353.8055554048302
 31
0.0
 11
204.0466160284946
 21
353.8045469321281
 31
0.0
  0
SPLINE
  5
20F4
330
1F
100
AcDbEntity
  8
0
  6
Continuous
 62
     7
370
     9
100
AcDbSpline
210
0.0
220
0.0
230
1.0
 70
     8
 71
     3
 72
    22
 73
    18
 74
    16
 42
0.0000000001
 43
0.0000000001
 44
0.0000000001
 12
0.1003076473057551
 22
-0.9949564693452595
 32
0.0
 13
0.8034306909058082
 23
-0.5953982909873153
 33
0.0
 40
0.0
 40
0.0
 40
0.0
 40
0.0
 40
0.0301234345751199
 40
0.114133100461183
 40
0.2482683442512519
 40
0.4231560690566317
 40
0.6380576403533782
 40
0.8836717243098926
 40
1.143719148680903
 40
1.402728077449096
 40
1.65508637159435
 40
1.893066182306336
 40
2.103557152357962
 40
2.276687168779106
 40
2.407649432601953
 40
2.488296796547137
 40
2.511875241497095
 40
2.511875241497095
 40
2.511875241497095
 40
2.511875241497095
 10
204.0466160284946
 20
353.8045469321281
 30
0.0
 10
204.0476232321116
 20
353.7945564300916
 30
0.0
 10
204.1005299952371
 20
353.7902401604229
 30
0.0
 10
204.1679073332967
 20
353.7736019730065
 30
0.0
 10
204.3061596191746
 20
353.7637775405688
 30
0.0
 10
204.4771406156666
 20
353.7497495412645
 30
0.0
 10
204.6896884415191
 20
353.7369751289682
 30
0.0
 10
204.9291288243146
 20
353.7235234523373
 30
0.0
 10
205.1837871235622
 20
353.7103010595658
 30
0.0
 10
205.4405523343415
 20
353.6971393742607
 30
0.0
 10
205.690026155369
 20
353.6841375946776
 30
0.0
 10
205.9231860084367
 20
353.6709159556416
 30
0.0
 10
206.1302425755023
 20
353.6584711733125
 30
0.0
 10
206.3005699574158
 20
353.6441240565067
 30
0.0
 10
206.4299921819094
 20
353.6353760893796
 30
0.0
 10
206.5044759496803
 20
353.6175741874733
 30
0.0
 10
206.5413211985431
 20
353.6151625492467
 30
0.0
 10
206.5476357473153
 20
353.6104830273043
 30
0.0
 11
204.0466160284946
 21
353.8045469321281
 31
0.0
 11
204.0740230502791
 21
353.7920458734729
 31
0.0
 11
204.1569039537264
 21
353.7783207211587
 31
0.0
 11
204.2903451009479
 21
353.7646926671953
 31
0.0
 11
204.4647226735589
 21
353.7513443168131
 31
0.0
 11
204.6791929875924
 21
353.7377366078151
 31
0.0
 11
204.9244202381133
 21
353.7239571361356
 31
0.0
 11
205.1841094790463
 21
353.7103130507631
 31
0.0
 11
205.442775417481
 21
353.6969879813335
 31
0.0
 11
205.6947831724215
 21
353.6836913624483
 31
0.0
 11
205.9323831746147
 21
353.6702515237471
 31
0.0
 11
206.1424448734316
 21
353.6568153351735
 31
0.0
 11
206.3150586452297
 21
353.6434553811448
 31
0.0
 11
206.4453216481296
 21
353.629940033532
 31
0.0
 11
206.5248469647894
 21
353.6165340154256
 31
0.0
 11
206.5476357473153
 21
353.6104830273043
 31
0.0
  0
LINE
  5
20F5
330
1F
100
AcDbEntity
  8
0
370
     9
100
AcDbLine
 10
206.2894194317378
 20
385.7955185200339
 30
0.0
 11
204.0444249996734
 21
384.4993703803524
 31
0.0
  0
LINE
  5
20F6
330
1F
100
AcDbEntity
  8
0
370
     9
100
AcDbLine
 10
206.3894194317377
 20
385.622313439277
 30
0.0
 11
204.1444249996733
 21
384.3261652995955
 31
0.0
  0
TEXT
  5
20F7
330
1F
100
AcDbEntity
  8
0
 62
     7
370
     9
100
AcDbText
 10
207.3612949074062
 20
384.0901229902924
 30
0.0
 40
2.0
  1
RCE
  7
型式1
100
AcDbText
  0
LINE
  5
20F8
330
1F
100
AcDbEntity
  8
0
370
     9
100
AcDbLine
 10
227.2169222157056
 20
386.4608419098147
 30
0.0
 11
227.2169222157056
 21
383.6608419098147
 31
0.0
  0
LINE
  5
20F9
330
1F
100
AcDbEntity
  8
0
370
     9
100
AcDbLine
 10
227.2169222157056
 20
353.0158882534662
 30
0.0
 11
227.2169222157056
 21
350.1158882534662
 31
0.0
  0
DIMENSION
  5
20FA
330
1F
100
AcDbEntity
  8
AM_5
100
AcDbDimension
  2
*D7
 10
227.2169222157056
 20
358.2442544631433
 30
0.0
 11
215.2169222157056
 21
358.2442544631433
 31
0.0
 70
   160
 71
     5
 42
24.0
  3
AM_ISO$0
100
AcDbAlignedDimension
 13
203.2169222157055
 23
352.7408882534662
 33
0.0
 14
227.2169222157056
 24
353.8908882534662
 34
0.0
100
AcDbRotatedDimension
  0
DIMENSION
  5
20FB
330
1F
100
AcDbEntity
  8
AM_5
100
AcDbDimension
  2
*D8
 10
200.4999019012049
 20
348.8908882534662
 30
0.0
 11
200.4999019012049
 21
351.3908882534662
 31
0.0
 70
   160
 71
     5
 42
5.0
  3
AM_ISO$0
100
AcDbAlignedDimension
 13
207.2169222157056
 23
353.8908882534662
 33
0.0
 14
207.2169222157056
 24
348.8908882534662
 34
0.0
 50
90.0
100
AcDbRotatedDimension
1001
ACAD
1000
DSTYLE
1002
{
1070
   147
1040
1.199999999999999
1002
}
  0
DIMENSION
  5
20FC
330
1F
100
AcDbEntity
  8
AM_5
100
AcDbDimension
  2
*D9
 10
200.4999019012049
 20
387.0608419066651
 30
0.0
 11
200.4999019012049
 21
385.0608419082399
 31
0.0
 70
   160
 71
     5
 42
3.999999996850419
  3
AM_ISO$0
100
AcDbAlignedDimension
 13
203.2169222157055
 23
383.0608419098147
 33
0.0
 14
203.2168085962486
 24
387.0608419066651
 34
0.0
 50
90.0
100
AcDbRotatedDimension
1001
ACAD
1000
DSTYLE
1002
{
1070
   147
1040
1.199999999999999
1002
}
  0
LEADER
  5
20FD
330
1F
100
AcDbEntity
  8
AM_5
100
AcDbLeader
  3
AM_ISO$7
 73
     0
 74
     0
 75
     1
 40
3.5
 41
20.33333333333333
 76
     3
 10
205.5756767632846
 20
386.1749357481918
 30
0.0
 10
209.5506369709119
 20
391.2052683539461
 30
0.0
 10
212.5506369709118
 20
391.2052683539461
 30
0.0
340
20FE
213
1.735985865149586
223
-0.3286996798672277
233
0.0
1001
ACAD
1000
DSTYLE
1002
{
1070
   147
1040
0.2
1070
    77
1070
     1
1002
}
  0
MTEXT
  5
20FE
102
{ACAD_REACTORS
330
20FD
102
}
330
1F
100
AcDbEntity
  8
AM_5
100
AcDbMText
 10
211.0146511057623
 20
395.2339680338133
 30
0.0
 40
3.5
 41
0.0
 71
     1
 72
     1
  1
M2.6*5L
  7
DAYUS
 73
     1
 44
1.0
1001
ACAD
1000
MTEXTBEGIN
1070
    73
1070
     1
1070
    44
1040
1.0
1070
    74
1070
     0
1000
MTEXTEND
  0
LINE
  5
20FF
330
1F
100
AcDbEntity
  8
0
370
     9
100
AcDbLine
 10
216.2169222157055
 20
384.3608419098146
 30
0.0
 11
218.0169222157056
 21
384.3608419098146
 31
0.0
  0
LINE
  5
2100
330
1F
100
AcDbEntity
  8
0
370
     9
100
AcDbLine
 10
218.0169222157056
 20
385.7608419098147
 30
0.0
 11
216.2169222157055
 21
385.7608419098147
 31
0.0
  0
LINE
  5
2101
330
1F
100
AcDbEntity
  8
0
370
     9
100
AcDbLine
 10
215.7169222157055
 20
385.2608419098147
 30
0.0
 11
215.7169222157055
 21
384.8608419098146
 31
0.0
  0
LINE
  5
2102
330
1F
100
AcDbEntity
  8
0
370
     9
100
AcDbLine
 10
218.5169222157056
 20
384.8608419098146
 30
0.0
 11
218.5169222157056
 21
385.2608419098147
 31
0.0
  0
ARC
  5
2103
330
1F
100
AcDbEntity
  8
0
370
     9
100
AcDbCircle
 10
216.2169222157055
 20
384.8608419098146
 30
0.0
 40
0.5
100
AcDbArc
 50
180.0
 51
270.0
  0
ARC
  5
2104
330
1F
100
AcDbEntity
  8
0
370
     9
100
AcDbCircle
 10
216.2169222157055
 20
385.2608419098147
 30
0.0
 40
0.5
100
AcDbArc
 50
90.0
 51
180.0
  0
ARC
  5
2105
330
1F
100
AcDbEntity
  8
0
370
     9
100
AcDbCircle
 10
218.0169222157056
 20
385.2608419098147
 30
0.0
 40
0.5
100
AcDbArc
 50
0.0
 51
90.0
  0
ARC
  5
2106
330
1F
100
AcDbEntity
  8
0
370
     9
100
AcDbCircle
 10
218.0169222157056
 20
384.8608419098146
 30
0.0
 40
0.5
100
AcDbArc
 50
270.0
 51
0.0
  0
LEADER
  5
2107
330
1F
100
AcDbEntity
  8
AM_5
100
AcDbLeader
  3
AM_ISO$7
 73
     0
 74
     0
 75
     1
 40
3.0
 41
7.142857142857142
 76
     3
 10
216.8963726232358
 20
384.8054229878492
 30
0.0
 10
224.3250833263648
 20
375.6217196878903
 30
0.0
 10
227.3250833263648
 20
375.6217196878903
 30
0.0
340
2108
213
1.498102521800547
223
-0.3912552379740788
233
0.0
1001
ACAD
1000
DSTYLE
1002
{
1070
   147
1040
0.2
1070
    77
1070
     1
1002
}
  0
MTEXT
  5
2108
102
{ACAD_REACTORS
330
2107
102
}
330
1F
100
AcDbEntity
  8
AM_5
100
AcDbMText
 10
226.0269808045642
 20
379.2129749258643
 30
0.0
 40
3.0
 41
0.0
 71
     1
 72
     1
  1
LED
  7
DAYUS
 73
     1
 44
1.0
1001
ACAD
1000
MTEXTBEGIN
1070
    73
1070
     1
1070
    44
1040
1.0
1070
    74
1070
     0
1000
MTEXTEND
  0
SOLID
  5
2109
330
1F
100
AcDbEntity
  8
0
 48
6.0
100
AcDbTrace
 10
220.1549845273496
 20
385.4660505587775
 30
0.0
 11
220.1549845273496
 21
385.2073726948981
 31
0.0
 12
219.401587833848
 22
384.4789156963378
 32
0.0
 13
219.5990148063362
 23
384.4789156963378
 33
0.0
  0
SOLID
  5
210A
330
1F
100
AcDbEntity
  8
0
 48
6.0
100
AcDbTrace
 10
219.401587833848
 20
385.4660505587775
 30
0.0
 11
219.401587833848
 21
385.2073726948981
 31
0.0
 12
218.6481911403467
 22
384.4789156963378
 32
0.0
 13
218.8456181128346
 23
384.4789156963378
 33
0.0
  0
SOLID
  5
210B
330
1F
100
AcDbEntity
  8
0
 48
6.0
100
AcDbTrace
 10
219.5990148063362
 20
385.4660505587775
 30
0.0
 11
219.5990148063362
 21
384.7375935602173
 31
0.0
 12
219.401587833848
 22
385.4660505587775
 32
0.0
 13
219.401587833848
 23
384.4789156963378
 33
0.0
  0
POLYLINE
  5
210C
330
1F
100
AcDbEntity
  8
0
 48
6.0
100
AcDb2dPolyline
 66
     1
 10
0.0
 20
0.0
 30
0.0
 40
0.197426972487932
 41
0.197426972487932
  0
VERTEX
  5
210D
330
210C
100
AcDbEntity
  8
0
100
AcDbVertex
100
AcDb2dVertex
 10
223.9423950392724
 20
384.4789156963378
 30
0.0
  0
VERTEX
  5
210E
330
210C
100
AcDbEntity
  8
0
100
AcDbVertex
100
AcDb2dVertex
 10
223.9423950392724
 20
385.0711966138017
 30
0.0
  0
SEQEND
  5
210F
330
210C
100
AcDbEntity
  8
0
  0
POLYLINE
  5
2110
330
1F
100
AcDbEntity
  8
0
 48
6.0
100
AcDb2dPolyline
 66
     1
 10
0.0
 20
0.0
 30
0.0
 40
0.197426972487932
 41
0.197426972487932
  0
VERTEX
  5
2111
330
2110
100
AcDbEntity
  8
0
100
AcDbVertex
100
AcDb2dVertex
 10
224.534675956736
 20
385.0711966138017
 30
0.0
 42
1.0
  0
VERTEX
  5
2112
330
2110
100
AcDbEntity
  8
0
100
AcDbVertex
100
AcDb2dVertex
 10
223.9423950392724
 20
385.0711966138017
 30
0.0
 42
1.0
  0
SEQEND
  5
2113
330
2110
100
AcDbEntity
  8
0
  0
POLYLINE
  5
2114
330
1F
100
AcDbEntity
  8
0
 48
6.0
100
AcDb2dPolyline
 66
     1
 10
0.0
 20
0.0
 30
0.0
 40
0.197426972487932
 41
0.197426972487932
  0
VERTEX
  5
2115
330
2114
100
AcDbEntity
  8
0
100
AcDbVertex
100
AcDb2dVertex
 10
223.9423950392724
 20
385.0711966138017
 30
0.0
 42
1.0
  0
VERTEX
  5
2116
330
2114
100
AcDbEntity
  8
0
100
AcDbVertex
100
AcDb2dVertex
 10
223.3501141218087
 20
385.0711966138017
 30
0.0
 42
1.0
  0
SEQEND
  5
2117
330
2114
100
AcDbEntity
  8
0
  0
SOLID
  5
2118
330
1F
100
AcDbEntity
  8
0
 48
6.0
100
AcDbTrace
 10
220.3524114998375
 20
385.4660505587775
 30
0.0
 11
220.3524114998375
 21
384.4789156963378
 31
0.0
 12
220.1549845273496
 22
385.4660505587775
 32
0.0
 13
220.1549845273496
 23
384.4789156963378
 33
0.0
  0
SOLID
  5
2119
330
1F
100
AcDbEntity
  8
0
 48
6.0
100
AcDbTrace
 10
220.7835437367685
 20
385.4660505587775
 30
0.0
 11
220.7835437367685
 21
384.4789156963378
 31
0.0
 12
220.5861167642803
 22
385.4660505587775
 32
0.0
 13
220.5861167642803
 23
384.4789156963378
 33
0.0
  0
SOLID
  5
211A
330
1F
100
AcDbEntity
  8
0
 48
6.0
100
AcDbTrace
 10
220.7835437367685
 20
385.7621910175095
 30
0.0
 11
220.7835437367685
 21
385.604249439519
 31
0.0
 12
220.5861167642803
 22
385.7621910175095
 32
0.0
 13
220.5861167642803
 23
385.604249439519
 33
0.0
  0
POLYLINE
  5
211B
330
1F
100
AcDbEntity
  8
0
 48
6.0
100
AcDb2dPolyline
 66
     1
 10
0.0
 20
0.0
 30
0.0
 40
0.197426972487932
 41
0.197426972487932
  0
VERTEX
  5
211C
330
211B
100
AcDbEntity
  8
0
100
AcDbVertex
100
AcDb2dVertex
 10
221.1125952718139
 20
384.4789156963378
 30
0.0
  0
VERTEX
  5
211D
330
211B
100
AcDbEntity
  8
0
100
AcDbVertex
100
AcDb2dVertex
 10
221.1125952718139
 20
385.4660505587775
 30
0.0
  0
SEQEND
  5
211E
330
211B
100
AcDbEntity
  8
0
  0
POLYLINE
  5
211F
330
1F
100
AcDbEntity
  8
0
 48
6.0
100
AcDb2dPolyline
 66
     1
 10
0.0
 20
0.0
 30
0.0
 40
0.197426972487932
 41
0.197426972487932
  0
VERTEX
  5
2120
330
211F
100
AcDbEntity
  8
0
100
AcDbVertex
100
AcDb2dVertex
 10
221.1125952718139
 20
385.0711966138017
 30
0.0
 42
-1.0
  0
VERTEX
  5
2121
330
211F
100
AcDbEntity
  8
0
100
AcDbVertex
100
AcDb2dVertex
 10
221.7048761892776
 20
385.0711966138017
 30
0.0
 42
-0.0000000000000001
  0
SEQEND
  5
2122
330
211F
100
AcDbEntity
  8
0
  0
POLYLINE
  5
2123
330
1F
100
AcDbEntity
  8
0
 48
6.0
100
AcDb2dPolyline
 66
     1
 10
0.0
 20
0.0
 30
0.0
 40
0.197426972487932
 41
0.197426972487932
  0
VERTEX
  5
2124
330
2123
100
AcDbEntity
  8
0
100
AcDbVertex
100
AcDb2dVertex
 10
221.7048761892776
 20
385.0711966138017
 30
0.0
  0
VERTEX
  5
2125
330
2123
100
AcDbEntity
  8
0
100
AcDbVertex
100
AcDb2dVertex
 10
221.7048761892776
 20
384.4789156963378
 30
0.0
  0
SEQEND
  5
2126
330
2123
100
AcDbEntity
  8
0
  0
POLYLINE
  5
2127
330
1F
100
AcDbEntity
  8
0
 48
6.0
100
AcDb2dPolyline
 66
     1
 10
0.0
 20
0.0
 30
0.0
 40
0.197426972487932
 41
0.197426972487932
  0
VERTEX
  5
2128
330
2127
100
AcDbEntity
  8
0
100
AcDbVertex
100
AcDb2dVertex
 10
222.9223491005189
 20
384.4789156963378
 30
0.0
  0
VERTEX
  5
2129
330
2127
100
AcDbEntity
  8
0
100
AcDbVertex
100
AcDb2dVertex
 10
222.9223491005189
 20
385.7621910175095
 30
0.0
  0
SEQEND
  5
212A
330
2127
100
AcDbEntity
  8
0
  0
POLYLINE
  5
212B
330
1F
100
AcDbEntity
  8
0
 48
6.0
100
AcDb2dPolyline
 66
     1
 10
0.0
 20
0.0
 30
0.0
 70
     1
 40
0.197426972487932
 41
0.197426972487932
  0
VERTEX
  5
212C
330
212B
100
AcDbEntity
  8
0
100
AcDbVertex
100
AcDb2dVertex
 10
222.1326609532646
 20
384.9724831275576
 30
0.0
 42
1.0
  0
VERTEX
  5
212D
330
212B
100
AcDbEntity
  8
0
100
AcDbVertex
100
AcDb2dVertex
 10
222.9223688432164
 20
384.9724831275576
 30
0.0
 42
1.0
  0
SEQEND
  5
212E
330
212B
100
AcDbEntity
  8
0
  0
POLYLINE
  5
212F
330
1F
100
AcDbEntity
  8
0
 48
6.0
100
AcDb2dPolyline
 66
     1
 10
0.0
 20
0.0
 30
0.0
 40
0.197426972487932
 41
0.197426972487932
  0
VERTEX
  5
2130
330
212F
100
AcDbEntity
  8
0
100
AcDbVertex
100
AcDb2dVertex
 10
223.3501141218087
 20
384.4789156963378
 30
0.0
  0
VERTEX
  5
2131
330
212F
100
AcDbEntity
  8
0
100
AcDbVertex
100
AcDb2dVertex
 10
223.3501141218087
 20
385.4660505587775
 30
0.0
  0
SEQEND
  5
2132
330
212F
100
AcDbEntity
  8
0
  0
POLYLINE
  5
2133
330
1F
100
AcDbEntity
  8
0
 48
6.0
100
AcDb2dPolyline
 66
     1
 10
0.0
 20
0.0
 30
0.0
 40
0.197426972487932
 41
0.197426972487932
  0
VERTEX
  5
2134
330
2133
100
AcDbEntity
  8
0
100
AcDbVertex
100
AcDb2dVertex
 10
226.1799138892672
 20
384.4789156963378
 30
0.0
  0
VERTEX
  5
2135
330
2133
100
AcDbEntity
  8
0
100
AcDbVertex
100
AcDb2dVertex
 10
226.1799138892672
 20
385.4660505587775
 30
0.0
  0
SEQEND
  5
2136
330
2133
100
AcDbEntity
  8
0
  0
POLYLINE
  5
2137
330
1F
100
AcDbEntity
  8
0
 48
6.0
100
AcDb2dPolyline
 66
     1
 10
0.0
 20
0.0
 30
0.0
 40
0.197426972487932
 41
0.197426972487932
  0
VERTEX
  5
2138
330
2137
100
AcDbEntity
  8
0
100
AcDbVertex
100
AcDb2dVertex
 10
226.1799138892672
 20
385.0711966138017
 30
0.0
 42
-1.0
  0
VERTEX
  5
2139
330
2137
100
AcDbEntity
  8
0
100
AcDbVertex
100
AcDb2dVertex
 10
226.7721948067311
 20
385.0711966138017
 30
0.0
 42
-0.0000000000000001
  0
SEQEND
  5
213A
330
2137
100
AcDbEntity
  8
0
  0
POLYLINE
  5
213B
330
1F
100
AcDbEntity
  8
0
 48
6.0
100
AcDb2dPolyline
 66
     1
 10
0.0
 20
0.0
 30
0.0
 70
     1
 40
0.197426972487932
 41
0.197426972487932
  0
VERTEX
  5
213C
330
213B
100
AcDbEntity
  8
0
100
AcDbVertex
100
AcDb2dVertex
 10
224.9624607207234
 20
384.9724831275576
 30
0.0
 42
1.0
  0
VERTEX
  5
213D
330
213B
100
AcDbEntity
  8
0
100
AcDbVertex
100
AcDb2dVertex
 10
225.7521686106748
 20
384.9724831275576
 30
0.0
 42
1.0
  0
SEQEND
  5
213E
330
213B
100
AcDbEntity
  8
0
  0
POLYLINE
  5
213F
330
1F
100
AcDbEntity
  8
0
 48
6.0
100
AcDb2dPolyline
 66
     1
 10
0.0
 20
0.0
 30
0.0
 40
0.197426972487932
 41
0.197426972487932
  0
VERTEX
  5
2140
330
213F
100
AcDbEntity
  8
0
100
AcDbVertex
100
AcDb2dVertex
 10
224.534675956736
 20
384.4789156963378
 30
0.0
  0
VERTEX
  5
2141
330
213F
100
AcDbEntity
  8
0
100
AcDbVertex
100
AcDb2dVertex
 10
224.534675956736
 20
385.0711966138017
 30
0.0
  0
SEQEND
  5
2142
330
213F
100
AcDbEntity
  8
0
  0
POLYLINE
  5
2143
330
1F
100
AcDbEntity
  8
0
 48
6.0
100
AcDb2dPolyline
 66
     1
 10
0.0
 20
0.0
 30
0.0
 40
0.197426972487932
 41
0.197426972487932
  0
VERTEX
  5
2144
330
2143
100
AcDbEntity
  8
0
100
AcDbVertex
100
AcDb2dVertex
 10
225.7521488679774
 20
384.4789156963378
 30
0.0
  0
VERTEX
  5
2145
330
2143
100
AcDbEntity
  8
0
100
AcDbVertex
100
AcDb2dVertex
 10
225.7521488679774
 20
385.4660505587775
 30
0.0
  0
SEQEND
  5
2146
330
2143
100
AcDbEntity
  8
0
  0
POLYLINE
  5
2147
330
1F
100
AcDbEntity
  8
0
 48
6.0
100
AcDb2dPolyline
 66
     1
 10
0.0
 20
0.0
 30
0.0
 40
0.197426972487932
 41
0.197426972487932
  0
VERTEX
  5
2148
330
2147
100
AcDbEntity
  8
0
100
AcDbVertex
100
AcDb2dVertex
 10
226.7721948067311
 20
385.0711966138017
 30
0.0
  0
VERTEX
  5
2149
330
2147
100
AcDbEntity
  8
0
100
AcDbVertex
100
AcDb2dVertex
 10
226.7721948067311
 20
384.4789156963378
 30
0.0
  0
SEQEND
  5
214A
330
2147
100
AcDbEntity
  8
0
  0
ENDSEC
  0
SECTION
  2
OBJECTS
  0
DICTIONARY
  5
C
330
0
100
AcDbDictionary
281
     1
  3
ACAD_COLOR
350
BE
  3
ACAD_GROUP
350
D
  3
ACAD_LAYOUT
350
1A
  3
ACAD_MATERIAL
350
BD
  3
ACAD_MLINESTYLE
350
17
  3
ACAD_PLOTSETTINGS
350
19
  3
ACAD_PLOTSTYLENAME
350
E
  3
ACAD_TABLESTYLE
350
11A
  3
ACDBHEADERROUNDTRIPXREC
350
23CA
  3
AcDbVariableDictionary
350
94
  3
AcmDictionary
350
5B
  3
AMG
350
41
  3
AMGSNAPSETTINGS
350
1B8
  3
DWGPROPS
350
23C9
  0
DICTIONARY
  5
3F9
330
2
100
AcDbDictionary
280
     1
281
     1
  3
ACAD_LAYERFILTERS
360
5B7
  3
ACAD_LAYERSTATES
360
B13
  3
ACLYDICTIONARY
360
5B6
  0
DICTIONARY
  5
8F
330
1F
100
AcDbDictionary
280
     1
281
     1
  3
ACAD_SORTENTS
360
1430
  0
DICTIONARY
  5
BE
102
{ACAD_REACTORS
330
C
102
}
330
C
100
AcDbDictionary
281
     1
  0
DICTIONARY
  5
D
102
{ACAD_REACTORS
330
C
102
}
330
C
100
AcDbDictionary
281
     1
  0
DICTIONARY
  5
1A
102
{ACAD_REACTORS
330
C
102
}
330
C
100
AcDbDictionary
281
     1
  3
Model
350
22
  3
配置1
350
1E
  3
配置2
350
26
  0
DICTIONARY
  5
BD
102
{ACAD_REACTORS
330
C
102
}
330
C
100
AcDbDictionary
281
     1
  0
DICTIONARY
  5
17
102
{ACAD_REACTORS
330
C
102
}
330
C
100
AcDbDictionary
281
     1
  3
Standard
350
18
  0
DICTIONARY
  5
19
102
{ACAD_REACTORS
330
C
102
}
330
C
100
AcDbDictionary
281
     1
  0
ACDBDICTIONARYWDFLT
  5
E
102
{ACAD_REACTORS
330
C
102
}
330
C
100
AcDbDictionary
281
     1
  3
Normal
350
F
100
AcDbDictionaryWithDefault
340
F
  0
DICTIONARY
  5
11A
102
{ACAD_REACTORS
330
C
102
}
330
C
100
AcDbDictionary
281
     1
  3
Standard
350
11B
  0
DICTIONARY
  5
23CA
102
{ACAD_REACTORS
330
C
102
}
330
C
100
AcDbDictionary
281
     1
  0
DICTIONARY
  5
94
102
{ACAD_REACTORS
330
C
102
}
330
C
100
AcDbDictionary
281
     1
  3
CTABLESTYLE
350
138
  3
DIMASSOC
350
96
  3
INDEXCTL
350
95
  3
PROJECTNAME
350
1BF5
  0
DICTIONARY
  5
5B
102
{ACAD_REACTORS
330
C
102
}
330
C
100
AcDbDictionary
281
     1
  3
AcmBOM
350
1B5
  3
AcmStdDictionary
350
61
  3
AMDTSECTSYM_ARROWCOLOR
350
123
  0
DICTIONARY
  5
41
102
{ACAD_REACTORS
330
C
102
}
330
C
100
AcDbDictionary
281
     1
  0
DICTIONARY
  5
1B8
102
{ACAD_REACTORS
330
C
102
}
330
C
100
AcDbDictionary
281
     1
  0
XRECORD
  5
23C9
102
{ACAD_REACTORS
330
C
102
}
330
C
100
AcDbXrecord
280
     1
  1
DWGPROPS COOKIE
  2

  3

  4

  6

  7

  8

  9

300
AmdtFileType=84
301
=
302
=
303
=
304
=
305
=
306
=
307
=
308
=
309
=
 40
0.0841089467592593
 41
2453965.689012037
 42
2454705.357083414
  1

 90
        1
  0
DICTIONARY
  5
5B7
102
{ACAD_REACTORS
330
3F9
102
}
330
3F9
100
AcDbDictionary
281
     1
  0
DICTIONARY
  5
B13
102
{ACAD_REACTORS
330
3F9
102
}
330
3F9
100
AcDbDictionary
281
     1
  0
DICTIONARY
  5
5B6
102
{ACAD_REACTORS
330
3F9
102
}
330
3F9
100
AcDbDictionary
281
     1
1001
ACAD
1000
<All
  0
SORTENTSTABLE
  5
1430
102
{ACAD_REACTORS
330
8F
102
}
330
8F
100
AcDbSortentsTable
330
1F
  0
LAYOUT
  5
22
102
{ACAD_XDICTIONARY
360
23CD
102
}
102
{ACAD_REACTORS
330
1A
102
}
330
1A
100
AcDbPlotSettings
  1

  2
\\RD\EPSON Stylus C63 Series單色
  4
A4
  6

 40
3.757083177566528
 41
3.757076978683471
 42
3.757080078125
 43
3.757080078125
 44
209.9733276367187
 45
296.9683227539062
 46
0.0
 47
0.0
 48
0.0
 49
0.0
140
0.0
141
0.0
142
1.0
143
0.3405120737814363
 70
 11952
 72
     1
 73
     0
 74
     0
  7
單色出圖.ctb
 75
     0
147
2.936753428137963
148
-2047.07469463503
149
-1261.649717473083
100
AcDbLayout
  1
Model
 70
     1
 71
     0
 10
0.0
 20
0.0
 11
12.0
 21
9.0
 12
0.0
 22
0.0
 32
0.0
 14
0.0
 24
0.0
 34
0.0
 15
0.0
 25
0.0
 35
0.0
146
0.0
 13
0.0
 23
0.0
 33
0.0
 16
1.0
 26
0.0
 36
0.0
 17
0.0
 27
1.0
 37
0.0
 76
     0
330
1F
1001
ACAD_PSEXT
1000
\\RD\EPSON Stylus C63 Series單色
1000
EPSON Stylus C63 Series
1000
\\RD
1000

1070
     0
  0
LAYOUT
  5
1E
102
{ACAD_XDICTIONARY
360
23CB
102
}
102
{ACAD_REACTORS
330
1A
102
}
330
1A
100
AcDbPlotSettings
  1

  2

  4

  6

 40
0.0
 41
0.0
 42
0.0
 43
0.0
 44
0.0
 45
0.0
 46
0.0
 47
0.0
 48
0.0
 49
0.0
140
0.0
141
0.0
142
1.0
143
1.0
 70
   688
 72
     0
 73
     0
 74
     5
  7
單色出圖.ctb
 75
    16
147
1.0
148
0.0
149
0.0
100
AcDbLayout
  1
配置1
 70
     1
 71
     1
 10
0.0
 20
0.0
 11
420.0
 21
297.0
 12
0.0
 22
0.0
 32
0.0
 14
1.000000000000000E+20
 24
1.000000000000000E+20
 34
1.000000000000000E+20
 15
-1.000000000000000E+20
 25
-1.000000000000000E+20
 35
-1.000000000000000E+20
146
0.0
 13
0.0
 23
0.0
 33
0.0
 16
1.0
 26
0.0
 36
0.0
 17
0.0
 27
1.0
 37
0.0
 76
     0
330
1B
  0
LAYOUT
  5
26
102
{ACAD_XDICTIONARY
360
23CF
102
}
102
{ACAD_REACTORS
330
1A
102
}
330
1A
100
AcDbPlotSettings
  1

  2

  4

  6

 40
0.0
 41
0.0
 42
0.0
 43
0.0
 44
0.0
 45
0.0
 46
0.0
 47
0.0
 48
0.0
 49
0.0
140
0.0
141
0.0
142
1.0
143
1.0
 70
   688
 72
     0
 73
     0
 74
     5
  7
單色出圖.ctb
 75
    16
147
1.0
148
0.0
149
0.0
100
AcDbLayout
  1
配置2
 70
     1
 71
     2
 10
0.0
 20
0.0
 11
12.0
 21
9.0
 12
0.0
 22
0.0
 32
0.0
 14
0.0
 24
0.0
 34
0.0
 15
0.0
 25
0.0
 35
0.0
146
0.0
 13
0.0
 23
0.0
 33
0.0
 16
1.0
 26
0.0
 36
0.0
 17
0.0
 27
1.0
 37
0.0
 76
     0
330
23
  0
MLINESTYLE
  5
18
102
{ACAD_REACTORS
330
17
102
}
330
17
100
AcDbMlineStyle
  2
STANDARD
 70
     0
  3

 62
   256
 51
90.0
 52
90.0
 71
     2
 49
0.5
 62
   256
  6
BYLAYER
 49
-0.5
 62
   256
  6
BYLAYER
  0
ACDBPLACEHOLDER
  5
F
102
{ACAD_REACTORS
330
E
102
}
330
E
  0
TABLESTYLE
  5
11B
102
{ACAD_REACTORS
330
11A
102
}
330
11A
100
AcDbTableStyle
  3
Standard
 70
     0
 71
     0
 40
1.5
 41
1.5
280
     0
281
     0
  7
STANDARD
140
4.5
170
     2
 62
     0
 63
     7
283
     0
274
    -2
284
     1
 64
     0
275
    -2
285
     1
 65
     0
276
    -2
286
     1
 66
     0
277
    -2
287
     1
 67
     0
278
    -2
288
     1
 68
     0
279
    -2
289
     1
 69
     0
  7
STANDARD
140
6.0
170
     5
 62
     0
 63
     7
283
     0
274
    -2
284
     1
 64
     0
275
    -2
285
     1
 65
     0
276
    -2
286
     1
 66
     0
277
    -2
287
     1
 67
     0
278
    -2
288
     1
 68
     0
279
    -2
289
     1
 69
     0
  7
STANDARD
140
4.5
170
     5
 62
     0
 63
     7
283
     0
274
    -2
284
     1
 64
     0
275
    -2
285
     1
 65
     0
276
    -2
286
     1
 66
     0
277
    -2
287
     1
 67
     0
278
    -2
288
     1
 68
     0
279
    -2
289
     1
 69
     0
  0
DICTIONARYVAR
  5
138
102
{ACAD_REACTORS
330
94
102
}
330
94
100
DictionaryVariables
280
     0
  1
STANDARD
  0
DICTIONARYVAR
  5
96
102
{ACAD_REACTORS
330
94
102
}
330
94
100
DictionaryVariables
280
     0
  1
2
  0
DICTIONARYVAR
  5
95
102
{ACAD_REACTORS
330
94
102
}
330
94
100
DictionaryVariables
280
     0
  1
0
  0
DICTIONARYVAR
  5
1BF5
102
{ACAD_REACTORS
330
94
102
}
330
94
100
DictionaryVariables
280
     0
  1

  0
DICTIONARY
  5
1B5
102
{ACAD_REACTORS
330
5B
102
}
330
5B
100
AcDbDictionary
281
     1
  0
DICTIONARY
  5
61
102
{ACAD_REACTORS
330
5B
102
}
330
5B
100
AcDbDictionary
281
     1
  0
XRECORD
  5
123
102
{ACAD_REACTORS
330
5B
102
}
330
5B
100
AcDbXrecord
280
     1
 90
-1023410169
  0
DICTIONARY
  5
23CD
330
22
100
AcDbDictionary
280
     1
281
     1
  3
ACAD_XREC_ROUNDTRIP
360
23CE
  0
DICTIONARY
  5
23CB
330
1E
100
AcDbDictionary
280
     1
281
     1
  3
ACAD_XREC_ROUNDTRIP
360
23CC
  0
DICTIONARY
  5
23CF
330
26
100
AcDbDictionary
280
     1
281
     1
  3
ACAD_XREC_ROUNDTRIP
360
23D0
  0
XRECORD
  5
23CE
102
{ACAD_REACTORS
330
23CD
102
}
330
23CD
100
AcDbXrecord
280
     1
102
SHADEPLOT
 70
     0
102
SHADEPLOTRESLEVEL
 70
     2
102
SHADEPLOTCUSTOMDPI
 70
   300
  0
XRECORD
  5
23CC
102
{ACAD_REACTORS
330
23CB
102
}
330
23CB
100
AcDbXrecord
280
     1
102
SHADEPLOT
 70
     0
102
SHADEPLOTRESLEVEL
 70
     2
102
SHADEPLOTCUSTOMDPI
 70
   300
  0
XRECORD
  5
23D0
102
{ACAD_REACTORS
330
23CF
102
}
330
23CF
100
AcDbXrecord
280
     1
102
SHADEPLOT
 70
     0
102
SHADEPLOTRESLEVEL
 70
     2
102
SHADEPLOTCUSTOMDPI
 70
   300
  0
ENDSEC
  0
EOF
