  0
SECTION
  2
HEADER
  9
$ACADVER
  1
AC1015
  9
$ACADMAINTVER
 70
    20
  9
$DWGCODEPAGE
  3
ANSI_950
  9
$INSBASE
 10
0.0
 20
0.0
 30
0.0
  9
$EXTMIN
 10
84.66207067844653
 20
283.8569594562305
 30
-0.0071990449913528
  9
$EXTMAX
 10
304.7447956119782
 20
443.8770181820047
 30
104.8497801671978
  9
$LIMMIN
 10
0.0
 20
0.0
  9
$LIMMAX
 10
420.0
 20
297.0
  9
$ORTHOMODE
 70
     1
  9
$REGENMODE
 70
     1
  9
$FILLMODE
 70
     1
  9
$QTEXTMODE
 70
     0
  9
$MIRRTEXT
 70
     1
  9
$LTSCALE
 40
1.0
  9
$ATTMODE
 70
     1
  9
$TEXTSIZE
 40
3.0
  9
$TRACEWID
 40
1.0
  9
$TEXTSTYLE
  7
STANDARD
  9
$CLAYER
  8
0
  9
$CELTYPE
  6
ByLayer
  9
$CECOLOR
 62
   256
  9
$CELTSCALE
 40
1.0
  9
$DISPSILH
 70
     0
  9
$DIMSCALE
 40
1.0
  9
$DIMASZ
 40
3.0
  9
$DIMEXO
 40
1.0
  9
$DIMDLI
 40
8.0
  9
$DIMRND
 40
0.0
  9
$DIMDLE
 40
0.0
  9
$DIMEXE
 40
1.5
  9
$DIMTP
 40
0.1
  9
$DIMTM
 40
0.1
  9
$DIMTXT
 40
3.5
  9
$DIMCEN
 40
0.0
  9
$DIMTSZ
 40
0.0
  9
$DIMTOL
 70
     0
  9
$DIMLIM
 70
     0
  9
$DIMTIH
 70
     0
  9
$DIMTOH
 70
     0
  9
$DIMSE1
 70
     0
  9
$DIMSE2
 70
     0
  9
$DIMTAD
 70
     1
  9
$DIMZIN
 70
     8
  9
$DIMBLK
  1

  9
$DIMASO
 70
     1
  9
$DIMSHO
 70
     1
  9
$DIMPOST
  1

  9
$DIMAPOST
  1
"
  9
$DIMALT
 70
     0
  9
$DIMALTD
 70
     2
  9
$DIMALTF
 40
0.0393701
  9
$DIMLFAC
 40
1.0
  9
$DIMTOFL
 70
     1
  9
$DIMTVP
 40
0.0
  9
$DIMTIX
 70
     0
  9
$DIMSOXD
 70
     0
  9
$DIMSAH
 70
     0
  9
$DIMBLK1
  1

  9
$DIMBLK2
  1

  9
$DIMSTYLE
  2
AM_ISO
  9
$DIMCLRD
 70
   256
  9
$DIMCLRE
 70
   256
  9
$DIMCLRT
 70
   256
  9
$DIMTFAC
 40
0.6
  9
$DIMGAP
 40
0.7
  9
$DIMJUST
 70
     0
  9
$DIMSD1
 70
     0
  9
$DIMSD2
 70
     0
  9
$DIMTOLJ
 70
     0
  9
$DIMTZIN
 70
     8
  9
$DIMALTZ
 70
     0
  9
$DIMALTTZ
 70
     0
  9
$DIMUPT
 70
     0
  9
$DIMDEC
 70
     2
  9
$DIMTDEC
 70
     8
  9
$DIMALTU
 70
     2
  9
$DIMALTTD
 70
     2
  9
$DIMTXSTY
  7
STANDARD
  9
$DIMAUNIT
 70
     0
  9
$DIMADEC
 70
     0
  9
$DIMALTRND
 40
0.0
  9
$DIMAZIN
 70
     2
  9
$DIMDSEP
 70
    46
  9
$DIMATFIT
 70
     3
  9
$DIMFRAC
 70
     0
  9
$DIMLDRBLK
  1

  9
$DIMLUNIT
 70
     2
  9
$DIMLWD
 70
    -1
  9
$DIMLWE
 70
    -1
  9
$DIMTMOVE
 70
     0
  9
$LUNITS
 70
     2
  9
$LUPREC
 70
     2
  9
$SKETCHINC
 40
1.0
  9
$FILLETRAD
 40
2.5
  9
$AUNITS
 70
     0
  9
$AUPREC
 70
     0
  9
$MENU
  1
.
  9
$ELEVATION
 40
0.0
  9
$PELEVATION
 40
0.0
  9
$THICKNESS
 40
0.0
  9
$LIMCHECK
 70
     0
  9
$CHAMFERA
 40
2.5
  9
$CHAMFERB
 40
2.5
  9
$CHAMFERC
 40
20.0
  9
$CHAMFERD
 40
0.0
  9
$SKPOLY
 70
     0
  9
$TDCREATE
 40
2453965.689012037
  9
$TDUCREATE
 40
2453965.355678704
  9
$TDUPDATE
 40
2453966.390391343
  9
$TDUUPDATE
 40
2453966.057058009
  9
$TDINDWG
 40
0.0829088889
  9
$TDUSRTIMER
 40
0.0829088889
  9
$USRTIMER
 70
     1
  9
$ANGBASE
 50
0.0
  9
$ANGDIR
 70
     0
  9
$PDMODE
 70
     0
  9
$PDSIZE
 40
0.0
  9
$PLINEWID
 40
0.0
  9
$SPLFRAME
 70
     0
  9
$SPLINETYPE
 70
     6
  9
$SPLINESEGS
 70
     8
  9
$HANDSEED
  5
1BED
  9
$SURFTAB1
 70
     6
  9
$SURFTAB2
 70
     6
  9
$SURFTYPE
 70
     6
  9
$SURFU
 70
     6
  9
$SURFV
 70
     6
  9
$UCSBASE
  2

  9
$UCSNAME
  2

  9
$UCSORG
 10
0.0
 20
0.0
 30
0.0
  9
$UCSXDIR
 10
1.0
 20
0.0
 30
0.0
  9
$UCSYDIR
 10
0.0
 20
1.0
 30
0.0
  9
$UCSORTHOREF
  2

  9
$UCSORTHOVIEW
 70
     0
  9
$UCSORGTOP
 10
0.0
 20
0.0
 30
0.0
  9
$UCSORGBOTTOM
 10
0.0
 20
0.0
 30
0.0
  9
$UCSORGLEFT
 10
0.0
 20
0.0
 30
0.0
  9
$UCSORGRIGHT
 10
0.0
 20
0.0
 30
0.0
  9
$UCSORGFRONT
 10
0.0
 20
0.0
 30
0.0
  9
$UCSORGBACK
 10
0.0
 20
0.0
 30
0.0
  9
$PUCSBASE
  2

  9
$PUCSNAME
  2

  9
$PUCSORG
 10
0.0
 20
0.0
 30
0.0
  9
$PUCSXDIR
 10
1.0
 20
0.0
 30
0.0
  9
$PUCSYDIR
 10
0.0
 20
1.0
 30
0.0
  9
$PUCSORTHOREF
  2

  9
$PUCSORTHOVIEW
 70
     0
  9
$PUCSORGTOP
 10
0.0
 20
0.0
 30
0.0
  9
$PUCSORGBOTTOM
 10
0.0
 20
0.0
 30
0.0
  9
$PUCSORGLEFT
 10
0.0
 20
0.0
 30
0.0
  9
$PUCSORGRIGHT
 10
0.0
 20
0.0
 30
0.0
  9
$PUCSORGFRONT
 10
0.0
 20
0.0
 30
0.0
  9
$PUCSORGBACK
 10
0.0
 20
0.0
 30
0.0
  9
$USERI1
 70
     0
  9
$USERI2
 70
     0
  9
$USERI3
 70
     0
  9
$USERI4
 70
     0
  9
$USERI5
 70
     0
  9
$USERR1
 40
0.0
  9
$USERR2
 40
0.0
  9
$USERR3
 40
0.0
  9
$USERR4
 40
0.0
  9
$USERR5
 40
0.0
  9
$WORLDVIEW
 70
     1
  9
$SHADEDGE
 70
     3
  9
$SHADEDIF
 70
    70
  9
$TILEMODE
 70
     1
  9
$MAXACTVP
 70
    64
  9
$PINSBASE
 10
0.0
 20
0.0
 30
0.0
  9
$PLIMCHECK
 70
     0
  9
$PEXTMIN
 10
1.000000000000000E+20
 20
1.000000000000000E+20
 30
1.000000000000000E+20
  9
$PEXTMAX
 10
-1.000000000000000E+20
 20
-1.000000000000000E+20
 30
-1.000000000000000E+20
  9
$PLIMMIN
 10
0.0
 20
0.0
  9
$PLIMMAX
 10
420.0
 20
297.0
  9
$UNITMODE
 70
     0
  9
$VISRETAIN
 70
     1
  9
$PLINEGEN
 70
     0
  9
$PSLTSCALE
 70
     1
  9
$TREEDEPTH
 70
  3020
  9
$CMLSTYLE
  2
Standard
  9
$CMLJUST
 70
     0
  9
$CMLSCALE
 40
20.0
  9
$PROXYGRAPHICS
 70
     1
  9
$MEASUREMENT
 70
     1
  9
$CELWEIGHT
370
    -1
  9
$ENDCAPS
280
     0
  9
$JOINSTYLE
280
     0
  9
$LWDISPLAY
290
     0
  9
$INSUNITS
 70
     4
  9
$HYPERLINKBASE
  1

  9
$STYLESHEET
  1
彩色出圖.ctb
  9
$XEDIT
290
     1
  9
$CEPSNTYPE
380
     0
  9
$PSTYLEMODE
290
     1
  9
$FINGERPRINTGUID
  2
{8012A336-B5C9-4CB1-A428-E581F243F217}
  9
$VERSIONGUID
  2
{A07BD50F-93E6-4B15-A836-F71957934758}
  9
$EXTNAMES
290
     1
  9
$PSVPSCALE
 40
0.0
  9
$OLESTARTUP
290
     0
  0
ENDSEC
  0
SECTION
  2
CLASSES
  0
CLASS
  1
ACDBDICTIONARYWDFLT
  2
AcDbDictionaryWithDefault
  3
ObjectDBX Classes
 90
        0
280
     0
281
     0
  0
CLASS
  1
ACDBPLACEHOLDER
  2
AcDbPlaceHolder
  3
ObjectDBX Classes
 90
        0
280
     0
281
     0
  0
CLASS
  1
LAYOUT
  2
AcDbLayout
  3
ObjectDBX Classes
 90
        0
280
     0
281
     0
  0
CLASS
  1
ACME_DOCUMENT
  2
AcMeDbDoc
  3
AcMeServices
 90
        0
280
     0
281
     0
  0
CLASS
  1
AMGSETTINGSOBJ
  2
AmgSettingsObj
  3
"AcadM|Product Description: AutoCAD Mechanical 2000|Company: Autodesk"
 90
        0
280
     0
281
     0
  0
CLASS
  1
ACMESCOPE
  2
AcMeScope
  3
AcMeServices
 90
        0
280
     0
281
     0
  0
CLASS
  1
ACMECOMMANDHISTORY
  2
AcMeCommandHistory
  3
AcMeServices
 90
        0
280
     0
281
     0
  0
CLASS
  1
ACIMSYSVARMAN
  2
AcImSysVarManager
  3
AcMeServices
 90
        0
280
     0
281
     0
  0
CLASS
  1
ACIMREALSYSVAR
  2
AcImRealSysVar
  3
AcMeServices
 90
        0
280
     0
281
     0
  0
CLASS
  1
ACIMINTSYSVAR
  2
AcImIntSysVar
  3
AcMeServices
 90
        0
280
     0
281
     0
  0
CLASS
  1
ACMEDRAWINGMAN
  2
AcMeDrawingMan
  3
AcMeServices
 90
        0
280
     0
281
     0
  0
CLASS
  1
ACMEVIEW
  2
AcMeView
  3
AcMeServices
 90
        0
280
     0
281
     0
  0
CLASS
  1
ACDBENTITYCACHE
  2
AcMeEntityCache
  3
AcMeServices
 90
        0
280
     0
281
     0
  0
CLASS
  1
GSMANAGER
  2
AcMeGSManager
  3
AcMeServices
 90
        0
280
     0
281
     0
  0
CLASS
  1
AMDTINTERNALREACTOR
  2
AmdtInternalReactor
  3
AcMeServices
 90
        0
280
     0
281
     0
  0
CLASS
  1
ACMESTATEMGR
  2
AcMeStateMgr
  3
AcMeServices
 90
        0
280
     0
281
     0
  0
CLASS
  1
ACGREFMASTER
  2
AcGrefMaster
  3
AcAttribServices
 90
        0
280
     0
281
     0
  0
CLASS
  1
ACME_DATABASE
  2
AcMeDbDatabase
  3
AcMeServices
 90
        0
280
     0
281
     0
  0
CLASS
  1
ACRFINSADJUSTERMGR
  2
AcRfInsAdjusterMgr
  3
AcMeServices
 90
        0
280
     0
281
     0
  0
CLASS
  1
ACGREFACADMASTER
  2
AcGrefacadMaster
  3
AcGrefServices
 90
        0
280
     0
281
     0
  0
CLASS
  1
AMIMASTER
  2
AmiMaster
  3
AmiServices
 90
        0
280
     0
281
     0
  0
CLASS
  1
ACMDATADICTIONARY
  2
AcmDataDictionary
  3
"AcmSymBB|Product Description: AutoCAD Mechanical 2004 DX|Company: Autodesk"
 90
        0
280
     0
281
     0
  0
CLASS
  1
ACMDATAENTRYBLOCK
  2
AcmDataEntryBlock
  3
"AcmSymBB|Product Description: AutoCAD Mechanical 2004 DX|Company: Autodesk"
 90
        0
280
     0
281
     0
  0
CLASS
  1
ACIMSTRSYSVAR
  2
AcImStrSysVar
  3
AcMeServices
 90
        0
280
     0
281
     0
  0
CLASS
  1
ACMSTANDARDISO
  2
AcmStandardISO
  3
"Amdt_StdImp|Product Description: AutoCAD Mechanical 2004 DX|Company: Autodesk"
 90
        0
280
     0
281
     0
  0
CLASS
  1
AMGOBJPROPCFG
  2
AmgObjPropCfg
  3
"AmgLay|Product Description: AutoCAD Mechanical 2000|Company: Autodesk"
 90
        1
280
     0
281
     0
  0
CLASS
  1
AMDTEDGESTANDARDISO
  2
AmdtEdgeStdISO
  3
"Amdt_StdImp|Product Description: AutoCAD Mechanical 2004 DX|Company: Autodesk"
 90
        0
280
     0
281
     0
  0
CLASS
  1
ACMSURFSTANDARDISO
  2
AcmSurfTextStdISO
  3
"Amdt_StdImp|Product Description: AutoCAD Mechanical 2004 DX|Company: Autodesk"
 90
        0
280
     0
281
     0
  0
CLASS
  1
ACMFCFSTANDARDISO
  2
AcmFCFStdISO
  3
"Amdt_StdImp|Product Description: AutoCAD Mechanical 2004 DX|Company: Autodesk"
 90
        0
280
     0
281
     0
  0
CLASS
  1
ACMWELDSTANDARDISO
  2
AcmWeldingStdISO
  3
"Amdt_StdImp|Product Description: AutoCAD Mechanical 2004 DX|Company: Autodesk"
 90
        0
280
     0
281
     0
  0
CLASS
  1
ACMIDSTANDARDISO
  2
AcmIdStdISO
  3
"Amdt_StdImp|Product Description: AutoCAD Mechanical 2004 DX|Company: Autodesk"
 90
        0
280
     0
281
     0
  0
CLASS
  1
ACMDATUMSTANDARDISO
  2
AcmDatumStdISO
  3
"Amdt_StdImp|Product Description: AutoCAD Mechanical 2004 DX|Company: Autodesk"
 90
        0
280
     0
281
     0
  0
CLASS
  1
ACMBOMSTANDARDISO
  2
AcmBOMStdISO
  3
"Amdt_StdImp|Product Description: AutoCAD Mechanical 2004 DX|Company: Autodesk"
 90
        0
280
     0
281
     0
  0
CLASS
  1
ACMDETAILSTANDARDISO
  2
AmdtDetailSymStdISO
  3
"Amdt_StdImp|Product Description: AutoCAD Mechanical 2004 DX|Company: Autodesk"
 90
        0
280
     0
281
     0
  0
CLASS
  1
ACMSECTIONSTANDARDISO
  2
AmdtSectionSymStdISO
  3
"Amdt_StdImp|Product Description: AutoCAD Mechanical 2004 DX|Company: Autodesk"
 90
        0
280
     0
281
     0
  0
CLASS
  1
ACMCENTERLINESTANDARDISO
  2
AmdtCenterLineStdISO
  3
"Amdt_StdImp|Product Description: AutoCAD Mechanical 2004 DX|Company: Autodesk"
 90
        0
280
     0
281
     0
  0
CLASS
  1
ACMNOTESTANDARDISO
  2
AmdtNoteStdISO
  3
"Amdt_StdImp|Product Description: AutoCAD Mechanical 2004 DX|Company: Autodesk"
 90
        0
280
     0
281
     0
  0
CLASS
  1
ACAMGLAYSTD
  2
AcAmgLayStd
  3
"AcAmgLayStd|Product Description: AutoCAD Mechanical 2000|Company: Autodesk"
 90
        0
280
     0
281
     0
  0
CLASS
  1
ACAMGDIMSTD
  2
AcAmgDimStd
  3
"AcAmgDimStd|Product Description: AutoCAD Mechanical 2000|Company: Autodesk"
 90
        0
280
     0
281
     0
  0
CLASS
  1
ACAMGHOLECHARTSTDISO
  2
AcAmgHoleChartStdISO
  3
ACMSYMBB_MODULE_NAME
 90
        0
280
     0
281
     0
  0
CLASS
  1
ACAMGTITLESTD
  2
AcAmgTitleStd
  3
"TITLEAPP"
 90
        0
280
     0
281
     0
  0
CLASS
  1
LAYER_INDEX
  2
AcDbLayerIndex
  3
ObjectDBX Classes
 90
    32768
280
     0
281
     0
  0
CLASS
  1
IDBUFFER
  2
AcDbIdBuffer
  3
ObjectDBX Classes
 90
    32768
280
     0
281
     0
  0
CLASS
  1
DICTIONARYVAR
  2
AcDbDictionaryVar
  3
ObjectDBX Classes
 90
        0
280
     0
281
     0
  0
CLASS
  1
AM_DRAWING_MGR
  2
AcDmDwgMgr
  3
AcMechDwgViewMgmt
 90
        0
280
     0
281
     0
  0
CLASS
  1
AM_DWG_DOCUMENT
  2
AcDmDwgDocument
  3
AcMechDwgViewMgmt
 90
        0
280
     0
281
     0
  0
CLASS
  1
AM_DWG_SHEET
  2
AcDmSheet
  3
AcMechDwgViewMgmt
 90
        0
280
     0
281
     0
  0
CLASS
  1
AM_VIEWDIMPARMAP
  2
AcDmViewDimParMap
  3
AcMechDwgViewMgmt
 90
        0
280
     0
281
     0
  0
CLASS
  1
AM_DWGMGR_NAME
  2
AcDmDwgMgrName
  3
AcMechDwgViewMgmt
 90
        0
280
     0
281
     0
  0
CLASS
  1
AMDTMENUSTATEMGR
  2
AmdtMenuStateMgr
  3
McadcomServices
 90
        0
280
     0
281
     0
  0
CLASS
  1
AMDTMCOMMENUSTATE
  2
AmdtMcomMenuState
  3
McadcomServices
 90
        0
280
     0
281
     0
  0
CLASS
  1
MAPIAMMOUDLE
  2
MApiAmModule
  3
MApiAmServices
 90
        0
280
     0
281
     0
  0
CLASS
  1
AMDTADMENUSTATE
  2
AmdtAdMenuState
  3
DesignerServices
 90
        0
280
     0
281
     0
  0
CLASS
  1
ADAPPL
  2
AcAdAppl
  3
DesignerServices
 90
        0
280
     0
281
     0
  0
CLASS
  1
DEPMGR
  2
AcAdDepMgr
  3
DesignerServices
 90
        0
280
     0
281
     0
  0
CLASS
  1
PARAMMGR
  2
AcAdParamMgr
  3
DesignerServices
 90
        0
280
     0
281
     0
  0
CLASS
  1
PARAMSCOPE
  2
AcAdParamScope
  3
DesignerServices
 90
        0
280
     0
281
     0
  0
CLASS
  1
NAMEDAPPL
  2
AcAdNamedAppl
  3
DesignerServices
 90
        0
280
     0
281
     0
  0
CLASS
  1
AMDTDMMENUSTATE
  2
AmdtDmMenuState
  3
AcMechDwgViewMgmt
 90
        0
280
     0
281
     0
  0
CLASS
  1
AMDTAMMENUSTATE
  2
AmdtAmMenuState
  3
DesignerAssemblies
 90
        0
280
     0
281
     0
  0
CLASS
  1
ACAMPROJECT
  2
AcAmProject
  3
DesignerAssemblies
 90
        0
280
     0
281
     0
  0
CLASS
  1
ACAMGRCOMPDEF
  2
AcAmGrCompDef
  3
DesignerAssemblies
 90
        0
280
     0
281
     0
  0
CLASS
  1
ACCMCONTEXT
  2
AcCmContext
  3
DesignerAssemblies
 90
        0
280
     0
281
     0
  0
CLASS
  1
ACAMCOMPDEF
  2
AcAmCompDef
  3
DesignerAssemblies
 90
        0
280
     0
281
     0
  0
CLASS
  1
ACAMCOMPDEFMGR
  2
AcAmCompDefMgr
  3
DesignerAssemblies
 90
        0
280
     0
281
     0
  0
CLASS
  1
AMCONTEXTMGR
  2
AcAmContextMgr
  3
DesignerAssemblies
 90
        0
280
     0
281
     0
  0
CLASS
  1
ACAMCONTEXTMODELER
  2
AcAmContextModeler
  3
DesignerAssemblies
 90
        0
280
     0
281
     0
  0
CLASS
  1
ACMTHREADLINESTANDARDISO
  2
AmdtThreadLineStdISO
  3
"Amdt_StdImp|Product Description: AutoCAD Mechanical 2004 DX|Company: Autodesk"
 90
        0
280
     0
281
     0
  0
CLASS
  1
CATALOGSTATE
  2
AcAmCatalogState
  3
DesignerAssemblies
 90
        0
280
     0
281
     0
  0
CLASS
  1
ACAMGRCOMPDEFSET
  2
AcAmGrCompDefSet
  3
DesignerAssemblies
 90
        0
280
     0
281
     0
  0
CLASS
  1
AMDTBROWSERDBTAB
  2
AmdtBrowserDbTab
  3
McadcomServices
 90
        0
280
     0
281
     0
  0
CLASS
  1
CBROWSERAPPOBJECT
  2
CBrowserAppObject
  3
McadcomServices
 90
        0
280
     0
281
     0
  0
CLASS
  1
DM_PLACEHOLDER
  2
AcDmSelsetPlaceholder
  3
AcMechDwgViewMgmt
 90
        0
280
     0
281
     0
  0
CLASS
  1
TABLESTYLE
  2
AcDbTableStyle
  3
ObjectDBX Classes
 90
     2047
280
     0
281
     0
  0
CLASS
  1
VAACXREFPANELOBJECT
  2
VaAcXREFPanelObject
  3
VAAC_ADDIN
 90
    32768
280
     0
281
     0
  0
CLASS
  1
VAACIMAGEINVENTORY
  2
VaAcImageInventory
  3
VAAC_ADDIN
 90
    32768
280
     0
281
     0
  0
CLASS
  1
AMDTNOTETEMPLATEDB
  2
AmdtNoteTemplateDB
  3
AMDT_STDIMP_MODULE_NAME
 90
        0
280
     0
281
     0
  0
CLASS
  1
ACMBOM
  2
AcmBom
  3
"AcmSymBB|Product Description: AutoCAD Mechanical 2004 DX|Company: Autodesk"
 90
    32768
280
     0
281
     0
  0
CLASS
  1
AMDTFORMULAUPDATEDISPATCHER
  2
AmdtFormulaUpdateDispatcher
  3
AcMeServices
 90
    32768
280
     0
281
     0
  0
CLASS
  1
ACMPARTLIST
  2
AcmPartList
  3
"AcmSymBB|Product Description: AutoCAD Mechanical 2004 DX|Company: Autodesk"
 90
    33791
280
     0
281
     1
  0
CLASS
  1
ACAMGFILTERDAT
  2
AcAmgFilterDat
  3
"AcadM|Product Description: AutoCAD Mechanical 2000|Company: Autodesk"
 90
        0
280
     0
281
     0
  0
CLASS
  1
DIMASSOC
  2
AcDbDimAssoc
  3
"AcDbDimAssoc|Product Desc:     AcDim ARX App For Dimension|Company:          Autodesk, Inc.|WEB Address:      www.autodesk.com"
 90
        0
280
     0
281
     0
  0
CLASS
  1
SORTENTSTABLE
  2
AcDbSortentsTable
  3
ObjectDBX Classes
 90
        0
280
     0
281
     0
  0
CLASS
  1
STDPART2D
  2
AmgStdPart
  3
"AmgStdPart|Product Description: AutoCAD Mechanical 2000|Company: Autodesk"
 90
    33791
280
     0
281
     1
  0
CLASS
  1
ACAMSTDPCOMPDEF
  2
AcAmStdpCompDef
  3
DesignerAssemblies
 90
    32768
280
     0
281
     0
  0
CLASS
  1
ACRFATTGENMGR
  2
AcRfAttGeneralMgr
  3
AcAttribServices
 90
        0
280
     0
281
     0
  0
CLASS
  1
ACRFOBJATTMGR
  2
AcRfObjAttGroupMgr
  3
AcAttribServices
 90
    32768
280
     0
281
     0
  0
CLASS
  1
ACRFMCADAPIATTHOLDER
  2
AcRfMCADAPIAttHolder
  3
AcAttribServices
 90
    32768
280
     0
281
     0
  0
CLASS
  1
AMDTSYSATTR
  2
AmdtSystemAttribute
  3
AcAttribServices
 90
    32768
280
     0
281
     0
  0
CLASS
  1
ACAMCOMP
  2
AcAmComp
  3
DesignerAssemblies
 90
    32768
280
     0
281
     0
  0
CLASS
  1
AC_AM_STDP_VIEW_DEF
  2
AcAmStdpViewDef
  3
DesignerAssemblies
 90
    32768
280
     0
281
     0
  0
CLASS
  1
AC_AM_MVD_DEP_MGR
  2
AcAmMVDdepMgr
  3
DesignerAssemblies
 90
        0
280
     0
281
     0
  0
CLASS
  1
AC_AM_MASTER_VIEW_DEF
  2
AcAmMasterViewDef
  3
DesignerAssemblies
 90
        0
280
     0
281
     0
  0
CLASS
  1
AC_AM_DIRTY_NODES
  2
AcAmDirtyNodes
  3
DesignerAssemblies
 90
        0
280
     0
281
     0
  0
CLASS
  1
AC_AM_MAPPER_CACHE
  2
AcAmMapperCache
  3
DesignerAssemblies
 90
        0
280
     0
281
     0
  0
CLASS
  1
ACAMMVDBACKUPOBJECT
  2
AcAmMVDBackupObject
  3
DesignerAssemblies
 90
        0
280
     0
281
     0
  0
CLASS
  1
AC_AM_COMP_VIEW_INST
  2
AcAmCompView
  3
DesignerAssemblies
 90
    32768
280
     0
281
     0
  0
CLASS
  1
AC_AM_2D_XREF_MGR
  2
AcAmXrefMgr2d
  3
DesignerAssemblies
 90
        0
280
     0
281
     0
  0
ENDSEC
  0
SECTION
  2
TABLES
  0
TABLE
  2
VPORT
  5
8
330
0
100
AcDbSymbolTable
 70
    16
  0
VPORT
  5
1BE4
330
8
100
AcDbSymbolTableRecord
100
AcDbViewportTableRecord
  2
*Active
 70
     0
 10
0.0
 20
0.0
 11
1.0
 21
1.0
 12
194.7034331452123
 22
363.8669888191176
 13
0.0
 23
0.0
 14
2.5
 24
2.5
 15
10.0
 25
10.0
 16
0.0
 26
0.0
 36
1.0
 17
0.0
 27
0.0
 37
0.0
 40
161.2817149049525
 41
1.609210526315789
 42
50.0
 43
0.0
 44
0.0
 50
0.0
 51
0.0
 71
     0
 72
   100
 73
     1
 74
     3
 75
     0
 76
     0
 77
     0
 78
     0
281
     0
 65
     1
110
0.0
120
0.0
130
0.0
111
1.0
121
0.0
131
0.0
112
0.0
122
1.0
132
0.0
 79
     0
146
0.0
  0
ENDTAB
  0
TABLE
  2
LTYPE
  5
5
330
0
100
AcDbSymbolTable
 70
    14
  0
LTYPE
  5
14
330
5
100
AcDbSymbolTableRecord
100
AcDbLinetypeTableRecord
  2
ByBlock
 70
     0
  3

 72
    65
 73
     0
 40
0.0
  0
LTYPE
  5
15
330
5
100
AcDbSymbolTableRecord
100
AcDbLinetypeTableRecord
  2
ByLayer
 70
     0
  3

 72
    65
 73
     0
 40
0.0
  0
LTYPE
  5
16
330
5
100
AcDbSymbolTableRecord
100
AcDbLinetypeTableRecord
  2
Continuous
 70
     0
  3
Solid line
 72
    65
 73
     0
 40
0.0
  0
LTYPE
  5
64
330
5
100
AcDbSymbolTableRecord
100
AcDbLinetypeTableRecord
  2
AM_ISO02W050
 70
     0
  3
__ __ __ __ __ __ __ __ __ __ __ __ __ __ __
 72
    65
 73
     2
 40
7.5
 49
6.0
 74
     0
 49
-1.5
 74
     0
  0
LTYPE
  5
65
330
5
100
AcDbSymbolTableRecord
100
AcDbLinetypeTableRecord
  2
AM_ISO08W050
 70
     0
  3
____ . ____ . ____ . ____ . ____ . ____ . ____
 72
    65
 73
     4
 40
18.0
 49
12.0
 74
     0
 49
-1.5
 74
     0
 49
3.0
 74
     0
 49
-1.5
 74
     0
  0
LTYPE
  5
66
330
5
100
AcDbSymbolTableRecord
100
AcDbLinetypeTableRecord
  2
AM_ISO09W050
 70
     0
  3
_____ . . _____ . . _____ . . ____ .. ____
 72
    65
 73
     6
 40
22.5
 49
12.0
 74
     0
 49
-1.5
 74
     0
 49
3.0
 74
     0
 49
-1.5
 74
     0
 49
3.0
 74
     0
 49
-1.5
 74
     0
  0
LTYPE
  5
67
330
5
100
AcDbSymbolTableRecord
100
AcDbLinetypeTableRecord
  2
Amconstr
 70
     0
  3
_______________________
 72
    65
 73
     2
 40
9999.0
 49
9999.0
 74
     0
 49
0.0
 74
     0
  0
LTYPE
  5
68
330
5
100
AcDbSymbolTableRecord
100
AcDbLinetypeTableRecord
  2
AM_ISO08W050x2
 70
     0
  3
__ . __ . __ . __ . __ . __
 72
    65
 73
     4
 40
9.0
 49
6.0
 74
     0
 49
-0.75
 74
     0
 49
1.5
 74
     0
 49
-0.75
 74
     0
  0
LTYPE
  5
69
330
5
100
AcDbSymbolTableRecord
100
AcDbLinetypeTableRecord
  2
AM_ISO02W050x2
 70
     0
  3
 _ _ _ _ _ _ _ _ _ _ _ _
 72
    65
 73
     2
 40
3.75
 49
3.0
 74
     0
 49
-0.75
 74
     0
  0
LTYPE
  5
6C
330
5
100
AcDbSymbolTableRecord
100
AcDbLinetypeTableRecord
  2
Amzigzag
 70
     0
  3
/\/-/\/-/\/-/\/-/\/-/\/
 72
    65
 73
     2
 40
11.0001
 49
0.0001
 74
     4
 75
   135
340
6B
 46
0.04
 50
0.0
 44
0.0
 45
0.0
 49
-11.0
 74
     0
  0
LTYPE
  5
7A
330
5
100
AcDbSymbolTableRecord
100
AcDbLinetypeTableRecord
  2
ACISOWELD
 70
     0
  3
_ _ _ _ _
 72
    65
 73
     2
 40
2.0
 49
2.0
 74
     0
 49
-1.0
 74
     0
  0
LTYPE
  5
7B
330
5
100
AcDbSymbolTableRecord
100
AcDbLinetypeTableRecord
  2
ACISOTGB
 70
     0
  3
__ . . __ . .
 72
    65
 73
     6
 40
9.0
 49
4.0
 74
     0
 49
-1.0
 74
     0
 49
1.0
 74
     0
 49
-1.0
 74
     0
 49
1.0
 74
     0
 49
-1.0
 74
     0
  0
LTYPE
  5
7C
330
5
100
AcDbSymbolTableRecord
100
AcDbLinetypeTableRecord
  2
ACISOTGL
 70
     0
  3
_ _ _ _ _
 72
    65
 73
     2
 40
3.0
 49
2.0
 74
     0
 49
-1.0
 74
     0
  0
LTYPE
  5
7E
330
5
100
AcDbSymbolTableRecord
100
AcDbLinetypeTableRecord
  2
CENTER
 70
     0
  3
__ . __
 72
    65
 73
     4
 40
7.0
 49
4.0
 74
     0
 49
-1.0
 74
     0
 49
1.0
 74
     0
 49
-1.0
 74
     0
  0
LTYPE
  5
D8
330
5
100
AcDbSymbolTableRecord
100
AcDbLinetypeTableRecord
  2
HIDDEN
 70
     0
  3
Hidden __ __ __ __ __ __ __ __ __ __ __ __ __ _
 72
    65
 73
     2
 40
9.524999999999998
 49
6.349999999999999
 74
     0
 49
-3.174999999999999
 74
     0
  0
LTYPE
  5
D9
330
5
100
AcDbSymbolTableRecord
100
AcDbLinetypeTableRecord
  2
PHANTOM2
 70
     0
  3
Phantom (.5x) ___ _ _ ___ _ _ ___ _ _ ___ _ _
 72
    65
 73
     6
 40
31.75
 49
15.875
 74
     0
 49
-3.174999999999999
 74
     0
 49
3.174999999999999
 74
     0
 49
-3.174999999999999
 74
     0
 49
3.174999999999999
 74
     0
 49
-3.174999999999999
 74
     0
  0
ENDTAB
  0
TABLE
  2
LAYER
  5
2
102
{ACAD_XDICTIONARY
360
3F9
102
}
330
0
100
AcDbSymbolTable
 70
    14
  0
LAYER
  5
10
330
2
100
AcDbSymbolTableRecord
100
AcDbLayerTableRecord
  2
0
 70
     0
 62
     7
  6
Continuous
370
    -3
390
F
  0
LAYER
  5
B0A
330
2
100
AcDbSymbolTableRecord
100
AcDbLayerTableRecord
  2
AM_VIS
 70
     0
 62
     7
  6
Continuous
370
    50
390
F
  0
LAYER
  5
B0B
330
2
100
AcDbSymbolTableRecord
100
AcDbLayerTableRecord
  2
AM_7
 70
     0
 62
     1
  6
CENTER
370
    25
390
F
  0
LAYER
  5
B0C
330
2
100
AcDbSymbolTableRecord
100
AcDbLayerTableRecord
  2
AM_5
 70
     0
 62
     5
  6
Continuous
370
    50
390
F
  0
LAYER
  5
B0D
330
2
100
AcDbSymbolTableRecord
100
AcDbLayerTableRecord
  2
Defpoints
 70
     0
 62
     7
  6
Continuous
290
     0
370
    -3
390
F
  0
LAYER
  5
1774
330
2
100
AcDbSymbolTableRecord
100
AcDbLayerTableRecord
  2
LOGO
 70
     0
 62
     7
  6
Continuous
370
    -3
390
F
  0
ENDTAB
  0
TABLE
  2
STYLE
  5
3
330
0
100
AcDbSymbolTable
 70
     7
  0
STYLE
  5
11
330
3
100
AcDbSymbolTableRecord
100
AcDbTextStyleTableRecord
  2
STANDARD
 70
     0
 40
0.0
 41
1.0
 50
0.0
 71
     0
 42
3.0
  3
ISOCP.SHX
  4
CHINESET.SHX
  0
STYLE
  5
6B
330
3
100
AcDbSymbolTableRecord
100
AcDbTextStyleTableRecord
  2

 70
     1
 40
0.0
 41
1.0
 50
0.0
 71
     0
 42
2.5
  3
ltypeshp.shx
  4

  0
STYLE
  5
6D
330
3
100
AcDbSymbolTableRecord
100
AcDbTextStyleTableRecord
  2
ACISOTS
 70
     0
 40
1.0
 41
1.0
 50
0.0
 71
     0
 42
1.0
  3
isocp.shx
  4
chineset.shx
  0
STYLE
  5
79
330
3
100
AcDbSymbolTableRecord
100
AcDbTextStyleTableRecord
  2
ACISOGDT
 70
     0
 40
0.0
 41
1.0
 50
0.0
 71
     0
 42
2.5
  3
amgdt.shx
  4
chineset.shx
  0
STYLE
  5
F5C
330
3
100
AcDbSymbolTableRecord
100
AcDbTextStyleTableRecord
  2
CHINESET
 70
     0
 40
0.0
 41
1.0
 50
0.0
 71
     0
 42
2.5
  3
simplex.shx
  4
chineset.shx
  0
ENDTAB
  0
TABLE
  2
VIEW
  5
6
330
0
100
AcDbSymbolTable
 70
     0
  0
ENDTAB
  0
TABLE
  2
UCS
  5
7
330
0
100
AcDbSymbolTable
 70
     0
  0
ENDTAB
  0
TABLE
  2
APPID
  5
9
330
0
100
AcDbSymbolTable
 70
    27
  0
APPID
  5
12
330
9
100
AcDbSymbolTableRecord
100
AcDbRegAppTableRecord
  2
ACAD
 70
     0
  0
APPID
  5
46
330
9
100
AcDbSymbolTableRecord
100
AcDbRegAppTableRecord
  2
MCAD_NO_VIS
 70
     0
  0
APPID
  5
47
330
9
100
AcDbSymbolTableRecord
100
AcDbRegAppTableRecord
  2
ACAD_TEMP_GRAPHIC
 70
     0
  0
APPID
  5
58
330
9
100
AcDbSymbolTableRecord
100
AcDbRegAppTableRecord
  2
ACATTRIBSERVICES
 70
     0
  0
APPID
  5
EE
330
9
100
AcDbSymbolTableRecord
100
AcDbRegAppTableRecord
  2
AD_DRAW
 70
     0
  0
APPID
  5
10C
330
9
100
AcDbSymbolTableRecord
100
AcDbRegAppTableRecord
  2
DESIGNERASSEMBLIES
 70
     0
  0
APPID
  5
111
330
9
100
AcDbSymbolTableRecord
100
AcDbRegAppTableRecord
  2
ACADM_DIM_EDIT
 70
     0
  0
APPID
  5
112
330
9
100
AcDbSymbolTableRecord
100
AcDbRegAppTableRecord
  2
AMDT_DM_ADJ
 70
     0
  0
APPID
  5
22C
330
9
100
AcDbSymbolTableRecord
100
AcDbRegAppTableRecord
  2
ACAD_DSTYLE_DIMTEXT_FILL
 70
     0
  0
APPID
  5
452
330
9
100
AcDbSymbolTableRecord
100
AcDbRegAppTableRecord
  2
GENIUS_GENOENT_13
 70
     0
  0
APPID
  5
453
330
9
100
AcDbSymbolTableRecord
100
AcDbRegAppTableRecord
  2
GENIUS_GENOBJ-N-CRS_13
 70
     0
  0
APPID
  5
454
330
9
100
AcDbSymbolTableRecord
100
AcDbRegAppTableRecord
  2
GENIUS_GENOLIS_13
 70
     0
  0
APPID
  5
455
330
9
100
AcDbSymbolTableRecord
100
AcDbRegAppTableRecord
  2
GENIUS_GENODEF_13
 70
     0
  0
APPID
  5
456
330
9
100
AcDbSymbolTableRecord
100
AcDbRegAppTableRecord
  2
GENIUS_GENOREF_13
 70
     0
  0
APPID
  5
6F3
330
9
100
AcDbSymbolTableRecord
100
AcDbRegAppTableRecord
  2
ACAD_PSEXT
 70
     0
  0
APPID
  5
808
330
9
100
AcDbSymbolTableRecord
100
AcDbRegAppTableRecord
  2
GENIUS_GENDTOL_13
 70
     0
  0
APPID
  5
B11
330
9
100
AcDbSymbolTableRecord
100
AcDbRegAppTableRecord
  2
GENIUS_GENOBJ-N-CEN_13
 70
     0
  0
APPID
  5
B12
330
9
100
AcDbSymbolTableRecord
100
AcDbRegAppTableRecord
  2
GENIUS_GENCEN_19
 70
     0
  0
APPID
  5
166E
330
9
100
AcDbSymbolTableRecord
100
AcDbRegAppTableRecord
  2
GEVID1155862074
 70
     0
  0
APPID
  5
166F
330
9
100
AcDbSymbolTableRecord
100
AcDbRegAppTableRecord
  2
GEVDC
 70
     0
  0
APPID
  5
1686
330
9
100
AcDbSymbolTableRecord
100
AcDbRegAppTableRecord
  2
AMG_2DHIDE
 70
     0
  0
APPID
  5
1687
330
9
100
AcDbSymbolTableRecord
100
AcDbRegAppTableRecord
  2
AMG_2DSTRUCT_BTR
 70
     0
  0
APPID
  5
1698
330
9
100
AcDbSymbolTableRecord
100
AcDbRegAppTableRecord
  2
ACADM_2DVIEW_IGN_NOTIFY
 70
     0
  0
APPID
  5
16CC
330
9
100
AcDbSymbolTableRecord
100
AcDbRegAppTableRecord
  2
GEVID1155862075
 70
     0
  0
APPID
  5
16CD
330
9
100
AcDbSymbolTableRecord
100
AcDbRegAppTableRecord
  2
GEVRADREF
 70
     0
  0
APPID
  5
1775
330
9
100
AcDbSymbolTableRecord
100
AcDbRegAppTableRecord
  2
GENIUS_GENREC_14
 70
     0
  0
APPID
  5
1776
330
9
100
AcDbSymbolTableRecord
100
AcDbRegAppTableRecord
  2
GENIUS_GENOBJ-N-REC_13
 70
     0
  0
ENDTAB
  0
TABLE
  2
DIMSTYLE
  5
A
330
0
100
AcDbSymbolTable
 70
    13
100
AcDbDimStyleTable
 71
     3
340
81
340
8B
340
86
  0
DIMSTYLE
105
81
330
A
100
AcDbSymbolTableRecord
100
AcDbDimStyleTableRecord
  2
AM_ISO
 70
     0
  4
"
 41
3.0
 42
1.0
 43
8.0
 44
1.5
 47
0.1
 48
0.1
 73
     0
 74
     0
 77
     1
 78
     8
 79
     2
140
3.5
141
0.0
143
0.0393701
146
0.6
147
0.7
172
     1
176
   256
177
   256
178
   256
271
     2
272
     2
283
     0
284
     8
340
11
371
    -1
372
    -1
  0
DIMSTYLE
105
82
330
A
100
AcDbSymbolTableRecord
100
AcDbDimStyleTableRecord
  2
AM_ISO$3
 70
     0
  4
"
 41
3.0
 42
1.0
 43
8.0
 44
1.5
 47
0.1
 48
0.1
 73
     0
 77
     1
 78
     8
 79
     2
140
3.5
141
0.0
143
0.0393701
146
0.6
147
0.7
176
   256
177
   256
178
   256
271
     2
272
     2
283
     0
284
     8
288
     1
289
     0
340
11
371
    -1
372
    -1
  0
DIMSTYLE
105
83
330
A
100
AcDbSymbolTableRecord
100
AcDbDimStyleTableRecord
  2
AM_ISO$4
 70
     0
  4
"
 41
3.0
 42
1.0
 43
8.0
 44
1.5
 47
0.1
 48
0.1
 73
     0
 77
     1
 78
     8
 79
     2
140
3.5
141
0.0
143
0.0393701
146
0.6
147
0.7
176
   256
177
   256
178
   256
271
     2
272
     2
283
     0
284
     8
288
     1
289
     0
340
11
371
    -1
372
    -1
  0
DIMSTYLE
105
84
330
A
100
AcDbSymbolTableRecord
100
AcDbDimStyleTableRecord
  2
AM_ISO$6
 70
     0
  4
"
 41
3.0
 42
1.0
 43
8.0
 44
1.5
 47
0.1
 48
0.1
 73
     0
 74
     0
 78
     8
 79
     2
140
3.5
141
0.0
143
0.0393701
146
0.6
147
0.7
172
     1
176
   256
177
   256
178
   256
271
     2
272
     2
283
     0
284
     8
340
11
371
    -1
372
    -1
  0
DIMSTYLE
105
85
330
A
100
AcDbSymbolTableRecord
100
AcDbDimStyleTableRecord
  2
AM_ISO$7
 70
     0
  4
"
 41
3.0
 42
1.0
 43
8.0
 44
1.5
 47
0.1
 48
0.1
 73
     0
 74
     0
 77
     1
 78
     8
 79
     2
140
5.0
141
0.0
143
0.0393701
146
0.6
147
0.7
172
     1
176
   256
177
   256
178
   256
271
     2
272
     2
283
     0
284
     8
340
11
371
    -1
372
    -1
  0
DIMSTYLE
105
86
330
A
100
AcDbSymbolTableRecord
100
AcDbDimStyleTableRecord
  2
AM_ISO$SF
 70
     0
  4
"
 41
2.5
 42
1.0
 43
10.0
 44
1.0
 47
0.1
 48
0.1
 73
     0
 74
     0
 75
     1
 76
     1
 77
     1
 78
     8
 79
     2
140
3.5
141
0.0
143
0.0393701
146
0.71
147
1.5
172
     1
176
   256
177
   256
178
     2
271
     2
272
     3
274
     4
283
     0
284
     8
340
11
371
    -1
372
    -1
  0
DIMSTYLE
105
8B
330
A
100
AcDbSymbolTableRecord
100
AcDbDimStyleTableRecord
  2
AM_ISO$SH
 70
     0
  4
"
 41
2.5
 42
1.0
 43
10.0
 44
1.0
 47
0.1
 48
0.1
 73
     0
 74
     0
 75
     1
 76
     1
 77
     1
 78
     8
 79
     2
140
3.5
141
0.0
143
0.0393701
144
2.0
146
0.71
147
1.5
172
     1
173
     1
176
   256
177
   256
178
     2
271
     2
272
     3
274
     4
283
     0
284
     8
340
11
343
87
371
    -1
372
    -1
  0
DIMSTYLE
105
40B
102
{ACAD_REACTORS
330
1360
330
138A
330
13B4
102
}
330
A
100
AcDbSymbolTableRecord
100
AcDbDimStyleTableRecord
  2
AM_ISO$0
 70
     0
  4
"
 41
3.0
 42
1.0
 43
8.0
 44
1.5
 47
0.1
 48
0.1
 73
     0
 74
     0
 77
     1
 78
     8
 79
     2
140
3.5
141
0.0
143
0.0393701
146
0.6
147
0.7
172
     1
176
   256
177
   256
178
   256
271
     2
272
     2
283
     0
284
     8
340
11
371
    -1
372
    -1
  0
ENDTAB
  0
TABLE
  2
BLOCK_RECORD
  5
1
330
0
100
AcDbSymbolTable
 70
    31
  0
BLOCK_RECORD
  5
1F
102
{ACAD_XDICTIONARY
360
8F
102
}
330
1
100
AcDbSymbolTableRecord
100
AcDbBlockTableRecord
  2
*Model_Space
340
22
  0
BLOCK_RECORD
  5
1B
330
1
100
AcDbSymbolTableRecord
100
AcDbBlockTableRecord
  2
*Paper_Space
340
1E
  0
BLOCK_RECORD
  5
23
330
1
100
AcDbSymbolTableRecord
100
AcDbBlockTableRecord
  2
*Paper_Space0
340
26
  0
BLOCK_RECORD
  5
87
330
1
100
AcDbSymbolTableRecord
100
AcDbBlockTableRecord
  2
GENAXEH
340
0
  0
BLOCK_RECORD
  5
1361
330
1
100
AcDbSymbolTableRecord
100
AcDbBlockTableRecord
  2
*D24
340
0
  0
BLOCK_RECORD
  5
138B
330
1
100
AcDbSymbolTableRecord
100
AcDbBlockTableRecord
  2
*D25
340
0
  0
BLOCK_RECORD
  5
13B5
330
1
100
AcDbSymbolTableRecord
100
AcDbBlockTableRecord
  2
*D26
340
0
  0
BLOCK_RECORD
  5
169B
330
1
100
AcDbSymbolTableRecord
100
AcDbBlockTableRecord
  2
*U28
340
0
  0
ENDTAB
  0
ENDSEC
  0
SECTION
  2
BLOCKS
  0
BLOCK
  5
20
330
1F
100
AcDbEntity
  8
0
100
AcDbBlockBegin
  2
*Model_Space
 70
     0
 10
0.0
 20
0.0
 30
0.0
  3
*Model_Space
  1

  0
ENDBLK
  5
21
330
1F
100
AcDbEntity
  8
0
100
AcDbBlockEnd
  0
BLOCK
  5
1C
330
1B
100
AcDbEntity
 67
     1
  8
0
100
AcDbBlockBegin
  2
*Paper_Space
 70
     0
 10
0.0
 20
0.0
 30
0.0
  3
*Paper_Space
  1

  0
ENDBLK
  5
1D
330
1B
100
AcDbEntity
 67
     1
  8
0
100
AcDbBlockEnd
  0
BLOCK
  5
24
330
23
100
AcDbEntity
  8
0
100
AcDbBlockBegin
  2
*Paper_Space0
 70
     0
 10
0.0
 20
0.0
 30
0.0
  3
*Paper_Space0
  1

  0
ENDBLK
  5
25
330
23
100
AcDbEntity
  8
0
100
AcDbBlockEnd
  0
BLOCK
  5
89
330
87
100
AcDbEntity
  8
0
100
AcDbBlockBegin
  2
GENAXEH
 70
     0
 10
0.0
 20
0.0
 30
0.0
  3
GENAXEH
  1

  0
LINE
  5
88
330
87
100
AcDbEntity
  8
0
100
AcDbLine
 10
-1.0
 20
0.0
 30
0.0
 11
1.0
 21
0.0
 31
0.0
  0
ENDBLK
  5
8A
330
87
100
AcDbEntity
  8
0
100
AcDbBlockEnd
  0
BLOCK
  5
136D
330
1361
100
AcDbEntity
  8
0
100
AcDbBlockBegin
  2
*D24
 70
     1
 10
0.0
 20
0.0
 30
0.0
  3
*D24
  1

  0
LINE
  5
1B81
330
1361
100
AcDbEntity
  8
AM_5
100
AcDbLine
 10
158.624160349605
 20
357.2898731327208
 30
0.0
 11
149.2067665048357
 21
357.2898731327208
 31
0.0
  0
LINE
  5
1B82
330
1361
100
AcDbEntity
  8
AM_5
100
AcDbLine
 10
159.0831699012748
 20
361.9898731327209
 30
0.0
 11
149.2067665048357
 21
361.9898731327209
 31
0.0
  0
LINE
  5
1B83
330
1361
100
AcDbEntity
  8
AM_5
100
AcDbLine
 10
150.7067665048357
 20
354.2898731327208
 30
0.0
 11
150.7067665048357
 21
351.2898731327208
 31
0.0
  0
LINE
  5
1B84
330
1361
100
AcDbEntity
  8
AM_5
100
AcDbLine
 10
150.7067665048357
 20
364.9898731327208
 30
0.0
 11
150.7067665048357
 21
374.6398731327208
 31
0.0
  0
LINE
  5
1B85
330
1361
100
AcDbEntity
  8
AM_5
100
AcDbLine
 10
150.7067665048357
 20
357.2898731327208
 30
0.0
 11
150.7067665048357
 21
361.9898731327209
 31
0.0
  0
SOLID
  5
1B86
330
1361
100
AcDbEntity
  8
AM_5
100
AcDbTrace
 10
150.2067665048357
 20
354.2898731327208
 30
0.0
 11
151.2067665048357
 21
354.2898731327208
 31
0.0
 12
150.7067665048357
 22
357.2898731327208
 32
0.0
 13
150.7067665048357
 23
357.2898731327208
 33
0.0
  0
SOLID
  5
1B87
330
1361
100
AcDbEntity
  8
AM_5
100
AcDbTrace
 10
150.2067665048357
 20
364.9898731327208
 30
0.0
 11
151.2067665048357
 21
364.9898731327208
 31
0.0
 12
150.7067665048357
 22
361.9898731327209
 32
0.0
 13
150.7067665048357
 23
361.9898731327209
 33
0.0
  0
MTEXT
  5
1B88
330
1361
100
AcDbEntity
  8
AM_5
100
AcDbMText
 10
148.2567665048357
 20
371.3148731327209
 30
0.0
 40
3.5
 41
0.0
 71
     5
 72
     1
  1
4.7
 11
0.0000000000000001
 21
1.0
 31
0.0
 73
     1
 44
1.0
1001
ACAD
1000
MTEXTBEGIN
1070
    73
1070
     1
1070
    44
1040
1.0
1070
    74
1070
     0
1000
MTEXTEND
  0
POINT
  5
1B89
330
1361
100
AcDbEntity
  8
Defpoints
 62
     0
100
AcDbPoint
 10
159.624160349605
 20
357.2898731327208
 30
0.0
  0
POINT
  5
1B8A
330
1361
100
AcDbEntity
  8
Defpoints
 62
     0
100
AcDbPoint
 10
160.0831699012748
 20
361.9898731327209
 30
0.0
  0
POINT
  5
1B8B
330
1361
100
AcDbEntity
  8
Defpoints
 62
     0
100
AcDbPoint
 10
150.7067665048357
 20
361.9898731327209
 30
0.0
  0
ENDBLK
  5
136E
330
1361
100
AcDbEntity
  8
0
100
AcDbBlockEnd
  0
BLOCK
  5
1397
330
138B
100
AcDbEntity
  8
0
100
AcDbBlockBegin
  2
*D25
 70
     1
 10
0.0
 20
0.0
 30
0.0
  3
*D25
  1

  0
LINE
  5
1B8C
330
138B
100
AcDbEntity
  8
AM_5
100
AcDbLine
 10
174.7882634574662
 20
376.1049822932508
 30
0.0
 11
168.4432271411156
 21
376.1049822932508
 31
0.0
  0
LINE
  5
1B8D
330
138B
100
AcDbEntity
  8
AM_5
100
AcDbLine
 10
174.7882634574662
 20
382.4049822932508
 30
0.0
 11
168.4432271411156
 21
382.4049822932508
 31
0.0
  0
LINE
  5
1B8E
330
138B
100
AcDbEntity
  8
AM_5
100
AcDbLine
 10
169.9432271411156
 20
373.1049822932508
 30
0.0
 11
169.9432271411156
 21
370.1049822932508
 31
0.0
  0
LINE
  5
1B8F
330
138B
100
AcDbEntity
  8
AM_5
100
AcDbLine
 10
169.9432271411156
 20
385.4049822932509
 30
0.0
 11
169.9432271411156
 21
395.0594058589791
 31
0.0
  0
LINE
  5
1B90
330
138B
100
AcDbEntity
  8
AM_5
100
AcDbLine
 10
169.9432271411156
 20
376.1049822932508
 30
0.0
 11
169.9432271411156
 21
382.4049822932508
 31
0.0
  0
SOLID
  5
1B91
330
138B
100
AcDbEntity
  8
AM_5
100
AcDbTrace
 10
169.4432271411156
 20
373.1049822932508
 30
0.0
 11
170.4432271411156
 21
373.1049822932508
 31
0.0
 12
169.9432271411156
 22
376.1049822932508
 32
0.0
 13
169.9432271411156
 23
376.1049822932508
 33
0.0
  0
SOLID
  5
1B92
330
138B
100
AcDbEntity
  8
AM_5
100
AcDbTrace
 10
169.4432271411156
 20
385.4049822932509
 30
0.0
 11
170.4432271411156
 21
385.4049822932509
 31
0.0
 12
169.9432271411156
 22
382.4049822932508
 32
0.0
 13
169.9432271411156
 23
382.4049822932508
 33
0.0
  0
MTEXT
  5
1B93
330
138B
100
AcDbEntity
  8
AM_5
100
AcDbMText
 10
167.4932271411155
 20
391.732194076115
 30
0.0
 40
3.5
 41
0.0
 71
     5
 72
     1
  1
6.3
 11
0.0000000000000001
 21
1.0
 31
0.0
 73
     1
 44
1.0
1001
ACAD
1000
MTEXTBEGIN
1070
    73
1070
     1
1070
    44
1040
1.0
1070
    74
1070
     0
1000
MTEXTEND
  0
POINT
  5
1B94
330
138B
100
AcDbEntity
  8
Defpoints
 62
     0
100
AcDbPoint
 10
175.7882634574662
 20
376.1049822932508
 30
0.0
  0
POINT
  5
1B95
330
138B
100
AcDbEntity
  8
Defpoints
 62
     0
100
AcDbPoint
 10
175.7882634574662
 20
382.4049822932508
 30
0.0
  0
POINT
  5
1B96
330
138B
100
AcDbEntity
  8
Defpoints
 62
     0
100
AcDbPoint
 10
169.9432271411156
 20
382.4049822932508
 30
0.0
  0
ENDBLK
  5
1398
330
138B
100
AcDbEntity
  8
0
100
AcDbBlockEnd
  0
BLOCK
  5
13BF
330
13B5
100
AcDbEntity
  8
0
100
AcDbBlockBegin
  2
*D26
 70
     1
 10
0.0
 20
0.0
 30
0.0
  3
*D26
  1

  0
LINE
  5
1B97
330
13B5
100
AcDbEntity
  8
AM_5
100
AcDbLine
 10
175.7882634574662
 20
356.2898731327208
 30
0.0
 11
175.7882634574662
 21
343.7898731327208
 31
0.0
  0
LINE
  5
1B98
330
13B5
100
AcDbEntity
  8
AM_5
100
AcDbLine
 10
205.7882634574662
 20
356.2898731327208
 30
0.0
 11
205.7882634574662
 21
343.7898731327208
 31
0.0
  0
LINE
  5
1B99
330
13B5
100
AcDbEntity
  8
AM_5
100
AcDbLine
 10
178.7882634574662
 20
345.2898731327208
 30
0.0
 11
202.7882634574662
 21
345.2898731327208
 31
0.0
  0
SOLID
  5
1B9A
330
13B5
100
AcDbEntity
  8
AM_5
100
AcDbTrace
 10
178.7882634574662
 20
345.7898731327208
 30
0.0
 11
178.7882634574662
 21
344.7898731327208
 31
0.0
 12
175.7882634574662
 22
345.2898731327208
 32
0.0
 13
175.7882634574662
 23
345.2898731327208
 33
0.0
  0
SOLID
  5
1B9B
330
13B5
100
AcDbEntity
  8
AM_5
100
AcDbTrace
 10
202.7882634574662
 20
345.7898731327208
 30
0.0
 11
202.7882634574662
 21
344.7898731327208
 31
0.0
 12
205.7882634574662
 22
345.2898731327208
 32
0.0
 13
205.7882634574662
 23
345.2898731327208
 33
0.0
  0
MTEXT
  5
1B9C
330
13B5
100
AcDbEntity
  8
AM_5
100
AcDbMText
 10
190.7882634574662
 20
347.7398731327208
 30
0.0
 40
3.5
 41
0.0
 71
     5
 72
     1
  1
30
 73
     1
 44
1.0
1001
ACAD
1000
MTEXTBEGIN
1070
    73
1070
     1
1070
    44
1040
1.0
1070
    74
1070
     0
1000
MTEXTEND
  0
POINT
  5
1B9D
330
13B5
100
AcDbEntity
  8
Defpoints
 62
     0
100
AcDbPoint
 10
175.7882634574662
 20
357.2898731327208
 30
0.0
  0
POINT
  5
1B9E
330
13B5
100
AcDbEntity
  8
Defpoints
 62
     0
100
AcDbPoint
 10
205.7882634574662
 20
357.2898731327208
 30
0.0
  0
POINT
  5
1B9F
330
13B5
100
AcDbEntity
  8
Defpoints
 62
     0
100
AcDbPoint
 10
205.7882634574662
 20
345.2898731327208
 30
0.0
  0
ENDBLK
  5
13C0
330
13B5
100
AcDbEntity
  8
0
100
AcDbBlockEnd
  0
BLOCK
  5
169C
330
169B
100
AcDbEntity
  8
0
100
AcDbBlockBegin
  2
*U28
 70
     1
 10
0.0
 20
0.0
 30
0.0
  3
*U28
  1

  0
ENDBLK
  5
169D
330
169B
100
AcDbEntity
  8
0
100
AcDbBlockEnd
  0
ENDSEC
  0
SECTION
  2
ENTITIES
  0
LINE
  5
100C
330
1F
100
AcDbEntity
  8
AM_7
100
AcDbLine
 10
174.4045842618616
 20
379.2730826840795
 30
0.0
 11
225.2937819672707
 21
379.2730826840795
 31
0.0
  0
LINE
  5
1013
330
1F
100
AcDbEntity
  8
AM_VIS
100
AcDbLine
 10
175.7882634574662
 20
358.4682395174777
 30
0.0
 11
175.7882634574662
 21
357.2898731327208
 31
0.0
  0
LINE
  5
1014
330
1F
100
AcDbEntity
  8
AM_VIS
100
AcDbLine
 10
205.7882634574662
 20
357.2898731327208
 30
0.0
 11
179.5149763967222
 21
357.2898731327208
 31
0.0
  0
LINE
  5
1015
330
1F
100
AcDbEntity
  8
AM_VIS
100
AcDbLine
 10
205.7882634574662
 20
358.4682395174777
 30
0.0
 11
175.7882634574662
 21
358.4682395174777
 31
0.0
  0
LINE
  5
1016
330
1F
100
AcDbEntity
  8
AM_VIS
100
AcDbLine
 10
175.7882634574662
 20
358.8702735188508
 30
0.0
 11
175.7882634574662
 21
358.4682395174777
 31
0.0
  0
LINE
  5
1017
330
1F
100
AcDbEntity
  8
AM_VIS
100
AcDbLine
 10
175.7882634574662
 20
360.7898731327208
 30
0.0
 11
175.7882634574662
 21
359.3702735188508
 31
0.0
  0
LINE
  5
101B
330
1F
100
AcDbEntity
  8
AM_VIS
100
AcDbLine
 10
205.7882634574662
 20
359.3702735188508
 30
0.0
 11
175.7882634574662
 21
359.3702735188508
 31
0.0
  0
LINE
  5
101C
330
1F
100
AcDbEntity
  8
AM_VIS
100
AcDbLine
 10
205.7882634574662
 20
361.9898731327209
 30
0.0
 11
180.7882634574662
 21
361.9898731327209
 31
0.0
  0
LINE
  5
101D
102
{ACAD_REACTORS
330
13C2
102
}
330
1F
100
AcDbEntity
  8
AM_VIS
100
AcDbLine
 10
178.3615505182101
 20
357.2898731327208
 30
0.0
 11
175.7882634574662
 21
357.2898731327208
 31
0.0
  0
LINE
  5
101E
330
1F
100
AcDbEntity
  8
AM_VIS
100
AcDbLine
 10
180.7882634574662
 20
360.7898731327208
 30
0.0
 11
175.7882634574662
 21
360.7898731327208
 31
0.0
  0
ELLIPSE
  5
1020
330
1F
100
AcDbEntity
  8
AM_VIS
100
AcDbEllipse
 10
178.9382634574663
 20
356.6495861695305
 30
0.0
 11
-1.25
 21
0.0
 31
0.0
210
0.0
220
0.0
230
1.0
 40
0.5773502691895986
 41
4.23284983433412
 42
5.191928126435259
  0
LINE
  5
1024
330
1F
100
AcDbEntity
  8
AM_VIS
100
AcDbLine
 10
175.7882634574662
 20
358.8702735188508
 30
0.0
 11
175.7882634574662
 21
359.3702735188508
 31
0.0
  0
LINE
  5
1028
330
1F
100
AcDbEntity
  8
AM_VIS
100
AcDbLine
 10
180.7882634574662
 20
360.7898731327208
 30
0.0
 11
180.7882634574662
 21
361.9898731327209
 31
0.0
  0
LINE
  5
1029
330
1F
100
AcDbEntity
  8
AM_VIS
100
AcDbLine
 10
175.7882634574662
 20
381.9049822932509
 30
0.0
 11
175.7882634574662
 21
380.9049822932508
 31
0.0
  0
LINE
  5
102A
330
1F
100
AcDbEntity
  8
AM_VIS
100
AcDbLine
 10
205.7882634574662
 20
380.9049822932508
 30
0.0
 11
175.7882634574662
 21
380.9049822932508
 31
0.0
  0
LINE
  5
102B
330
1F
100
AcDbEntity
  8
AM_VIS
100
AcDbLine
 10
205.7882634574662
 20
382.4049822932508
 30
0.0
 11
175.7882634574662
 21
382.4049822932508
 31
0.0
  0
LINE
  5
102D
330
1F
100
AcDbEntity
  8
AM_VIS
100
AcDbLine
 10
175.7882634574662
 20
377.6049822932508
 30
0.0
 11
175.7882634574662
 21
376.6049822932509
 31
0.0
  0
LINE
  5
102F
330
1F
100
AcDbEntity
  8
AM_VIS
100
AcDbLine
 10
175.7882634574662
 20
376.1049822932508
 30
0.0
 11
205.7882634574662
 21
376.1049822932508
 31
0.0
  0
LINE
  5
1030
330
1F
100
AcDbEntity
  8
AM_VIS
100
AcDbLine
 10
175.7882634574662
 20
377.6049822932508
 30
0.0
 11
205.7882634574662
 21
377.6049822932508
 31
0.0
  0
LINE
  5
1033
330
1F
100
AcDbEntity
  8
AM_VIS
100
AcDbLine
 10
175.7882634574661
 20
380.5230826840796
 30
0.0
 11
180.7882634574662
 21
380.5230826840796
 31
0.0
  0
LINE
  5
1034
330
1F
100
AcDbEntity
  8
AM_VIS
100
AcDbLine
 10
180.7882634574662
 20
378.0230826840796
 30
0.0
 11
175.7882634574661
 21
378.0230826840796
 31
0.0
  0
LINE
  5
1036
330
1F
100
AcDbEntity
  8
AM_VIS
100
AcDbLine
 10
175.7882634574662
 20
378.0230826840796
 30
0.0
 11
175.7882634574662
 21
380.5230826840796
 31
0.0
  0
LINE
  5
103A
330
1F
100
AcDbEntity
  8
AM_VIS
100
AcDbLine
 10
175.7882634574662
 20
380.5049822932508
 30
0.0
 11
175.7882634574662
 21
380.9049822932508
 31
0.0
  0
LINE
  5
103B
102
{ACAD_REACTORS
330
139A
102
}
330
1F
100
AcDbEntity
  8
AM_VIS
100
AcDbLine
 10
175.7882634574662
 20
381.9049822932509
 30
0.0
 11
175.7882634574662
 21
382.4049822932508
 31
0.0
  0
LINE
  5
103F
102
{ACAD_REACTORS
330
139A
102
}
330
1F
100
AcDbEntity
  8
AM_VIS
100
AcDbLine
 10
175.7882634574662
 20
376.1049822932508
 30
0.0
 11
175.7882634574662
 21
376.6049822932509
 31
0.0
  0
LINE
  5
1042
330
1F
100
AcDbEntity
  8
AM_VIS
100
AcDbLine
 10
175.7882634574662
 20
377.6049822932508
 30
0.0
 11
175.7882634574662
 21
378.0049822932508
 31
0.0
  0
LINE
  5
1047
330
1F
100
AcDbEntity
  8
AM_VIS
100
AcDbLine
 10
158.0831699012748
 20
359.3702735188508
 30
0.0
 11
159.0831699012748
 21
359.3702735188508
 31
0.0
  0
LINE
  5
1048
330
1F
100
AcDbEntity
  8
AM_VIS
100
AcDbLine
 10
163.8831699012747
 20
358.4682395174777
 30
0.0
 11
161.8421794529445
 21
357.2898731327208
 31
0.0
  0
LINE
  5
1049
330
1F
100
AcDbEntity
  8
AM_VIS
100
AcDbLine
 10
163.8831699012747
 20
358.8702735188508
 30
0.0
 11
163.8831699012747
 21
358.4682395174777
 31
0.0
  0
LINE
  5
104A
330
1F
100
AcDbEntity
  8
AM_VIS
100
AcDbLine
 10
162.3831699012747
 20
360.9898731327208
 30
0.0
 11
162.3831699012747
 21
359.3702735188508
 31
0.0
  0
LINE
  5
104B
330
1F
100
AcDbEntity
  8
AM_VIS
100
AcDbLine
 10
159.0831699012748
 20
359.3702735188508
 30
0.0
 11
159.0831699012748
 21
360.9898731327208
 31
0.0
  0
LINE
  5
104C
330
1F
100
AcDbEntity
  8
AM_VIS
100
AcDbLine
 10
157.5831699012748
 20
358.4682395174777
 30
0.0
 11
157.5831699012748
 21
358.8702735188508
 31
0.0
  0
LINE
  5
104D
330
1F
100
AcDbEntity
  8
AM_VIS
100
AcDbLine
 10
162.3831699012747
 20
359.3702735188508
 30
0.0
 11
163.3831699012747
 21
359.3702735188508
 31
0.0
  0
LINE
  5
104E
330
1F
100
AcDbEntity
  8
AM_VIS
100
AcDbLine
 10
160.0831699012748
 20
361.9898731327209
 30
0.0
 11
161.3831699012747
 21
361.9898731327209
 31
0.0
  0
LINE
  5
104F
330
1F
100
AcDbEntity
  8
AM_VIS
100
AcDbLine
 10
161.8421794529445
 20
357.2898731327208
 30
0.0
 11
159.624160349605
 21
357.2898731327208
 31
0.0
  0
LINE
  5
1050
102
{ACAD_REACTORS
330
1370
102
}
330
1F
100
AcDbEntity
  8
AM_VIS
100
AcDbLine
 10
159.624160349605
 20
357.2898731327208
 30
0.0
 11
157.5831699012748
 21
358.4682395174777
 31
0.0
  0
ARC
  5
1052
330
1F
100
AcDbEntity
  8
AM_VIS
100
AcDbCircle
 10
160.0831699012748
 20
360.9898731327208
 30
0.0
 40
0.9999999999999998
100
AcDbArc
 50
126.8698976458447
 51
180.0
  0
ARC
  5
1053
330
1F
100
AcDbEntity
  8
AM_VIS
100
AcDbCircle
 10
158.0831699012748
 20
358.8702735188508
 30
0.0
 40
0.5
100
AcDbArc
 50
90.0
 51
180.0
  0
ARC
  5
1054
330
1F
100
AcDbEntity
  8
AM_VIS
100
AcDbCircle
 10
163.3831699012747
 20
358.8702735188508
 30
0.0
 40
0.5
100
AcDbArc
 50
0.0
 51
90.0
  0
ARC
  5
1055
330
1F
100
AcDbEntity
  8
AM_VIS
100
AcDbCircle
 10
161.3831699012747
 20
360.9898731327208
 30
0.0
 40
0.9999999999999998
100
AcDbArc
 50
0.0
 51
53.13010235415532
  0
ARC
  5
1056
330
1F
100
AcDbEntity
  8
AM_VIS
100
AcDbCircle
 10
161.3831699012747
 20
360.9898731327208
 30
0.0
 40
0.9999999999999998
100
AcDbArc
 50
53.13010235415532
 51
90.0
  0
ARC
  5
1057
102
{ACAD_REACTORS
330
1370
102
}
330
1F
100
AcDbEntity
  8
AM_VIS
100
AcDbCircle
 10
160.0831699012748
 20
360.9898731327208
 30
0.0
 40
0.9999999999999998
100
AcDbArc
 50
90.0
 51
126.8698976458447
  0
DIMENSION
  5
1360
102
{ACAD_XDICTIONARY
360
136F
102
}
102
{ACAD_REACTORS
330
1370
102
}
330
1F
100
AcDbEntity
  8
AM_5
100
AcDbDimension
  2
*D24
 10
150.7067665048357
 20
361.9898731327209
 30
0.0
 11
148.2567665048357
 21
371.3148731327209
 31
0.0
 70
    32
 71
     5
 42
4.700000000000045
  3
AM_ISO$0
100
AcDbAlignedDimension
 13
159.624160349605
 23
357.2898731327208
 33
0.0
 14
160.0831699012748
 24
361.9898731327209
 34
0.0
 50
90.0
100
AcDbRotatedDimension
1001
ACAD
1000
DSTYLE
1002
{
1070
    40
1040
1.0
1070
   144
1040
1.0
1070
   272
1070
     8
1002
}
  0
DIMENSION
  5
138A
102
{ACAD_XDICTIONARY
360
1399
102
}
102
{ACAD_REACTORS
330
139A
102
}
330
1F
100
AcDbEntity
  8
AM_5
100
AcDbDimension
  2
*D25
 10
169.9432271411156
 20
382.4049822932508
 30
0.0
 11
167.4932271411155
 21
391.732194076115
 31
0.0
 70
    32
 71
     5
 42
6.300000000000011
  3
AM_ISO$0
100
AcDbAlignedDimension
 13
175.7882634574662
 23
376.1049822932508
 33
0.0
 14
175.7882634574662
 24
382.4049822932508
 34
0.0
 50
90.0
100
AcDbRotatedDimension
1001
ACAD
1000
DSTYLE
1002
{
1070
    40
1040
1.0
1070
   144
1040
1.0
1070
   272
1070
     8
1002
}
  0
DIMENSION
  5
13B4
102
{ACAD_XDICTIONARY
360
13C1
102
}
102
{ACAD_REACTORS
330
13C2
102
}
330
1F
100
AcDbEntity
  8
AM_5
100
AcDbDimension
  2
*D26
 10
205.7882634574662
 20
345.2898731327208
 30
0.0
 11
190.7882634574662
 21
347.7398731327208
 31
0.0
 70
    32
 71
     5
 42
30.0
  3
AM_ISO$0
100
AcDbAlignedDimension
 13
175.7882634574662
 23
357.2898731327208
 33
0.0
 14
205.7882634574662
 24
357.2898731327208
 34
0.0
100
AcDbRotatedDimension
1001
ACAD
1000
DSTYLE
1002
{
1070
    40
1040
1.0
1070
   144
1040
1.0
1070
   272
1070
     8
1002
}
  0
LINE
  5
13F3
330
1F
100
AcDbEntity
  8
0
100
AcDbLine
 10
177.5382634574662
 20
361.7898731327208
 30
0.0
 11
180.0382634574664
 21
361.7898731327209
 31
0.0
  0
LINE
  5
1517
330
1F
100
AcDbEntity
  8
0
100
AcDbLine
 10
205.7882634574662
 20
382.4049822932508
 30
0.0
 11
205.7882634574662
 21
376.1049822932508
 31
0.0
  0
LINE
  5
1569
330
1F
100
AcDbEntity
  8
AM_VIS
100
AcDbLine
 10
205.7882634574662
 20
377.8549822932508
 30
0.0
 11
213.3736857271259
 21
377.8549822932508
 31
0.0
  0
LINE
  5
156A
330
1F
100
AcDbEntity
  8
AM_VIS
100
AcDbLine
 10
215.0308340068114
 20
377.8549822932508
 30
0.0
 11
224.1256487252713
 21
377.8549822932508
 31
0.0
  0
LINE
  5
156B
330
1F
100
AcDbEntity
  8
AM_VIS
100
AcDbLine
 10
205.7882634574662
 20
380.6549822932508
 30
0.0
 11
214.0214068013346
 21
380.6549822932508
 31
0.0
  0
LINE
  5
156C
330
1F
100
AcDbEntity
  8
AM_VIS
100
AcDbLine
 10
215.6785550810202
 20
380.6549822932508
 30
0.0
 11
224.1256487252713
 21
380.6549822932508
 31
0.0
  0
LINE
  5
156D
330
1F
100
AcDbEntity
  8
AM_VIS
100
AcDbLine
 10
224.1256487252713
 20
380.6549822932508
 30
0.0
 11
224.1256487252713
 21
377.8549822932508
 31
0.0
  0
LINE
  5
156E
330
1F
100
AcDbEntity
  8
0
100
AcDbLine
 10
214.4279901005073
 20
382.4125802517155
 30
0.0
 11
212.9671024279533
 21
376.0973843347862
 31
0.0
  0
LINE
  5
156F
330
1F
100
AcDbEntity
  8
0
100
AcDbLine
 10
216.0851383801927
 20
382.4125802517155
 30
0.0
 11
214.6242507076386
 21
376.0973843347862
 31
0.0
  0
LINE
  5
1570
330
1F
100
AcDbEntity
  8
0
100
AcDbLine
 10
224.1256487252713
 20
379.4549822932508
 30
0.0
 11
230.5658030910509
 21
379.4549822932508
 31
0.0
  0
LINE
  5
1571
330
1F
100
AcDbEntity
  8
0
100
AcDbLine
 10
230.5658030910509
 20
379.4549822932508
 30
0.0
 11
230.5658030910509
 21
380.4549822932508
 31
0.0
  0
LINE
  5
1572
330
1F
100
AcDbEntity
  8
0
100
AcDbLine
 10
230.5658030910509
 20
380.4549822932508
 30
0.0
 11
224.1256487252712
 21
380.4549822932508
 31
0.0
  0
LINE
  5
1573
330
1F
100
AcDbEntity
  8
0
100
AcDbLine
 10
224.1256487252713
 20
379.0549822932508
 30
0.0
 11
230.5658030910509
 21
379.0549822932508
 31
0.0
  0
LINE
  5
1574
330
1F
100
AcDbEntity
  8
0
100
AcDbLine
 10
230.5658030910509
 20
379.0549822932508
 30
0.0
 11
230.5658030910509
 21
378.0549822932508
 31
0.0
  0
LINE
  5
1575
330
1F
100
AcDbEntity
  8
0
100
AcDbLine
 10
230.5658030910509
 20
378.0549822932508
 30
0.0
 11
224.1256487252712
 21
378.0549822932508
 31
0.0
  0
LINE
  5
1576
330
1F
100
AcDbEntity
  8
0
100
AcDbLine
 10
230.5658030910509
 20
379.7049822932508
 30
0.0
 11
234.1328486765666
 21
379.7049822932508
 31
0.0
  0
LINE
  5
1577
330
1F
100
AcDbEntity
  8
0
100
AcDbLine
 10
230.5658030910509
 20
380.2049822932508
 30
0.0
 11
234.1328486765666
 21
380.2049822932508
 31
0.0
  0
LINE
  5
1578
330
1F
100
AcDbEntity
  8
0
100
AcDbLine
 10
234.1328486765666
 20
380.2049822932508
 30
0.0
 11
234.1328486765666
 21
379.7049822932508
 31
0.0
  0
LINE
  5
1579
330
1F
100
AcDbEntity
  8
0
100
AcDbLine
 10
230.5658030910509
 20
378.3049822932508
 30
0.0
 11
234.1328486765666
 21
378.3049822932508
 31
0.0
  0
LINE
  5
157A
330
1F
100
AcDbEntity
  8
0
100
AcDbLine
 10
230.5658030910509
 20
378.8049822932508
 30
0.0
 11
234.1328486765666
 21
378.8049822932508
 31
0.0
  0
LINE
  5
157B
330
1F
100
AcDbEntity
  8
0
100
AcDbLine
 10
234.1328486765666
 20
378.8049822932508
 30
0.0
 11
234.1328486765666
 21
378.3049822932508
 31
0.0
  0
LINE
  5
157D
330
1F
100
AcDbEntity
  8
0
100
AcDbLine
 10
205.7882634574662
 20
361.9898731327209
 30
0.0
 11
205.7882634574662
 21
357.2898731327208
 31
0.0
  0
LINE
  5
157E
330
1F
100
AcDbEntity
  8
AM_7
100
AcDbLine
 10
174.4705853727591
 20
359.6398731327208
 30
0.0
 11
225.6147519401306
 21
359.6398731327208
 31
0.0
  0
LINE
  5
157F
330
1F
100
AcDbEntity
  8
AM_VIS
100
AcDbLine
 10
205.7882634574662
 20
358.2217727418921
 30
0.0
 11
213.3736857271259
 21
358.2217727418921
 31
0.0
  0
LINE
  5
1580
330
1F
100
AcDbEntity
  8
AM_VIS
100
AcDbLine
 10
215.0308340068114
 20
358.2217727418921
 30
0.0
 11
224.1256487252713
 21
358.2217727418921
 31
0.0
  0
LINE
  5
1581
330
1F
100
AcDbEntity
  8
AM_VIS
100
AcDbLine
 10
205.7882634574662
 20
361.0217727418921
 30
0.0
 11
214.0214068013346
 21
361.0217727418921
 31
0.0
  0
LINE
  5
1582
330
1F
100
AcDbEntity
  8
AM_VIS
100
AcDbLine
 10
215.6785550810202
 20
361.0217727418921
 30
0.0
 11
224.1256487252713
 21
361.0217727418921
 31
0.0
  0
LINE
  5
1583
330
1F
100
AcDbEntity
  8
AM_VIS
100
AcDbLine
 10
224.1256487252713
 20
361.0217727418921
 30
0.0
 11
224.1256487252713
 21
358.2217727418921
 31
0.0
  0
LINE
  5
1584
330
1F
100
AcDbEntity
  8
0
100
AcDbLine
 10
214.4279901005073
 20
362.7793707003567
 30
0.0
 11
212.9671024279533
 21
356.4641747834274
 31
0.0
  0
LINE
  5
1585
330
1F
100
AcDbEntity
  8
0
100
AcDbLine
 10
216.0851383801927
 20
362.7793707003567
 30
0.0
 11
214.6242507076386
 21
356.4641747834274
 31
0.0
  0
LINE
  5
1586
330
1F
100
AcDbEntity
  8
0
100
AcDbLine
 10
224.1256487252713
 20
359.821772741892
 30
0.0
 11
230.5658030910509
 21
359.821772741892
 31
0.0
  0
LINE
  5
1587
330
1F
100
AcDbEntity
  8
0
100
AcDbLine
 10
230.5658030910509
 20
359.821772741892
 30
0.0
 11
230.5658030910509
 21
360.821772741892
 31
0.0
  0
LINE
  5
1588
330
1F
100
AcDbEntity
  8
0
100
AcDbLine
 10
230.5658030910509
 20
360.821772741892
 30
0.0
 11
224.1256487252712
 21
360.821772741892
 31
0.0
  0
LINE
  5
1589
330
1F
100
AcDbEntity
  8
0
100
AcDbLine
 10
224.1256487252713
 20
359.421772741892
 30
0.0
 11
230.5658030910509
 21
359.421772741892
 31
0.0
  0
LINE
  5
158A
330
1F
100
AcDbEntity
  8
0
100
AcDbLine
 10
230.5658030910509
 20
359.421772741892
 30
0.0
 11
230.5658030910509
 21
358.421772741892
 31
0.0
  0
LINE
  5
158B
330
1F
100
AcDbEntity
  8
0
100
AcDbLine
 10
230.5658030910509
 20
358.421772741892
 30
0.0
 11
224.1256487252712
 21
358.421772741892
 31
0.0
  0
LINE
  5
158C
330
1F
100
AcDbEntity
  8
0
100
AcDbLine
 10
230.5658030910509
 20
360.071772741892
 30
0.0
 11
234.1328486765666
 21
360.071772741892
 31
0.0
  0
LINE
  5
158D
330
1F
100
AcDbEntity
  8
0
100
AcDbLine
 10
230.5658030910509
 20
360.571772741892
 30
0.0
 11
234.1328486765666
 21
360.571772741892
 31
0.0
  0
LINE
  5
158E
330
1F
100
AcDbEntity
  8
0
100
AcDbLine
 10
234.1328486765666
 20
360.571772741892
 30
0.0
 11
234.1328486765666
 21
360.071772741892
 31
0.0
  0
LINE
  5
158F
330
1F
100
AcDbEntity
  8
0
100
AcDbLine
 10
230.5658030910509
 20
358.671772741892
 30
0.0
 11
234.1328486765666
 21
358.671772741892
 31
0.0
  0
LINE
  5
1590
330
1F
100
AcDbEntity
  8
0
100
AcDbLine
 10
230.5658030910509
 20
359.171772741892
 30
0.0
 11
234.1328486765666
 21
359.171772741892
 31
0.0
  0
LINE
  5
1591
330
1F
100
AcDbEntity
  8
0
100
AcDbLine
 10
234.1328486765666
 20
359.171772741892
 30
0.0
 11
234.1328486765666
 21
358.671772741892
 31
0.0
  0
CIRCLE
  5
15BE
330
1F
100
AcDbEntity
  8
0
100
AcDbCircle
 10
178.7882634574662
 20
379.2730826840796
 30
0.0
 40
1.25
  0
LINE
  5
15BF
330
1F
100
AcDbEntity
  8
0
100
AcDbLine
 10
177.7985135731173
 20
378.5096069697105
 30
0.0
 11
179.5517391718354
 21
380.2628325684284
 31
0.0
  0
LINE
  5
15C0
330
1F
100
AcDbEntity
  8
0
100
AcDbLine
 10
178.0247877430969
 20
378.2833327997308
 30
0.0
 11
179.778013341815
 21
380.0365583984487
 31
0.0
  0
LINE
  5
15D1
330
1F
100
AcDbEntity
  8
0
100
AcDbLine
 10
180.0382634574662
 20
360.7898731327208
 30
0.0
 11
180.0382634574664
 21
361.7898731327208
 31
0.0
  0
LINE
  5
15D2
330
1F
100
AcDbEntity
  8
0
100
AcDbLine
 10
177.5382634574662
 20
360.7898731327208
 30
0.0
 11
177.5382634574662
 21
361.7898731327208
 31
0.0
  0
LINE
  5
15DD
330
1F
100
AcDbEntity
  8
0
100
AcDbLine
 10
180.7882634574662
 20
380.5230826840796
 30
0.0
 11
180.7882634574662
 21
378.0230826840796
 31
0.0
  0
LINE
  5
15EA
330
1F
100
AcDbEntity
  8
AM_7
  6
AM_ISO08W050x2
100
AcDbLine
 10
178.7882634574665
 20
362.6996849433451
 30
0.0
 11
178.7882634574659
 21
360.1138632052336
 31
0.0
1001
GENIUS_GENOBJ-N-CEN_13
1002
{
1000
OWNER
1000
GEN
1002
}
1001
GENIUS_GENODEF_13
1002
{
1000
HIER
1070
     0
1002
}
1002
{
1000
MANEDIT
1070
     0
1002
}
1002
{
1000
NOSEL
1070
     0
1002
}
1002
{
1000
BEHIND
1070
     0
1002
}
1002
{
1000
OTHER
1070
     0
1002
}
1002
{
1000
REACTOR
1002
}
1001
GENIUS_GENCEN_19
1002
{
1040
2.0
1002
}
  0
TEXT
  5
194A
330
1F
100
AcDbEntity
  8
LOGO
 62
     7
100
AcDbText
 10
120.8209498904339
 20
292.8603881363492
 30
0.0
 40
2.13302443438914
  1
Order example:
 41
0.8
  7
CHINESET
100
AcDbText
  0
TEXT
  5
194B
330
1F
100
AcDbEntity
  8
LOGO
 62
     7
100
AcDbText
 10
121.2036321133578
 20
295.8632448916246
 30
0.0
 40
3.19953665158371
  1
訂購代號：
  7
CHINESET
100
AcDbText
  0
LINE
  5
194C
330
1F
100
AcDbEntity
  8
LOGO
 62
     4
100
AcDbLine
 10
119.8941435388888
 20
283.8710176898826
 30
0.0
 11
119.8941435388888
 21
299.8687009478013
 31
0.0
  0
TEXT
  5
194D
330
1F
100
AcDbEntity
  8
LOGO
  6
Continuous
100
AcDbText
 10
90.44568010868998
 20
287.0137384232917
 30
0.0
 40
2.399652488687782
  1
金器工業股份有限公司
  7
CHINESET
100
AcDbText
  0
TEXT
  5
194E
330
1F
100
AcDbEntity
  8
LOGO
  6
Continuous
100
AcDbText
 10
86.03799323480334
 20
284.6136157908562
 30
0.0
 40
1.599768325791855
  1
MINDMAN INDUSTRIAL CO., LTD.
 41
0.85
  7
CHINESET
100
AcDbText
  0
LINE
  5
194F
330
1F
100
AcDbEntity
  8
LOGO
 62
     4
100
AcDbLine
 10
119.8941435388888
 20
296.6691642962175
 30
0.0
 11
96.4308747606082
 21
296.6691642962175
 31
0.0
  0
LINE
  5
1950
330
1F
100
AcDbEntity
  8
LOGO
 62
     4
100
AcDbLine
 10
119.8941435388888
 20
293.4696276446338
 30
0.0
 11
96.4308747606082
 21
293.4696276446338
 31
0.0
  0
LINE
  5
1951
330
1F
100
AcDbEntity
  8
LOGO
 62
     4
100
AcDbLine
 10
119.8941435388888
 20
290.2700909930502
 30
0.0
 11
84.69924037146801
 21
290.2700909930502
 31
0.0
  0
LINE
  5
1952
330
1F
100
AcDbEntity
  8
LOGO
 62
     4
100
AcDbLine
 10
96.4308747606082
 20
290.2700909930502
 30
0.0
 11
96.4308747606082
 21
299.8687009478013
 31
0.0
  0
TEXT
  5
1953
330
1F
100
AcDbEntity
  8
LOGO
100
AcDbText
 10
112.4669115211452
 20
291.0699751559459
 30
0.0
 40
1.599768325791855
  1
mm
  7
CHINESET
 72
     1
 11
114.4475770673637
 21
291.8698593188418
 31
0.0
100
AcDbText
 73
     2
  0
TEXT
  5
1954
330
1F
100
AcDbEntity
  8
LOGO
100
AcDbText
 10
111.6289376362066
 20
297.4690484591134
 30
0.0
 40
1.599768325791855
  1
1 : 1
  7
CHINESET
 72
     1
 11
114.4475770673637
 21
298.2689326220093
 31
0.0
100
AcDbText
 73
     2
  0
LINE
  5
1955
330
1F
100
AcDbEntity
  8
LOGO
 62
     4
100
AcDbLine
 10
109.2290213669431
 20
290.2700909930502
 30
0.0
 11
109.2290213669431
 21
299.8687009478013
 31
0.0
  0
TEXT
  5
1956
330
1F
100
AcDbEntity
  8
LOGO
100
AcDbText
 10
97.74996944709821
 20
297.4698357466753
 30
104.8461806080398
 40
1.599768325791855
  1
比例 Scale:
 41
0.9
  7
CHINESET
 72
     4
 11
102.8299480637756
 21
298.2689326220093
 31
104.8461806080398
100
AcDbText
  0
TEXT
  5
1957
330
1F
100
AcDbEntity
  8
LOGO
100
AcDbText
 10
97.65783993190751
 20
294.2920151103407
 30
104.8461806080398
 40
1.599768325791855
  1
投影  View:
 41
0.9
  7
CHINESET
 72
     4
 11
102.8299480637756
 21
295.0693959704255
 31
104.8461806080398
100
AcDbText
  0
TEXT
  5
1958
330
1F
100
AcDbEntity
  8
LOGO
100
AcDbText
 10
97.8142458530452
 20
291.0699751559459
 30
104.8461806080398
 40
1.599768325791855
  1
單位  Unit:
 41
0.9
  7
CHINESET
 72
     4
 11
102.8299480637756
 21
291.8698593188418
 31
104.8461806080398
100
AcDbText
  0
LWPOLYLINE
  5
1959
330
1F
100
AcDbEntity
  8
LOGO
 62
     4
100
AcDbPolyline
 90
        4
 70
     1
 43
0.0
 10
84.69924037146801
 20
299.8687009478013
 10
304.699240371468
 20
299.8687009478013
 10
304.699240371468
 20
443.8710176898823
 10
84.69924037146801
 20
443.8710176898823
1001
GENIUS_GENREC_14
1002
{
1000
PYDIR
1011
84.69924037146801
1021
443.8710176898823
1031
0.0
1002
}
1002
{
1000
PXDIR
1011
304.699240371468
1021
299.8687009478013
1031
0.0
1002
}
1002
{
1000
PORI
1011
84.69924037146801
1021
299.8687009478013
1031
0.0
1002
}
1002
{
1000
PINS
1011
84.69924037146801
1021
299.8687009478013
1031
0.0
1002
}
1002
{
1000
PINS2
1011
304.699240371468
1021
443.8710176898823
1031
0.0
1002
}
1002
{
1000
C
1070
     1
1002
}
1001
GENIUS_GENODEF_13
1002
{
1000
HIER
1070
     0
1002
}
1002
{
1000
MANEDIT
1070
     0
1002
}
1002
{
1000
NOSEL
1070
     0
1002
}
1002
{
1000
BEHIND
1070
     0
1002
}
1002
{
1000
OTHER
1070
     0
1002
}
1002
{
1000
REACTOR
1002
}
1001
GENIUS_GENOBJ-N-REC_13
1002
{
1000
OWNER
1000
GEN
1002
}
  0
SOLID
  5
195A
330
1F
100
AcDbEntity
  8
LOGO
 62
     5
100
AcDbTrace
 10
86.35902568380579
 20
292.929478125589
 30
0.0
 11
87.05072352995731
 21
292.9294781255888
 31
0.0
 12
89.93677316389975
 22
299.488681839095
 32
0.0
 13
90.62847101005164
 23
299.4886818390946
 33
0.0
  0
SOLID
  5
195B
330
1F
100
AcDbEntity
  8
LOGO
 62
     5
100
AcDbTrace
 10
87.33694332836558
 20
292.929478125589
 30
0.0
 11
88.0286411745171
 21
292.929478125589
 31
0.0
 12
90.62847101005164
 22
298.9639455420142
 32
0.0
 13
89.93677316389975
 23
296.4277201061253
 33
0.0
  0
SOLID
  5
195C
330
1F
100
AcDbEntity
  8
LOGO
 62
     2
100
AcDbTrace
 10
87.05072352995731
 20
292.9294781255888
 30
0.0
 11
87.33694332836558
 21
292.929478125589
 31
0.0
 12
90.62847101005164
 22
299.4886818390946
 32
0.0
 13
90.91469080845953
 23
299.4886818390946
 33
0.0
  0
SOLID
  5
195D
330
1F
100
AcDbEntity
  8
LOGO
 62
     5
100
AcDbTrace
 10
85.25006441133511
 20
290.5443131388597
 30
0.0
 11
85.48858091000829
 21
290.5443131388597
 31
0.0
 12
86.16026193491189
 22
291.7368956322242
 32
0.0
 13
86.39877843358435
 23
291.7368956322242
 33
0.0
  0
SOLID
  5
195E
330
1F
100
AcDbEntity
  8
LOGO
 62
     5
100
AcDbTrace
 10
86.16026193491189
 20
291.7368956322242
 30
0.0
 11
86.39877843358435
 21
291.7368956322242
 31
0.0
 12
86.16026193491189
 22
290.5443131388597
 32
0.0
 13
86.39877843358435
 23
290.5443131388597
 33
0.0
  0
SOLID
  5
195F
330
1F
100
AcDbEntity
  8
LOGO
 62
     5
100
AcDbTrace
 10
86.16026193491189
 20
290.5443131388597
 30
0.0
 11
86.39877843358435
 21
290.5443131388597
 31
0.0
 12
87.07045945848904
 22
291.7368956322242
 32
0.0
 13
87.30897595716188
 23
291.7368956322242
 33
0.0
  0
SOLID
  5
1960
330
1F
100
AcDbEntity
  8
LOGO
 62
     5
100
AcDbTrace
 10
87.07045945848904
 20
291.7368956322242
 30
0.0
 11
87.30897595716188
 21
291.7368956322242
 31
0.0
 12
87.07045945848904
 22
290.5443131388597
 32
0.0
 13
87.30897595716188
 23
290.5443131388597
 33
0.0
  0
POLYLINE
  5
1961
330
1F
100
AcDbEntity
  8
LOGO
 62
     5
100
AcDb2dPolyline
 66
     1
 10
0.0
 20
0.0
 30
0.0
 40
0.2388987366515836
 41
0.2388987366515836
  0
VERTEX
  5
1962
330
1961
100
AcDbEntity
  8
LOGO
 62
     5
100
AcDbVertex
100
AcDb2dVertex
 10
95.06545124233662
 20
291.2598626348784
 30
0.0
 42
1.0
  0
VERTEX
  5
1963
330
1961
100
AcDbEntity
  8
LOGO
 62
     5
100
AcDbVertex
100
AcDb2dVertex
 10
94.34875503238172
 20
291.2598626348784
 30
0.0
 42
1.0
  0
SEQEND
  5
1964
330
1961
100
AcDbEntity
  8
LOGO
 62
     5
  0
POLYLINE
  5
1965
330
1F
100
AcDbEntity
  8
LOGO
 62
     5
100
AcDb2dPolyline
 66
     1
 10
0.0
 20
0.0
 30
0.0
 70
     1
  0
VERTEX
  5
1966
330
1965
100
AcDbEntity
  8
LOGO
 62
     5
100
AcDbVertex
100
AcDb2dVertex
 10
92.99775079796919
 20
291.1406043855418
 30
0.0
 42
1.000000057330635
  0
VERTEX
  5
1967
330
1965
100
AcDbEntity
  8
LOGO
 62
     5
100
AcDbVertex
100
AcDb2dVertex
 10
93.71330029398805
 20
291.1406043855418
 30
0.0
 42
1.000000057330635
  0
SEQEND
  5
1968
330
1965
100
AcDbEntity
  8
LOGO
 62
     5
  0
CIRCLE
  5
1969
330
1F
100
AcDbEntity
  8
LOGO
 62
     5
100
AcDbCircle
 10
93.35552554597915
 20
291.1406043855418
 30
0.0
 40
0.3577747480094118
  0
POLYLINE
  5
196A
330
1F
100
AcDbEntity
  8
LOGO
 62
     5
100
AcDb2dPolyline
 66
     1
 10
0.0
 20
0.0
 30
0.0
 70
     1
 40
0.2388987366515836
 41
0.2388987366515836
  0
VERTEX
  5
196B
330
196A
100
AcDbEntity
  8
LOGO
 62
     5
100
AcDbVertex
100
AcDb2dVertex
 10
92.87772807267565
 20
291.1406043855418
 30
0.0
 42
1.0
  0
VERTEX
  5
196C
330
196A
100
AcDbEntity
  8
LOGO
 62
     5
100
AcDbVertex
100
AcDb2dVertex
 10
93.83332301928195
 20
291.1406043855418
 30
0.0
 42
1.0
  0
SEQEND
  5
196D
330
196A
100
AcDbEntity
  8
LOGO
 62
     5
  0
LINE
  5
196E
330
1F
100
AcDbEntity
  8
LOGO
100
AcDbLine
 10
95.18413613470466
 20
290.5443131388597
 30
0.0
 11
95.18413613470466
 21
291.2598626348784
 31
0.0
  0
SOLID
  5
196F
330
1F
100
AcDbEntity
  8
LOGO
 62
     5
100
AcDbTrace
 10
93.71327644233925
 20
291.7368956322242
 30
0.0
 11
93.95179294101172
 21
291.7368956322242
 31
0.0
 12
93.71327644233925
 22
290.5443131388597
 32
0.0
 13
93.95179294101172
 23
290.5443131388597
 33
0.0
  0
SOLID
  5
1970
330
1F
100
AcDbEntity
  8
LOGO
 62
     5
100
AcDbTrace
 10
94.23007014001296
 20
290.5443131388597
 30
0.0
 11
94.46858663868615
 21
290.5443131388597
 31
0.0
 12
94.23007014001296
 22
291.7368956322242
 32
0.0
 13
94.46858663868615
 23
291.7368956322242
 33
0.0
  0
SOLID
  5
1971
330
1F
100
AcDbEntity
  8
LOGO
 62
     5
100
AcDbTrace
 10
94.94561963603219
 20
291.2598626348784
 30
0.0
 11
95.18413613470466
 21
291.2598626348784
 31
0.0
 12
94.94561963603219
 22
290.5443131388597
 32
0.0
 13
95.18413613470466
 23
290.5443131388597
 33
0.0
  0
SOLID
  5
1972
330
1F
100
AcDbEntity
  8
LOGO
 62
     5
100
AcDbTrace
 10
94.2062184901456
 20
298.9639455420142
 30
0.0
 11
93.51452064399445
 21
296.4277201061253
 31
0.0
 12
94.2062184901456
 22
292.9294781255888
 32
0.0
 13
93.51452064399445
 23
292.9294781255888
 33
0.0
  0
SOLID
  5
1973
330
1F
100
AcDbEntity
  8
LOGO
 62
     5
100
AcDbTrace
 10
94.49243828855351
 20
292.9294781255888
 30
0.0
 11
95.18413613470466
 21
292.9294781255888
 31
0.0
 12
94.49243828855351
 22
299.4886818390946
 32
0.0
 13
95.18413613470466
 23
299.488681839095
 33
0.0
  0
SOLID
  5
1974
330
1F
100
AcDbEntity
  8
LOGO
 62
     2
100
AcDbTrace
 10
94.2062184901456
 20
299.488681839095
 30
0.0
 11
94.49243828855351
 21
299.4886818390946
 31
0.0
 12
94.2062184901456
 22
292.9294781255888
 32
0.0
 13
94.49243828855351
 23
292.9294781255888
 33
0.0
  0
POLYLINE
  5
1975
330
1F
100
AcDbEntity
  8
LOGO
 62
     5
100
AcDb2dPolyline
 66
     1
 10
0.0
 20
0.0
 30
0.0
 40
0.2388987366515836
 41
0.2388987366515836
  0
VERTEX
  5
1976
330
1975
100
AcDbEntity
  8
LOGO
 62
     5
100
AcDbVertex
100
AcDb2dVertex
 10
91.64669886025794
 20
291.2598626348784
 30
0.0
 42
1.0
  0
VERTEX
  5
1977
330
1975
100
AcDbEntity
  8
LOGO
 62
     5
100
AcDbVertex
100
AcDb2dVertex
 10
90.93000265030305
 20
291.2598626348784
 30
0.0
 42
1.0
  0
SEQEND
  5
1978
330
1975
100
AcDbEntity
  8
LOGO
 62
     5
  0
POLYLINE
  5
1979
330
1F
100
AcDbEntity
  8
LOGO
 62
     5
100
AcDb2dPolyline
 66
     1
 10
0.0
 20
0.0
 30
0.0
 40
0.2388987366515836
 41
0.2388987366515836
  0
VERTEX
  5
197A
330
1979
100
AcDbEntity
  8
LOGO
 62
     5
100
AcDbVertex
100
AcDb2dVertex
 10
92.36224835627607
 20
291.2598626348784
 30
0.0
 42
1.0
  0
VERTEX
  5
197B
330
1979
100
AcDbEntity
  8
LOGO
 62
     5
100
AcDbVertex
100
AcDb2dVertex
 10
91.64555214632155
 20
291.2598626348784
 30
0.0
 42
1.0
  0
SEQEND
  5
197C
330
1979
100
AcDbEntity
  8
LOGO
 62
     5
  0
POLYLINE
  5
197D
330
1F
100
AcDbEntity
  8
LOGO
 62
     5
100
AcDb2dPolyline
 66
     1
 10
0.0
 20
0.0
 30
0.0
 40
0.2388987366515836
 41
0.2388987366515836
  0
VERTEX
  5
197E
330
197D
100
AcDbEntity
  8
LOGO
 62
     5
100
AcDbVertex
100
AcDb2dVertex
 10
88.94349597419742
 20
291.2598626348784
 30
0.0
 42
1.0
  0
VERTEX
  5
197F
330
197D
100
AcDbEntity
  8
LOGO
 62
     5
100
AcDbVertex
100
AcDb2dVertex
 10
88.22679976424288
 20
291.2598626348784
 30
0.0
 42
1.0
  0
SEQEND
  5
1980
330
197D
100
AcDbEntity
  8
LOGO
 62
     5
  0
SOLID
  5
1981
330
1F
100
AcDbEntity
  8
LOGO
 62
     5
100
AcDbTrace
 10
88.10811487187448
 20
291.7368956322242
 30
0.0
 11
88.34663137054695
 21
291.7368956322242
 31
0.0
 12
88.10811487187448
 22
290.5443131388597
 32
0.0
 13
88.34663137054695
 23
290.5443131388597
 33
0.0
  0
SOLID
  5
1982
330
1F
100
AcDbEntity
  8
LOGO
 62
     5
100
AcDbTrace
 10
88.82366436789334
 20
291.2598626348784
 30
0.0
 11
89.06218086656654
 21
291.2598626348784
 31
0.0
 12
88.82366436789334
 22
290.5443131388597
 32
0.0
 13
89.06218086656654
 23
290.5443131388597
 33
0.0
  0
POLYLINE
  5
1983
330
1F
100
AcDbEntity
  8
LOGO
 62
     5
100
AcDb2dPolyline
 66
     1
 10
0.0
 20
0.0
 30
0.0
 70
     1
 40
0.2388987366515836
 41
0.2388987366515836
  0
VERTEX
  5
1984
330
1983
100
AcDbEntity
  8
LOGO
 62
     5
100
AcDbVertex
100
AcDb2dVertex
 10
89.45897569059662
 20
291.1406043855418
 30
0.0
 42
1.0
  0
VERTEX
  5
1985
330
1983
100
AcDbEntity
  8
LOGO
 62
     5
100
AcDbVertex
100
AcDb2dVertex
 10
90.41457063720327
 20
291.1406043855418
 30
0.0
 42
1.0
  0
SEQEND
  5
1986
330
1983
100
AcDbEntity
  8
LOGO
 62
     5
  0
SOLID
  5
1987
330
1F
100
AcDbEntity
  8
LOGO
 62
     5
100
AcDbTrace
 10
90.29452406025985
 20
292.0946703802339
 30
0.0
 11
90.53304055893269
 21
292.0946703802339
 31
0.0
 12
90.29452406025985
 22
290.5443131388597
 32
0.0
 13
90.53304055893269
 23
290.5443131388597
 33
0.0
  0
SOLID
  5
1988
330
1F
100
AcDbEntity
  8
LOGO
 62
     5
100
AcDbTrace
 10
90.81131775793501
 20
291.7368956322242
 30
0.0
 11
91.04983425660748
 21
291.7368956322242
 31
0.0
 12
90.81131775793501
 22
290.5443131388597
 32
0.0
 13
91.04983425660748
 23
290.5443131388597
 33
0.0
  0
SOLID
  5
1989
330
1F
100
AcDbEntity
  8
LOGO
 62
     5
100
AcDbTrace
 10
91.52686725395316
 20
291.2598626348784
 30
0.0
 11
91.76538375262635
 21
291.2598626348784
 31
0.0
 12
91.52686725395316
 22
290.5443131388597
 32
0.0
 13
91.76538375262635
 23
290.5443131388597
 33
0.0
  0
SOLID
  5
198A
330
1F
100
AcDbEntity
  8
LOGO
 62
     5
100
AcDbTrace
 10
92.24241674997202
 20
291.2598626348784
 30
0.0
 11
92.48093324864484
 21
291.2598626348784
 31
0.0
 12
92.24241674997202
 22
290.5443131388594
 32
0.0
 13
92.48093324864484
 23
290.5443131388594
 33
0.0
  0
SOLID
  5
198B
330
1F
100
AcDbEntity
  8
LOGO
 62
     5
100
AcDbTrace
 10
87.59132117419968
 20
291.9038571812954
 30
0.0
 11
87.82983767287324
 21
291.9038571812954
 31
0.0
 12
87.59132117419968
 22
292.0946703802339
 32
0.0
 13
87.82983767287324
 23
292.0946703802339
 33
0.0
  0
SOLID
  5
198C
330
1F
100
AcDbEntity
  8
LOGO
 62
     5
100
AcDbTrace
 10
87.59132117419968
 20
291.7368956322242
 30
0.0
 11
87.82983767287324
 21
291.7368956322242
 31
0.0
 12
87.59132117419968
 22
290.5443131388594
 32
0.0
 13
87.82983767287324
 23
290.5443131388597
 33
0.0
  0
SOLID
  5
198D
330
1F
100
AcDbEntity
  8
LOGO
 62
     5
100
AcDbTrace
 10
89.93677316389975
 20
292.929478125589
 30
0.0
 11
90.62847101005164
 21
292.929478125589
 31
0.0
 12
89.93677316389975
 22
296.4277201061253
 32
0.0
 13
90.62847101005164
 23
298.9639455420142
 33
0.0
  0
SOLID
  5
198E
330
1F
100
AcDbEntity
  8
LOGO
 62
     5
100
AcDbTrace
 10
90.91469080845953
 20
299.4886818390946
 30
0.0
 11
91.6063886546107
 21
299.488681839095
 31
0.0
 12
90.91469080845953
 22
293.4542144226693
 32
0.0
 13
91.6063886546107
 23
295.9904398585583
 33
0.0
  0
SOLID
  5
198F
330
1F
100
AcDbEntity
  8
LOGO
 62
     2
100
AcDbTrace
 10
90.62847101005164
 20
299.4886818390946
 30
0.0
 11
90.91469080845953
 21
299.4886818390946
 31
0.0
 12
90.62847101005164
 22
292.929478125589
 32
0.0
 13
90.91469080845953
 23
292.929478125589
 33
0.0
  0
SOLID
  5
1990
330
1F
100
AcDbEntity
  8
LOGO
 62
     5
100
AcDbTrace
 10
90.91469080845953
 20
293.4542144226693
 30
0.0
 11
91.6063886546107
 21
295.9904398585583
 31
0.0
 12
94.2062184901456
 22
299.488681839095
 32
0.0
 13
93.51452064399445
 23
299.488681839095
 33
0.0
  0
SOLID
  5
1991
330
1F
100
AcDbEntity
  8
LOGO
 62
     5
100
AcDbTrace
 10
90.91469080845953
 20
292.929478125589
 30
0.0
 11
91.6063886546107
 21
292.929478125589
 31
0.0
 12
94.2062184901456
 22
298.9639455420142
 32
0.0
 13
93.51452064399445
 23
296.4277201061253
 33
0.0
  0
SOLID
  5
1992
330
1F
100
AcDbEntity
  8
LOGO
 62
     2
100
AcDbTrace
 10
90.62847101005164
 20
292.929478125589
 30
0.0
 11
90.91469080845953
 21
292.929478125589
 31
0.0
 12
94.2062184901456
 22
299.488681839095
 32
0.0
 13
94.49243828855351
 23
299.4886818390946
 33
0.0
  0
LWPOLYLINE
  5
1993
330
1F
100
AcDbEntity
  8
LOGO
 62
     4
100
AcDbPolyline
 90
        4
 70
     1
 43
0.0
 10
84.69924037146801
 20
299.8687009478013
 10
304.699240371468
 20
299.8687009478013
 10
304.699240371468
 20
283.8710176898824
 10
84.69924037146801
 20
283.8710176898824
1001
GENIUS_GENREC_14
1002
{
1000
PYDIR
1011
84.69924037146801
1021
283.8710176898824
1031
0.0
1002
}
1002
{
1000
PXDIR
1011
304.699240371468
1021
299.8687009478013
1031
0.0
1002
}
1002
{
1000
PORI
1011
84.69924037146801
1021
299.8687009478013
1031
0.0
1002
}
1002
{
1000
PINS
1011
84.69924037146801
1021
299.8687009478013
1031
0.0
1002
}
1002
{
1000
PINS2
1011
304.699240371468
1021
283.8710176898824
1031
0.0
1002
}
1002
{
1000
C
1070
     1
1002
}
1001
GENIUS_GENOBJ-N-REC_13
1002
{
1000
OWNER
1000
GEN
1002
}
1001
GENIUS_GENODEF_13
1002
{
1000
HIER
1070
     0
1002
}
1002
{
1000
MANEDIT
1070
     0
1002
}
1002
{
1000
NOSEL
1070
     0
1002
}
1002
{
1000
BEHIND
1070
     0
1002
}
1002
{
1000
OTHER
1070
     0
1002
}
1002
{
1000
REACTOR
1002
}
  0
LINE
  5
1994
330
1F
100
AcDbEntity
  8
LOGO
 62
     4
100
AcDbLine
 10
152.5633690188747
 20
291.0699751559462
 30
0.0
 11
152.5633690188747
 21
285.2041579613758
 31
0.0
  0
LINE
  5
1995
330
1F
100
AcDbEntity
  8
LOGO
 62
     4
100
AcDbLine
 10
141.8982468469289
 20
291.0699751559462
 30
0.0
 11
141.8982468469289
 21
285.2041579613758
 31
0.0
  0
LINE
  5
1996
330
1F
100
AcDbEntity
  8
LOGO
 62
     4
100
AcDbLine
 10
152.5633690188747
 20
285.2041579613758
 30
0.0
 11
141.8982468469289
 21
285.2041579613758
 31
0.0
  0
LINE
  5
1997
330
1F
100
AcDbEntity
  8
LOGO
 62
     4
100
AcDbLine
 10
152.7891431945915
 20
298.2689326220093
 30
0.0
 11
141.8982468469289
 21
298.2689326220093
 31
0.0
  0
LINE
  5
1998
330
1F
100
AcDbEntity
  8
LOGO
 62
     4
100
AcDbLine
 10
152.7891431945915
 20
293.4696276446338
 30
0.0
 11
141.8982468469289
 21
293.4696276446338
 31
0.0
  0
LINE
  5
1999
330
1F
100
AcDbEntity
  8
LOGO
 62
     4
100
AcDbLine
 10
141.8982468469289
 20
298.2689326220093
 30
0.0
 11
141.8982468469289
 21
293.4696276446338
 31
0.0
  0
LINE
  5
199A
330
1F
100
AcDbEntity
  8
LOGO
 62
     4
100
AcDbLine
 10
152.7891431945915
 20
298.2689326220093
 30
0.0
 11
152.7891431945915
 21
293.4696276446338
 31
0.0
  0
LINE
  5
199B
330
1F
100
AcDbEntity
  8
LOGO
 62
     4
100
AcDbLine
 10
147.7872594354909
 20
293.4696276446338
 30
0.0
 11
147.7872594354909
 21
291.0699751559462
 31
0.0
  0
TEXT
  5
199C
330
1F
100
AcDbEntity
  8
LOGO
  6
Continuous
 62
     7
100
AcDbText
 10
144.2154562057712
 20
294.4714755420778
 30
0.0
 40
2.8
  1
RCI
  7
CHINESET
100
AcDbText
  0
LINE
  5
199D
330
1F
100
AcDbEntity
  8
LOGO
 62
     4
100
AcDbLine
 10
152.5633690188747
 20
291.0699751559462
 30
0.0
 11
141.8982468469289
 21
291.0699751559462
 31
0.0
  0
TEXT
  5
199E
330
1F
100
AcDbEntity
  8
LOGO
  6
Continuous
100
AcDbText
 10
145.3206507866434
 20
286.0321056196351
 30
104.8461806080398
 40
1.2
  1
Model
 41
0.8
  7
CHINESET
100
AcDbText
  0
TEXT
  5
199F
330
1F
100
AcDbEntity
  8
LOGO
100
AcDbText
 10
145.001249796244
 20
288.2566470011769
 30
104.8461806080398
 40
2.0
  1
型號
  7
CHINESET
100
AcDbText
  0
TEXT
  5
19D3
330
1F
100
AcDbEntity
  8
LOGO
100
AcDbText
 10
120.635372011879
 20
284.7220881250197
 30
0.0
 40
1.6
  1
10608170
 41
0.7
  7
CHINESET
 72
     1
 11
124.5287053452123
 21
284.7220881250197
 31
0.0
100
AcDbText
  0
LINE
  5
19D4
330
1F
100
AcDbEntity
  8
LOGO
 62
     4
100
AcDbLine
 10
129.4941435388881
 20
287.0705543414667
 30
0.0
 11
129.4941435388888
 21
283.8710176898828
 31
0.0
  0
LINE
  5
19D5
330
1F
100
AcDbEntity
  8
LOGO
 62
     4
100
AcDbLine
 10
129.4941435388881
 20
287.0705543414667
 30
0.0
 11
119.8941435388888
 21
287.0705543414667
 31
0.0
  0
CIRCLE
  5
19D6
330
1F
100
AcDbEntity
  8
LOGO
  6
Continuous
100
AcDbCircle
 10
112.1911925180057
 20
295.0728178865814
 30
0.0
 40
0.9288631442565051
  0
CIRCLE
  5
19D7
330
1F
100
AcDbEntity
  8
LOGO
  6
Continuous
100
AcDbCircle
 10
112.1911925180057
 20
295.0728178865814
 30
0.0
 40
0.5442315749324778
  0
LINE
  5
19D8
330
1F
100
AcDbEntity
  8
LOGO
100
AcDbLine
 10
118.028276297235
 20
294.1439547423247
 30
0.0
 11
118.028276297235
 21
296.0016810308381
 31
0.0
  0
LINE
  5
19D9
330
1F
100
AcDbEntity
  8
LOGO
100
AcDbLine
 10
115.1163436592796
 20
294.528586311649
 30
0.0
 11
115.1163436592796
 21
295.617049461514
 31
0.0
  0
LINE
  5
19DA
330
1F
100
AcDbEntity
  8
LOGO
  6
Continuous
100
AcDbLine
 10
115.1163436592796
 20
295.617049461514
 30
0.0
 11
118.028276297235
 21
296.0016810308381
 31
0.0
  0
LINE
  5
19DB
330
1F
100
AcDbEntity
  8
LOGO
  6
Continuous
100
AcDbLine
 10
115.1163436592796
 20
294.528586311649
 30
0.0
 11
118.028276297235
 21
294.1439547423247
 31
0.0
  0
LINE
  5
19DC
330
1F
100
AcDbEntity
  8
LOGO
  6
AM_ISO08W050x2
 48
0.3
100
AcDbLine
 10
110.9107407650178
 20
295.0728178865814
 30
0.0
 11
113.4716442709937
 21
295.0728178865814
 31
0.0
1001
GENIUS_GENOREF_13
1005
19E1
  0
LINE
  5
19DD
330
1F
100
AcDbEntity
  8
LOGO
  6
AM_ISO08W050x2
 48
0.3
100
AcDbLine
 10
112.1911925180057
 20
293.7923661335934
 30
0.0
 11
112.1911925180057
 21
296.3532696395693
 31
0.0
1001
GENIUS_GENOREF_13
1005
19E0
  0
LINE
  5
19DE
330
1F
100
AcDbEntity
  8
LOGO
  6
CENTER
 48
0.5
100
AcDbLine
 10
114.8834699850321
 20
295.0728178865814
 30
0.0
 11
118.3214984874651
 21
295.0728178865814
 31
0.0
1001
GENIUS_GENOREF_13
1005
19DF
  0
POINT
  5
19DF
330
1F
100
AcDbEntity
  8
0
 60
     1
100
AcDbPoint
 10
-1987.641919368515
 20
-658.2617054303233
 30
0.0
1001
GENIUS_GENOBJ-N-CRS_13
1002
{
1000
OWNER
1000
GEN
1002
}
1001
GENIUS_GENOLIS_13
1002
{
1000
ENT
1005
0
1005
0
1005
0
1005
19DE
1002
}
1001
GENIUS_GENOENT_13
1002
{
1000
MYREF
1005
19DF
1002
}
1002
{
1000
GRP
1005
0
1002
}
1001
GENIUS_GENODEF_13
1002
{
1000
HIER
1070
    10
1002
}
1002
{
1000
MANEDIT
1070
     1
1002
}
1002
{
1000
NOSEL
1070
     0
1002
}
1002
{
1000
BEHIND
1070
     0
1002
}
1002
{
1000
OTHER
1070
     0
1002
}
1002
{
1000
REACTOR
1002
}
  0
POINT
  5
19E0
330
1F
100
AcDbEntity
  8
0
 60
     1
100
AcDbPoint
 10
-1998.966504591369
 20
-649.386118951687
 30
0.0
1001
GENIUS_GENOBJ-N-CRS_13
1002
{
1000
OWNER
1000
GEN
1002
}
1001
GENIUS_GENOLIS_13
1002
{
1000
ENT
1005
0
1005
0
1005
0
1005
19DD
1002
}
1001
GENIUS_GENOENT_13
1002
{
1000
MYREF
1005
19E0
1002
}
1002
{
1000
GRP
1005
0
1002
}
1001
GENIUS_GENODEF_13
1002
{
1000
HIER
1070
    10
1002
}
1002
{
1000
MANEDIT
1070
     1
1002
}
1002
{
1000
NOSEL
1070
     0
1002
}
1002
{
1000
BEHIND
1070
     0
1002
}
1002
{
1000
OTHER
1070
     0
1002
}
1002
{
1000
REACTOR
1002
}
  0
POINT
  5
19E1
330
1F
100
AcDbEntity
  8
0
 60
     1
100
AcDbPoint
 10
-1992.607830893533
 20
-658.2617054303233
 30
0.0
1001
GENIUS_GENOBJ-N-CRS_13
1002
{
1000
OWNER
1000
GEN
1002
}
1001
GENIUS_GENOLIS_13
1002
{
1000
ENT
1005
0
1005
0
1005
0
1005
19DC
1002
}
1001
GENIUS_GENOENT_13
1002
{
1000
MYREF
1005
19E1
1002
}
1002
{
1000
GRP
1005
0
1002
}
1001
GENIUS_GENODEF_13
1002
{
1000
HIER
1070
    10
1002
}
1002
{
1000
MANEDIT
1070
     1
1002
}
1002
{
1000
NOSEL
1070
     0
1002
}
1002
{
1000
BEHIND
1070
     0
1002
}
1002
{
1000
OTHER
1070
     0
1002
}
1002
{
1000
REACTOR
1002
}
  0
LINE
  5
1BCD
330
1F
100
AcDbEntity
  8
AM_7
  6
AM_ISO08W050x2
100
AcDbLine
 10
160.7331699012747
 20
363.9898731327209
 30
0.0
 11
160.7331699012747
 21
355.2898731327208
 31
0.0
1001
GENIUS_GENOBJ-N-CEN_13
1002
{
1000
OWNER
1000
GEN
1002
}
1001
GENIUS_GENODEF_13
1002
{
1000
HIER
1070
     0
1002
}
1002
{
1000
MANEDIT
1070
     0
1002
}
1002
{
1000
NOSEL
1070
     0
1002
}
1002
{
1000
BEHIND
1070
     0
1002
}
1002
{
1000
OTHER
1070
     0
1002
}
1002
{
1000
REACTOR
1002
}
1001
GENIUS_GENCEN_19
1002
{
1040
2.0
1002
}
  0
ENDSEC
  0
SECTION
  2
OBJECTS
  0
DICTIONARY
  5
C
330
0
100
AcDbDictionary
281
     1
  3
ACAD_COLOR
350
BE
  3
ACAD_GROUP
350
D
  3
ACAD_LAYOUT
350
1A
  3
ACAD_MATERIAL
350
BD
  3
ACAD_MLINESTYLE
350
17
  3
ACAD_PLOTSETTINGS
350
19
  3
ACAD_PLOTSTYLENAME
350
E
  3
ACAD_TABLESTYLE
350
11A
  3
ACDBHEADERROUNDTRIPXREC
350
1BE6
  3
AcDbVariableDictionary
350
94
  3
AcmDictionary
350
5B
  3
AMG
350
41
  3
AMGSNAPSETTINGS
350
1B8
  3
DWGPROPS
350
1BE5
  0
DICTIONARY
  5
3F9
330
2
100
AcDbDictionary
280
     1
281
     1
  3
ACAD_LAYERFILTERS
360
5B7
  3
ACAD_LAYERSTATES
360
B13
  3
ACLYDICTIONARY
360
5B6
  0
DICTIONARY
  5
8F
330
1F
100
AcDbDictionary
280
     1
281
     1
  3
ACAD_SORTENTS
360
1430
  0
DICTIONARY
  5
136F
330
1360
100
AcDbDictionary
280
     1
281
     1
  3
ACAD_DIMASSOC
360
1370
  0
DICTIONARY
  5
1399
330
138A
100
AcDbDictionary
280
     1
281
     1
  3
ACAD_DIMASSOC
360
139A
  0
DICTIONARY
  5
13C1
330
13B4
100
AcDbDictionary
280
     1
281
     1
  3
ACAD_DIMASSOC
360
13C2
  0
DICTIONARY
  5
BE
102
{ACAD_REACTORS
330
C
102
}
330
C
100
AcDbDictionary
281
     1
  0
DICTIONARY
  5
D
102
{ACAD_REACTORS
330
C
102
}
330
C
100
AcDbDictionary
281
     1
  0
DICTIONARY
  5
1A
102
{ACAD_REACTORS
330
C
102
}
330
C
100
AcDbDictionary
281
     1
  3
Model
350
22
  3
配置1
350
1E
  3
配置2
350
26
  0
DICTIONARY
  5
BD
102
{ACAD_REACTORS
330
C
102
}
330
C
100
AcDbDictionary
281
     1
  0
DICTIONARY
  5
17
102
{ACAD_REACTORS
330
C
102
}
330
C
100
AcDbDictionary
281
     1
  3
Standard
350
18
  0
DICTIONARY
  5
19
102
{ACAD_REACTORS
330
C
102
}
330
C
100
AcDbDictionary
281
     1
  0
ACDBDICTIONARYWDFLT
  5
E
102
{ACAD_REACTORS
330
C
102
}
330
C
100
AcDbDictionary
281
     1
  3
Normal
350
F
100
AcDbDictionaryWithDefault
340
F
  0
DICTIONARY
  5
11A
102
{ACAD_REACTORS
330
C
102
}
330
C
100
AcDbDictionary
281
     1
  3
Standard
350
11B
  0
DICTIONARY
  5
1BE6
102
{ACAD_REACTORS
330
C
102
}
330
C
100
AcDbDictionary
281
     1
  0
DICTIONARY
  5
94
102
{ACAD_REACTORS
330
C
102
}
330
C
100
AcDbDictionary
281
     1
  3
CTABLESTYLE
350
138
  3
DIMASSOC
350
96
  3
INDEXCTL
350
95
  3
PROJECTNAME
350
1BE3
  0
DICTIONARY
  5
5B
102
{ACAD_REACTORS
330
C
102
}
330
C
100
AcDbDictionary
281
     1
  3
AcmBOM
350
1B5
  3
AcmStdDictionary
350
61
  3
AMDTSECTSYM_ARROWCOLOR
350
123
  0
DICTIONARY
  5
41
102
{ACAD_REACTORS
330
C
102
}
330
C
100
AcDbDictionary
281
     1
  0
DICTIONARY
  5
1B8
102
{ACAD_REACTORS
330
C
102
}
330
C
100
AcDbDictionary
281
     1
  0
XRECORD
  5
1BE5
102
{ACAD_REACTORS
330
C
102
}
330
C
100
AcDbXrecord
280
     1
  1
DWGPROPS COOKIE
  2

  3

  4

  6

  7

  8

  9

300
AmdtFileType=84
301
=
302
=
303
=
304
=
305
=
306
=
307
=
308
=
309
=
 40
0.0829087152777778
 41
2453965.689012037
 42
2453966.390391343
  1

 90
        1
  0
DICTIONARY
  5
5B7
102
{ACAD_REACTORS
330
3F9
102
}
330
3F9
100
AcDbDictionary
281
     1
  0
DICTIONARY
  5
B13
102
{ACAD_REACTORS
330
3F9
102
}
330
3F9
100
AcDbDictionary
281
     1
  0
DICTIONARY
  5
5B6
102
{ACAD_REACTORS
330
3F9
102
}
330
3F9
100
AcDbDictionary
281
     1
1001
ACAD
1000
<All
  0
SORTENTSTABLE
  5
1430
102
{ACAD_REACTORS
330
8F
102
}
330
8F
100
AcDbSortentsTable
330
1F
331
102B
  5
102D
331
1033
  5
1035
331
158B
  5
158D
331
103B
  5
103D
331
100C
  5
100E
331
156C
  5
156E
331
1014
  5
1016
331
104B
  5
104D
331
101C
  5
101E
331
1053
  5
1055
331
1574
  5
1576
331
1024
  5
1026
331
1584
  5
1586
331
1034
  5
1036
331
158C
  5
158E
331
156D
  5
156F
331
1015
  5
1017
331
104C
  5
104E
331
101D
  5
1020
331
1054
  5
1056
331
1575
  5
1577
331
157D
  5
157F
331
1585
  5
1587
331
102D
  5
102F
331
158D
  5
158F
331
156E
  5
1570
331
1016
  5
1018
331
104D
  5
104F
331
101E
  5
1021
331
1055
  5
1057
331
1576
  5
1578
331
157E
  5
1580
331
1360
  5
13F2
331
15DD
  5
15F8
331
1586
  5
1588
331
1036
  5
1038
331
158E
  5
1590
331
1517
  5
156A
331
15BE
  5
15C0
331
156F
  5
1571
331
1017
  5
1019
331
104E
  5
1050
331
1056
  5
10E1
331
1577
  5
1579
331
157F
  5
1581
331
1587
  5
1589
331
102F
  5
1031
331
158F
  5
1591
331
103F
  5
1041
331
1047
  5
1049
331
15BF
  5
15D1
331
1570
  5
1572
331
104F
  5
1052
331
1578
  5
157A
331
1057
  5
10E2
331
1020
  5
1022
331
1580
  5
1582
331
1028
  5
102A
331
1588
  5
158A
331
1030
  5
1032
331
1590
  5
15A6
331
138A
  5
13F7
331
1569
  5
156B
331
1048
  5
104A
331
15C0
  5
15D2
331
1571
  5
1573
331
1050
  5
1053
331
1579
  5
157B
331
1581
  5
1583
331
1029
  5
102B
331
1589
  5
158B
331
1591
  5
15A8
331
156A
  5
156C
331
1049
  5
104B
331
1572
  5
1574
331
15D1
  5
15DD
331
157A
  5
157D
331
1582
  5
1584
331
102A
  5
102C
331
158A
  5
158C
331
13F3
  5
1431
331
103A
  5
103C
331
1042
  5
1044
331
156B
  5
156D
331
1013
  5
1015
331
104A
  5
104C
331
101B
  5
101D
331
1052
  5
1054
331
1573
  5
1575
331
15D2
  5
15EA
331
13B4
  5
142F
331
157B
  5
157E
331
1583
  5
1585
331
15EA
  5
15F9
  0
DIMASSOC
  5
1370
102
{ACAD_REACTORS
330
136F
102
}
330
136F
100
AcDbDimAssoc
330
1360
 90
        3
 70
     0
 71
     0
  1
AcDbOsnapPointRef
 72
    13
331
1050
 73
     0
 91
        0
 40
0.0
 10
0.0
 20
0.0
 30
2.000000000000000E+50
 75
     0
  1
AcDbOsnapPointRef
 72
    13
331
1057
 73
     0
 91
        0
 40
0.0
 10
0.0
 20
0.0
 30
2.000000000000000E+50
 75
     0
  0
DIMASSOC
  5
139A
102
{ACAD_REACTORS
330
1399
102
}
330
1399
100
AcDbDimAssoc
330
138A
 90
        3
 70
     0
 71
     0
  1
AcDbOsnapPointRef
 72
    13
331
103F
 73
     0
 91
        0
 40
0.0
 10
0.0
 20
0.0
 30
2.000000000000000E+50
 75
     0
  1
AcDbOsnapPointRef
 72
     1
331
103B
 73
     0
 91
        0
 40
0.0
 10
0.0
 20
0.0
 30
2.000000000000000E+50
 75
     0
  0
DIMASSOC
  5
13C2
102
{ACAD_REACTORS
330
13C1
102
}
330
13C1
100
AcDbDimAssoc
330
13B4
 90
        1
 70
     0
 71
     0
  1
AcDbOsnapPointRef
 72
     1
331
101D
 73
     0
 91
        0
 40
0.0
 10
0.0
 20
0.0
 30
2.000000000000000E+50
 75
     0
  0
LAYOUT
  5
22
102
{ACAD_XDICTIONARY
360
1BE9
102
}
102
{ACAD_REACTORS
330
1A
102
}
330
1A
100
AcDbPlotSettings
  1

  2
\\RD\EPSON Stylus C63 Series單色
  4
A4
  6

 40
3.757083177566528
 41
3.757076978683471
 42
3.757080078125
 43
3.757080078125
 44
209.9733276367187
 45
296.9683227539062
 46
0.0
 47
0.0
 48
0.0
 49
0.0
140
0.0
141
0.0
142
1.0
143
0.3405120737814363
 70
 11952
 72
     1
 73
     0
 74
     0
  7
單色出圖.ctb
 75
     0
147
2.936753428137963
148
-2047.07469463503
149
-1261.649717473083
100
AcDbLayout
  1
Model
 70
     1
 71
     0
 10
0.0
 20
0.0
 11
12.0
 21
9.0
 12
0.0
 22
0.0
 32
0.0
 14
0.0
 24
0.0
 34
0.0
 15
0.0
 25
0.0
 35
0.0
146
0.0
 13
0.0
 23
0.0
 33
0.0
 16
1.0
 26
0.0
 36
0.0
 17
0.0
 27
1.0
 37
0.0
 76
     0
330
1F
1001
ACAD_PSEXT
1000
\\RD\EPSON Stylus C63 Series單色
1000
EPSON Stylus C63 Series
1000
\\RD
1000

1070
     0
  0
LAYOUT
  5
1E
102
{ACAD_XDICTIONARY
360
1BE7
102
}
102
{ACAD_REACTORS
330
1A
102
}
330
1A
100
AcDbPlotSettings
  1

  2

  4

  6

 40
0.0
 41
0.0
 42
0.0
 43
0.0
 44
0.0
 45
0.0
 46
0.0
 47
0.0
 48
0.0
 49
0.0
140
0.0
141
0.0
142
1.0
143
1.0
 70
   688
 72
     0
 73
     0
 74
     5
  7
單色出圖.ctb
 75
    16
147
1.0
148
0.0
149
0.0
100
AcDbLayout
  1
配置1
 70
     1
 71
     1
 10
0.0
 20
0.0
 11
420.0
 21
297.0
 12
0.0
 22
0.0
 32
0.0
 14
1.000000000000000E+20
 24
1.000000000000000E+20
 34
1.000000000000000E+20
 15
-1.000000000000000E+20
 25
-1.000000000000000E+20
 35
-1.000000000000000E+20
146
0.0
 13
0.0
 23
0.0
 33
0.0
 16
1.0
 26
0.0
 36
0.0
 17
0.0
 27
1.0
 37
0.0
 76
     0
330
1B
  0
LAYOUT
  5
26
102
{ACAD_XDICTIONARY
360
1BEB
102
}
102
{ACAD_REACTORS
330
1A
102
}
330
1A
100
AcDbPlotSettings
  1

  2

  4

  6

 40
0.0
 41
0.0
 42
0.0
 43
0.0
 44
0.0
 45
0.0
 46
0.0
 47
0.0
 48
0.0
 49
0.0
140
0.0
141
0.0
142
1.0
143
1.0
 70
   688
 72
     0
 73
     0
 74
     5
  7
單色出圖.ctb
 75
    16
147
1.0
148
0.0
149
0.0
100
AcDbLayout
  1
配置2
 70
     1
 71
     2
 10
0.0
 20
0.0
 11
12.0
 21
9.0
 12
0.0
 22
0.0
 32
0.0
 14
0.0
 24
0.0
 34
0.0
 15
0.0
 25
0.0
 35
0.0
146
0.0
 13
0.0
 23
0.0
 33
0.0
 16
1.0
 26
0.0
 36
0.0
 17
0.0
 27
1.0
 37
0.0
 76
     0
330
23
  0
MLINESTYLE
  5
18
102
{ACAD_REACTORS
330
17
102
}
330
17
100
AcDbMlineStyle
  2
STANDARD
 70
     0
  3

 62
   256
 51
90.0
 52
90.0
 71
     2
 49
0.5
 62
   256
  6
BYLAYER
 49
-0.5
 62
   256
  6
BYLAYER
  0
ACDBPLACEHOLDER
  5
F
102
{ACAD_REACTORS
330
E
102
}
330
E
  0
TABLESTYLE
  5
11B
102
{ACAD_REACTORS
330
11A
102
}
330
11A
100
AcDbTableStyle
  3
Standard
 70
     0
 71
     0
 40
1.5
 41
1.5
280
     0
281
     0
  7
STANDARD
140
4.5
170
     2
 62
     0
 63
     7
283
     0
274
    -2
284
     1
 64
     0
275
    -2
285
     1
 65
     0
276
    -2
286
     1
 66
     0
277
    -2
287
     1
 67
     0
278
    -2
288
     1
 68
     0
279
    -2
289
     1
 69
     0
  7
STANDARD
140
6.0
170
     5
 62
     0
 63
     7
283
     0
274
    -2
284
     1
 64
     0
275
    -2
285
     1
 65
     0
276
    -2
286
     1
 66
     0
277
    -2
287
     1
 67
     0
278
    -2
288
     1
 68
     0
279
    -2
289
     1
 69
     0
  7
STANDARD
140
4.5
170
     5
 62
     0
 63
     7
283
     0
274
    -2
284
     1
 64
     0
275
    -2
285
     1
 65
     0
276
    -2
286
     1
 66
     0
277
    -2
287
     1
 67
     0
278
    -2
288
     1
 68
     0
279
    -2
289
     1
 69
     0
  0
DICTIONARYVAR
  5
138
102
{ACAD_REACTORS
330
94
102
}
330
94
100
DictionaryVariables
280
     0
  1
STANDARD
  0
DICTIONARYVAR
  5
96
102
{ACAD_REACTORS
330
94
102
}
330
94
100
DictionaryVariables
280
     0
  1
2
  0
DICTIONARYVAR
  5
95
102
{ACAD_REACTORS
330
94
102
}
330
94
100
DictionaryVariables
280
     0
  1
0
  0
DICTIONARYVAR
  5
1BE3
102
{ACAD_REACTORS
330
94
102
}
330
94
100
DictionaryVariables
280
     0
  1

  0
DICTIONARY
  5
1B5
102
{ACAD_REACTORS
330
5B
102
}
330
5B
100
AcDbDictionary
281
     1
  0
DICTIONARY
  5
61
102
{ACAD_REACTORS
330
5B
102
}
330
5B
100
AcDbDictionary
281
     1
  0
XRECORD
  5
123
102
{ACAD_REACTORS
330
5B
102
}
330
5B
100
AcDbXrecord
280
     1
 90
-1023410169
  0
DICTIONARY
  5
1BE9
330
22
100
AcDbDictionary
280
     1
281
     1
  3
ACAD_XREC_ROUNDTRIP
360
1BEA
  0
DICTIONARY
  5
1BE7
330
1E
100
AcDbDictionary
280
     1
281
     1
  3
ACAD_XREC_ROUNDTRIP
360
1BE8
  0
DICTIONARY
  5
1BEB
330
26
100
AcDbDictionary
280
     1
281
     1
  3
ACAD_XREC_ROUNDTRIP
360
1BEC
  0
XRECORD
  5
1BEA
102
{ACAD_REACTORS
330
1BE9
102
}
330
1BE9
100
AcDbXrecord
280
     1
102
SHADEPLOT
 70
     0
102
SHADEPLOTRESLEVEL
 70
     2
102
SHADEPLOTCUSTOMDPI
 70
   300
  0
XRECORD
  5
1BE8
102
{ACAD_REACTORS
330
1BE7
102
}
330
1BE7
100
AcDbXrecord
280
     1
102
SHADEPLOT
 70
     0
102
SHADEPLOTRESLEVEL
 70
     2
102
SHADEPLOTCUSTOMDPI
 70
   300
  0
XRECORD
  5
1BEC
102
{ACAD_REACTORS
330
1BEB
102
}
330
1BEB
100
AcDbXrecord
280
     1
102
SHADEPLOT
 70
     0
102
SHADEPLOTRESLEVEL
 70
     2
102
SHADEPLOTCUSTOMDPI
 70
   300
  0
ENDSEC
  0
EOF
