  0
SECTION
  2
HEADER
  9
$ACADVER
  1
AC1015
  9
$ACADMAINTVER
 70
    20
  9
$DWGCODEPAGE
  3
ANSI_950
  9
$INSBASE
 10
0.0
 20
0.0
 30
0.0
  9
$EXTMIN
 10
123.4185802231294
 20
283.8896417870699
 30
-0.0011183046508165
  9
$EXTMAX
 10
254.9249275435286
 20
454.8129969546148
 30
100.656333361931
  9
$LIMMIN
 10
0.0
 20
0.0
  9
$LIMMAX
 10
420.0
 20
297.0
  9
$ORTHOMODE
 70
     1
  9
$REGENMODE
 70
     1
  9
$FILLMODE
 70
     1
  9
$QTEXTMODE
 70
     0
  9
$MIRRTEXT
 70
     1
  9
$LTSCALE
 40
1.0
  9
$ATTMODE
 70
     1
  9
$TEXTSIZE
 40
3.0
  9
$TRACEWID
 40
1.0
  9
$TEXTSTYLE
  7
STANDARD
  9
$CLAYER
  8
0
  9
$CELTYPE
  6
ByLayer
  9
$CECOLOR
 62
   256
  9
$CELTSCALE
 40
1.0
  9
$DISPSILH
 70
     0
  9
$DIMSCALE
 40
1.0
  9
$DIMASZ
 40
3.0
  9
$DIMEXO
 40
1.0
  9
$DIMDLI
 40
8.0
  9
$DIMRND
 40
0.0
  9
$DIMDLE
 40
0.0
  9
$DIMEXE
 40
1.5
  9
$DIMTP
 40
0.1
  9
$DIMTM
 40
0.1
  9
$DIMTXT
 40
3.5
  9
$DIMCEN
 40
0.0
  9
$DIMTSZ
 40
0.0
  9
$DIMTOL
 70
     0
  9
$DIMLIM
 70
     0
  9
$DIMTIH
 70
     0
  9
$DIMTOH
 70
     0
  9
$DIMSE1
 70
     0
  9
$DIMSE2
 70
     0
  9
$DIMTAD
 70
     1
  9
$DIMZIN
 70
     8
  9
$DIMBLK
  1

  9
$DIMASO
 70
     1
  9
$DIMSHO
 70
     1
  9
$DIMPOST
  1

  9
$DIMAPOST
  1
"
  9
$DIMALT
 70
     0
  9
$DIMALTD
 70
     2
  9
$DIMALTF
 40
0.0393701
  9
$DIMLFAC
 40
1.0
  9
$DIMTOFL
 70
     1
  9
$DIMTVP
 40
0.0
  9
$DIMTIX
 70
     0
  9
$DIMSOXD
 70
     0
  9
$DIMSAH
 70
     0
  9
$DIMBLK1
  1

  9
$DIMBLK2
  1

  9
$DIMSTYLE
  2
AM_ISO
  9
$DIMCLRD
 70
   256
  9
$DIMCLRE
 70
   256
  9
$DIMCLRT
 70
   256
  9
$DIMTFAC
 40
0.6
  9
$DIMGAP
 40
0.7
  9
$DIMJUST
 70
     0
  9
$DIMSD1
 70
     0
  9
$DIMSD2
 70
     0
  9
$DIMTOLJ
 70
     0
  9
$DIMTZIN
 70
     8
  9
$DIMALTZ
 70
     0
  9
$DIMALTTZ
 70
     0
  9
$DIMUPT
 70
     0
  9
$DIMDEC
 70
     2
  9
$DIMTDEC
 70
     8
  9
$DIMALTU
 70
     2
  9
$DIMALTTD
 70
     2
  9
$DIMTXSTY
  7
STANDARD
  9
$DIMAUNIT
 70
     0
  9
$DIMADEC
 70
     0
  9
$DIMALTRND
 40
0.0
  9
$DIMAZIN
 70
     2
  9
$DIMDSEP
 70
    46
  9
$DIMATFIT
 70
     3
  9
$DIMFRAC
 70
     0
  9
$DIMLDRBLK
  1

  9
$DIMLUNIT
 70
     2
  9
$DIMLWD
 70
    -1
  9
$DIMLWE
 70
    -1
  9
$DIMTMOVE
 70
     0
  9
$LUNITS
 70
     2
  9
$LUPREC
 70
     2
  9
$SKETCHINC
 40
1.0
  9
$FILLETRAD
 40
2.5
  9
$AUNITS
 70
     0
  9
$AUPREC
 70
     0
  9
$MENU
  1
.
  9
$ELEVATION
 40
0.0
  9
$PELEVATION
 40
0.0
  9
$THICKNESS
 40
0.0
  9
$LIMCHECK
 70
     0
  9
$CHAMFERA
 40
2.5
  9
$CHAMFERB
 40
2.5
  9
$CHAMFERC
 40
20.0
  9
$CHAMFERD
 40
0.0
  9
$SKPOLY
 70
     0
  9
$TDCREATE
 40
2453965.689012037
  9
$TDUCREATE
 40
2453965.355678704
  9
$TDUPDATE
 40
2455322.495549236
  9
$TDUUPDATE
 40
2455322.162215903
  9
$TDINDWG
 40
0.0959736690
  9
$TDUSRTIMER
 40
0.0959736690
  9
$USRTIMER
 70
     1
  9
$ANGBASE
 50
0.0
  9
$ANGDIR
 70
     0
  9
$PDMODE
 70
     0
  9
$PDSIZE
 40
0.0
  9
$PLINEWID
 40
0.0
  9
$SPLFRAME
 70
     0
  9
$SPLINETYPE
 70
     6
  9
$SPLINESEGS
 70
     8
  9
$HANDSEED
  5
2AF9
  9
$SURFTAB1
 70
     6
  9
$SURFTAB2
 70
     6
  9
$SURFTYPE
 70
     6
  9
$SURFU
 70
     6
  9
$SURFV
 70
     6
  9
$UCSBASE
  2

  9
$UCSNAME
  2

  9
$UCSORG
 10
0.0
 20
0.0
 30
0.0
  9
$UCSXDIR
 10
1.0
 20
0.0
 30
0.0
  9
$UCSYDIR
 10
0.0
 20
1.0
 30
0.0
  9
$UCSORTHOREF
  2

  9
$UCSORTHOVIEW
 70
     0
  9
$UCSORGTOP
 10
0.0
 20
0.0
 30
0.0
  9
$UCSORGBOTTOM
 10
0.0
 20
0.0
 30
0.0
  9
$UCSORGLEFT
 10
0.0
 20
0.0
 30
0.0
  9
$UCSORGRIGHT
 10
0.0
 20
0.0
 30
0.0
  9
$UCSORGFRONT
 10
0.0
 20
0.0
 30
0.0
  9
$UCSORGBACK
 10
0.0
 20
0.0
 30
0.0
  9
$PUCSBASE
  2

  9
$PUCSNAME
  2

  9
$PUCSORG
 10
0.0
 20
0.0
 30
0.0
  9
$PUCSXDIR
 10
1.0
 20
0.0
 30
0.0
  9
$PUCSYDIR
 10
0.0
 20
1.0
 30
0.0
  9
$PUCSORTHOREF
  2

  9
$PUCSORTHOVIEW
 70
     0
  9
$PUCSORGTOP
 10
0.0
 20
0.0
 30
0.0
  9
$PUCSORGBOTTOM
 10
0.0
 20
0.0
 30
0.0
  9
$PUCSORGLEFT
 10
0.0
 20
0.0
 30
0.0
  9
$PUCSORGRIGHT
 10
0.0
 20
0.0
 30
0.0
  9
$PUCSORGFRONT
 10
0.0
 20
0.0
 30
0.0
  9
$PUCSORGBACK
 10
0.0
 20
0.0
 30
0.0
  9
$USERI1
 70
     0
  9
$USERI2
 70
     0
  9
$USERI3
 70
     0
  9
$USERI4
 70
     0
  9
$USERI5
 70
     0
  9
$USERR1
 40
0.0
  9
$USERR2
 40
0.0
  9
$USERR3
 40
0.0
  9
$USERR4
 40
0.0
  9
$USERR5
 40
0.0
  9
$WORLDVIEW
 70
     1
  9
$SHADEDGE
 70
     3
  9
$SHADEDIF
 70
    70
  9
$TILEMODE
 70
     1
  9
$MAXACTVP
 70
    64
  9
$PINSBASE
 10
0.0
 20
0.0
 30
0.0
  9
$PLIMCHECK
 70
     0
  9
$PEXTMIN
 10
1.000000000000000E+20
 20
1.000000000000000E+20
 30
1.000000000000000E+20
  9
$PEXTMAX
 10
-1.000000000000000E+20
 20
-1.000000000000000E+20
 30
-1.000000000000000E+20
  9
$PLIMMIN
 10
0.0
 20
0.0
  9
$PLIMMAX
 10
420.0
 20
297.0
  9
$UNITMODE
 70
     0
  9
$VISRETAIN
 70
     1
  9
$PLINEGEN
 70
     0
  9
$PSLTSCALE
 70
     1
  9
$TREEDEPTH
 70
  3020
  9
$CMLSTYLE
  2
Standard
  9
$CMLJUST
 70
     0
  9
$CMLSCALE
 40
20.0
  9
$PROXYGRAPHICS
 70
     1
  9
$MEASUREMENT
 70
     1
  9
$CELWEIGHT
370
    -1
  9
$ENDCAPS
280
     0
  9
$JOINSTYLE
280
     0
  9
$LWDISPLAY
290
     0
  9
$INSUNITS
 70
     4
  9
$HYPERLINKBASE
  1

  9
$STYLESHEET
  1
acad.ctb
  9
$XEDIT
290
     1
  9
$CEPSNTYPE
380
     0
  9
$PSTYLEMODE
290
     1
  9
$FINGERPRINTGUID
  2
{8012A336-B5C9-4CB1-A428-E581F243F217}
  9
$VERSIONGUID
  2
{F8C0BA7B-A186-4309-A7D4-9CE9D222ACA3}
  9
$EXTNAMES
290
     1
  9
$PSVPSCALE
 40
0.0
  9
$OLESTARTUP
290
     0
  0
ENDSEC
  0
SECTION
  2
CLASSES
  0
CLASS
  1
ACDBDICTIONARYWDFLT
  2
AcDbDictionaryWithDefault
  3
ObjectDBX Classes
 90
        0
280
     0
281
     0
  0
CLASS
  1
ACDBPLACEHOLDER
  2
AcDbPlaceHolder
  3
ObjectDBX Classes
 90
        0
280
     0
281
     0
  0
CLASS
  1
LAYOUT
  2
AcDbLayout
  3
ObjectDBX Classes
 90
        0
280
     0
281
     0
  0
CLASS
  1
ACME_DOCUMENT
  2
AcMeDbDoc
  3
AcMeServices
 90
        0
280
     0
281
     0
  0
CLASS
  1
AMGSETTINGSOBJ
  2
AmgSettingsObj
  3
"AcadM|Product Description: AutoCAD Mechanical 2000|Company: Autodesk"
 90
        0
280
     0
281
     0
  0
CLASS
  1
ACMESCOPE
  2
AcMeScope
  3
AcMeServices
 90
        0
280
     0
281
     0
  0
CLASS
  1
ACMECOMMANDHISTORY
  2
AcMeCommandHistory
  3
AcMeServices
 90
        0
280
     0
281
     0
  0
CLASS
  1
ACIMSYSVARMAN
  2
AcImSysVarManager
  3
AcMeServices
 90
        0
280
     0
281
     0
  0
CLASS
  1
ACIMREALSYSVAR
  2
AcImRealSysVar
  3
AcMeServices
 90
        0
280
     0
281
     0
  0
CLASS
  1
ACIMINTSYSVAR
  2
AcImIntSysVar
  3
AcMeServices
 90
        0
280
     0
281
     0
  0
CLASS
  1
ACMEDRAWINGMAN
  2
AcMeDrawingMan
  3
AcMeServices
 90
        0
280
     0
281
     0
  0
CLASS
  1
ACMEVIEW
  2
AcMeView
  3
AcMeServices
 90
        0
280
     0
281
     0
  0
CLASS
  1
ACDBENTITYCACHE
  2
AcMeEntityCache
  3
AcMeServices
 90
        0
280
     0
281
     0
  0
CLASS
  1
GSMANAGER
  2
AcMeGSManager
  3
AcMeServices
 90
        0
280
     0
281
     0
  0
CLASS
  1
AMDTINTERNALREACTOR
  2
AmdtInternalReactor
  3
AcMeServices
 90
        0
280
     0
281
     0
  0
CLASS
  1
ACMESTATEMGR
  2
AcMeStateMgr
  3
AcMeServices
 90
        0
280
     0
281
     0
  0
CLASS
  1
ACGREFMASTER
  2
AcGrefMaster
  3
AcAttribServices
 90
        0
280
     0
281
     0
  0
CLASS
  1
ACME_DATABASE
  2
AcMeDbDatabase
  3
AcMeServices
 90
        0
280
     0
281
     0
  0
CLASS
  1
ACRFINSADJUSTERMGR
  2
AcRfInsAdjusterMgr
  3
AcMeServices
 90
        0
280
     0
281
     0
  0
CLASS
  1
ACGREFACADMASTER
  2
AcGrefacadMaster
  3
AcGrefServices
 90
        0
280
     0
281
     0
  0
CLASS
  1
AMIMASTER
  2
AmiMaster
  3
AmiServices
 90
        0
280
     0
281
     0
  0
CLASS
  1
ACMDATADICTIONARY
  2
AcmDataDictionary
  3
"AcmSymBB|Product Description: AutoCAD Mechanical 2004 DX|Company: Autodesk"
 90
        0
280
     0
281
     0
  0
CLASS
  1
ACMDATAENTRYBLOCK
  2
AcmDataEntryBlock
  3
"AcmSymBB|Product Description: AutoCAD Mechanical 2004 DX|Company: Autodesk"
 90
        0
280
     0
281
     0
  0
CLASS
  1
ACIMSTRSYSVAR
  2
AcImStrSysVar
  3
AcMeServices
 90
        0
280
     0
281
     0
  0
CLASS
  1
ACMSTANDARDISO
  2
AcmStandardISO
  3
"Amdt_StdImp|Product Description: AutoCAD Mechanical 2004 DX|Company: Autodesk"
 90
        0
280
     0
281
     0
  0
CLASS
  1
AMGOBJPROPCFG
  2
AmgObjPropCfg
  3
"AmgLay|Product Description: AutoCAD Mechanical 2000|Company: Autodesk"
 90
        1
280
     0
281
     0
  0
CLASS
  1
AMDTEDGESTANDARDISO
  2
AmdtEdgeStdISO
  3
"Amdt_StdImp|Product Description: AutoCAD Mechanical 2004 DX|Company: Autodesk"
 90
    32768
280
     0
281
     0
  0
CLASS
  1
ACMSURFSTANDARDISO
  2
AcmSurfTextStdISO
  3
"Amdt_StdImp|Product Description: AutoCAD Mechanical 2004 DX|Company: Autodesk"
 90
        0
280
     0
281
     0
  0
CLASS
  1
ACMFCFSTANDARDISO
  2
AcmFCFStdISO
  3
"Amdt_StdImp|Product Description: AutoCAD Mechanical 2004 DX|Company: Autodesk"
 90
        0
280
     0
281
     0
  0
CLASS
  1
ACMWELDSTANDARDISO
  2
AcmWeldingStdISO
  3
"Amdt_StdImp|Product Description: AutoCAD Mechanical 2004 DX|Company: Autodesk"
 90
        0
280
     0
281
     0
  0
CLASS
  1
ACMIDSTANDARDISO
  2
AcmIdStdISO
  3
"Amdt_StdImp|Product Description: AutoCAD Mechanical 2004 DX|Company: Autodesk"
 90
        0
280
     0
281
     0
  0
CLASS
  1
ACMDATUMSTANDARDISO
  2
AcmDatumStdISO
  3
"Amdt_StdImp|Product Description: AutoCAD Mechanical 2004 DX|Company: Autodesk"
 90
        0
280
     0
281
     0
  0
CLASS
  1
ACMBOMSTANDARDISO
  2
AcmBOMStdISO
  3
"Amdt_StdImp|Product Description: AutoCAD Mechanical 2004 DX|Company: Autodesk"
 90
        0
280
     0
281
     0
  0
CLASS
  1
ACMDETAILSTANDARDISO
  2
AmdtDetailSymStdISO
  3
"Amdt_StdImp|Product Description: AutoCAD Mechanical 2004 DX|Company: Autodesk"
 90
        0
280
     0
281
     0
  0
CLASS
  1
ACMSECTIONSTANDARDISO
  2
AmdtSectionSymStdISO
  3
"Amdt_StdImp|Product Description: AutoCAD Mechanical 2004 DX|Company: Autodesk"
 90
        0
280
     0
281
     0
  0
CLASS
  1
ACMCENTERLINESTANDARDISO
  2
AmdtCenterLineStdISO
  3
"Amdt_StdImp|Product Description: AutoCAD Mechanical 2004 DX|Company: Autodesk"
 90
        0
280
     0
281
     0
  0
CLASS
  1
ACMNOTESTANDARDISO
  2
AmdtNoteStdISO
  3
"Amdt_StdImp|Product Description: AutoCAD Mechanical 2004 DX|Company: Autodesk"
 90
        0
280
     0
281
     0
  0
CLASS
  1
ACAMGLAYSTD
  2
AcAmgLayStd
  3
"AcAmgLayStd|Product Description: AutoCAD Mechanical 2000|Company: Autodesk"
 90
        0
280
     0
281
     0
  0
CLASS
  1
ACAMGDIMSTD
  2
AcAmgDimStd
  3
"AcAmgDimStd|Product Description: AutoCAD Mechanical 2000|Company: Autodesk"
 90
        0
280
     0
281
     0
  0
CLASS
  1
ACAMGHOLECHARTSTDISO
  2
AcAmgHoleChartStdISO
  3
ACMSYMBB_MODULE_NAME
 90
        0
280
     0
281
     0
  0
CLASS
  1
ACAMGTITLESTD
  2
AcAmgTitleStd
  3
"TITLEAPP"
 90
        0
280
     0
281
     0
  0
CLASS
  1
LAYER_INDEX
  2
AcDbLayerIndex
  3
ObjectDBX Classes
 90
        0
280
     0
281
     0
  0
CLASS
  1
IDBUFFER
  2
AcDbIdBuffer
  3
ObjectDBX Classes
 90
        0
280
     0
281
     0
  0
CLASS
  1
DICTIONARYVAR
  2
AcDbDictionaryVar
  3
ObjectDBX Classes
 90
        0
280
     0
281
     0
  0
CLASS
  1
AM_DRAWING_MGR
  2
AcDmDwgMgr
  3
AcMechDwgViewMgmt
 90
        0
280
     0
281
     0
  0
CLASS
  1
AM_DWG_DOCUMENT
  2
AcDmDwgDocument
  3
AcMechDwgViewMgmt
 90
        0
280
     0
281
     0
  0
CLASS
  1
AM_DWG_SHEET
  2
AcDmSheet
  3
AcMechDwgViewMgmt
 90
        0
280
     0
281
     0
  0
CLASS
  1
AM_VIEWDIMPARMAP
  2
AcDmViewDimParMap
  3
AcMechDwgViewMgmt
 90
        0
280
     0
281
     0
  0
CLASS
  1
AM_DWGMGR_NAME
  2
AcDmDwgMgrName
  3
AcMechDwgViewMgmt
 90
        0
280
     0
281
     0
  0
CLASS
  1
AMDTMENUSTATEMGR
  2
AmdtMenuStateMgr
  3
McadcomServices
 90
        0
280
     0
281
     0
  0
CLASS
  1
AMDTMCOMMENUSTATE
  2
AmdtMcomMenuState
  3
McadcomServices
 90
        0
280
     0
281
     0
  0
CLASS
  1
MAPIAMMOUDLE
  2
MApiAmModule
  3
MApiAmServices
 90
        0
280
     0
281
     0
  0
CLASS
  1
AMDTADMENUSTATE
  2
AmdtAdMenuState
  3
DesignerServices
 90
        0
280
     0
281
     0
  0
CLASS
  1
ADAPPL
  2
AcAdAppl
  3
DesignerServices
 90
        0
280
     0
281
     0
  0
CLASS
  1
DEPMGR
  2
AcAdDepMgr
  3
DesignerServices
 90
        0
280
     0
281
     0
  0
CLASS
  1
PARAMMGR
  2
AcAdParamMgr
  3
DesignerServices
 90
        0
280
     0
281
     0
  0
CLASS
  1
PARAMSCOPE
  2
AcAdParamScope
  3
DesignerServices
 90
        0
280
     0
281
     0
  0
CLASS
  1
NAMEDAPPL
  2
AcAdNamedAppl
  3
DesignerServices
 90
        0
280
     0
281
     0
  0
CLASS
  1
AMDTDMMENUSTATE
  2
AmdtDmMenuState
  3
AcMechDwgViewMgmt
 90
        0
280
     0
281
     0
  0
CLASS
  1
AMDTAMMENUSTATE
  2
AmdtAmMenuState
  3
DesignerAssemblies
 90
        0
280
     0
281
     0
  0
CLASS
  1
ACAMPROJECT
  2
AcAmProject
  3
DesignerAssemblies
 90
        0
280
     0
281
     0
  0
CLASS
  1
ACAMGRCOMPDEF
  2
AcAmGrCompDef
  3
DesignerAssemblies
 90
        0
280
     0
281
     0
  0
CLASS
  1
ACCMCONTEXT
  2
AcCmContext
  3
DesignerAssemblies
 90
        0
280
     0
281
     0
  0
CLASS
  1
ACAMCOMPDEF
  2
AcAmCompDef
  3
DesignerAssemblies
 90
        0
280
     0
281
     0
  0
CLASS
  1
ACAMCOMPDEFMGR
  2
AcAmCompDefMgr
  3
DesignerAssemblies
 90
        0
280
     0
281
     0
  0
CLASS
  1
AMCONTEXTMGR
  2
AcAmContextMgr
  3
DesignerAssemblies
 90
        0
280
     0
281
     0
  0
CLASS
  1
ACAMCONTEXTMODELER
  2
AcAmContextModeler
  3
DesignerAssemblies
 90
        0
280
     0
281
     0
  0
CLASS
  1
ACMTHREADLINESTANDARDISO
  2
AmdtThreadLineStdISO
  3
"Amdt_StdImp|Product Description: AutoCAD Mechanical 2004 DX|Company: Autodesk"
 90
        0
280
     0
281
     0
  0
CLASS
  1
CATALOGSTATE
  2
AcAmCatalogState
  3
DesignerAssemblies
 90
        0
280
     0
281
     0
  0
CLASS
  1
ACAMGRCOMPDEFSET
  2
AcAmGrCompDefSet
  3
DesignerAssemblies
 90
        0
280
     0
281
     0
  0
CLASS
  1
AMDTBROWSERDBTAB
  2
AmdtBrowserDbTab
  3
McadcomServices
 90
        0
280
     0
281
     0
  0
CLASS
  1
CBROWSERAPPOBJECT
  2
CBrowserAppObject
  3
McadcomServices
 90
        0
280
     0
281
     0
  0
CLASS
  1
DM_PLACEHOLDER
  2
AcDmSelsetPlaceholder
  3
AcMechDwgViewMgmt
 90
        0
280
     0
281
     0
  0
CLASS
  1
TABLESTYLE
  2
AcDbTableStyle
  3
ObjectDBX Classes
 90
     2047
280
     0
281
     0
  0
CLASS
  1
VAACXREFPANELOBJECT
  2
VaAcXREFPanelObject
  3
VAAC_ADDIN
 90
    32768
280
     0
281
     0
  0
CLASS
  1
VAACIMAGEINVENTORY
  2
VaAcImageInventory
  3
VAAC_ADDIN
 90
    32768
280
     0
281
     0
  0
CLASS
  1
AMDTNOTETEMPLATEDB
  2
AmdtNoteTemplateDB
  3
AMDT_STDIMP_MODULE_NAME
 90
        0
280
     0
281
     0
  0
CLASS
  1
ACMBOM
  2
AcmBom
  3
"AcmSymBB|Product Description: AutoCAD Mechanical 2004 DX|Company: Autodesk"
 90
    32768
280
     0
281
     0
  0
CLASS
  1
AMDTFORMULAUPDATEDISPATCHER
  2
AmdtFormulaUpdateDispatcher
  3
AcMeServices
 90
    32768
280
     0
281
     0
  0
CLASS
  1
ACMPARTLIST
  2
AcmPartList
  3
"AcmSymBB|Product Description: AutoCAD Mechanical 2004 DX|Company: Autodesk"
 90
    33791
280
     0
281
     1
  0
CLASS
  1
ACAMGFILTERDAT
  2
AcAmgFilterDat
  3
"AcadM|Product Description: AutoCAD Mechanical 2000|Company: Autodesk"
 90
    32768
280
     0
281
     0
  0
CLASS
  1
DIMASSOC
  2
AcDbDimAssoc
  3
"AcDbDimAssoc|Product Desc:     AcDim ARX App For Dimension|Company:          Autodesk, Inc.|WEB Address:      www.autodesk.com"
 90
        0
280
     0
281
     0
  0
CLASS
  1
SORTENTSTABLE
  2
AcDbSortentsTable
  3
ObjectDBX Classes
 90
        0
280
     0
281
     0
  0
CLASS
  1
STDPART2D
  2
AmgStdPart
  3
"AmgStdPart|Product Description: AutoCAD Mechanical 2000|Company: Autodesk"
 90
    33791
280
     0
281
     1
  0
CLASS
  1
ACAMSTDPCOMPDEF
  2
AcAmStdpCompDef
  3
DesignerAssemblies
 90
    32768
280
     0
281
     0
  0
CLASS
  1
ACRFATTGENMGR
  2
AcRfAttGeneralMgr
  3
AcAttribServices
 90
    32768
280
     0
281
     0
  0
CLASS
  1
ACRFOBJATTMGR
  2
AcRfObjAttGroupMgr
  3
AcAttribServices
 90
    32768
280
     0
281
     0
  0
CLASS
  1
ACRFMCADAPIATTHOLDER
  2
AcRfMCADAPIAttHolder
  3
AcAttribServices
 90
    32768
280
     0
281
     0
  0
CLASS
  1
AMDTSYSATTR
  2
AmdtSystemAttribute
  3
AcAttribServices
 90
    32768
280
     0
281
     0
  0
CLASS
  1
ACAMCOMP
  2
AcAmComp
  3
DesignerAssemblies
 90
    32768
280
     0
281
     0
  0
CLASS
  1
AC_AM_STDP_VIEW_DEF
  2
AcAmStdpViewDef
  3
DesignerAssemblies
 90
    32768
280
     0
281
     0
  0
CLASS
  1
AC_AM_MVD_DEP_MGR
  2
AcAmMVDdepMgr
  3
DesignerAssemblies
 90
    32768
280
     0
281
     0
  0
CLASS
  1
AC_AM_MASTER_VIEW_DEF
  2
AcAmMasterViewDef
  3
DesignerAssemblies
 90
    32768
280
     0
281
     0
  0
CLASS
  1
AC_AM_DIRTY_NODES
  2
AcAmDirtyNodes
  3
DesignerAssemblies
 90
    32768
280
     0
281
     0
  0
CLASS
  1
AC_AM_MAPPER_CACHE
  2
AcAmMapperCache
  3
DesignerAssemblies
 90
    32768
280
     0
281
     0
  0
CLASS
  1
ACAMMVDBACKUPOBJECT
  2
AcAmMVDBackupObject
  3
DesignerAssemblies
 90
    32768
280
     0
281
     0
  0
CLASS
  1
AC_AM_COMP_VIEW_INST
  2
AcAmCompView
  3
DesignerAssemblies
 90
    32768
280
     0
281
     0
  0
CLASS
  1
AC_AM_2D_XREF_MGR
  2
AcAmXrefMgr2d
  3
DesignerAssemblies
 90
    32768
280
     0
281
     0
  0
CLASS
  1
AMDTEDGESTANDARDISO13715
  2
AmdtEdgeStdISO13715
  3
"Amdt_StdImp|Product Description: AutoCAD Mechanical 2004 DX|Company: Autodesk"
 90
        0
280
     0
281
     0
  0
CLASS
  1
ASAPP
  2
AcAsAppObject
  3
AutoSurfServices
 90
        0
280
     0
281
     0
  0
CLASS
  1
IM_STATIC_MAN
  2
AcImStaticVarManager
  3
AcMeServices
 90
        0
280
     0
281
     0
  0
CLASS
  1
ACIMDBLSTATICVAR
  2
AcImDblStaticVar
  3
AcMeServices
 90
        0
280
     0
281
     0
  0
CLASS
  1
ACIMSTRSTATICVAR
  2
AcImStrStaticVar
  3
AcMeServices
 90
        0
280
     0
281
     0
  0
CLASS
  1
ACIMINTSTATICVAR
  2
AcImIntStaticVar
  3
AcMeServices
 90
        0
280
     0
281
     0
  0
CLASS
  1
ACASGREFMASTER
  2
AcAsGrefMaster
  3
AutoSurfResolverServices
 90
        0
280
     0
281
     0
  0
CLASS
  1
ACADGREFMODULE
  2
AcAdGrefModule
  3
AdGrefServices
 90
        0
280
     0
281
     0
  0
CLASS
  1
AMDTMAPISURFMOUDULE
  2
AmdtMApiSurfModule
  3
MApiSurfServices
 90
        0
280
     0
281
     0
  0
CLASS
  1
MAPIADMODULE
  2
MApiAdModule
  3
MApiAdServices
 90
        0
280
     0
281
     0
  0
ENDSEC
  0
SECTION
  2
TABLES
  0
TABLE
  2
VPORT
  5
8
330
0
100
AcDbSymbolTable
 70
    12
  0
VPORT
  5
2AD8
330
8
100
AcDbSymbolTableRecord
100
AcDbViewportTableRecord
  2
*Active
 70
     0
 10
0.0
 20
0.0
 11
1.0
 21
1.0
 12
-4.069519047706247
 22
1.664748581683625
 13
0.0
 23
0.0
 14
2.5
 24
2.5
 15
10.0
 25
10.0
 16
0.0
 26
0.0
 36
1.0
 17
193.2412729310352
 27
367.6865707891587
 37
0.0
 40
172.3759615853994
 41
0.9815602836879431
 42
50.0
 43
0.0
 44
0.0
 50
0.0
 51
0.0
 71
     0
 72
   100
 73
     1
 74
     3
 75
     0
 76
     0
 77
     0
 78
     0
281
     0
 65
     0
110
0.0
120
0.0
130
0.0
111
1.0
121
0.0
131
0.0
112
0.0
122
1.0
132
0.0
 79
     0
146
0.0
  0
ENDTAB
  0
TABLE
  2
LTYPE
  5
5
330
0
100
AcDbSymbolTable
 70
    17
  0
LTYPE
  5
14
330
5
100
AcDbSymbolTableRecord
100
AcDbLinetypeTableRecord
  2
ByBlock
 70
     0
  3

 72
    65
 73
     0
 40
0.0
  0
LTYPE
  5
15
330
5
100
AcDbSymbolTableRecord
100
AcDbLinetypeTableRecord
  2
ByLayer
 70
     0
  3

 72
    65
 73
     0
 40
0.0
  0
LTYPE
  5
16
330
5
100
AcDbSymbolTableRecord
100
AcDbLinetypeTableRecord
  2
Continuous
 70
     0
  3
Solid line
 72
    65
 73
     0
 40
0.0
  0
LTYPE
  5
64
330
5
100
AcDbSymbolTableRecord
100
AcDbLinetypeTableRecord
  2
AM_ISO02W050
 70
     0
  3
__ __ __ __ __ __ __ __ __ __ __ __ __ __ __
 72
    65
 73
     2
 40
7.5
 49
6.0
 74
     0
 49
-1.5
 74
     0
  0
LTYPE
  5
65
330
5
100
AcDbSymbolTableRecord
100
AcDbLinetypeTableRecord
  2
AM_ISO08W050
 70
     0
  3
____ . ____ . ____ . ____ . ____ . ____ . ____
 72
    65
 73
     4
 40
18.0
 49
12.0
 74
     0
 49
-1.5
 74
     0
 49
3.0
 74
     0
 49
-1.5
 74
     0
  0
LTYPE
  5
66
330
5
100
AcDbSymbolTableRecord
100
AcDbLinetypeTableRecord
  2
AM_ISO09W050
 70
     0
  3
_____ . . _____ . . _____ . . ____ .. ____
 72
    65
 73
     6
 40
22.5
 49
12.0
 74
     0
 49
-1.5
 74
     0
 49
3.0
 74
     0
 49
-1.5
 74
     0
 49
3.0
 74
     0
 49
-1.5
 74
     0
  0
LTYPE
  5
67
330
5
100
AcDbSymbolTableRecord
100
AcDbLinetypeTableRecord
  2
Amconstr
 70
     0
  3
_______________________
 72
    65
 73
     2
 40
9999.0
 49
9999.0
 74
     0
 49
0.0
 74
     0
  0
LTYPE
  5
68
330
5
100
AcDbSymbolTableRecord
100
AcDbLinetypeTableRecord
  2
AM_ISO08W050x2
 70
     0
  3
__ . __ . __ . __ . __ . __
 72
    65
 73
     4
 40
9.0
 49
6.0
 74
     0
 49
-0.75
 74
     0
 49
1.5
 74
     0
 49
-0.75
 74
     0
  0
LTYPE
  5
69
330
5
100
AcDbSymbolTableRecord
100
AcDbLinetypeTableRecord
  2
AM_ISO02W050x2
 70
     0
  3
 _ _ _ _ _ _ _ _ _ _ _ _
 72
    65
 73
     2
 40
3.75
 49
3.0
 74
     0
 49
-0.75
 74
     0
  0
LTYPE
  5
6C
330
5
100
AcDbSymbolTableRecord
100
AcDbLinetypeTableRecord
  2
Amzigzag
 70
     0
  3
/\/-/\/-/\/-/\/-/\/-/\/
 72
    65
 73
     2
 40
11.0001
 49
0.0001
 74
     4
 75
   135
340
6B
 46
0.04
 50
0.0
 44
0.0
 45
0.0
 49
-11.0
 74
     0
  0
LTYPE
  5
7A
330
5
100
AcDbSymbolTableRecord
100
AcDbLinetypeTableRecord
  2
ACISOWELD
 70
     0
  3
_ _ _ _ _
 72
    65
 73
     2
 40
2.0
 49
2.0
 74
     0
 49
-1.0
 74
     0
  0
LTYPE
  5
7B
330
5
100
AcDbSymbolTableRecord
100
AcDbLinetypeTableRecord
  2
ACISOTGB
 70
     0
  3
__ . . __ . .
 72
    65
 73
     6
 40
9.0
 49
4.0
 74
     0
 49
-1.0
 74
     0
 49
1.0
 74
     0
 49
-1.0
 74
     0
 49
1.0
 74
     0
 49
-1.0
 74
     0
  0
LTYPE
  5
7C
330
5
100
AcDbSymbolTableRecord
100
AcDbLinetypeTableRecord
  2
ACISOTGL
 70
     0
  3
_ _ _ _ _
 72
    65
 73
     2
 40
3.0
 49
2.0
 74
     0
 49
-1.0
 74
     0
  0
LTYPE
  5
7E
330
5
100
AcDbSymbolTableRecord
100
AcDbLinetypeTableRecord
  2
CENTER
 70
     0
  3
__ . __
 72
    65
 73
     4
 40
7.0
 49
4.0
 74
     0
 49
-1.0
 74
     0
 49
1.0
 74
     0
 49
-1.0
 74
     0
  0
LTYPE
  5
D8
330
5
100
AcDbSymbolTableRecord
100
AcDbLinetypeTableRecord
  2
HIDDEN
 70
     0
  3
Hidden __ __ __ __ __ __ __ __ __ __ __ __ __ _
 72
    65
 73
     2
 40
9.524999999999998
 49
6.349999999999999
 74
     0
 49
-3.174999999999999
 74
     0
  0
LTYPE
  5
D9
330
5
100
AcDbSymbolTableRecord
100
AcDbLinetypeTableRecord
  2
PHANTOM2
 70
     0
  3
Phantom (.5x) ___ _ _ ___ _ _ ___ _ _ ___ _ _
 72
    65
 73
     6
 40
31.75
 49
15.875
 74
     0
 49
-3.174999999999999
 74
     0
 49
3.174999999999999
 74
     0
 49
-3.174999999999999
 74
     0
 49
3.174999999999999
 74
     0
 49
-3.174999999999999
 74
     0
  0
ENDTAB
  0
TABLE
  2
LAYER
  5
2
102
{ACAD_XDICTIONARY
360
3F9
102
}
330
0
100
AcDbSymbolTable
 70
     7
  0
LAYER
  5
10
330
2
100
AcDbSymbolTableRecord
100
AcDbLayerTableRecord
  2
0
 70
     0
 62
     7
  6
Continuous
370
    -3
390
F
  0
LAYER
  5
B0C
330
2
100
AcDbSymbolTableRecord
100
AcDbLayerTableRecord
  2
AM_5
 70
     0
 62
     5
  6
Continuous
370
    50
390
F
  0
LAYER
  5
B0D
330
2
100
AcDbSymbolTableRecord
100
AcDbLayerTableRecord
  2
Defpoints
 70
     0
 62
     7
  6
Continuous
290
     0
370
    -3
390
F
  0
LAYER
  5
1774
330
2
100
AcDbSymbolTableRecord
100
AcDbLayerTableRecord
  2
LOGO
 70
     0
 62
     7
  6
Continuous
370
    -3
390
F
  0
LAYER
  5
2558
330
2
100
AcDbSymbolTableRecord
100
AcDbLayerTableRecord
  2
AM_VIS
 70
     0
 62
     7
  6
Continuous
370
    50
390
F
  0
ENDTAB
  0
TABLE
  2
STYLE
  5
3
330
0
100
AcDbSymbolTable
 70
     7
  0
STYLE
  5
11
330
3
100
AcDbSymbolTableRecord
100
AcDbTextStyleTableRecord
  2
STANDARD
 70
     0
 40
0.0
 41
1.0
 50
0.0
 71
     0
 42
3.0
  3
ISOCP.SHX
  4
CHINESET.SHX
  0
STYLE
  5
6B
330
3
100
AcDbSymbolTableRecord
100
AcDbTextStyleTableRecord
  2

 70
     1
 40
0.0
 41
1.0
 50
0.0
 71
     0
 42
2.5
  3
ltypeshp.shx
  4

  0
STYLE
  5
6D
330
3
100
AcDbSymbolTableRecord
100
AcDbTextStyleTableRecord
  2
ACISOTS
 70
     0
 40
1.0
 41
1.0
 50
0.0
 71
     0
 42
1.0
  3
isocp.shx
  4
chineset.shx
  0
STYLE
  5
79
330
3
100
AcDbSymbolTableRecord
100
AcDbTextStyleTableRecord
  2
ACISOGDT
 70
     0
 40
0.0
 41
1.0
 50
0.0
 71
     0
 42
2.5
  3
amgdt.shx
  4
chineset.shx
  0
STYLE
  5
F5C
330
3
100
AcDbSymbolTableRecord
100
AcDbTextStyleTableRecord
  2
CHINESET
 70
     0
 40
0.0
 41
1.0
 50
0.0
 71
     0
 42
2.5
  3
simplex.shx
  4
chineset.shx
  0
ENDTAB
  0
TABLE
  2
VIEW
  5
6
330
0
100
AcDbSymbolTable
 70
     0
  0
ENDTAB
  0
TABLE
  2
UCS
  5
7
330
0
100
AcDbSymbolTable
 70
     0
  0
ENDTAB
  0
TABLE
  2
APPID
  5
9
330
0
100
AcDbSymbolTable
 70
    32
  0
APPID
  5
12
330
9
100
AcDbSymbolTableRecord
100
AcDbRegAppTableRecord
  2
ACAD
 70
     0
  0
APPID
  5
46
330
9
100
AcDbSymbolTableRecord
100
AcDbRegAppTableRecord
  2
MCAD_NO_VIS
 70
     0
  0
APPID
  5
47
330
9
100
AcDbSymbolTableRecord
100
AcDbRegAppTableRecord
  2
ACAD_TEMP_GRAPHIC
 70
     0
  0
APPID
  5
58
330
9
100
AcDbSymbolTableRecord
100
AcDbRegAppTableRecord
  2
ACATTRIBSERVICES
 70
     0
  0
APPID
  5
EE
330
9
100
AcDbSymbolTableRecord
100
AcDbRegAppTableRecord
  2
AD_DRAW
 70
     0
  0
APPID
  5
10C
330
9
100
AcDbSymbolTableRecord
100
AcDbRegAppTableRecord
  2
DESIGNERASSEMBLIES
 70
     0
  0
APPID
  5
111
330
9
100
AcDbSymbolTableRecord
100
AcDbRegAppTableRecord
  2
ACADM_DIM_EDIT
 70
     0
  0
APPID
  5
112
330
9
100
AcDbSymbolTableRecord
100
AcDbRegAppTableRecord
  2
AMDT_DM_ADJ
 70
     0
  0
APPID
  5
22C
330
9
100
AcDbSymbolTableRecord
100
AcDbRegAppTableRecord
  2
ACAD_DSTYLE_DIMTEXT_FILL
 70
     0
  0
APPID
  5
452
330
9
100
AcDbSymbolTableRecord
100
AcDbRegAppTableRecord
  2
GENIUS_GENOENT_13
 70
     0
  0
APPID
  5
453
330
9
100
AcDbSymbolTableRecord
100
AcDbRegAppTableRecord
  2
GENIUS_GENOBJ-N-CRS_13
 70
     0
  0
APPID
  5
454
330
9
100
AcDbSymbolTableRecord
100
AcDbRegAppTableRecord
  2
GENIUS_GENOLIS_13
 70
     0
  0
APPID
  5
455
330
9
100
AcDbSymbolTableRecord
100
AcDbRegAppTableRecord
  2
GENIUS_GENODEF_13
 70
     0
  0
APPID
  5
456
330
9
100
AcDbSymbolTableRecord
100
AcDbRegAppTableRecord
  2
GENIUS_GENOREF_13
 70
     0
  0
APPID
  5
6F3
330
9
100
AcDbSymbolTableRecord
100
AcDbRegAppTableRecord
  2
ACAD_PSEXT
 70
     0
  0
APPID
  5
808
330
9
100
AcDbSymbolTableRecord
100
AcDbRegAppTableRecord
  2
GENIUS_GENDTOL_13
 70
     0
  0
APPID
  5
B11
330
9
100
AcDbSymbolTableRecord
100
AcDbRegAppTableRecord
  2
GENIUS_GENOBJ-N-CEN_13
 70
     0
  0
APPID
  5
B12
330
9
100
AcDbSymbolTableRecord
100
AcDbRegAppTableRecord
  2
GENIUS_GENCEN_19
 70
     0
  0
APPID
  5
166E
330
9
100
AcDbSymbolTableRecord
100
AcDbRegAppTableRecord
  2
GEVID1155862074
 70
     0
  0
APPID
  5
166F
330
9
100
AcDbSymbolTableRecord
100
AcDbRegAppTableRecord
  2
GEVDC
 70
     0
  0
APPID
  5
1686
330
9
100
AcDbSymbolTableRecord
100
AcDbRegAppTableRecord
  2
AMG_2DHIDE
 70
     0
  0
APPID
  5
1687
330
9
100
AcDbSymbolTableRecord
100
AcDbRegAppTableRecord
  2
AMG_2DSTRUCT_BTR
 70
     0
  0
APPID
  5
1698
330
9
100
AcDbSymbolTableRecord
100
AcDbRegAppTableRecord
  2
ACADM_2DVIEW_IGN_NOTIFY
 70
     0
  0
APPID
  5
16CC
330
9
100
AcDbSymbolTableRecord
100
AcDbRegAppTableRecord
  2
GEVID1155862075
 70
     0
  0
APPID
  5
16CD
330
9
100
AcDbSymbolTableRecord
100
AcDbRegAppTableRecord
  2
GEVRADREF
 70
     0
  0
APPID
  5
1775
330
9
100
AcDbSymbolTableRecord
100
AcDbRegAppTableRecord
  2
GENIUS_GENREC_14
 70
     0
  0
APPID
  5
1776
330
9
100
AcDbSymbolTableRecord
100
AcDbRegAppTableRecord
  2
GENIUS_GENOBJ-N-REC_13
 70
     0
  0
APPID
  5
1CDE
330
9
100
AcDbSymbolTableRecord
100
AcDbRegAppTableRecord
  2
AcAecLayerStandard
 70
     0
  0
APPID
  5
23E5
330
9
100
AcDbSymbolTableRecord
100
AcDbRegAppTableRecord
  2
GENIUS_GENDIM_13
 70
     0
  0
APPID
  5
23E6
330
9
100
AcDbSymbolTableRecord
100
AcDbRegAppTableRecord
  2
GENIUS_GE3DTOL_13
 70
     0
  0
APPID
  5
2466
330
9
100
AcDbSymbolTableRecord
100
AcDbRegAppTableRecord
  2
ASURF_PCURVE_APPNAME
 70
     0
  0
APPID
  5
246B
330
9
100
AcDbSymbolTableRecord
100
AcDbRegAppTableRecord
  2
AMG_3D2D_5.0
 70
     0
  0
ENDTAB
  0
TABLE
  2
DIMSTYLE
  5
A
330
0
100
AcDbSymbolTable
 70
     8
100
AcDbDimStyleTable
 71
     3
340
81
340
8B
340
86
  0
DIMSTYLE
105
81
330
A
100
AcDbSymbolTableRecord
100
AcDbDimStyleTableRecord
  2
AM_ISO
 70
     0
  4
"
 41
3.0
 42
1.0
 43
8.0
 44
1.5
 47
0.1
 48
0.1
 73
     0
 74
     0
 77
     1
 78
     8
 79
     2
140
3.5
141
0.0
143
0.0393701
146
0.6
147
0.7
172
     1
176
   256
177
   256
178
   256
271
     2
272
     2
283
     0
284
     8
340
11
371
    -1
372
    -1
  0
DIMSTYLE
105
82
330
A
100
AcDbSymbolTableRecord
100
AcDbDimStyleTableRecord
  2
AM_ISO$3
 70
     0
  4
"
 41
3.0
 42
1.0
 43
8.0
 44
1.5
 47
0.1
 48
0.1
 73
     0
 77
     1
 78
     8
 79
     2
140
3.5
141
0.0
143
0.0393701
146
0.6
147
0.7
176
   256
177
   256
178
   256
271
     2
272
     2
283
     0
284
     8
288
     1
289
     0
340
11
371
    -1
372
    -1
  0
DIMSTYLE
105
83
330
A
100
AcDbSymbolTableRecord
100
AcDbDimStyleTableRecord
  2
AM_ISO$4
 70
     0
  4
"
 41
3.0
 42
1.0
 43
8.0
 44
1.5
 47
0.1
 48
0.1
 73
     0
 77
     1
 78
     8
 79
     2
140
3.5
141
0.0
143
0.0393701
146
0.6
147
0.7
176
   256
177
   256
178
   256
271
     2
272
     2
283
     0
284
     8
288
     1
289
     0
340
11
371
    -1
372
    -1
  0
DIMSTYLE
105
84
330
A
100
AcDbSymbolTableRecord
100
AcDbDimStyleTableRecord
  2
AM_ISO$6
 70
     0
  4
"
 41
3.0
 42
1.0
 43
8.0
 44
1.5
 47
0.1
 48
0.1
 73
     0
 74
     0
 78
     8
 79
     2
140
3.5
141
0.0
143
0.0393701
146
0.6
147
0.7
172
     1
176
   256
177
   256
178
   256
271
     2
272
     2
283
     0
284
     8
340
11
371
    -1
372
    -1
  0
DIMSTYLE
105
85
330
A
100
AcDbSymbolTableRecord
100
AcDbDimStyleTableRecord
  2
AM_ISO$7
 70
     0
  4
"
 41
3.0
 42
1.0
 43
8.0
 44
1.5
 47
0.1
 48
0.1
 73
     0
 74
     0
 77
     1
 78
     8
 79
     2
140
5.0
141
0.0
143
0.0393701
146
0.6
147
0.7
172
     1
176
   256
177
   256
178
   256
271
     2
272
     2
283
     0
284
     8
340
11
371
    -1
372
    -1
  0
DIMSTYLE
105
86
330
A
100
AcDbSymbolTableRecord
100
AcDbDimStyleTableRecord
  2
AM_ISO$SF
 70
     0
  4
"
 41
2.5
 42
1.0
 43
10.0
 44
1.0
 47
0.1
 48
0.1
 73
     0
 74
     0
 75
     1
 76
     1
 77
     1
 78
     8
 79
     2
140
3.5
141
0.0
143
0.0393701
146
0.71
147
1.5
172
     1
176
   256
177
   256
178
     2
271
     2
272
     3
274
     4
283
     0
284
     8
340
11
371
    -1
372
    -1
  0
DIMSTYLE
105
8B
330
A
100
AcDbSymbolTableRecord
100
AcDbDimStyleTableRecord
  2
AM_ISO$SH
 70
     0
  4
"
 41
2.5
 42
1.0
 43
10.0
 44
1.0
 47
0.1
 48
0.1
 73
     0
 74
     0
 75
     1
 76
     1
 77
     1
 78
     8
 79
     2
140
3.5
141
0.0
143
0.0393701
144
2.0
146
0.71
147
1.5
172
     1
173
     1
176
   256
177
   256
178
     2
271
     2
272
     3
274
     4
283
     0
284
     8
340
11
343
87
371
    -1
372
    -1
  0
DIMSTYLE
105
40B
102
{ACAD_REACTORS
330
26E9
330
26EC
330
26EF
330
26F2
330
26F5
330
2722
330
27A7
330
27AA
330
27AD
330
27B0
330
27B3
330
27B6
102
}
330
A
100
AcDbSymbolTableRecord
100
AcDbDimStyleTableRecord
  2
AM_ISO$0
 70
     0
  4
"
 41
3.0
 42
1.0
 43
8.0
 44
1.5
 47
0.1
 48
0.1
 73
     0
 74
     0
 77
     1
 78
     8
 79
     2
140
3.5
141
0.0
143
0.0393701
146
0.6
147
0.7
172
     1
176
   256
177
   256
178
   256
271
     2
272
     2
283
     0
284
     8
340
11
371
    -1
372
    -1
  0
ENDTAB
  0
TABLE
  2
BLOCK_RECORD
  5
1
330
0
100
AcDbSymbolTable
 70
    37
  0
BLOCK_RECORD
  5
1F
102
{ACAD_XDICTIONARY
360
8F
102
}
330
1
100
AcDbSymbolTableRecord
100
AcDbBlockTableRecord
  2
*Model_Space
340
22
  0
BLOCK_RECORD
  5
1B
330
1
100
AcDbSymbolTableRecord
100
AcDbBlockTableRecord
  2
*Paper_Space
340
1E
  0
BLOCK_RECORD
  5
23
330
1
100
AcDbSymbolTableRecord
100
AcDbBlockTableRecord
  2
*Paper_Space0
340
26
  0
BLOCK_RECORD
  5
87
330
1
100
AcDbSymbolTableRecord
100
AcDbBlockTableRecord
  2
GENAXEH
340
0
  0
BLOCK_RECORD
  5
27BD
330
1
100
AcDbSymbolTableRecord
100
AcDbBlockTableRecord
  2
*D24
340
0
  0
BLOCK_RECORD
  5
27CB
330
1
100
AcDbSymbolTableRecord
100
AcDbBlockTableRecord
  2
*D25
340
0
  0
BLOCK_RECORD
  5
27D9
330
1
100
AcDbSymbolTableRecord
100
AcDbBlockTableRecord
  2
*D26
340
0
  0
BLOCK_RECORD
  5
27E7
330
1
100
AcDbSymbolTableRecord
100
AcDbBlockTableRecord
  2
*D27
340
0
  0
BLOCK_RECORD
  5
27F3
330
1
100
AcDbSymbolTableRecord
100
AcDbBlockTableRecord
  2
*D28
340
0
  0
BLOCK_RECORD
  5
27FF
330
1
100
AcDbSymbolTableRecord
100
AcDbBlockTableRecord
  2
*D29
340
0
  0
BLOCK_RECORD
  5
280B
330
1
100
AcDbSymbolTableRecord
100
AcDbBlockTableRecord
  2
*D30
340
0
  0
BLOCK_RECORD
  5
2817
330
1
100
AcDbSymbolTableRecord
100
AcDbBlockTableRecord
  2
*D31
340
0
  0
BLOCK_RECORD
  5
2823
330
1
100
AcDbSymbolTableRecord
100
AcDbBlockTableRecord
  2
*D32
340
0
  0
BLOCK_RECORD
  5
2831
330
1
100
AcDbSymbolTableRecord
100
AcDbBlockTableRecord
  2
*D33
340
0
  0
BLOCK_RECORD
  5
283F
330
1
100
AcDbSymbolTableRecord
100
AcDbBlockTableRecord
  2
*D34
340
0
  0
BLOCK_RECORD
  5
284B
330
1
100
AcDbSymbolTableRecord
100
AcDbBlockTableRecord
  2
*D35
340
0
  0
ENDTAB
  0
ENDSEC
  0
SECTION
  2
BLOCKS
  0
BLOCK
  5
20
330
1F
100
AcDbEntity
  8
0
100
AcDbBlockBegin
  2
*Model_Space
 70
     0
 10
0.0
 20
0.0
 30
0.0
  3
*Model_Space
  1

  0
ENDBLK
  5
21
330
1F
100
AcDbEntity
  8
0
100
AcDbBlockEnd
  0
BLOCK
  5
1C
330
1B
100
AcDbEntity
 67
     1
  8
0
100
AcDbBlockBegin
  2
*Paper_Space
 70
     0
 10
0.0
 20
0.0
 30
0.0
  3
*Paper_Space
  1

  0
ENDBLK
  5
1D
330
1B
100
AcDbEntity
 67
     1
  8
0
100
AcDbBlockEnd
  0
BLOCK
  5
24
330
23
100
AcDbEntity
  8
0
100
AcDbBlockBegin
  2
*Paper_Space0
 70
     0
 10
0.0
 20
0.0
 30
0.0
  3
*Paper_Space0
  1

  0
ENDBLK
  5
25
330
23
100
AcDbEntity
  8
0
100
AcDbBlockEnd
  0
BLOCK
  5
89
330
87
100
AcDbEntity
  8
0
100
AcDbBlockBegin
  2
GENAXEH
 70
     0
 10
0.0
 20
0.0
 30
0.0
  3
GENAXEH
  1

  0
LINE
  5
88
330
87
100
AcDbEntity
  8
0
100
AcDbLine
 10
-1.0
 20
0.0
 30
0.0
 11
1.0
 21
0.0
 31
0.0
  0
ENDBLK
  5
8A
330
87
100
AcDbEntity
  8
0
100
AcDbBlockEnd
  0
BLOCK
  5
27C9
330
27BD
100
AcDbEntity
  8
0
100
AcDbBlockBegin
  2
*D24
 70
     1
 10
0.0
 20
0.0
 30
0.0
  3
*D24
  1

  0
LINE
  5
2A5A
330
27BD
100
AcDbEntity
  8
AM_5
100
AcDbLine
 10
154.7705319331265
 20
402.2615714573764
 30
0.0
 11
149.8625936940058
 21
402.2615714573764
 31
0.0
  0
LINE
  5
2A5B
330
27BD
100
AcDbEntity
  8
AM_5
100
AcDbLine
 10
156.2052181083485
 20
397.6615714573765
 30
0.0
 11
149.8625936940058
 21
397.6615714573765
 31
0.0
  0
LINE
  5
2A5C
330
27BD
100
AcDbEntity
  8
AM_5
100
AcDbLine
 10
150.6125936940058
 20
404.2615714573765
 30
0.0
 11
150.6125936940058
 21
406.2615714573764
 31
0.0
  0
LINE
  5
2A5D
330
27BD
100
AcDbEntity
  8
AM_5
100
AcDbLine
 10
150.6125936940058
 20
395.6615714573765
 30
0.0
 11
150.6125936940058
 21
393.6615714573765
 31
0.0
  0
LINE
  5
2A5E
330
27BD
100
AcDbEntity
  8
AM_5
100
AcDbLine
 10
150.6125936940058
 20
402.2615714573764
 30
0.0
 11
150.6125936940058
 21
397.6615714573765
 31
0.0
  0
SOLID
  5
2A5F
330
27BD
100
AcDbEntity
  8
AM_5
100
AcDbTrace
 10
150.2792603606725
 20
404.2615714573765
 30
0.0
 11
150.9459270273392
 21
404.2615714573765
 31
0.0
 12
150.6125936940058
 22
402.2615714573764
 32
0.0
 13
150.6125936940058
 23
402.2615714573764
 33
0.0
  0
SOLID
  5
2A60
330
27BD
100
AcDbEntity
  8
AM_5
100
AcDbTrace
 10
150.2792603606725
 20
395.6615714573765
 30
0.0
 11
150.9459270273392
 21
395.6615714573765
 31
0.0
 12
150.6125936940058
 22
397.6615714573765
 32
0.0
 13
150.6125936940058
 23
397.6615714573765
 33
0.0
  0
MTEXT
  5
2A61
330
27BD
100
AcDbEntity
  8
AM_5
100
AcDbMText
 10
149.3875936940058
 20
399.9615714573765
 30
0.0
 40
1.75
 41
0.0
 71
     5
 72
     1
  1
4.6
 11
0.0000000000000001
 21
1.0
 31
0.0
 73
     1
 44
1.0
1001
ACAD
1000
MTEXTBEGIN
1070
    73
1070
     1
1070
    44
1040
1.0
1070
    74
1070
     0
1000
MTEXTEND
  0
POINT
  5
2A62
330
27BD
100
AcDbEntity
  8
Defpoints
 62
     0
100
AcDbPoint
 10
155.2705319331265
 20
402.2615714573764
 30
0.0
  0
POINT
  5
2A63
330
27BD
100
AcDbEntity
  8
Defpoints
 62
     0
100
AcDbPoint
 10
156.7052181083485
 20
397.6615714573765
 30
0.0
  0
POINT
  5
2A64
330
27BD
100
AcDbEntity
  8
Defpoints
 62
     0
100
AcDbPoint
 10
150.6125936940058
 20
397.6615714573765
 30
0.0
  0
ENDBLK
  5
27CA
330
27BD
100
AcDbEntity
  8
0
100
AcDbBlockEnd
  0
BLOCK
  5
27D7
330
27CB
100
AcDbEntity
  8
0
100
AcDbBlockBegin
  2
*D25
 70
     1
 10
0.0
 20
0.0
 30
0.0
  3
*D25
  1

  0
LINE
  5
2A65
330
27CB
100
AcDbEntity
  8
AM_5
100
AcDbLine
 10
162.1752854162374
 20
417.6057181088673
 30
0.0
 11
159.413657824212
 21
417.6057181088673
 31
0.0
  0
LINE
  5
2A66
330
27CB
100
AcDbEntity
  8
AM_5
100
AcDbLine
 10
162.1752854162374
 20
421.6057181088673
 30
0.0
 11
159.413657824212
 21
421.6057181088673
 31
0.0
  0
LINE
  5
2A67
330
27CB
100
AcDbEntity
  8
AM_5
100
AcDbLine
 10
160.163657824212
 20
415.6057181088673
 30
0.0
 11
160.163657824212
 21
413.6057181088673
 31
0.0
  0
LINE
  5
2A68
330
27CB
100
AcDbEntity
  8
AM_5
100
AcDbLine
 10
160.163657824212
 20
423.6057181088673
 30
0.0
 11
160.163657824212
 21
425.6057181088673
 31
0.0
  0
LINE
  5
2A69
330
27CB
100
AcDbEntity
  8
AM_5
100
AcDbLine
 10
160.163657824212
 20
417.6057181088673
 30
0.0
 11
160.163657824212
 21
421.6057181088673
 31
0.0
  0
SOLID
  5
2A6A
330
27CB
100
AcDbEntity
  8
AM_5
100
AcDbTrace
 10
159.8303244908786
 20
415.6057181088673
 30
0.0
 11
160.4969911575453
 21
415.6057181088673
 31
0.0
 12
160.163657824212
 22
417.6057181088673
 32
0.0
 13
160.163657824212
 23
417.6057181088673
 33
0.0
  0
SOLID
  5
2A6B
330
27CB
100
AcDbEntity
  8
AM_5
100
AcDbTrace
 10
159.8303244908786
 20
423.6057181088673
 30
0.0
 11
160.4969911575453
 21
423.6057181088673
 31
0.0
 12
160.163657824212
 22
421.6057181088673
 32
0.0
 13
160.163657824212
 23
421.6057181088673
 33
0.0
  0
MTEXT
  5
2A6C
330
27CB
100
AcDbEntity
  8
AM_5
100
AcDbMText
 10
158.9386578242119
 20
419.6057181088674
 30
0.0
 40
1.75
 41
0.0
 71
     5
 72
     1
  1
4
 11
0.0000000000000001
 21
1.0
 31
0.0
 73
     1
 44
1.0
1001
ACAD
1000
MTEXTBEGIN
1070
    73
1070
     1
1070
    44
1040
1.0
1070
    74
1070
     0
1000
MTEXTEND
  0
POINT
  5
2A6D
330
27CB
100
AcDbEntity
  8
Defpoints
 62
     0
100
AcDbPoint
 10
162.6752854162374
 20
417.6057181088673
 30
0.0
  0
POINT
  5
2A6E
330
27CB
100
AcDbEntity
  8
Defpoints
 62
     0
100
AcDbPoint
 10
162.6752854162374
 20
421.6057181088673
 30
0.0
  0
POINT
  5
2A6F
330
27CB
100
AcDbEntity
  8
Defpoints
 62
     0
100
AcDbPoint
 10
160.163657824212
 20
421.6057181088673
 30
0.0
  0
ENDBLK
  5
27D8
330
27CB
100
AcDbEntity
  8
0
100
AcDbBlockEnd
  0
BLOCK
  5
27E5
330
27D9
100
AcDbEntity
  8
0
100
AcDbBlockBegin
  2
*D26
 70
     1
 10
0.0
 20
0.0
 30
0.0
  3
*D26
  1

  0
LINE
  5
2A70
330
27D9
100
AcDbEntity
  8
AM_5
100
AcDbLine
 10
158.0705319331265
 20
402.6615714573764
 30
0.0
 11
158.0705319331265
 21
406.3789962040698
 31
0.0
  0
LINE
  5
2A71
330
27D9
100
AcDbEntity
  8
AM_5
100
AcDbLine
 10
155.2705319331265
 20
402.6615714573764
 30
0.0
 11
155.2705319331265
 21
406.3789962040698
 31
0.0
  0
LINE
  5
2A72
330
27D9
100
AcDbEntity
  8
AM_5
100
AcDbLine
 10
160.0705319331265
 20
405.9789962040698
 30
0.0
 11
162.0705319331265
 21
405.9789962040698
 31
0.0
  0
LINE
  5
2A73
330
27D9
100
AcDbEntity
  8
AM_5
100
AcDbLine
 10
153.2705319331265
 20
405.9789962040698
 30
0.0
 11
151.2705319331265
 21
405.9789962040698
 31
0.0
  0
LINE
  5
2A74
330
27D9
100
AcDbEntity
  8
AM_5
100
AcDbLine
 10
158.0705319331265
 20
405.9789962040698
 30
0.0
 11
155.2705319331265
 21
405.9789962040698
 31
0.0
  0
SOLID
  5
2A75
330
27D9
100
AcDbEntity
  8
AM_5
100
AcDbTrace
 10
160.0705319331265
 20
406.3123295374031
 30
0.0
 11
160.0705319331265
 21
405.6456628707365
 31
0.0
 12
158.0705319331265
 22
405.9789962040698
 32
0.0
 13
158.0705319331265
 23
405.9789962040698
 33
0.0
  0
SOLID
  5
2A76
330
27D9
100
AcDbEntity
  8
AM_5
100
AcDbTrace
 10
153.2705319331265
 20
406.3123295374031
 30
0.0
 11
153.2705319331265
 21
405.6456628707365
 31
0.0
 12
155.2705319331265
 22
405.9789962040698
 32
0.0
 13
155.2705319331265
 23
405.9789962040698
 33
0.0
  0
MTEXT
  5
2A77
330
27D9
100
AcDbEntity
  8
AM_5
100
AcDbMText
 10
156.6705319331265
 20
407.5041684481643
 30
0.0
 40
1.75
 41
0.0
 71
     5
 72
     1
  1
2.8
 73
     1
 44
1.0
1001
ACAD
1000
MTEXTBEGIN
1070
    73
1070
     1
1070
    44
1040
1.0
1070
    74
1070
     0
1000
MTEXTEND
  0
POINT
  5
2A78
330
27D9
100
AcDbEntity
  8
Defpoints
 62
     0
100
AcDbPoint
 10
158.0705319331265
 20
402.2615714573764
 30
0.0
  0
POINT
  5
2A79
330
27D9
100
AcDbEntity
  8
Defpoints
 62
     0
100
AcDbPoint
 10
155.2705319331265
 20
402.2615714573764
 30
0.0
  0
POINT
  5
2A7A
330
27D9
100
AcDbEntity
  8
Defpoints
 62
     0
100
AcDbPoint
 10
155.2705319331265
 20
405.9789962040698
 30
0.0
  0
ENDBLK
  5
27E6
330
27D9
100
AcDbEntity
  8
0
100
AcDbBlockEnd
  0
BLOCK
  5
27F1
330
27E7
100
AcDbEntity
  8
0
100
AcDbBlockBegin
  2
*D27
 70
     1
 10
0.0
 20
0.0
 30
0.0
  3
*D27
  1

  0
LINE
  5
2A7B
330
27E7
100
AcDbEntity
  8
AM_5
100
AcDbLine
 10
162.6752854162374
 20
417.1057181088673
 30
0.0
 11
162.6752854162374
 21
410.9582025382397
 31
0.0
  0
LINE
  5
2A7C
330
27E7
100
AcDbEntity
  8
AM_5
100
AcDbLine
 10
176.6752854162374
 20
417.1057181088673
 30
0.0
 11
176.6752854162374
 21
410.9582025382397
 31
0.0
  0
LINE
  5
2A7D
330
27E7
100
AcDbEntity
  8
AM_5
100
AcDbLine
 10
164.6752854162374
 20
411.7082025382397
 30
0.0
 11
174.6752854162374
 21
411.7082025382397
 31
0.0
  0
SOLID
  5
2A7E
330
27E7
100
AcDbEntity
  8
AM_5
100
AcDbTrace
 10
164.6752854162374
 20
412.041535871573
 30
0.0
 11
164.6752854162374
 21
411.3748692049064
 31
0.0
 12
162.6752854162374
 22
411.7082025382397
 32
0.0
 13
162.6752854162374
 23
411.7082025382397
 33
0.0
  0
SOLID
  5
2A7F
330
27E7
100
AcDbEntity
  8
AM_5
100
AcDbTrace
 10
174.6752854162374
 20
412.041535871573
 30
0.0
 11
174.6752854162374
 21
411.3748692049064
 31
0.0
 12
176.6752854162374
 22
411.7082025382397
 32
0.0
 13
176.6752854162374
 23
411.7082025382397
 33
0.0
  0
MTEXT
  5
2A80
330
27E7
100
AcDbEntity
  8
AM_5
100
AcDbMText
 10
169.6752854162374
 20
412.9332025382397
 30
0.0
 40
1.75
 41
0.0
 71
     5
 72
     1
  1
14
 73
     1
 44
1.0
1001
ACAD
1000
MTEXTBEGIN
1070
    73
1070
     1
1070
    44
1040
1.0
1070
    74
1070
     0
1000
MTEXTEND
  0
POINT
  5
2A81
330
27E7
100
AcDbEntity
  8
Defpoints
 62
     0
100
AcDbPoint
 10
162.6752854162374
 20
417.6057181088673
 30
0.0
  0
POINT
  5
2A82
330
27E7
100
AcDbEntity
  8
Defpoints
 62
     0
100
AcDbPoint
 10
176.6752854162374
 20
417.6057181088673
 30
0.0
  0
POINT
  5
2A83
330
27E7
100
AcDbEntity
  8
Defpoints
 62
     0
100
AcDbPoint
 10
176.6752854162374
 20
411.7082025382397
 30
0.0
  0
ENDBLK
  5
27F2
330
27E7
100
AcDbEntity
  8
0
100
AcDbBlockEnd
  0
BLOCK
  5
27FD
330
27F3
100
AcDbEntity
  8
0
100
AcDbBlockBegin
  2
*D28
 70
     1
 10
0.0
 20
0.0
 30
0.0
  3
*D28
  1

  0
LINE
  5
2A84
330
27F3
100
AcDbEntity
  8
AM_5
100
AcDbLine
 10
162.6752854162374
 20
397.1615714573765
 30
0.0
 11
162.6752854162374
 21
393.9587959558252
 31
0.0
  0
LINE
  5
2A85
330
27F3
100
AcDbEntity
  8
AM_5
100
AcDbLine
 10
168.6752854162374
 20
397.1615714573765
 30
0.0
 11
168.6752854162374
 21
393.9587959558252
 31
0.0
  0
LINE
  5
2A86
330
27F3
100
AcDbEntity
  8
AM_5
100
AcDbLine
 10
164.6752854162374
 20
394.7087959558252
 30
0.0
 11
166.6752854162374
 21
394.7087959558252
 31
0.0
  0
SOLID
  5
2A87
330
27F3
100
AcDbEntity
  8
AM_5
100
AcDbTrace
 10
164.6752854162374
 20
395.0421292891585
 30
0.0
 11
164.6752854162374
 21
394.3754626224919
 31
0.0
 12
162.6752854162374
 22
394.7087959558252
 32
0.0
 13
162.6752854162374
 23
394.7087959558252
 33
0.0
  0
SOLID
  5
2A88
330
27F3
100
AcDbEntity
  8
AM_5
100
AcDbTrace
 10
166.6752854162374
 20
395.0421292891585
 30
0.0
 11
166.6752854162374
 21
394.3754626224919
 31
0.0
 12
168.6752854162374
 22
394.7087959558252
 32
0.0
 13
168.6752854162374
 23
394.7087959558252
 33
0.0
  0
MTEXT
  5
2A89
330
27F3
100
AcDbEntity
  8
AM_5
100
AcDbMText
 10
165.7138704232255
 20
395.9337959558252
 30
0.0
 40
1.75
 41
0.0
 71
     5
 72
     1
  1
6
 73
     1
 44
1.0
1001
ACAD
1000
MTEXTBEGIN
1070
    73
1070
     1
1070
    44
1040
1.0
1070
    74
1070
     0
1000
MTEXTEND
  0
POINT
  5
2A8A
330
27F3
100
AcDbEntity
  8
Defpoints
 62
     0
100
AcDbPoint
 10
162.6752854162374
 20
397.6615714573765
 30
0.0
  0
POINT
  5
2A8B
330
27F3
100
AcDbEntity
  8
Defpoints
 62
     0
100
AcDbPoint
 10
168.6752854162374
 20
397.6615714573765
 30
0.0
  0
POINT
  5
2A8C
330
27F3
100
AcDbEntity
  8
Defpoints
 62
     0
100
AcDbPoint
 10
168.6752854162374
 20
394.7087959558252
 30
0.0
  0
ENDBLK
  5
27FE
330
27F3
100
AcDbEntity
  8
0
100
AcDbBlockEnd
  0
BLOCK
  5
2809
330
27FF
100
AcDbEntity
  8
0
100
AcDbBlockBegin
  2
*D29
 70
     1
 10
0.0
 20
0.0
 30
0.0
  3
*D29
  1

  0
LINE
  5
2A8D
330
27FF
100
AcDbEntity
  8
AM_5
100
AcDbLine
 10
176.6752854162374
 20
417.1057181088673
 30
0.0
 11
176.6752854162374
 21
410.9582025382398
 31
0.0
  0
LINE
  5
2A8E
330
27FF
100
AcDbEntity
  8
AM_5
100
AcDbLine
 10
220.8423000554832
 20
416.0923252517306
 30
0.0
 11
220.8423000554832
 21
410.9582025382398
 31
0.0
  0
LINE
  5
2A8F
330
27FF
100
AcDbEntity
  8
AM_5
100
AcDbLine
 10
178.6752854162374
 20
411.7082025382399
 30
0.0
 11
218.8423000554832
 21
411.7082025382399
 31
0.0
  0
SOLID
  5
2A90
330
27FF
100
AcDbEntity
  8
AM_5
100
AcDbTrace
 10
178.6752854162374
 20
412.0415358715732
 30
0.0
 11
178.6752854162374
 21
411.3748692049066
 31
0.0
 12
176.6752854162374
 22
411.7082025382399
 32
0.0
 13
176.6752854162374
 23
411.7082025382399
 33
0.0
  0
SOLID
  5
2A91
330
27FF
100
AcDbEntity
  8
AM_5
100
AcDbTrace
 10
218.8423000554832
 20
412.0415358715732
 30
0.0
 11
218.8423000554832
 21
411.3748692049066
 31
0.0
 12
220.8423000554832
 22
411.7082025382399
 32
0.0
 13
220.8423000554832
 23
411.7082025382399
 33
0.0
  0
MTEXT
  5
2A92
330
27FF
100
AcDbEntity
  8
AM_5
100
AcDbMText
 10
198.7587927358603
 20
412.9332025382399
 30
0.0
 40
1.75
 41
0.0
 71
     5
 72
     1
  1
165%%p10
 73
     1
 44
1.0
1001
ACAD
1000
MTEXTBEGIN
1070
    73
1070
     1
1070
    44
1040
1.0
1070
    74
1070
     0
1000
MTEXTEND
  0
POINT
  5
2A93
330
27FF
100
AcDbEntity
  8
Defpoints
 62
     0
100
AcDbPoint
 10
176.6752854162374
 20
417.6057181088673
 30
0.0
  0
POINT
  5
2A94
330
27FF
100
AcDbEntity
  8
Defpoints
 62
     0
100
AcDbPoint
 10
220.8423000554832
 20
416.5923252517305
 30
0.0
  0
POINT
  5
2A95
330
27FF
100
AcDbEntity
  8
Defpoints
 62
     0
100
AcDbPoint
 10
220.8423000554832
 20
411.7082025382399
 30
0.0
  0
ENDBLK
  5
280A
330
27FF
100
AcDbEntity
  8
0
100
AcDbBlockEnd
  0
BLOCK
  5
2815
330
280B
100
AcDbEntity
  8
0
100
AcDbBlockBegin
  2
*D30
 70
     1
 10
0.0
 20
0.0
 30
0.0
  3
*D30
  1

  0
LINE
  5
2A96
330
280B
100
AcDbEntity
  8
AM_5
100
AcDbLine
 10
173.0628612199908
 20
343.2874524506663
 30
0.0
 11
173.0628612199908
 21
335.6563210474003
 31
0.0
  0
LINE
  5
2A97
330
280B
100
AcDbEntity
  8
AM_5
100
AcDbLine
 10
220.8423000554832
 20
341.8191264117576
 30
0.0
 11
220.8423000554832
 21
335.6563210474003
 31
0.0
  0
LINE
  5
2A98
330
280B
100
AcDbEntity
  8
AM_5
100
AcDbLine
 10
175.0628612199908
 20
336.4063210474003
 30
0.0
 11
218.8423000554832
 21
336.4063210474003
 31
0.0
  0
SOLID
  5
2A99
330
280B
100
AcDbEntity
  8
AM_5
100
AcDbTrace
 10
175.0628612199908
 20
336.7396543807336
 30
0.0
 11
175.0628612199908
 21
336.072987714067
 31
0.0
 12
173.0628612199908
 22
336.4063210474003
 32
0.0
 13
173.0628612199908
 23
336.4063210474003
 33
0.0
  0
SOLID
  5
2A9A
330
280B
100
AcDbEntity
  8
AM_5
100
AcDbTrace
 10
218.8423000554832
 20
336.7396543807336
 30
0.0
 11
218.8423000554832
 21
336.072987714067
 31
0.0
 12
220.8423000554832
 22
336.4063210474003
 32
0.0
 13
220.8423000554832
 23
336.4063210474003
 33
0.0
  0
MTEXT
  5
2A9B
330
280B
100
AcDbEntity
  8
AM_5
100
AcDbMText
 10
196.952580637737
 20
337.6313210474003
 30
0.0
 40
1.75
 41
0.0
 71
     5
 72
     1
  1
165%%p10
 73
     1
 44
1.0
1001
ACAD
1000
MTEXTBEGIN
1070
    73
1070
     1
1070
    44
1040
1.0
1070
    74
1070
     0
1000
MTEXTEND
  0
POINT
  5
2A9C
330
280B
100
AcDbEntity
  8
Defpoints
 62
     0
100
AcDbPoint
 10
173.0628612199908
 20
343.7874524506663
 30
0.0
  0
POINT
  5
2A9D
330
280B
100
AcDbEntity
  8
Defpoints
 62
     0
100
AcDbPoint
 10
220.8423000554832
 20
342.3191264117576
 30
0.0
  0
POINT
  5
2A9E
330
280B
100
AcDbEntity
  8
Defpoints
 62
     0
100
AcDbPoint
 10
220.8423000554832
 20
336.4063210474003
 30
0.0
  0
ENDBLK
  5
2816
330
280B
100
AcDbEntity
  8
0
100
AcDbBlockEnd
  0
BLOCK
  5
2821
330
2817
100
AcDbEntity
  8
0
100
AcDbBlockBegin
  2
*D31
 70
     1
 10
0.0
 20
0.0
 30
0.0
  3
*D31
  1

  0
LINE
  5
2A9F
330
2817
100
AcDbEntity
  8
AM_5
100
AcDbLine
 10
164.0628612199908
 20
344.7874524506661
 30
0.0
 11
164.0628612199908
 21
335.6563210474002
 31
0.0
  0
LINE
  5
2AA0
330
2817
100
AcDbEntity
  8
AM_5
100
AcDbLine
 10
173.0628612199908
 20
343.2874524506663
 30
0.0
 11
173.0628612199908
 21
335.6563210474002
 31
0.0
  0
LINE
  5
2AA1
330
2817
100
AcDbEntity
  8
AM_5
100
AcDbLine
 10
166.0628612199908
 20
336.4063210474002
 30
0.0
 11
171.0628612199908
 21
336.4063210474002
 31
0.0
  0
SOLID
  5
2AA2
330
2817
100
AcDbEntity
  8
AM_5
100
AcDbTrace
 10
166.0628612199908
 20
336.7396543807335
 30
0.0
 11
166.0628612199908
 21
336.0729877140669
 31
0.0
 12
164.0628612199908
 22
336.4063210474002
 32
0.0
 13
164.0628612199908
 23
336.4063210474002
 33
0.0
  0
SOLID
  5
2AA3
330
2817
100
AcDbEntity
  8
AM_5
100
AcDbTrace
 10
171.0628612199908
 20
336.7396543807335
 30
0.0
 11
171.0628612199908
 21
336.0729877140669
 31
0.0
 12
173.0628612199908
 22
336.4063210474002
 32
0.0
 13
173.0628612199908
 23
336.4063210474002
 33
0.0
  0
MTEXT
  5
2AA4
330
2817
100
AcDbEntity
  8
AM_5
100
AcDbMText
 10
168.5628612199908
 20
337.6313210474002
 30
0.0
 40
1.75
 41
0.0
 71
     5
 72
     1
  1
9
 73
     1
 44
1.0
1001
ACAD
1000
MTEXTBEGIN
1070
    73
1070
     1
1070
    44
1040
1.0
1070
    74
1070
     0
1000
MTEXTEND
  0
POINT
  5
2AA5
330
2817
100
AcDbEntity
  8
Defpoints
 62
     0
100
AcDbPoint
 10
164.0628612199908
 20
345.2874524506661
 30
0.0
  0
POINT
  5
2AA6
330
2817
100
AcDbEntity
  8
Defpoints
 62
     0
100
AcDbPoint
 10
173.0628612199908
 20
343.7874524506663
 30
0.0
  0
POINT
  5
2AA7
330
2817
100
AcDbEntity
  8
Defpoints
 62
     0
100
AcDbPoint
 10
173.0628612199908
 20
336.4063210474002
 30
0.0
  0
ENDBLK
  5
2822
330
2817
100
AcDbEntity
  8
0
100
AcDbBlockEnd
  0
BLOCK
  5
282F
330
2823
100
AcDbEntity
  8
0
100
AcDbBlockBegin
  2
*D32
 70
     1
 10
0.0
 20
0.0
 30
0.0
  3
*D32
  1

  0
LINE
  5
2AA8
330
2823
100
AcDbEntity
  8
AM_5
100
AcDbLine
 10
168.6251774449241
 20
343.2874524506661
 30
0.0
 11
157.006980120298
 21
343.2874524506661
 31
0.0
  0
LINE
  5
2AA9
330
2823
100
AcDbEntity
  8
AM_5
100
AcDbLine
 10
168.6251774449241
 20
347.2874524506661
 30
0.0
 11
157.006980120298
 21
347.2874524506661
 31
0.0
  0
LINE
  5
2AAA
330
2823
100
AcDbEntity
  8
AM_5
100
AcDbLine
 10
157.756980120298
 20
341.2874524506661
 30
0.0
 11
157.756980120298
 21
339.2874524506661
 31
0.0
  0
LINE
  5
2AAB
330
2823
100
AcDbEntity
  8
AM_5
100
AcDbLine
 10
157.756980120298
 20
349.2874524506661
 30
0.0
 11
157.756980120298
 21
351.2874524506661
 31
0.0
  0
LINE
  5
2AAC
330
2823
100
AcDbEntity
  8
AM_5
100
AcDbLine
 10
157.756980120298
 20
343.2874524506661
 30
0.0
 11
157.756980120298
 21
347.2874524506661
 31
0.0
  0
SOLID
  5
2AAD
330
2823
100
AcDbEntity
  8
AM_5
100
AcDbTrace
 10
157.4236467869646
 20
341.2874524506661
 30
0.0
 11
158.0903134536313
 21
341.2874524506661
 31
0.0
 12
157.756980120298
 22
343.2874524506661
 32
0.0
 13
157.756980120298
 23
343.2874524506661
 33
0.0
  0
SOLID
  5
2AAE
330
2823
100
AcDbEntity
  8
AM_5
100
AcDbTrace
 10
157.4236467869646
 20
349.2874524506661
 30
0.0
 11
158.0903134536313
 21
349.2874524506661
 31
0.0
 12
157.756980120298
 22
347.2874524506661
 32
0.0
 13
157.756980120298
 23
347.2874524506661
 33
0.0
  0
MTEXT
  5
2AAF
330
2823
100
AcDbEntity
  8
AM_5
100
AcDbMText
 10
156.5319801202979
 20
345.2874524506662
 30
0.0
 40
1.75
 41
0.0
 71
     5
 72
     1
  1
4
 11
0.0000000000000001
 21
1.0
 31
0.0
 73
     1
 44
1.0
1001
ACAD
1000
MTEXTBEGIN
1070
    73
1070
     1
1070
    44
1040
1.0
1070
    74
1070
     0
1000
MTEXTEND
  0
POINT
  5
2AB0
330
2823
100
AcDbEntity
  8
Defpoints
 62
     0
100
AcDbPoint
 10
169.1251774449241
 20
343.2874524506661
 30
0.0
  0
POINT
  5
2AB1
330
2823
100
AcDbEntity
  8
Defpoints
 62
     0
100
AcDbPoint
 10
169.1251774449241
 20
347.2874524506661
 30
0.0
  0
POINT
  5
2AB2
330
2823
100
AcDbEntity
  8
Defpoints
 62
     0
100
AcDbPoint
 10
157.756980120298
 20
347.2874524506661
 30
0.0
  0
ENDBLK
  5
2830
330
2823
100
AcDbEntity
  8
0
100
AcDbBlockEnd
  0
BLOCK
  5
283D
330
2831
100
AcDbEntity
  8
0
100
AcDbBlockBegin
  2
*D33
 70
     1
 10
0.0
 20
0.0
 30
0.0
  3
*D33
  1

  0
LINE
  5
2AB3
330
2831
100
AcDbEntity
  8
AM_5
100
AcDbLine
 10
166.9911469056993
 20
346.6874524506662
 30
0.0
 11
160.7169139266575
 21
346.6874524506662
 31
0.0
  0
LINE
  5
2AB4
330
2831
100
AcDbEntity
  8
AM_5
100
AcDbLine
 10
166.9911469056993
 20
343.8874524506662
 30
0.0
 11
160.7169139266575
 21
343.8874524506662
 31
0.0
  0
LINE
  5
2AB5
330
2831
100
AcDbEntity
  8
AM_5
100
AcDbLine
 10
161.4669139266574
 20
348.6874524506662
 30
0.0
 11
161.4669139266574
 21
350.6874524506662
 31
0.0
  0
LINE
  5
2AB6
330
2831
100
AcDbEntity
  8
AM_5
100
AcDbLine
 10
161.4669139266574
 20
341.8874524506662
 30
0.0
 11
161.4669139266574
 21
339.8874524506662
 31
0.0
  0
LINE
  5
2AB7
330
2831
100
AcDbEntity
  8
AM_5
100
AcDbLine
 10
161.4669139266574
 20
346.6874524506662
 30
0.0
 11
161.4669139266574
 21
343.8874524506662
 31
0.0
  0
SOLID
  5
2AB8
330
2831
100
AcDbEntity
  8
AM_5
100
AcDbTrace
 10
161.1335805933241
 20
348.6874524506662
 30
0.0
 11
161.8002472599908
 21
348.6874524506662
 31
0.0
 12
161.4669139266574
 22
346.6874524506662
 32
0.0
 13
161.4669139266574
 23
346.6874524506662
 33
0.0
  0
SOLID
  5
2AB9
330
2831
100
AcDbEntity
  8
AM_5
100
AcDbTrace
 10
161.1335805933241
 20
341.8874524506662
 30
0.0
 11
161.8002472599908
 21
341.8874524506662
 31
0.0
 12
161.4669139266574
 22
343.8874524506662
 32
0.0
 13
161.4669139266574
 23
343.8874524506662
 33
0.0
  0
MTEXT
  5
2ABA
330
2831
100
AcDbEntity
  8
AM_5
100
AcDbMText
 10
159.9417416825629
 20
345.2874524506662
 30
0.0
 40
1.75
 41
0.0
 71
     5
 72
     1
  1
2.8
 11
0.0000000000000001
 21
1.0
 31
0.0
 73
     1
 44
1.0
1001
ACAD
1000
MTEXTBEGIN
1070
    73
1070
     1
1070
    44
1040
1.0
1070
    74
1070
     0
1000
MTEXTEND
  0
POINT
  5
2ABB
330
2831
100
AcDbEntity
  8
Defpoints
 62
     0
100
AcDbPoint
 10
167.4911469056993
 20
346.6874524506662
 30
0.0
  0
POINT
  5
2ABC
330
2831
100
AcDbEntity
  8
Defpoints
 62
     0
100
AcDbPoint
 10
167.4911469056993
 20
343.8874524506662
 30
0.0
  0
POINT
  5
2ABD
330
2831
100
AcDbEntity
  8
Defpoints
 62
     0
100
AcDbPoint
 10
161.4669139266574
 20
343.8874524506662
 30
0.0
  0
ENDBLK
  5
283E
330
2831
100
AcDbEntity
  8
0
100
AcDbBlockEnd
  0
BLOCK
  5
2849
330
283F
100
AcDbEntity
  8
0
100
AcDbBlockBegin
  2
*D34
 70
     1
 10
0.0
 20
0.0
 30
0.0
  3
*D34
  1

  0
LINE
  5
2ABE
330
283F
100
AcDbEntity
  8
AM_5
100
AcDbLine
 10
163.5628612199908
 20
329.5330295976847
 30
0.0
 11
160.022518973733
 21
329.5330295976847
 31
0.0
  0
LINE
  5
2ABF
330
283F
100
AcDbEntity
  8
AM_5
100
AcDbLine
 10
163.5628612199908
 20
323.5330295976847
 30
0.0
 11
160.022518973733
 21
323.5330295976847
 31
0.0
  0
LINE
  5
2AC0
330
283F
100
AcDbEntity
  8
AM_5
100
AcDbLine
 10
160.772518973733
 20
327.5330295976847
 30
0.0
 11
160.772518973733
 21
325.5330295976847
 31
0.0
  0
SOLID
  5
2AC1
330
283F
100
AcDbEntity
  8
AM_5
100
AcDbTrace
 10
160.4391856403996
 20
327.5330295976847
 30
0.0
 11
161.1058523070663
 21
327.5330295976847
 31
0.0
 12
160.772518973733
 22
329.5330295976847
 32
0.0
 13
160.772518973733
 23
329.5330295976847
 33
0.0
  0
SOLID
  5
2AC2
330
283F
100
AcDbEntity
  8
AM_5
100
AcDbTrace
 10
160.4391856403996
 20
325.5330295976847
 30
0.0
 11
161.1058523070663
 21
325.5330295976847
 31
0.0
 12
160.772518973733
 22
323.5330295976847
 32
0.0
 13
160.772518973733
 23
323.5330295976847
 33
0.0
  0
MTEXT
  5
2AC3
330
283F
100
AcDbEntity
  8
AM_5
100
AcDbMText
 10
159.5475189737329
 20
326.5330295976847
 30
0.0
 40
1.75
 41
0.0
 71
     5
 72
     1
  1
6
 11
0.0000000000000001
 21
1.0
 31
0.0
 73
     1
 44
1.0
1001
ACAD
1000
MTEXTBEGIN
1070
    73
1070
     1
1070
    44
1040
1.0
1070
    74
1070
     0
1000
MTEXTEND
  0
POINT
  5
2AC4
330
283F
100
AcDbEntity
  8
Defpoints
 62
     0
100
AcDbPoint
 10
164.0628612199908
 20
329.5330295976847
 30
0.0
  0
POINT
  5
2AC5
330
283F
100
AcDbEntity
  8
Defpoints
 62
     0
100
AcDbPoint
 10
164.0628612199908
 20
323.5330295976847
 30
0.0
  0
POINT
  5
2AC6
330
283F
100
AcDbEntity
  8
Defpoints
 62
     0
100
AcDbPoint
 10
160.772518973733
 20
323.5330295976847
 30
0.0
  0
ENDBLK
  5
284A
330
283F
100
AcDbEntity
  8
0
100
AcDbBlockEnd
  0
BLOCK
  5
2855
330
284B
100
AcDbEntity
  8
0
100
AcDbBlockBegin
  2
*D35
 70
     1
 10
0.0
 20
0.0
 30
0.0
  3
*D35
  1

  0
LINE
  5
2AC7
330
284B
100
AcDbEntity
  8
AM_5
100
AcDbLine
 10
163.5628612199908
 20
329.5330295976847
 30
0.0
 11
157.2579833948072
 21
329.5330295976847
 31
0.0
  0
LINE
  5
2AC8
330
284B
100
AcDbEntity
  8
AM_5
100
AcDbLine
 10
163.5628612199908
 20
315.5330295976847
 30
0.0
 11
157.2579833948072
 21
315.5330295976847
 31
0.0
  0
LINE
  5
2AC9
330
284B
100
AcDbEntity
  8
AM_5
100
AcDbLine
 10
158.0079833948073
 20
327.5330295976847
 30
0.0
 11
158.0079833948072
 21
317.5330295976847
 31
0.0
  0
SOLID
  5
2ACA
330
284B
100
AcDbEntity
  8
AM_5
100
AcDbTrace
 10
157.6746500614739
 20
327.5330295976847
 30
0.0
 11
158.3413167281406
 21
327.5330295976847
 31
0.0
 12
158.0079833948073
 22
329.5330295976847
 32
0.0
 13
158.0079833948073
 23
329.5330295976847
 33
0.0
  0
SOLID
  5
2ACB
330
284B
100
AcDbEntity
  8
AM_5
100
AcDbTrace
 10
157.6746500614739
 20
317.5330295976847
 30
0.0
 11
158.3413167281405
 21
317.5330295976847
 31
0.0
 12
158.0079833948072
 22
315.5330295976847
 32
0.0
 13
158.0079833948072
 23
315.5330295976847
 33
0.0
  0
MTEXT
  5
2ACC
330
284B
100
AcDbEntity
  8
AM_5
100
AcDbMText
 10
156.7829833948072
 20
322.5330295976847
 30
0.0
 40
1.75
 41
0.0
 71
     5
 72
     1
  1
14
 11
0.0000000000000001
 21
1.0
 31
0.0
 73
     1
 44
1.0
1001
ACAD
1000
MTEXTBEGIN
1070
    73
1070
     1
1070
    44
1040
1.0
1070
    74
1070
     0
1000
MTEXTEND
  0
POINT
  5
2ACD
330
284B
100
AcDbEntity
  8
Defpoints
 62
     0
100
AcDbPoint
 10
164.0628612199908
 20
329.5330295976847
 30
0.0
  0
POINT
  5
2ACE
330
284B
100
AcDbEntity
  8
Defpoints
 62
     0
100
AcDbPoint
 10
164.0628612199908
 20
315.5330295976847
 30
0.0
  0
POINT
  5
2ACF
330
284B
100
AcDbEntity
  8
Defpoints
 62
     0
100
AcDbPoint
 10
158.0079833948072
 20
315.5330295976847
 30
0.0
  0
ENDBLK
  5
2856
330
284B
100
AcDbEntity
  8
0
100
AcDbBlockEnd
  0
ENDSEC
  0
SECTION
  2
ENTITIES
  0
LINE
  5
268F
330
1F
100
AcDbEntity
  8
0
  6
Continuous
 62
     7
370
     9
100
AcDbLine
 10
193.1637286269118
 20
417.6391167304341
 30
0.0
 11
193.1637286269118
 21
421.2598194873127
 31
0.0
  0
LINE
  5
2690
102
{ACAD_REACTORS
330
2724
102
}
330
1F
100
AcDbEntity
  8
0
370
     9
100
AcDbLine
 10
220.8423000554832
 20
422.6191109660162
 30
0.0
 11
220.8423000554832
 21
416.5923252517305
 31
0.0
  0
LINE
  5
2691
330
1F
100
AcDbEntity
  8
0
370
     9
100
AcDbLine
 10
219.056585769769
 20
422.6191109660162
 30
0.0
 11
218.0394821253431
 21
422.6191109660162
 31
0.0
  0
LINE
  5
2692
330
1F
100
AcDbEntity
  8
0
370
     9
100
AcDbLine
 10
219.056585769769
 20
416.5923252517305
 30
0.0
 11
218.0394821253431
 21
416.5923252517305
 31
0.0
  0
LINE
  5
2693
330
1F
100
AcDbEntity
  8
0
370
     9
100
AcDbLine
 10
217.7173000554834
 20
423.1771466803019
 30
0.0
 11
218.0394821253431
 21
422.6191109660162
 31
0.0
  0
LINE
  5
2694
330
1F
100
AcDbEntity
  8
0
370
     9
100
AcDbLine
 10
217.7173000554834
 20
423.1771466803019
 30
0.0
 11
217.3951179856231
 21
422.6191109660162
 31
0.0
  0
LINE
  5
2695
330
1F
100
AcDbEntity
  8
0
370
     9
100
AcDbLine
 10
216.8244429126257
 20
423.1771466803019
 30
0.0
 11
217.1466249824864
 21
422.6191109660162
 31
0.0
  0
LINE
  5
2696
330
1F
100
AcDbEntity
  8
0
370
     9
100
AcDbLine
 10
217.3951179856231
 20
422.6191109660162
 30
0.0
 11
217.1466249824864
 21
422.6191109660162
 31
0.0
  0
LINE
  5
2697
330
1F
100
AcDbEntity
  8
0
370
     9
100
AcDbLine
 10
216.8244429126257
 20
423.1771466803019
 30
0.0
 11
216.502260842766
 21
422.6191109660162
 31
0.0
  0
LINE
  5
2698
330
1F
100
AcDbEntity
  8
0
370
     9
100
AcDbLine
 10
216.502260842766
 20
422.6191109660162
 30
0.0
 11
215.4851571983401
 21
422.6191109660162
 31
0.0
  0
LINE
  5
2699
330
1F
100
AcDbEntity
  8
0
370
     9
100
AcDbLine
 10
216.8244429126257
 20
416.0342895374447
 30
0.0
 11
217.1466249824864
 21
416.5923252517304
 31
0.0
  0
LINE
  5
269A
330
1F
100
AcDbEntity
  8
0
370
     9
100
AcDbLine
 10
217.3951179856231
 20
416.5923252517304
 30
0.0
 11
217.7173000554834
 21
416.0342895374447
 31
0.0
  0
LINE
  5
269B
330
1F
100
AcDbEntity
  8
0
370
     9
100
AcDbLine
 10
217.7173000554834
 20
416.0342895374447
 30
0.0
 11
218.0394821253431
 21
416.5923252517304
 31
0.0
  0
LINE
  5
269C
330
1F
100
AcDbEntity
  8
0
370
     9
100
AcDbLine
 10
217.3951179856231
 20
416.5923252517305
 30
0.0
 11
217.1466249824864
 21
416.5923252517305
 31
0.0
  0
LINE
  5
269D
330
1F
100
AcDbEntity
  8
0
370
     9
100
AcDbLine
 10
216.502260842766
 20
416.5923252517304
 30
0.0
 11
216.8244429126257
 21
416.0342895374447
 31
0.0
  0
LINE
  5
269E
330
1F
100
AcDbEntity
  8
0
370
     9
100
AcDbLine
 10
215.6094036999083
 20
416.5923252517305
 30
0.0
 11
215.9315857697691
 21
416.0342895374447
 31
0.0
  0
LINE
  5
269F
330
1F
100
AcDbEntity
  8
0
370
     9
100
AcDbLine
 10
215.6094036999083
 20
416.5923252517305
 30
0.0
 11
215.4851571983401
 21
416.5923252517305
 31
0.0
  0
LINE
  5
26A0
330
1F
100
AcDbEntity
  8
0
370
     9
100
AcDbLine
 10
215.9315857697691
 20
416.0342895374447
 30
0.0
 11
216.2537678396294
 21
416.5923252517305
 31
0.0
  0
LINE
  5
26A1
330
1F
100
AcDbEntity
  8
0
370
     9
100
AcDbLine
 10
216.502260842766
 20
416.5923252517305
 30
0.0
 11
216.2537678396294
 21
416.5923252517305
 31
0.0
  0
LINE
  5
26A2
330
1F
100
AcDbEntity
  8
0
370
     9
100
AcDbLine
 10
217.7173000554834
 20
423.1771466803019
 30
0.0
 11
216.8244429126257
 21
416.0342895374447
 31
0.0
  0
LINE
  5
26A3
330
1F
100
AcDbEntity
  8
0
370
     9
100
AcDbLine
 10
218.5404027340543
 20
422.6191109660162
 30
0.0
 11
217.7173000554834
 21
416.0342895374447
 31
0.0
  0
LINE
  5
26A4
330
1F
100
AcDbEntity
  8
0
370
     9
100
AcDbLine
 10
215.4851571983401
 20
423.6235752517305
 30
0.0
 11
215.4851571983401
 21
415.5878609660162
 31
0.0
  0
LINE
  5
26A5
330
1F
100
AcDbEntity
  8
0
370
     9
100
AcDbLine
 10
216.8244429126257
 20
423.1771466803019
 30
0.0
 11
215.9315857697691
 21
416.0342895374447
 31
0.0
  0
LINE
  5
26A6
330
1F
100
AcDbEntity
  8
0
370
     9
100
AcDbLine
 10
219.056585769769
 20
422.8869681088733
 30
0.0
 11
219.056585769769
 21
416.3244681088732
 31
0.0
  0
LINE
  5
26A7
330
1F
100
AcDbEntity
  8
0
370
     9
100
AcDbLine
 10
220.8423000554832
 20
422.6191109660162
 30
0.0
 11
219.056585769769
 21
422.8869681088733
 31
0.0
  0
LINE
  5
26A8
330
1F
100
AcDbEntity
  8
0
370
     9
100
AcDbLine
 10
220.8423000554832
 20
416.5923252517305
 30
0.0
 11
219.056585769769
 21
416.3244681088732
 31
0.0
  0
LINE
  5
26A9
330
1F
100
AcDbEntity
  8
0
370
     9
100
AcDbLine
 10
201.1994429126258
 20
423.6235752517305
 30
0.0
 11
201.1994429126258
 21
420.4985752517305
 31
0.0
  0
LINE
  5
26AA
330
1F
100
AcDbEntity
  8
0
370
     9
100
AcDbLine
 10
201.1994429126258
 20
418.7128609660161
 30
0.0
 11
201.1994429126258
 21
415.5878609660162
 31
0.0
  0
LINE
  5
26AB
330
1F
100
AcDbEntity
  8
0
370
     9
100
AcDbLine
 10
199.8601571983402
 20
423.4747657279211
 30
0.0
 11
199.8601571983402
 21
420.4985752517305
 31
0.0
  0
LINE
  5
26AC
330
1F
100
AcDbEntity
  8
0
370
     9
100
AcDbLine
 10
199.8601571983402
 20
418.7128609660161
 30
0.0
 11
199.8601571983402
 21
415.7366704898256
 31
0.0
  0
LINE
  5
26AD
330
1F
100
AcDbEntity
  8
0
370
     9
100
AcDbLine
 10
201.1994429126258
 20
420.4985752517305
 30
0.0
 11
199.8601571983402
 21
420.4985752517305
 31
0.0
  0
LINE
  5
26AE
330
1F
100
AcDbEntity
  8
0
370
     9
100
AcDbLine
 10
201.1994429126258
 20
418.7128609660161
 30
0.0
 11
199.8601571983402
 21
418.7128609660161
 31
0.0
  0
LINE
  5
26AF
330
1F
100
AcDbEntity
  8
0
370
     9
100
AcDbLine
 10
193.1637286269119
 20
421.4472360545324
 30
0.0
 11
193.1637286269119
 21
417.4517001632144
 31
0.0
  0
LINE
  5
26B0
330
1F
100
AcDbEntity
  8
0
370
     9
100
AcDbLine
 10
195.8423000554831
 20
418.7128609660161
 30
0.0
 11
194.5030143411975
 21
418.7128609660161
 31
0.0
  0
LINE
  5
26B1
330
1F
100
AcDbEntity
  8
0
370
     9
100
AcDbLine
 10
195.8423000554831
 20
420.4985752517305
 30
0.0
 11
194.5030143411975
 21
420.4985752517305
 31
0.0
  0
LINE
  5
26B2
330
1F
100
AcDbEntity
  8
0
370
     9
100
AcDbLine
 10
193.1637286269119
 20
422.7307181088734
 30
0.0
 11
194.5030143411975
 21
422.8795276326827
 31
0.0
  0
LINE
  5
26B3
330
1F
100
AcDbEntity
  8
0
370
     9
100
AcDbLine
 10
194.5030143411975
 20
422.8795276326827
 30
0.0
 11
194.5030143411975
 21
420.4985752517305
 31
0.0
  0
LINE
  5
26B4
330
1F
100
AcDbEntity
  8
0
370
     9
100
AcDbLine
 10
195.8423000554831
 20
423.0283371564923
 30
0.0
 11
195.8423000554831
 21
420.4985752517305
 31
0.0
  0
LINE
  5
26B5
330
1F
100
AcDbEntity
  8
0
370
     9
100
AcDbLine
 10
193.1637286269119
 20
416.4807181088732
 30
0.0
 11
194.5030143411975
 21
416.3319085850638
 31
0.0
  0
LINE
  5
26B6
330
1F
100
AcDbEntity
  8
0
370
     9
100
AcDbLine
 10
198.5208714840544
 20
423.3259562041115
 30
0.0
 11
198.5208714840544
 21
415.8854800136351
 31
0.0
  0
LINE
  5
26B7
330
1F
100
AcDbEntity
  8
0
370
     9
100
AcDbLine
 10
197.1815857697688
 20
423.1771466803019
 30
0.0
 11
197.1815857697688
 21
416.0342895374447
 31
0.0
  0
LINE
  5
26B8
330
1F
100
AcDbEntity
  8
0
370
     9
100
AcDbLine
 10
193.1637286269119
 20
422.7307181088734
 30
0.0
 11
193.1637286269119
 21
416.4807181088732
 31
0.0
  0
LINE
  5
26B9
330
1F
100
AcDbEntity
  8
0
370
     9
100
AcDbLine
 10
194.5030143411975
 20
418.7128609660161
 30
0.0
 11
194.5030143411975
 21
416.3319085850638
 31
0.0
  0
LINE
  5
26BA
330
1F
100
AcDbEntity
  8
0
370
     9
100
AcDbLine
 10
195.8423000554831
 20
418.7128609660161
 30
0.0
 11
195.8423000554831
 21
416.1830990612542
 31
0.0
  0
LINE
  5
26BB
330
1F
100
AcDbEntity
  8
0
370
     9
100
AcDbLine
 10
195.8423000554831
 20
423.0283371564923
 30
0.0
 11
199.8601571983402
 21
423.4747657279211
 31
0.0
  0
LINE
  5
26BC
330
1F
100
AcDbEntity
  8
0
370
     9
100
AcDbLine
 10
195.8423000554831
 20
416.1830990612542
 30
0.0
 11
199.8601571983402
 21
415.7366704898256
 31
0.0
  0
LINE
  5
26BD
330
1F
100
AcDbEntity
  8
0
370
     9
100
AcDbLine
 10
215.4851571983401
 20
415.5878609660162
 30
0.0
 11
201.1994429126258
 21
415.5878609660162
 31
0.0
  0
LINE
  5
26BE
330
1F
100
AcDbEntity
  8
0
370
     9
100
AcDbLine
 10
215.4851571983401
 20
423.6235752517305
 30
0.0
 11
201.1994429126258
 21
423.6235752517305
 31
0.0
  0
LINE
  5
26BF
330
1F
100
AcDbEntity
  8
0
 62
     7
370
     9
100
AcDbLine
 10
194.5030143411975
 20
420.8557181088734
 30
0.0
 11
195.8423000554831
 21
420.8557181088734
 31
0.0
  0
LINE
  5
26C0
330
1F
100
AcDbEntity
  8
0
 62
     7
370
     9
100
AcDbLine
 10
197.1815857697688
 20
420.8557181088734
 30
0.0
 11
198.5208714840544
 21
420.8557181088734
 31
0.0
  0
LINE
  5
26C1
330
1F
100
AcDbEntity
  8
0
 62
     7
370
     9
100
AcDbLine
 10
199.8601571983402
 20
420.8557181088734
 30
0.0
 11
201.1994429126258
 21
420.8557181088734
 31
0.0
  0
LINE
  5
26C2
330
1F
100
AcDbEntity
  8
0
 62
     7
370
     9
100
AcDbLine
 10
194.5030143411975
 20
418.3557181088734
 30
0.0
 11
195.8423000554831
 21
418.3557181088734
 31
0.0
  0
LINE
  5
26C3
330
1F
100
AcDbEntity
  8
0
 62
     7
370
     9
100
AcDbLine
 10
197.1815857697688
 20
418.3557181088734
 30
0.0
 11
198.5208714840544
 21
418.3557181088734
 31
0.0
  0
LINE
  5
26C4
330
1F
100
AcDbEntity
  8
0
 62
     7
370
     9
100
AcDbLine
 10
199.8601571983402
 20
418.3557181088734
 30
0.0
 11
201.1994429126258
 21
418.3557181088734
 31
0.0
  0
LINE
  5
26C5
330
1F
100
AcDbEntity
  8
0
 62
     7
370
     9
100
AcDbLine
 10
189.1532222192208
 20
420.8557181088734
 30
0.0
 11
193.1637286269118
 21
420.8557181088734
 31
0.0
  0
LINE
  5
26C6
330
1F
100
AcDbEntity
  8
0
 62
     7
370
     9
100
AcDbLine
 10
189.5537848153593
 20
418.3557181088734
 30
0.0
 11
193.1637286269118
 21
418.3557181088734
 31
0.0
  0
MTEXT
  5
26C8
330
1F
100
AcDbEntity
  8
0
100
AcDbMText
 10
148.001602356115
 20
439.534131443276
 30
0.0
 40
2.5
 41
40.45416666666666
 71
     1
 72
     5
  1
RDF/RNF/RPF
 73
     1
 44
1.0
1001
ACAD
1000
MTEXTBEGIN
1070
    73
1070
     1
1070
    44
1040
1.0
1070
    74
1070
     0
1000
MTEXTEND
  0
LINE
  5
26C9
330
1F
100
AcDbEntity
  8
AM_VIS
100
AcDbLine
 10
162.6752854162374
 20
418.2404042840893
 30
0.0
 11
162.6752854162374
 21
421.0404042840893
 31
0.0
  0
LINE
  5
26CA
330
1F
100
AcDbEntity
  8
AM_VIS
100
AcDbLine
 10
162.6752854162374
 20
418.2404042840893
 30
0.0
 11
176.6752854162374
 21
418.2404042840893
 31
0.0
  0
LINE
  5
26CB
330
1F
100
AcDbEntity
  8
AM_VIS
100
AcDbLine
 10
162.6752854162374
 20
421.0404042840893
 30
0.0
 11
176.6752854162374
 21
421.0404042840893
 31
0.0
  0
LINE
  5
26CC
330
1F
100
AcDbEntity
  8
AM_VIS
100
AcDbLine
 10
176.6752854162374
 20
418.2404042840893
 30
0.0
 11
176.6752854162374
 21
421.0404042840893
 31
0.0
  0
LINE
  5
26CD
330
1F
100
AcDbEntity
  8
AM_VIS
100
AcDbLine
 10
176.6752854162374
 20
421.6057181088673
 30
0.0
 11
176.6752854162374
 21
421.0404042840893
 31
0.0
  0
LINE
  5
26CE
330
1F
100
AcDbEntity
  8
AM_VIS
100
AcDbLine
 10
176.6752854162374
 20
418.2404042840893
 30
0.0
 11
176.6752854162374
 21
417.6057181088673
 31
0.0
  0
LINE
  5
26CF
330
1F
100
AcDbEntity
  8
AM_VIS
100
AcDbLine
 10
162.6752854162374
 20
421.6057181088673
 30
0.0
 11
162.6752854162374
 21
421.0404042840893
 31
0.0
  0
LINE
  5
26D0
330
1F
100
AcDbEntity
  8
AM_VIS
100
AcDbLine
 10
162.6752854162374
 20
418.2404042840893
 30
0.0
 11
162.6752854162374
 21
417.6057181088673
 31
0.0
  0
CIRCLE
  5
26D1
330
1F
100
AcDbEntity
  8
AM_VIS
100
AcDbCircle
 10
164.6752854162374
 20
419.6404042840892
 30
0.0
 40
1.25
  0
LINE
  5
26D2
330
1F
100
AcDbEntity
  8
AM_VIS
100
AcDbLine
 10
170.1752854162374
 20
419.1404042840892
 30
0.0
 11
170.1752854162374
 21
420.1404042840892
 31
0.0
  0
LINE
  5
26D3
330
1F
100
AcDbEntity
  8
AM_VIS
100
AcDbLine
 10
170.1752854162374
 20
420.1404042840892
 30
0.0
 11
171.1752854162374
 21
420.1404042840892
 31
0.0
  0
LINE
  5
26D4
330
1F
100
AcDbEntity
  8
AM_VIS
100
AcDbLine
 10
171.1752854162374
 20
420.1404042840892
 30
0.0
 11
171.1752854162374
 21
419.1404042840892
 31
0.0
  0
LINE
  5
26D5
330
1F
100
AcDbEntity
  8
AM_VIS
100
AcDbLine
 10
171.1752854162374
 20
419.1404042840892
 30
0.0
 11
170.1752854162374
 21
419.1404042840892
 31
0.0
  0
LINE
  5
26D6
102
{ACAD_REACTORS
330
26EE
330
26F4
102
}
330
1F
100
AcDbEntity
  8
AM_VIS
100
AcDbLine
 10
162.6752854162374
 20
417.6057181088673
 30
0.0
 11
176.6752854162374
 21
417.6057181088673
 31
0.0
  0
LINE
  5
26D7
102
{ACAD_REACTORS
330
26EE
102
}
330
1F
100
AcDbEntity
  8
AM_VIS
100
AcDbLine
 10
162.6752854162374
 20
421.6057181088673
 30
0.0
 11
176.6752854162374
 21
421.6057181088673
 31
0.0
  0
LINE
  5
26D8
330
1F
100
AcDbEntity
  8
AM_VIS
100
AcDbLine
 10
176.6752854162374
 20
418.3557181088673
 30
0.0
 11
188.8065232247507
 21
418.3557181088673
 31
0.0
  0
LINE
  5
26D9
330
1F
100
AcDbEntity
  8
AM_VIS
100
AcDbLine
 10
176.6752854162374
 20
420.8557181088673
 30
0.0
 11
188.3578931170755
 21
420.8557181088673
 31
0.0
  0
LINE
  5
26DA
330
1F
100
AcDbEntity
  8
AM_VIS
100
AcDbLine
 10
162.6752854162374
 20
401.1230495310642
 30
0.0
 11
162.6752854162374
 21
402.2615714573764
 31
0.0
  0
LINE
  5
26DB
330
1F
100
AcDbEntity
  8
AM_VIS
100
AcDbLine
 10
162.6752854162374
 20
402.2615714573764
 30
0.0
 11
176.6752854162374
 21
402.2615714573764
 31
0.0
  0
LINE
  5
26DC
330
1F
100
AcDbEntity
  8
AM_VIS
100
AcDbLine
 10
176.6752854162374
 20
401.1230495310642
 30
0.0
 11
176.6752854162374
 21
402.2615714573764
 31
0.0
  0
LINE
  5
26DD
330
1F
100
AcDbEntity
  8
AM_VIS
100
AcDbLine
 10
176.6752854162374
 20
401.1230495310642
 30
0.0
 11
176.6752854162374
 21
397.6615714573765
 31
0.0
  0
LINE
  5
26DE
102
{ACAD_REACTORS
330
26F7
102
}
330
1F
100
AcDbEntity
  8
AM_VIS
100
AcDbLine
 10
162.6752854162374
 20
401.1230495310642
 30
0.0
 11
162.6752854162374
 21
397.6615714573765
 31
0.0
  0
LINE
  5
26DF
330
1F
100
AcDbEntity
  8
AM_VIS
100
AcDbLine
 10
162.6752854162374
 20
401.1230495310642
 30
0.0
 11
176.6752854162374
 21
401.1230495310642
 31
0.0
  0
ARC
  5
26E0
330
1F
100
AcDbEntity
  8
AM_VIS
100
AcDbCircle
 10
164.6752854162374
 20
395.970755947701
 30
0.0
 40
2.102416218784412
100
AcDbArc
 50
53.53546757229404
 51
126.4645324277059
  0
LINE
  5
26E1
102
{ACAD_REACTORS
330
271E
102
}
330
1F
100
AcDbEntity
  8
AM_VIS
100
AcDbLine
 10
165.9248040712595
 20
397.6615714573765
 30
0.0
 11
176.6752854162374
 21
397.6615714573765
 31
0.0
  0
LINE
  5
26E2
330
1F
100
AcDbEntity
  8
AM_VIS
100
AcDbLine
 10
162.6752854162374
 20
397.6615714573765
 30
0.0
 11
163.4257667612152
 21
397.6615714573765
 31
0.0
  0
LINE
  5
26E3
330
1F
100
AcDbEntity
  8
AM_VIS
100
AcDbLine
 10
176.6752854162374
 20
398.4115714573765
 30
0.0
 11
188.8065232247507
 21
398.4115714573765
 31
0.0
  0
LINE
  5
26E4
330
1F
100
AcDbEntity
  8
AM_VIS
100
AcDbLine
 10
176.6752854162374
 20
400.9115714573765
 30
0.0
 11
188.3578931170756
 21
400.9115714573765
 31
0.0
  0
LINE
  5
26E5
102
{ACAD_REACTORS
330
26F1
102
}
330
1F
100
AcDbEntity
  8
AM_VIS
100
AcDbLine
 10
158.0705319331265
 20
402.2615714573764
 30
0.0
 11
155.2705319331265
 21
402.2615714573764
 31
0.0
  0
LINE
  5
26E6
330
1F
100
AcDbEntity
  8
AM_VIS
100
AcDbLine
 10
158.0705319331265
 20
401.1230495310642
 30
0.0
 11
158.0705319331265
 21
402.2615714573764
 31
0.0
  0
LINE
  5
26E7
102
{ACAD_REACTORS
330
26EB
102
}
330
1F
100
AcDbEntity
  8
AM_VIS
100
AcDbLine
 10
155.2705319331265
 20
402.2615714573764
 30
0.0
 11
155.2705319331265
 21
401.0550116529453
 31
0.0
  0
ARC
  5
26E8
102
{ACAD_REACTORS
330
26EB
102
}
330
1F
100
AcDbEntity
  8
AM_VIS
100
AcDbCircle
 10
156.7052181083485
 20
399.6615714573765
 30
0.0
 40
2.0
100
AcDbArc
 50
135.8355542560548
 51
46.94838594659184
  0
DIMENSION
  5
26E9
102
{ACAD_XDICTIONARY
360
26EA
102
}
102
{ACAD_REACTORS
330
26EB
102
}
330
1F
100
AcDbEntity
  8
AM_5
100
AcDbDimension
  2
*D24
 10
150.6125936940058
 20
397.6615714573765
 30
0.0
 11
150.6125936940058
 21
399.9615714573765
 31
0.0
 70
   160
 71
     5
 42
4.599999999999965
  3
AM_ISO$0
100
AcDbAlignedDimension
 13
155.2705319331265
 23
402.2615714573764
 33
0.0
 14
156.7052181083485
 24
397.6615714573765
 34
0.0
 50
90.0
100
AcDbRotatedDimension
1001
ACAD
1000
DSTYLE
1002
{
1070
    40
1040
0.5
1070
    41
1040
4.0
1002
}
  0
DIMENSION
  5
26EC
102
{ACAD_XDICTIONARY
360
26ED
102
}
102
{ACAD_REACTORS
330
26EE
102
}
330
1F
100
AcDbEntity
  8
AM_5
100
AcDbDimension
  2
*D25
 10
160.163657824212
 20
421.6057181088673
 30
0.0
 11
160.1636578242119
 21
419.6057181088674
 31
0.0
 70
   160
 71
     5
 42
4.0
  3
AM_ISO$0
100
AcDbAlignedDimension
 13
162.6752854162374
 23
417.6057181088673
 33
0.0
 14
162.6752854162374
 24
421.6057181088673
 34
0.0
 50
90.0
100
AcDbRotatedDimension
1001
ACAD
1000
DSTYLE
1002
{
1070
    40
1040
0.5
1070
    41
1040
4.0
1002
}
  0
DIMENSION
  5
26EF
102
{ACAD_XDICTIONARY
360
26F0
102
}
102
{ACAD_REACTORS
330
26F1
102
}
330
1F
100
AcDbEntity
  8
AM_5
100
AcDbDimension
  2
*D26
 10
155.2705319331265
 20
405.9789962040698
 30
0.0
 11
156.6705319331265
 21
405.9789962040698
 31
0.0
 70
   160
 71
     5
 42
2.800000000000011
  3
AM_ISO$0
100
AcDbAlignedDimension
 13
158.0705319331265
 23
402.2615714573764
 33
0.0
 14
155.2705319331265
 24
402.2615714573764
 34
0.0
100
AcDbRotatedDimension
1001
ACAD
1000
DSTYLE
1002
{
1070
    42
1040
0.8
1070
    44
1040
0.8
1070
   147
1040
1.3
1070
    40
1040
0.5
1070
    41
1040
4.0
1002
}
  0
DIMENSION
  5
26F2
102
{ACAD_XDICTIONARY
360
26F3
102
}
102
{ACAD_REACTORS
330
26F4
102
}
330
1F
100
AcDbEntity
  8
AM_5
100
AcDbDimension
  2
*D27
 10
176.6752854162374
 20
411.7082025382397
 30
0.0
 11
169.6752854162374
 21
411.7082025382397
 31
0.0
 70
   160
 71
     5
 42
14.0
  3
AM_ISO$0
100
AcDbAlignedDimension
 13
162.6752854162374
 23
417.6057181088673
 33
0.0
 14
176.6752854162374
 24
417.6057181088673
 34
0.0
100
AcDbRotatedDimension
1001
ACAD
1000
DSTYLE
1002
{
1070
    40
1040
0.5
1070
    41
1040
4.0
1002
}
  0
DIMENSION
  5
26F5
102
{ACAD_XDICTIONARY
360
26F6
102
}
102
{ACAD_REACTORS
330
26F7
102
}
330
1F
100
AcDbEntity
  8
AM_5
100
AcDbDimension
  2
*D28
 10
168.6752854162374
 20
394.7087959558252
 30
0.0
 11
165.7138704232255
 21
394.7087959558252
 31
0.0
 70
   160
 71
     5
 42
6.0
  3
AM_ISO$0
100
AcDbAlignedDimension
 13
162.6752854162374
 23
397.6615714573765
 33
0.0
 14
168.6752854162374
 24
397.6615714573765
 34
0.0
100
AcDbRotatedDimension
1001
ACAD
1000
DSTYLE
1002
{
1070
    40
1040
0.5
1070
    41
1040
4.0
1002
}
  0
LINE
  5
26F8
330
1F
100
AcDbEntity
  8
0
100
AcDbLine
 10
154.7687264352448
 20
399.1615714573765
 30
0.0
 11
158.6417097814523
 21
399.1615714573765
 31
0.0
  0
LINE
  5
26F9
330
1F
100
AcDbEntity
  8
0
100
AcDbLine
 10
162.6752854162374
 20
399.1615714573765
 30
0.0
 11
166.6752854162374
 21
399.1615714573765
 31
0.0
  0
LINE
  5
26FA
330
1F
100
AcDbEntity
  8
0
100
AcDbLine
 10
154.7687264352448
 20
400.1615714573764
 30
0.0
 11
158.6417097814523
 21
400.1615714573764
 31
0.0
  0
LINE
  5
26FB
330
1F
100
AcDbEntity
  8
0
100
AcDbLine
 10
162.6752854162374
 20
400.1615714573764
 30
0.0
 11
166.6752854162374
 21
400.1615714573764
 31
0.0
  0
LINE
  5
26FC
330
1F
100
AcDbEntity
  8
AM_VIS
100
AcDbLine
 10
166.6752854162374
 20
400.1615714573764
 30
0.0
 11
166.6752854162374
 21
399.1615714573765
 31
0.0
  0
ARC
  5
26FD
330
1F
100
AcDbEntity
  8
0
  6
Continuous
 62
     7
370
     9
100
AcDbCircle
 10
189.4326111349039
 20
420.3016141636052
 30
0.0
 40
1.209152595828989
100
AcDbArc
 50
152.7252385029183
 51
225.0
  0
ARC
  5
26FE
330
1F
100
AcDbEntity
  8
0
  6
Continuous
 62
     7
370
     9
100
AcDbCircle
 10
188.1323710576558
 20
418.7837202911858
 30
0.0
 40
0.7985405515489186
100
AcDbArc
 50
327.5895674824444
 51
56.11227518087385
  0
LINE
  5
26FF
330
1F
100
AcDbEntity
  8
0
 62
     7
370
     9
100
AcDbLine
 10
188.9470570342453
 20
400.9115714573826
 30
0.0
 11
203.3225324112746
 21
400.9115714573826
 31
0.0
  0
LINE
  5
2700
330
1F
100
AcDbEntity
  8
0
 62
     7
370
     9
100
AcDbLine
 10
189.3956871419205
 20
398.4115714573826
 30
0.0
 11
203.3225324112746
 21
398.4115714573825
 31
0.0
  0
LINE
  5
2701
330
1F
100
AcDbEntity
  8
0
 62
     7
370
     9
100
AcDbLine
 10
216.3225324112745
 20
400.5365714573826
 30
0.0
 11
216.3225324112745
 21
400.0365714573826
 31
0.0
  0
LINE
  5
2702
330
1F
100
AcDbEntity
  8
0
 62
     7
370
     9
100
AcDbLine
 10
216.3225324112745
 20
398.7865714573826
 30
0.0
 11
216.3225324112745
 21
399.2865714573826
 31
0.0
  0
LINE
  5
2703
330
1F
100
AcDbEntity
  8
0
 62
     7
370
     9
100
AcDbLine
 10
212.3225324112745
 20
400.6365714573826
 30
0.0
 11
212.3225324112745
 21
399.8365714573825
 31
0.0
  0
LINE
  5
2704
330
1F
100
AcDbEntity
  8
0
 62
     7
370
     9
100
AcDbLine
 10
212.3225324112745
 20
398.6865714573826
 30
0.0
 11
212.3225324112745
 21
399.4865714573825
 31
0.0
  0
LINE
  5
2705
330
1F
100
AcDbEntity
  8
0
 62
     7
370
     9
100
AcDbLine
 10
212.3225324112745
 20
398.7865714573826
 30
0.0
 11
216.3225324112745
 21
398.7865714573826
 31
0.0
  0
LINE
  5
2706
330
1F
100
AcDbEntity
  8
0
 62
     7
370
     9
100
AcDbLine
 10
212.3225324112745
 20
399.2865714573826
 30
0.0
 11
216.3225324112745
 21
399.2865714573826
 31
0.0
  0
LINE
  5
2707
330
1F
100
AcDbEntity
  8
0
 62
     7
370
     9
100
AcDbLine
 10
212.3225324112745
 20
400.0365714573826
 30
0.0
 11
216.3225324112745
 21
400.0365714573826
 31
0.0
  0
LINE
  5
2708
330
1F
100
AcDbEntity
  8
0
 62
     7
370
     9
100
AcDbLine
 10
212.3225324112745
 20
400.5365714573826
 30
0.0
 11
216.3225324112745
 21
400.5365714573826
 31
0.0
  0
LINE
  5
2709
330
1F
100
AcDbEntity
  8
0
 62
     7
370
     9
100
AcDbLine
 10
203.3225324112746
 20
399.4865714573825
 30
0.0
 11
207.8872281403405
 21
399.4865714573825
 31
0.0
  0
LINE
  5
270A
330
1F
100
AcDbEntity
  8
0
 62
     7
370
     9
100
AcDbLine
 10
203.3225324112746
 20
398.6865714573826
 30
0.0
 11
208.024409340528
 21
398.6865714573826
 31
0.0
  0
LINE
  5
270B
330
1F
100
AcDbEntity
  8
0
 62
     7
370
     9
100
AcDbLine
 10
203.3225324112746
 20
400.6365714573826
 30
0.0
 11
207.3359261532845
 21
400.6365714573824
 31
0.0
  0
LINE
  5
270C
330
1F
100
AcDbEntity
  8
0
 62
     7
370
     9
100
AcDbLine
 10
203.3225324112746
 20
399.8365714573825
 30
0.0
 11
207.6088489112855
 21
399.8365714573825
 31
0.0
  0
LINE
  5
270D
330
1F
100
AcDbEntity
  8
0
 62
     7
370
     9
100
AcDbLine
 10
209.3530646441939
 20
399.4865714573825
 30
0.0
 11
212.3225324112745
 21
399.4865714573825
 31
0.0
  0
LINE
  5
270E
330
1F
100
AcDbEntity
  8
0
 62
     7
370
     9
100
AcDbLine
 10
209.4916004529243
 20
398.6865714573826
 30
0.0
 11
212.3225324112745
 21
398.6865714573826
 31
0.0
  0
LINE
  5
270F
330
1F
100
AcDbEntity
  8
0
 62
     7
370
     9
100
AcDbLine
 10
208.7928882853269
 20
400.6365714573826
 30
0.0
 11
212.3225324112745
 21
400.6365714573826
 31
0.0
  0
LINE
  5
2710
330
1F
100
AcDbEntity
  8
0
 62
     7
370
     9
100
AcDbLine
 10
209.0799136761433
 20
399.8365714573825
 30
0.0
 11
212.3225324112745
 21
399.8365714573825
 31
0.0
  0
LINE
  5
2711
330
1F
100
AcDbEntity
  8
0
370
     9
100
AcDbLine
 10
203.3225324112746
 20
400.9115714573826
 30
0.0
 11
203.3225324112746
 21
398.4115714573825
 31
0.0
  0
LINE
  5
2712
330
1F
100
AcDbEntity
  8
0
370
     9
100
AcDbLine
 10
203.3225324112746
 20
400.3865714573825
 30
0.0
 11
203.3225324112746
 21
398.6365714573826
 31
0.0
  0
ARC
  5
2713
330
1F
100
AcDbEntity
  8
0
  6
Continuous
 62
     7
370
     9
100
AcDbCircle
 10
208.5431934273596
 20
400.604067597622
 30
0.0
 40
1.209152595828989
100
AcDbArc
 50
170.1185020473042
 51
225.0
  0
ARC
  5
2714
330
1F
100
AcDbEntity
  8
0
  6
Continuous
 62
     7
370
     9
100
AcDbCircle
 10
209.9989997308861
 20
400.6222754881584
 30
0.0
 40
1.209152595828989
100
AcDbArc
 50
170.9931475738524
 51
225.0
  0
ARC
  5
2715
330
1F
100
AcDbEntity
  8
0
  6
Continuous
 62
     7
370
     9
100
AcDbCircle
 10
208.288999730886
 20
398.9122754881584
 30
0.0
 40
1.209152595829016
100
AcDbArc
 50
340.6466871802773
 51
45.0
  0
ARC
  5
2716
330
1F
100
AcDbEntity
  8
0
  6
Continuous
 62
     7
370
     9
100
AcDbCircle
 10
206.8331934273595
 20
398.8940675976219
 30
0.0
 40
1.209152595829016
100
AcDbArc
 50
341.5586319037369
 51
45.0
  0
ARC
  5
2717
330
1F
100
AcDbEntity
  8
0
  6
Continuous
 62
     7
370
     9
100
AcDbCircle
 10
190.0217750520737
 20
400.3574675121204
 30
0.0
 40
1.209152595828989
100
AcDbArc
 50
152.7252385029183
 51
225.0
  0
ARC
  5
2718
330
1F
100
AcDbEntity
  8
0
  6
Continuous
 62
     7
370
     9
100
AcDbCircle
 10
188.7215349748256
 20
398.8395736397011
 30
0.0
 40
0.7985405515489186
100
AcDbArc
 50
327.5895674824444
 51
56.11227518087385
  0
ARC
  5
2719
330
1F
100
AcDbEntity
  8
0
  6
Continuous
 62
     7
370
     9
100
AcDbCircle
 10
189.432611134904
 20
400.3574675121143
 30
0.0
 40
1.209152595828989
100
AcDbArc
 50
152.7252385029183
 51
225.0
  0
ARC
  5
271A
330
1F
100
AcDbEntity
  8
0
  6
Continuous
 62
     7
370
     9
100
AcDbCircle
 10
188.1323710576559
 20
398.839573639695
 30
0.0
 40
0.7985405515489186
100
AcDbArc
 50
327.5895674824444
 51
56.11227518087385
  0
MTEXT
  5
271B
330
1F
100
AcDbEntity
  8
0
100
AcDbMText
 10
148.001602356115
 20
435.2758345319015
 30
0.0
 40
2.5
 41
40.45416666666666
 71
     1
 72
     5
  1
RDF-QD/RNF-QD/RPF-QD
 73
     1
 44
1.0
1001
ACAD
1000
MTEXTBEGIN
1070
    73
1070
     1
1070
    44
1040
1.0
1070
    74
1070
     0
1000
MTEXTEND
  0
LEADER
  5
271C
102
{ACAD_XDICTIONARY
360
271D
102
}
102
{ACAD_REACTORS
330
271E
102
}
330
1F
100
AcDbEntity
  8
AM_5
100
AcDbLeader
  3
AM_ISO$7
 73
     0
 74
     0
 75
     1
 40
2.001968503937007
 41
11.68915404008195
 76
     3
 10
168.7116232466908
 20
397.6615714573765
 30
0.0
 10
171.9660046440006
 20
394.1492225463623
 30
0.0
 10
174.2160046440006
 20
394.1492225463623
 30
0.0
213
1.38251244594312
223
0.1532812093232678
233
0.0
1001
ACAD
1000
DSTYLE
1002
{
1070
    40
1040
0.5
1070
    41
1040
4.5
1070
    43
1040
7.0
1070
   140
1040
3.0
1070
   285
1070
     8
1070
   340
1005
1CDC
1002
}
  0
MTEXT
  5
271F
102
{ACAD_REACTORS
330
271C
102
}
330
1F
100
AcDbEntity
  8
AM_5
100
AcDbMText
 10
171.9660046440006
 20
394.1492225463623
 30
0.0
 40
2.0
 41
0.0
 71
     7
 72
     1
  1
Sensing pount
 73
     1
 44
1.0
1001
ACAD
1000
MTEXTBEGIN
1070
    73
1070
     1
1070
    44
1040
1.0
1070
    74
1070
     0
1000
MTEXTEND
  0
LINE
  5
2720
330
1F
100
AcDbEntity
  8
0
100
AcDbLine
 10
163.8649455850207
 20
418.6886430966353
 30
0.0
 11
165.6270466036913
 21
420.4507441153059
 31
0.0
  0
LINE
  5
2721
330
1F
100
AcDbEntity
  8
0
100
AcDbLine
 10
163.7235242287834
 20
418.8300644528727
 30
0.0
 11
165.485625247454
 21
420.5921654715432
 31
0.0
  0
DIMENSION
  5
2722
102
{ACAD_XDICTIONARY
360
2723
102
}
102
{ACAD_REACTORS
330
2724
102
}
330
1F
100
AcDbEntity
  8
AM_5
100
AcDbDimension
  2
*D29
 10
220.8423000554832
 20
411.7082025382399
 30
0.0
 11
198.7587927358603
 21
411.7082025382399
 31
0.0
 70
   160
  1
165%%p10
 71
     5
 42
44.16701463924584
  3
AM_ISO$0
100
AcDbAlignedDimension
 13
176.6752854162374
 23
417.6057181088673
 33
0.0
 14
220.8423000554832
 24
416.5923252517305
 34
0.0
100
AcDbRotatedDimension
1001
ACAD
1000
DSTYLE
1002
{
1070
    40
1040
0.5
1070
    41
1040
4.0
1002
}
  0
LINE
  5
2725
102
{ACAD_REACTORS
330
27AF
102
}
330
1F
100
AcDbEntity
  8
0
100
AcDbLine
 10
169.1251774449241
 20
343.2874524506661
 30
0.0
 11
172.5628612199908
 21
343.2874524506663
 31
0.0
  0
LINE
  5
2726
330
1F
100
AcDbEntity
  8
0
100
AcDbLine
 10
172.5628612199908
 20
343.2874524506663
 30
0.0
 11
172.5628612199908
 21
347.2874524506663
 31
0.0
  0
LINE
  5
2727
102
{ACAD_REACTORS
330
27AF
102
}
330
1F
100
AcDbEntity
  8
0
100
AcDbLine
 10
172.5628612199908
 20
347.2874524506663
 30
0.0
 11
169.1251774449241
 21
347.2874524506661
 31
0.0
  0
LINE
  5
2728
330
1F
100
AcDbEntity
  8
0
100
AcDbLine
 10
172.8628612199908
 20
346.9874524506664
 30
0.0
 11
172.5628612199908
 21
346.9874524506664
 31
0.0
  0
LINE
  5
2729
330
1F
100
AcDbEntity
  8
0
100
AcDbLine
 10
172.8628612199908
 20
343.5874524506663
 30
0.0
 11
172.5628612199908
 21
343.5874524506663
 31
0.0
  0
ARC
  5
272A
330
1F
100
AcDbEntity
  8
0
100
AcDbCircle
 10
172.8628612199908
 20
343.7874524506661
 30
0.0
 40
0.2
100
AcDbArc
 50
270.0
 51
0.0
  0
LINE
  5
272B
102
{ACAD_REACTORS
330
27A9
330
27AC
102
}
330
1F
100
AcDbEntity
  8
0
100
AcDbLine
 10
173.0628612199908
 20
343.7874524506663
 30
0.0
 11
173.0628612199908
 21
346.7874524506663
 31
0.0
  0
ARC
  5
272C
330
1F
100
AcDbEntity
  8
0
100
AcDbCircle
 10
172.8628612199908
 20
346.7874524506661
 30
0.0
 40
0.2
100
AcDbArc
 50
0.0
 51
90.0
  0
LINE
  5
272D
330
1F
100
AcDbEntity
  8
0
100
AcDbLine
 10
172.3628612199908
 20
343.2874524506663
 30
0.0
 11
172.3628612199908
 21
347.2874524506663
 31
0.0
  0
LINE
  5
272E
330
1F
100
AcDbEntity
  8
0
100
AcDbLine
 10
168.6628612199908
 20
346.6874524506664
 30
0.0
 11
167.4911469056993
 21
346.6874524506664
 31
0.0
  0
LINE
  5
272F
102
{ACAD_REACTORS
330
27B2
102
}
330
1F
100
AcDbEntity
  8
0
100
AcDbLine
 10
168.6628612199908
 20
343.8874524506662
 30
0.0
 11
167.4911469056993
 21
343.8874524506662
 31
0.0
  0
ARC
  5
2730
102
{ACAD_REACTORS
330
27AC
330
27B2
102
}
330
1F
100
AcDbEntity
  8
0
100
AcDbCircle
 10
166.0628612199908
 20
345.2874524506661
 30
0.0
 40
2.0
100
AcDbArc
 50
44.42700400080921
 51
315.5729959991908
  0
LINE
  5
2731
330
1F
100
AcDbEntity
  8
0
100
AcDbLine
 10
165.2628612199909
 20
347.1204827286486
 30
0.0
 11
165.2628612199909
 21
343.454422172684
 31
0.0
  0
LINE
  5
2732
330
1F
100
AcDbEntity
  8
0
100
AcDbLine
 10
166.2628612199909
 20
347.2774273248795
 30
0.0
 11
166.2628612199909
 21
343.2974775764531
 31
0.0
  0
LINE
  5
2733
330
1F
100
AcDbEntity
  8
0
100
AcDbLine
 10
168.6628612199908
 20
346.6874524506664
 30
0.0
 11
169.1251774449241
 21
347.2874524506663
 31
0.0
  0
LINE
  5
2734
330
1F
100
AcDbEntity
  8
0
100
AcDbLine
 10
168.6628612199908
 20
343.8874524506662
 30
0.0
 11
169.1251774449241
 21
343.2874524506663
 31
0.0
  0
LINE
  5
2735
330
1F
100
AcDbEntity
  8
0
100
AcDbLine
 10
188.3609917328678
 20
346.5825192689005
 30
0.0
 11
173.0628612199909
 21
346.5825192689005
 31
0.0
  0
LINE
  5
2736
330
1F
100
AcDbEntity
  8
0
100
AcDbLine
 10
188.7729502673928
 20
344.0825192689005
 30
0.0
 11
173.0628612199908
 21
344.0825192689005
 31
0.0
  0
LINE
  5
2737
330
1F
100
AcDbEntity
  8
0
100
AcDbLine
 10
168.6628612199906
 20
329.5330295976847
 30
0.0
 11
164.0628612199908
 21
329.5330295976847
 31
0.0
  0
LINE
  5
2738
330
1F
100
AcDbEntity
  8
0
100
AcDbLine
 10
172.5628612199908
 20
315.5330295976847
 30
0.0
 11
164.0628612199908
 21
315.5330295976847
 31
0.0
  0
LINE
  5
2739
102
{ACAD_REACTORS
330
27B5
330
27B8
102
}
330
1F
100
AcDbEntity
  8
0
100
AcDbLine
 10
164.0628612199908
 20
329.5330295976847
 30
0.0
 11
164.0628612199908
 21
328.7249400060878
 31
0.0
  0
LINE
  5
273A
102
{ACAD_REACTORS
330
27B8
102
}
330
1F
100
AcDbEntity
  8
0
100
AcDbLine
 10
164.0628612199908
 20
326.9394625826604
 30
0.0
 11
164.0628612199908
 21
315.5330295976847
 31
0.0
  0
LINE
  5
273B
330
1F
100
AcDbEntity
  8
0
100
AcDbLine
 10
172.5628612199908
 20
320.0330295976847
 30
0.0
 11
172.5628612199908
 21
315.5330295976847
 31
0.0
  0
LINE
  5
273C
330
1F
100
AcDbEntity
  8
0
100
AcDbLine
 10
168.6628612199906
 20
329.5330295976847
 30
0.0
 11
168.6628612199906
 21
320.0330295976847
 31
0.0
  0
LINE
  5
273D
330
1F
100
AcDbEntity
  8
0
100
AcDbLine
 10
167.4911469056993
 20
329.5330295976847
 30
0.0
 11
167.4911469056993
 21
315.5330295976847
 31
0.0
  0
LINE
  5
273E
330
1F
100
AcDbEntity
  8
0
100
AcDbLine
 10
172.5628612199908
 20
320.0330295976847
 30
0.0
 11
168.6628612199906
 21
320.0330295976847
 31
0.0
  0
LINE
  5
273F
330
1F
100
AcDbEntity
  8
0
100
AcDbLine
 10
169.1251774449243
 20
320.0330295976847
 30
0.0
 11
169.1251774449243
 21
315.5330295976847
 31
0.0
  0
LINE
  5
2740
330
1F
100
AcDbEntity
  8
0
100
AcDbLine
 10
166.2628612199906
 20
325.5330295976847
 30
0.0
 11
165.2628612199909
 21
325.5330295976847
 31
0.0
  0
LINE
  5
2741
330
1F
100
AcDbEntity
  8
0
100
AcDbLine
 10
166.2628612199906
 20
329.5330295976849
 30
0.0
 11
166.2628612199906
 21
325.5330295976849
 31
0.0
  0
LINE
  5
2742
330
1F
100
AcDbEntity
  8
0
100
AcDbLine
 10
165.2628612199909
 20
329.5330295976847
 30
0.0
 11
165.2628612199906
 21
325.5330295976847
 31
0.0
  0
ARC
  5
2743
330
1F
100
AcDbEntity
  8
0
100
AcDbCircle
 10
160.6751045409092
 20
327.8322012943739
 30
0.0
 40
3.503409442821847
100
AcDbArc
 50
345.237081824573
 51
14.762918175427
  0
LINE
  5
2744
330
1F
100
AcDbEntity
  8
0
100
AcDbLine
 10
172.8628612199908
 20
319.4830295976847
 30
0.0
 11
172.5628612199908
 21
319.4830295976847
 31
0.0
  0
LINE
  5
2745
330
1F
100
AcDbEntity
  8
0
100
AcDbLine
 10
172.8628612199908
 20
316.0830295976846
 30
0.0
 11
172.5628612199908
 21
316.0830295976846
 31
0.0
  0
ARC
  5
2746
330
1F
100
AcDbEntity
  8
0
100
AcDbCircle
 10
172.8628612199908
 20
316.2830295976844
 30
0.0
 40
0.2
100
AcDbArc
 50
270.0
 51
0.0
  0
LINE
  5
2747
330
1F
100
AcDbEntity
  8
0
100
AcDbLine
 10
173.0628612199908
 20
316.2830295976847
 30
0.0
 11
173.0628612199908
 21
319.2830295976847
 31
0.0
  0
ARC
  5
2748
330
1F
100
AcDbEntity
  8
0
100
AcDbCircle
 10
172.8628612199908
 20
319.2830295976845
 30
0.0
 40
0.2
100
AcDbArc
 50
0.0
 51
90.0
  0
LINE
  5
2749
330
1F
100
AcDbEntity
  8
0
100
AcDbLine
 10
168.6628612199908
 20
346.6874524506664
 30
0.0
 11
168.6628612199908
 21
343.8874524506662
 31
0.0
  0
LINE
  5
274B
330
1F
100
AcDbEntity
  8
0
  6
Continuous
 62
     7
370
     9
100
AcDbLine
 10
193.1637286269118
 20
343.3659178904612
 30
0.0
 11
193.1637286269118
 21
346.9866206473398
 31
0.0
  0
LINE
  5
274C
102
{ACAD_REACTORS
330
27A9
102
}
330
1F
100
AcDbEntity
  8
0
370
     9
100
AcDbLine
 10
220.8423000554832
 20
348.3459121260433
 30
0.0
 11
220.8423000554832
 21
342.3191264117576
 31
0.0
  0
LINE
  5
274D
330
1F
100
AcDbEntity
  8
0
370
     9
100
AcDbLine
 10
219.056585769769
 20
348.3459121260433
 30
0.0
 11
218.0394821253431
 21
348.3459121260433
 31
0.0
  0
LINE
  5
274E
330
1F
100
AcDbEntity
  8
0
370
     9
100
AcDbLine
 10
219.056585769769
 20
342.3191264117576
 30
0.0
 11
218.0394821253431
 21
342.3191264117576
 31
0.0
  0
LINE
  5
274F
330
1F
100
AcDbEntity
  8
0
370
     9
100
AcDbLine
 10
217.7173000554834
 20
348.903947840329
 30
0.0
 11
218.0394821253431
 21
348.3459121260433
 31
0.0
  0
LINE
  5
2750
330
1F
100
AcDbEntity
  8
0
370
     9
100
AcDbLine
 10
217.7173000554834
 20
348.903947840329
 30
0.0
 11
217.3951179856231
 21
348.3459121260433
 31
0.0
  0
LINE
  5
2751
330
1F
100
AcDbEntity
  8
0
370
     9
100
AcDbLine
 10
216.8244429126257
 20
348.903947840329
 30
0.0
 11
217.1466249824864
 21
348.3459121260433
 31
0.0
  0
LINE
  5
2752
330
1F
100
AcDbEntity
  8
0
370
     9
100
AcDbLine
 10
217.3951179856231
 20
348.3459121260433
 30
0.0
 11
217.1466249824864
 21
348.3459121260433
 31
0.0
  0
LINE
  5
2753
330
1F
100
AcDbEntity
  8
0
370
     9
100
AcDbLine
 10
216.8244429126257
 20
348.903947840329
 30
0.0
 11
216.502260842766
 21
348.3459121260433
 31
0.0
  0
LINE
  5
2754
330
1F
100
AcDbEntity
  8
0
370
     9
100
AcDbLine
 10
216.502260842766
 20
348.3459121260433
 30
0.0
 11
215.4851571983401
 21
348.3459121260433
 31
0.0
  0
LINE
  5
2755
330
1F
100
AcDbEntity
  8
0
370
     9
100
AcDbLine
 10
216.8244429126257
 20
341.7610906974718
 30
0.0
 11
217.1466249824864
 21
342.3191264117575
 31
0.0
  0
LINE
  5
2756
330
1F
100
AcDbEntity
  8
0
370
     9
100
AcDbLine
 10
217.3951179856231
 20
342.3191264117575
 30
0.0
 11
217.7173000554834
 21
341.7610906974718
 31
0.0
  0
LINE
  5
2757
330
1F
100
AcDbEntity
  8
0
370
     9
100
AcDbLine
 10
217.7173000554834
 20
341.7610906974718
 30
0.0
 11
218.0394821253431
 21
342.3191264117575
 31
0.0
  0
LINE
  5
2758
330
1F
100
AcDbEntity
  8
0
370
     9
100
AcDbLine
 10
217.3951179856231
 20
342.3191264117576
 30
0.0
 11
217.1466249824864
 21
342.3191264117576
 31
0.0
  0
LINE
  5
2759
330
1F
100
AcDbEntity
  8
0
370
     9
100
AcDbLine
 10
216.502260842766
 20
342.3191264117575
 30
0.0
 11
216.8244429126257
 21
341.7610906974718
 31
0.0
  0
LINE
  5
275A
330
1F
100
AcDbEntity
  8
0
370
     9
100
AcDbLine
 10
215.6094036999083
 20
342.3191264117576
 30
0.0
 11
215.9315857697691
 21
341.7610906974718
 31
0.0
  0
LINE
  5
275B
330
1F
100
AcDbEntity
  8
0
370
     9
100
AcDbLine
 10
215.6094036999083
 20
342.3191264117576
 30
0.0
 11
215.4851571983401
 21
342.3191264117576
 31
0.0
  0
LINE
  5
275C
330
1F
100
AcDbEntity
  8
0
370
     9
100
AcDbLine
 10
215.9315857697691
 20
341.7610906974718
 30
0.0
 11
216.2537678396294
 21
342.3191264117576
 31
0.0
  0
LINE
  5
275D
330
1F
100
AcDbEntity
  8
0
370
     9
100
AcDbLine
 10
216.502260842766
 20
342.3191264117576
 30
0.0
 11
216.2537678396294
 21
342.3191264117576
 31
0.0
  0
LINE
  5
275E
330
1F
100
AcDbEntity
  8
0
370
     9
100
AcDbLine
 10
217.7173000554834
 20
348.903947840329
 30
0.0
 11
216.8244429126257
 21
341.7610906974718
 31
0.0
  0
LINE
  5
275F
330
1F
100
AcDbEntity
  8
0
370
     9
100
AcDbLine
 10
218.5404027340543
 20
348.3459121260433
 30
0.0
 11
217.7173000554834
 21
341.7610906974718
 31
0.0
  0
LINE
  5
2760
330
1F
100
AcDbEntity
  8
0
370
     9
100
AcDbLine
 10
215.4851571983401
 20
349.3503764117576
 30
0.0
 11
215.4851571983401
 21
341.3146621260433
 31
0.0
  0
LINE
  5
2761
330
1F
100
AcDbEntity
  8
0
370
     9
100
AcDbLine
 10
216.8244429126257
 20
348.903947840329
 30
0.0
 11
215.9315857697691
 21
341.7610906974718
 31
0.0
  0
LINE
  5
2762
330
1F
100
AcDbEntity
  8
0
370
     9
100
AcDbLine
 10
219.056585769769
 20
348.6137692689004
 30
0.0
 11
219.056585769769
 21
342.0512692689003
 31
0.0
  0
LINE
  5
2763
330
1F
100
AcDbEntity
  8
0
370
     9
100
AcDbLine
 10
220.8423000554832
 20
348.3459121260433
 30
0.0
 11
219.056585769769
 21
348.6137692689004
 31
0.0
  0
LINE
  5
2764
330
1F
100
AcDbEntity
  8
0
370
     9
100
AcDbLine
 10
220.8423000554832
 20
342.3191264117576
 30
0.0
 11
219.056585769769
 21
342.0512692689003
 31
0.0
  0
LINE
  5
2765
330
1F
100
AcDbEntity
  8
0
370
     9
100
AcDbLine
 10
201.1994429126258
 20
349.3503764117576
 30
0.0
 11
201.1994429126258
 21
346.2253764117576
 31
0.0
  0
LINE
  5
2766
330
1F
100
AcDbEntity
  8
0
370
     9
100
AcDbLine
 10
201.1994429126258
 20
344.4396621260432
 30
0.0
 11
201.1994429126258
 21
341.3146621260433
 31
0.0
  0
LINE
  5
2767
330
1F
100
AcDbEntity
  8
0
370
     9
100
AcDbLine
 10
199.8601571983402
 20
349.2015668879481
 30
0.0
 11
199.8601571983402
 21
346.2253764117576
 31
0.0
  0
LINE
  5
2768
330
1F
100
AcDbEntity
  8
0
370
     9
100
AcDbLine
 10
199.8601571983402
 20
344.4396621260432
 30
0.0
 11
199.8601571983402
 21
341.4634716498528
 31
0.0
  0
LINE
  5
2769
330
1F
100
AcDbEntity
  8
0
370
     9
100
AcDbLine
 10
201.1994429126258
 20
346.2253764117576
 30
0.0
 11
199.8601571983402
 21
346.2253764117576
 31
0.0
  0
LINE
  5
276A
330
1F
100
AcDbEntity
  8
0
370
     9
100
AcDbLine
 10
201.1994429126258
 20
344.4396621260432
 30
0.0
 11
199.8601571983402
 21
344.4396621260432
 31
0.0
  0
LINE
  5
276B
330
1F
100
AcDbEntity
  8
0
370
     9
100
AcDbLine
 10
193.1637286269119
 20
347.1740372145594
 30
0.0
 11
193.1637286269119
 21
343.1785013232414
 31
0.0
  0
LINE
  5
276C
330
1F
100
AcDbEntity
  8
0
370
     9
100
AcDbLine
 10
195.8423000554831
 20
344.4396621260432
 30
0.0
 11
194.5030143411975
 21
344.4396621260432
 31
0.0
  0
LINE
  5
276D
330
1F
100
AcDbEntity
  8
0
370
     9
100
AcDbLine
 10
195.8423000554831
 20
346.2253764117576
 30
0.0
 11
194.5030143411975
 21
346.2253764117576
 31
0.0
  0
LINE
  5
276E
330
1F
100
AcDbEntity
  8
0
370
     9
100
AcDbLine
 10
193.1637286269119
 20
348.4575192689005
 30
0.0
 11
194.5030143411975
 21
348.6063287927099
 31
0.0
  0
LINE
  5
276F
330
1F
100
AcDbEntity
  8
0
370
     9
100
AcDbLine
 10
194.5030143411975
 20
348.6063287927099
 30
0.0
 11
194.5030143411975
 21
346.2253764117576
 31
0.0
  0
LINE
  5
2770
330
1F
100
AcDbEntity
  8
0
370
     9
100
AcDbLine
 10
195.8423000554831
 20
348.7551383165194
 30
0.0
 11
195.8423000554831
 21
346.2253764117576
 31
0.0
  0
LINE
  5
2771
330
1F
100
AcDbEntity
  8
0
370
     9
100
AcDbLine
 10
193.1637286269119
 20
342.2075192689003
 30
0.0
 11
194.5030143411975
 21
342.0587097450908
 31
0.0
  0
LINE
  5
2772
330
1F
100
AcDbEntity
  8
0
370
     9
100
AcDbLine
 10
198.5208714840544
 20
349.0527573641386
 30
0.0
 11
198.5208714840544
 21
341.6122811736623
 31
0.0
  0
LINE
  5
2773
330
1F
100
AcDbEntity
  8
0
370
     9
100
AcDbLine
 10
197.1815857697688
 20
348.903947840329
 30
0.0
 11
197.1815857697688
 21
341.7610906974718
 31
0.0
  0
LINE
  5
2774
330
1F
100
AcDbEntity
  8
0
370
     9
100
AcDbLine
 10
193.1637286269119
 20
348.4575192689005
 30
0.0
 11
193.1637286269119
 21
342.2075192689003
 31
0.0
  0
LINE
  5
2775
330
1F
100
AcDbEntity
  8
0
370
     9
100
AcDbLine
 10
194.5030143411975
 20
344.4396621260432
 30
0.0
 11
194.5030143411975
 21
342.0587097450908
 31
0.0
  0
LINE
  5
2776
330
1F
100
AcDbEntity
  8
0
370
     9
100
AcDbLine
 10
195.8423000554831
 20
344.4396621260432
 30
0.0
 11
195.8423000554831
 21
341.9099002212813
 31
0.0
  0
LINE
  5
2777
330
1F
100
AcDbEntity
  8
0
370
     9
100
AcDbLine
 10
195.8423000554831
 20
348.7551383165194
 30
0.0
 11
199.8601571983402
 21
349.2015668879481
 31
0.0
  0
LINE
  5
2778
330
1F
100
AcDbEntity
  8
0
370
     9
100
AcDbLine
 10
195.8423000554831
 20
341.9099002212813
 30
0.0
 11
199.8601571983402
 21
341.4634716498528
 31
0.0
  0
LINE
  5
2779
330
1F
100
AcDbEntity
  8
0
370
     9
100
AcDbLine
 10
215.4851571983401
 20
341.3146621260433
 30
0.0
 11
201.1994429126258
 21
341.3146621260433
 31
0.0
  0
LINE
  5
277A
330
1F
100
AcDbEntity
  8
0
370
     9
100
AcDbLine
 10
215.4851571983401
 20
349.3503764117576
 30
0.0
 11
201.1994429126258
 21
349.3503764117576
 31
0.0
  0
LINE
  5
277B
330
1F
100
AcDbEntity
  8
0
 62
     7
370
     9
100
AcDbLine
 10
194.5030143411975
 20
346.5825192689005
 30
0.0
 11
195.8423000554831
 21
346.5825192689005
 31
0.0
  0
LINE
  5
277C
330
1F
100
AcDbEntity
  8
0
 62
     7
370
     9
100
AcDbLine
 10
197.1815857697688
 20
346.5825192689005
 30
0.0
 11
198.5208714840544
 21
346.5825192689005
 31
0.0
  0
LINE
  5
277D
330
1F
100
AcDbEntity
  8
0
 62
     7
370
     9
100
AcDbLine
 10
199.8601571983402
 20
346.5825192689005
 30
0.0
 11
201.1994429126258
 21
346.5825192689005
 31
0.0
  0
LINE
  5
277E
330
1F
100
AcDbEntity
  8
0
 62
     7
370
     9
100
AcDbLine
 10
194.5030143411975
 20
344.0825192689005
 30
0.0
 11
195.8423000554831
 21
344.0825192689005
 31
0.0
  0
LINE
  5
277F
330
1F
100
AcDbEntity
  8
0
 62
     7
370
     9
100
AcDbLine
 10
197.1815857697688
 20
344.0825192689005
 30
0.0
 11
198.5208714840544
 21
344.0825192689005
 31
0.0
  0
LINE
  5
2780
330
1F
100
AcDbEntity
  8
0
 62
     7
370
     9
100
AcDbLine
 10
199.8601571983402
 20
344.0825192689004
 30
0.0
 11
201.1994429126258
 21
344.0825192689005
 31
0.0
  0
LINE
  5
2781
330
1F
100
AcDbEntity
  8
0
 62
     7
370
     9
100
AcDbLine
 10
189.1532222192208
 20
346.5825192689005
 30
0.0
 11
193.1637286269118
 21
346.5825192689005
 31
0.0
  0
LINE
  5
2782
330
1F
100
AcDbEntity
  8
0
 62
     7
370
     9
100
AcDbLine
 10
189.5537848153593
 20
344.0825192689005
 30
0.0
 11
193.1637286269118
 21
344.0825192689006
 31
0.0
  0
ARC
  5
2783
330
1F
100
AcDbEntity
  8
0
  6
Continuous
 62
     7
370
     9
100
AcDbCircle
 10
190.2279402370492
 20
420.3016141636113
 30
0.0
 40
1.209152595828989
100
AcDbArc
 50
152.7252385029183
 51
225.0
  0
ARC
  5
2784
330
1F
100
AcDbEntity
  8
0
  6
Continuous
 62
     7
370
     9
100
AcDbCircle
 10
188.9840600842129
 20
418.8217092094036
 30
0.0
 40
0.7360257978176784
100
AcDbArc
 50
320.7194687045678
 51
58.10587679353622
  0
ARC
  5
2785
330
1F
100
AcDbEntity
  8
0
  6
Continuous
 62
     7
370
     9
100
AcDbCircle
 10
190.2279402370492
 20
346.0284153236384
 30
0.0
 40
1.209152595828989
100
AcDbArc
 50
152.7252385029183
 51
225.0
  0
ARC
  5
2786
330
1F
100
AcDbEntity
  8
0
  6
Continuous
 62
     7
370
     9
100
AcDbCircle
 10
188.9840600842129
 20
344.5485103694307
 30
0.0
 40
0.7360257978176784
100
AcDbArc
 50
320.7194687045678
 51
58.10587679353622
  0
ARC
  5
2787
330
1F
100
AcDbEntity
  8
0
  6
Continuous
 62
     7
370
     9
100
AcDbCircle
 10
189.3811031580669
 20
345.9333485054042
 30
0.0
 40
1.209152595828989
100
AcDbArc
 50
147.5284500169201
 51
225.0
  0
ARC
  5
2788
330
1F
100
AcDbEntity
  8
0
  6
Continuous
 62
     7
370
     9
100
AcDbCircle
 10
188.1372230052306
 20
344.4534435511965
 30
0.0
 40
0.7360257978176784
100
AcDbArc
 50
329.737956349992
 51
58.10587679353622
  0
LINE
  5
2789
330
1F
100
AcDbEntity
  8
0
100
AcDbLine
 10
188.3609917328678
 20
319.0780964159189
 30
0.0
 11
173.0628612199909
 21
319.0780964159189
 31
0.0
  0
LINE
  5
278A
330
1F
100
AcDbEntity
  8
0
100
AcDbLine
 10
188.7729502673928
 20
316.5780964159189
 30
0.0
 11
173.0628612199908
 21
316.5780964159189
 31
0.0
  0
ARC
  5
278B
330
1F
100
AcDbEntity
  8
0
  6
Continuous
 62
     7
370
     9
100
AcDbCircle
 10
189.3811031580669
 20
318.4289256524226
 30
0.0
 40
1.209152595828989
100
AcDbArc
 50
147.5284500169201
 51
225.0
  0
ARC
  5
278C
330
1F
100
AcDbEntity
  8
0
  6
Continuous
 62
     7
370
     9
100
AcDbCircle
 10
188.1372230052306
 20
316.9490206982149
 30
0.0
 40
0.7360257978176784
100
AcDbArc
 50
329.737956349992
 51
58.10587679353622
  0
LINE
  5
278D
330
1F
100
AcDbEntity
  8
0
 62
     7
370
     9
100
AcDbLine
 10
188.9501556500375
 20
319.0780964159249
 30
0.0
 11
203.3256310270668
 21
319.0780964159249
 31
0.0
  0
LINE
  5
278E
330
1F
100
AcDbEntity
  8
0
 62
     7
370
     9
100
AcDbLine
 10
189.3987857577127
 20
316.578096415925
 30
0.0
 11
203.3256310270668
 21
316.5780964159249
 31
0.0
  0
LINE
  5
278F
330
1F
100
AcDbEntity
  8
0
 62
     7
370
     9
100
AcDbLine
 10
216.3256310270667
 20
318.703096415925
 30
0.0
 11
216.3256310270667
 21
318.2030964159249
 31
0.0
  0
LINE
  5
2790
330
1F
100
AcDbEntity
  8
0
 62
     7
370
     9
100
AcDbLine
 10
216.3256310270667
 20
316.953096415925
 30
0.0
 11
216.3256310270667
 21
317.4530964159249
 31
0.0
  0
LINE
  5
2791
330
1F
100
AcDbEntity
  8
0
 62
     7
370
     9
100
AcDbLine
 10
212.3256310270667
 20
318.803096415925
 30
0.0
 11
212.3256310270667
 21
318.003096415925
 31
0.0
  0
LINE
  5
2792
330
1F
100
AcDbEntity
  8
0
 62
     7
370
     9
100
AcDbLine
 10
212.3256310270667
 20
316.853096415925
 30
0.0
 11
212.3256310270667
 21
317.6530964159249
 31
0.0
  0
LINE
  5
2793
330
1F
100
AcDbEntity
  8
0
 62
     7
370
     9
100
AcDbLine
 10
212.3256310270667
 20
316.953096415925
 30
0.0
 11
216.3256310270667
 21
316.953096415925
 31
0.0
  0
LINE
  5
2794
330
1F
100
AcDbEntity
  8
0
 62
     7
370
     9
100
AcDbLine
 10
212.3256310270667
 20
317.4530964159249
 30
0.0
 11
216.3256310270667
 21
317.4530964159249
 31
0.0
  0
LINE
  5
2795
330
1F
100
AcDbEntity
  8
0
 62
     7
370
     9
100
AcDbLine
 10
212.3256310270667
 20
318.2030964159249
 30
0.0
 11
216.3256310270667
 21
318.2030964159249
 31
0.0
  0
LINE
  5
2796
330
1F
100
AcDbEntity
  8
0
 62
     7
370
     9
100
AcDbLine
 10
212.3256310270667
 20
318.703096415925
 30
0.0
 11
216.3256310270667
 21
318.703096415925
 31
0.0
  0
LINE
  5
2797
330
1F
100
AcDbEntity
  8
0
 62
     7
370
     9
100
AcDbLine
 10
203.3256310270668
 20
317.6530964159249
 30
0.0
 11
207.8903267561327
 21
317.6530964159249
 31
0.0
  0
LINE
  5
2798
330
1F
100
AcDbEntity
  8
0
 62
     7
370
     9
100
AcDbLine
 10
203.3256310270668
 20
316.8530964159249
 30
0.0
 11
208.0275079563203
 21
316.853096415925
 31
0.0
  0
LINE
  5
2799
330
1F
100
AcDbEntity
  8
0
 62
     7
370
     9
100
AcDbLine
 10
203.3256310270668
 20
318.803096415925
 30
0.0
 11
207.3390247690767
 21
318.8030964159249
 31
0.0
  0
LINE
  5
279A
330
1F
100
AcDbEntity
  8
0
 62
     7
370
     9
100
AcDbLine
 10
203.3256310270668
 20
318.003096415925
 30
0.0
 11
207.6119475270778
 21
318.003096415925
 31
0.0
  0
LINE
  5
279B
330
1F
100
AcDbEntity
  8
0
 62
     7
370
     9
100
AcDbLine
 10
209.3561632599862
 20
317.6530964159249
 30
0.0
 11
212.3256310270667
 21
317.6530964159249
 31
0.0
  0
LINE
  5
279C
330
1F
100
AcDbEntity
  8
0
 62
     7
370
     9
100
AcDbLine
 10
209.4946990687165
 20
316.8530964159249
 30
0.0
 11
212.3256310270667
 21
316.8530964159249
 31
0.0
  0
LINE
  5
279D
330
1F
100
AcDbEntity
  8
0
 62
     7
370
     9
100
AcDbLine
 10
208.7959869011192
 20
318.803096415925
 30
0.0
 11
212.3256310270667
 21
318.803096415925
 31
0.0
  0
LINE
  5
279E
330
1F
100
AcDbEntity
  8
0
 62
     7
370
     9
100
AcDbLine
 10
209.0830122919356
 20
318.003096415925
 30
0.0
 11
212.3256310270667
 21
318.003096415925
 31
0.0
  0
LINE
  5
279F
330
1F
100
AcDbEntity
  8
0
370
     9
100
AcDbLine
 10
203.3256310270668
 20
319.0780964159249
 30
0.0
 11
203.3256310270668
 21
316.5780964159249
 31
0.0
  0
LINE
  5
27A0
330
1F
100
AcDbEntity
  8
0
370
     9
100
AcDbLine
 10
203.3256310270668
 20
318.5530964159249
 30
0.0
 11
203.3256310270668
 21
316.8030964159249
 31
0.0
  0
ARC
  5
27A1
330
1F
100
AcDbEntity
  8
0
  6
Continuous
 62
     7
370
     9
100
AcDbCircle
 10
208.5462920431518
 20
318.7705925561644
 30
0.0
 40
1.209152595828989
100
AcDbArc
 50
170.1185020473042
 51
225.0
  0
ARC
  5
27A2
330
1F
100
AcDbEntity
  8
0
  6
Continuous
 62
     7
370
     9
100
AcDbCircle
 10
210.0020983466783
 20
318.7888004467009
 30
0.0
 40
1.209152595828989
100
AcDbArc
 50
170.9931475738524
 51
225.0
  0
ARC
  5
27A3
330
1F
100
AcDbEntity
  8
0
  6
Continuous
 62
     7
370
     9
100
AcDbCircle
 10
208.2920983466782
 20
317.0788004467008
 30
0.0
 40
1.209152595829016
100
AcDbArc
 50
340.6466871802773
 51
45.0
  0
ARC
  5
27A4
330
1F
100
AcDbEntity
  8
0
  6
Continuous
 62
     7
370
     9
100
AcDbCircle
 10
206.8362920431517
 20
317.0605925561643
 30
0.0
 40
1.209152595829016
100
AcDbArc
 50
341.5586319037369
 51
45.0
  0
ARC
  5
27A5
330
1F
100
AcDbEntity
  8
0
  6
Continuous
 62
     7
370
     9
100
AcDbCircle
 10
190.0248736678659
 20
318.5239924706629
 30
0.0
 40
1.209152595828989
100
AcDbArc
 50
152.7252385029183
 51
225.0
  0
ARC
  5
27A6
330
1F
100
AcDbEntity
  8
0
  6
Continuous
 62
     7
370
     9
100
AcDbCircle
 10
188.7246335906178
 20
317.0060985982435
 30
0.0
 40
0.7985405515489186
100
AcDbArc
 50
327.5895674824444
 51
56.11227518087385
  0
DIMENSION
  5
27A7
102
{ACAD_XDICTIONARY
360
27A8
102
}
102
{ACAD_REACTORS
330
27A9
102
}
330
1F
100
AcDbEntity
  8
AM_5
100
AcDbDimension
  2
*D30
 10
220.8423000554832
 20
336.4063210474003
 30
0.0
 11
196.952580637737
 21
337.6313210474003
 31
0.0
 70
    32
  1
165%%p10
 71
     5
 42
47.77943883549238
  3
AM_ISO$0
100
AcDbAlignedDimension
 13
173.0628612199908
 23
343.7874524506663
 33
0.0
 14
220.8423000554832
 24
342.3191264117576
 34
0.0
100
AcDbRotatedDimension
1001
ACAD
1000
DSTYLE
1002
{
1070
    40
1040
0.5
1070
    41
1040
4.0
1002
}
  0
DIMENSION
  5
27AA
102
{ACAD_XDICTIONARY
360
27AB
102
}
102
{ACAD_REACTORS
330
27AC
102
}
330
1F
100
AcDbEntity
  8
AM_5
100
AcDbDimension
  2
*D31
 10
173.0628612199908
 20
336.4063210474002
 30
0.0
 11
168.5628612199908
 21
337.6313210474002
 31
0.0
 70
    32
 71
     5
 42
9.0
  3
AM_ISO$0
100
AcDbAlignedDimension
 13
164.0628612199908
 23
345.2874524506661
 33
0.0
 14
173.0628612199908
 24
343.7874524506663
 34
0.0
100
AcDbRotatedDimension
1001
ACAD
1000
DSTYLE
1002
{
1070
    40
1040
0.5
1070
    41
1040
4.0
1002
}
  0
DIMENSION
  5
27AD
102
{ACAD_XDICTIONARY
360
27AE
102
}
102
{ACAD_REACTORS
330
27AF
102
}
330
1F
100
AcDbEntity
  8
AM_5
100
AcDbDimension
  2
*D32
 10
157.756980120298
 20
347.2874524506661
 30
0.0
 11
157.7569801202979
 21
345.2874524506662
 31
0.0
 70
   160
 71
     5
 42
4.0
  3
AM_ISO$0
100
AcDbAlignedDimension
 13
169.1251774449241
 23
343.2874524506661
 33
0.0
 14
169.1251774449241
 24
347.2874524506661
 34
0.0
 50
90.00000000000321
100
AcDbRotatedDimension
1001
ACAD
1000
DSTYLE
1002
{
1070
    40
1040
0.5
1070
    41
1040
4.0
1002
}
  0
DIMENSION
  5
27B0
102
{ACAD_XDICTIONARY
360
27B1
102
}
102
{ACAD_REACTORS
330
27B2
102
}
330
1F
100
AcDbEntity
  8
AM_5
100
AcDbDimension
  2
*D33
 10
161.4669139266574
 20
343.8874524506662
 30
0.0
 11
161.4669139266574
 21
345.2874524506662
 31
0.0
 70
   160
 71
     5
 42
2.799999999999954
  3
AM_ISO$0
100
AcDbAlignedDimension
 13
167.4911469056993
 23
346.6874524506662
 33
0.0
 14
167.4911469056993
 24
343.8874524506662
 34
0.0
 50
90.0
100
AcDbRotatedDimension
1001
ACAD
1000
DSTYLE
1002
{
1070
   147
1040
1.3
1070
    40
1040
0.5
1070
    41
1040
4.0
1002
}
  0
DIMENSION
  5
27B3
102
{ACAD_XDICTIONARY
360
27B4
102
}
102
{ACAD_REACTORS
330
27B5
102
}
330
1F
100
AcDbEntity
  8
AM_5
100
AcDbDimension
  2
*D34
 10
160.772518973733
 20
323.5330295976847
 30
0.0
 11
159.5475189737329
 21
326.5330295976847
 31
0.0
 70
    32
 71
     5
 42
6.0
  3
AM_ISO$0
100
AcDbAlignedDimension
 13
164.0628612199908
 23
329.5330295976847
 33
0.0
 14
164.0628612199908
 24
323.5330295976847
 34
0.0
 50
90.0
100
AcDbRotatedDimension
1001
ACAD
1000
DSTYLE
1002
{
1070
    40
1040
0.5
1070
    41
1040
4.0
1002
}
  0
DIMENSION
  5
27B6
102
{ACAD_XDICTIONARY
360
27B7
102
}
102
{ACAD_REACTORS
330
27B8
102
}
330
1F
100
AcDbEntity
  8
AM_5
100
AcDbDimension
  2
*D35
 10
158.0079833948072
 20
315.5330295976847
 30
0.0
 11
156.7829833948072
 21
322.5330295976847
 31
0.0
 70
    32
 71
     5
 42
14.0
  3
AM_ISO$0
100
AcDbAlignedDimension
 13
164.0628612199908
 23
329.5330295976847
 33
0.0
 14
164.0628612199908
 24
315.5330295976847
 34
0.0
 50
90.0
100
AcDbRotatedDimension
1001
ACAD
1000
DSTYLE
1002
{
1070
    40
1040
0.5
1070
    41
1040
4.0
1002
}
  0
LEADER
  5
27B9
330
1F
100
AcDbEntity
  8
AM_5
100
AcDbLeader
  3
AM_ISO$7
 73
     0
 75
     1
 40
4.0
 41
6.567524978880364
 76
     3
 10
164.0628612199908
 20
323.5330295976847
 30
0.0
 10
158.0200073035662
 20
311.2203414727042
 30
0.0
 10
156.0200073035662
 20
311.2203414727042
 30
0.0
1001
ACAD
1000
DSTYLE
1002
{
1070
    40
1040
0.5
1070
    41
1040
4.0
1070
    43
1040
7.0
1070
   140
1040
3.0
1070
   285
1070
     8
1070
   340
1005
1CDC
1002
}
  0
MTEXT
  5
27BA
102
{ACAD_REACTORS
330
27B9
102
}
330
1F
100
AcDbEntity
  8
AM_5
100
AcDbMText
 10
155.5200073035662
 20
311.7203414727041
 30
0.0
 40
1.5
 41
0.0
 71
     9
 72
     1
  1
Sensing\PPoint
 73
     1
 44
1.0
1001
ACAD
1000
MTEXTBEGIN
1070
    73
1070
     1
1070
    44
1040
1.0
1070
    74
1070
     0
1000
MTEXTEND
  0
MTEXT
  5
27BB
330
1F
100
AcDbEntity
  8
0
100
AcDbMText
 10
148.2557092298654
 20
360.2715836576806
 30
0.0
 40
2.5
 41
40.45416666666666
 71
     1
 72
     5
  1
RDFV/RNFV/RPFV
 73
     1
 44
1.0
1001
ACAD
1000
MTEXTBEGIN
1070
    73
1070
     1
1070
    44
1040
1.0
1070
    74
1070
     0
1000
MTEXTEND
  0
MTEXT
  5
27BC
330
1F
100
AcDbEntity
  8
0
100
AcDbMText
 10
148.2557092298654
 20
356.0132867463061
 30
0.0
 40
2.5
 41
40.45416666666666
 71
     1
 72
     5
  1
RDFV-QD/RNFV-QD/RPFV-QD
 73
     1
 44
1.0
1001
ACAD
1000
MTEXTBEGIN
1070
    73
1070
     1
1070
    44
1040
1.0
1070
    74
1070
     0
1000
MTEXTEND
  0
TEXT
  5
28C3
330
1F
100
AcDbEntity
  8
LOGO
 62
     7
100
AcDbText
 10
158.1221813853209
 20
292.5303414701208
 30
0.0
 40
2.047703457013574
  1
Order example:
 41
0.8
  7
CHINESET
100
AcDbText
  0
TEXT
  5
28C4
330
1F
100
AcDbEntity
  8
LOGO
 62
     7
100
AcDbText
 10
158.4895563193278
 20
295.4130839551851
 30
0.0
 40
3.071555185520361
  1
訂購代號：
  7
CHINESET
100
AcDbText
  0
LINE
  5
28C5
330
1F
100
AcDbEntity
  8
LOGO
 62
     4
100
AcDbLine
 10
157.2324472878377
 20
283.9005458415128
 30
0.0
 11
157.2324472878377
 21
299.2583217691148
 31
0.0
  0
TEXT
  5
28C6
330
1F
100
AcDbEntity
  8
LOGO
  6
Continuous
100
AcDbText
 10
128.9619223948467
 20
286.9175577455855
 30
0.0
 40
2.303666389140271
  1
金器工業股份有限公司
  7
CHINESET
100
AcDbText
  0
TEXT
  5
28C7
330
1F
100
AcDbEntity
  8
LOGO
  6
Continuous
100
AcDbText
 10
124.7305429959155
 20
284.6134400184474
 30
0.0
 40
1.53577759276018
  1
MINDMAN INDUSTRIAL CO., LTD.
 41
0.85
  7
CHINESET
100
AcDbText
  0
LINE
  5
28C8
330
1F
100
AcDbEntity
  8
LOGO
 62
     4
100
AcDbLine
 10
157.2324472878377
 20
296.1867665835943
 30
0.0
 11
134.7077092606882
 21
296.1867665835943
 31
0.0
  0
LINE
  5
28C9
330
1F
100
AcDbEntity
  8
LOGO
 62
     4
100
AcDbLine
 10
157.2324472878377
 20
293.115211398074
 30
0.0
 11
134.7077092606882
 21
293.115211398074
 31
0.0
  0
LINE
  5
28CA
330
1F
100
AcDbEntity
  8
LOGO
 62
     4
100
AcDbLine
 10
157.2324472878377
 20
290.0436562125538
 30
0.0
 11
123.4453402471137
 21
290.0436562125538
 31
0.0
  0
LINE
  5
28CB
330
1F
100
AcDbEntity
  8
LOGO
 62
     4
100
AcDbLine
 10
134.7077092606882
 20
290.0436562125538
 30
0.0
 11
134.7077092606882
 21
299.2583217691148
 31
0.0
  0
TEXT
  5
28CC
330
1F
100
AcDbEntity
  8
LOGO
100
AcDbText
 10
150.1023045508038
 20
290.8115450089336
 30
0.0
 40
1.53577759276018
  1
mm
  7
CHINESET
 72
     1
 11
152.0037434751735
 21
291.5794338053137
 31
0.0
100
AcDbText
 73
     2
  0
TEXT
  5
28CD
330
1F
100
AcDbEntity
  8
LOGO
100
AcDbText
 10
149.2978496212628
 20
296.9546553799744
 30
0.0
 40
1.53577759276018
  1
1 : 1
  7
CHINESET
 72
     1
 11
152.0037434751735
 21
297.7225441763545
 31
0.0
100
AcDbText
 73
     2
  0
LINE
  5
28CE
330
1F
100
AcDbEntity
  8
LOGO
 62
     4
100
AcDbLine
 10
146.9939300027697
 20
290.0436562125538
 30
0.0
 11
146.9939300027697
 21
299.2583217691148
 31
0.0
  0
TEXT
  5
28CF
330
1F
100
AcDbEntity
  8
LOGO
100
AcDbText
 10
135.9740401597186
 20
296.9554111760338
 30
100.6523333837182
 40
1.53577759276018
  1
比例 Scale:
 41
0.9
  7
CHINESET
 72
     4
 11
140.850819631729
 21
297.7225441763545
 31
100.6523333837182
100
AcDbText
  0
TEXT
  5
28D0
330
1F
100
AcDbEntity
  8
LOGO
100
AcDbText
 10
135.8855958251356
 20
293.9047033651526
 30
100.6523333837182
 40
1.53577759276018
  1
投影  View:
 41
0.9
  7
CHINESET
 72
     4
 11
140.850819631729
 21
294.6509889908341
 31
100.6523333837182
100
AcDbText
  0
TEXT
  5
28D1
330
1F
100
AcDbEntity
  8
LOGO
100
AcDbText
 10
136.0357455094277
 20
290.8115450089336
 30
100.6523333837182
 40
1.53577759276018
  1
單位  Unit:
 41
0.9
  7
CHINESET
 72
     4
 11
140.850819631729
 21
291.5794338053137
 31
100.6523333837182
100
AcDbText
  0
LWPOLYLINE
  5
28D2
330
1F
100
AcDbEntity
  8
LOGO
 62
     4
100
AcDbPolyline
 90
        4
 70
     1
 43
0.0
 10
123.4453402471137
 20
299.2583217691148
 10
254.9114377594459
 20
299.2583217691148
 10
254.9114377594459
 20
454.7808238505623
 10
123.4453402471137
 20
454.7808238505623
1001
GENIUS_GENREC_14
1002
{
1000
PYDIR
1011
123.4453402471137
1021
454.7808238505623
1031
0.0
1002
}
1002
{
1000
PXDIR
1011
254.9114377594459
1021
299.2583217691148
1031
0.0
1002
}
1002
{
1000
PORI
1011
123.4453402471137
1021
299.2583217691148
1031
0.0
1002
}
1002
{
1000
PINS
1011
123.4453402471137
1021
299.2583217691148
1031
0.0
1002
}
1002
{
1000
PINS2
1011
254.9114377594459
1021
454.7808238505623
1031
0.0
1002
}
1002
{
1000
C
1070
     1
1002
}
1001
GENIUS_GENODEF_13
1002
{
1000
HIER
1070
     0
1002
}
1002
{
1000
MANEDIT
1070
     0
1002
}
1002
{
1000
NOSEL
1070
     0
1002
}
1002
{
1000
BEHIND
1070
     0
1002
}
1002
{
1000
OTHER
1070
     0
1002
}
1002
{
1000
REACTOR
1002
}
1001
GENIUS_GENOBJ-N-REC_13
1002
{
1000
OWNER
1000
GEN
1002
}
  0
SOLID
  5
28D3
330
1F
100
AcDbEntity
  8
LOGO
 62
     5
100
AcDbTrace
 10
125.0387341469579
 20
292.596667859791
 30
0.0
 11
125.7027640792633
 21
292.5966678597908
 31
0.0
 12
128.4733717278481
 22
298.8935034247567
 32
0.0
 13
129.1374016601539
 23
298.8935034247564
 33
0.0
  0
SOLID
  5
28D4
330
1F
100
AcDbEntity
  8
LOGO
 62
     5
100
AcDbTrace
 10
125.9775350857353
 20
292.596667859791
 30
0.0
 11
126.6415650180407
 21
292.596667859791
 31
0.0
 12
129.1374016601539
 22
298.3897565795592
 32
0.0
 13
128.4733717278481
 23
295.9549801611057
 33
0.0
  0
SOLID
  5
28D5
330
1F
100
AcDbEntity
  8
LOGO
 62
     2
100
AcDbTrace
 10
125.7027640792633
 20
292.5966678597908
 30
0.0
 11
125.9775350857353
 21
292.596667859791
 31
0.0
 12
129.1374016601539
 22
298.8935034247564
 32
0.0
 13
129.4121726666255
 23
298.8935034247564
 33
0.0
  0
SOLID
  5
28D6
330
1F
100
AcDbEntity
  8
LOGO
 62
     5
100
AcDbTrace
 10
123.974131325386
 20
290.3069094725308
 30
0.0
 11
124.2031071641123
 21
290.3069094725308
 31
0.0
 12
124.8479209480197
 22
291.4517886661608
 32
0.0
 13
125.0768967867453
 23
291.4517886661608
 33
0.0
  0
SOLID
  5
28D7
330
1F
100
AcDbEntity
  8
LOGO
 62
     5
100
AcDbTrace
 10
124.8479209480197
 20
291.4517886661608
 30
0.0
 11
125.0768967867453
 21
291.4517886661608
 31
0.0
 12
124.8479209480197
 22
290.3069094725308
 32
0.0
 13
125.0768967867453
 23
290.3069094725308
 33
0.0
  0
SOLID
  5
28D8
330
1F
100
AcDbEntity
  8
LOGO
 62
     5
100
AcDbTrace
 10
124.8479209480197
 20
290.3069094725308
 30
0.0
 11
125.0768967867453
 21
290.3069094725308
 31
0.0
 12
125.7217105706538
 22
291.4517886661608
 32
0.0
 13
125.9506864093797
 23
291.4517886661608
 33
0.0
  0
SOLID
  5
28D9
330
1F
100
AcDbEntity
  8
LOGO
 62
     5
100
AcDbTrace
 10
125.7217105706538
 20
291.4517886661608
 30
0.0
 11
125.9506864093797
 21
291.4517886661608
 31
0.0
 12
125.7217105706538
 22
290.3069094725308
 32
0.0
 13
125.9506864093797
 23
290.3069094725308
 33
0.0
  0
POLYLINE
  5
28DA
330
1F
100
AcDbEntity
  8
LOGO
 62
     5
100
AcDb2dPolyline
 66
     1
 10
0.0
 20
0.0
 30
0.0
 40
0.2293427871855203
 41
0.2293427871855203
  0
VERTEX
  5
28DB
330
28DA
100
AcDbEntity
  8
LOGO
 62
     5
100
AcDbVertex
100
AcDb2dVertex
 10
133.3969026831475
 20
290.9938369887088
 30
0.0
 42
1.0
  0
VERTEX
  5
28DC
330
28DA
100
AcDbEntity
  8
LOGO
 62
     5
100
AcDbVertex
100
AcDb2dVertex
 10
132.7088743215908
 20
290.9938369887088
 30
0.0
 42
1.0
  0
SEQEND
  5
28DD
330
28DA
100
AcDbEntity
  8
LOGO
 62
     5
  0
POLYLINE
  5
28DE
330
1F
100
AcDbEntity
  8
LOGO
 62
     5
100
AcDb2dPolyline
 66
     1
 10
0.0
 20
0.0
 30
0.0
 70
     1
  0
VERTEX
  5
28DF
330
28DE
100
AcDbEntity
  8
LOGO
 62
     5
100
AcDbVertex
100
AcDb2dVertex
 10
131.4119102565548
 20
290.8793490693457
 30
0.0
 42
1.000000057330635
  0
VERTEX
  5
28E0
330
28DE
100
AcDbEntity
  8
LOGO
 62
     5
100
AcDbVertex
100
AcDb2dVertex
 10
132.0988377727329
 20
290.8793490693457
 30
0.0
 42
1.000000057330635
  0
SEQEND
  5
28E1
330
28DE
100
AcDbEntity
  8
LOGO
 62
     5
  0
CIRCLE
  5
28E2
330
1F
100
AcDbEntity
  8
LOGO
 62
     5
100
AcDbCircle
 10
131.7553740146443
 20
290.8793490693457
 30
0.0
 40
0.3434637580890353
  0
POLYLINE
  5
28E3
330
1F
100
AcDbEntity
  8
LOGO
 62
     5
100
AcDb2dPolyline
 66
     1
 10
0.0
 20
0.0
 30
0.0
 70
     1
 40
0.2293427871855203
 41
0.2293427871855203
  0
VERTEX
  5
28E4
330
28E3
100
AcDbEntity
  8
LOGO
 62
     5
100
AcDbVertex
100
AcDb2dVertex
 10
131.296688440273
 20
290.8793490693457
 30
0.0
 42
1.0
  0
VERTEX
  5
28E5
330
28E3
100
AcDbEntity
  8
LOGO
 62
     5
100
AcDbVertex
100
AcDb2dVertex
 10
132.214059589015
 20
290.8793490693457
 30
0.0
 42
1.0
  0
SEQEND
  5
28E6
330
28E3
100
AcDbEntity
  8
LOGO
 62
     5
  0
LINE
  5
28E7
330
1F
100
AcDbEntity
  8
LOGO
100
AcDbLine
 10
133.5108401798208
 20
290.3069094725308
 30
0.0
 11
133.5108401798208
 21
290.9938369887088
 31
0.0
  0
SOLID
  5
28E8
330
1F
100
AcDbEntity
  8
LOGO
 62
     5
100
AcDbTrace
 10
132.09881487515
 20
291.4517886661608
 30
0.0
 11
132.3277907138756
 21
291.4517886661608
 31
0.0
 12
132.09881487515
 22
290.3069094725308
 32
0.0
 13
132.3277907138756
 23
290.3069094725308
 33
0.0
  0
SOLID
  5
28E9
330
1F
100
AcDbEntity
  8
LOGO
 62
     5
100
AcDbTrace
 10
132.5949368249168
 20
290.3069094725308
 30
0.0
 11
132.8239126636431
 21
290.3069094725308
 31
0.0
 12
132.5949368249168
 22
291.4517886661608
 32
0.0
 13
132.8239126636431
 23
291.4517886661608
 33
0.0
  0
SOLID
  5
28EA
330
1F
100
AcDbEntity
  8
LOGO
 62
     5
100
AcDbTrace
 10
133.2818643410952
 20
290.9938369887088
 30
0.0
 11
133.5108401798208
 21
290.9938369887088
 31
0.0
 12
133.2818643410952
 22
290.3069094725308
 32
0.0
 13
133.5108401798208
 23
290.3069094725308
 33
0.0
  0
SOLID
  5
28EB
330
1F
100
AcDbEntity
  8
LOGO
 62
     5
100
AcDbTrace
 10
132.5720392410441
 20
298.3897565795592
 30
0.0
 11
131.908009308739
 21
295.9549801611057
 31
0.0
 12
132.5720392410441
 22
292.5966678597908
 32
0.0
 13
131.908009308739
 23
292.5966678597908
 33
0.0
  0
SOLID
  5
28EC
330
1F
100
AcDbEntity
  8
LOGO
 62
     5
100
AcDbTrace
 10
132.8468102475157
 20
292.5966678597908
 30
0.0
 11
133.5108401798208
 21
292.5966678597908
 31
0.0
 12
132.8468102475157
 22
298.8935034247564
 32
0.0
 13
133.5108401798208
 23
298.8935034247567
 33
0.0
  0
SOLID
  5
28ED
330
1F
100
AcDbEntity
  8
LOGO
 62
     2
100
AcDbTrace
 10
132.5720392410441
 20
298.8935034247567
 30
0.0
 11
132.8468102475157
 21
298.8935034247564
 31
0.0
 12
132.5720392410441
 22
292.5966678597908
 32
0.0
 13
132.8468102475157
 23
292.5966678597908
 33
0.0
  0
POLYLINE
  5
28EE
330
1F
100
AcDbEntity
  8
LOGO
 62
     5
100
AcDb2dPolyline
 66
     1
 10
0.0
 20
0.0
 30
0.0
 40
0.2293427871855203
 41
0.2293427871855203
  0
VERTEX
  5
28EF
330
28EE
100
AcDbEntity
  8
LOGO
 62
     5
100
AcDbVertex
100
AcDb2dVertex
 10
130.1149003963519
 20
290.9938369887088
 30
0.0
 42
1.0
  0
VERTEX
  5
28F0
330
28EE
100
AcDbEntity
  8
LOGO
 62
     5
100
AcDbVertex
100
AcDb2dVertex
 10
129.4268720347953
 20
290.9938369887088
 30
0.0
 42
1.0
  0
SEQEND
  5
28F1
330
28EE
100
AcDbEntity
  8
LOGO
 62
     5
  0
POLYLINE
  5
28F2
330
1F
100
AcDbEntity
  8
LOGO
 62
     5
100
AcDb2dPolyline
 66
     1
 10
0.0
 20
0.0
 30
0.0
 40
0.2293427871855203
 41
0.2293427871855203
  0
VERTEX
  5
28F3
330
28F2
100
AcDbEntity
  8
LOGO
 62
     5
100
AcDbVertex
100
AcDb2dVertex
 10
130.8018279125294
 20
290.9938369887088
 30
0.0
 42
1.0
  0
VERTEX
  5
28F4
330
28F2
100
AcDbEntity
  8
LOGO
 62
     5
100
AcDbVertex
100
AcDb2dVertex
 10
130.113799550973
 20
290.9938369887088
 30
0.0
 42
1.0
  0
SEQEND
  5
28F5
330
28F2
100
AcDbEntity
  8
LOGO
 62
     5
  0
POLYLINE
  5
28F6
330
1F
100
AcDbEntity
  8
LOGO
 62
     5
100
AcDb2dPolyline
 66
     1
 10
0.0
 20
0.0
 30
0.0
 40
0.2293427871855203
 41
0.2293427871855203
  0
VERTEX
  5
28F7
330
28F6
100
AcDbEntity
  8
LOGO
 62
     5
100
AcDbVertex
100
AcDb2dVertex
 10
127.5198256257338
 20
290.9938369887088
 30
0.0
 42
1.0
  0
VERTEX
  5
28F8
330
28F6
100
AcDbEntity
  8
LOGO
 62
     5
100
AcDbVertex
100
AcDb2dVertex
 10
126.8317972641775
 20
290.9938369887088
 30
0.0
 42
1.0
  0
SEQEND
  5
28F9
330
28F6
100
AcDbEntity
  8
LOGO
 62
     5
  0
SOLID
  5
28FA
330
1F
100
AcDbEntity
  8
LOGO
 62
     5
100
AcDbTrace
 10
126.7178597675038
 20
291.4517886661608
 30
0.0
 11
126.9468356062294
 21
291.4517886661608
 31
0.0
 12
126.7178597675038
 22
290.3069094725308
 32
0.0
 13
126.9468356062294
 23
290.3069094725308
 33
0.0
  0
SOLID
  5
28FB
330
1F
100
AcDbEntity
  8
LOGO
 62
     5
100
AcDbTrace
 10
127.4047872836819
 20
290.9938369887088
 30
0.0
 11
127.6337631224082
 21
290.9938369887088
 31
0.0
 12
127.4047872836819
 22
290.3069094725308
 32
0.0
 13
127.6337631224082
 23
290.3069094725308
 33
0.0
  0
POLYLINE
  5
28FC
330
1F
100
AcDbEntity
  8
LOGO
 62
     5
100
AcDb2dPolyline
 66
     1
 10
0.0
 20
0.0
 30
0.0
 70
     1
 40
0.2293427871855203
 41
0.2293427871855203
  0
VERTEX
  5
28FD
330
28FC
100
AcDbEntity
  8
LOGO
 62
     5
100
AcDbVertex
100
AcDb2dVertex
 10
128.0146861534771
 20
290.8793490693457
 30
0.0
 42
1.0
  0
VERTEX
  5
28FE
330
28FC
100
AcDbEntity
  8
LOGO
 62
     5
100
AcDbVertex
100
AcDb2dVertex
 10
128.9320573022195
 20
290.8793490693457
 30
0.0
 42
1.0
  0
SEQEND
  5
28FF
330
28FC
100
AcDbEntity
  8
LOGO
 62
     5
  0
SOLID
  5
2900
330
1F
100
AcDbEntity
  8
LOGO
 62
     5
100
AcDbTrace
 10
128.8168125883538
 20
291.79525242425
 30
0.0
 11
129.0457884270797
 21
291.79525242425
 31
0.0
 12
128.8168125883538
 22
290.3069094725308
 32
0.0
 13
129.0457884270797
 23
290.3069094725308
 33
0.0
  0
SOLID
  5
2901
330
1F
100
AcDbEntity
  8
LOGO
 62
     5
100
AcDbTrace
 10
129.3129345381219
 20
291.4517886661608
 30
0.0
 11
129.5419103768475
 21
291.4517886661608
 31
0.0
 12
129.3129345381219
 22
290.3069094725308
 32
0.0
 13
129.5419103768475
 23
290.3069094725308
 33
0.0
  0
SOLID
  5
2902
330
1F
100
AcDbEntity
  8
LOGO
 62
     5
100
AcDbTrace
 10
129.9998620542994
 20
290.9938369887088
 30
0.0
 11
130.2288378930256
 21
290.9938369887088
 31
0.0
 12
129.9998620542994
 22
290.3069094725308
 32
0.0
 13
130.2288378930256
 23
290.3069094725308
 33
0.0
  0
SOLID
  5
2903
330
1F
100
AcDbEntity
  8
LOGO
 62
     5
100
AcDbTrace
 10
130.6867895704775
 20
290.9938369887088
 30
0.0
 11
130.9157654092034
 21
290.9938369887088
 31
0.0
 12
130.6867895704775
 22
290.3069094725306
 32
0.0
 13
130.9157654092034
 23
290.3069094725306
 33
0.0
  0
SOLID
  5
2904
330
1F
100
AcDbEntity
  8
LOGO
 62
     5
100
AcDbTrace
 10
126.221737817736
 20
291.6120717532691
 30
0.0
 11
126.4507136564626
 21
291.6120717532691
 31
0.0
 12
126.221737817736
 22
291.79525242425
 32
0.0
 13
126.4507136564626
 23
291.79525242425
 33
0.0
  0
SOLID
  5
2905
330
1F
100
AcDbEntity
  8
LOGO
 62
     5
100
AcDbTrace
 10
126.221737817736
 20
291.4517886661608
 30
0.0
 11
126.4507136564626
 21
291.4517886661608
 31
0.0
 12
126.221737817736
 22
290.3069094725306
 32
0.0
 13
126.4507136564626
 23
290.3069094725308
 33
0.0
  0
SOLID
  5
2906
330
1F
100
AcDbEntity
  8
LOGO
 62
     5
100
AcDbTrace
 10
128.4733717278481
 20
292.596667859791
 30
0.0
 11
129.1374016601539
 21
292.596667859791
 31
0.0
 12
128.4733717278481
 22
295.9549801611057
 32
0.0
 13
129.1374016601539
 23
298.3897565795592
 33
0.0
  0
SOLID
  5
2907
330
1F
100
AcDbEntity
  8
LOGO
 62
     5
100
AcDbTrace
 10
129.4121726666255
 20
298.8935034247564
 30
0.0
 11
130.0762025989306
 21
298.8935034247567
 31
0.0
 12
129.4121726666255
 22
293.1004147049881
 32
0.0
 13
130.0762025989306
 23
295.5351911234415
 33
0.0
  0
SOLID
  5
2908
330
1F
100
AcDbEntity
  8
LOGO
 62
     2
100
AcDbTrace
 10
129.1374016601539
 20
298.8935034247564
 30
0.0
 11
129.4121726666255
 21
298.8935034247564
 31
0.0
 12
129.1374016601539
 22
292.596667859791
 32
0.0
 13
129.4121726666255
 23
292.596667859791
 33
0.0
  0
SOLID
  5
2909
330
1F
100
AcDbEntity
  8
LOGO
 62
     5
100
AcDbTrace
 10
129.4121726666255
 20
293.1004147049881
 30
0.0
 11
130.0762025989306
 21
295.5351911234415
 31
0.0
 12
132.5720392410441
 22
298.8935034247567
 32
0.0
 13
131.908009308739
 23
298.8935034247567
 33
0.0
  0
SOLID
  5
290A
330
1F
100
AcDbEntity
  8
LOGO
 62
     5
100
AcDbTrace
 10
129.4121726666255
 20
292.596667859791
 30
0.0
 11
130.0762025989306
 21
292.596667859791
 31
0.0
 12
132.5720392410441
 22
298.3897565795592
 32
0.0
 13
131.908009308739
 23
295.9549801611057
 33
0.0
  0
SOLID
  5
290B
330
1F
100
AcDbEntity
  8
LOGO
 62
     2
100
AcDbTrace
 10
129.1374016601539
 20
292.596667859791
 30
0.0
 11
129.4121726666255
 21
292.596667859791
 31
0.0
 12
132.5720392410441
 22
298.8935034247567
 32
0.0
 13
132.8468102475157
 23
298.8935034247564
 33
0.0
  0
LWPOLYLINE
  5
290C
330
1F
100
AcDbEntity
  8
LOGO
 62
     4
100
AcDbPolyline
 90
        4
 70
     1
 43
0.0
 10
123.4453402471137
 20
299.2583217691148
 10
254.9114377594459
 20
299.2583217691148
 10
254.9114377594459
 20
283.9005458415126
 10
123.4453402471137
 20
283.9005458415126
1001
GENIUS_GENREC_14
1002
{
1000
PYDIR
1011
123.4453402471137
1021
283.9005458415126
1031
0.0
1002
}
1002
{
1000
PXDIR
1011
254.9114377594459
1021
299.2583217691148
1031
0.0
1002
}
1002
{
1000
PORI
1011
123.4453402471137
1021
299.2583217691148
1031
0.0
1002
}
1002
{
1000
PINS
1011
123.4453402471137
1021
299.2583217691148
1031
0.0
1002
}
1002
{
1000
PINS2
1011
254.9114377594459
1021
283.9005458415126
1031
0.0
1002
}
1002
{
1000
C
1070
     1
1002
}
1001
GENIUS_GENOBJ-N-REC_13
1002
{
1000
OWNER
1000
GEN
1002
}
1001
GENIUS_GENODEF_13
1002
{
1000
HIER
1070
     0
1002
}
1002
{
1000
MANEDIT
1070
     0
1002
}
1002
{
1000
NOSEL
1070
     0
1002
}
1002
{
1000
BEHIND
1070
     0
1002
}
1002
{
1000
OTHER
1070
     0
1002
}
1002
{
1000
REACTOR
1002
}
  0
LINE
  5
290D
330
1F
100
AcDbEntity
  8
LOGO
 62
     4
100
AcDbLine
 10
188.594903748624
 20
290.811545008934
 30
0.0
 11
188.594903748624
 21
285.1803605021462
 31
0.0
  0
LINE
  5
290E
330
1F
100
AcDbEntity
  8
LOGO
 62
     4
100
AcDbLine
 10
178.3563864635561
 20
290.811545008934
 30
0.0
 11
178.3563864635561
 21
285.1803605021462
 31
0.0
  0
LINE
  5
290F
330
1F
100
AcDbEntity
  8
LOGO
 62
     4
100
AcDbLine
 10
188.594903748624
 20
285.1803605021462
 30
0.0
 11
178.3563864635561
 21
285.1803605021462
 31
0.0
  0
LINE
  5
2910
330
1F
100
AcDbEntity
  8
LOGO
 62
     4
100
AcDbLine
 10
190.4312906335952
 20
297.7225441763545
 30
0.0
 11
178.3563864635561
 21
297.7225441763545
 31
0.0
  0
LINE
  5
2911
330
1F
100
AcDbEntity
  8
LOGO
 62
     4
100
AcDbLine
 10
190.4312906335952
 20
293.115211398074
 30
0.0
 11
178.3563864635561
 21
293.115211398074
 31
0.0
  0
LINE
  5
2912
330
1F
100
AcDbEntity
  8
LOGO
 62
     4
100
AcDbLine
 10
178.3563864635561
 20
297.7225441763545
 30
0.0
 11
178.3563864635561
 21
293.115211398074
 31
0.0
  0
LINE
  5
2913
330
1F
100
AcDbEntity
  8
LOGO
 62
     4
100
AcDbLine
 10
190.4312906335952
 20
297.7225441763545
 30
0.0
 11
190.4312906335952
 21
293.115211398074
 31
0.0
  0
LINE
  5
2914
330
1F
100
AcDbEntity
  8
LOGO
 62
     4
100
AcDbLine
 10
184.0098385485757
 20
293.115211398074
 30
0.0
 11
184.0098385485757
 21
290.811545008934
 31
0.0
  0
TEXT
  5
2915
330
1F
100
AcDbEntity
  8
LOGO
  6
Continuous
 62
     7
100
AcDbText
 10
180.5809074480447
 20
294.0769853796202
 30
0.0
 40
2.688
  1
RDF
  7
CHINESET
100
AcDbText
  0
LINE
  5
2916
330
1F
100
AcDbEntity
  8
LOGO
 62
     4
100
AcDbLine
 10
188.594903748624
 20
290.811545008934
 30
0.0
 11
178.3563864635561
 21
290.811545008934
 31
0.0
  0
TEXT
  5
2917
330
1F
100
AcDbEntity
  8
LOGO
  6
Continuous
100
AcDbText
 10
181.6418942456819
 20
285.9751902540751
 30
100.6523333837182
 40
1.152
  1
Model
 41
0.8
  7
CHINESET
100
AcDbText
  0
TEXT
  5
2918
330
1F
100
AcDbEntity
  8
LOGO
100
AcDbText
 10
181.3352692948986
 20
288.1107499803554
 30
100.6523333837182
 40
1.919999999999999
  1
型號
  7
CHINESET
100
AcDbText
  0
TEXT
  5
2919
330
1F
100
AcDbEntity
  8
LOGO
100
AcDbText
 10
158.0720266219082
 20
284.7175734592444
 30
0.0
 40
1.536
  1
01005051
 41
0.7
  7
CHINESET
 72
     1
 11
161.6816266219082
 21
284.7175734592444
 31
0.0
100
AcDbText
  0
LINE
  5
291A
330
1F
100
AcDbEntity
  8
LOGO
 62
     4
100
AcDbLine
 10
166.448447287837
 20
286.9721010270335
 30
0.0
 11
166.4484472878377
 21
283.900545841513
 31
0.0
  0
LINE
  5
291B
330
1F
100
AcDbEntity
  8
LOGO
 62
     4
100
AcDbLine
 10
166.448447287837
 20
286.9721010270335
 30
0.0
 11
157.2324472878377
 21
286.9721010270335
 31
0.0
  0
CIRCLE
  5
291C
330
1F
100
AcDbEntity
  8
LOGO
  6
Continuous
100
AcDbCircle
 10
149.8376143077899
 20
294.6542740303436
 30
0.0
 40
0.891708618486245
  0
CIRCLE
  5
291D
330
1F
100
AcDbEntity
  8
LOGO
  6
Continuous
100
AcDbCircle
 10
149.8376143077899
 20
294.6542740303436
 30
0.0
 40
0.5224623119351787
  0
LINE
  5
291E
330
1F
100
AcDbEntity
  8
LOGO
100
AcDbLine
 10
155.4412147358499
 20
293.7625654118572
 30
0.0
 11
155.4412147358499
 21
295.5459826488301
 31
0.0
  0
LINE
  5
291F
330
1F
100
AcDbEntity
  8
LOGO
100
AcDbLine
 10
152.6457594034127
 20
294.1318117184086
 30
0.0
 11
152.6457594034127
 21
295.1767363422789
 31
0.0
  0
LINE
  5
2920
330
1F
100
AcDbEntity
  8
LOGO
  6
Continuous
100
AcDbLine
 10
152.6457594034127
 20
295.1767363422789
 30
0.0
 11
155.4412147358499
 21
295.5459826488301
 31
0.0
  0
LINE
  5
2921
330
1F
100
AcDbEntity
  8
LOGO
  6
Continuous
100
AcDbLine
 10
152.6457594034127
 20
294.1318117184086
 30
0.0
 11
155.4412147358499
 21
293.7625654118572
 31
0.0
  0
LINE
  5
2922
330
1F
100
AcDbEntity
  8
LOGO
  6
AM_ISO08W050x2
 48
0.3
100
AcDbLine
 10
148.6083806249214
 20
294.6542740303436
 30
0.0
 11
151.0668479906583
 21
294.6542740303436
 31
0.0
1001
GENIUS_GENOREF_13
1005
2927
  0
LINE
  5
2923
330
1F
100
AcDbEntity
  8
LOGO
  6
AM_ISO08W050x2
 48
0.3
100
AcDbLine
 10
149.8376143077899
 20
293.4250403474752
 30
0.0
 11
149.8376143077899
 21
295.8835077132121
 31
0.0
1001
GENIUS_GENOREF_13
1005
2926
  0
LINE
  5
2924
330
1F
100
AcDbEntity
  8
LOGO
  6
CENTER
 48
0.5
100
AcDbLine
 10
152.4222006761352
 20
294.6542740303436
 30
0.0
 11
155.7227080384709
 21
294.6542740303436
 31
0.0
1001
GENIUS_GENOREF_13
1005
2925
  0
POINT
  5
2925
330
1F
100
AcDbEntity
  8
0
 60
     1
100
AcDbPoint
 10
-1949.639111438457
 20
-649.6689424179721
 30
0.0
1001
GENIUS_GENOBJ-N-CRS_13
1002
{
1000
OWNER
1000
GEN
1002
}
1001
GENIUS_GENOLIS_13
1002
{
1000
ENT
1005
0
1005
0
1005
0
1005
2924
1002
}
1001
GENIUS_GENOENT_13
1002
{
1000
MYREF
1005
2925
1002
}
1002
{
1000
GRP
1005
0
1002
}
1001
GENIUS_GENODEF_13
1002
{
1000
HIER
1070
    10
1002
}
1002
{
1000
MANEDIT
1070
     1
1002
}
1002
{
1000
NOSEL
1070
     0
1002
}
1002
{
1000
BEHIND
1070
     0
1002
}
1002
{
1000
OTHER
1070
     0
1002
}
1002
{
1000
REACTOR
1002
}
  0
POINT
  5
2926
330
1F
100
AcDbEntity
  8
0
 60
     1
100
AcDbPoint
 10
-1960.963696661312
 20
-640.7933559393359
 30
0.0
1001
GENIUS_GENOBJ-N-CRS_13
1002
{
1000
OWNER
1000
GEN
1002
}
1001
GENIUS_GENOLIS_13
1002
{
1000
ENT
1005
0
1005
0
1005
0
1005
2923
1002
}
1001
GENIUS_GENOENT_13
1002
{
1000
MYREF
1005
2926
1002
}
1002
{
1000
GRP
1005
0
1002
}
1001
GENIUS_GENODEF_13
1002
{
1000
HIER
1070
    10
1002
}
1002
{
1000
MANEDIT
1070
     1
1002
}
1002
{
1000
NOSEL
1070
     0
1002
}
1002
{
1000
BEHIND
1070
     0
1002
}
1002
{
1000
OTHER
1070
     0
1002
}
1002
{
1000
REACTOR
1002
}
  0
POINT
  5
2927
330
1F
100
AcDbEntity
  8
0
 60
     1
100
AcDbPoint
 10
-1954.605022963475
 20
-649.6689424179721
 30
0.0
1001
GENIUS_GENOBJ-N-CRS_13
1002
{
1000
OWNER
1000
GEN
1002
}
1001
GENIUS_GENOLIS_13
1002
{
1000
ENT
1005
0
1005
0
1005
0
1005
2922
1002
}
1001
GENIUS_GENOENT_13
1002
{
1000
MYREF
1005
2927
1002
}
1002
{
1000
GRP
1005
0
1002
}
1001
GENIUS_GENODEF_13
1002
{
1000
HIER
1070
    10
1002
}
1002
{
1000
MANEDIT
1070
     1
1002
}
1002
{
1000
NOSEL
1070
     0
1002
}
1002
{
1000
BEHIND
1070
     0
1002
}
1002
{
1000
OTHER
1070
     0
1002
}
1002
{
1000
REACTOR
1002
}
  0
ENDSEC
  0
SECTION
  2
OBJECTS
  0
DICTIONARY
  5
C
330
0
100
AcDbDictionary
281
     1
  3
ACAD_COLOR
350
BE
  3
ACAD_GROUP
350
D
  3
ACAD_LAYOUT
350
1A
  3
ACAD_MATERIAL
350
BD
  3
ACAD_MLINESTYLE
350
17
  3
ACAD_PLOTSETTINGS
350
19
  3
ACAD_PLOTSTYLENAME
350
E
  3
ACAD_TABLESTYLE
350
11A
  3
ACDBHEADERROUNDTRIPXREC
350
2ADA
  3
AcDbVariableDictionary
350
94
  3
AcmDictionary
350
5B
  3
AMG
350
41
  3
AMGSNAPSETTINGS
350
1B8
  3
DWGPROPS
350
2AD9
  3
MAPISURF_MODULE
350
2469
  0
DICTIONARY
  5
3F9
330
2
100
AcDbDictionary
280
     1
281
     1
  3
ACAD_LAYERFILTERS
360
5B7
  3
ACAD_LAYERSTATES
360
B13
  3
ACLYDICTIONARY
360
5B6
  0
DICTIONARY
  5
8F
330
1F
100
AcDbDictionary
280
     1
281
     1
  3
ACAD_INDEX
360
2928
  3
ACAD_SORTENTS
360
1430
  0
DICTIONARY
  5
26EA
330
26E9
100
AcDbDictionary
280
     1
281
     1
  3
ACAD_DIMASSOC
360
26EB
  0
DICTIONARY
  5
26ED
330
26EC
100
AcDbDictionary
280
     1
281
     1
  3
ACAD_DIMASSOC
360
26EE
  0
DICTIONARY
  5
26F0
330
26EF
100
AcDbDictionary
280
     1
281
     1
  3
ACAD_DIMASSOC
360
26F1
  0
DICTIONARY
  5
26F3
330
26F2
100
AcDbDictionary
280
     1
281
     1
  3
ACAD_DIMASSOC
360
26F4
  0
DICTIONARY
  5
26F6
330
26F5
100
AcDbDictionary
280
     1
281
     1
  3
ACAD_DIMASSOC
360
26F7
  0
DICTIONARY
  5
271D
330
271C
100
AcDbDictionary
280
     1
281
     1
  3
ACAD_DIMASSOC
360
271E
  0
DICTIONARY
  5
2723
330
2722
100
AcDbDictionary
280
     1
281
     1
  3
ACAD_DIMASSOC
360
2724
  0
DICTIONARY
  5
27A8
330
27A7
100
AcDbDictionary
280
     1
281
     1
  3
ACAD_DIMASSOC
360
27A9
  0
DICTIONARY
  5
27AB
330
27AA
100
AcDbDictionary
280
     1
281
     1
  3
ACAD_DIMASSOC
360
27AC
  0
DICTIONARY
  5
27AE
330
27AD
100
AcDbDictionary
280
     1
281
     1
  3
ACAD_DIMASSOC
360
27AF
  0
DICTIONARY
  5
27B1
330
27B0
100
AcDbDictionary
280
     1
281
     1
  3
ACAD_DIMASSOC
360
27B2
  0
DICTIONARY
  5
27B4
330
27B3
100
AcDbDictionary
280
     1
281
     1
  3
ACAD_DIMASSOC
360
27B5
  0
DICTIONARY
  5
27B7
330
27B6
100
AcDbDictionary
280
     1
281
     1
  3
ACAD_DIMASSOC
360
27B8
  0
DICTIONARY
  5
BE
102
{ACAD_REACTORS
330
C
102
}
330
C
100
AcDbDictionary
281
     1
  0
DICTIONARY
  5
D
102
{ACAD_REACTORS
330
C
102
}
330
C
100
AcDbDictionary
281
     1
  0
DICTIONARY
  5
1A
102
{ACAD_REACTORS
330
C
102
}
330
C
100
AcDbDictionary
281
     1
  3
Model
350
22
  3
配置1
350
1E
  3
配置2
350
26
  0
DICTIONARY
  5
BD
102
{ACAD_REACTORS
330
C
102
}
330
C
100
AcDbDictionary
281
     1
  0
DICTIONARY
  5
17
102
{ACAD_REACTORS
330
C
102
}
330
C
100
AcDbDictionary
281
     1
  3
Standard
350
18
  0
DICTIONARY
  5
19
102
{ACAD_REACTORS
330
C
102
}
330
C
100
AcDbDictionary
281
     1
  0
ACDBDICTIONARYWDFLT
  5
E
102
{ACAD_REACTORS
330
C
102
}
330
C
100
AcDbDictionary
281
     1
  3
Normal
350
F
100
AcDbDictionaryWithDefault
340
F
  0
DICTIONARY
  5
11A
102
{ACAD_REACTORS
330
C
102
}
330
C
100
AcDbDictionary
281
     1
  3
Standard
350
11B
  0
DICTIONARY
  5
2ADA
102
{ACAD_REACTORS
330
C
102
}
330
C
100
AcDbDictionary
281
     1
  0
DICTIONARY
  5
94
102
{ACAD_REACTORS
330
C
102
}
330
C
100
AcDbDictionary
281
     1
  3
CTABLESTYLE
350
138
  3
DIMASSOC
350
96
  3
INDEXCTL
350
95
  3
PROJECTNAME
350
1BF5
  0
DICTIONARY
  5
5B
102
{ACAD_REACTORS
330
C
102
}
330
C
100
AcDbDictionary
281
     1
  3
AcmBOM
350
1B5
  3
AcmStdDictionary
350
61
  3
AMDTSECTSYM_ARROWCOLOR
350
123
  0
DICTIONARY
  5
41
102
{ACAD_REACTORS
330
C
102
}
330
C
100
AcDbDictionary
281
     1
  3
AcMgSettings
350
23E3
  0
DICTIONARY
  5
1B8
102
{ACAD_REACTORS
330
C
102
}
330
C
100
AcDbDictionary
281
     1
  0
XRECORD
  5
2AD9
102
{ACAD_REACTORS
330
C
102
}
330
C
100
AcDbXrecord
280
     1
  1
DWGPROPS COOKIE
  2

  3

  4

  6

  7

  8

  9

300
AmdtFileType=84
301
=
302
=
303
=
304
=
305
=
306
=
307
=
308
=
309
=
 40
0.095973125
 41
2453965.689012037
 42
2455322.495549236
  1

 90
        1
  0
DICTIONARY
  5
5B7
102
{ACAD_REACTORS
330
3F9
102
}
330
3F9
100
AcDbDictionary
281
     1
  0
DICTIONARY
  5
B13
102
{ACAD_REACTORS
330
3F9
102
}
330
3F9
100
AcDbDictionary
281
     1
  0
DICTIONARY
  5
5B6
102
{ACAD_REACTORS
330
3F9
102
}
330
3F9
100
AcDbDictionary
281
     1
1001
ACAD
1000
<All
  0
DICTIONARY
  5
2928
102
{ACAD_REACTORS
330
8F
102
}
330
8F
100
AcDbDictionary
281
     1
  3
*A1
350
2929
  0
SORTENTSTABLE
  5
1430
102
{ACAD_REACTORS
330
8F
102
}
330
8F
100
AcDbSortentsTable
330
1F
  0
DIMASSOC
  5
26EB
102
{ACAD_REACTORS
330
26EA
102
}
330
26EA
100
AcDbDimAssoc
330
26E9
 90
        3
 70
     0
 71
     0
  1
AcDbOsnapPointRef
 72
    13
331
26E7
 73
     0
 91
        0
 40
0.0
 10
0.0
 20
0.0
 30
2.000000000000000E+50
 75
     0
  1
AcDbOsnapPointRef
 72
     5
331
26E8
 73
     0
 91
        0
 40
4.712388980384689
 10
0.0
 20
0.0
 30
0.0
 75
     0
  0
DIMASSOC
  5
26EE
102
{ACAD_REACTORS
330
26ED
102
}
330
26ED
100
AcDbDimAssoc
330
26EC
 90
        3
 70
     0
 71
     0
  1
AcDbOsnapPointRef
 72
    13
331
26D6
 73
     0
 91
        0
 40
0.0
 10
0.0
 20
0.0
 30
2.000000000000000E+50
 75
     0
  1
AcDbOsnapPointRef
 72
    13
331
26D7
 73
     0
 91
        0
 40
0.0
 10
0.0
 20
0.0
 30
2.000000000000000E+50
 75
     0
  0
DIMASSOC
  5
26F1
102
{ACAD_REACTORS
330
26F0
102
}
330
26F0
100
AcDbDimAssoc
330
26EF
 90
        3
 70
     0
 71
     0
  1
AcDbOsnapPointRef
 72
    13
331
26E5
 73
     2
 91
        0
 40
0.0
 10
0.0
 20
0.0
 30
2.000000000000000E+50
 75
     0
  1
AcDbOsnapPointRef
 72
     1
331
26E5
 73
     2
 91
        0
 40
0.0
 10
0.0
 20
0.0
 30
2.000000000000000E+50
 75
     0
  0
DIMASSOC
  5
26F4
102
{ACAD_REACTORS
330
26F3
102
}
330
26F3
100
AcDbDimAssoc
330
26F2
 90
        3
 70
     0
 71
     0
  1
AcDbOsnapPointRef
 72
    13
331
26D6
 73
     0
 91
        0
 40
0.0
 10
0.0
 20
0.0
 30
2.000000000000000E+50
 75
     0
  1
AcDbOsnapPointRef
 72
     1
331
26D6
 73
     0
 91
        0
 40
0.0
 10
0.0
 20
0.0
 30
2.000000000000000E+50
 75
     0
  0
DIMASSOC
  5
26F7
102
{ACAD_REACTORS
330
26F6
102
}
330
26F6
100
AcDbDimAssoc
330
26F5
 90
        1
 70
     0
 71
     0
  1
AcDbOsnapPointRef
 72
     1
331
26DE
 73
     0
 91
        0
 40
0.0
 10
0.0
 20
0.0
 30
2.000000000000000E+50
 75
     0
  0
DIMASSOC
  5
271E
102
{ACAD_REACTORS
330
271D
102
}
330
271D
100
AcDbDimAssoc
330
271C
 90
        1
 70
     0
 71
     0
  1
AcDbOsnapPointRef
 72
    10
331
26E1
 73
     2
 91
        0
 40
0.2592273858261422
 10
0.0
 20
0.0
 30
0.0
 75
     0
  0
DIMASSOC
  5
2724
102
{ACAD_REACTORS
330
2723
102
}
330
2723
100
AcDbDimAssoc
330
2722
 90
        2
 70
     0
 71
     0
  1
AcDbOsnapPointRef
 72
     1
331
2690
 73
     0
 91
        0
 40
0.0
 10
0.0
 20
0.0
 30
2.000000000000000E+50
 75
     0
  0
DIMASSOC
  5
27A9
102
{ACAD_REACTORS
330
27A8
102
}
330
27A8
100
AcDbDimAssoc
330
27A7
 90
        3
 70
     0
 71
     0
  1
AcDbOsnapPointRef
 72
    13
331
272B
 73
     0
 91
        0
 40
0.0
 10
0.0
 20
0.0
 30
2.000000000000000E+50
 75
     0
  1
AcDbOsnapPointRef
 72
     1
331
274C
 73
     0
 91
        0
 40
0.0
 10
0.0
 20
0.0
 30
2.000000000000000E+50
 75
     0
  0
DIMASSOC
  5
27AC
102
{ACAD_REACTORS
330
27AB
102
}
330
27AB
100
AcDbDimAssoc
330
27AA
 90
        3
 70
     0
 71
     0
  1
AcDbOsnapPointRef
 72
     5
331
2730
 73
     0
 91
        0
 40
3.141592653589793
 10
0.0
 20
0.0
 30
0.0
 75
     0
  1
AcDbOsnapPointRef
 72
    13
331
272B
 73
     0
 91
        0
 40
0.0
 10
0.0
 20
0.0
 30
2.000000000000000E+50
 75
     0
  0
DIMASSOC
  5
27AF
102
{ACAD_REACTORS
330
27AE
102
}
330
27AE
100
AcDbDimAssoc
330
27AD
 90
        3
 70
     0
 71
     0
  1
AcDbOsnapPointRef
 72
    13
331
2725
 73
     0
 91
        0
 40
0.0
 10
0.0
 20
0.0
 30
2.000000000000000E+50
 75
     0
  1
AcDbOsnapPointRef
 72
     1
331
2727
 73
     0
 91
        0
 40
0.0
 10
0.0
 20
0.0
 30
2.000000000000000E+50
 75
     0
  0
DIMASSOC
  5
27B2
102
{ACAD_REACTORS
330
27B1
102
}
330
27B1
100
AcDbDimAssoc
330
27B0
 90
        3
 70
     0
 71
     0
  1
AcDbOsnapPointRef
 72
    13
331
2730
 73
     0
 91
        0
 40
0.0
 10
0.0
 20
0.0
 30
2.000000000000000E+50
 75
     0
  1
AcDbOsnapPointRef
 72
     1
331
272F
 73
     0
 91
        0
 40
0.0
 10
0.0
 20
0.0
 30
2.000000000000000E+50
 75
     0
  0
DIMASSOC
  5
27B5
102
{ACAD_REACTORS
330
27B4
102
}
330
27B4
100
AcDbDimAssoc
330
27B3
 90
        1
 70
     0
 71
     0
  1
AcDbOsnapPointRef
 72
    13
331
2739
 73
     0
 91
        0
 40
0.0
 10
0.0
 20
0.0
 30
2.000000000000000E+50
 75
     0
  0
DIMASSOC
  5
27B8
102
{ACAD_REACTORS
330
27B7
102
}
330
27B7
100
AcDbDimAssoc
330
27B6
 90
        3
 70
     0
 71
     0
  1
AcDbOsnapPointRef
 72
    13
331
2739
 73
     0
 91
        0
 40
0.0
 10
0.0
 20
0.0
 30
2.000000000000000E+50
 75
     0
  1
AcDbOsnapPointRef
 72
     1
331
273A
 73
     0
 91
        0
 40
0.0
 10
0.0
 20
0.0
 30
2.000000000000000E+50
 75
     0
  0
LAYOUT
  5
22
102
{ACAD_XDICTIONARY
360
2ADD
102
}
102
{ACAD_REACTORS
330
1A
102
}
330
1A
100
AcDbPlotSettings
  1

  2
\\RD\EPSON Stylus C63 Series單色
  4
A4
  6

 40
3.757083177566528
 41
3.757076978683471
 42
3.757080078125
 43
3.757080078125
 44
209.9733276367187
 45
296.9683227539062
 46
0.0
 47
0.0
 48
0.0
 49
0.0
140
0.0
141
0.0
142
1.0
143
0.3405120737814363
 70
 11952
 72
     1
 73
     0
 74
     0
  7
單色出圖.ctb
 75
     0
147
2.936753428137963
148
-2047.07469463503
149
-1261.649717473083
100
AcDbLayout
  1
Model
 70
     1
 71
     0
 10
0.0
 20
0.0
 11
12.0
 21
9.0
 12
0.0
 22
0.0
 32
0.0
 14
0.0
 24
0.0
 34
0.0
 15
0.0
 25
0.0
 35
0.0
146
0.0
 13
0.0
 23
0.0
 33
0.0
 16
1.0
 26
0.0
 36
0.0
 17
0.0
 27
1.0
 37
0.0
 76
     0
330
1F
1001
ACAD_PSEXT
1000
\\RD\EPSON Stylus C63 Series單色
1000
EPSON Stylus C63 Series
1000
\\RD
1000

1070
     0
  0
LAYOUT
  5
1E
102
{ACAD_XDICTIONARY
360
2ADB
102
}
102
{ACAD_REACTORS
330
1A
102
}
330
1A
100
AcDbPlotSettings
  1

  2

  4

  6

 40
0.0
 41
0.0
 42
0.0
 43
0.0
 44
0.0
 45
0.0
 46
0.0
 47
0.0
 48
0.0
 49
0.0
140
0.0
141
0.0
142
1.0
143
1.0
 70
   688
 72
     0
 73
     0
 74
     5
  7
單色出圖.ctb
 75
    16
147
1.0
148
0.0
149
0.0
100
AcDbLayout
  1
配置1
 70
     1
 71
     1
 10
0.0
 20
0.0
 11
420.0
 21
297.0
 12
0.0
 22
0.0
 32
0.0
 14
1.000000000000000E+20
 24
1.000000000000000E+20
 34
1.000000000000000E+20
 15
-1.000000000000000E+20
 25
-1.000000000000000E+20
 35
-1.000000000000000E+20
146
0.0
 13
0.0
 23
0.0
 33
0.0
 16
1.0
 26
0.0
 36
0.0
 17
0.0
 27
1.0
 37
0.0
 76
     0
330
1B
  0
LAYOUT
  5
26
102
{ACAD_XDICTIONARY
360
2ADF
102
}
102
{ACAD_REACTORS
330
1A
102
}
330
1A
100
AcDbPlotSettings
  1

  2

  4

  6

 40
0.0
 41
0.0
 42
0.0
 43
0.0
 44
0.0
 45
0.0
 46
0.0
 47
0.0
 48
0.0
 49
0.0
140
0.0
141
0.0
142
1.0
143
1.0
 70
   688
 72
     0
 73
     0
 74
     5
  7
單色出圖.ctb
 75
    16
147
1.0
148
0.0
149
0.0
100
AcDbLayout
  1
配置2
 70
     1
 71
     2
 10
0.0
 20
0.0
 11
12.0
 21
9.0
 12
0.0
 22
0.0
 32
0.0
 14
0.0
 24
0.0
 34
0.0
 15
0.0
 25
0.0
 35
0.0
146
0.0
 13
0.0
 23
0.0
 33
0.0
 16
1.0
 26
0.0
 36
0.0
 17
0.0
 27
1.0
 37
0.0
 76
     0
330
23
  0
MLINESTYLE
  5
18
102
{ACAD_REACTORS
330
17
102
}
330
17
100
AcDbMlineStyle
  2
STANDARD
 70
     0
  3

 62
   256
 51
90.0
 52
90.0
 71
     2
 49
0.5
 62
   256
  6
BYLAYER
 49
-0.5
 62
   256
  6
BYLAYER
  0
ACDBPLACEHOLDER
  5
F
102
{ACAD_REACTORS
330
E
102
}
330
E
  0
TABLESTYLE
  5
11B
102
{ACAD_REACTORS
330
11A
102
}
330
11A
100
AcDbTableStyle
  3
Standard
 70
     0
 71
     0
 40
1.5
 41
1.5
280
     0
281
     0
  7
STANDARD
140
4.5
170
     2
 62
     0
 63
     7
283
     0
274
    -2
284
     1
 64
     0
275
    -2
285
     1
 65
     0
276
    -2
286
     1
 66
     0
277
    -2
287
     1
 67
     0
278
    -2
288
     1
 68
     0
279
    -2
289
     1
 69
     0
  7
STANDARD
140
6.0
170
     5
 62
     0
 63
     7
283
     0
274
    -2
284
     1
 64
     0
275
    -2
285
     1
 65
     0
276
    -2
286
     1
 66
     0
277
    -2
287
     1
 67
     0
278
    -2
288
     1
 68
     0
279
    -2
289
     1
 69
     0
  7
STANDARD
140
4.5
170
     5
 62
     0
 63
     7
283
     0
274
    -2
284
     1
 64
     0
275
    -2
285
     1
 65
     0
276
    -2
286
     1
 66
     0
277
    -2
287
     1
 67
     0
278
    -2
288
     1
 68
     0
279
    -2
289
     1
 69
     0
  0
DICTIONARYVAR
  5
138
102
{ACAD_REACTORS
330
94
102
}
330
94
100
DictionaryVariables
280
     0
  1
STANDARD
  0
DICTIONARYVAR
  5
96
102
{ACAD_REACTORS
330
94
102
}
330
94
100
DictionaryVariables
280
     0
  1
2
  0
DICTIONARYVAR
  5
95
102
{ACAD_REACTORS
330
94
102
}
330
94
100
DictionaryVariables
280
     0
  1
1
  0
DICTIONARYVAR
  5
1BF5
102
{ACAD_REACTORS
330
94
102
}
330
94
100
DictionaryVariables
280
     0
  1

  0
DICTIONARY
  5
1B5
102
{ACAD_REACTORS
330
5B
102
}
330
5B
100
AcDbDictionary
281
     1
  0
DICTIONARY
  5
61
102
{ACAD_REACTORS
330
5B
102
}
330
5B
100
AcDbDictionary
281
     1
  0
XRECORD
  5
123
102
{ACAD_REACTORS
330
5B
102
}
330
5B
100
AcDbXrecord
280
     1
 90
-1023410169
  0
DICTIONARY
  5
23E3
102
{ACAD_REACTORS
330
41
102
}
330
41
100
AcDbDictionary
281
     1
  3
DWGSETTINGS
350
23E4
  3
TRANSSETTINGS
350
23E7
  0
LAYER_INDEX
  5
2929
102
{ACAD_REACTORS
330
2928
102
}
330
2928
100
AcDbIndex
 40
2455322.495549236
100
AcDbLayerIndex
  8
0
360
292A
 90
      228
  8
AM_5
360
292B
 90
       16
  8
Defpoints
360
292C
 90
        0
  8
LOGO
360
292D
 90
       77
  8
AM_VIS
360
292E
 90
       33
  0
DICTIONARY
  5
2ADD
330
22
100
AcDbDictionary
280
     1
281
     1
  3
ACAD_XREC_ROUNDTRIP
360
2ADE
  0
DICTIONARY
  5
2ADB
330
1E
100
AcDbDictionary
280
     1
281
     1
  3
ACAD_XREC_ROUNDTRIP
360
2ADC
  0
DICTIONARY
  5
2ADF
330
26
100
AcDbDictionary
280
     1
281
     1
  3
ACAD_XREC_ROUNDTRIP
360
2AE0
  0
IDBUFFER
  5
292A
330
0
100
AcDbIdBuffer
330
268F
330
2690
330
2691
330
2692
330
2693
330
2694
330
2695
330
2696
330
2697
330
2698
330
2699
330
269A
330
269B
330
269C
330
269D
330
269E
330
269F
330
26A0
330
26A1
330
26A2
330
26A3
330
26A4
330
26A5
330
26A6
330
26A7
330
26A8
330
26A9
330
26AA
330
26AB
330
26AC
330
26AD
330
26AE
330
26AF
330
26B0
330
26B1
330
26B2
330
26B3
330
26B4
330
26B5
330
26B6
330
26B7
330
26B8
330
26B9
330
26BA
330
26BB
330
26BC
330
26BD
330
26BE
330
26BF
330
26C0
330
26C1
330
26C2
330
26C3
330
26C4
330
26C5
330
26C6
330
26C8
330
26F8
330
26F9
330
26FA
330
26FB
330
26FD
330
26FE
330
26FF
330
2700
330
2701
330
2702
330
2703
330
2704
330
2705
330
2706
330
2707
330
2708
330
2709
330
270A
330
270B
330
270C
330
270D
330
270E
330
270F
330
2710
330
2711
330
2712
330
2713
330
2714
330
2715
330
2716
330
2717
330
2718
330
2719
330
271A
330
271B
330
2720
330
2721
330
2725
330
2726
330
2727
330
2728
330
2729
330
272A
330
272B
330
272C
330
272D
330
272E
330
272F
330
2730
330
2731
330
2732
330
2733
330
2734
330
2735
330
2736
330
2737
330
2738
330
2739
330
273A
330
273B
330
273C
330
273D
330
273E
330
273F
330
2740
330
2741
330
2742
330
2743
330
2744
330
2745
330
2746
330
2747
330
2748
330
2749
330
274B
330
274C
330
274D
330
274E
330
274F
330
2750
330
2751
330
2752
330
2753
330
2754
330
2755
330
2756
330
2757
330
2758
330
2759
330
275A
330
275B
330
275C
330
275D
330
275E
330
275F
330
2760
330
2761
330
2762
330
2763
330
2764
330
2765
330
2766
330
2767
330
2768
330
2769
330
276A
330
276B
330
276C
330
276D
330
276E
330
276F
330
2770
330
2771
330
2772
330
2773
330
2774
330
2775
330
2776
330
2777
330
2778
330
2779
330
277A
330
277B
330
277C
330
277D
330
277E
330
277F
330
2780
330
2781
330
2782
330
2783
330
2784
330
2785
330
2786
330
2787
330
2788
330
2789
330
278A
330
278B
330
278C
330
278D
330
278E
330
278F
330
2790
330
2791
330
2792
330
2793
330
2794
330
2795
330
2796
330
2797
330
2798
330
2799
330
279A
330
279B
330
279C
330
279D
330
279E
330
279F
330
27A0
330
27A1
330
27A2
330
27A3
330
27A4
330
27A5
330
27A6
330
27BB
330
27BC
330
2925
330
2926
330
2927
  0
IDBUFFER
  5
292B
330
0
100
AcDbIdBuffer
330
26E9
330
26EC
330
26EF
330
26F2
330
26F5
330
271C
330
271F
330
2722
330
27A7
330
27AA
330
27AD
330
27B0
330
27B3
330
27B6
330
27B9
330
27BA
  0
IDBUFFER
  5
292C
330
0
100
AcDbIdBuffer
  0
IDBUFFER
  5
292D
330
0
100
AcDbIdBuffer
330
28C3
330
28C4
330
28C5
330
28C6
330
28C7
330
28C8
330
28C9
330
28CA
330
28CB
330
28CC
330
28CD
330
28CE
330
28CF
330
28D0
330
28D1
330
28D2
330
28D3
330
28D4
330
28D5
330
28D6
330
28D7
330
28D8
330
28D9
330
28DA
330
28DE
330
28E2
330
28E3
330
28E7
330
28E8
330
28E9
330
28EA
330
28EB
330
28EC
330
28ED
330
28EE
330
28F2
330
28F6
330
28FA
330
28FB
330
28FC
330
2900
330
2901
330
2902
330
2903
330
2904
330
2905
330
2906
330
2907
330
2908
330
2909
330
290A
330
290B
330
290C
330
290D
330
290E
330
290F
330
2910
330
2911
330
2912
330
2913
330
2914
330
2915
330
2916
330
2917
330
2918
330
2919
330
291A
330
291B
330
291C
330
291D
330
291E
330
291F
330
2920
330
2921
330
2922
330
2923
330
2924
  0
IDBUFFER
  5
292E
330
0
100
AcDbIdBuffer
330
26D9
330
26DA
330
26DB
330
26DC
330
26DD
330
26DE
330
26DF
330
26E0
330
26E1
330
26E2
330
26E3
330
26E4
330
26E5
330
26E6
330
26E7
330
26E8
330
26FC
330
26C9
330
26CA
330
26CB
330
26CC
330
26CD
330
26CE
330
26CF
330
26D0
330
26D1
330
26D2
330
26D3
330
26D4
330
26D5
330
26D6
330
26D7
330
26D8
  0
XRECORD
  5
2ADE
102
{ACAD_REACTORS
330
2ADD
102
}
330
2ADD
100
AcDbXrecord
280
     1
102
SHADEPLOT
 70
     0
102
SHADEPLOTRESLEVEL
 70
     2
102
SHADEPLOTCUSTOMDPI
 70
   300
  0
XRECORD
  5
2ADC
102
{ACAD_REACTORS
330
2ADB
102
}
330
2ADB
100
AcDbXrecord
280
     1
102
SHADEPLOT
 70
     0
102
SHADEPLOTRESLEVEL
 70
     2
102
SHADEPLOTCUSTOMDPI
 70
   300
  0
XRECORD
  5
2AE0
102
{ACAD_REACTORS
330
2ADF
102
}
330
2ADF
100
AcDbXrecord
280
     1
102
SHADEPLOT
 70
     0
102
SHADEPLOTRESLEVEL
 70
     2
102
SHADEPLOTCUSTOMDPI
 70
   300
  0
ENDSEC
  0
EOF
