  0
SECTION
  2
HEADER
  9
$ACADVER
  1
AC1015
  9
$ACADMAINTVER
 70
    20
  9
$DWGCODEPAGE
  3
ANSI_950
  9
$INSBASE
 10
0.0
 20
0.0
 30
0.0
  9
$EXTMIN
 10
171.9003307678508
 20
-35.64397494339573
 30
-0.007678812085544
  9
$EXTMAX
 10
318.0184945115104
 20
156.3802203579149
 30
125.8230967135166
  9
$LIMMIN
 10
0.0
 20
0.0
  9
$LIMMAX
 10
420.0
 20
297.0
  9
$ORTHOMODE
 70
     1
  9
$REGENMODE
 70
     1
  9
$FILLMODE
 70
     1
  9
$QTEXTMODE
 70
     0
  9
$MIRRTEXT
 70
     1
  9
$LTSCALE
 40
1.0
  9
$ATTMODE
 70
     1
  9
$TEXTSIZE
 40
3.0
  9
$TRACEWID
 40
1.0
  9
$TEXTSTYLE
  7
STANDARD
  9
$CLAYER
  8
0
  9
$CELTYPE
  6
ByLayer
  9
$CECOLOR
 62
   256
  9
$CELTSCALE
 40
1.0
  9
$DISPSILH
 70
     0
  9
$DIMSCALE
 40
1.0
  9
$DIMASZ
 40
3.0
  9
$DIMEXO
 40
1.5
  9
$DIMDLI
 40
5.0
  9
$DIMRND
 40
0.0
  9
$DIMDLE
 40
0.0
  9
$DIMEXE
 40
1.5
  9
$DIMTP
 40
0.1
  9
$DIMTM
 40
0.1
  9
$DIMTXT
 40
3.5
  9
$DIMCEN
 40
0.0
  9
$DIMTSZ
 40
0.0
  9
$DIMTOL
 70
     0
  9
$DIMLIM
 70
     0
  9
$DIMTIH
 70
     0
  9
$DIMTOH
 70
     0
  9
$DIMSE1
 70
     0
  9
$DIMSE2
 70
     0
  9
$DIMTAD
 70
     1
  9
$DIMZIN
 70
     8
  9
$DIMBLK
  1

  9
$DIMASO
 70
     1
  9
$DIMSHO
 70
     1
  9
$DIMPOST
  1

  9
$DIMAPOST
  1
"
  9
$DIMALT
 70
     0
  9
$DIMALTD
 70
     2
  9
$DIMALTF
 40
0.0393701
  9
$DIMLFAC
 40
1.0
  9
$DIMTOFL
 70
     1
  9
$DIMTVP
 40
0.0
  9
$DIMTIX
 70
     0
  9
$DIMSOXD
 70
     0
  9
$DIMSAH
 70
     0
  9
$DIMBLK1
  1

  9
$DIMBLK2
  1

  9
$DIMSTYLE
  2
AM_ISO
  9
$DIMCLRD
 70
   256
  9
$DIMCLRE
 70
   256
  9
$DIMCLRT
 70
   256
  9
$DIMTFAC
 40
0.6
  9
$DIMGAP
 40
1.0
  9
$DIMJUST
 70
     0
  9
$DIMSD1
 70
     0
  9
$DIMSD2
 70
     0
  9
$DIMTOLJ
 70
     0
  9
$DIMTZIN
 70
     8
  9
$DIMALTZ
 70
     0
  9
$DIMALTTZ
 70
     0
  9
$DIMUPT
 70
     0
  9
$DIMDEC
 70
     2
  9
$DIMTDEC
 70
     8
  9
$DIMALTU
 70
     2
  9
$DIMALTTD
 70
     2
  9
$DIMTXSTY
  7
STANDARD
  9
$DIMAUNIT
 70
     0
  9
$DIMADEC
 70
     0
  9
$DIMALTRND
 40
0.0
  9
$DIMAZIN
 70
     2
  9
$DIMDSEP
 70
    46
  9
$DIMATFIT
 70
     3
  9
$DIMFRAC
 70
     0
  9
$DIMLDRBLK
  1

  9
$DIMLUNIT
 70
     2
  9
$DIMLWD
 70
    -1
  9
$DIMLWE
 70
    -1
  9
$DIMTMOVE
 70
     0
  9
$LUNITS
 70
     2
  9
$LUPREC
 70
     2
  9
$SKETCHINC
 40
1.0
  9
$FILLETRAD
 40
2.5
  9
$AUNITS
 70
     0
  9
$AUPREC
 70
     0
  9
$MENU
  1
.
  9
$ELEVATION
 40
0.0
  9
$PELEVATION
 40
0.0
  9
$THICKNESS
 40
0.0
  9
$LIMCHECK
 70
     0
  9
$CHAMFERA
 40
2.5
  9
$CHAMFERB
 40
2.5
  9
$CHAMFERC
 40
20.0
  9
$CHAMFERD
 40
0.0
  9
$SKPOLY
 70
     0
  9
$TDCREATE
 40
2454580.691861609
  9
$TDUCREATE
 40
2454580.358528275
  9
$TDUPDATE
 40
2454585.543610741
  9
$TDUUPDATE
 40
2454585.210277407
  9
$TDINDWG
 40
0.1910872454
  9
$TDUSRTIMER
 40
0.1910872454
  9
$USRTIMER
 70
     1
  9
$ANGBASE
 50
0.0
  9
$ANGDIR
 70
     0
  9
$PDMODE
 70
     0
  9
$PDSIZE
 40
0.0
  9
$PLINEWID
 40
0.0
  9
$SPLFRAME
 70
     0
  9
$SPLINETYPE
 70
     6
  9
$SPLINESEGS
 70
     8
  9
$HANDSEED
  5
30C1
  9
$SURFTAB1
 70
     6
  9
$SURFTAB2
 70
     6
  9
$SURFTYPE
 70
     6
  9
$SURFU
 70
     6
  9
$SURFV
 70
     6
  9
$UCSBASE
  2

  9
$UCSNAME
  2

  9
$UCSORG
 10
0.0
 20
0.0
 30
0.0
  9
$UCSXDIR
 10
1.0
 20
0.0
 30
0.0
  9
$UCSYDIR
 10
0.0
 20
1.0
 30
0.0
  9
$UCSORTHOREF
  2

  9
$UCSORTHOVIEW
 70
     0
  9
$UCSORGTOP
 10
0.0
 20
0.0
 30
0.0
  9
$UCSORGBOTTOM
 10
0.0
 20
0.0
 30
0.0
  9
$UCSORGLEFT
 10
0.0
 20
0.0
 30
0.0
  9
$UCSORGRIGHT
 10
0.0
 20
0.0
 30
0.0
  9
$UCSORGFRONT
 10
0.0
 20
0.0
 30
0.0
  9
$UCSORGBACK
 10
0.0
 20
0.0
 30
0.0
  9
$PUCSBASE
  2

  9
$PUCSNAME
  2

  9
$PUCSORG
 10
0.0
 20
0.0
 30
0.0
  9
$PUCSXDIR
 10
1.0
 20
0.0
 30
0.0
  9
$PUCSYDIR
 10
0.0
 20
1.0
 30
0.0
  9
$PUCSORTHOREF
  2

  9
$PUCSORTHOVIEW
 70
     0
  9
$PUCSORGTOP
 10
0.0
 20
0.0
 30
0.0
  9
$PUCSORGBOTTOM
 10
0.0
 20
0.0
 30
0.0
  9
$PUCSORGLEFT
 10
0.0
 20
0.0
 30
0.0
  9
$PUCSORGRIGHT
 10
0.0
 20
0.0
 30
0.0
  9
$PUCSORGFRONT
 10
0.0
 20
0.0
 30
0.0
  9
$PUCSORGBACK
 10
0.0
 20
0.0
 30
0.0
  9
$USERI1
 70
     0
  9
$USERI2
 70
     0
  9
$USERI3
 70
     0
  9
$USERI4
 70
     0
  9
$USERI5
 70
     0
  9
$USERR1
 40
0.0
  9
$USERR2
 40
0.0
  9
$USERR3
 40
0.0
  9
$USERR4
 40
0.0
  9
$USERR5
 40
0.0
  9
$WORLDVIEW
 70
     1
  9
$SHADEDGE
 70
     3
  9
$SHADEDIF
 70
    70
  9
$TILEMODE
 70
     1
  9
$MAXACTVP
 70
    64
  9
$PINSBASE
 10
0.0
 20
0.0
 30
0.0
  9
$PLIMCHECK
 70
     0
  9
$PEXTMIN
 10
1.000000000000000E+20
 20
1.000000000000000E+20
 30
1.000000000000000E+20
  9
$PEXTMAX
 10
-1.000000000000000E+20
 20
-1.000000000000000E+20
 30
-1.000000000000000E+20
  9
$PLIMMIN
 10
0.0
 20
0.0
  9
$PLIMMAX
 10
420.0
 20
297.0
  9
$UNITMODE
 70
     0
  9
$VISRETAIN
 70
     1
  9
$PLINEGEN
 70
     0
  9
$PSLTSCALE
 70
     1
  9
$TREEDEPTH
 70
  3020
  9
$CMLSTYLE
  2
Standard
  9
$CMLJUST
 70
     0
  9
$CMLSCALE
 40
20.0
  9
$PROXYGRAPHICS
 70
     1
  9
$MEASUREMENT
 70
     1
  9
$CELWEIGHT
370
    -1
  9
$ENDCAPS
280
     0
  9
$JOINSTYLE
280
     0
  9
$LWDISPLAY
290
     0
  9
$INSUNITS
 70
     4
  9
$HYPERLINKBASE
  1

  9
$STYLESHEET
  1
彩色出圖.ctb
  9
$XEDIT
290
     1
  9
$CEPSNTYPE
380
     0
  9
$PSTYLEMODE
290
     1
  9
$FINGERPRINTGUID
  2
{600CDA41-CE12-4F2A-897E-A5B372702EEE}
  9
$VERSIONGUID
  2
{6901616F-AE7C-44BB-8DAF-1B3F9A95B7B0}
  9
$EXTNAMES
290
     1
  9
$PSVPSCALE
 40
0.0
  9
$OLESTARTUP
290
     0
  0
ENDSEC
  0
SECTION
  2
CLASSES
  0
CLASS
  1
ACDBDICTIONARYWDFLT
  2
AcDbDictionaryWithDefault
  3
ObjectDBX Classes
 90
        0
280
     0
281
     0
  0
CLASS
  1
ACDBPLACEHOLDER
  2
AcDbPlaceHolder
  3
ObjectDBX Classes
 90
        0
280
     0
281
     0
  0
CLASS
  1
LAYOUT
  2
AcDbLayout
  3
ObjectDBX Classes
 90
        0
280
     0
281
     0
  0
CLASS
  1
ACME_DOCUMENT
  2
AcMeDbDoc
  3
AcMeServices
 90
        0
280
     0
281
     0
  0
CLASS
  1
AMGSETTINGSOBJ
  2
AmgSettingsObj
  3
"AcadM|Product Description: AutoCAD Mechanical 2000|Company: Autodesk"
 90
        0
280
     0
281
     0
  0
CLASS
  1
ACMESCOPE
  2
AcMeScope
  3
AcMeServices
 90
        0
280
     0
281
     0
  0
CLASS
  1
ACMECOMMANDHISTORY
  2
AcMeCommandHistory
  3
AcMeServices
 90
        0
280
     0
281
     0
  0
CLASS
  1
ACIMSYSVARMAN
  2
AcImSysVarManager
  3
AcMeServices
 90
        0
280
     0
281
     0
  0
CLASS
  1
ACIMREALSYSVAR
  2
AcImRealSysVar
  3
AcMeServices
 90
        0
280
     0
281
     0
  0
CLASS
  1
ACIMINTSYSVAR
  2
AcImIntSysVar
  3
AcMeServices
 90
        0
280
     0
281
     0
  0
CLASS
  1
ACMEDRAWINGMAN
  2
AcMeDrawingMan
  3
AcMeServices
 90
        0
280
     0
281
     0
  0
CLASS
  1
ACMEVIEW
  2
AcMeView
  3
AcMeServices
 90
        0
280
     0
281
     0
  0
CLASS
  1
ACDBENTITYCACHE
  2
AcMeEntityCache
  3
AcMeServices
 90
        0
280
     0
281
     0
  0
CLASS
  1
GSMANAGER
  2
AcMeGSManager
  3
AcMeServices
 90
        0
280
     0
281
     0
  0
CLASS
  1
AMDTINTERNALREACTOR
  2
AmdtInternalReactor
  3
AcMeServices
 90
        0
280
     0
281
     0
  0
CLASS
  1
ACMESTATEMGR
  2
AcMeStateMgr
  3
AcMeServices
 90
        0
280
     0
281
     0
  0
CLASS
  1
ACGREFMASTER
  2
AcGrefMaster
  3
AcAttribServices
 90
        0
280
     0
281
     0
  0
CLASS
  1
ACME_DATABASE
  2
AcMeDbDatabase
  3
AcMeServices
 90
        0
280
     0
281
     0
  0
CLASS
  1
ACRFINSADJUSTERMGR
  2
AcRfInsAdjusterMgr
  3
AcMeServices
 90
        0
280
     0
281
     0
  0
CLASS
  1
ACGREFACADMASTER
  2
AcGrefacadMaster
  3
AcGrefServices
 90
        0
280
     0
281
     0
  0
CLASS
  1
AMIMASTER
  2
AmiMaster
  3
AmiServices
 90
        0
280
     0
281
     0
  0
CLASS
  1
ACMDATADICTIONARY
  2
AcmDataDictionary
  3
"AcmSymBB|Product Description: AutoCAD Mechanical 2004 DX|Company: Autodesk"
 90
        0
280
     0
281
     0
  0
CLASS
  1
ACMDATAENTRYBLOCK
  2
AcmDataEntryBlock
  3
"AcmSymBB|Product Description: AutoCAD Mechanical 2004 DX|Company: Autodesk"
 90
        0
280
     0
281
     0
  0
CLASS
  1
ACIMSTRSYSVAR
  2
AcImStrSysVar
  3
AcMeServices
 90
        0
280
     0
281
     0
  0
CLASS
  1
ACMSTANDARDISO
  2
AcmStandardISO
  3
"Amdt_StdImp|Product Description: AutoCAD Mechanical 2004 DX|Company: Autodesk"
 90
        0
280
     0
281
     0
  0
CLASS
  1
AMGOBJPROPCFG
  2
AmgObjPropCfg
  3
"AmgLay|Product Description: AutoCAD Mechanical 2000|Company: Autodesk"
 90
        1
280
     0
281
     0
  0
CLASS
  1
AMDTEDGESTANDARDISO
  2
AmdtEdgeStdISO
  3
"Amdt_StdImp|Product Description: AutoCAD Mechanical 2004 DX|Company: Autodesk"
 90
        0
280
     0
281
     0
  0
CLASS
  1
ACMSURFSTANDARDISO
  2
AcmSurfTextStdISO
  3
"Amdt_StdImp|Product Description: AutoCAD Mechanical 2004 DX|Company: Autodesk"
 90
        0
280
     0
281
     0
  0
CLASS
  1
ACMFCFSTANDARDISO
  2
AcmFCFStdISO
  3
"Amdt_StdImp|Product Description: AutoCAD Mechanical 2004 DX|Company: Autodesk"
 90
        0
280
     0
281
     0
  0
CLASS
  1
ACMWELDSTANDARDISO
  2
AcmWeldingStdISO
  3
"Amdt_StdImp|Product Description: AutoCAD Mechanical 2004 DX|Company: Autodesk"
 90
        0
280
     0
281
     0
  0
CLASS
  1
ACMIDSTANDARDISO
  2
AcmIdStdISO
  3
"Amdt_StdImp|Product Description: AutoCAD Mechanical 2004 DX|Company: Autodesk"
 90
        0
280
     0
281
     0
  0
CLASS
  1
ACMDATUMSTANDARDISO
  2
AcmDatumStdISO
  3
"Amdt_StdImp|Product Description: AutoCAD Mechanical 2004 DX|Company: Autodesk"
 90
        0
280
     0
281
     0
  0
CLASS
  1
ACMBOMSTANDARDISO
  2
AcmBOMStdISO
  3
"Amdt_StdImp|Product Description: AutoCAD Mechanical 2004 DX|Company: Autodesk"
 90
        0
280
     0
281
     0
  0
CLASS
  1
ACMDETAILSTANDARDISO
  2
AmdtDetailSymStdISO
  3
"Amdt_StdImp|Product Description: AutoCAD Mechanical 2004 DX|Company: Autodesk"
 90
        0
280
     0
281
     0
  0
CLASS
  1
ACMSECTIONSTANDARDISO
  2
AmdtSectionSymStdISO
  3
"Amdt_StdImp|Product Description: AutoCAD Mechanical 2004 DX|Company: Autodesk"
 90
        0
280
     0
281
     0
  0
CLASS
  1
ACMCENTERLINESTANDARDISO
  2
AmdtCenterLineStdISO
  3
"Amdt_StdImp|Product Description: AutoCAD Mechanical 2004 DX|Company: Autodesk"
 90
        0
280
     0
281
     0
  0
CLASS
  1
ACMNOTESTANDARDISO
  2
AmdtNoteStdISO
  3
"Amdt_StdImp|Product Description: AutoCAD Mechanical 2004 DX|Company: Autodesk"
 90
        0
280
     0
281
     0
  0
CLASS
  1
ACAMGLAYSTD
  2
AcAmgLayStd
  3
"AcAmgLayStd|Product Description: AutoCAD Mechanical 2000|Company: Autodesk"
 90
        0
280
     0
281
     0
  0
CLASS
  1
ACAMGDIMSTD
  2
AcAmgDimStd
  3
"AcAmgDimStd|Product Description: AutoCAD Mechanical 2000|Company: Autodesk"
 90
        0
280
     0
281
     0
  0
CLASS
  1
ACAMGHOLECHARTSTDISO
  2
AcAmgHoleChartStdISO
  3
ACMSYMBB_MODULE_NAME
 90
        0
280
     0
281
     0
  0
CLASS
  1
ACAMGTITLESTD
  2
AcAmgTitleStd
  3
"TITLEAPP"
 90
        0
280
     0
281
     0
  0
CLASS
  1
LAYER_INDEX
  2
AcDbLayerIndex
  3
ObjectDBX Classes
 90
    32768
280
     0
281
     0
  0
CLASS
  1
IDBUFFER
  2
AcDbIdBuffer
  3
ObjectDBX Classes
 90
    32768
280
     0
281
     0
  0
CLASS
  1
DICTIONARYVAR
  2
AcDbDictionaryVar
  3
ObjectDBX Classes
 90
        0
280
     0
281
     0
  0
CLASS
  1
AM_DRAWING_MGR
  2
AcDmDwgMgr
  3
AcMechDwgViewMgmt
 90
        0
280
     0
281
     0
  0
CLASS
  1
AM_DWG_DOCUMENT
  2
AcDmDwgDocument
  3
AcMechDwgViewMgmt
 90
        0
280
     0
281
     0
  0
CLASS
  1
AM_DWG_SHEET
  2
AcDmSheet
  3
AcMechDwgViewMgmt
 90
        0
280
     0
281
     0
  0
CLASS
  1
AM_VIEWDIMPARMAP
  2
AcDmViewDimParMap
  3
AcMechDwgViewMgmt
 90
        0
280
     0
281
     0
  0
CLASS
  1
AM_DWGMGR_NAME
  2
AcDmDwgMgrName
  3
AcMechDwgViewMgmt
 90
        0
280
     0
281
     0
  0
CLASS
  1
AMDTMENUSTATEMGR
  2
AmdtMenuStateMgr
  3
McadcomServices
 90
        0
280
     0
281
     0
  0
CLASS
  1
AMDTMCOMMENUSTATE
  2
AmdtMcomMenuState
  3
McadcomServices
 90
        0
280
     0
281
     0
  0
CLASS
  1
MAPIAMMOUDLE
  2
MApiAmModule
  3
MApiAmServices
 90
        0
280
     0
281
     0
  0
CLASS
  1
AMDTADMENUSTATE
  2
AmdtAdMenuState
  3
DesignerServices
 90
        0
280
     0
281
     0
  0
CLASS
  1
ADAPPL
  2
AcAdAppl
  3
DesignerServices
 90
        0
280
     0
281
     0
  0
CLASS
  1
DEPMGR
  2
AcAdDepMgr
  3
DesignerServices
 90
        0
280
     0
281
     0
  0
CLASS
  1
PARAMMGR
  2
AcAdParamMgr
  3
DesignerServices
 90
        0
280
     0
281
     0
  0
CLASS
  1
PARAMSCOPE
  2
AcAdParamScope
  3
DesignerServices
 90
        0
280
     0
281
     0
  0
CLASS
  1
NAMEDAPPL
  2
AcAdNamedAppl
  3
DesignerServices
 90
        0
280
     0
281
     0
  0
CLASS
  1
AMDTDMMENUSTATE
  2
AmdtDmMenuState
  3
AcMechDwgViewMgmt
 90
        0
280
     0
281
     0
  0
CLASS
  1
AMDTAMMENUSTATE
  2
AmdtAmMenuState
  3
DesignerAssemblies
 90
        0
280
     0
281
     0
  0
CLASS
  1
ACAMPROJECT
  2
AcAmProject
  3
DesignerAssemblies
 90
        0
280
     0
281
     0
  0
CLASS
  1
ACAMGRCOMPDEF
  2
AcAmGrCompDef
  3
DesignerAssemblies
 90
        0
280
     0
281
     0
  0
CLASS
  1
ACCMCONTEXT
  2
AcCmContext
  3
DesignerAssemblies
 90
        0
280
     0
281
     0
  0
CLASS
  1
ACAMCOMPDEF
  2
AcAmCompDef
  3
DesignerAssemblies
 90
        0
280
     0
281
     0
  0
CLASS
  1
ACAMCOMPDEFMGR
  2
AcAmCompDefMgr
  3
DesignerAssemblies
 90
        0
280
     0
281
     0
  0
CLASS
  1
AMCONTEXTMGR
  2
AcAmContextMgr
  3
DesignerAssemblies
 90
        0
280
     0
281
     0
  0
CLASS
  1
ACAMCONTEXTMODELER
  2
AcAmContextModeler
  3
DesignerAssemblies
 90
        0
280
     0
281
     0
  0
CLASS
  1
ACMTHREADLINESTANDARDISO
  2
AmdtThreadLineStdISO
  3
"Amdt_StdImp|Product Description: AutoCAD Mechanical 2004 DX|Company: Autodesk"
 90
        0
280
     0
281
     0
  0
CLASS
  1
CATALOGSTATE
  2
AcAmCatalogState
  3
DesignerAssemblies
 90
        0
280
     0
281
     0
  0
CLASS
  1
ACAMGRCOMPDEFSET
  2
AcAmGrCompDefSet
  3
DesignerAssemblies
 90
        0
280
     0
281
     0
  0
CLASS
  1
AMDTBROWSERDBTAB
  2
AmdtBrowserDbTab
  3
McadcomServices
 90
        0
280
     0
281
     0
  0
CLASS
  1
CBROWSERAPPOBJECT
  2
CBrowserAppObject
  3
McadcomServices
 90
        0
280
     0
281
     0
  0
CLASS
  1
DM_PLACEHOLDER
  2
AcDmSelsetPlaceholder
  3
AcMechDwgViewMgmt
 90
        0
280
     0
281
     0
  0
CLASS
  1
TABLESTYLE
  2
AcDbTableStyle
  3
ObjectDBX Classes
 90
     2047
280
     0
281
     0
  0
CLASS
  1
VAACXREFPANELOBJECT
  2
VaAcXREFPanelObject
  3
VAAC_ADDIN
 90
    32768
280
     0
281
     0
  0
CLASS
  1
VAACIMAGEINVENTORY
  2
VaAcImageInventory
  3
VAAC_ADDIN
 90
    32768
280
     0
281
     0
  0
CLASS
  1
AMDTNOTETEMPLATEDB
  2
AmdtNoteTemplateDB
  3
AMDT_STDIMP_MODULE_NAME
 90
        0
280
     0
281
     0
  0
CLASS
  1
ACMBOM
  2
AcmBom
  3
"AcmSymBB|Product Description: AutoCAD Mechanical 2004 DX|Company: Autodesk"
 90
    32768
280
     0
281
     0
  0
CLASS
  1
AMDTFORMULAUPDATEDISPATCHER
  2
AmdtFormulaUpdateDispatcher
  3
AcMeServices
 90
    32768
280
     0
281
     0
  0
CLASS
  1
ACMPARTLIST
  2
AcmPartList
  3
"AcmSymBB|Product Description: AutoCAD Mechanical 2004 DX|Company: Autodesk"
 90
    33791
280
     0
281
     1
  0
CLASS
  1
ACAMGFILTERDAT
  2
AcAmgFilterDat
  3
"AcadM|Product Description: AutoCAD Mechanical 2000|Company: Autodesk"
 90
        0
280
     0
281
     0
  0
CLASS
  1
DIMASSOC
  2
AcDbDimAssoc
  3
"AcDbDimAssoc|Product Desc:     AcDim ARX App For Dimension|Company:          Autodesk, Inc.|WEB Address:      www.autodesk.com"
 90
    32768
280
     0
281
     0
  0
CLASS
  1
AMDTNOTE
  2
AmdtNote
  3
"AcmSymBB|Product Description: AutoCAD Mechanical 2004 DX|Company: Autodesk"
 90
    33791
280
     0
281
     1
  0
CLASS
  1
SORTENTSTABLE
  2
AcDbSortentsTable
  3
ObjectDBX Classes
 90
    32768
280
     0
281
     0
  0
CLASS
  1
ACRFATTGENMGR
  2
AcRfAttGeneralMgr
  3
AcAttribServices
 90
        0
280
     0
281
     0
  0
ENDSEC
  0
SECTION
  2
TABLES
  0
TABLE
  2
VPORT
  5
8
330
0
100
AcDbSymbolTable
 70
    17
  0
VPORT
  5
30B8
330
8
100
AcDbSymbolTableRecord
100
AcDbViewportTableRecord
  2
*Active
 70
     0
 10
0.0
 20
0.0
 11
1.0
 21
1.0
 12
244.9594126396807
 22
60.3681227072596
 13
0.0
 23
0.0
 14
2.5
 24
2.5
 15
10.0
 25
10.0
 16
0.0
 26
0.0
 36
1.0
 17
0.0
 27
0.0
 37
0.0
 40
193.6046413531733
 41
1.399725274725274
 42
50.0
 43
0.0
 44
0.0
 50
0.0
 51
0.0
 71
     0
 72
   100
 73
     1
 74
     3
 75
     0
 76
     0
 77
     0
 78
     0
281
     0
 65
     1
110
0.0
120
0.0
130
0.0
111
1.0
121
0.0
131
0.0
112
0.0
122
1.0
132
0.0
 79
     0
146
0.0
  0
ENDTAB
  0
TABLE
  2
LTYPE
  5
5
330
0
100
AcDbSymbolTable
 70
    14
  0
LTYPE
  5
14
330
5
100
AcDbSymbolTableRecord
100
AcDbLinetypeTableRecord
  2
ByBlock
 70
     0
  3

 72
    65
 73
     0
 40
0.0
  0
LTYPE
  5
15
330
5
100
AcDbSymbolTableRecord
100
AcDbLinetypeTableRecord
  2
ByLayer
 70
     0
  3

 72
    65
 73
     0
 40
0.0
  0
LTYPE
  5
16
330
5
100
AcDbSymbolTableRecord
100
AcDbLinetypeTableRecord
  2
Continuous
 70
     0
  3
Solid line
 72
    65
 73
     0
 40
0.0
  0
LTYPE
  5
64
330
5
100
AcDbSymbolTableRecord
100
AcDbLinetypeTableRecord
  2
AM_ISO02W050
 70
     0
  3
__ __ __ __ __ __ __ __ __ __ __ __ __ __ __
 72
    65
 73
     2
 40
7.5
 49
6.0
 74
     0
 49
-1.5
 74
     0
  0
LTYPE
  5
65
330
5
100
AcDbSymbolTableRecord
100
AcDbLinetypeTableRecord
  2
AM_ISO08W050
 70
     0
  3
____ . ____ . ____ . ____ . ____ . ____ . ____
 72
    65
 73
     4
 40
18.0
 49
12.0
 74
     0
 49
-1.5
 74
     0
 49
3.0
 74
     0
 49
-1.5
 74
     0
  0
LTYPE
  5
66
330
5
100
AcDbSymbolTableRecord
100
AcDbLinetypeTableRecord
  2
AM_ISO09W050
 70
     0
  3
_____ . . _____ . . _____ . . ____ .. ____
 72
    65
 73
     6
 40
22.5
 49
12.0
 74
     0
 49
-1.5
 74
     0
 49
3.0
 74
     0
 49
-1.5
 74
     0
 49
3.0
 74
     0
 49
-1.5
 74
     0
  0
LTYPE
  5
67
330
5
100
AcDbSymbolTableRecord
100
AcDbLinetypeTableRecord
  2
Amconstr
 70
     0
  3
_______________________
 72
    65
 73
     2
 40
9999.0
 49
9999.0
 74
     0
 49
0.0
 74
     0
  0
LTYPE
  5
68
330
5
100
AcDbSymbolTableRecord
100
AcDbLinetypeTableRecord
  2
AM_ISO08W050x2
 70
     0
  3
__ . __ . __ . __ . __ . __
 72
    65
 73
     4
 40
9.0
 49
6.0
 74
     0
 49
-0.75
 74
     0
 49
1.5
 74
     0
 49
-0.75
 74
     0
  0
LTYPE
  5
69
330
5
100
AcDbSymbolTableRecord
100
AcDbLinetypeTableRecord
  2
AM_ISO02W050x2
 70
     0
  3
 _ _ _ _ _ _ _ _ _ _ _ _
 72
    65
 73
     2
 40
3.75
 49
3.0
 74
     0
 49
-0.75
 74
     0
  0
LTYPE
  5
6C
330
5
100
AcDbSymbolTableRecord
100
AcDbLinetypeTableRecord
  2
Amzigzag
 70
     0
  3
/\/-/\/-/\/-/\/-/\/-/\/
 72
    65
 73
     2
 40
11.0001
 49
0.0001
 74
     4
 75
   135
340
6B
 46
0.04
 50
0.0
 44
0.0
 45
0.0
 49
-11.0
 74
     0
  0
LTYPE
  5
7A
330
5
100
AcDbSymbolTableRecord
100
AcDbLinetypeTableRecord
  2
ACISOWELD
 70
     0
  3
_ _ _ _ _
 72
    65
 73
     2
 40
2.0
 49
2.0
 74
     0
 49
-1.0
 74
     0
  0
LTYPE
  5
7B
330
5
100
AcDbSymbolTableRecord
100
AcDbLinetypeTableRecord
  2
ACISOTGB
 70
     0
  3
__ . . __ . .
 72
    65
 73
     6
 40
9.0
 49
4.0
 74
     0
 49
-1.0
 74
     0
 49
1.0
 74
     0
 49
-1.0
 74
     0
 49
1.0
 74
     0
 49
-1.0
 74
     0
  0
LTYPE
  5
7C
330
5
100
AcDbSymbolTableRecord
100
AcDbLinetypeTableRecord
  2
ACISOTGL
 70
     0
  3
_ _ _ _ _
 72
    65
 73
     2
 40
3.0
 49
2.0
 74
     0
 49
-1.0
 74
     0
  0
LTYPE
  5
7E
330
5
100
AcDbSymbolTableRecord
100
AcDbLinetypeTableRecord
  2
CENTER
 70
     0
  3
__ . __
 72
    65
 73
     4
 40
7.0
 49
4.0
 74
     0
 49
-1.0
 74
     0
 49
1.0
 74
     0
 49
-1.0
 74
     0
  0
LTYPE
  5
D8
330
5
100
AcDbSymbolTableRecord
100
AcDbLinetypeTableRecord
  2
HIDDEN
 70
     0
  3
Hidden __ __ __ __ __ __ __ __ __ __ __ __ __ _
 72
    65
 73
     2
 40
9.524999999999998
 49
6.349999999999999
 74
     0
 49
-3.174999999999999
 74
     0
  0
LTYPE
  5
D9
330
5
100
AcDbSymbolTableRecord
100
AcDbLinetypeTableRecord
  2
PHANTOM2
 70
     0
  3
Phantom (.5x) ___ _ _ ___ _ _ ___ _ _ ___ _ _
 72
    65
 73
     6
 40
31.75
 49
15.875
 74
     0
 49
-3.174999999999999
 74
     0
 49
3.174999999999999
 74
     0
 49
-3.174999999999999
 74
     0
 49
3.174999999999999
 74
     0
 49
-3.174999999999999
 74
     0
  0
ENDTAB
  0
TABLE
  2
LAYER
  5
2
102
{ACAD_XDICTIONARY
360
3F9
102
}
330
0
100
AcDbSymbolTable
 70
     6
  0
LAYER
  5
10
330
2
100
AcDbSymbolTableRecord
100
AcDbLayerTableRecord
  2
0
 70
     0
 62
     7
  6
Continuous
370
    -3
390
F
  0
LAYER
  5
AEE
330
2
100
AcDbSymbolTableRecord
100
AcDbLayerTableRecord
  2
DEFPOINTS
 70
     0
 62
     7
  6
Continuous
290
     0
370
    -3
390
F
  0
LAYER
  5
F62
330
2
100
AcDbSymbolTableRecord
100
AcDbLayerTableRecord
  2
AM_5
 70
     0
 62
     5
  6
Continuous
370
    50
390
F
  0
LAYER
  5
19C7
330
2
100
AcDbSymbolTableRecord
100
AcDbLayerTableRecord
  2
實体
 70
     0
 62
     7
  6
Continuous
370
    -3
390
19C9
  0
LAYER
  5
2EAA
330
2
100
AcDbSymbolTableRecord
100
AcDbLayerTableRecord
  2
LOGO
 70
     0
 62
     7
  6
Continuous
370
    -3
390
F
  0
ENDTAB
  0
TABLE
  2
STYLE
  5
3
330
0
100
AcDbSymbolTable
 70
     6
  0
STYLE
  5
11
330
3
100
AcDbSymbolTableRecord
100
AcDbTextStyleTableRecord
  2
STANDARD
 70
     0
 40
0.0
 41
1.0
 50
0.0
 71
     0
 42
3.0
  3
ISOCP.SHX
  4
CHINESET.SHX
  0
STYLE
  5
6B
330
3
100
AcDbSymbolTableRecord
100
AcDbTextStyleTableRecord
  2

 70
     1
 40
0.0
 41
1.0
 50
0.0
 71
     0
 42
2.5
  3
ltypeshp.shx
  4

  0
STYLE
  5
6D
330
3
100
AcDbSymbolTableRecord
100
AcDbTextStyleTableRecord
  2
ACISOTS
 70
     0
 40
1.0
 41
1.0
 50
0.0
 71
     0
 42
1.0
  3
isocp.shx
  4
chineset.shx
  0
STYLE
  5
79
330
3
100
AcDbSymbolTableRecord
100
AcDbTextStyleTableRecord
  2
ACISOGDT
 70
     0
 40
0.0
 41
1.0
 50
0.0
 71
     0
 42
2.5
  3
amgdt.shx
  4
chineset.shx
  0
STYLE
  5
2CA2
330
3
100
AcDbSymbolTableRecord
100
AcDbTextStyleTableRecord
  2
CHINESET
 70
     0
 40
0.0
 41
0.8
 50
0.0
 71
     0
 42
1.0
  3
simplex.shx
  4
CHINESET.SHX
  0
ENDTAB
  0
TABLE
  2
VIEW
  5
6
330
0
100
AcDbSymbolTable
 70
     0
  0
ENDTAB
  0
TABLE
  2
UCS
  5
7
330
0
100
AcDbSymbolTable
 70
     0
  0
ENDTAB
  0
TABLE
  2
APPID
  5
9
330
0
100
AcDbSymbolTable
 70
    23
  0
APPID
  5
12
330
9
100
AcDbSymbolTableRecord
100
AcDbRegAppTableRecord
  2
ACAD
 70
     0
  0
APPID
  5
46
330
9
100
AcDbSymbolTableRecord
100
AcDbRegAppTableRecord
  2
MCAD_NO_VIS
 70
     0
  0
APPID
  5
47
330
9
100
AcDbSymbolTableRecord
100
AcDbRegAppTableRecord
  2
ACAD_TEMP_GRAPHIC
 70
     0
  0
APPID
  5
58
330
9
100
AcDbSymbolTableRecord
100
AcDbRegAppTableRecord
  2
ACATTRIBSERVICES
 70
     0
  0
APPID
  5
EE
330
9
100
AcDbSymbolTableRecord
100
AcDbRegAppTableRecord
  2
AD_DRAW
 70
     0
  0
APPID
  5
10C
330
9
100
AcDbSymbolTableRecord
100
AcDbRegAppTableRecord
  2
DESIGNERASSEMBLIES
 70
     0
  0
APPID
  5
111
330
9
100
AcDbSymbolTableRecord
100
AcDbRegAppTableRecord
  2
ACADM_DIM_EDIT
 70
     0
  0
APPID
  5
112
330
9
100
AcDbSymbolTableRecord
100
AcDbRegAppTableRecord
  2
AMDT_DM_ADJ
 70
     0
  0
APPID
  5
22C
330
9
100
AcDbSymbolTableRecord
100
AcDbRegAppTableRecord
  2
ACAD_DSTYLE_DIMTEXT_FILL
 70
     0
  0
APPID
  5
452
330
9
100
AcDbSymbolTableRecord
100
AcDbRegAppTableRecord
  2
GENIUS_GENOENT_13
 70
     0
  0
APPID
  5
453
330
9
100
AcDbSymbolTableRecord
100
AcDbRegAppTableRecord
  2
GENIUS_GENOBJ-N-CRS_13
 70
     0
  0
APPID
  5
454
330
9
100
AcDbSymbolTableRecord
100
AcDbRegAppTableRecord
  2
GENIUS_GENOLIS_13
 70
     0
  0
APPID
  5
455
330
9
100
AcDbSymbolTableRecord
100
AcDbRegAppTableRecord
  2
GENIUS_GENODEF_13
 70
     0
  0
APPID
  5
456
330
9
100
AcDbSymbolTableRecord
100
AcDbRegAppTableRecord
  2
GENIUS_GENOREF_13
 70
     0
  0
APPID
  5
6F3
330
9
100
AcDbSymbolTableRecord
100
AcDbRegAppTableRecord
  2
ACAD_PSEXT
 70
     0
  0
APPID
  5
808
330
9
100
AcDbSymbolTableRecord
100
AcDbRegAppTableRecord
  2
GENIUS_GENDTOL_13
 70
     0
  0
APPID
  5
1157
330
9
100
AcDbSymbolTableRecord
100
AcDbRegAppTableRecord
  2
GENIUS_GENOBJ-N-HTC_13
 70
     0
  0
APPID
  5
1158
330
9
100
AcDbSymbolTableRecord
100
AcDbRegAppTableRecord
  2
GENIUS_GENHATCH_13
 70
     0
  0
APPID
  5
1930
330
9
100
AcDbSymbolTableRecord
100
AcDbRegAppTableRecord
  2
AcAecLayerStandard
 70
     0
  0
APPID
  5
2E26
330
9
100
AcDbSymbolTableRecord
100
AcDbRegAppTableRecord
  2
GENIUS_GENREC_14
 70
     0
  0
APPID
  5
2E27
330
9
100
AcDbSymbolTableRecord
100
AcDbRegAppTableRecord
  2
GENIUS_GENOBJ-N-REC_13
 70
     0
  0
APPID
  5
309F
330
9
100
AcDbSymbolTableRecord
100
AcDbRegAppTableRecord
  2
GENIUS_GENOBJ-N-CEN_13
 70
     0
  0
APPID
  5
30A0
330
9
100
AcDbSymbolTableRecord
100
AcDbRegAppTableRecord
  2
GENIUS_GENCEN_19
 70
     0
  0
ENDTAB
  0
TABLE
  2
DIMSTYLE
  5
A
330
0
100
AcDbSymbolTable
 70
     9
100
AcDbDimStyleTable
 71
     3
340
81
340
8B
340
86
  0
DIMSTYLE
105
81
330
A
100
AcDbSymbolTableRecord
100
AcDbDimStyleTableRecord
  2
AM_ISO
 70
     0
  4
"
 41
3.0
 42
1.5
 43
5.0
 44
1.5
 47
0.1
 48
0.1
 73
     0
 74
     0
 77
     1
 78
     8
 79
     2
140
3.5
141
0.0
143
0.0393701
146
0.6
147
1.0
172
     1
176
   256
177
   256
178
   256
271
     2
272
     2
283
     0
284
     8
340
11
371
    -1
372
    -1
  0
DIMSTYLE
105
82
330
A
100
AcDbSymbolTableRecord
100
AcDbDimStyleTableRecord
  2
AM_ISO$3
 70
     0
  4
"
 41
3.0
 42
1.5
 43
5.0
 44
1.5
 47
0.1
 48
0.1
 73
     0
 77
     1
 78
     8
 79
     2
140
3.5
141
0.0
143
0.0393701
146
0.6
147
1.0
176
   256
177
   256
178
   256
271
     2
272
     2
283
     0
284
     8
288
     1
289
     0
340
11
371
    -1
372
    -1
  0
DIMSTYLE
105
83
330
A
100
AcDbSymbolTableRecord
100
AcDbDimStyleTableRecord
  2
AM_ISO$4
 70
     0
  4
"
 41
3.0
 42
1.5
 43
5.0
 44
1.5
 47
0.1
 48
0.1
 73
     0
 77
     1
 78
     8
 79
     2
140
3.5
141
0.0
143
0.0393701
146
0.6
147
1.0
176
   256
177
   256
178
   256
271
     2
272
     2
283
     0
284
     8
288
     1
289
     0
340
11
371
    -1
372
    -1
  0
DIMSTYLE
105
84
330
A
100
AcDbSymbolTableRecord
100
AcDbDimStyleTableRecord
  2
AM_ISO$6
 70
     0
  4
"
 41
3.0
 42
1.5
 43
5.0
 44
1.5
 47
0.1
 48
0.1
 73
     0
 74
     0
 78
     8
 79
     2
140
3.5
141
0.0
143
0.0393701
146
0.6
147
1.0
172
     1
176
   256
177
   256
178
   256
271
     2
272
     2
283
     0
284
     8
340
11
371
    -1
372
    -1
  0
DIMSTYLE
105
85
330
A
100
AcDbSymbolTableRecord
100
AcDbDimStyleTableRecord
  2
AM_ISO$7
 70
     0
  4
"
 41
3.0
 42
1.5
 43
5.0
 44
1.5
 47
0.1
 48
0.1
 73
     0
 74
     0
 77
     1
 78
     8
 79
     2
140
5.0
141
0.0
143
0.0393701
146
0.6
147
1.0
172
     1
176
   256
177
   256
178
   256
271
     2
272
     2
283
     0
284
     8
340
11
371
    -1
372
    -1
  0
DIMSTYLE
105
86
330
A
100
AcDbSymbolTableRecord
100
AcDbDimStyleTableRecord
  2
AM_ISO$SF
 70
     0
  4
"
 41
2.5
 42
1.0
 43
10.0
 44
1.0
 47
0.1
 48
0.1
 73
     0
 74
     0
 75
     1
 76
     1
 77
     1
 78
     8
 79
     2
140
3.5
141
0.0
143
0.0393701
146
0.71
147
1.5
172
     1
176
   256
177
   256
178
     2
271
     2
272
     3
274
     4
283
     0
284
     8
340
11
371
    -1
372
    -1
  0
DIMSTYLE
105
8B
330
A
100
AcDbSymbolTableRecord
100
AcDbDimStyleTableRecord
  2
AM_ISO$SH
 70
     0
  4
"
 41
2.5
 42
1.0
 43
10.0
 44
1.0
 47
0.1
 48
0.1
 73
     0
 74
     0
 75
     1
 76
     1
 77
     1
 78
     8
 79
     2
140
3.5
141
0.0
143
0.0393701
144
2.0
146
0.71
147
1.5
172
     1
173
     1
176
   256
177
   256
178
     2
271
     2
272
     3
274
     4
283
     0
284
     8
340
11
343
87
371
    -1
372
    -1
  0
DIMSTYLE
105
40B
102
{ACAD_REACTORS
330
2041
330
2086
330
2058
330
2047
330
2048
330
249A
330
2499
330
2497
330
2494
330
2563
330
2226
330
2229
330
2221
330
2244
330
2235
102
}
330
A
100
AcDbSymbolTableRecord
100
AcDbDimStyleTableRecord
  2
AM_ISO$0
 70
     0
  4
"
 41
3.0
 42
1.5
 43
5.0
 44
1.5
 47
0.1
 48
0.1
 73
     0
 74
     0
 77
     1
 78
     8
 79
     2
140
3.5
141
0.0
143
0.0393701
146
0.6
147
1.0
172
     1
176
   256
177
   256
178
   256
271
     2
272
     2
283
     0
284
     8
340
11
371
    -1
372
    -1
  0
ENDTAB
  0
TABLE
  2
BLOCK_RECORD
  5
1
330
0
100
AcDbSymbolTable
 70
    19
  0
BLOCK_RECORD
  5
1F
102
{ACAD_XDICTIONARY
360
8F
102
}
330
1
100
AcDbSymbolTableRecord
100
AcDbBlockTableRecord
  2
*Model_Space
340
22
  0
BLOCK_RECORD
  5
1B
330
1
100
AcDbSymbolTableRecord
100
AcDbBlockTableRecord
  2
*Paper_Space
340
1E
  0
BLOCK_RECORD
  5
23
330
1
100
AcDbSymbolTableRecord
100
AcDbBlockTableRecord
  2
*Paper_Space0
340
26
  0
BLOCK_RECORD
  5
87
330
1
100
AcDbSymbolTableRecord
100
AcDbBlockTableRecord
  2
GENAXEH
340
0
  0
BLOCK_RECORD
  5
20A4
330
1
100
AcDbSymbolTableRecord
100
AcDbBlockTableRecord
  2
*D3
340
0
  0
BLOCK_RECORD
  5
20B0
330
1
100
AcDbSymbolTableRecord
100
AcDbBlockTableRecord
  2
*D4
340
0
  0
BLOCK_RECORD
  5
20BC
330
1
100
AcDbSymbolTableRecord
100
AcDbBlockTableRecord
  2
*D5
340
0
  0
BLOCK_RECORD
  5
20D4
330
1
100
AcDbSymbolTableRecord
100
AcDbBlockTableRecord
  2
*D6
340
0
  0
BLOCK_RECORD
  5
20EC
330
1
100
AcDbSymbolTableRecord
100
AcDbBlockTableRecord
  2
*D7
340
0
  0
BLOCK_RECORD
  5
2285
330
1
100
AcDbSymbolTableRecord
100
AcDbBlockTableRecord
  2
*D8
340
0
  0
BLOCK_RECORD
  5
2291
330
1
100
AcDbSymbolTableRecord
100
AcDbBlockTableRecord
  2
*D9
340
0
  0
BLOCK_RECORD
  5
229D
330
1
100
AcDbSymbolTableRecord
100
AcDbBlockTableRecord
  2
*D10
340
0
  0
BLOCK_RECORD
  5
22B5
330
1
100
AcDbSymbolTableRecord
100
AcDbBlockTableRecord
  2
*D11
340
0
  0
BLOCK_RECORD
  5
22C1
330
1
100
AcDbSymbolTableRecord
100
AcDbBlockTableRecord
  2
*D12
340
0
  0
BLOCK_RECORD
  5
25AA
330
1
100
AcDbSymbolTableRecord
100
AcDbBlockTableRecord
  2
*D13
340
0
  0
BLOCK_RECORD
  5
25B6
330
1
100
AcDbSymbolTableRecord
100
AcDbBlockTableRecord
  2
*D14
340
0
  0
BLOCK_RECORD
  5
25C2
330
1
100
AcDbSymbolTableRecord
100
AcDbBlockTableRecord
  2
*D15
340
0
  0
BLOCK_RECORD
  5
25CE
330
1
100
AcDbSymbolTableRecord
100
AcDbBlockTableRecord
  2
*D16
340
0
  0
BLOCK_RECORD
  5
25DA
330
1
100
AcDbSymbolTableRecord
100
AcDbBlockTableRecord
  2
*D17
340
0
  0
ENDTAB
  0
ENDSEC
  0
SECTION
  2
BLOCKS
  0
BLOCK
  5
20
330
1F
100
AcDbEntity
  8
0
100
AcDbBlockBegin
  2
*Model_Space
 70
     0
 10
0.0
 20
0.0
 30
0.0
  3
*Model_Space
  1

  0
ENDBLK
  5
21
330
1F
100
AcDbEntity
  8
0
100
AcDbBlockEnd
  0
BLOCK
  5
1C
330
1B
100
AcDbEntity
 67
     1
  8
0
100
AcDbBlockBegin
  2
*Paper_Space
 70
     0
 10
0.0
 20
0.0
 30
0.0
  3
*Paper_Space
  1

  0
ENDBLK
  5
1D
330
1B
100
AcDbEntity
 67
     1
  8
0
100
AcDbBlockEnd
  0
BLOCK
  5
24
330
23
100
AcDbEntity
  8
0
100
AcDbBlockBegin
  2
*Paper_Space0
 70
     0
 10
0.0
 20
0.0
 30
0.0
  3
*Paper_Space0
  1

  0
ENDBLK
  5
25
330
23
100
AcDbEntity
  8
0
100
AcDbBlockEnd
  0
BLOCK
  5
89
330
87
100
AcDbEntity
  8
0
100
AcDbBlockBegin
  2
GENAXEH
 70
     0
 10
0.0
 20
0.0
 30
0.0
  3
GENAXEH
  1

  0
LINE
  5
88
330
87
100
AcDbEntity
  8
0
100
AcDbLine
 10
-1.0
 20
0.0
 30
0.0
 11
1.0
 21
0.0
 31
0.0
  0
ENDBLK
  5
8A
330
87
100
AcDbEntity
  8
0
100
AcDbBlockEnd
  0
BLOCK
  5
20AE
330
20A4
100
AcDbEntity
  8
0
100
AcDbBlockBegin
  2
*D3
 70
     1
 10
0.0
 20
0.0
 30
0.0
  3
*D3
  1

  0
LINE
  5
300E
330
20A4
100
AcDbEntity
  8
AM_5
100
AcDbLine
 10
223.7959936750098
 20
125.8643130548438
 30
0.0
 11
223.7959936750098
 21
120.6123130548438
 31
0.0
  0
LINE
  5
300F
330
20A4
100
AcDbEntity
  8
AM_5
100
AcDbLine
 10
255.4959936750099
 20
126.6023130548442
 30
0.0
 11
255.4959936750099
 21
120.6123130548438
 31
0.0
  0
LINE
  5
3010
330
20A4
100
AcDbEntity
  8
AM_5
100
AcDbLine
 10
225.8959936750098
 20
121.6623130548438
 30
0.0
 11
253.3959936750099
 21
121.6623130548438
 31
0.0
  0
SOLID
  5
3011
330
20A4
100
AcDbEntity
  8
AM_5
100
AcDbTrace
 10
225.8959936750098
 20
122.0123130548438
 30
0.0
 11
225.8959936750098
 21
121.3123130548438
 31
0.0
 12
223.7959936750098
 22
121.6623130548438
 32
0.0
 13
223.7959936750098
 23
121.6623130548438
 33
0.0
  0
SOLID
  5
3012
330
20A4
100
AcDbEntity
  8
AM_5
100
AcDbTrace
 10
253.3959936750099
 20
122.0123130548438
 30
0.0
 11
253.3959936750099
 21
121.3123130548438
 31
0.0
 12
255.4959936750099
 22
121.6623130548438
 32
0.0
 13
255.4959936750099
 23
121.6623130548438
 33
0.0
  0
MTEXT
  5
3013
330
20A4
100
AcDbEntity
  8
AM_5
100
AcDbMText
 10
239.6459936750098
 20
123.5873130548438
 30
0.0
 40
2.449999999999999
 41
0.0
 71
     5
 72
     1
  1
31.7
 73
     1
 44
1.0
1001
ACAD
1000
MTEXTBEGIN
1070
    73
1070
     1
1070
    44
1040
1.0
1070
    74
1070
     0
1000
MTEXTEND
  0
POINT
  5
3014
330
20A4
100
AcDbEntity
  8
DEFPOINTS
 62
     0
100
AcDbPoint
 10
223.7959936750098
 20
126.9143130548438
 30
0.0
  0
POINT
  5
3015
330
20A4
100
AcDbEntity
  8
DEFPOINTS
 62
     0
100
AcDbPoint
 10
255.4959936750099
 20
127.6523130548442
 30
0.0
  0
POINT
  5
3016
330
20A4
100
AcDbEntity
  8
DEFPOINTS
 62
     0
100
AcDbPoint
 10
255.4959936750099
 20
121.6623130548438
 30
0.0
  0
ENDBLK
  5
20AF
330
20A4
100
AcDbEntity
  8
0
100
AcDbBlockEnd
  0
BLOCK
  5
20BA
330
20B0
100
AcDbEntity
  8
0
100
AcDbBlockBegin
  2
*D4
 70
     1
 10
0.0
 20
0.0
 30
0.0
  3
*D4
  1

  0
LINE
  5
3017
330
20B0
100
AcDbEntity
  8
AM_5
100
AcDbLine
 10
211.3979936750099
 20
112.4392467460118
 30
0.0
 11
211.3979936750099
 21
117.4392467460118
 31
0.0
  0
LINE
  5
3018
330
20B0
100
AcDbEntity
  8
AM_5
100
AcDbLine
 10
216.3979936750099
 20
112.4392467460118
 30
0.0
 11
216.3979936750099
 21
117.4392467460118
 31
0.0
  0
LINE
  5
3019
330
20B0
100
AcDbEntity
  8
AM_5
100
AcDbLine
 10
209.2979936750099
 20
116.3892467460118
 30
0.0
 11
207.1979936750099
 21
116.3892467460118
 31
0.0
  0
LINE
  5
301A
330
20B0
100
AcDbEntity
  8
AM_5
100
AcDbLine
 10
218.4979936750099
 20
116.3892467460118
 30
0.0
 11
220.5979936750098
 21
116.3892467460118
 31
0.0
  0
LINE
  5
301B
330
20B0
100
AcDbEntity
  8
AM_5
100
AcDbLine
 10
211.3979936750099
 20
116.3892467460118
 30
0.0
 11
216.3979936750099
 21
116.3892467460118
 31
0.0
  0
SOLID
  5
301C
330
20B0
100
AcDbEntity
  8
AM_5
100
AcDbTrace
 10
209.2979936750099
 20
116.7392467460118
 30
0.0
 11
209.2979936750099
 21
116.0392467460118
 31
0.0
 12
211.3979936750099
 22
116.3892467460118
 32
0.0
 13
211.3979936750099
 23
116.3892467460118
 33
0.0
  0
SOLID
  5
301D
330
20B0
100
AcDbEntity
  8
AM_5
100
AcDbTrace
 10
218.4979936750099
 20
116.7392467460118
 30
0.0
 11
218.4979936750099
 21
116.0392467460118
 31
0.0
 12
216.3979936750099
 22
116.3892467460118
 32
0.0
 13
216.3979936750099
 23
116.3892467460118
 33
0.0
  0
MTEXT
  5
301E
330
20B0
100
AcDbEntity
  8
AM_5
100
AcDbMText
 10
213.8979936750099
 20
118.3142467460118
 30
0.0
 40
2.449999999999999
 41
0.0
 71
     5
 72
     1
  1
5
 73
     1
 44
1.0
1001
ACAD
1000
MTEXTBEGIN
1070
    73
1070
     1
1070
    44
1040
1.0
1070
    74
1070
     0
1000
MTEXTEND
  0
POINT
  5
301F
330
20B0
100
AcDbEntity
  8
DEFPOINTS
 62
     0
100
AcDbPoint
 10
211.3979936750099
 20
111.3892467460118
 30
0.0
  0
POINT
  5
3020
330
20B0
100
AcDbEntity
  8
DEFPOINTS
 62
     0
100
AcDbPoint
 10
216.3979936750099
 20
111.3892467460118
 30
0.0
  0
POINT
  5
3021
330
20B0
100
AcDbEntity
  8
DEFPOINTS
 62
     0
100
AcDbPoint
 10
216.3979936750099
 20
116.3892467460118
 30
0.0
  0
ENDBLK
  5
20BB
330
20B0
100
AcDbEntity
  8
0
100
AcDbBlockEnd
  0
BLOCK
  5
20C6
330
20BC
100
AcDbEntity
  8
0
100
AcDbBlockBegin
  2
*D5
 70
     1
 10
0.0
 20
0.0
 30
0.0
  3
*D5
  1

  0
LINE
  5
3022
330
20BC
100
AcDbEntity
  8
AM_5
100
AcDbLine
 10
210.4269936750099
 20
111.3892467460118
 30
0.0
 11
204.69799367501
 21
111.3892467460118
 31
0.0
  0
LINE
  5
3023
330
20BC
100
AcDbEntity
  8
AM_5
100
AcDbLine
 10
209.7479936750099
 20
106.9892467460118
 30
0.0
 11
204.69799367501
 21
106.9892467460118
 31
0.0
  0
LINE
  5
3024
330
20BC
100
AcDbEntity
  8
AM_5
100
AcDbLine
 10
205.7479936750099
 20
113.4892467460118
 30
0.0
 11
205.7479936750099
 21
115.5892467460118
 31
0.0
  0
LINE
  5
3025
330
20BC
100
AcDbEntity
  8
AM_5
100
AcDbLine
 10
205.7479936750099
 20
104.8892467460118
 30
0.0
 11
205.7479936750099
 21
102.7892467460118
 31
0.0
  0
LINE
  5
3026
330
20BC
100
AcDbEntity
  8
AM_5
100
AcDbLine
 10
205.7479936750099
 20
111.3892467460118
 30
0.0
 11
205.7479936750099
 21
106.9892467460118
 31
0.0
  0
SOLID
  5
3027
330
20BC
100
AcDbEntity
  8
AM_5
100
AcDbTrace
 10
205.39799367501
 20
113.4892467460118
 30
0.0
 11
206.0979936750099
 21
113.4892467460118
 31
0.0
 12
205.7479936750099
 22
111.3892467460118
 32
0.0
 13
205.7479936750099
 23
111.3892467460118
 33
0.0
  0
SOLID
  5
3028
330
20BC
100
AcDbEntity
  8
AM_5
100
AcDbTrace
 10
205.39799367501
 20
104.8892467460118
 30
0.0
 11
206.0979936750099
 21
104.8892467460118
 31
0.0
 12
205.7479936750099
 22
106.9892467460118
 32
0.0
 13
205.7479936750099
 23
106.9892467460118
 33
0.0
  0
MTEXT
  5
3029
330
20BC
100
AcDbEntity
  8
AM_5
100
AcDbMText
 10
203.8229936750099
 20
109.1892467460118
 30
0.0
 40
2.449999999999999
 41
0.0
 71
     5
 72
     1
  1
4.4
 11
0.0000000000000001
 21
1.0
 31
0.0
 73
     1
 44
1.0
1001
ACAD
1000
MTEXTBEGIN
1070
    73
1070
     1
1070
    44
1040
1.0
1070
    74
1070
     0
1000
MTEXTEND
  0
POINT
  5
302A
330
20BC
100
AcDbEntity
  8
DEFPOINTS
 62
     0
100
AcDbPoint
 10
211.4769936750099
 20
111.3892467460118
 30
0.0
  0
POINT
  5
302B
330
20BC
100
AcDbEntity
  8
DEFPOINTS
 62
     0
100
AcDbPoint
 10
210.7979936750099
 20
106.9892467460118
 30
0.0
  0
POINT
  5
302C
330
20BC
100
AcDbEntity
  8
DEFPOINTS
 62
     0
100
AcDbPoint
 10
205.7479936750099
 20
106.9892467460118
 30
0.0
  0
ENDBLK
  5
20C7
330
20BC
100
AcDbEntity
  8
0
100
AcDbBlockEnd
  0
BLOCK
  5
20DE
330
20D4
100
AcDbEntity
  8
0
100
AcDbBlockBegin
  2
*D6
 70
     1
 10
0.0
 20
0.0
 30
0.0
  3
*D6
  1

  0
LINE
  5
302D
330
20D4
100
AcDbEntity
  8
AM_5
100
AcDbLine
 10
222.7459936750098
 20
132.9623130548438
 30
0.0
 11
217.7459936750099
 21
132.9623130548438
 31
0.0
  0
LINE
  5
302E
330
20D4
100
AcDbEntity
  8
AM_5
100
AcDbLine
 10
222.7459936750098
 20
126.6623130548438
 30
0.0
 11
217.7459936750099
 21
126.6623130548438
 31
0.0
  0
LINE
  5
302F
330
20D4
100
AcDbEntity
  8
AM_5
100
AcDbLine
 10
218.7959936750099
 20
130.8623130548438
 30
0.0
 11
218.7959936750099
 21
128.7623130548438
 31
0.0
  0
SOLID
  5
3030
330
20D4
100
AcDbEntity
  8
AM_5
100
AcDbTrace
 10
218.4459936750099
 20
130.8623130548438
 30
0.0
 11
219.1459936750099
 21
130.8623130548438
 31
0.0
 12
218.7959936750099
 22
132.9623130548438
 32
0.0
 13
218.7959936750099
 23
132.9623130548438
 33
0.0
  0
SOLID
  5
3031
330
20D4
100
AcDbEntity
  8
AM_5
100
AcDbTrace
 10
218.4459936750099
 20
128.7623130548438
 30
0.0
 11
219.1459936750099
 21
128.7623130548438
 31
0.0
 12
218.7959936750099
 22
126.6623130548438
 32
0.0
 13
218.7959936750099
 23
126.6623130548438
 33
0.0
  0
MTEXT
  5
3032
330
20D4
100
AcDbEntity
  8
AM_5
100
AcDbMText
 10
216.8709936750098
 20
129.8123130548439
 30
0.0
 40
2.449999999999999
 41
0.0
 71
     5
 72
     1
  1
6.3
 11
0.0000000000000001
 21
1.0
 31
0.0
 73
     1
 44
1.0
1001
ACAD
1000
MTEXTBEGIN
1070
    73
1070
     1
1070
    44
1040
1.0
1070
    74
1070
     0
1000
MTEXTEND
  0
POINT
  5
3033
330
20D4
100
AcDbEntity
  8
DEFPOINTS
 62
     0
100
AcDbPoint
 10
223.7959936750099
 20
132.9623130548438
 30
0.0
  0
POINT
  5
3034
330
20D4
100
AcDbEntity
  8
DEFPOINTS
 62
     0
100
AcDbPoint
 10
223.7959936750099
 20
126.6623130548438
 30
0.0
  0
POINT
  5
3035
330
20D4
100
AcDbEntity
  8
DEFPOINTS
 62
     0
100
AcDbPoint
 10
218.7959936750099
 20
126.6623130548438
 30
0.0
  0
ENDBLK
  5
20DF
330
20D4
100
AcDbEntity
  8
0
100
AcDbBlockEnd
  0
BLOCK
  5
20F6
330
20EC
100
AcDbEntity
  8
0
100
AcDbBlockBegin
  2
*D7
 70
     1
 10
0.0
 20
0.0
 30
0.0
  3
*D7
  1

  0
LINE
  5
3036
330
20EC
100
AcDbEntity
  8
AM_5
100
AcDbLine
 10
255.4959936750099
 20
126.6023130548442
 30
0.0
 11
255.4959936750099
 21
120.6123130548438
 31
0.0
  0
LINE
  5
3037
330
20EC
100
AcDbEntity
  8
AM_5
100
AcDbLine
 10
283.5071051509265
 20
128.2757259856485
 30
0.0
 11
283.5071051509265
 21
120.6123130548438
 31
0.0
  0
LINE
  5
3038
330
20EC
100
AcDbEntity
  8
AM_5
100
AcDbLine
 10
257.5959936750099
 20
121.6623130548438
 30
0.0
 11
281.4071051509265
 21
121.6623130548438
 31
0.0
  0
SOLID
  5
3039
330
20EC
100
AcDbEntity
  8
AM_5
100
AcDbTrace
 10
257.5959936750099
 20
122.0123130548438
 30
0.0
 11
257.5959936750099
 21
121.3123130548438
 31
0.0
 12
255.4959936750099
 22
121.6623130548438
 32
0.0
 13
255.4959936750099
 23
121.6623130548438
 33
0.0
  0
SOLID
  5
303A
330
20EC
100
AcDbEntity
  8
AM_5
100
AcDbTrace
 10
281.4071051509265
 20
122.0123130548438
 30
0.0
 11
281.4071051509265
 21
121.3123130548438
 31
0.0
 12
283.5071051509265
 22
121.6623130548438
 32
0.0
 13
283.5071051509265
 23
121.6623130548438
 33
0.0
  0
MTEXT
  5
303B
330
20EC
100
AcDbEntity
  8
AM_5
100
AcDbMText
 10
269.5015494129682
 20
123.5875541965761
 30
0.0
 40
2.449999999999999
 41
0.0
 71
     5
 72
     1
  1
1000%%P20
 73
     1
 44
1.0
1001
ACAD
1000
MTEXTBEGIN
1070
    73
1070
     1
1070
    44
1040
1.0
1070
    74
1070
     0
1000
MTEXTEND
  0
POINT
  5
303C
330
20EC
100
AcDbEntity
  8
DEFPOINTS
 62
     0
100
AcDbPoint
 10
255.4959936750099
 20
127.6523130548442
 30
0.0
  0
POINT
  5
303D
330
20EC
100
AcDbEntity
  8
DEFPOINTS
 62
     0
100
AcDbPoint
 10
283.5071051509265
 20
129.3257259856485
 30
0.0
  0
POINT
  5
303E
330
20EC
100
AcDbEntity
  8
DEFPOINTS
 62
     0
100
AcDbPoint
 10
283.5071051509265
 20
121.6623130548438
 30
0.0
  0
ENDBLK
  5
20F7
330
20EC
100
AcDbEntity
  8
0
100
AcDbBlockEnd
  0
BLOCK
  5
228F
330
2285
100
AcDbEntity
  8
0
100
AcDbBlockBegin
  2
*D8
 70
     1
 10
0.0
 20
0.0
 30
0.0
  3
*D8
  1

  0
LINE
  5
2FAC
330
2285
100
AcDbEntity
  8
AM_5
100
AcDbLine
 10
223.7959936750097
 20
67.30594128512342
 30
0.0
 11
223.7959936750097
 21
62.30594128512343
 31
0.0
  0
LINE
  5
2FAD
330
2285
100
AcDbEntity
  8
AM_5
100
AcDbLine
 10
255.4959936750098
 20
68.29594128512379
 30
0.0
 11
255.4959936750098
 21
62.30594128512343
 31
0.0
  0
LINE
  5
2FAE
330
2285
100
AcDbEntity
  8
AM_5
100
AcDbLine
 10
225.8959936750096
 20
63.35594128512344
 30
0.0
 11
253.3959936750097
 21
63.35594128512344
 31
0.0
  0
SOLID
  5
2FAF
330
2285
100
AcDbEntity
  8
AM_5
100
AcDbTrace
 10
225.8959936750096
 20
63.70594128512344
 30
0.0
 11
225.8959936750096
 21
63.00594128512344
 31
0.0
 12
223.7959936750097
 22
63.35594128512344
 32
0.0
 13
223.7959936750097
 23
63.35594128512344
 33
0.0
  0
SOLID
  5
2FB0
330
2285
100
AcDbEntity
  8
AM_5
100
AcDbTrace
 10
253.3959936750097
 20
63.70594128512344
 30
0.0
 11
253.3959936750097
 21
63.00594128512344
 31
0.0
 12
255.4959936750098
 22
63.35594128512344
 32
0.0
 13
255.4959936750098
 23
63.35594128512344
 33
0.0
  0
MTEXT
  5
2FB1
330
2285
100
AcDbEntity
  8
AM_5
100
AcDbMText
 10
239.6459936750097
 20
65.28094128512343
 30
0.0
 40
2.449999999999999
 41
0.0
 71
     5
 72
     1
  1
31.7
 73
     1
 44
1.0
1001
ACAD
1000
MTEXTBEGIN
1070
    73
1070
     1
1070
    44
1040
1.0
1070
    74
1070
     0
1000
MTEXTEND
  0
POINT
  5
2FB2
330
2285
100
AcDbEntity
  8
DEFPOINTS
 62
     0
100
AcDbPoint
 10
223.7959936750097
 20
68.35594128512342
 30
0.0
  0
POINT
  5
2FB3
330
2285
100
AcDbEntity
  8
DEFPOINTS
 62
     0
100
AcDbPoint
 10
255.4959936750098
 20
69.34594128512379
 30
0.0
  0
POINT
  5
2FB4
330
2285
100
AcDbEntity
  8
DEFPOINTS
 62
     0
100
AcDbPoint
 10
255.4959936750098
 20
63.35594128512344
 30
0.0
  0
ENDBLK
  5
2290
330
2285
100
AcDbEntity
  8
0
100
AcDbBlockEnd
  0
BLOCK
  5
229B
330
2291
100
AcDbEntity
  8
0
100
AcDbBlockBegin
  2
*D9
 70
     1
 10
0.0
 20
0.0
 30
0.0
  3
*D9
  1

  0
LINE
  5
2FB5
330
2291
100
AcDbEntity
  8
AM_5
100
AcDbLine
 10
211.3979936750098
 20
54.13287497629134
 30
0.0
 11
211.3979936750098
 21
59.13287497629134
 31
0.0
  0
LINE
  5
2FB6
330
2291
100
AcDbEntity
  8
AM_5
100
AcDbLine
 10
216.3979936750097
 20
54.13287497629134
 30
0.0
 11
216.3979936750097
 21
59.13287497629134
 31
0.0
  0
LINE
  5
2FB7
330
2291
100
AcDbEntity
  8
AM_5
100
AcDbLine
 10
209.2979936750098
 20
58.08287497629135
 30
0.0
 11
207.1979936750098
 21
58.08287497629135
 31
0.0
  0
LINE
  5
2FB8
330
2291
100
AcDbEntity
  8
AM_5
100
AcDbLine
 10
218.4979936750097
 20
58.08287497629135
 30
0.0
 11
220.5979936750097
 21
58.08287497629135
 31
0.0
  0
LINE
  5
2FB9
330
2291
100
AcDbEntity
  8
AM_5
100
AcDbLine
 10
211.3979936750098
 20
58.08287497629135
 30
0.0
 11
216.3979936750097
 21
58.08287497629135
 31
0.0
  0
SOLID
  5
2FBA
330
2291
100
AcDbEntity
  8
AM_5
100
AcDbTrace
 10
209.2979936750098
 20
58.43287497629135
 30
0.0
 11
209.2979936750098
 21
57.73287497629135
 31
0.0
 12
211.3979936750098
 22
58.08287497629135
 32
0.0
 13
211.3979936750098
 23
58.08287497629135
 33
0.0
  0
SOLID
  5
2FBB
330
2291
100
AcDbEntity
  8
AM_5
100
AcDbTrace
 10
218.4979936750097
 20
58.43287497629135
 30
0.0
 11
218.4979936750097
 21
57.73287497629135
 31
0.0
 12
216.3979936750097
 22
58.08287497629135
 32
0.0
 13
216.3979936750097
 23
58.08287497629135
 33
0.0
  0
MTEXT
  5
2FBC
330
2291
100
AcDbEntity
  8
AM_5
100
AcDbMText
 10
213.8979936750097
 20
60.00787497629135
 30
0.0
 40
2.449999999999999
 41
0.0
 71
     5
 72
     1
  1
5
 73
     1
 44
1.0
1001
ACAD
1000
MTEXTBEGIN
1070
    73
1070
     1
1070
    44
1040
1.0
1070
    74
1070
     0
1000
MTEXTEND
  0
POINT
  5
2FBD
330
2291
100
AcDbEntity
  8
DEFPOINTS
 62
     0
100
AcDbPoint
 10
211.3979936750098
 20
53.08287497629135
 30
0.0
  0
POINT
  5
2FBE
330
2291
100
AcDbEntity
  8
DEFPOINTS
 62
     0
100
AcDbPoint
 10
216.3979936750097
 20
53.08287497629135
 30
0.0
  0
POINT
  5
2FBF
330
2291
100
AcDbEntity
  8
DEFPOINTS
 62
     0
100
AcDbPoint
 10
216.3979936750097
 20
58.08287497629135
 30
0.0
  0
ENDBLK
  5
229C
330
2291
100
AcDbEntity
  8
0
100
AcDbBlockEnd
  0
BLOCK
  5
22A7
330
229D
100
AcDbEntity
  8
0
100
AcDbBlockBegin
  2
*D10
 70
     1
 10
0.0
 20
0.0
 30
0.0
  3
*D10
  1

  0
LINE
  5
2FC0
330
229D
100
AcDbEntity
  8
AM_5
100
AcDbLine
 10
210.4269936750098
 20
53.08287497629135
 30
0.0
 11
204.6979936750098
 21
53.08287497629136
 31
0.0
  0
LINE
  5
2FC1
330
229D
100
AcDbEntity
  8
AM_5
100
AcDbLine
 10
209.7479936750097
 20
48.6828749762914
 30
0.0
 11
204.6979936750098
 21
48.68287497629141
 31
0.0
  0
LINE
  5
2FC2
330
229D
100
AcDbEntity
  8
AM_5
100
AcDbLine
 10
205.7479936750098
 20
55.18287497629136
 30
0.0
 11
205.7479936750098
 21
57.28287497629136
 31
0.0
  0
LINE
  5
2FC3
330
229D
100
AcDbEntity
  8
AM_5
100
AcDbLine
 10
205.7479936750098
 20
46.58287497629141
 30
0.0
 11
205.7479936750098
 21
44.48287497629141
 31
0.0
  0
LINE
  5
2FC4
330
229D
100
AcDbEntity
  8
AM_5
100
AcDbLine
 10
205.7479936750098
 20
53.08287497629136
 30
0.0
 11
205.7479936750098
 21
48.68287497629141
 31
0.0
  0
SOLID
  5
2FC5
330
229D
100
AcDbEntity
  8
AM_5
100
AcDbTrace
 10
205.3979936750098
 20
55.18287497629136
 30
0.0
 11
206.0979936750098
 21
55.18287497629136
 31
0.0
 12
205.7479936750098
 22
53.08287497629136
 32
0.0
 13
205.7479936750098
 23
53.08287497629136
 33
0.0
  0
SOLID
  5
2FC6
330
229D
100
AcDbEntity
  8
AM_5
100
AcDbTrace
 10
205.3979936750098
 20
46.58287497629141
 30
0.0
 11
206.0979936750098
 21
46.58287497629141
 31
0.0
 12
205.7479936750098
 22
48.68287497629141
 32
0.0
 13
205.7479936750098
 23
48.68287497629141
 33
0.0
  0
MTEXT
  5
2FC7
330
229D
100
AcDbEntity
  8
AM_5
100
AcDbMText
 10
203.8229936750098
 20
50.88287497629141
 30
0.0
 40
2.449999999999999
 41
0.0
 71
     5
 72
     1
  1
4.4
 11
0.0000000000000001
 21
1.0
 31
0.0
 73
     1
 44
1.0
1001
ACAD
1000
MTEXTBEGIN
1070
    73
1070
     1
1070
    44
1040
1.0
1070
    74
1070
     0
1000
MTEXTEND
  0
POINT
  5
2FC8
330
229D
100
AcDbEntity
  8
DEFPOINTS
 62
     0
100
AcDbPoint
 10
211.4769936750099
 20
53.08287497629135
 30
0.0
  0
POINT
  5
2FC9
330
229D
100
AcDbEntity
  8
DEFPOINTS
 62
     0
100
AcDbPoint
 10
210.7979936750098
 20
48.6828749762914
 30
0.0
  0
POINT
  5
2FCA
330
229D
100
AcDbEntity
  8
DEFPOINTS
 62
     0
100
AcDbPoint
 10
205.7479936750098
 20
48.68287497629141
 30
0.0
  0
ENDBLK
  5
22A8
330
229D
100
AcDbEntity
  8
0
100
AcDbBlockEnd
  0
BLOCK
  5
22BF
330
22B5
100
AcDbEntity
  8
0
100
AcDbBlockBegin
  2
*D11
 70
     1
 10
0.0
 20
0.0
 30
0.0
  3
*D11
  1

  0
LINE
  5
2FCB
330
22B5
100
AcDbEntity
  8
AM_5
100
AcDbLine
 10
222.7459936750098
 20
74.65594128512339
 30
0.0
 11
217.7459936750097
 21
74.65594128512339
 31
0.0
  0
LINE
  5
2FCC
330
22B5
100
AcDbEntity
  8
AM_5
100
AcDbLine
 10
222.7459936750098
 20
68.35594128512344
 30
0.0
 11
217.7459936750097
 21
68.35594128512344
 31
0.0
  0
LINE
  5
2FCD
330
22B5
100
AcDbEntity
  8
AM_5
100
AcDbLine
 10
218.7959936750098
 20
72.55594128512339
 30
0.0
 11
218.7959936750098
 21
70.45594128512343
 31
0.0
  0
SOLID
  5
2FCE
330
22B5
100
AcDbEntity
  8
AM_5
100
AcDbTrace
 10
218.4459936750098
 20
72.55594128512339
 30
0.0
 11
219.1459936750097
 21
72.55594128512339
 31
0.0
 12
218.7959936750098
 22
74.65594128512339
 32
0.0
 13
218.7959936750098
 23
74.65594128512339
 33
0.0
  0
SOLID
  5
2FCF
330
22B5
100
AcDbEntity
  8
AM_5
100
AcDbTrace
 10
218.4459936750098
 20
70.45594128512343
 30
0.0
 11
219.1459936750097
 21
70.45594128512343
 31
0.0
 12
218.7959936750098
 22
68.35594128512344
 32
0.0
 13
218.7959936750098
 23
68.35594128512344
 33
0.0
  0
MTEXT
  5
2FD0
330
22B5
100
AcDbEntity
  8
AM_5
100
AcDbMText
 10
216.8709936750097
 20
71.50594128512344
 30
0.0
 40
2.449999999999999
 41
0.0
 71
     5
 72
     1
  1
6.3
 11
0.0000000000000001
 21
1.0
 31
0.0
 73
     1
 44
1.0
1001
ACAD
1000
MTEXTBEGIN
1070
    73
1070
     1
1070
    44
1040
1.0
1070
    74
1070
     0
1000
MTEXTEND
  0
POINT
  5
2FD1
330
22B5
100
AcDbEntity
  8
DEFPOINTS
 62
     0
100
AcDbPoint
 10
223.7959936750098
 20
74.65594128512339
 30
0.0
  0
POINT
  5
2FD2
330
22B5
100
AcDbEntity
  8
DEFPOINTS
 62
     0
100
AcDbPoint
 10
223.7959936750098
 20
68.35594128512344
 30
0.0
  0
POINT
  5
2FD3
330
22B5
100
AcDbEntity
  8
DEFPOINTS
 62
     0
100
AcDbPoint
 10
218.7959936750098
 20
68.35594128512344
 30
0.0
  0
ENDBLK
  5
22C0
330
22B5
100
AcDbEntity
  8
0
100
AcDbBlockEnd
  0
BLOCK
  5
22CB
330
22C1
100
AcDbEntity
  8
0
100
AcDbBlockBegin
  2
*D12
 70
     1
 10
0.0
 20
0.0
 30
0.0
  3
*D12
  1

  0
LINE
  5
2FD4
330
22C1
100
AcDbEntity
  8
AM_5
100
AcDbLine
 10
255.4959936750098
 20
68.29594128512379
 30
0.0
 11
255.4959936750098
 21
62.30594128512343
 31
0.0
  0
LINE
  5
2FD5
330
22C1
100
AcDbEntity
  8
AM_5
100
AcDbLine
 10
283.5071051509264
 20
69.96935421592816
 30
0.0
 11
283.5071051509264
 21
62.30594128512343
 31
0.0
  0
LINE
  5
2FD6
330
22C1
100
AcDbEntity
  8
AM_5
100
AcDbLine
 10
257.5959936750098
 20
63.35594128512344
 30
0.0
 11
281.4071051509264
 21
63.35594128512344
 31
0.0
  0
SOLID
  5
2FD7
330
22C1
100
AcDbEntity
  8
AM_5
100
AcDbTrace
 10
257.5959936750098
 20
63.70594128512344
 30
0.0
 11
257.5959936750098
 21
63.00594128512344
 31
0.0
 12
255.4959936750098
 22
63.35594128512344
 32
0.0
 13
255.4959936750098
 23
63.35594128512344
 33
0.0
  0
SOLID
  5
2FD8
330
22C1
100
AcDbEntity
  8
AM_5
100
AcDbTrace
 10
281.4071051509264
 20
63.70594128512344
 30
0.0
 11
281.4071051509264
 21
63.00594128512344
 31
0.0
 12
283.5071051509264
 22
63.35594128512344
 32
0.0
 13
283.5071051509264
 23
63.35594128512344
 33
0.0
  0
MTEXT
  5
2FD9
330
22C1
100
AcDbEntity
  8
AM_5
100
AcDbMText
 10
269.5015494129681
 20
65.28118242685572
 30
0.0
 40
2.449999999999999
 41
0.0
 71
     5
 72
     1
  1
1000%%P20
 73
     1
 44
1.0
1001
ACAD
1000
MTEXTBEGIN
1070
    73
1070
     1
1070
    44
1040
1.0
1070
    74
1070
     0
1000
MTEXTEND
  0
POINT
  5
2FDA
330
22C1
100
AcDbEntity
  8
DEFPOINTS
 62
     0
100
AcDbPoint
 10
255.4959936750098
 20
69.34594128512379
 30
0.0
  0
POINT
  5
2FDB
330
22C1
100
AcDbEntity
  8
DEFPOINTS
 62
     0
100
AcDbPoint
 10
283.5071051509264
 20
71.01935421592816
 30
0.0
  0
POINT
  5
2FDC
330
22C1
100
AcDbEntity
  8
DEFPOINTS
 62
     0
100
AcDbPoint
 10
283.5071051509264
 20
63.35594128512344
 30
0.0
  0
ENDBLK
  5
22CC
330
22C1
100
AcDbEntity
  8
0
100
AcDbBlockEnd
  0
BLOCK
  5
25B4
330
25AA
100
AcDbEntity
  8
0
100
AcDbBlockBegin
  2
*D13
 70
     1
 10
0.0
 20
0.0
 30
0.0
  3
*D13
  1

  0
LINE
  5
303F
330
25AA
100
AcDbEntity
  8
AM_5
100
AcDbLine
 10
223.7959936750097
 20
17.67821057395276
 30
0.0
 11
223.7959936750097
 21
12.67821057395276
 31
0.0
  0
LINE
  5
3040
330
25AA
100
AcDbEntity
  8
AM_5
100
AcDbLine
 10
255.4959936750097
 20
18.66821057395311
 30
0.0
 11
255.4959936750097
 21
12.67821057395276
 31
0.0
  0
LINE
  5
3041
330
25AA
100
AcDbEntity
  8
AM_5
100
AcDbLine
 10
225.8959936750096
 20
13.72821057395276
 30
0.0
 11
253.3959936750097
 21
13.72821057395276
 31
0.0
  0
SOLID
  5
3042
330
25AA
100
AcDbEntity
  8
AM_5
100
AcDbTrace
 10
225.8959936750096
 20
14.07821057395276
 30
0.0
 11
225.8959936750096
 21
13.37821057395276
 31
0.0
 12
223.7959936750097
 22
13.72821057395276
 32
0.0
 13
223.7959936750097
 23
13.72821057395276
 33
0.0
  0
SOLID
  5
3043
330
25AA
100
AcDbEntity
  8
AM_5
100
AcDbTrace
 10
253.3959936750097
 20
14.07821057395276
 30
0.0
 11
253.3959936750097
 21
13.37821057395276
 31
0.0
 12
255.4959936750097
 22
13.72821057395276
 32
0.0
 13
255.4959936750097
 23
13.72821057395276
 33
0.0
  0
MTEXT
  5
3044
330
25AA
100
AcDbEntity
  8
AM_5
100
AcDbMText
 10
239.6459936750097
 20
15.65321057395276
 30
0.0
 40
2.449999999999999
 41
0.0
 71
     5
 72
     1
  1
31.7
 73
     1
 44
1.0
1001
ACAD
1000
MTEXTBEGIN
1070
    73
1070
     1
1070
    44
1040
1.0
1070
    74
1070
     0
1000
MTEXTEND
  0
POINT
  5
3045
330
25AA
100
AcDbEntity
  8
DEFPOINTS
 62
     0
100
AcDbPoint
 10
223.7959936750097
 20
18.72821057395276
 30
0.0
  0
POINT
  5
3046
330
25AA
100
AcDbEntity
  8
DEFPOINTS
 62
     0
100
AcDbPoint
 10
255.4959936750097
 20
19.71821057395311
 30
0.0
  0
POINT
  5
3047
330
25AA
100
AcDbEntity
  8
DEFPOINTS
 62
     0
100
AcDbPoint
 10
255.4959936750097
 20
13.72821057395276
 30
0.0
  0
ENDBLK
  5
25B5
330
25AA
100
AcDbEntity
  8
0
100
AcDbBlockEnd
  0
BLOCK
  5
25C0
330
25B6
100
AcDbEntity
  8
0
100
AcDbBlockBegin
  2
*D14
 70
     1
 10
0.0
 20
0.0
 30
0.0
  3
*D14
  1

  0
LINE
  5
3048
330
25B6
100
AcDbEntity
  8
AM_5
100
AcDbLine
 10
222.7459936750097
 20
25.02821057395272
 30
0.0
 11
217.7459936750097
 21
25.02821057395272
 31
0.0
  0
LINE
  5
3049
330
25B6
100
AcDbEntity
  8
AM_5
100
AcDbLine
 10
222.7459936750097
 20
18.72821057395276
 30
0.0
 11
217.7459936750097
 21
18.72821057395276
 31
0.0
  0
LINE
  5
304A
330
25B6
100
AcDbEntity
  8
AM_5
100
AcDbLine
 10
218.7959936750097
 20
22.92821057395272
 30
0.0
 11
218.7959936750097
 21
20.82821057395277
 31
0.0
  0
SOLID
  5
304B
330
25B6
100
AcDbEntity
  8
AM_5
100
AcDbTrace
 10
218.4459936750097
 20
22.92821057395272
 30
0.0
 11
219.1459936750097
 21
22.92821057395272
 31
0.0
 12
218.7959936750097
 22
25.02821057395272
 32
0.0
 13
218.7959936750097
 23
25.02821057395272
 33
0.0
  0
SOLID
  5
304C
330
25B6
100
AcDbEntity
  8
AM_5
100
AcDbTrace
 10
218.4459936750097
 20
20.82821057395277
 30
0.0
 11
219.1459936750097
 21
20.82821057395277
 31
0.0
 12
218.7959936750097
 22
18.72821057395276
 32
0.0
 13
218.7959936750097
 23
18.72821057395276
 33
0.0
  0
MTEXT
  5
304D
330
25B6
100
AcDbEntity
  8
AM_5
100
AcDbMText
 10
216.8709936750097
 20
21.87821057395278
 30
0.0
 40
2.449999999999999
 41
0.0
 71
     5
 72
     1
  1
6.3
 11
0.0000000000000001
 21
1.0
 31
0.0
 73
     1
 44
1.0
1001
ACAD
1000
MTEXTBEGIN
1070
    73
1070
     1
1070
    44
1040
1.0
1070
    74
1070
     0
1000
MTEXTEND
  0
POINT
  5
304E
330
25B6
100
AcDbEntity
  8
DEFPOINTS
 62
     0
100
AcDbPoint
 10
223.7959936750097
 20
25.02821057395272
 30
0.0
  0
POINT
  5
304F
330
25B6
100
AcDbEntity
  8
DEFPOINTS
 62
     0
100
AcDbPoint
 10
223.7959936750097
 20
18.72821057395276
 30
0.0
  0
POINT
  5
3050
330
25B6
100
AcDbEntity
  8
DEFPOINTS
 62
     0
100
AcDbPoint
 10
218.7959936750097
 20
18.72821057395276
 30
0.0
  0
ENDBLK
  5
25C1
330
25B6
100
AcDbEntity
  8
0
100
AcDbBlockEnd
  0
BLOCK
  5
25CC
330
25C2
100
AcDbEntity
  8
0
100
AcDbBlockBegin
  2
*D15
 70
     1
 10
0.0
 20
0.0
 30
0.0
  3
*D15
  1

  0
LINE
  5
3051
330
25C2
100
AcDbEntity
  8
AM_5
100
AcDbLine
 10
210.4269936750097
 20
9.348711347831113
 30
0.0
 11
204.6979936750097
 21
9.348711347831113
 31
0.0
  0
LINE
  5
3052
330
25C2
100
AcDbEntity
  8
AM_5
100
AcDbLine
 10
209.7479936750097
 20
4.948711347831136
 30
0.0
 11
204.6979936750097
 21
4.948711347831137
 31
0.0
  0
LINE
  5
3053
330
25C2
100
AcDbEntity
  8
AM_5
100
AcDbLine
 10
205.7479936750097
 20
11.44871134783111
 30
0.0
 11
205.7479936750097
 21
13.54871134783111
 31
0.0
  0
LINE
  5
3054
330
25C2
100
AcDbEntity
  8
AM_5
100
AcDbLine
 10
205.7479936750097
 20
2.848711347831137
 30
0.0
 11
205.7479936750097
 21
0.7487113478311379
 31
0.0
  0
LINE
  5
3055
330
25C2
100
AcDbEntity
  8
AM_5
100
AcDbLine
 10
205.7479936750097
 20
9.348711347831113
 30
0.0
 11
205.7479936750097
 21
4.948711347831137
 31
0.0
  0
SOLID
  5
3056
330
25C2
100
AcDbEntity
  8
AM_5
100
AcDbTrace
 10
205.3979936750097
 20
11.44871134783111
 30
0.0
 11
206.0979936750097
 21
11.44871134783111
 31
0.0
 12
205.7479936750097
 22
9.348711347831113
 32
0.0
 13
205.7479936750097
 23
9.348711347831113
 33
0.0
  0
SOLID
  5
3057
330
25C2
100
AcDbEntity
  8
AM_5
100
AcDbTrace
 10
205.3979936750097
 20
2.848711347831137
 30
0.0
 11
206.0979936750097
 21
2.848711347831137
 31
0.0
 12
205.7479936750097
 22
4.948711347831137
 32
0.0
 13
205.7479936750097
 23
4.948711347831137
 33
0.0
  0
MTEXT
  5
3058
330
25C2
100
AcDbEntity
  8
AM_5
100
AcDbMText
 10
203.8229936750097
 20
7.148711347831158
 30
0.0
 40
2.449999999999999
 41
0.0
 71
     5
 72
     1
  1
4.4
 11
0.0000000000000001
 21
1.0
 31
0.0
 73
     1
 44
1.0
1001
ACAD
1000
MTEXTBEGIN
1070
    73
1070
     1
1070
    44
1040
1.0
1070
    74
1070
     0
1000
MTEXTEND
  0
POINT
  5
3059
330
25C2
100
AcDbEntity
  8
DEFPOINTS
 62
     0
100
AcDbPoint
 10
211.4769936750097
 20
9.348711347831113
 30
0.0
  0
POINT
  5
305A
330
25C2
100
AcDbEntity
  8
DEFPOINTS
 62
     0
100
AcDbPoint
 10
210.7979936750097
 20
4.948711347831135
 30
0.0
  0
POINT
  5
305B
330
25C2
100
AcDbEntity
  8
DEFPOINTS
 62
     0
100
AcDbPoint
 10
205.7479936750097
 20
4.948711347831137
 30
0.0
  0
ENDBLK
  5
25CD
330
25C2
100
AcDbEntity
  8
0
100
AcDbBlockEnd
  0
BLOCK
  5
25D8
330
25CE
100
AcDbEntity
  8
0
100
AcDbBlockBegin
  2
*D16
 70
     1
 10
0.0
 20
0.0
 30
0.0
  3
*D16
  1

  0
LINE
  5
305C
330
25CE
100
AcDbEntity
  8
AM_5
100
AcDbLine
 10
211.3979936750097
 20
10.39871134783111
 30
0.0
 11
211.3979936750097
 21
15.39871134783111
 31
0.0
  0
LINE
  5
305D
330
25CE
100
AcDbEntity
  8
AM_5
100
AcDbLine
 10
216.3979936750097
 20
10.39871134783111
 30
0.0
 11
216.3979936750097
 21
15.39871134783111
 31
0.0
  0
LINE
  5
305E
330
25CE
100
AcDbEntity
  8
AM_5
100
AcDbLine
 10
209.2979936750097
 20
14.34871134783111
 30
0.0
 11
207.1979936750097
 21
14.34871134783111
 31
0.0
  0
LINE
  5
305F
330
25CE
100
AcDbEntity
  8
AM_5
100
AcDbLine
 10
218.4979936750097
 20
14.34871134783111
 30
0.0
 11
220.5979936750097
 21
14.34871134783111
 31
0.0
  0
LINE
  5
3060
330
25CE
100
AcDbEntity
  8
AM_5
100
AcDbLine
 10
211.3979936750097
 20
14.34871134783111
 30
0.0
 11
216.3979936750097
 21
14.34871134783111
 31
0.0
  0
SOLID
  5
3061
330
25CE
100
AcDbEntity
  8
AM_5
100
AcDbTrace
 10
209.2979936750097
 20
14.69871134783111
 30
0.0
 11
209.2979936750097
 21
13.99871134783111
 31
0.0
 12
211.3979936750097
 22
14.34871134783111
 32
0.0
 13
211.3979936750097
 23
14.34871134783111
 33
0.0
  0
SOLID
  5
3062
330
25CE
100
AcDbEntity
  8
AM_5
100
AcDbTrace
 10
218.4979936750097
 20
14.69871134783111
 30
0.0
 11
218.4979936750097
 21
13.99871134783111
 31
0.0
 12
216.3979936750097
 22
14.34871134783111
 32
0.0
 13
216.3979936750097
 23
14.34871134783111
 33
0.0
  0
MTEXT
  5
3063
330
25CE
100
AcDbEntity
  8
AM_5
100
AcDbMText
 10
213.8979936750097
 20
16.27371134783111
 30
0.0
 40
2.449999999999999
 41
0.0
 71
     5
 72
     1
  1
5
 73
     1
 44
1.0
1001
ACAD
1000
MTEXTBEGIN
1070
    73
1070
     1
1070
    44
1040
1.0
1070
    74
1070
     0
1000
MTEXTEND
  0
POINT
  5
3064
330
25CE
100
AcDbEntity
  8
DEFPOINTS
 62
     0
100
AcDbPoint
 10
211.3979936750097
 20
9.348711347831113
 30
0.0
  0
POINT
  5
3065
330
25CE
100
AcDbEntity
  8
DEFPOINTS
 62
     0
100
AcDbPoint
 10
216.3979936750097
 20
9.348711347831113
 30
0.0
  0
POINT
  5
3066
330
25CE
100
AcDbEntity
  8
DEFPOINTS
 62
     0
100
AcDbPoint
 10
216.3979936750097
 20
14.34871134783111
 30
0.0
  0
ENDBLK
  5
25D9
330
25CE
100
AcDbEntity
  8
0
100
AcDbBlockEnd
  0
BLOCK
  5
25E4
330
25DA
100
AcDbEntity
  8
0
100
AcDbBlockBegin
  2
*D17
 70
     1
 10
0.0
 20
0.0
 30
0.0
  3
*D17
  1

  0
LINE
  5
3067
330
25DA
100
AcDbEntity
  8
AM_5
100
AcDbLine
 10
255.4959936750097
 20
18.66821057395311
 30
0.0
 11
255.4959936750097
 21
12.67821057395276
 31
0.0
  0
LINE
  5
3068
330
25DA
100
AcDbEntity
  8
AM_5
100
AcDbLine
 10
284.4215415921373
 20
18.84821057395272
 30
0.0
 11
284.4215415921373
 21
12.67821057395276
 31
0.0
  0
LINE
  5
3069
330
25DA
100
AcDbEntity
  8
AM_5
100
AcDbLine
 10
257.5959936750097
 20
13.72821057395276
 30
0.0
 11
282.3215415921372
 21
13.72821057395276
 31
0.0
  0
SOLID
  5
306A
330
25DA
100
AcDbEntity
  8
AM_5
100
AcDbTrace
 10
257.5959936750097
 20
14.07821057395276
 30
0.0
 11
257.5959936750097
 21
13.37821057395276
 31
0.0
 12
255.4959936750097
 22
13.72821057395276
 32
0.0
 13
255.4959936750097
 23
13.72821057395276
 33
0.0
  0
SOLID
  5
306B
330
25DA
100
AcDbEntity
  8
AM_5
100
AcDbTrace
 10
282.3215415921372
 20
14.07821057395276
 30
0.0
 11
282.3215415921372
 21
13.37821057395276
 31
0.0
 12
284.4215415921373
 22
13.72821057395276
 32
0.0
 13
284.4215415921373
 23
13.72821057395276
 33
0.0
  0
MTEXT
  5
306C
330
25DA
100
AcDbEntity
  8
AM_5
100
AcDbMText
 10
269.9587676335735
 20
15.65321057395276
 30
0.0
 40
2.449999999999999
 41
0.0
 71
     5
 72
     1
  1
165
 73
     1
 44
1.0
1001
ACAD
1000
MTEXTBEGIN
1070
    73
1070
     1
1070
    44
1040
1.0
1070
    74
1070
     0
1000
MTEXTEND
  0
POINT
  5
306D
330
25DA
100
AcDbEntity
  8
DEFPOINTS
 62
     0
100
AcDbPoint
 10
255.4959936750097
 20
19.71821057395311
 30
0.0
  0
POINT
  5
306E
330
25DA
100
AcDbEntity
  8
DEFPOINTS
 62
     0
100
AcDbPoint
 10
284.4215415921373
 20
19.89821057395272
 30
0.0
  0
POINT
  5
306F
330
25DA
100
AcDbEntity
  8
DEFPOINTS
 62
     0
100
AcDbPoint
 10
284.4215415921373
 20
13.72821057395276
 30
0.0
  0
ENDBLK
  5
25E5
330
25DA
100
AcDbEntity
  8
0
100
AcDbBlockEnd
  0
ENDSEC
  0
SECTION
  2
ENTITIES
  0
LINE
  5
203D
330
1F
100
AcDbEntity
  8
0
100
AcDbLine
 10
223.7959936750099
 20
126.6623130548438
 30
0.0
 11
254.0559936750099
 21
126.6623130548438
 31
0.0
  0
LINE
  5
203E
330
1F
100
AcDbEntity
  8
0
100
AcDbLine
 10
223.7959936750099
 20
132.9623130548438
 30
0.0
 11
254.0559936750099
 21
132.9623130548438
 31
0.0
  0
LWPOLYLINE
  5
203F
330
1F
100
AcDbEntity
  8
0
100
AcDbPolyline
 90
        4
 70
     1
 43
0.0
 10
239.8855856453592
 20
128.1482472476174
 10
242.8951102178615
 20
128.1482472476174
 10
242.8951102178615
 20
131.3860771726667
 10
239.8855856453592
 20
131.3860771726667
  0
CIRCLE
  5
2040
330
1F
100
AcDbEntity
  8
0
100
AcDbCircle
 10
241.4289315647397
 20
129.7671620372745
 30
0.0
 40
0.7274785311216576
  0
DIMENSION
  5
2041
330
1F
100
AcDbEntity
  8
AM_5
100
AcDbDimension
  2
*D3
 10
255.4959936750099
 20
121.6623130548438
 30
0.0
 11
239.6459936750098
 21
123.5873130548438
 31
0.0
 70
    32
  1
31.7
 71
     5
 42
31.70000000000005
  3
AM_ISO$0
100
AcDbAlignedDimension
 13
223.7959936750098
 23
126.9143130548438
 33
0.0
 14
255.4959936750099
 24
127.6523130548442
 34
0.0
100
AcDbRotatedDimension
1001
ACAD
1000
DSTYLE
1002
{
1070
    40
1040
0.7
1070
   272
1070
     8
1002
}
  0
LINE
  5
2042
330
1F
100
AcDbEntity
  8
0
 62
     7
100
AcDbLine
 10
223.7959936750099
 20
111.3892467460118
 30
0.0
 11
254.05599367501
 21
111.3892467460118
 31
0.0
  0
LINE
  5
2043
330
1F
100
AcDbEntity
  8
0
 62
     7
100
AcDbLine
 10
223.7959936750099
 20
109.6792467460118
 30
0.0
 11
254.05599367501
 21
109.6792467460118
 31
0.0
  0
LINE
  5
2044
330
1F
100
AcDbEntity
  8
0
100
AcDbLine
 10
223.7959936750098
 20
132.3123130548438
 30
0.0
 11
254.05599367501
 21
132.3123130548438
 31
0.0
  0
LINE
  5
2045
330
1F
100
AcDbEntity
  8
0
100
AcDbLine
 10
223.7959936750098
 20
127.3123130548438
 30
0.0
 11
254.05599367501
 21
127.3123130548438
 31
0.0
  0
LINE
  5
2046
330
1F
100
AcDbEntity
  8
0
 62
     7
100
AcDbLine
 10
223.7959936750098
 20
106.9892467460118
 30
0.0
 11
254.05599367501
 21
106.9892467460117
 31
0.0
  0
DIMENSION
  5
2047
330
1F
100
AcDbEntity
  8
AM_5
100
AcDbDimension
  2
*D4
 10
216.3979936750099
 20
116.3892467460118
 30
0.0
 11
213.8979936750099
 21
116.3892467460118
 31
0.0
 70
   160
 71
     5
 42
4.999999999999943
  3
AM_ISO$0
100
AcDbAlignedDimension
 13
211.3979936750099
 23
111.3892467460118
 33
0.0
 14
216.3979936750099
 24
111.3892467460118
 34
0.0
100
AcDbRotatedDimension
1001
ACAD
1000
DSTYLE
1002
{
1070
    40
1040
0.7
1070
   272
1070
     8
1002
}
  0
DIMENSION
  5
2048
330
1F
100
AcDbEntity
  8
AM_5
100
AcDbDimension
  2
*D5
 10
205.7479936750099
 20
106.9892467460118
 30
0.0
 11
205.7479936750099
 21
109.1892467460118
 31
0.0
 70
   160
  1
4.4
 71
     5
 42
4.399999999999977
  3
AM_ISO$0
100
AcDbAlignedDimension
 13
211.4769936750099
 23
111.3892467460118
 33
0.0
 14
210.7979936750099
 24
106.9892467460118
 34
0.0
 50
90.0
100
AcDbRotatedDimension
1001
ACAD
1000
DSTYLE
1002
{
1070
    40
1040
0.7
1070
   272
1070
     8
1002
}
  0
LINE
  5
204A
330
1F
100
AcDbEntity
  8
0
 62
     7
100
AcDbLine
 10
211.3979936750099
 20
111.3892467460118
 30
0.0
 11
216.3979936750099
 21
111.3892467460118
 31
0.0
  0
LINE
  5
204B
330
1F
100
AcDbEntity
  8
0
 62
     7
100
AcDbLine
 10
210.74799367501
 20
106.9892467460118
 30
0.0
 11
217.0479936750099
 21
106.9892467460118
 31
0.0
  0
LINE
  5
204C
330
1F
100
AcDbEntity
  8
0
 62
     7
100
AcDbLine
 10
210.7479936750098
 20
109.6792467460118
 30
0.0
 11
211.3979936750098
 21
109.6792467460118
 31
0.0
  0
POINT
  5
204D
330
1F
100
AcDbEntity
  8
DEFPOINTS
  6
ByBlock
 62
     7
100
AcDbPoint
 10
211.4769936750099
 20
111.3892467460118
 30
0.0
  0
POINT
  5
204E
330
1F
100
AcDbEntity
  8
DEFPOINTS
  6
ByBlock
 62
     7
100
AcDbPoint
 10
211.4769936750099
 20
111.3892467460118
 30
0.0
  0
LINE
  5
204F
330
1F
100
AcDbEntity
  8
0
 62
     7
100
AcDbLine
 10
210.7979936750099
 20
109.6792467460118
 30
0.0
 11
211.3979936750098
 21
109.6792467460118
 31
0.0
  0
LINE
  5
2050
330
1F
100
AcDbEntity
  8
0
100
AcDbLine
 10
211.3979936750099
 20
109.6792467460118
 30
0.0
 11
211.3979936750099
 21
111.3892467460118
 31
0.0
  0
POINT
  5
2051
330
1F
100
AcDbEntity
  8
DEFPOINTS
  6
ByBlock
 62
     7
100
AcDbPoint
 10
216.3189936750099
 20
111.3892467460118
 30
0.0
  0
POINT
  5
2052
330
1F
100
AcDbEntity
  8
DEFPOINTS
  6
ByBlock
 62
     7
100
AcDbPoint
 10
216.3189936750099
 20
111.3892467460118
 30
0.0
  0
LINE
  5
2053
330
1F
100
AcDbEntity
  8
0
 62
     7
100
AcDbLine
 10
216.3979936750099
 20
109.6792467460118
 30
0.0
 11
217.0479936750098
 21
109.6792467460119
 31
0.0
  0
LINE
  5
2054
330
1F
100
AcDbEntity
  8
0
100
AcDbLine
 10
216.3979936750099
 20
109.6792467460119
 30
0.0
 11
216.3979936750099
 21
111.3892467460118
 31
0.0
  0
LINE
  5
2055
330
1F
100
AcDbEntity
  8
0
 62
     7
100
AcDbLine
 10
223.7959936750098
 20
106.9892467460118
 30
0.0
 11
223.7959936750099
 21
111.3892467460118
 31
0.0
  0
LINE
  5
2057
330
1F
100
AcDbEntity
  8
0
 62
     7
100
AcDbLine
 10
223.7959936750099
 20
126.6623130548439
 30
0.0
 11
223.7959936750098
 21
132.9123130548438
 31
0.0
  0
DIMENSION
  5
2058
330
1F
100
AcDbEntity
  8
AM_5
100
AcDbDimension
  2
*D6
 10
218.7959936750099
 20
126.6623130548438
 30
0.0
 11
216.8709936750098
 21
129.8123130548439
 31
0.0
 70
    32
 71
     5
 42
6.300000000000025
  3
AM_ISO$0
100
AcDbAlignedDimension
 13
223.7959936750099
 23
132.9623130548438
 33
0.0
 14
223.7959936750099
 24
126.6623130548438
 34
0.0
 50
90.0
100
AcDbRotatedDimension
1001
ACAD
1000
DSTYLE
1002
{
1070
    40
1040
0.7
1070
   272
1070
     8
1002
}
  0
LINE
  5
2059
330
1F
100
AcDbEntity
  8
0
100
AcDbLine
 10
223.7959936750099
 20
132.9623130548438
 30
0.0
 11
223.7959936750099
 21
129.8123130548438
 31
0.0
  0
CIRCLE
  5
205A
330
1F
100
AcDbEntity
  8
0
 62
     7
100
AcDbCircle
 10
225.9739936750098
 20
129.8123130548439
 30
0.0
 40
0.99
  0
CIRCLE
  5
205B
330
1F
100
AcDbEntity
  8
0
 62
     7
100
AcDbCircle
 10
225.9739936750098
 20
129.8123130548439
 30
0.0
 40
1.296
  0
LINE
  5
205C
330
1F
100
AcDbEntity
  8
0
 62
     7
100
AcDbLine
 10
226.1989936750098
 20
130.7764058926971
 30
0.0
 11
226.1989936750098
 21
128.8482202169906
 31
0.0
  0
LINE
  5
205D
330
1F
100
AcDbEntity
  8
0
 62
     7
100
AcDbLine
 10
225.7489936750098
 20
130.7764058926971
 30
0.0
 11
225.7489936750098
 21
128.8482202169906
 31
0.0
  0
LINE
  5
205E
330
1F
100
AcDbEntity
  8
0
100
AcDbLine
 10
272.1122162197137
 20
109.7762937181204
 30
0.0
 11
280.1582360172672
 21
109.7762937181204
 31
0.0
  0
LINE
  5
205F
330
1F
100
AcDbEntity
  8
0
100
AcDbLine
 10
272.1122162197137
 20
110.5458815532029
 30
0.0
 11
280.1582360172672
 21
110.5458815532029
 31
0.0
  0
LINE
  5
2060
330
1F
100
AcDbEntity
  8
0
100
AcDbLine
 10
272.1122162197137
 20
108.1311584284617
 30
0.0
 11
280.1582360172672
 21
108.1311584284617
 31
0.0
  0
LINE
  5
2061
330
1F
100
AcDbEntity
  8
0
100
AcDbLine
 10
272.1122162197137
 20
108.9007462635441
 30
0.0
 11
280.1582360172672
 21
108.9007462635441
 31
0.0
  0
LINE
  5
2062
330
1F
100
AcDbEntity
  8
0
100
AcDbLine
 10
272.1122162197137
 20
109.7315677360722
 30
0.0
 11
280.1582360172672
 21
109.7315677360722
 31
0.0
  0
LINE
  5
2063
330
1F
100
AcDbEntity
  8
0
100
AcDbLine
 10
272.1122162197137
 20
108.9553704769661
 30
0.0
 11
280.1582360172672
 21
108.9553704769661
 31
0.0
  0
LINE
  5
2064
330
1F
100
AcDbEntity
  8
0
100
AcDbLine
 10
255.4959936750098
 20
110.6143096388118
 30
0.0
 11
266.9408163532855
 21
110.6143096388119
 31
0.0
  0
LINE
  5
2065
330
1F
100
AcDbEntity
  8
0
100
AcDbLine
 10
255.4959936750098
 20
108.0143096388378
 30
0.0
 11
266.9408163532855
 21
108.0143096388378
 31
0.0
  0
LINE
  5
2066
330
1F
100
AcDbEntity
  8
0
 62
     7
100
AcDbLine
 10
254.05599367501
 20
111.1642467460118
 30
0.0
 11
255.4959936750099
 21
111.1642467460118
 31
0.0
  0
LINE
  5
2067
330
1F
100
AcDbEntity
  8
0
 62
     7
100
AcDbLine
 10
254.05599367501
 20
107.1892467460117
 30
0.0
 11
255.4959936750099
 21
107.1892467460117
 31
0.0
  0
LINE
  5
2068
330
1F
100
AcDbEntity
  8
0
 62
     7
100
AcDbLine
 10
254.05599367501
 20
106.9892467460118
 30
0.0
 11
254.05599367501
 21
111.3892467460118
 31
0.0
  0
LINE
  5
2069
330
1F
100
AcDbEntity
  8
0
100
AcDbLine
 10
255.4959936750099
 20
111.1642467460118
 30
0.0
 11
255.4959936750099
 21
107.1892467460117
 31
0.0
  0
POINT
  5
206A
330
1F
100
AcDbEntity
  8
DEFPOINTS
  6
ByBlock
 62
     7
100
AcDbPoint
 10
255.4959936750099
 20
110.6143096388118
 30
0.0
  0
LINE
  5
206B
330
1F
100
AcDbEntity
  8
0
 62
     7
100
AcDbLine
 10
255.4959936750099
 20
110.6143096388118
 30
0.0
 11
255.4959936750099
 21
107.3941838532118
 31
0.0
  0
LINE
  5
206C
330
1F
100
AcDbEntity
  8
0
100
AcDbLine
 10
268.3410461953073
 20
110.6143096388118
 30
0.0
 11
272.1122162197137
 21
110.6143096388118
 31
0.0
  0
LINE
  5
206D
330
1F
100
AcDbEntity
  8
0
100
AcDbLine
 10
268.3410461953073
 20
108.0143096388378
 30
0.0
 11
272.1122162197137
 21
108.0143096388378
 31
0.0
  0
ARC
  5
206E
330
1F
100
AcDbEntity
  8
0
100
AcDbCircle
 10
269.4668792202159
 20
109.9643096388183
 30
0.0
 40
1.299999999986999
100
AcDbArc
 50
149.9999999999987
 51
210.0000000000012
  0
ARC
  5
206F
330
1F
100
AcDbEntity
  8
0
100
AcDbCircle
 10
267.2152131703988
 20
108.6643096388313
 30
0.0
 40
1.299999999986999
100
AcDbArc
 50
329.9999999999987
 51
30.00000000000125
  0
ARC
  5
2070
330
1F
100
AcDbEntity
  8
0
100
AcDbCircle
 10
265.814983328377
 20
108.6643096388313
 30
0.0
 40
1.299999999986999
100
AcDbArc
 50
329.9999999999987
 51
30.00000000000125
  0
ARC
  5
2071
330
1F
100
AcDbEntity
  8
0
100
AcDbCircle
 10
268.066649378194
 20
109.9643096388183
 30
0.0
 40
1.299999999986999
100
AcDbArc
 50
149.9999999999987
 51
210.0000000000012
  0
LINE
  5
2072
330
1F
100
AcDbEntity
  8
0
100
AcDbLine
 10
272.1122162197137
 20
110.6143096388118
 30
0.0
 11
272.1122162197137
 21
108.0143096388378
 31
0.0
  0
LINE
  5
2073
330
1F
100
AcDbEntity
  8
0
100
AcDbLine
 10
280.1582360172672
 20
110.3530617378943
 30
0.0
 11
283.5071051509265
 21
110.3530617378943
 31
0.0
  0
LINE
  5
2074
330
1F
100
AcDbEntity
  8
0
100
AcDbLine
 10
280.1582360172672
 20
109.9691135334291
 30
0.0
 11
283.5071051509265
 21
109.9691135334291
 31
0.0
  0
LINE
  5
2075
330
1F
100
AcDbEntity
  8
0
100
AcDbLine
 10
280.1582360172672
 20
108.7079264482355
 30
0.0
 11
283.5071051509265
 21
108.7079264482355
 31
0.0
  0
LINE
  5
2076
330
1F
100
AcDbEntity
  8
0
100
AcDbLine
 10
280.1582360172672
 20
108.3239782437703
 30
0.0
 11
283.5071051509265
 21
108.3239782437703
 31
0.0
  0
LINE
  5
2077
330
1F
100
AcDbEntity
  8
0
100
AcDbLine
 10
280.1582360172672
 20
109.1481902922748
 30
0.0
 11
283.5071051509265
 21
109.1481902922748
 31
0.0
  0
LINE
  5
2078
330
1F
100
AcDbEntity
  8
0
100
AcDbLine
 10
280.1582360172672
 20
109.53213849674
 30
0.0
 11
283.5071051509265
 21
109.53213849674
 31
0.0
  0
LINE
  5
2079
330
1F
100
AcDbEntity
  8
0
100
AcDbLine
 10
280.1582360172672
 20
110.5458815532029
 30
0.0
 11
280.1582360172672
 21
109.7762937181204
 31
0.0
  0
LINE
  5
207A
330
1F
100
AcDbEntity
  8
0
100
AcDbLine
 10
280.1582360172672
 20
108.1311584284617
 30
0.0
 11
280.1582360172672
 21
108.9007462635441
 31
0.0
  0
LINE
  5
207B
330
1F
100
AcDbEntity
  8
0
100
AcDbLine
 10
280.1582360172672
 20
109.7249583120486
 30
0.0
 11
280.1582360172672
 21
108.9553704769661
 31
0.0
  0
LINE
  5
207C
330
1F
100
AcDbEntity
  8
0
100
AcDbLine
 10
283.5071051509265
 20
110.3530617378943
 30
0.0
 11
283.5071051509265
 21
109.9691135334291
 31
0.0
  0
LINE
  5
207D
330
1F
100
AcDbEntity
  8
0
100
AcDbLine
 10
283.5071051509265
 20
108.3239782437703
 30
0.0
 11
283.5071051509265
 21
108.7079264482355
 31
0.0
  0
LINE
  5
207E
330
1F
100
AcDbEntity
  8
0
100
AcDbLine
 10
283.5071051509265
 20
109.53213849674
 30
0.0
 11
283.5071051509265
 21
109.1481902922748
 31
0.0
  0
LINE
  5
207F
330
1F
100
AcDbEntity
  8
0
100
AcDbLine
 10
272.1122162197137
 20
129.7634367857986
 30
0.0
 11
280.1582360172672
 21
129.7634367857986
 31
0.0
  0
LINE
  5
2080
330
1F
100
AcDbEntity
  8
0
100
AcDbLine
 10
272.1122162197137
 20
130.5396340449046
 30
0.0
 11
280.1582360172672
 21
130.5396340449046
 31
0.0
  0
LINE
  5
2081
330
1F
100
AcDbEntity
  8
0
100
AcDbLine
 10
272.1122162197137
 20
129.7088125723765
 30
0.0
 11
280.1582360172672
 21
129.7088125723765
 31
0.0
  0
LINE
  5
2082
330
1F
100
AcDbEntity
  8
0
100
AcDbLine
 10
272.1122162197137
 20
131.3539478620354
 30
0.0
 11
280.1582360172672
 21
131.3539478620354
 31
0.0
  0
LINE
  5
2083
330
1F
100
AcDbEntity
  8
0
100
AcDbLine
 10
272.1122162197137
 20
130.5843600269529
 30
0.0
 11
280.1582360172672
 21
130.5843600269529
 31
0.0
  0
LINE
  5
2084
330
1F
100
AcDbEntity
  8
0
100
AcDbLine
 10
272.1122162197137
 20
128.9392247372941
 30
0.0
 11
280.1582360172672
 21
128.9392247372941
 31
0.0
  0
DIMENSION
  5
2086
330
1F
100
AcDbEntity
  8
AM_5
100
AcDbDimension
  2
*D7
 10
283.5071051509265
 20
121.6623130548438
 30
0.0
 11
269.5015494129682
 21
123.5875541965761
 31
0.0
 70
    32
  1
1000%%P20
 71
     5
 42
28.01111147591667
  3
AM_ISO$0
100
AcDbAlignedDimension
 13
255.4959936750099
 23
127.6523130548442
 33
0.0
 14
283.5071051509265
 24
129.3257259856485
 34
0.0
100
AcDbRotatedDimension
1001
ACAD
1000
DSTYLE
1002
{
1070
    40
1040
0.7
1070
   272
1070
     8
1002
}
  0
LINE
  5
2087
330
1F
100
AcDbEntity
  8
0
100
AcDbLine
 10
255.4959936750098
 20
131.4223759476442
 30
0.0
 11
266.9408163532855
 21
131.4223759476443
 31
0.0
  0
LINE
  5
2088
330
1F
100
AcDbEntity
  8
0
100
AcDbLine
 10
255.4959936750098
 20
128.8223759476702
 30
0.0
 11
266.9408163532855
 21
128.8223759476702
 31
0.0
  0
LINE
  5
2089
330
1F
100
AcDbEntity
  8
0
 62
     7
100
AcDbLine
 10
254.05599367501
 20
126.6623130548439
 30
0.0
 11
254.05599367501
 21
132.9623130548438
 31
0.0
  0
LINE
  5
208A
330
1F
100
AcDbEntity
  8
0
100
AcDbLine
 10
255.4959936750099
 20
131.9723130548442
 30
0.0
 11
255.4959936750099
 21
127.6523130548442
 31
0.0
  0
LINE
  5
208B
330
1F
100
AcDbEntity
  8
0
 62
     7
100
AcDbLine
 10
255.4959936750099
 20
128.2022501620442
 30
0.0
 11
255.4959936750099
 21
131.4223759476442
 31
0.0
  0
LINE
  5
208C
330
1F
100
AcDbEntity
  8
0
 62
     7
100
AcDbLine
 10
254.05599367501
 20
127.6523130548442
 30
0.0
 11
255.4959936750099
 21
127.6523130548442
 31
0.0
  0
LINE
  5
208D
330
1F
100
AcDbEntity
  8
0
 62
     7
100
AcDbLine
 10
254.05599367501
 20
131.9723130548442
 30
0.0
 11
255.4959936750099
 21
131.9723130548442
 31
0.0
  0
ARC
  5
208E
330
1F
100
AcDbEntity
  8
0
100
AcDbCircle
 10
269.4668792202159
 20
130.7723759476507
 30
0.0
 40
1.299999999986999
100
AcDbArc
 50
149.9999999999987
 51
210.0000000000012
  0
ARC
  5
208F
330
1F
100
AcDbEntity
  8
0
100
AcDbCircle
 10
268.066649378194
 20
130.7723759476507
 30
0.0
 40
1.299999999986999
100
AcDbArc
 50
149.9999999999987
 51
210.0000000000012
  0
LINE
  5
2090
330
1F
100
AcDbEntity
  8
0
100
AcDbLine
 10
272.1122162197137
 20
131.4223759476442
 30
0.0
 11
272.1122162197137
 21
128.8223759476702
 31
0.0
  0
LINE
  5
2091
330
1F
100
AcDbEntity
  8
0
100
AcDbLine
 10
268.3410461953073
 20
128.8223759476702
 30
0.0
 11
272.1122162197137
 21
128.8223759476702
 31
0.0
  0
ARC
  5
2092
330
1F
100
AcDbEntity
  8
0
100
AcDbCircle
 10
265.814983328377
 20
129.4723759476637
 30
0.0
 40
1.299999999986999
100
AcDbArc
 50
329.9999999999987
 51
30.00000000000125
  0
ARC
  5
2093
330
1F
100
AcDbEntity
  8
0
100
AcDbCircle
 10
267.2152131703988
 20
129.4723759476637
 30
0.0
 40
1.299999999986999
100
AcDbArc
 50
329.9999999999987
 51
30.00000000000125
  0
LINE
  5
2094
330
1F
100
AcDbEntity
  8
0
100
AcDbLine
 10
268.3410461953073
 20
131.4223759476442
 30
0.0
 11
272.1122162197137
 21
131.4223759476442
 31
0.0
  0
LINE
  5
2095
330
1F
100
AcDbEntity
  8
0
100
AcDbLine
 10
280.1582360172672
 20
130.533024620881
 30
0.0
 11
280.1582360172672
 21
129.7634367857986
 31
0.0
  0
LINE
  5
2096
330
1F
100
AcDbEntity
  8
0
100
AcDbLine
 10
283.5071051509265
 20
130.3402048055724
 30
0.0
 11
283.5071051509265
 21
129.9562566011072
 31
0.0
  0
LINE
  5
2097
330
1F
100
AcDbEntity
  8
0
100
AcDbLine
 10
280.1582360172672
 20
129.9562566011072
 30
0.0
 11
283.5071051509265
 21
129.9562566011072
 31
0.0
  0
LINE
  5
2098
330
1F
100
AcDbEntity
  8
0
100
AcDbLine
 10
280.1582360172672
 20
129.1320445526027
 30
0.0
 11
283.5071051509265
 21
129.1320445526027
 31
0.0
  0
LINE
  5
2099
330
1F
100
AcDbEntity
  8
0
100
AcDbLine
 10
280.1582360172672
 20
129.5159927570679
 30
0.0
 11
283.5071051509265
 21
129.5159927570679
 31
0.0
  0
LINE
  5
209A
330
1F
100
AcDbEntity
  8
0
100
AcDbLine
 10
280.1582360172672
 20
128.9392247372941
 30
0.0
 11
280.1582360172672
 21
129.7088125723766
 31
0.0
  0
LINE
  5
209B
330
1F
100
AcDbEntity
  8
0
100
AcDbLine
 10
283.5071051509265
 20
129.1320445526027
 30
0.0
 11
283.5071051509265
 21
129.5159927570679
 31
0.0
  0
LINE
  5
209C
330
1F
100
AcDbEntity
  8
0
100
AcDbLine
 10
280.1582360172672
 20
130.3402048055724
 30
0.0
 11
283.5071051509265
 21
130.3402048055724
 31
0.0
  0
LINE
  5
209D
330
1F
100
AcDbEntity
  8
0
100
AcDbLine
 10
280.1582360172672
 20
130.7771798422615
 30
0.0
 11
283.5071051509265
 21
130.7771798422615
 31
0.0
  0
LINE
  5
209E
330
1F
100
AcDbEntity
  8
0
100
AcDbLine
 10
280.1582360172672
 20
131.1611280467267
 30
0.0
 11
283.5071051509265
 21
131.1611280467267
 31
0.0
  0
LINE
  5
20A0
330
1F
100
AcDbEntity
  8
0
100
AcDbLine
 10
280.1582360172672
 20
131.3539478620354
 30
0.0
 11
280.1582360172672
 21
130.5843600269529
 31
0.0
  0
LINE
  5
20A1
330
1F
100
AcDbEntity
  8
0
100
AcDbLine
 10
283.5071051509265
 20
131.1611280467267
 30
0.0
 11
283.5071051509265
 21
130.7771798422615
 31
0.0
  0
LINE
  5
20A2
330
1F
100
AcDbEntity
  8
0
100
AcDbLine
 10
210.7479936750099
 20
109.6792467460118
 30
0.0
 11
210.7479936750099
 21
106.9892467460118
 31
0.0
  0
LINE
  5
20A3
330
1F
100
AcDbEntity
  8
0
100
AcDbLine
 10
217.0479936750098
 20
109.6792467460119
 30
0.0
 11
217.0479936750099
 21
106.9892467460118
 31
0.0
  0
LINE
  5
221E
330
1F
100
AcDbEntity
  8
0
 62
     7
100
AcDbLine
 10
223.7959936750098
 20
53.08287497629146
 30
0.0
 11
254.0559936750098
 21
53.08287497629135
 31
0.0
  0
LINE
  5
221F
330
1F
100
AcDbEntity
  8
0
 62
     7
100
AcDbLine
 10
223.7959936750098
 20
51.3728749762914
 30
0.0
 11
254.0559936750098
 21
51.3728749762914
 31
0.0
  0
LINE
  5
2220
330
1F
100
AcDbEntity
  8
0
 62
     7
100
AcDbLine
 10
223.7959936750097
 20
48.6828749762914
 30
0.0
 11
254.0559936750098
 21
48.68287497629132
 31
0.0
  0
DIMENSION
  5
2221
330
1F
100
AcDbEntity
  8
AM_5
100
AcDbDimension
  2
*D8
 10
255.4959936750098
 20
63.35594128512344
 30
0.0
 11
239.6459936750097
 21
65.28094128512343
 31
0.0
 70
    32
  1
31.7
 71
     5
 42
31.70000000000007
  3
AM_ISO$0
100
AcDbAlignedDimension
 13
223.7959936750097
 23
68.35594128512342
 33
0.0
 14
255.4959936750098
 24
69.34594128512379
 34
0.0
100
AcDbRotatedDimension
1001
ACAD
1000
DSTYLE
1002
{
1070
    40
1040
0.7
1070
   272
1070
     8
1002
}
  0
LINE
  5
2222
330
1F
100
AcDbEntity
  8
0
100
AcDbLine
 10
223.7959936750097
 20
69.00594128512341
 30
0.0
 11
254.0559936750098
 21
69.00594128512341
 31
0.0
  0
LINE
  5
2223
330
1F
100
AcDbEntity
  8
0
100
AcDbLine
 10
223.7959936750097
 20
74.00594128512341
 30
0.0
 11
254.0559936750098
 21
74.00594128512341
 31
0.0
  0
LINE
  5
2224
330
1F
100
AcDbEntity
  8
0
100
AcDbLine
 10
223.7959936750098
 20
74.65594128512339
 30
0.0
 11
254.0559936750098
 21
74.65594128512339
 31
0.0
  0
LINE
  5
2225
330
1F
100
AcDbEntity
  8
0
100
AcDbLine
 10
223.7959936750098
 20
68.35594128512344
 30
0.0
 11
254.0559936750098
 21
68.35594128512344
 31
0.0
  0
DIMENSION
  5
2226
330
1F
100
AcDbEntity
  8
AM_5
100
AcDbDimension
  2
*D9
 10
216.3979936750097
 20
58.08287497629135
 30
0.0
 11
213.8979936750097
 21
58.08287497629135
 31
0.0
 70
   160
 71
     5
 42
4.999999999999886
  3
AM_ISO$0
100
AcDbAlignedDimension
 13
211.3979936750098
 23
53.08287497629135
 33
0.0
 14
216.3979936750097
 24
53.08287497629135
 34
0.0
100
AcDbRotatedDimension
1001
ACAD
1000
DSTYLE
1002
{
1070
    40
1040
0.7
1070
   272
1070
     8
1002
}
  0
LINE
  5
2227
330
1F
100
AcDbEntity
  8
0
 62
     7
100
AcDbLine
 10
211.3979936750098
 20
53.08287497629135
 30
0.0
 11
216.3979936750097
 21
53.08287497629135
 31
0.0
  0
LINE
  5
2228
330
1F
100
AcDbEntity
  8
0
 62
     7
100
AcDbLine
 10
210.7479936750098
 20
48.6828749762914
 30
0.0
 11
217.0479936750098
 21
48.68287497629143
 31
0.0
  0
DIMENSION
  5
2229
330
1F
100
AcDbEntity
  8
AM_5
100
AcDbDimension
  2
*D10
 10
205.7479936750098
 20
48.68287497629141
 30
0.0
 11
205.7479936750098
 21
50.88287497629141
 31
0.0
 70
   160
  1
4.4
 71
     5
 42
4.399999999999948
  3
AM_ISO$0
100
AcDbAlignedDimension
 13
211.4769936750099
 23
53.08287497629135
 33
0.0
 14
210.7979936750098
 24
48.6828749762914
 34
0.0
 50
90.0
100
AcDbRotatedDimension
1001
ACAD
1000
DSTYLE
1002
{
1070
    40
1040
0.7
1070
   272
1070
     8
1002
}
  0
POINT
  5
222A
330
1F
100
AcDbEntity
  8
DEFPOINTS
  6
ByBlock
 62
     7
100
AcDbPoint
 10
211.4769936750099
 20
53.08287497629135
 30
0.0
  0
POINT
  5
222B
330
1F
100
AcDbEntity
  8
DEFPOINTS
  6
ByBlock
 62
     7
100
AcDbPoint
 10
211.4769936750099
 20
53.08287497629135
 30
0.0
  0
LINE
  5
222C
330
1F
100
AcDbEntity
  8
0
 62
     7
100
AcDbLine
 10
210.7979936750098
 20
51.3728749762914
 30
0.0
 11
211.3979936750097
 21
51.3728749762914
 31
0.0
  0
LINE
  5
222D
330
1F
100
AcDbEntity
  8
0
 62
     7
100
AcDbLine
 10
210.7479936750098
 20
51.3728749762914
 30
0.0
 11
211.3979936750097
 21
51.3728749762914
 31
0.0
  0
LINE
  5
222E
330
1F
100
AcDbEntity
  8
0
100
AcDbLine
 10
211.3979936750098
 20
51.3728749762914
 30
0.0
 11
211.3979936750098
 21
53.08287497629135
 31
0.0
  0
POINT
  5
2230
330
1F
100
AcDbEntity
  8
DEFPOINTS
  6
ByBlock
 62
     7
100
AcDbPoint
 10
216.3189936750097
 20
53.08287497629135
 30
0.0
  0
POINT
  5
2231
330
1F
100
AcDbEntity
  8
DEFPOINTS
  6
ByBlock
 62
     7
100
AcDbPoint
 10
216.3189936750097
 20
53.08287497629135
 30
0.0
  0
LINE
  5
2232
330
1F
100
AcDbEntity
  8
0
 62
     7
100
AcDbLine
 10
216.3979936750098
 20
51.3728749762914
 30
0.0
 11
217.0479936750098
 21
51.37287497629142
 31
0.0
  0
LINE
  5
2233
330
1F
100
AcDbEntity
  8
0
100
AcDbLine
 10
216.3979936750098
 20
51.37287497629145
 30
0.0
 11
216.3979936750098
 21
53.08287497629135
 31
0.0
  0
LINE
  5
2234
330
1F
100
AcDbEntity
  8
0
 62
     7
100
AcDbLine
 10
223.7959936750097
 20
48.68287497629134
 30
0.0
 11
223.7959936750098
 21
53.08287497629146
 31
0.0
  0
DIMENSION
  5
2235
330
1F
100
AcDbEntity
  8
AM_5
100
AcDbDimension
  2
*D11
 10
218.7959936750098
 20
68.35594128512344
 30
0.0
 11
216.8709936750097
 21
71.50594128512344
 31
0.0
 70
    32
 71
     5
 42
6.299999999999954
  3
AM_ISO$0
100
AcDbAlignedDimension
 13
223.7959936750098
 23
74.65594128512339
 33
0.0
 14
223.7959936750098
 24
68.35594128512344
 34
0.0
 50
90.0
100
AcDbRotatedDimension
1001
ACAD
1000
DSTYLE
1002
{
1070
    40
1040
0.7
1070
   272
1070
     8
1002
}
  0
CIRCLE
  5
2236
330
1F
100
AcDbEntity
  8
0
 62
     7
100
AcDbCircle
 10
225.9739936750097
 20
71.50594128512341
 30
0.0
 40
1.296
  0
CIRCLE
  5
2237
330
1F
100
AcDbEntity
  8
0
 62
     7
100
AcDbCircle
 10
225.9739936750097
 20
71.50594128512341
 30
0.0
 40
0.99
  0
LINE
  5
2238
330
1F
100
AcDbEntity
  8
0
 62
     7
100
AcDbLine
 10
223.7959936750098
 20
68.35594128512344
 30
0.0
 11
223.7959936750097
 21
74.60594128512344
 31
0.0
  0
LINE
  5
2239
330
1F
100
AcDbEntity
  8
0
100
AcDbLine
 10
223.7959936750098
 20
74.65594128512339
 30
0.0
 11
223.7959936750098
 21
71.50594128512341
 31
0.0
  0
LINE
  5
223A
330
1F
100
AcDbEntity
  8
0
 62
     7
100
AcDbLine
 10
225.7489936750097
 20
72.4700341229767
 30
0.0
 11
225.7489936750097
 21
70.54184844727013
 31
0.0
  0
LINE
  5
223B
330
1F
100
AcDbEntity
  8
0
 62
     7
100
AcDbLine
 10
226.1989936750096
 20
72.4700341229767
 30
0.0
 11
226.1989936750096
 21
70.54184844727013
 31
0.0
  0
LWPOLYLINE
  5
223C
330
1F
100
AcDbEntity
  8
0
100
AcDbPolyline
 90
        4
 70
     1
 43
0.0
 10
239.8855856453591
 20
69.84187547789701
 10
242.8951102178614
 20
69.84187547789701
 10
242.8951102178614
 20
73.07970540294627
 10
239.8855856453591
 20
73.07970540294627
  0
CIRCLE
  5
223D
330
1F
100
AcDbEntity
  8
0
100
AcDbCircle
 10
241.4289315647396
 20
71.4607902675541
 30
0.0
 40
0.7274785311216576
  0
LINE
  5
223E
330
1F
100
AcDbEntity
  8
0
100
AcDbLine
 10
272.1122162197136
 20
50.64899870724571
 30
0.0
 11
280.1582360172671
 21
50.64899870724571
 31
0.0
  0
LINE
  5
223F
330
1F
100
AcDbEntity
  8
0
100
AcDbLine
 10
272.1122162197136
 20
51.42519596635179
 30
0.0
 11
280.1582360172671
 21
51.42519596635179
 31
0.0
  0
LINE
  5
2240
330
1F
100
AcDbEntity
  8
0
100
AcDbLine
 10
272.1122162197136
 20
50.59437449382369
 30
0.0
 11
280.1582360172671
 21
50.59437449382369
 31
0.0
  0
LINE
  5
2241
330
1F
100
AcDbEntity
  8
0
100
AcDbLine
 10
272.1122162197136
 20
49.82478665874123
 30
0.0
 11
280.1582360172671
 21
49.82478665874123
 31
0.0
  0
LINE
  5
2242
330
1F
100
AcDbEntity
  8
0
100
AcDbLine
 10
272.1122162197136
 20
52.2395097834825
 30
0.0
 11
280.1582360172671
 21
52.2395097834825
 31
0.0
  0
LINE
  5
2243
330
1F
100
AcDbEntity
  8
0
100
AcDbLine
 10
272.1122162197136
 20
51.46992194840004
 30
0.0
 11
280.1582360172671
 21
51.46992194840004
 31
0.0
  0
DIMENSION
  5
2244
330
1F
100
AcDbEntity
  8
AM_5
100
AcDbDimension
  2
*D12
 10
283.5071051509264
 20
63.35594128512344
 30
0.0
 11
269.5015494129681
 21
65.28118242685572
 31
0.0
 70
    32
  1
1000%%P20
 71
     5
 42
28.01111147591667
  3
AM_ISO$0
100
AcDbAlignedDimension
 13
255.4959936750098
 23
69.34594128512379
 33
0.0
 14
283.5071051509264
 24
71.01935421592816
 34
0.0
100
AcDbRotatedDimension
1001
ACAD
1000
DSTYLE
1002
{
1070
    40
1040
0.7
1070
   272
1070
     8
1002
}
  0
LINE
  5
2247
330
1F
100
AcDbEntity
  8
0
100
AcDbLine
 10
272.1122162197136
 20
70.63285296757363
 30
0.0
 11
280.1582360172671
 21
70.63285296757363
 31
0.0
  0
LINE
  5
2248
330
1F
100
AcDbEntity
  8
0
100
AcDbLine
 10
272.1122162197136
 20
72.27798825723244
 30
0.0
 11
280.1582360172671
 21
72.27798825723244
 31
0.0
  0
LINE
  5
2249
330
1F
100
AcDbEntity
  8
0
100
AcDbLine
 10
272.1122162197136
 20
73.0475760923149
 30
0.0
 11
280.1582360172671
 21
73.0475760923149
 31
0.0
  0
LINE
  5
224A
330
1F
100
AcDbEntity
  8
0
100
AcDbLine
 10
272.1122162197136
 20
71.40244080265609
 30
0.0
 11
280.1582360172671
 21
71.40244080265609
 31
0.0
  0
LINE
  5
224B
330
1F
100
AcDbEntity
  8
0
100
AcDbLine
 10
272.1122162197136
 20
72.23326227518419
 30
0.0
 11
280.1582360172671
 21
72.23326227518419
 31
0.0
  0
LINE
  5
224C
330
1F
100
AcDbEntity
  8
0
100
AcDbLine
 10
272.1122162197136
 20
71.4570650160781
 30
0.0
 11
280.1582360172671
 21
71.4570650160781
 31
0.0
  0
LINE
  5
224E
330
1F
100
AcDbEntity
  8
0
100
AcDbLine
 10
255.4959936750096
 20
49.70793786911736
 30
0.0
 11
266.9408163532854
 21
49.70793786911738
 31
0.0
  0
LINE
  5
224F
330
1F
100
AcDbEntity
  8
0
100
AcDbLine
 10
255.4959936750096
 20
52.30793786909135
 30
0.0
 11
266.9408163532855
 21
52.30793786909146
 31
0.0
  0
LINE
  5
2250
330
1F
100
AcDbEntity
  8
0
 62
     7
100
AcDbLine
 10
254.0559936750098
 20
48.8828749762913
 30
0.0
 11
255.4959936750098
 21
48.8828749762913
 31
0.0
  0
LINE
  5
2251
330
1F
100
AcDbEntity
  8
0
 62
     7
100
AcDbLine
 10
254.0559936750098
 20
52.85787497629138
 30
0.0
 11
255.4959936750098
 21
52.85787497629138
 31
0.0
  0
LINE
  5
2252
330
1F
100
AcDbEntity
  8
0
 62
     7
100
AcDbLine
 10
255.4959936750098
 20
52.30793786909135
 30
0.0
 11
255.4959936750098
 21
49.08781208349137
 31
0.0
  0
POINT
  5
2253
330
1F
100
AcDbEntity
  8
DEFPOINTS
  6
ByBlock
 62
     7
100
AcDbPoint
 10
255.4959936750098
 20
52.30793786909135
 30
0.0
  0
LINE
  5
2254
330
1F
100
AcDbEntity
  8
0
100
AcDbLine
 10
255.4959936750098
 20
52.85787497629138
 30
0.0
 11
255.4959936750099
 21
48.8828749762913
 31
0.0
  0
LINE
  5
2255
330
1F
100
AcDbEntity
  8
0
 62
     7
100
AcDbLine
 10
254.0559936750098
 20
48.6828749762914
 30
0.0
 11
254.0559936750098
 21
53.08287497629135
 31
0.0
  0
LINE
  5
2256
330
1F
100
AcDbEntity
  8
0
100
AcDbLine
 10
268.3410461953072
 20
49.70793786911738
 30
0.0
 11
272.1122162197136
 21
49.70793786911738
 31
0.0
  0
LINE
  5
2257
330
1F
100
AcDbEntity
  8
0
100
AcDbLine
 10
268.3410461953072
 20
52.30793786909138
 30
0.0
 11
272.1122162197136
 21
52.30793786909135
 31
0.0
  0
ARC
  5
2258
330
1F
100
AcDbEntity
  8
0
100
AcDbCircle
 10
268.0666493781938
 20
51.65793786909785
 30
0.0
 40
1.299999999986999
100
AcDbArc
 50
149.9999999999991
 51
210.0000000000009
  0
ARC
  5
2259
330
1F
100
AcDbEntity
  8
0
100
AcDbCircle
 10
265.8149833283768
 20
50.35793786911085
 30
0.0
 40
1.299999999986999
100
AcDbArc
 50
329.9999999999991
 51
30.0000000000009
  0
ARC
  5
225A
330
1F
100
AcDbEntity
  8
0
100
AcDbCircle
 10
267.2152131703987
 20
50.35793786911085
 30
0.0
 40
1.299999999986999
100
AcDbArc
 50
329.9999999999991
 51
30.0000000000009
  0
ARC
  5
225B
330
1F
100
AcDbEntity
  8
0
100
AcDbCircle
 10
269.4668792202157
 20
51.65793786909785
 30
0.0
 40
1.299999999986999
100
AcDbArc
 50
149.9999999999991
 51
210.0000000000009
  0
LINE
  5
225C
330
1F
100
AcDbEntity
  8
0
100
AcDbLine
 10
272.1122162197136
 20
52.30793786909135
 30
0.0
 11
272.1122162197136
 21
49.70793786911738
 31
0.0
  0
LINE
  5
225D
330
1F
100
AcDbEntity
  8
0
100
AcDbLine
 10
255.4959936750096
 20
70.51600417794976
 30
0.0
 11
266.9408163532854
 21
70.51600417794981
 31
0.0
  0
LINE
  5
225E
330
1F
100
AcDbEntity
  8
0
100
AcDbLine
 10
255.4959936750096
 20
73.11600417792374
 30
0.0
 11
266.9408163532855
 21
73.11600417792385
 31
0.0
  0
LINE
  5
225F
330
1F
100
AcDbEntity
  8
0
 62
     7
100
AcDbLine
 10
255.4959936750098
 20
69.89587839232377
 30
0.0
 11
255.4959936750098
 21
73.11600417792374
 31
0.0
  0
LINE
  5
2260
330
1F
100
AcDbEntity
  8
0
100
AcDbLine
 10
255.4959936750098
 20
73.66594128512372
 30
0.0
 11
255.4959936750098
 21
69.34594128512379
 31
0.0
  0
LINE
  5
2261
330
1F
100
AcDbEntity
  8
0
 62
     7
100
AcDbLine
 10
254.0559936750098
 20
68.35594128512344
 30
0.0
 11
254.0559936750098
 21
74.65594128512339
 31
0.0
  0
LINE
  5
2262
330
1F
100
AcDbEntity
  8
0
 62
     7
100
AcDbLine
 10
254.0559936750098
 20
69.34594128512379
 30
0.0
 11
255.4959936750098
 21
69.34594128512379
 31
0.0
  0
LINE
  5
2263
330
1F
100
AcDbEntity
  8
0
 62
     7
100
AcDbLine
 10
254.0559936750098
 20
73.66594128512372
 30
0.0
 11
255.4959936750098
 21
73.66594128512372
 31
0.0
  0
LINE
  5
2264
330
1F
100
AcDbEntity
  8
0
100
AcDbLine
 10
268.3410461953072
 20
73.1160041779238
 30
0.0
 11
272.1122162197136
 21
73.11600417792374
 31
0.0
  0
LINE
  5
2265
330
1F
100
AcDbEntity
  8
0
100
AcDbLine
 10
268.3410461953072
 20
70.51600417794981
 30
0.0
 11
272.1122162197136
 21
70.51600417794981
 31
0.0
  0
ARC
  5
2266
330
1F
100
AcDbEntity
  8
0
100
AcDbCircle
 10
267.2152131703987
 20
71.16600417794325
 30
0.0
 40
1.299999999986999
100
AcDbArc
 50
329.9999999999991
 51
30.0000000000009
  0
ARC
  5
2267
330
1F
100
AcDbEntity
  8
0
100
AcDbCircle
 10
265.8149833283768
 20
71.16600417794325
 30
0.0
 40
1.299999999986999
100
AcDbArc
 50
329.9999999999991
 51
30.0000000000009
  0
ARC
  5
2268
330
1F
100
AcDbEntity
  8
0
100
AcDbCircle
 10
268.0666493781938
 20
72.46600417793024
 30
0.0
 40
1.299999999986999
100
AcDbArc
 50
149.9999999999991
 51
210.0000000000009
  0
ARC
  5
2269
330
1F
100
AcDbEntity
  8
0
100
AcDbCircle
 10
269.4668792202157
 20
72.46600417793024
 30
0.0
 40
1.299999999986999
100
AcDbArc
 50
149.9999999999991
 51
210.0000000000009
  0
LINE
  5
226A
330
1F
100
AcDbEntity
  8
0
100
AcDbLine
 10
272.1122162197136
 20
73.11600417792374
 30
0.0
 11
272.1122162197136
 21
70.51600417794981
 31
0.0
  0
LINE
  5
226B
330
1F
100
AcDbEntity
  8
0
100
AcDbLine
 10
280.1582360172671
 20
51.22576672701959
 30
0.0
 11
283.5071051509264
 21
51.22576672701959
 31
0.0
  0
LINE
  5
226C
330
1F
100
AcDbEntity
  8
0
100
AcDbLine
 10
280.1582360172671
 20
50.84181852255435
 30
0.0
 11
283.5071051509264
 21
50.84181852255435
 31
0.0
  0
LINE
  5
226D
330
1F
100
AcDbEntity
  8
0
100
AcDbLine
 10
280.1582360172671
 20
50.01760647404984
 30
0.0
 11
283.5071051509264
 21
50.01760647404984
 31
0.0
  0
LINE
  5
226E
330
1F
100
AcDbEntity
  8
0
100
AcDbLine
 10
280.1582360172671
 20
50.40155467851509
 30
0.0
 11
283.5071051509264
 21
50.40155467851509
 31
0.0
  0
LINE
  5
226F
330
1F
100
AcDbEntity
  8
0
100
AcDbLine
 10
280.1582360172671
 20
51.66274176370865
 30
0.0
 11
283.5071051509264
 21
51.66274176370865
 31
0.0
  0
LINE
  5
2270
330
1F
100
AcDbEntity
  8
0
100
AcDbLine
 10
280.1582360172671
 20
52.04668996817389
 30
0.0
 11
283.5071051509264
 21
52.04668996817389
 31
0.0
  0
LINE
  5
2271
330
1F
100
AcDbEntity
  8
0
100
AcDbLine
 10
280.1582360172671
 20
51.41858654232819
 30
0.0
 11
280.1582360172671
 21
50.64899870724571
 31
0.0
  0
LINE
  5
2272
330
1F
100
AcDbEntity
  8
0
100
AcDbLine
 10
280.1582360172671
 20
49.82478665874123
 30
0.0
 11
280.1582360172671
 21
50.59437449382372
 31
0.0
  0
LINE
  5
2273
330
1F
100
AcDbEntity
  8
0
100
AcDbLine
 10
280.1582360172671
 20
52.2395097834825
 30
0.0
 11
280.1582360172671
 21
51.46992194840001
 31
0.0
  0
LINE
  5
2274
330
1F
100
AcDbEntity
  8
0
100
AcDbLine
 10
283.5071051509264
 20
51.22576672701959
 30
0.0
 11
283.5071051509264
 21
50.84181852255435
 31
0.0
  0
LINE
  5
2275
330
1F
100
AcDbEntity
  8
0
100
AcDbLine
 10
283.5071051509264
 20
50.01760647404984
 30
0.0
 11
283.5071051509264
 21
50.40155467851509
 31
0.0
  0
LINE
  5
2276
330
1F
100
AcDbEntity
  8
0
100
AcDbLine
 10
283.5071051509264
 20
52.04668996817389
 30
0.0
 11
283.5071051509264
 21
51.66274176370865
 31
0.0
  0
LINE
  5
2277
330
1F
100
AcDbEntity
  8
0
100
AcDbLine
 10
280.1582360172671
 20
72.85475627700634
 30
0.0
 11
283.5071051509264
 21
72.85475627700634
 31
0.0
  0
LINE
  5
2278
330
1F
100
AcDbEntity
  8
0
100
AcDbLine
 10
280.1582360172671
 20
72.47080807254111
 30
0.0
 11
283.5071051509264
 21
72.47080807254111
 31
0.0
  0
LINE
  5
2279
330
1F
100
AcDbEntity
  8
0
100
AcDbLine
 10
280.1582360172671
 20
72.03383303585201
 30
0.0
 11
283.5071051509264
 21
72.03383303585201
 31
0.0
  0
LINE
  5
227A
330
1F
100
AcDbEntity
  8
0
100
AcDbLine
 10
280.1582360172671
 20
71.20962098734754
 30
0.0
 11
283.5071051509264
 21
71.20962098734754
 31
0.0
  0
LINE
  5
227B
330
1F
100
AcDbEntity
  8
0
100
AcDbLine
 10
280.1582360172671
 20
70.82567278288229
 30
0.0
 11
283.5071051509264
 21
70.82567278288229
 31
0.0
  0
LINE
  5
227C
330
1F
100
AcDbEntity
  8
0
100
AcDbLine
 10
280.1582360172671
 20
71.64988483138677
 30
0.0
 11
283.5071051509264
 21
71.64988483138677
 31
0.0
  0
LINE
  5
227D
330
1F
100
AcDbEntity
  8
0
100
AcDbLine
 10
280.1582360172671
 20
73.0475760923149
 30
0.0
 11
280.1582360172671
 21
72.27798825723244
 31
0.0
  0
LINE
  5
227E
330
1F
100
AcDbEntity
  8
0
100
AcDbLine
 10
280.1582360172671
 20
70.63285296757363
 30
0.0
 11
280.1582360172671
 21
71.40244080265614
 31
0.0
  0
LINE
  5
227F
330
1F
100
AcDbEntity
  8
0
100
AcDbLine
 10
280.1582360172671
 20
72.22665285116062
 30
0.0
 11
280.1582360172671
 21
71.4570650160781
 31
0.0
  0
LINE
  5
2280
330
1F
100
AcDbEntity
  8
0
100
AcDbLine
 10
283.5071051509264
 20
72.85475627700634
 30
0.0
 11
283.5071051509264
 21
72.47080807254111
 31
0.0
  0
LINE
  5
2281
330
1F
100
AcDbEntity
  8
0
100
AcDbLine
 10
283.5071051509264
 20
70.82567278288229
 30
0.0
 11
283.5071051509264
 21
71.20962098734754
 31
0.0
  0
LINE
  5
2282
330
1F
100
AcDbEntity
  8
0
100
AcDbLine
 10
283.5071051509264
 20
72.03383303585201
 30
0.0
 11
283.5071051509264
 21
71.64988483138677
 31
0.0
  0
LINE
  5
2283
330
1F
100
AcDbEntity
  8
0
100
AcDbLine
 10
210.7479936750098
 20
51.3728749762914
 30
0.0
 11
210.7479936750098
 21
48.6828749762914
 31
0.0
  0
LINE
  5
2284
330
1F
100
AcDbEntity
  8
0
100
AcDbLine
 10
217.0479936750098
 20
51.37287497629142
 30
0.0
 11
217.0479936750098
 21
48.6828749762914
 31
0.0
  0
CIRCLE
  5
248E
330
1F
100
AcDbEntity
  8
0
 62
     7
100
AcDbCircle
 10
225.9739936750096
 20
21.87821057395274
 30
0.0
 40
1.296
  0
LINE
  5
248F
330
1F
100
AcDbEntity
  8
0
 62
     7
100
AcDbLine
 10
223.7959936750097
 20
4.948711347831135
 30
0.0
 11
254.0559936750097
 21
4.948711347831022
 31
0.0
  0
LINE
  5
2490
330
1F
100
AcDbEntity
  8
0
100
AcDbLine
 10
223.7959936750097
 20
19.37821057395274
 30
0.0
 11
254.0559936750098
 21
19.37821057395274
 31
0.0
  0
LINE
  5
2491
330
1F
100
AcDbEntity
  8
0
100
AcDbLine
 10
223.7959936750097
 20
24.37821057395274
 30
0.0
 11
254.0559936750098
 21
24.37821057395274
 31
0.0
  0
LINE
  5
2492
330
1F
100
AcDbEntity
  8
0
 62
     7
100
AcDbLine
 10
223.7959936750097
 20
7.638711347831076
 30
0.0
 11
254.0559936750097
 21
7.638711347831076
 31
0.0
  0
LINE
  5
2493
330
1F
100
AcDbEntity
  8
0
 62
     7
100
AcDbLine
 10
223.7959936750097
 20
9.348711347831113
 30
0.0
 11
254.0559936750097
 21
9.348711347831113
 31
0.0
  0
DIMENSION
  5
2494
330
1F
100
AcDbEntity
  8
AM_5
100
AcDbDimension
  2
*D13
 10
255.4959936750097
 20
13.72821057395276
 30
0.0
 11
239.6459936750097
 21
15.65321057395276
 31
0.0
 70
    32
  1
31.7
 71
     5
 42
31.70000000000005
  3
AM_ISO$0
100
AcDbAlignedDimension
 13
223.7959936750097
 23
18.72821057395276
 33
0.0
 14
255.4959936750097
 24
19.71821057395311
 34
0.0
100
AcDbRotatedDimension
1001
ACAD
1000
DSTYLE
1002
{
1070
    40
1040
0.7
1070
   272
1070
     8
1002
}
  0
LINE
  5
2495
330
1F
100
AcDbEntity
  8
0
100
AcDbLine
 10
223.7959936750097
 20
25.02821057395272
 30
0.0
 11
254.0559936750097
 21
25.02821057395272
 31
0.0
  0
LINE
  5
2496
330
1F
100
AcDbEntity
  8
0
100
AcDbLine
 10
223.7959936750097
 20
18.72821057395276
 30
0.0
 11
254.0559936750097
 21
18.72821057395276
 31
0.0
  0
DIMENSION
  5
2497
330
1F
100
AcDbEntity
  8
AM_5
100
AcDbDimension
  2
*D14
 10
218.7959936750097
 20
18.72821057395276
 30
0.0
 11
216.8709936750097
 21
21.87821057395278
 31
0.0
 70
    32
 71
     5
 42
6.299999999999954
  3
AM_ISO$0
100
AcDbAlignedDimension
 13
223.7959936750097
 23
25.02821057395272
 33
0.0
 14
223.7959936750097
 24
18.72821057395276
 34
0.0
 50
90.0
100
AcDbRotatedDimension
1001
ACAD
1000
DSTYLE
1002
{
1070
    40
1040
0.7
1070
   272
1070
     8
1002
}
  0
LINE
  5
2498
330
1F
100
AcDbEntity
  8
0
 62
     7
100
AcDbLine
 10
223.7959936750097
 20
18.72821057395276
 30
0.0
 11
223.7959936750097
 21
24.97821057395277
 31
0.0
  0
DIMENSION
  5
2499
330
1F
100
AcDbEntity
  8
AM_5
100
AcDbDimension
  2
*D15
 10
205.7479936750097
 20
4.948711347831137
 30
0.0
 11
205.7479936750097
 21
7.148711347831158
 31
0.0
 70
   160
  1
4.4
 71
     5
 42
4.399999999999976
  3
AM_ISO$0
100
AcDbAlignedDimension
 13
211.4769936750097
 23
9.348711347831113
 33
0.0
 14
210.7979936750097
 24
4.948711347831135
 34
0.0
 50
90.0
100
AcDbRotatedDimension
1001
ACAD
1000
DSTYLE
1002
{
1070
    40
1040
0.7
1070
   272
1070
     8
1002
}
  0
DIMENSION
  5
249A
330
1F
100
AcDbEntity
  8
AM_5
100
AcDbDimension
  2
*D16
 10
216.3979936750097
 20
14.34871134783111
 30
0.0
 11
213.8979936750097
 21
14.34871134783111
 31
0.0
 70
   160
 71
     5
 42
4.999999999999943
  3
AM_ISO$0
100
AcDbAlignedDimension
 13
211.3979936750097
 23
9.348711347831113
 33
0.0
 14
216.3979936750097
 24
9.348711347831113
 34
0.0
100
AcDbRotatedDimension
1001
ACAD
1000
DSTYLE
1002
{
1070
    40
1040
0.7
1070
   272
1070
     8
1002
}
  0
LINE
  5
249B
330
1F
100
AcDbEntity
  8
0
 62
     7
100
AcDbLine
 10
223.7959936750097
 20
4.948711347831022
 30
0.0
 11
223.7959936750097
 21
9.348711347831113
 31
0.0
  0
LINE
  5
249C
330
1F
100
AcDbEntity
  8
0
100
AcDbLine
 10
216.3979936750097
 20
7.63871134783119
 30
0.0
 11
216.3979936750097
 21
9.348711347831113
 31
0.0
  0
LINE
  5
249D
330
1F
100
AcDbEntity
  8
0
100
AcDbLine
 10
211.3979936750097
 20
7.638711347831076
 30
0.0
 11
211.3979936750097
 21
9.348711347831113
 31
0.0
  0
LINE
  5
249E
330
1F
100
AcDbEntity
  8
0
 62
     7
100
AcDbLine
 10
216.3979936750097
 20
7.638711347831076
 30
0.0
 11
217.0479936750097
 21
7.638711347831076
 31
0.0
  0
LINE
  5
249F
330
1F
100
AcDbEntity
  8
0
 62
     7
100
AcDbLine
 10
210.7479936750097
 20
4.948711347831135
 30
0.0
 11
217.0479936750097
 21
4.948711347831135
 31
0.0
  0
LINE
  5
24A0
330
1F
100
AcDbEntity
  8
0
 62
     7
100
AcDbLine
 10
210.7979936750097
 20
7.638711347831076
 30
0.0
 11
211.3979936750097
 21
7.638711347831076
 31
0.0
  0
LINE
  5
24A1
330
1F
100
AcDbEntity
  8
0
 62
     7
100
AcDbLine
 10
210.7479936750097
 20
7.638711347831076
 30
0.0
 11
211.3979936750097
 21
7.638711347831076
 31
0.0
  0
LINE
  5
24A2
330
1F
100
AcDbEntity
  8
0
 62
     7
100
AcDbLine
 10
211.3979936750097
 20
9.348711347831113
 30
0.0
 11
216.3979936750097
 21
9.348711347831113
 31
0.0
  0
POINT
  5
24A3
330
1F
100
AcDbEntity
  8
DEFPOINTS
  6
ByBlock
 62
     7
100
AcDbPoint
 10
211.4769936750097
 20
9.348711347831113
 30
0.0
  0
POINT
  5
24A4
330
1F
100
AcDbEntity
  8
DEFPOINTS
  6
ByBlock
 62
     7
100
AcDbPoint
 10
211.4769936750097
 20
9.348711347831113
 30
0.0
  0
POINT
  5
24A5
330
1F
100
AcDbEntity
  8
DEFPOINTS
  6
ByBlock
 62
     7
100
AcDbPoint
 10
216.3189936750097
 20
9.348711347831113
 30
0.0
  0
POINT
  5
24A6
330
1F
100
AcDbEntity
  8
DEFPOINTS
  6
ByBlock
 62
     7
100
AcDbPoint
 10
216.3189936750097
 20
9.348711347831113
 30
0.0
  0
LINE
  5
24A7
330
1F
100
AcDbEntity
  8
0
100
AcDbLine
 10
223.7959936750097
 20
25.02821057395272
 30
0.0
 11
223.7959936750097
 21
21.87821057395274
 31
0.0
  0
LINE
  5
24A8
330
1F
100
AcDbEntity
  8
0
370
    30
100
AcDbLine
 10
274.2215415921373
 20
21.15821057395272
 30
0.0
 11
274.2215415921373
 21
19.28526823691607
 31
0.0
  0
LINE
  5
24A9
330
1F
100
AcDbEntity
  8
0
370
    30
100
AcDbLine
 10
276.3816693156708
 20
21.15821057395272
 30
0.0
 11
276.3817229429029
 21
19.24997202651889
 31
0.0
  0
LINE
  5
24AA
330
1F
100
AcDbEntity
  8
0
370
    30
100
AcDbLine
 10
275.6615415921373
 20
21.15821057395272
 30
0.0
 11
275.6615415921373
 21
19.26106771680986
 31
0.0
  0
LINE
  5
24AB
330
1F
100
AcDbEntity
  8
0
370
    30
100
AcDbLine
 10
274.9415415921373
 20
21.15821057395272
 30
0.0
 11
274.9415415921373
 21
19.27249628823847
 31
0.0
  0
LINE
  5
24AC
330
1F
100
AcDbEntity
  8
0
100
AcDbLine
 10
284.4215415921373
 20
20.57821057396575
 30
0.0
 11
284.4215415921373
 21
23.17821057393962
 31
0.0
  0
LINE
  5
24AD
330
1F
100
AcDbEntity
  8
0
370
    30
100
AcDbLine
 10
280.7015415921373
 20
19.35821057395276
 30
0.0
 11
280.7015415921373
 21
24.39821057395273
 31
0.0
  0
LINE
  5
24AE
330
1F
100
AcDbEntity
  8
0
370
    30
100
AcDbLine
 10
281.5715415921372
 20
24.26321057395274
 30
0.0
 11
281.3615415921372
 21
19.49321057395275
 31
0.0
  0
LINE
  5
24AF
330
1F
100
AcDbEntity
  8
0
370
    30
100
AcDbLine
 10
281.9915415921373
 20
24.26321057395274
 30
0.0
 11
281.7815415921373
 21
19.49321057395275
 31
0.0
  0
LINE
  5
24B0
330
1F
100
AcDbEntity
  8
0
370
    30
100
AcDbLine
 10
282.4115415921373
 20
24.26321057395274
 30
0.0
 11
282.2015415921373
 21
19.49321057395275
 31
0.0
  0
LINE
  5
24B1
330
1F
100
AcDbEntity
  8
0
370
    30
100
AcDbLine
 10
281.3615415921372
 20
23.75321057395274
 30
0.0
 11
281.1515415921373
 21
20.00321057395274
 31
0.0
  0
LINE
  5
24B2
330
1F
100
AcDbEntity
  8
0
370
    30
100
AcDbLine
 10
281.7815415921373
 20
23.75321057395274
 30
0.0
 11
281.5715415921373
 21
20.00321057395274
 31
0.0
  0
LINE
  5
24B3
330
1F
100
AcDbEntity
  8
0
370
    30
100
AcDbLine
 10
282.2015415921373
 20
23.75321057395274
 30
0.0
 11
281.9915415921373
 21
20.00321057395274
 31
0.0
  0
LINE
  5
24B4
330
1F
100
AcDbEntity
  8
0
370
    30
100
AcDbLine
 10
282.6215415921372
 20
23.75321057395274
 30
0.0
 11
282.4115415921373
 21
20.00321057395274
 31
0.0
  0
LINE
  5
24B5
330
1F
100
AcDbEntity
  8
0
370
    30
100
AcDbLine
 10
283.2215415921373
 20
23.91821057395282
 30
0.0
 11
283.2215415921373
 21
19.83821057395266
 31
0.0
  0
LINE
  5
24B6
330
1F
100
AcDbEntity
  8
0
370
    30
100
AcDbLine
 10
284.4215415921373
 20
19.89821057395272
 30
0.0
 11
284.4215415921373
 21
23.85821057395276
 31
0.0
  0
LINE
  5
24B7
330
1F
100
AcDbEntity
  8
0
370
    30
100
AcDbLine
 10
277.1015415921373
 20
19.23821057395275
 30
0.0
 11
277.1015415921373
 21
24.51821057395273
 31
0.0
  0
LINE
  5
24B8
330
1F
100
AcDbEntity
  8
0
370
    30
100
AcDbLine
 10
270.1415415921373
 20
19.35821057395276
 30
0.0
 11
270.1415415921373
 21
21.45821057395267
 31
0.0
  0
LINE
  5
24B9
330
1F
100
AcDbEntity
  8
0
370
    30
100
AcDbLine
 10
265.8215415921374
 20
19.6667820025242
 30
0.0
 11
265.8215415921374
 21
21.45821057395267
 31
0.0
  0
LINE
  5
24BA
330
1F
100
AcDbEntity
  8
0
370
    30
100
AcDbLine
 10
267.9815415921374
 20
19.51249628823848
 30
0.0
 11
267.9815415921374
 21
21.45821057395267
 31
0.0
  0
LINE
  5
24BB
330
1F
100
AcDbEntity
  8
0
370
    30
100
AcDbLine
 10
269.6015415921372
 20
19.39678200252422
 30
0.0
 11
269.6015415921372
 21
21.45821057395267
 31
0.0
  0
LINE
  5
24BC
330
1F
100
AcDbEntity
  8
0
370
    30
100
AcDbLine
 10
267.4415415921373
 20
19.55106771680994
 30
0.0
 11
267.4415415921373
 21
21.45821057395267
 31
0.0
  0
LINE
  5
24BD
330
1F
100
AcDbEntity
  8
0
370
    30
100
AcDbLine
 10
265.2815415921373
 20
19.70535343109554
 30
0.0
 11
265.2815415921373
 21
21.45821057395267
 31
0.0
  0
ARC
  5
24BE
330
1F
100
AcDbEntity
  8
0
100
AcDbCircle
 10
258.8252051602362
 20
21.22821057395913
 30
0.0
 40
1.299999999986999
100
AcDbArc
 50
329.999999999999
 51
30.00000000000099
  0
ARC
  5
24BF
330
1F
100
AcDbEntity
  8
0
100
AcDbCircle
 10
259.6594121179011
 20
21.22821057395924
 30
0.0
 40
1.299999999986999
100
AcDbArc
 50
329.999999999999
 51
30.00000000000099
  0
LINE
  5
24C0
330
1F
100
AcDbEntity
  8
0
370
    30
100
AcDbLine
 10
264.2015415921374
 20
19.78249628823846
 30
0.0
 11
264.2015415921374
 21
23.97392485966702
 31
0.0
  0
LINE
  5
24C1
330
1F
100
AcDbEntity
  8
0
370
    30
100
AcDbLine
 10
264.7415415921374
 20
19.743924859667
 30
0.0
 11
264.7415415921374
 21
24.01249628823848
 31
0.0
  0
LINE
  5
24C2
330
1F
100
AcDbEntity
  8
0
370
    30
100
AcDbLine
 10
266.3615415921374
 20
19.62821057395274
 30
0.0
 11
266.3615415921373
 21
24.12821057395274
 31
0.0
  0
LINE
  5
24C3
330
1F
100
AcDbEntity
  8
0
370
    30
100
AcDbLine
 10
266.9015415921373
 20
19.58963914538128
 30
0.0
 11
266.9015415921373
 21
24.16678200252409
 31
0.0
  0
LINE
  5
24C4
330
1F
100
AcDbEntity
  8
0
370
    30
100
AcDbLine
 10
263.4215415921374
 20
19.83823970240871
 30
0.0
 11
263.4215415921373
 21
23.9182105739527
 31
0.0
  0
LINE
  5
24C5
330
1F
100
AcDbEntity
  8
0
370
    30
100
AcDbLine
 10
268.5215415921373
 20
19.47392485966702
 30
0.0
 11
268.5215415921373
 21
24.28249628823835
 31
0.0
  0
LINE
  5
24C6
330
1F
100
AcDbEntity
  8
0
370
    30
100
AcDbLine
 10
269.0615415921373
 20
19.43535343109568
 30
0.0
 11
269.0615415921373
 21
24.32106771680981
 31
0.0
  0
LINE
  5
24C7
330
1F
100
AcDbEntity
  8
0
370
    30
100
AcDbLine
 10
272.0621629986426
 20
19.32055133068798
 30
0.0
 11
272.0616509958027
 21
24.43585977794612
 31
0.0
  0
LINE
  5
24C8
330
1F
100
AcDbEntity
  8
0
370
    30
100
AcDbLine
 10
272.7815415921373
 20
19.30678200252419
 30
0.0
 11
272.7815415921373
 21
24.4496391453813
 31
0.0
  0
LINE
  5
24C9
330
1F
100
AcDbEntity
  8
0
370
    30
100
AcDbLine
 10
273.5015415921373
 20
19.29535343109558
 30
0.0
 11
273.5015415921373
 21
24.46106771680979
 31
0.0
  0
LINE
  5
24CA
330
1F
100
AcDbEntity
  8
0
 62
     7
100
AcDbLine
 10
255.4959936750097
 20
20.26814768115309
 30
0.0
 11
255.4959936750097
 21
23.48827346675307
 31
0.0
  0
LINE
  5
24CB
330
1F
100
AcDbEntity
  8
0
100
AcDbLine
 10
255.4959936750097
 20
24.03821057395305
 30
0.0
 11
255.4959936750097
 21
19.71821057395311
 31
0.0
  0
LINE
  5
24CC
330
1F
100
AcDbEntity
  8
0
 62
     7
100
AcDbLine
 10
254.0559936750098
 20
18.72821057395276
 30
0.0
 11
254.0559936750098
 21
25.02821057395272
 31
0.0
  0
LWPOLYLINE
  5
24CD
330
1F
100
AcDbEntity
  8
0
100
AcDbPolyline
 90
        4
 70
     1
 43
0.0
 10
239.885585645359
 20
20.21414476672635
 10
242.8951102178613
 20
20.21414476672635
 10
242.8951102178613
 20
23.45197469177561
 10
239.885585645359
 20
23.45197469177561
  0
LINE
  5
24CE
330
1F
100
AcDbEntity
  8
0
100
AcDbLine
 10
255.4959936750097
 20
20.57821057396564
 30
0.0
 11
259.9510381851439
 21
20.57821057396564
 31
0.0
  0
LINE
  5
24CF
330
1F
100
AcDbEntity
  8
0
100
AcDbLine
 10
255.4959936750098
 20
5.973774240657064
 30
0.0
 11
259.9510381851442
 21
5.973774240657121
 31
0.0
  0
LINE
  5
24D0
330
1F
100
AcDbEntity
  8
0
100
AcDbLine
 10
255.4959936750097
 20
8.573774240631166
 30
0.0
 11
259.9510381851453
 21
8.573774240631109
 31
0.0
  0
LINE
  5
24D1
330
1F
100
AcDbEntity
  8
0
100
AcDbLine
 10
255.4959936750097
 20
9.123711347831033
 30
0.0
 11
255.4959936750098
 21
5.14871134783101
 31
0.0
  0
LINE
  5
24D2
330
1F
100
AcDbEntity
  8
0
 62
     7
100
AcDbLine
 10
254.0559936750098
 20
5.14871134783101
 30
0.0
 11
255.4959936750097
 21
5.14871134783101
 31
0.0
  0
LINE
  5
24D3
330
1F
100
AcDbEntity
  8
0
 62
     7
100
AcDbLine
 10
255.4959936750097
 20
8.573774240631053
 30
0.0
 11
255.4959936750097
 21
5.353648455031077
 31
0.0
  0
LINE
  5
24D4
330
1F
100
AcDbEntity
  8
0
 62
     7
100
AcDbLine
 10
254.0559936750098
 20
9.123711347831033
 30
0.0
 11
255.4959936750097
 21
9.123711347831033
 31
0.0
  0
LINE
  5
24D5
330
1F
100
AcDbEntity
  8
0
 62
     7
100
AcDbLine
 10
254.0559936750098
 20
19.71821057395311
 30
0.0
 11
255.4959936750097
 21
19.71821057395311
 31
0.0
  0
LINE
  5
24D6
330
1F
100
AcDbEntity
  8
實体
370
    30
100
AcDbLine
 10
277.1015415921373
 20
19.23821057395275
 30
0.0
 11
272.7815415921373
 21
19.30879706839778
 31
0.0
  0
LINE
  5
24D7
330
1F
100
AcDbEntity
  8
實体
370
    30
100
AcDbLine
 10
274.2215463390573
 20
19.49529148801321
 30
0.0
 11
273.5015463156228
 21
19.50705470853336
 31
0.0
  0
ARC
  5
24D8
330
1F
100
AcDbEntity
  8
0
370
    30
100
AcDbCircle
 10
274.2215415921373
 20
7.273774240644115
 30
0.0
 40
0.3600000000000023
100
AcDbArc
 50
90.0
 51
270.0
  0
LINE
  5
24D9
330
1F
100
AcDbEntity
  8
實体
370
    30
100
AcDbLine
 10
277.1015415921373
 20
4.633774240644129
 30
0.0
 11
272.7815415921373
 21
4.704360735089153
 31
0.0
  0
LINE
  5
24DA
330
1F
100
AcDbEntity
  8
實体
370
    30
100
AcDbLine
 10
273.5015415921373
 20
6.553774240644088
 30
0.0
 11
274.2215415921373
 21
6.553774240644088
 31
0.0
  0
LINE
  5
24DB
330
1F
100
AcDbEntity
  8
實体
370
    30
100
AcDbLine
 10
274.2215463390573
 20
4.890855154704581
 30
0.0
 11
273.5015463156228
 21
4.902618375224733
 31
0.0
  0
LINE
  5
24DC
330
1F
100
AcDbEntity
  8
實体
370
    30
100
AcDbLine
 10
274.2215415921373
 20
9.656687589445937
 30
0.0
 11
273.5015415921373
 21
9.644922934640135
 31
0.0
  0
LINE
  5
24DD
330
1F
100
AcDbEntity
  8
實体
370
    30
100
AcDbLine
 10
273.5015415921373
 20
7.993774240644142
 30
0.0
 11
274.2215415921373
 21
7.993774240644142
 31
0.0
  0
LINE
  5
24DE
330
1F
100
AcDbEntity
  8
實体
370
    30
100
AcDbLine
 10
277.1015415921373
 20
9.913774240644102
 30
0.0
 11
272.7815415921373
 21
9.843186311809517
 31
0.0
  0
LINE
  5
24DF
330
1F
100
AcDbEntity
  8
0
370
    30
100
AcDbLine
 10
270.1415415921373
 20
7.693774240644188
 30
0.0
 11
270.1415415921373
 21
9.793774240644097
 31
0.0
  0
LINE
  5
24E0
330
1F
100
AcDbEntity
  8
0
370
    30
100
AcDbLine
 10
265.8215415921374
 20
7.693774240644074
 30
0.0
 11
265.8215415921374
 21
9.48520281207277
 31
0.0
  0
LINE
  5
24E1
330
1F
100
AcDbEntity
  8
0
370
    30
100
AcDbLine
 10
269.0615415921373
 20
4.83091709778705
 30
0.0
 11
269.0615415921373
 21
9.716631383501294
 31
0.0
  0
LINE
  5
24E2
330
1F
100
AcDbEntity
  8
0
370
    30
100
AcDbLine
 10
268.5215415921373
 20
4.869488526358509
 30
0.0
 11
268.5215415921373
 21
9.678059954929835
 31
0.0
  0
LINE
  5
24E3
330
1F
100
AcDbEntity
  8
0
370
    30
100
AcDbLine
 10
269.6015415921372
 20
7.693774240644074
 30
0.0
 11
269.6015415921372
 21
9.755202812072639
 31
0.0
  0
LINE
  5
24E4
330
1F
100
AcDbEntity
  8
0
370
    30
100
AcDbLine
 10
267.4415415921373
 20
7.693774240644074
 30
0.0
 11
267.4415415921373
 21
9.600917097786918
 31
0.0
  0
LINE
  5
24E5
330
1F
100
AcDbEntity
  8
0
370
    30
100
AcDbLine
 10
267.9815415921374
 20
7.693774240644074
 30
0.0
 11
267.9815415921374
 21
9.639488526358377
 31
0.0
  0
LINE
  5
24E6
330
1F
100
AcDbEntity
  8
0
370
    30
100
AcDbLine
 10
266.9015415921373
 20
4.98520281207277
 30
0.0
 11
266.9015415921373
 21
9.562345669215574
 31
0.0
  0
LINE
  5
24E7
330
1F
100
AcDbEntity
  8
0
370
    30
100
AcDbLine
 10
266.3615415921374
 20
5.023774240644115
 30
0.0
 11
266.3615415921373
 21
9.523774240644115
 31
0.0
  0
LINE
  5
24E8
330
1F
100
AcDbEntity
  8
0
370
    30
100
AcDbLine
 10
273.5015415921373
 20
4.690917097787064
 30
0.0
 11
273.5015415921373
 21
9.85663138350128
 31
0.0
  0
LINE
  5
24E9
330
1F
100
AcDbEntity
  8
0
370
    30
100
AcDbLine
 10
272.7815415921373
 20
4.70234566921556
 30
0.0
 11
272.7815415921373
 21
9.84520281207267
 31
0.0
  0
LINE
  5
24EA
330
1F
100
AcDbEntity
  8
0
370
    30
100
AcDbLine
 10
272.0621629986426
 20
4.716114997379349
 30
0.0
 11
272.0616509958027
 21
9.831423444637607
 31
0.0
  0
LINE
  5
24EB
330
1F
100
AcDbEntity
  8
0
370
    30
100
AcDbLine
 10
263.4215415921374
 20
5.233803369100201
 30
0.0
 11
263.4215415921373
 21
9.313774240644193
 31
0.0
  0
LINE
  5
24EC
330
1F
100
AcDbEntity
  8
0
370
    30
100
AcDbLine
 10
264.7415415921374
 20
5.139488526358377
 30
0.0
 11
264.7415415921374
 21
9.408059954929854
 31
0.0
  0
LINE
  5
24ED
330
1F
100
AcDbEntity
  8
0
370
    30
100
AcDbLine
 10
264.2015415921374
 20
5.178059954929835
 30
0.0
 11
264.2015415921374
 21
9.369488526358395
 31
0.0
  0
LINE
  5
24EE
330
1F
100
AcDbEntity
  8
0
370
    30
100
AcDbLine
 10
265.2815415921373
 20
7.693774240644074
 30
0.0
 11
265.2815415921373
 21
9.446631383501312
 31
0.0
  0
LINE
  5
24EF
330
1F
100
AcDbEntity
  8
實体
370
    30
100
AcDbLine
 10
267.4415415921373
 20
4.946631383501312
 30
0.0
 11
265.8215415921374
 21
5.062345669215574
 31
0.0
  0
LINE
  5
24F0
330
1F
100
AcDbEntity
  8
0
100
AcDbLine
 10
260.7852451428096
 20
8.573774240631109
 30
0.0
 11
263.4215415921374
 21
8.573774240631223
 31
0.0
  0
LINE
  5
24F1
330
1F
100
AcDbEntity
  8
0
100
AcDbLine
 10
260.7852451428096
 20
5.973774240657121
 30
0.0
 11
263.4215415921374
 21
5.973774240657121
 31
0.0
  0
ARC
  5
24F2
330
1F
100
AcDbEntity
  8
0
100
AcDbCircle
 10
261.9110781677181
 20
7.923774240637612
 30
0.0
 40
1.299999999986999
100
AcDbArc
 50
149.999999999999
 51
210.000000000001
  0
ARC
  5
24F3
330
1F
100
AcDbEntity
  8
0
100
AcDbCircle
 10
259.6594121179011
 20
6.623774240650618
 30
0.0
 40
1.299999999986999
100
AcDbArc
 50
329.999999999999
 51
30.00000000000099
  0
ARC
  5
24F4
330
1F
100
AcDbEntity
  8
0
100
AcDbCircle
 10
258.8252051602362
 20
6.623774240650618
 30
0.0
 40
1.299999999986999
100
AcDbArc
 50
329.999999999999
 51
30.00000000000099
  0
ARC
  5
24F5
330
1F
100
AcDbEntity
  8
0
100
AcDbCircle
 10
261.0768712100533
 20
7.923774240637612
 30
0.0
 40
1.299999999986999
100
AcDbArc
 50
149.999999999999
 51
210.000000000001
  0
LINE
  5
24F6
330
1F
100
AcDbEntity
  8
0
370
    30
100
AcDbLine
 10
265.8215415921374
 20
5.062345669215574
 30
0.0
 11
265.8215415921374
 21
6.853774240644156
 31
0.0
  0
LINE
  5
24F7
330
1F
100
AcDbEntity
  8
0
370
    30
100
AcDbLine
 10
265.2815415921373
 20
5.100917097787032
 30
0.0
 11
265.2815415921373
 21
6.853774240644156
 31
0.0
  0
LINE
  5
24F8
330
1F
100
AcDbEntity
  8
實体
370
    30
100
AcDbLine
 10
265.2815415921373
 20
5.100917097787032
 30
0.0
 11
263.4215415921373
 21
5.233774240644152
 31
0.0
  0
LINE
  5
24F9
330
1F
100
AcDbEntity
  8
0
370
    30
100
AcDbLine
 10
264.7415415921374
 20
6.373788804872106
 30
0.0
 11
264.2015415921374
 21
6.373788804872106
 31
0.0
  0
LINE
  5
24FA
330
1F
100
AcDbEntity
  8
0
370
    30
100
AcDbLine
 10
264.7415415921374
 20
8.173788804872174
 30
0.0
 11
264.2015415921374
 21
8.173788804872174
 31
0.0
  0
LINE
  5
24FB
330
1F
100
AcDbEntity
  8
0
370
    30
100
AcDbLine
 10
265.8215415921374
 20
7.693774240644074
 30
0.0
 11
265.2815415921373
 21
7.693774240644074
 31
0.0
  0
LINE
  5
24FC
330
1F
100
AcDbEntity
  8
0
370
    30
100
AcDbLine
 10
265.8215415921374
 20
6.853774240644156
 30
0.0
 11
265.2815415921373
 21
6.853774240644156
 31
0.0
  0
LINE
  5
24FD
330
1F
100
AcDbEntity
  8
0
370
    30
100
AcDbLine
 10
265.8215415921374
 20
6.373788804872106
 30
0.0
 11
265.2815415921373
 21
6.373788804872106
 31
0.0
  0
LINE
  5
24FE
330
1F
100
AcDbEntity
  8
0
370
    30
100
AcDbLine
 10
265.8215415921374
 20
8.173788804872174
 30
0.0
 11
265.2815415921373
 21
8.173788804872174
 31
0.0
  0
LINE
  5
24FF
330
1F
100
AcDbEntity
  8
0
370
    30
100
AcDbLine
 10
270.1415415921373
 20
7.693774240644074
 30
0.0
 11
269.6015415921372
 21
7.693774240644074
 31
0.0
  0
LINE
  5
2500
330
1F
100
AcDbEntity
  8
0
370
    30
100
AcDbLine
 10
270.1415415921373
 20
6.853774240644156
 30
0.0
 11
269.6015415921372
 21
6.853774240644156
 31
0.0
  0
LINE
  5
2501
330
1F
100
AcDbEntity
  8
0
370
    30
100
AcDbLine
 10
270.1415415921373
 20
8.173788804872174
 30
0.0
 11
269.6015415921372
 21
8.173788804872174
 31
0.0
  0
LINE
  5
2502
330
1F
100
AcDbEntity
  8
0
370
    30
100
AcDbLine
 10
270.1415415921372
 20
6.373788804872106
 30
0.0
 11
269.6015415921372
 21
6.373788804872106
 31
0.0
  0
LINE
  5
2503
330
1F
100
AcDbEntity
  8
0
370
    30
100
AcDbLine
 10
267.4415415921373
 20
4.946631383501312
 30
0.0
 11
267.4415415921373
 21
6.853774240644156
 31
0.0
  0
LINE
  5
2504
330
1F
100
AcDbEntity
  8
0
370
    30
100
AcDbLine
 10
269.6015415921372
 20
4.792345669215592
 30
0.0
 11
269.6015415921372
 21
6.853774240644156
 31
0.0
  0
LINE
  5
2505
330
1F
100
AcDbEntity
  8
0
370
    30
100
AcDbLine
 10
267.9815415921374
 20
4.908059954929854
 30
0.0
 11
267.9815415921374
 21
6.853774240644156
 31
0.0
  0
LINE
  5
2506
330
1F
100
AcDbEntity
  8
實体
370
    30
100
AcDbLine
 10
269.6015415921372
 20
4.792345669215592
 30
0.0
 11
267.9815415921373
 21
4.908059954929854
 31
0.0
  0
LINE
  5
2507
330
1F
100
AcDbEntity
  8
0
370
    30
100
AcDbLine
 10
267.9815415921374
 20
7.693774240644074
 30
0.0
 11
267.4415415921373
 21
7.693774240644074
 31
0.0
  0
LINE
  5
2508
330
1F
100
AcDbEntity
  8
0
370
    30
100
AcDbLine
 10
267.9815415921374
 20
6.853774240644156
 30
0.0
 11
267.4415415921373
 21
6.853774240644156
 31
0.0
  0
LINE
  5
2509
330
1F
100
AcDbEntity
  8
0
370
    30
100
AcDbLine
 10
266.9015415921374
 20
6.373788804872106
 30
0.0
 11
266.3615415921374
 21
6.373788804872106
 31
0.0
  0
LINE
  5
250A
330
1F
100
AcDbEntity
  8
0
370
    30
100
AcDbLine
 10
266.9015415921373
 20
8.173788804872174
 30
0.0
 11
266.3615415921374
 21
8.173788804872174
 31
0.0
  0
LINE
  5
250B
330
1F
100
AcDbEntity
  8
0
370
    30
100
AcDbLine
 10
267.9815415921374
 20
6.373788804872106
 30
0.0
 11
267.4415415921373
 21
6.373788804872219
 31
0.0
  0
LINE
  5
250C
330
1F
100
AcDbEntity
  8
0
370
    30
100
AcDbLine
 10
267.9815415921374
 20
8.173788804872174
 30
0.0
 11
267.4415415921373
 21
8.173788804872174
 31
0.0
  0
LINE
  5
250D
330
1F
100
AcDbEntity
  8
0
370
    30
100
AcDbLine
 10
269.0615415921373
 20
6.373788804872106
 30
0.0
 11
268.5215415921373
 21
6.373788804872219
 31
0.0
  0
LINE
  5
250E
330
1F
100
AcDbEntity
  8
0
370
    30
100
AcDbLine
 10
269.0615415921373
 20
8.173788804872174
 30
0.0
 11
268.5215415921373
 21
8.173788804872174
 31
0.0
  0
LINE
  5
250F
330
1F
100
AcDbEntity
  8
實体
370
    30
100
AcDbLine
 10
272.7815462921883
 20
4.914381595744885
 30
0.0
 11
272.0650865722104
 21
4.926086975474845
 31
0.0
  0
LINE
  5
2510
330
1F
100
AcDbEntity
  8
0
370
    30
100
AcDbLine
 10
272.0621629986426
 20
4.716114997379349
 30
0.0
 11
270.1415415921373
 21
4.753774240644133
 31
0.0
  0
LINE
  5
2511
330
1F
100
AcDbEntity
  8
0
370
    30
100
AcDbLine
 10
270.1415415921373
 20
4.753774240644133
 30
0.0
 11
270.1415415921373
 21
6.853774240644156
 31
0.0
  0
LINE
  5
2512
330
1F
100
AcDbEntity
  8
實体
370
    30
100
AcDbLine
 10
267.4415415921373
 20
19.55106771680994
 30
0.0
 11
265.8215415921374
 21
19.6667820025242
 31
0.0
  0
LINE
  5
2513
330
1F
100
AcDbEntity
  8
實体
370
    30
100
AcDbLine
 10
267.4415415921373
 20
9.600917097786918
 30
0.0
 11
265.8215415921374
 21
9.48520281207277
 31
0.0
  0
LINE
  5
2514
330
1F
100
AcDbEntity
  8
實体
370
    30
100
AcDbLine
 10
265.2815415921373
 20
9.446631383501312
 30
0.0
 11
263.4215415921373
 21
9.313774240644193
 31
0.0
  0
LINE
  5
2515
330
1F
100
AcDbEntity
  8
0
100
AcDbLine
 10
260.7852451428096
 20
20.57821057396575
 30
0.0
 11
263.4215415921374
 21
20.57821057396575
 31
0.0
  0
LINE
  5
2516
330
1F
100
AcDbEntity
  8
實体
370
    30
100
AcDbLine
 10
265.2815415921373
 20
19.70535343109554
 30
0.0
 11
263.4215415921373
 21
19.83821057395266
 31
0.0
  0
LINE
  5
2517
330
1F
100
AcDbEntity
  8
實体
370
    30
100
AcDbLine
 10
269.6015415921372
 20
9.755202812072639
 30
0.0
 11
267.9815415921373
 21
9.639488526358377
 31
0.0
  0
LINE
  5
2518
330
1F
100
AcDbEntity
  8
實体
370
    30
100
AcDbLine
 10
272.7815415921373
 20
9.633158279834447
 30
0.0
 11
272.0650818954787
 21
9.621451472871285
 31
0.0
  0
LINE
  5
2519
330
1F
100
AcDbEntity
  8
0
370
    30
100
AcDbLine
 10
272.0616509958027
 20
9.831423444637607
 30
0.0
 11
270.1415415921373
 21
9.793774240644097
 31
0.0
  0
LINE
  5
251A
330
1F
100
AcDbEntity
  8
實体
370
    30
100
AcDbLine
 10
269.6015415921372
 20
19.39678200252422
 30
0.0
 11
267.9815415921373
 21
19.51249628823848
 31
0.0
  0
LINE
  5
251B
330
1F
100
AcDbEntity
  8
0
370
    30
100
AcDbLine
 10
272.0621629986426
 20
19.32055133068798
 30
0.0
 11
270.1415415921373
 21
19.35821057395276
 31
0.0
  0
LINE
  5
251C
330
1F
100
AcDbEntity
  8
實体
370
    30
100
AcDbLine
 10
272.7815462921883
 20
19.51881792905351
 30
0.0
 11
272.0650865722104
 21
19.53052330878347
 31
0.0
  0
LINE
  5
251D
330
1F
100
AcDbEntity
  8
0
370
    30
100
AcDbLine
 10
282.6215415921372
 20
9.148774240644115
 30
0.0
 11
282.4115415921373
 21
5.398774240644115
 31
0.0
  0
LINE
  5
251E
330
1F
100
AcDbEntity
  8
0
370
    30
100
AcDbLine
 10
282.4115415921373
 20
9.65877424064422
 30
0.0
 11
282.2015415921373
 21
4.888774240644124
 31
0.0
  0
LINE
  5
251F
330
1F
100
AcDbEntity
  8
0
370
    30
100
AcDbLine
 10
284.4215415921373
 20
5.293774240644097
 30
0.0
 11
284.4215415921373
 21
9.253774240644133
 31
0.0
  0
LINE
  5
2520
330
1F
100
AcDbEntity
  8
0
370
    30
100
AcDbLine
 10
283.2215415921373
 20
9.313774240644193
 30
0.0
 11
283.2215415921373
 21
5.233774240644152
 31
0.0
  0
LINE
  5
2521
330
1F
100
AcDbEntity
  8
0
370
    30
100
AcDbLine
 10
281.7815415921373
 20
9.148774240644115
 30
0.0
 11
281.5715415921373
 21
5.398774240644115
 31
0.0
  0
LINE
  5
2522
330
1F
100
AcDbEntity
  8
0
370
    30
100
AcDbLine
 10
281.3615415921372
 20
9.148774240644115
 30
0.0
 11
281.1515415921373
 21
5.398774240644115
 31
0.0
  0
LINE
  5
2523
330
1F
100
AcDbEntity
  8
0
370
    30
100
AcDbLine
 10
281.9915415921373
 20
9.65877424064422
 30
0.0
 11
281.7815415921373
 21
4.888774240644124
 31
0.0
  0
LINE
  5
2524
330
1F
100
AcDbEntity
  8
0
370
    30
100
AcDbLine
 10
281.5715415921372
 20
9.65877424064422
 30
0.0
 11
281.3615415921372
 21
4.888774240644124
 31
0.0
  0
LINE
  5
2525
330
1F
100
AcDbEntity
  8
0
370
    30
100
AcDbLine
 10
276.3816693156708
 20
7.993774240644142
 30
0.0
 11
276.3817229523388
 21
9.902348547948918
 31
0.0
  0
LINE
  5
2526
330
1F
100
AcDbEntity
  8
0
370
    30
100
AcDbLine
 10
275.6615415921373
 20
7.993774240644142
 30
0.0
 11
275.6615415921373
 21
9.890917097786996
 31
0.0
  0
LINE
  5
2527
330
1F
100
AcDbEntity
  8
0
370
    30
100
AcDbLine
 10
274.9415415921373
 20
7.993774240644142
 30
0.0
 11
274.9415415921373
 21
9.879488526358386
 31
0.0
  0
LINE
  5
2528
330
1F
100
AcDbEntity
  8
0
370
    30
100
AcDbLine
 10
274.2215415921373
 20
7.993774240644142
 30
0.0
 11
274.2215415921373
 21
9.86805995492989
 31
0.0
  0
LINE
  5
2529
330
1F
100
AcDbEntity
  8
0
370
    30
100
AcDbLine
 10
277.1015415921373
 20
4.633774240644129
 30
0.0
 11
277.1015415921373
 21
9.913774240644102
 31
0.0
  0
LINE
  5
252A
330
1F
100
AcDbEntity
  8
0
370
    30
100
AcDbLine
 10
280.7015415921373
 20
4.753774240644133
 30
0.0
 11
280.7015415921373
 21
9.793774240644097
 31
0.0
  0
LINE
  5
252B
330
1F
100
AcDbEntity
  8
0
370
    30
100
AcDbLine
 10
282.2015415921373
 20
9.148774240644115
 30
0.0
 11
281.9915415921373
 21
5.398774240644115
 31
0.0
  0
LINE
  5
252C
330
1F
100
AcDbEntity
  8
0
370
    30
100
AcDbLine
 10
282.4115415921373
 20
5.398774240644115
 30
0.0
 11
282.2015415921373
 21
4.888774240644124
 31
0.0
  0
LINE
  5
252D
330
1F
100
AcDbEntity
  8
0
370
    30
100
AcDbLine
 10
277.1015415921373
 20
4.633774240644129
 30
0.0
 11
280.5815415921372
 21
4.633774240644129
 31
0.0
  0
LINE
  5
252E
330
1F
100
AcDbEntity
  8
0
370
    30
100
AcDbLine
 10
276.3815415921373
 20
7.633774240644129
 30
0.0
 11
274.2215415921373
 21
7.633774240644129
 31
0.0
  0
LINE
  5
252F
330
1F
100
AcDbEntity
  8
0
370
    30
100
AcDbLine
 10
276.3815415921373
 20
6.913774240644102
 30
0.0
 11
274.2215415921373
 21
6.913774240644102
 31
0.0
  0
ARC
  5
2530
330
1F
100
AcDbEntity
  8
0
370
    30
100
AcDbCircle
 10
276.3815415921373
 20
7.273774240644115
 30
0.0
 40
0.3600000000000023
100
AcDbArc
 50
270.0
 51
90.0
  0
LINE
  5
2531
330
1F
100
AcDbEntity
  8
實体
370
    30
100
AcDbLine
 10
277.1015464327954
 20
4.843802272624088
 30
0.0
 11
276.3817205282002
 21
4.855562648424438
 31
0.0
  0
LINE
  5
2532
330
1F
100
AcDbEntity
  8
實体
370
    30
100
AcDbLine
 10
277.1015415921373
 20
7.993774240644142
 30
0.0
 11
276.3816693156708
 21
7.993774240644142
 31
0.0
  0
LINE
  5
2533
330
1F
100
AcDbEntity
  8
實体
370
    30
100
AcDbLine
 10
277.1015415921373
 20
6.553774240644088
 30
0.0
 11
276.3816693156708
 21
6.553774240644088
 31
0.0
  0
LINE
  5
2534
330
1F
100
AcDbEntity
  8
實体
370
    30
100
AcDbLine
 10
275.6615463859264
 20
4.867328713664392
 30
0.0
 11
274.9415463624919
 21
4.879091934184543
 31
0.0
  0
LINE
  5
2535
330
1F
100
AcDbEntity
  8
實体
370
    30
100
AcDbLine
 10
275.6615415921373
 20
6.553774240644088
 30
0.0
 11
274.9415415921373
 21
6.553774240644088
 31
0.0
  0
LINE
  5
2536
330
1F
100
AcDbEntity
  8
實体
370
    30
100
AcDbLine
 10
275.6615415921373
 20
7.993774240644142
 30
0.0
 11
274.9415415921373
 21
7.993774240644142
 31
0.0
  0
LINE
  5
2537
330
1F
100
AcDbEntity
  8
0
370
    30
100
AcDbLine
 10
274.2215415921373
 20
6.553774240644088
 30
0.0
 11
274.2215415921373
 21
4.680831903607554
 31
0.0
  0
LINE
  5
2538
330
1F
100
AcDbEntity
  8
0
370
    30
100
AcDbLine
 10
274.9415415921373
 20
6.553774240644088
 30
0.0
 11
274.9415415921373
 21
4.668059954929844
 31
0.0
  0
LINE
  5
2539
330
1F
100
AcDbEntity
  8
0
370
    30
100
AcDbLine
 10
275.6615415921373
 20
6.553774240644088
 30
0.0
 11
275.6615415921373
 21
4.656631383501348
 31
0.0
  0
LINE
  5
253A
330
1F
100
AcDbEntity
  8
0
370
    30
100
AcDbLine
 10
276.3816693156708
 20
6.553774240644088
 30
0.0
 11
276.3817229429029
 21
4.645535693210263
 31
0.0
  0
LINE
  5
253B
330
1F
100
AcDbEntity
  8
0
370
    30
100
AcDbLine
 10
281.1515415921373
 20
5.398774240644115
 30
0.0
 11
280.7015415921373
 21
5.398774240644115
 31
0.0
  0
LINE
  5
253C
330
1F
100
AcDbEntity
  8
0
370
    30
100
AcDbLine
 10
281.3615415921372
 20
4.888774240644124
 30
0.0
 11
281.1515415921373
 21
5.398774240644115
 31
0.0
  0
LINE
  5
253D
330
1F
100
AcDbEntity
  8
0
370
    30
100
AcDbLine
 10
281.9915415921373
 20
5.398774240644115
 30
0.0
 11
281.7815415921373
 21
4.888774240644124
 31
0.0
  0
LINE
  5
253E
330
1F
100
AcDbEntity
  8
0
370
    30
100
AcDbLine
 10
281.7815415921373
 20
4.888774240644124
 30
0.0
 11
281.5715415921373
 21
5.398774240644115
 31
0.0
  0
LINE
  5
253F
330
1F
100
AcDbEntity
  8
0
370
    30
100
AcDbLine
 10
281.5715415921373
 20
5.398774240644115
 30
0.0
 11
281.3615415921372
 21
4.888774240644124
 31
0.0
  0
ARC
  5
2540
330
1F
100
AcDbEntity
  8
0
370
    30
100
AcDbCircle
 10
280.5815415921372
 20
4.753774240644133
 30
0.0
 40
0.12
100
AcDbArc
 50
270.0
 51
0.0
  0
LINE
  5
2541
330
1F
100
AcDbEntity
  8
0
370
    30
100
AcDbLine
 10
282.2015415921373
 20
4.888774240644124
 30
0.0
 11
281.9915415921373
 21
5.398774240644115
 31
0.0
  0
LINE
  5
2542
330
1F
100
AcDbEntity
  8
0
370
    30
100
AcDbLine
 10
283.1391250986301
 20
5.398774240644115
 30
0.0
 11
282.4115415921373
 21
5.398774240644115
 31
0.0
  0
LINE
  5
2543
330
1F
100
AcDbEntity
  8
0
370
    30
100
AcDbLine
 10
284.4215415921373
 20
5.293774240644097
 30
0.0
 11
283.2215415921373
 21
5.233774240644152
 31
0.0
  0
LINE
  5
2544
330
1F
100
AcDbEntity
  8
0
370
    30
100
AcDbLine
 10
283.2215415921373
 20
5.233774240644152
 30
0.0
 11
283.1391250986301
 21
5.398774240644115
 31
0.0
  0
LINE
  5
2545
330
1F
100
AcDbEntity
  8
0
100
AcDbLine
 10
284.4215415921373
 20
5.973774240657121
 30
0.0
 11
284.4215415921373
 21
8.573774240631109
 31
0.0
  0
LINE
  5
2546
330
1F
100
AcDbEntity
  8
0
370
    30
100
AcDbLine
 10
282.4115415921373
 20
20.00321057395274
 30
0.0
 11
282.2015415921373
 21
19.49321057395275
 31
0.0
  0
LINE
  5
2547
330
1F
100
AcDbEntity
  8
0
370
    30
100
AcDbLine
 10
282.4115415921373
 20
9.65877424064422
 30
0.0
 11
282.2015415921373
 21
9.148774240644115
 31
0.0
  0
LINE
  5
2548
330
1F
100
AcDbEntity
  8
0
370
    30
100
AcDbLine
 10
280.5815415921372
 20
9.913774240644102
 30
0.0
 11
277.1015415921373
 21
9.913774240644102
 31
0.0
  0
LINE
  5
2549
330
1F
100
AcDbEntity
  8
實体
370
    30
100
AcDbLine
 10
277.1015415921373
 20
9.703746208669031
 30
0.0
 11
276.381715710971
 21
9.691984398929889
 31
0.0
  0
LINE
  5
254A
330
1F
100
AcDbEntity
  8
實体
370
    30
100
AcDbLine
 10
275.6615415921373
 20
9.680216899057541
 30
0.0
 11
274.9415415921373
 21
9.668452244251739
 31
0.0
  0
LINE
  5
254B
330
1F
100
AcDbEntity
  8
0
370
    30
100
AcDbLine
 10
281.3615415921372
 20
9.148774240644115
 30
0.0
 11
280.7015415921373
 21
9.148774240644115
 31
0.0
  0
LINE
  5
254C
330
1F
100
AcDbEntity
  8
0
370
    30
100
AcDbLine
 10
281.9915415921373
 20
9.65877424064422
 30
0.0
 11
281.7815415921373
 21
9.148774240644115
 31
0.0
  0
LINE
  5
254D
330
1F
100
AcDbEntity
  8
0
370
    30
100
AcDbLine
 10
281.7815415921373
 20
9.148774240644115
 30
0.0
 11
281.5715415921372
 21
9.65877424064422
 31
0.0
  0
LINE
  5
254E
330
1F
100
AcDbEntity
  8
0
370
    30
100
AcDbLine
 10
281.5715415921372
 20
9.65877424064422
 30
0.0
 11
281.3615415921372
 21
9.148774240644115
 31
0.0
  0
ARC
  5
254F
330
1F
100
AcDbEntity
  8
0
370
    30
100
AcDbCircle
 10
280.5815415921372
 20
9.793774240644097
 30
0.0
 40
0.12
100
AcDbArc
 50
0.0
 51
90.0
  0
LINE
  5
2550
330
1F
100
AcDbEntity
  8
0
370
    30
100
AcDbLine
 10
282.2015415921373
 20
9.148774240644115
 30
0.0
 11
281.9915415921373
 21
9.65877424064422
 31
0.0
  0
LINE
  5
2551
330
1F
100
AcDbEntity
  8
0
370
    30
100
AcDbLine
 10
277.1015415921373
 20
19.23821057395275
 30
0.0
 11
280.5815415921372
 21
19.23821057395275
 31
0.0
  0
LINE
  5
2552
330
1F
100
AcDbEntity
  8
實体
370
    30
100
AcDbLine
 10
275.6615463859264
 20
19.4717650469729
 30
0.0
 11
274.9415463624919
 21
19.48352826749306
 31
0.0
  0
LINE
  5
2553
330
1F
100
AcDbEntity
  8
實体
370
    30
100
AcDbLine
 10
277.1015464327954
 20
19.4482386059326
 30
0.0
 11
276.3817205282002
 21
19.45999898173306
 31
0.0
  0
ARC
  5
2554
330
1F
100
AcDbEntity
  8
0
370
    30
100
AcDbCircle
 10
280.5815415921372
 20
19.35821057395276
 30
0.0
 40
0.12
100
AcDbArc
 50
270.0
 51
0.0
  0
LINE
  5
2555
330
1F
100
AcDbEntity
  8
0
370
    30
100
AcDbLine
 10
281.5715415921373
 20
20.00321057395274
 30
0.0
 11
281.3615415921372
 21
19.49321057395275
 31
0.0
  0
LINE
  5
2556
330
1F
100
AcDbEntity
  8
0
370
    30
100
AcDbLine
 10
281.7815415921373
 20
19.49321057395275
 30
0.0
 11
281.5715415921373
 21
20.00321057395274
 31
0.0
  0
LINE
  5
2557
330
1F
100
AcDbEntity
  8
0
370
    30
100
AcDbLine
 10
281.9915415921373
 20
20.00321057395274
 30
0.0
 11
281.7815415921373
 21
19.49321057395275
 31
0.0
  0
LINE
  5
2558
330
1F
100
AcDbEntity
  8
0
370
    30
100
AcDbLine
 10
281.3615415921372
 20
19.49321057395275
 30
0.0
 11
281.1515415921373
 21
20.00321057395274
 31
0.0
  0
LINE
  5
2559
330
1F
100
AcDbEntity
  8
0
370
    30
100
AcDbLine
 10
281.1515415921373
 20
20.00321057395274
 30
0.0
 11
280.7015415921373
 21
20.00321057395274
 31
0.0
  0
LINE
  5
255A
330
1F
100
AcDbEntity
  8
0
370
    30
100
AcDbLine
 10
282.2015415921373
 20
19.49321057395275
 30
0.0
 11
281.9915415921373
 21
20.00321057395274
 31
0.0
  0
LINE
  5
255B
330
1F
100
AcDbEntity
  8
0
370
    30
100
AcDbLine
 10
283.1391250986301
 20
9.148774240644115
 30
0.0
 11
282.6215415921372
 21
9.148774240644115
 31
0.0
  0
LINE
  5
255C
330
1F
100
AcDbEntity
  8
0
370
    30
100
AcDbLine
 10
282.6215415921372
 20
9.148774240644115
 30
0.0
 11
282.4115415921373
 21
9.65877424064422
 31
0.0
  0
LINE
  5
255D
330
1F
100
AcDbEntity
  8
0
370
    30
100
AcDbLine
 10
284.4215415921373
 20
9.253774240644133
 30
0.0
 11
283.2215415921373
 21
9.313774240644193
 31
0.0
  0
LINE
  5
255E
330
1F
100
AcDbEntity
  8
0
370
    30
100
AcDbLine
 10
283.2215415921373
 20
9.313774240644193
 30
0.0
 11
283.1391250986301
 21
9.148774240644115
 31
0.0
  0
LINE
  5
255F
330
1F
100
AcDbEntity
  8
0
370
    30
100
AcDbLine
 10
283.1391250986301
 20
20.00321057395274
 30
0.0
 11
282.4115415921373
 21
20.00321057395274
 31
0.0
  0
LINE
  5
2560
330
1F
100
AcDbEntity
  8
0
370
    30
100
AcDbLine
 10
283.2215415921373
 20
19.83821057395266
 30
0.0
 11
283.1391250986301
 21
20.00321057395274
 31
0.0
  0
LINE
  5
2561
330
1F
100
AcDbEntity
  8
0
370
    30
100
AcDbLine
 10
284.4215415921373
 20
19.89821057395272
 30
0.0
 11
283.2215415921373
 21
19.83821057395266
 31
0.0
  0
LINE
  5
2562
330
1F
100
AcDbEntity
  8
0
100
AcDbLine
 10
255.4959936750097
 20
23.17821057393962
 30
0.0
 11
259.9510381851445
 21
23.17821057393962
 31
0.0
  0
DIMENSION
  5
2563
330
1F
100
AcDbEntity
  8
AM_5
100
AcDbDimension
  2
*D17
 10
284.4215415921373
 20
13.72821057395276
 30
0.0
 11
269.9587676335735
 21
13.72821057395276
 31
0.0
 70
   160
  1
165
 71
     5
 42
28.92554791712758
  3
AM_ISO$0
100
AcDbAlignedDimension
 13
255.4959936750097
 23
19.71821057395311
 33
0.0
 14
284.4215415921373
 24
19.89821057395272
 34
0.0
100
AcDbRotatedDimension
1001
ACAD
1000
DSTYLE
1002
{
1070
    40
1040
0.7
1070
   272
1070
     8
1002
}
  0
CIRCLE
  5
2564
330
1F
100
AcDbEntity
  8
0
100
AcDbCircle
 10
241.4289315647395
 20
21.83305955638343
 30
0.0
 40
0.7274785311216576
  0
LINE
  5
2565
330
1F
100
AcDbEntity
  8
0
 62
     7
100
AcDbLine
 10
225.7489936750096
 20
22.84230341180603
 30
0.0
 11
225.7489936750096
 21
20.91411773609946
 31
0.0
  0
LINE
  5
2566
330
1F
100
AcDbEntity
  8
0
 62
     7
100
AcDbLine
 10
226.1989936750096
 20
22.84230341180603
 30
0.0
 11
226.1989936750096
 21
20.91411773609946
 31
0.0
  0
CIRCLE
  5
2567
330
1F
100
AcDbEntity
  8
0
 62
     7
100
AcDbCircle
 10
225.9739936750096
 20
21.87821057395274
 30
0.0
 40
0.99
  0
LINE
  5
2568
330
1F
100
AcDbEntity
  8
0
 62
     7
100
AcDbLine
 10
254.0559936750098
 20
24.03821057395305
 30
0.0
 11
255.4959936750097
 21
24.03821057395305
 31
0.0
  0
ARC
  5
2569
330
1F
100
AcDbEntity
  8
0
370
    30
100
AcDbCircle
 10
274.2215415921373
 20
21.87821057395274
 30
0.0
 40
0.3600000000000023
100
AcDbArc
 50
90.0
 51
270.0
  0
LINE
  5
256A
330
1F
100
AcDbEntity
  8
實体
370
    30
100
AcDbLine
 10
273.5015415921373
 20
21.15821057395272
 30
0.0
 11
274.2215415921373
 21
21.15821057395272
 31
0.0
  0
LINE
  5
256B
330
1F
100
AcDbEntity
  8
實体
370
    30
100
AcDbLine
 10
277.1015415921373
 20
24.51821057395273
 30
0.0
 11
272.7815415921373
 21
24.44762264511803
 31
0.0
  0
LINE
  5
256C
330
1F
100
AcDbEntity
  8
實体
370
    30
100
AcDbLine
 10
273.5015415921373
 20
22.59821057395277
 30
0.0
 11
274.2215415921373
 21
22.59821057395277
 31
0.0
  0
LINE
  5
256D
330
1F
100
AcDbEntity
  8
實体
370
    30
100
AcDbLine
 10
274.2215415921373
 20
24.26112392275445
 30
0.0
 11
273.5015415921373
 21
24.24935926794876
 31
0.0
  0
LINE
  5
256E
330
1F
100
AcDbEntity
  8
實体
370
    30
100
AcDbLine
 10
267.4415415921373
 20
24.20535343109555
 30
0.0
 11
265.8215415921374
 21
24.08963914538129
 31
0.0
  0
LINE
  5
256F
330
1F
100
AcDbEntity
  8
0
100
AcDbLine
 10
260.7852451428096
 20
23.17821057393974
 30
0.0
 11
263.4215415921374
 21
23.17821057393974
 31
0.0
  0
ARC
  5
2570
330
1F
100
AcDbEntity
  8
0
100
AcDbCircle
 10
261.0768712100532
 20
22.52821057394613
 30
0.0
 40
1.299999999986999
100
AcDbArc
 50
149.999999999999
 51
210.000000000001
  0
ARC
  5
2571
330
1F
100
AcDbEntity
  8
0
100
AcDbCircle
 10
261.9110781677181
 20
22.52821057394624
 30
0.0
 40
1.299999999986999
100
AcDbArc
 50
149.999999999999
 51
210.000000000001
  0
LINE
  5
2572
330
1F
100
AcDbEntity
  8
0
370
    30
100
AcDbLine
 10
265.8215415921374
 20
22.2982105739527
 30
0.0
 11
265.8215415921374
 21
24.08963914538129
 31
0.0
  0
LINE
  5
2573
330
1F
100
AcDbEntity
  8
0
370
    30
100
AcDbLine
 10
264.7415415921374
 20
22.7782251381808
 30
0.0
 11
264.2015415921374
 21
22.7782251381808
 31
0.0
  0
LINE
  5
2574
330
1F
100
AcDbEntity
  8
0
370
    30
100
AcDbLine
 10
265.2815415921373
 20
22.2982105739527
 30
0.0
 11
265.2815415921373
 21
24.05106771680994
 31
0.0
  0
LINE
  5
2575
330
1F
100
AcDbEntity
  8
實体
370
    30
100
AcDbLine
 10
265.2815415921373
 20
24.05106771680994
 30
0.0
 11
263.4215415921373
 21
23.9182105739527
 31
0.0
  0
LINE
  5
2576
330
1F
100
AcDbEntity
  8
0
370
    30
100
AcDbLine
 10
265.8215415921374
 20
22.7782251381808
 30
0.0
 11
265.2815415921373
 21
22.7782251381808
 31
0.0
  0
LINE
  5
2577
330
1F
100
AcDbEntity
  8
0
370
    30
100
AcDbLine
 10
265.8215415921374
 20
22.2982105739527
 30
0.0
 11
265.2815415921373
 21
22.2982105739527
 31
0.0
  0
LINE
  5
2578
330
1F
100
AcDbEntity
  8
0
370
    30
100
AcDbLine
 10
264.7415415921374
 20
20.97822513818073
 30
0.0
 11
264.2015415921374
 21
20.97822513818073
 31
0.0
  0
LINE
  5
2579
330
1F
100
AcDbEntity
  8
0
370
    30
100
AcDbLine
 10
265.8215415921374
 20
20.97822513818073
 30
0.0
 11
265.2815415921373
 21
20.97822513818073
 31
0.0
  0
LINE
  5
257A
330
1F
100
AcDbEntity
  8
0
370
    30
100
AcDbLine
 10
265.8215415921374
 20
21.45821057395267
 30
0.0
 11
265.2815415921373
 21
21.45821057395267
 31
0.0
  0
LINE
  5
257B
330
1F
100
AcDbEntity
  8
0
370
    30
100
AcDbLine
 10
270.1415415921373
 20
22.7782251381808
 30
0.0
 11
269.6015415921372
 21
22.7782251381808
 31
0.0
  0
LINE
  5
257C
330
1F
100
AcDbEntity
  8
0
370
    30
100
AcDbLine
 10
270.1415415921373
 20
22.2982105739527
 30
0.0
 11
269.6015415921372
 21
22.2982105739527
 31
0.0
  0
LINE
  5
257D
330
1F
100
AcDbEntity
  8
0
370
    30
100
AcDbLine
 10
270.1415415921372
 20
20.97822513818073
 30
0.0
 11
269.6015415921372
 21
20.97822513818073
 31
0.0
  0
LINE
  5
257E
330
1F
100
AcDbEntity
  8
0
370
    30
100
AcDbLine
 10
270.1415415921373
 20
21.45821057395267
 30
0.0
 11
269.6015415921372
 21
21.45821057395267
 31
0.0
  0
LINE
  5
257F
330
1F
100
AcDbEntity
  8
0
370
    30
100
AcDbLine
 10
269.0615415921373
 20
22.7782251381808
 30
0.0
 11
268.5215415921373
 21
22.7782251381808
 31
0.0
  0
LINE
  5
2580
330
1F
100
AcDbEntity
  8
0
370
    30
100
AcDbLine
 10
267.9815415921374
 20
22.7782251381808
 30
0.0
 11
267.4415415921373
 21
22.7782251381808
 31
0.0
  0
LINE
  5
2581
330
1F
100
AcDbEntity
  8
0
370
    30
100
AcDbLine
 10
266.9015415921373
 20
22.7782251381808
 30
0.0
 11
266.3615415921374
 21
22.7782251381808
 31
0.0
  0
LINE
  5
2582
330
1F
100
AcDbEntity
  8
0
370
    30
100
AcDbLine
 10
267.9815415921374
 20
22.2982105739527
 30
0.0
 11
267.4415415921373
 21
22.2982105739527
 31
0.0
  0
LINE
  5
2583
330
1F
100
AcDbEntity
  8
0
370
    30
100
AcDbLine
 10
267.9815415921374
 20
22.2982105739527
 30
0.0
 11
267.9815415921374
 21
24.24392485966701
 31
0.0
  0
LINE
  5
2584
330
1F
100
AcDbEntity
  8
0
370
    30
100
AcDbLine
 10
267.4415415921373
 20
22.2982105739527
 30
0.0
 11
267.4415415921373
 21
24.20535343109555
 31
0.0
  0
LINE
  5
2585
330
1F
100
AcDbEntity
  8
0
370
    30
100
AcDbLine
 10
269.6015415921372
 20
22.2982105739527
 30
0.0
 11
269.6015415921372
 21
24.35963914538127
 31
0.0
  0
LINE
  5
2586
330
1F
100
AcDbEntity
  8
實体
370
    30
100
AcDbLine
 10
269.6015415921372
 20
24.35963914538127
 30
0.0
 11
267.9815415921373
 21
24.24392485966701
 31
0.0
  0
LINE
  5
2587
330
1F
100
AcDbEntity
  8
0
370
    30
100
AcDbLine
 10
269.0615415921373
 20
20.97822513818073
 30
0.0
 11
268.5215415921373
 21
20.97822513818073
 31
0.0
  0
LINE
  5
2588
330
1F
100
AcDbEntity
  8
0
370
    30
100
AcDbLine
 10
267.9815415921374
 20
20.97822513818073
 30
0.0
 11
267.4415415921373
 21
20.97822513818073
 31
0.0
  0
LINE
  5
2589
330
1F
100
AcDbEntity
  8
0
370
    30
100
AcDbLine
 10
266.9015415921374
 20
20.97822513818073
 30
0.0
 11
266.3615415921374
 21
20.97822513818073
 31
0.0
  0
LINE
  5
258A
330
1F
100
AcDbEntity
  8
0
370
    30
100
AcDbLine
 10
267.9815415921374
 20
21.45821057395267
 30
0.0
 11
267.4415415921373
 21
21.45821057395267
 31
0.0
  0
LINE
  5
258B
330
1F
100
AcDbEntity
  8
0
370
    30
100
AcDbLine
 10
272.0616509958027
 20
24.43585977794612
 30
0.0
 11
270.1415415921373
 21
24.39821057395273
 31
0.0
  0
LINE
  5
258C
330
1F
100
AcDbEntity
  8
0
370
    30
100
AcDbLine
 10
270.1415415921373
 20
22.2982105739527
 30
0.0
 11
270.1415415921373
 21
24.39821057395273
 31
0.0
  0
LINE
  5
258D
330
1F
100
AcDbEntity
  8
實体
370
    30
100
AcDbLine
 10
272.7815415921373
 20
24.23759461314296
 30
0.0
 11
272.0650818954787
 21
24.2258878061798
 31
0.0
  0
LINE
  5
258E
330
1F
100
AcDbEntity
  8
0
370
    30
100
AcDbLine
 10
282.4115415921373
 20
24.26321057395274
 30
0.0
 11
282.2015415921373
 21
23.75321057395274
 31
0.0
  0
LINE
  5
258F
330
1F
100
AcDbEntity
  8
0
370
    30
100
AcDbLine
 10
280.5815415921372
 20
24.51821057395273
 30
0.0
 11
277.1015415921373
 21
24.51821057395273
 31
0.0
  0
LINE
  5
2590
330
1F
100
AcDbEntity
  8
0
370
    30
100
AcDbLine
 10
276.3815415921373
 20
22.23821057395276
 30
0.0
 11
274.2215415921373
 21
22.23821057395276
 31
0.0
  0
LINE
  5
2591
330
1F
100
AcDbEntity
  8
0
370
    30
100
AcDbLine
 10
274.2215415921373
 20
22.59821057395277
 30
0.0
 11
274.2215415921373
 21
24.4724962882384
 31
0.0
  0
LINE
  5
2592
330
1F
100
AcDbEntity
  8
實体
370
    30
100
AcDbLine
 10
275.6615415921373
 20
24.28465323236606
 30
0.0
 11
274.9415415921373
 21
24.27288857756025
 31
0.0
  0
LINE
  5
2593
330
1F
100
AcDbEntity
  8
實体
370
    30
100
AcDbLine
 10
275.6615415921373
 20
22.59821057395277
 30
0.0
 11
274.9415415921373
 21
22.59821057395277
 31
0.0
  0
LINE
  5
2594
330
1F
100
AcDbEntity
  8
0
370
    30
100
AcDbLine
 10
274.9415415921373
 20
22.59821057395277
 30
0.0
 11
274.9415415921373
 21
24.48392485966702
 31
0.0
  0
LINE
  5
2595
330
1F
100
AcDbEntity
  8
0
370
    30
100
AcDbLine
 10
275.6615415921373
 20
22.59821057395277
 30
0.0
 11
275.6615415921373
 21
24.49535343109563
 31
0.0
  0
LINE
  5
2596
330
1F
100
AcDbEntity
  8
0
370
    30
100
AcDbLine
 10
276.3816693156708
 20
22.59821057395277
 30
0.0
 11
276.3817229523388
 21
24.50678488125755
 31
0.0
  0
LINE
  5
2597
330
1F
100
AcDbEntity
  8
實体
370
    30
100
AcDbLine
 10
277.1015415921373
 20
22.59821057395277
 30
0.0
 11
276.3816693156708
 21
22.59821057395277
 31
0.0
  0
LINE
  5
2598
330
1F
100
AcDbEntity
  8
實体
370
    30
100
AcDbLine
 10
277.1015415921373
 20
24.30818254197766
 30
0.0
 11
276.381715710971
 21
24.29642073223841
 31
0.0
  0
LINE
  5
2599
330
1F
100
AcDbEntity
  8
0
370
    30
100
AcDbLine
 10
276.3815415921373
 20
21.51821057395273
 30
0.0
 11
274.2215415921373
 21
21.51821057395273
 31
0.0
  0
LINE
  5
259A
330
1F
100
AcDbEntity
  8
實体
370
    30
100
AcDbLine
 10
275.6615415921373
 20
21.15821057395272
 30
0.0
 11
274.9415415921373
 21
21.15821057395272
 31
0.0
  0
LINE
  5
259B
330
1F
100
AcDbEntity
  8
實体
370
    30
100
AcDbLine
 10
277.1015415921373
 20
21.15821057395272
 30
0.0
 11
276.3816693156708
 21
21.15821057395272
 31
0.0
  0
ARC
  5
259C
330
1F
100
AcDbEntity
  8
0
370
    30
100
AcDbCircle
 10
276.3815415921373
 20
21.87821057395274
 30
0.0
 40
0.3600000000000023
100
AcDbArc
 50
270.0
 51
90.0
  0
LINE
  5
259D
330
1F
100
AcDbEntity
  8
0
370
    30
100
AcDbLine
 10
281.5715415921372
 20
24.26321057395274
 30
0.0
 11
281.3615415921372
 21
23.75321057395274
 31
0.0
  0
LINE
  5
259E
330
1F
100
AcDbEntity
  8
0
370
    30
100
AcDbLine
 10
281.7815415921373
 20
23.75321057395274
 30
0.0
 11
281.5715415921372
 21
24.26321057395274
 31
0.0
  0
LINE
  5
259F
330
1F
100
AcDbEntity
  8
0
370
    30
100
AcDbLine
 10
281.9915415921373
 20
24.26321057395274
 30
0.0
 11
281.7815415921373
 21
23.75321057395274
 31
0.0
  0
LINE
  5
25A0
330
1F
100
AcDbEntity
  8
0
370
    30
100
AcDbLine
 10
281.3615415921372
 20
23.75321057395274
 30
0.0
 11
280.7015415921373
 21
23.75321057395274
 31
0.0
  0
ARC
  5
25A1
330
1F
100
AcDbEntity
  8
0
370
    30
100
AcDbCircle
 10
280.5815415921372
 20
24.39821057395273
 30
0.0
 40
0.12
100
AcDbArc
 50
0.0
 51
90.0
  0
LINE
  5
25A2
330
1F
100
AcDbEntity
  8
0
370
    30
100
AcDbLine
 10
282.2015415921373
 20
23.75321057395274
 30
0.0
 11
281.9915415921373
 21
24.26321057395274
 31
0.0
  0
LINE
  5
25A3
330
1F
100
AcDbEntity
  8
0
370
    30
100
AcDbLine
 10
283.1391250986301
 20
23.75321057395274
 30
0.0
 11
282.6215415921372
 21
23.75321057395274
 31
0.0
  0
LINE
  5
25A4
330
1F
100
AcDbEntity
  8
0
370
    30
100
AcDbLine
 10
282.6215415921372
 20
23.75321057395274
 30
0.0
 11
282.4115415921373
 21
24.26321057395274
 31
0.0
  0
LINE
  5
25A5
330
1F
100
AcDbEntity
  8
0
370
    30
100
AcDbLine
 10
283.2215415921373
 20
23.91821057395282
 30
0.0
 11
283.1391250986301
 21
23.75321057395274
 31
0.0
  0
LINE
  5
25A6
330
1F
100
AcDbEntity
  8
0
370
    30
100
AcDbLine
 10
284.4215415921373
 20
23.85821057395276
 30
0.0
 11
283.2215415921373
 21
23.91821057395282
 31
0.0
  0
LINE
  5
25A7
330
1F
100
AcDbEntity
  8
0
100
AcDbLine
 10
254.0559936750097
 20
9.348711347831056
 30
0.0
 11
254.0559936750098
 21
4.948711347831078
 31
0.0
  0
LINE
  5
25A8
330
1F
100
AcDbEntity
  8
0
100
AcDbLine
 10
210.7479936750097
 20
7.638711347831076
 30
0.0
 11
210.7479936750097
 21
4.948711347831135
 31
0.0
  0
LINE
  5
25A9
330
1F
100
AcDbEntity
  8
0
100
AcDbLine
 10
217.0479936750097
 20
7.638711347831019
 30
0.0
 11
217.0479936750097
 21
4.948711347831135
 31
0.0
  0
TEXT
  5
285A
330
1F
100
AcDbEntity
  8
0
100
AcDbText
 10
182.1808072335806
 20
140.7463578688745
 30
0.0
 40
4.5
  1
RK
100
AcDbText
  0
TEXT
  5
285B
330
1F
100
AcDbEntity
  8
0
100
AcDbText
 10
182.1808072335806
 20
82.07381834537375
 30
0.0
 40
4.5
  1
RKN, RKP
100
AcDbText
  0
TEXT
  5
285C
330
1F
100
AcDbEntity
  8
0
100
AcDbText
 10
182.1808072335806
 20
23.62035222941699
 30
0.0
 40
4.5
  1
RK-QD
100
AcDbText
  0
TEXT
  5
2F16
330
1F
100
AcDbEntity
  8
LOGO
 62
     7
100
AcDbText
 10
215.2666408655266
 20
-24.85230793433376
 30
0.0
 40
2.559629321266967
  1
Order example:
 41
0.8
  7
CHINESET
100
AcDbText
  0
TEXT
  5
2F17
330
1F
100
AcDbEntity
  8
LOGO
 62
     7
100
AcDbText
 10
215.7258595330353
 20
-21.24887982800329
 30
0.0
 40
3.839443981900452
  1
訂購代號：
  7
CHINESET
100
AcDbText
  0
LINE
  5
2F18
330
1F
100
AcDbEntity
  8
LOGO
 62
     4
100
AcDbLine
 10
214.1544732436726
 20
-35.63955247009373
 30
0.0
 11
214.1544732436726
 21
-16.44233256059134
 31
0.0
  0
TEXT
  5
2F19
330
1F
100
AcDbEntity
  8
LOGO
  6
Continuous
100
AcDbText
 10
178.8163171274339
 20
-31.86828759000283
 30
0.0
 40
2.879582986425339
  1
金器工業股份有限公司
  7
CHINESET
100
AcDbText
  0
TEXT
  5
2F1A
330
1F
100
AcDbEntity
  8
LOGO
  6
Continuous
100
AcDbText
 10
173.5270928787699
 20
-34.74843474892544
 30
0.0
 40
1.919721990950226
  1
MINDMAN INDUSTRIAL CO., LTD.
 41
0.85
  7
CHINESET
100
AcDbText
  0
LINE
  5
2F1B
330
1F
100
AcDbEntity
  8
LOGO
 62
     4
100
AcDbLine
 10
214.1544732436726
 20
-20.28177654249184
 30
0.0
 11
185.9985507097358
 21
-20.28177654249184
 31
0.0
  0
LINE
  5
2F1C
330
1F
100
AcDbEntity
  8
LOGO
 62
     4
100
AcDbLine
 10
214.1544732436726
 20
-24.12122052439232
 30
0.0
 11
185.9985507097358
 21
-24.12122052439232
 31
0.0
  0
LINE
  5
2F1D
330
1F
100
AcDbEntity
  8
LOGO
 62
     4
100
AcDbLine
 10
214.1544732436726
 20
-27.96066450629254
 30
0.0
 11
171.9205894427676
 21
-27.96066450629254
 31
0.0
  0
LINE
  5
2F1E
330
1F
100
AcDbEntity
  8
LOGO
 62
     4
100
AcDbLine
 10
185.9985507097358
 20
-27.96066450629254
 30
0.0
 11
185.9985507097358
 21
-16.44233256059134
 31
0.0
  0
TEXT
  5
2F1F
330
1F
100
AcDbEntity
  8
LOGO
100
AcDbText
 10
205.2417948223803
 20
-27.00080351081779
 30
0.0
 40
1.919721990950226
  1
mm
  7
CHINESET
 72
     1
 11
207.6185934778425
 21
-26.04094251534267
 31
0.0
100
AcDbText
 73
     2
  0
TEXT
  5
2F20
330
1F
100
AcDbEntity
  8
LOGO
100
AcDbText
 10
204.236226160454
 20
-19.32191554701679
 30
0.0
 40
1.919721990950226
  1
1 : 1
  7
CHINESET
 72
     1
 11
207.6185934778425
 21
-18.36205455154168
 31
0.0
100
AcDbText
 73
     2
  0
LINE
  5
2F21
330
1F
100
AcDbEntity
  8
LOGO
 62
     4
100
AcDbLine
 10
201.3563266373377
 20
-27.96066450629254
 30
0.0
 11
201.3563266373377
 21
-16.44233256059134
 31
0.0
  0
TEXT
  5
2F22
330
1F
100
AcDbEntity
  8
LOGO
100
AcDbText
 10
187.5814643335238
 20
-19.32097080194251
 30
125.8154167296478
 40
1.919721990950226
  1
比例 Scale:
 41
0.9
  7
CHINESET
 72
     4
 11
193.6774386735367
 21
-18.36205455154168
 31
125.8154167296478
100
AcDbText
  0
TEXT
  5
2F23
330
1F
100
AcDbEntity
  8
LOGO
100
AcDbText
 10
187.470908915295
 20
-23.13435556554393
 30
125.8154167296478
 40
1.919721990950226
  1
投影  View:
 41
0.9
  7
CHINESET
 72
     4
 11
193.6774386735367
 21
-22.20149853344217
 31
125.8154167296478
100
AcDbText
  0
TEXT
  5
2F24
330
1F
100
AcDbEntity
  8
LOGO
100
AcDbText
 10
187.6585960206602
 20
-27.00080351081779
 30
125.8154167296478
 40
1.919721990950226
  1
單位  Unit:
 41
0.9
  7
CHINESET
 72
     4
 11
193.6774386735367
 21
-26.04094251534267
 31
125.8154167296478
100
AcDbText
  0
LWPOLYLINE
  5
2F25
330
1F
100
AcDbEntity
  8
LOGO
 62
     4
100
AcDbPolyline
 90
        4
 70
     1
 43
0.0
 10
171.9205894427676
 20
-16.44233256059134
 10
317.9940311231367
 20
-16.44233256059134
 10
317.9940311231367
 20
156.360447529906
 10
171.9205894427676
 20
156.360447529906
1001
GENIUS_GENREC_14
1002
{
1000
PYDIR
1011
171.9205894427676
1021
156.360447529906
1031
0.0
1002
}
1002
{
1000
PXDIR
1011
317.9940311231367
1021
-16.44233256059134
1031
0.0
1002
}
1002
{
1000
PORI
1011
171.9205894427676
1021
-16.44233256059134
1031
0.0
1002
}
1002
{
1000
PINS
1011
171.9205894427676
1021
-16.44233256059134
1031
0.0
1002
}
1002
{
1000
PINS2
1011
317.9940311231367
1021
156.360447529906
1031
0.0
1002
}
1002
{
1000
C
1070
     1
1002
}
1001
GENIUS_GENODEF_13
1002
{
1000
HIER
1070
     0
1002
}
1002
{
1000
MANEDIT
1070
     0
1002
}
1002
{
1000
NOSEL
1070
     0
1002
}
1002
{
1000
BEHIND
1070
     0
1002
}
1002
{
1000
OTHER
1070
     0
1002
}
1002
{
1000
REACTOR
1002
}
1001
GENIUS_GENOBJ-N-REC_13
1002
{
1000
OWNER
1000
GEN
1002
}
  0
SOLID
  5
2F26
330
1F
100
AcDbEntity
  8
LOGO
 62
     5
100
AcDbTrace
 10
173.9123318175729
 20
-24.76939994724608
 30
0.0
 11
174.7423692329547
 21
-24.7693999472463
 31
0.0
 12
178.2056287936857
 22
-16.89835549103888
 32
0.0
 13
179.0356662090679
 23
-16.89835549103929
 33
0.0
  0
SOLID
  5
2F27
330
1F
100
AcDbEntity
  8
LOGO
 62
     5
100
AcDbTrace
 10
175.0858329910446
 20
-24.76939994724608
 30
0.0
 11
175.9158704064264
 21
-24.76939994724608
 31
0.0
 12
179.0356662090679
 22
-17.52803904753575
 32
0.0
 13
178.2056287936857
 23
-20.57150957060251
 33
0.0
  0
SOLID
  5
2F28
330
1F
100
AcDbEntity
  8
LOGO
 62
     2
100
AcDbTrace
 10
174.7423692329547
 20
-24.7693999472463
 30
0.0
 11
175.0858329910446
 21
-24.76939994724608
 31
0.0
 12
179.0356662090679
 22
-16.89835549103929
 32
0.0
 13
179.3791299671574
 23
-16.89835549103929
 33
0.0
  0
SOLID
  5
2F29
330
1F
100
AcDbEntity
  8
LOGO
 62
     5
100
AcDbTrace
 10
172.5815782906081
 20
-27.63159793132119
 30
0.0
 11
172.8677980890159
 21
-27.63159793132119
 31
0.0
 12
173.6738153189002
 22
-26.20049893928377
 32
0.0
 13
173.9600351173072
 23
-26.20049893928377
 33
0.0
  0
SOLID
  5
2F2A
330
1F
100
AcDbEntity
  8
LOGO
 62
     5
100
AcDbTrace
 10
173.6738153189002
 20
-26.20049893928377
 30
0.0
 11
173.9600351173072
 21
-26.20049893928377
 31
0.0
 12
173.6738153189002
 22
-27.63159793132119
 32
0.0
 13
173.9600351173072
 23
-27.63159793132119
 33
0.0
  0
SOLID
  5
2F2B
330
1F
100
AcDbEntity
  8
LOGO
 62
     5
100
AcDbTrace
 10
173.6738153189002
 20
-27.63159793132119
 30
0.0
 11
173.9600351173072
 21
-27.63159793132119
 31
0.0
 12
174.7660523471928
 22
-26.20049893928377
 32
0.0
 13
175.0522721456002
 23
-26.20049893928377
 33
0.0
  0
SOLID
  5
2F2C
330
1F
100
AcDbEntity
  8
LOGO
 62
     5
100
AcDbTrace
 10
174.7660523471928
 20
-26.20049893928377
 30
0.0
 11
175.0522721456002
 21
-26.20049893928377
 31
0.0
 12
174.7660523471928
 22
-27.63159793132119
 32
0.0
 13
175.0522721456002
 23
-27.63159793132119
 33
0.0
  0
POLYLINE
  5
2F2D
330
1F
100
AcDbEntity
  8
LOGO
 62
     5
100
AcDb2dPolyline
 66
     1
 10
0.0
 20
0.0
 30
0.0
 40
0.2866784839819004
 41
0.2866784839819004
  0
VERTEX
  5
2F2E
330
2F2D
100
AcDbEntity
  8
LOGO
 62
     5
100
AcDbVertex
100
AcDb2dVertex
 10
184.3600424878099
 20
-26.77293853609874
 30
0.0
 42
1.0
  0
VERTEX
  5
2F2F
330
2F2D
100
AcDbEntity
  8
LOGO
 62
     5
100
AcDbVertex
100
AcDb2dVertex
 10
183.500007035864
 20
-26.77293853609874
 30
0.0
 42
1.0
  0
SEQEND
  5
2F30
330
2F2D
100
AcDbEntity
  8
LOGO
 62
     5
  0
POLYLINE
  5
2F31
330
1F
100
AcDbEntity
  8
LOGO
 62
     5
100
AcDb2dPolyline
 66
     1
 10
0.0
 20
0.0
 30
0.0
 70
     1
  0
VERTEX
  5
2F32
330
2F31
100
AcDbEntity
  8
LOGO
 62
     5
100
AcDbVertex
100
AcDb2dVertex
 10
181.878801954569
 20
-26.91604843530268
 30
0.0
 42
1.000000057330635
  0
VERTEX
  5
2F33
330
2F31
100
AcDbEntity
  8
LOGO
 62
     5
100
AcDbVertex
100
AcDb2dVertex
 10
182.7374613497916
 20
-26.91604843530268
 30
0.0
 42
1.000000057330635
  0
SEQEND
  5
2F34
330
2F31
100
AcDbEntity
  8
LOGO
 62
     5
  0
CIRCLE
  5
2F35
330
1F
100
AcDbEntity
  8
LOGO
 62
     5
100
AcDbCircle
 10
182.308131652181
 20
-26.91604843530268
 30
0.0
 40
0.4293296976112942
  0
POLYLINE
  5
2F36
330
1F
100
AcDbEntity
  8
LOGO
 62
     5
100
AcDb2dPolyline
 66
     1
 10
0.0
 20
0.0
 30
0.0
 70
     1
 40
0.2866784839819004
 41
0.2866784839819004
  0
VERTEX
  5
2F37
330
2F36
100
AcDbEntity
  8
LOGO
 62
     5
100
AcDbVertex
100
AcDb2dVertex
 10
181.7347746842167
 20
-26.91604843530268
 30
0.0
 42
1.0
  0
VERTEX
  5
2F38
330
2F36
100
AcDbEntity
  8
LOGO
 62
     5
100
AcDbVertex
100
AcDb2dVertex
 10
182.8814886201443
 20
-26.91604843530268
 30
0.0
 42
1.0
  0
SEQEND
  5
2F39
330
2F36
100
AcDbEntity
  8
LOGO
 62
     5
  0
LINE
  5
2F3A
330
1F
100
AcDbEntity
  8
LOGO
100
AcDbLine
 10
184.5024643586515
 20
-27.63159793132119
 30
0.0
 11
184.5024643586515
 21
-26.77293853609874
 31
0.0
  0
SOLID
  5
2F3B
330
1F
100
AcDbEntity
  8
LOGO
 62
     5
100
AcDbTrace
 10
182.737432727813
 20
-26.20049893928377
 30
0.0
 11
183.02365252622
 21
-26.20049893928377
 31
0.0
 12
182.737432727813
 22
-27.63159793132119
 32
0.0
 13
183.02365252622
 23
-27.63159793132119
 33
0.0
  0
SOLID
  5
2F3C
330
1F
100
AcDbEntity
  8
LOGO
 62
     5
100
AcDbTrace
 10
183.3575851650215
 20
-27.63159793132119
 30
0.0
 11
183.6438049634294
 21
-27.63159793132119
 31
0.0
 12
183.3575851650215
 22
-26.20049893928377
 32
0.0
 13
183.6438049634294
 23
-26.20049893928377
 33
0.0
  0
SOLID
  5
2F3D
330
1F
100
AcDbEntity
  8
LOGO
 62
     5
100
AcDbTrace
 10
184.2162445602445
 20
-26.77293853609874
 30
0.0
 11
184.5024643586515
 21
-26.77293853609874
 31
0.0
 12
184.2162445602445
 22
-27.63159793132119
 32
0.0
 13
184.5024643586515
 23
-27.63159793132119
 33
0.0
  0
SOLID
  5
2F3E
330
1F
100
AcDbEntity
  8
LOGO
 62
     5
100
AcDbTrace
 10
183.3289631851807
 20
-17.52803904753575
 30
0.0
 11
182.4989257697993
 21
-20.57150957060251
 31
0.0
 12
183.3289631851807
 22
-24.7693999472463
 32
0.0
 13
182.4989257697993
 23
-24.7693999472463
 33
0.0
  0
SOLID
  5
2F3F
330
1F
100
AcDbEntity
  8
LOGO
 62
     5
100
AcDbTrace
 10
183.6724269432702
 20
-24.7693999472463
 30
0.0
 11
184.5024643586515
 21
-24.7693999472463
 31
0.0
 12
183.6724269432702
 22
-16.89835549103929
 32
0.0
 13
184.5024643586515
 23
-16.89835549103888
 33
0.0
  0
SOLID
  5
2F40
330
1F
100
AcDbEntity
  8
LOGO
 62
     2
100
AcDbTrace
 10
183.3289631851807
 20
-16.89835549103888
 30
0.0
 11
183.6724269432702
 21
-16.89835549103929
 31
0.0
 12
183.3289631851807
 22
-24.7693999472463
 32
0.0
 13
183.6724269432702
 23
-24.7693999472463
 33
0.0
  0
POLYLINE
  5
2F41
330
1F
100
AcDbEntity
  8
LOGO
 62
     5
100
AcDb2dPolyline
 66
     1
 10
0.0
 20
0.0
 30
0.0
 40
0.2866784839819004
 41
0.2866784839819004
  0
VERTEX
  5
2F42
330
2F41
100
AcDbEntity
  8
LOGO
 62
     5
100
AcDbVertex
100
AcDb2dVertex
 10
180.2575396293155
 20
-26.77293853609874
 30
0.0
 42
1.0
  0
VERTEX
  5
2F43
330
2F41
100
AcDbEntity
  8
LOGO
 62
     5
100
AcDbVertex
100
AcDb2dVertex
 10
179.3975041773696
 20
-26.77293853609874
 30
0.0
 42
1.0
  0
SEQEND
  5
2F44
330
2F41
100
AcDbEntity
  8
LOGO
 62
     5
  0
POLYLINE
  5
2F45
330
1F
100
AcDbEntity
  8
LOGO
 62
     5
100
AcDb2dPolyline
 66
     1
 10
0.0
 20
0.0
 30
0.0
 40
0.2866784839819004
 41
0.2866784839819004
  0
VERTEX
  5
2F46
330
2F45
100
AcDbEntity
  8
LOGO
 62
     5
100
AcDbVertex
100
AcDb2dVertex
 10
181.1161990245373
 20
-26.77293853609874
 30
0.0
 42
1.0
  0
VERTEX
  5
2F47
330
2F45
100
AcDbEntity
  8
LOGO
 62
     5
100
AcDbVertex
100
AcDb2dVertex
 10
180.2561635725918
 20
-26.77293853609874
 30
0.0
 42
1.0
  0
SEQEND
  5
2F48
330
2F45
100
AcDbEntity
  8
LOGO
 62
     5
  0
POLYLINE
  5
2F49
330
1F
100
AcDbEntity
  8
LOGO
 62
     5
100
AcDb2dPolyline
 66
     1
 10
0.0
 20
0.0
 30
0.0
 40
0.2866784839819004
 41
0.2866784839819004
  0
VERTEX
  5
2F4A
330
2F49
100
AcDbEntity
  8
LOGO
 62
     5
100
AcDbVertex
100
AcDb2dVertex
 10
177.0136961660428
 20
-26.77293853609874
 30
0.0
 42
1.0
  0
VERTEX
  5
2F4B
330
2F49
100
AcDbEntity
  8
LOGO
 62
     5
100
AcDbVertex
100
AcDb2dVertex
 10
176.1536607140974
 20
-26.77293853609874
 30
0.0
 42
1.0
  0
SEQEND
  5
2F4C
330
2F49
100
AcDbEntity
  8
LOGO
 62
     5
  0
SOLID
  5
2F4D
330
1F
100
AcDbEntity
  8
LOGO
 62
     5
100
AcDbTrace
 10
176.0112388432553
 20
-26.20049893928377
 30
0.0
 11
176.2974586416623
 21
-26.20049893928377
 31
0.0
 12
176.0112388432553
 22
-27.63159793132119
 32
0.0
 13
176.2974586416623
 23
-27.63159793132119
 33
0.0
  0
SOLID
  5
2F4E
330
1F
100
AcDbEntity
  8
LOGO
 62
     5
100
AcDbTrace
 10
176.8698982384779
 20
-26.77293853609874
 30
0.0
 11
177.1561180368858
 21
-26.77293853609874
 31
0.0
 12
176.8698982384779
 22
-27.63159793132119
 32
0.0
 13
177.1561180368858
 23
-27.63159793132119
 33
0.0
  0
POLYLINE
  5
2F4F
330
1F
100
AcDbEntity
  8
LOGO
 62
     5
100
AcDb2dPolyline
 66
     1
 10
0.0
 20
0.0
 30
0.0
 70
     1
 40
0.2866784839819004
 41
0.2866784839819004
  0
VERTEX
  5
2F50
330
2F4F
100
AcDbEntity
  8
LOGO
 62
     5
100
AcDbVertex
100
AcDb2dVertex
 10
177.6322718257219
 20
-26.91604843530268
 30
0.0
 42
1.0
  0
VERTEX
  5
2F51
330
2F4F
100
AcDbEntity
  8
LOGO
 62
     5
100
AcDbVertex
100
AcDb2dVertex
 10
178.7789857616499
 20
-26.91604843530268
 30
0.0
 42
1.0
  0
SEQEND
  5
2F52
330
2F4F
100
AcDbEntity
  8
LOGO
 62
     5
  0
SOLID
  5
2F53
330
1F
100
AcDbEntity
  8
LOGO
 62
     5
100
AcDbTrace
 10
178.6349298693177
 20
-25.77116924167218
 30
0.0
 11
178.9211496677251
 21
-25.77116924167218
 31
0.0
 12
178.6349298693177
 22
-27.63159793132119
 32
0.0
 13
178.9211496677251
 23
-27.63159793132119
 33
0.0
  0
SOLID
  5
2F54
330
1F
100
AcDbEntity
  8
LOGO
 62
     5
100
AcDbTrace
 10
179.255082306528
 20
-26.20049893928377
 30
0.0
 11
179.5413021049349
 21
-26.20049893928377
 31
0.0
 12
179.255082306528
 22
-27.63159793132119
 32
0.0
 13
179.5413021049349
 23
-27.63159793132119
 33
0.0
  0
SOLID
  5
2F55
330
1F
100
AcDbEntity
  8
LOGO
 62
     5
100
AcDbTrace
 10
180.1137417017497
 20
-26.77293853609874
 30
0.0
 11
180.3999615001576
 21
-26.77293853609874
 31
0.0
 12
180.1137417017497
 22
-27.63159793132119
 32
0.0
 13
180.3999615001576
 23
-27.63159793132119
 33
0.0
  0
SOLID
  5
2F56
330
1F
100
AcDbEntity
  8
LOGO
 62
     5
100
AcDbTrace
 10
180.9724010969724
 20
-26.77293853609874
 30
0.0
 11
181.2586208953798
 21
-26.77293853609874
 31
0.0
 12
180.9724010969724
 22
-27.63159793132159
 32
0.0
 13
181.2586208953798
 23
-27.63159793132159
 33
0.0
  0
SOLID
  5
2F57
330
1F
100
AcDbEntity
  8
LOGO
 62
     5
100
AcDbTrace
 10
175.3910864060455
 20
-26.00014508039836
 30
0.0
 11
175.6773062044538
 21
-26.00014508039836
 31
0.0
 12
175.3910864060455
 22
-25.77116924167218
 32
0.0
 13
175.6773062044538
 23
-25.77116924167218
 33
0.0
  0
SOLID
  5
2F58
330
1F
100
AcDbEntity
  8
LOGO
 62
     5
100
AcDbTrace
 10
175.3910864060455
 20
-26.20049893928377
 30
0.0
 11
175.6773062044538
 21
-26.20049893928377
 31
0.0
 12
175.3910864060455
 22
-27.63159793132159
 32
0.0
 13
175.6773062044538
 23
-27.63159793132119
 33
0.0
  0
SOLID
  5
2F59
330
1F
100
AcDbEntity
  8
LOGO
 62
     5
100
AcDbTrace
 10
178.2056287936857
 20
-24.76939994724608
 30
0.0
 11
179.0356662090679
 21
-24.76939994724608
 31
0.0
 12
178.2056287936857
 22
-20.57150957060251
 32
0.0
 13
179.0356662090679
 23
-17.52803904753575
 33
0.0
  0
SOLID
  5
2F5A
330
1F
100
AcDbEntity
  8
LOGO
 62
     5
100
AcDbTrace
 10
179.3791299671574
 20
-16.89835549103929
 30
0.0
 11
180.2091673825388
 21
-16.89835549103888
 31
0.0
 12
179.3791299671574
 22
-24.13971639074962
 32
0.0
 13
180.2091673825388
 23
-21.09624586768285
 33
0.0
  0
SOLID
  5
2F5B
330
1F
100
AcDbEntity
  8
LOGO
 62
     2
100
AcDbTrace
 10
179.0356662090679
 20
-16.89835549103929
 30
0.0
 11
179.3791299671574
 21
-16.89835549103929
 31
0.0
 12
179.0356662090679
 22
-24.76939994724608
 32
0.0
 13
179.3791299671574
 23
-24.76939994724608
 33
0.0
  0
SOLID
  5
2F5C
330
1F
100
AcDbEntity
  8
LOGO
 62
     5
100
AcDbTrace
 10
179.3791299671574
 20
-24.13971639074962
 30
0.0
 11
180.2091673825388
 21
-21.09624586768285
 31
0.0
 12
183.3289631851807
 22
-16.89835549103888
 32
0.0
 13
182.4989257697993
 23
-16.89835549103888
 33
0.0
  0
SOLID
  5
2F5D
330
1F
100
AcDbEntity
  8
LOGO
 62
     5
100
AcDbTrace
 10
179.3791299671574
 20
-24.76939994724608
 30
0.0
 11
180.2091673825388
 21
-24.76939994724608
 31
0.0
 12
183.3289631851807
 22
-17.52803904753575
 32
0.0
 13
182.4989257697993
 23
-20.57150957060251
 33
0.0
  0
SOLID
  5
2F5E
330
1F
100
AcDbEntity
  8
LOGO
 62
     2
100
AcDbTrace
 10
179.0356662090679
 20
-24.76939994724608
 30
0.0
 11
179.3791299671574
 21
-24.76939994724608
 31
0.0
 12
183.3289631851807
 22
-16.89835549103888
 32
0.0
 13
183.6724269432702
 23
-16.89835549103929
 33
0.0
  0
LWPOLYLINE
  5
2F5F
330
1F
100
AcDbEntity
  8
LOGO
 62
     4
100
AcDbPolyline
 90
        4
 70
     1
 43
0.0
 10
171.9205894427676
 20
-16.44233256059134
 10
317.9940311231367
 20
-16.44233256059134
 10
317.9940311231367
 20
-35.63955247009393
 10
171.9205894427676
 20
-35.63955247009393
1001
GENIUS_GENREC_14
1002
{
1000
PYDIR
1011
171.9205894427676
1021
-35.63955247009393
1031
0.0
1002
}
1002
{
1000
PXDIR
1011
317.9940311231367
1021
-16.44233256059134
1031
0.0
1002
}
1002
{
1000
PORI
1011
171.9205894427676
1021
-16.44233256059134
1031
0.0
1002
}
1002
{
1000
PINS
1011
171.9205894427676
1021
-16.44233256059134
1031
0.0
1002
}
1002
{
1000
PINS2
1011
317.9940311231367
1021
-35.63955247009393
1031
0.0
1002
}
1002
{
1000
C
1070
     1
1002
}
1001
GENIUS_GENOBJ-N-REC_13
1002
{
1000
OWNER
1000
GEN
1002
}
1001
GENIUS_GENODEF_13
1002
{
1000
HIER
1070
     0
1002
}
1002
{
1000
MANEDIT
1070
     0
1002
}
1002
{
1000
NOSEL
1070
     0
1002
}
1002
{
1000
BEHIND
1070
     0
1002
}
1002
{
1000
OTHER
1070
     0
1002
}
1002
{
1000
REACTOR
1002
}
  0
LINE
  5
2F60
330
1F
100
AcDbEntity
  8
LOGO
 62
     4
100
AcDbLine
 10
253.3575438196556
 20
-27.00080351081736
 30
0.0
 11
253.3575438196556
 21
-34.03978414430193
 31
0.0
  0
LINE
  5
2F61
330
1F
100
AcDbEntity
  8
LOGO
 62
     4
100
AcDbLine
 10
240.5593972133207
 20
-27.00080351081736
 30
0.0
 11
240.5593972133207
 21
-34.03978414430193
 31
0.0
  0
LINE
  5
2F62
330
1F
100
AcDbEntity
  8
LOGO
 62
     4
100
AcDbLine
 10
253.3575438196556
 20
-34.03978414430193
 30
0.0
 11
240.5593972133207
 21
-34.03978414430193
 31
0.0
  0
LINE
  5
2F63
330
1F
100
AcDbEntity
  8
LOGO
 62
     4
100
AcDbLine
 10
255.6530274258696
 20
-18.36205455154168
 30
0.0
 11
240.5593972133207
 21
-18.36205455154168
 31
0.0
  0
LINE
  5
2F64
330
1F
100
AcDbEntity
  8
LOGO
 62
     4
100
AcDbLine
 10
255.6530274258696
 20
-24.12122052439232
 30
0.0
 11
240.5593972133207
 21
-24.12122052439232
 31
0.0
  0
LINE
  5
2F65
330
1F
100
AcDbEntity
  8
LOGO
 62
     4
100
AcDbLine
 10
240.5593972133207
 20
-18.36205455154168
 30
0.0
 11
240.5593972133207
 21
-24.12122052439232
 31
0.0
  0
LINE
  5
2F66
330
1F
100
AcDbEntity
  8
LOGO
 62
     4
100
AcDbLine
 10
255.6530274258696
 20
-18.36205455154168
 30
0.0
 11
255.6530274258696
 21
-24.12122052439232
 31
0.0
  0
LINE
  5
2F67
330
1F
100
AcDbEntity
  8
LOGO
 62
     4
100
AcDbLine
 10
247.6262123195951
 20
-24.12122052439232
 30
0.0
 11
247.6262123195951
 21
-27.00080351081736
 31
0.0
  0
TEXT
  5
2F68
330
1F
100
AcDbEntity
  8
LOGO
  6
Continuous
 62
     7
100
AcDbText
 10
243.3400484439314
 20
-22.91900304745951
 30
0.0
 40
3.36
  1
RK*
  7
CHINESET
100
AcDbText
  0
LINE
  5
2F69
330
1F
100
AcDbEntity
  8
LOGO
 62
     4
100
AcDbLine
 10
253.3575438196556
 20
-27.00080351081736
 30
0.0
 11
240.5593972133207
 21
-27.00080351081736
 31
0.0
  0
TEXT
  5
2F6A
330
1F
100
AcDbEntity
  8
LOGO
  6
Continuous
100
AcDbText
 10
244.666281940978
 20
-33.04624695439077
 30
125.8154167296478
 40
1.44
  1
Model
 41
0.8
  7
CHINESET
100
AcDbText
  0
TEXT
  5
2F6B
330
1F
100
AcDbEntity
  8
LOGO
100
AcDbText
 10
244.2830007524988
 20
-30.37679729654051
 30
125.8154167296478
 40
2.399999999999999
  1
型號
  7
CHINESET
100
AcDbText
  0
TEXT
  5
2F6C
330
1F
100
AcDbEntity
  8
LOGO
100
AcDbText
 10
214.9159474112608
 20
-34.61826794792919
 30
0.0
 40
1.919999999999999
  1
10804280
 41
0.7
  7
CHINESET
 72
     1
 11
219.7159474112608
 21
-34.61826794792919
 31
0.0
100
AcDbText
  0
LINE
  5
2F6D
330
1F
100
AcDbEntity
  8
LOGO
 62
     4
100
AcDbLine
 10
225.6744732436717
 20
-31.80010848819283
 30
0.0
 11
225.6744732436726
 21
-35.63955247009352
 31
0.0
  0
LINE
  5
2F6E
330
1F
100
AcDbEntity
  8
LOGO
 62
     4
100
AcDbLine
 10
225.6744732436717
 20
-31.80010848819283
 30
0.0
 11
214.1544732436726
 21
-31.80010848819283
 31
0.0
  0
CIRCLE
  5
2F6F
330
1F
100
AcDbEntity
  8
LOGO
  6
Continuous
100
AcDbCircle
 10
204.9109320186129
 20
-22.19739223405516
 30
0.0
 40
1.114635773107806
  0
CIRCLE
  5
2F70
330
1F
100
AcDbEntity
  8
LOGO
  6
Continuous
100
AcDbCircle
 10
204.9109320186129
 20
-22.19739223405516
 30
0.0
 40
0.6530778899189733
  0
LINE
  5
2F71
330
1F
100
AcDbEntity
  8
LOGO
100
AcDbLine
 10
211.9154325536879
 20
-23.3120280071632
 30
0.0
 11
211.9154325536879
 21
-21.08275646094713
 31
0.0
  0
LINE
  5
2F72
330
1F
100
AcDbEntity
  8
LOGO
100
AcDbLine
 10
208.4211133881415
 20
-22.85047012397403
 30
0.0
 11
208.4211133881415
 21
-21.54431434413611
 31
0.0
  0
LINE
  5
2F73
330
1F
100
AcDbEntity
  8
LOGO
  6
Continuous
100
AcDbLine
 10
208.4211133881415
 20
-21.54431434413611
 30
0.0
 11
211.9154325536879
 21
-21.08275646094713
 31
0.0
  0
LINE
  5
2F74
330
1F
100
AcDbEntity
  8
LOGO
  6
Continuous
100
AcDbLine
 10
208.4211133881415
 20
-22.85047012397403
 30
0.0
 11
211.9154325536879
 21
-23.3120280071632
 31
0.0
  0
LINE
  5
2F75
330
1F
100
AcDbEntity
  8
LOGO
  6
AM_ISO08W050x2
 48
0.3
100
AcDbLine
 10
203.3743899150273
 20
-22.19739223405516
 30
0.0
 11
206.4474741221984
 21
-22.19739223405516
 31
0.0
1001
GENIUS_GENOREF_13
1005
2F7A
  0
LINE
  5
2F76
330
1F
100
AcDbEntity
  8
LOGO
  6
AM_ISO08W050x2
 48
0.3
100
AcDbLine
 10
204.9109320186129
 20
-23.73393433764073
 30
0.0
 11
204.9109320186129
 21
-20.66085013046966
 31
0.0
1001
GENIUS_GENOREF_13
1005
2F79
  0
LINE
  5
2F77
330
1F
100
AcDbEntity
  8
LOGO
  6
CENTER
 48
0.5
100
AcDbLine
 10
208.1416649790445
 20
-22.19739223405516
 30
0.0
 11
212.2672991819641
 21
-22.19739223405516
 31
0.0
1001
GENIUS_GENOREF_13
1005
2F78
  0
POINT
  5
2F78
330
1F
100
AcDbEntity
  8
0
 60
     1
100
AcDbPoint
 10
-1893.529178134423
 20
-957.290340140288
 30
0.0
1001
GENIUS_GENOBJ-N-CRS_13
1002
{
1000
OWNER
1000
GEN
1002
}
1001
GENIUS_GENOLIS_13
1002
{
1000
ENT
1005
0
1005
0
1005
0
1005
2F77
1002
}
1001
GENIUS_GENOENT_13
1002
{
1000
MYREF
1005
2F78
1002
}
1002
{
1000
GRP
1005
0
1002
}
1001
GENIUS_GENODEF_13
1002
{
1000
HIER
1070
    10
1002
}
1002
{
1000
MANEDIT
1070
     1
1002
}
1002
{
1000
NOSEL
1070
     0
1002
}
1002
{
1000
BEHIND
1070
     0
1002
}
1002
{
1000
OTHER
1070
     0
1002
}
1002
{
1000
REACTOR
1002
}
  0
POINT
  5
2F79
330
1F
100
AcDbEntity
  8
0
 60
     1
100
AcDbPoint
 10
-1904.853763357278
 20
-948.4147536616516
 30
0.0
1001
GENIUS_GENOBJ-N-CRS_13
1002
{
1000
OWNER
1000
GEN
1002
}
1001
GENIUS_GENOLIS_13
1002
{
1000
ENT
1005
0
1005
0
1005
0
1005
2F76
1002
}
1001
GENIUS_GENOENT_13
1002
{
1000
MYREF
1005
2F79
1002
}
1002
{
1000
GRP
1005
0
1002
}
1001
GENIUS_GENODEF_13
1002
{
1000
HIER
1070
    10
1002
}
1002
{
1000
MANEDIT
1070
     1
1002
}
1002
{
1000
NOSEL
1070
     0
1002
}
1002
{
1000
BEHIND
1070
     0
1002
}
1002
{
1000
OTHER
1070
     0
1002
}
1002
{
1000
REACTOR
1002
}
  0
POINT
  5
2F7A
330
1F
100
AcDbEntity
  8
0
 60
     1
100
AcDbPoint
 10
-1898.495089659441
 20
-957.290340140288
 30
0.0
1001
GENIUS_GENOBJ-N-CRS_13
1002
{
1000
OWNER
1000
GEN
1002
}
1001
GENIUS_GENOLIS_13
1002
{
1000
ENT
1005
0
1005
0
1005
0
1005
2F75
1002
}
1001
GENIUS_GENOENT_13
1002
{
1000
MYREF
1005
2F7A
1002
}
1002
{
1000
GRP
1005
0
1002
}
1001
GENIUS_GENODEF_13
1002
{
1000
HIER
1070
    10
1002
}
1002
{
1000
MANEDIT
1070
     1
1002
}
1002
{
1000
NOSEL
1070
     0
1002
}
1002
{
1000
BEHIND
1070
     0
1002
}
1002
{
1000
OTHER
1070
     0
1002
}
1002
{
1000
REACTOR
1002
}
  0
ENDSEC
  0
SECTION
  2
OBJECTS
  0
DICTIONARY
  5
C
330
0
100
AcDbDictionary
281
     1
  3
ACAD_COLOR
350
BE
  3
ACAD_GROUP
350
D
  3
ACAD_LAYOUT
350
1A
  3
ACAD_MATERIAL
350
BD
  3
ACAD_MLINESTYLE
350
17
  3
ACAD_PLOTSETTINGS
350
19
  3
ACAD_PLOTSTYLENAME
350
E
  3
ACAD_TABLESTYLE
350
11A
  3
ACDBHEADERROUNDTRIPXREC
350
30BA
  3
AcDbVariableDictionary
350
94
  3
AcmDictionary
350
5B
  3
AMG
350
41
  3
AMGSNAPSETTINGS
350
1B8
  3
DWGPROPS
350
30B9
  0
DICTIONARY
  5
3F9
330
2
100
AcDbDictionary
280
     1
281
     1
  3
ACAD_LAYERFILTERS
360
1934
  3
ACAD_LAYERSTATES
360
2B31
  3
ACLYDICTIONARY
360
1933
  0
DICTIONARY
  5
8F
330
1F
100
AcDbDictionary
280
     1
281
     1
  0
DICTIONARY
  5
BE
102
{ACAD_REACTORS
330
C
102
}
330
C
100
AcDbDictionary
281
     1
  0
DICTIONARY
  5
D
102
{ACAD_REACTORS
330
C
102
}
330
C
100
AcDbDictionary
281
     1
  0
DICTIONARY
  5
1A
102
{ACAD_REACTORS
330
C
102
}
330
C
100
AcDbDictionary
281
     1
  3
Model
350
22
  3
配置1
350
1E
  3
配置2
350
26
  0
DICTIONARY
  5
BD
102
{ACAD_REACTORS
330
C
102
}
330
C
100
AcDbDictionary
281
     1
  0
DICTIONARY
  5
17
102
{ACAD_REACTORS
330
C
102
}
330
C
100
AcDbDictionary
281
     1
  3
Standard
350
18
  0
DICTIONARY
  5
19
102
{ACAD_REACTORS
330
C
102
}
330
C
100
AcDbDictionary
281
     1
  0
ACDBDICTIONARYWDFLT
  5
E
102
{ACAD_REACTORS
330
C
102
}
330
C
100
AcDbDictionary
281
     1
  3
Color_7
350
19C9
  3
Normal
350
F
100
AcDbDictionaryWithDefault
340
F
  0
DICTIONARY
  5
11A
102
{ACAD_REACTORS
330
C
102
}
330
C
100
AcDbDictionary
281
     1
  3
Standard
350
11B
  0
DICTIONARY
  5
30BA
102
{ACAD_REACTORS
330
C
102
}
330
C
100
AcDbDictionary
281
     1
  0
DICTIONARY
  5
94
102
{ACAD_REACTORS
330
C
102
}
330
C
100
AcDbDictionary
281
     1
  3
CTABLESTYLE
350
138
  3
DIMASSOC
350
96
  3
INDEXCTL
350
95
  3
PROJECTNAME
350
30B7
  0
DICTIONARY
  5
5B
102
{ACAD_REACTORS
330
C
102
}
330
C
100
AcDbDictionary
281
     1
  3
AcmBOM
350
1B5
  3
AcmStdDictionary
350
61
  3
AMDTSECTSYM_ARROWCOLOR
350
123
  0
DICTIONARY
  5
41
102
{ACAD_REACTORS
330
C
102
}
330
C
100
AcDbDictionary
281
     1
  0
DICTIONARY
  5
1B8
102
{ACAD_REACTORS
330
C
102
}
330
C
100
AcDbDictionary
281
     1
  0
XRECORD
  5
30B9
102
{ACAD_REACTORS
330
C
102
}
330
C
100
AcDbXrecord
280
     1
  1
DWGPROPS COOKIE
  2

  3

  4

  6

  7

  8

  9

300
AmdtFileType=84
301
=
302
=
303
=
304
=
305
=
306
=
307
=
308
=
309
=
 40
0.1910868865740741
 41
2454580.691861609
 42
2454585.543610741
  1

 90
        1
  0
DICTIONARY
  5
1934
102
{ACAD_REACTORS
330
3F9
102
}
330
3F9
100
AcDbDictionary
281
     1
  0
DICTIONARY
  5
2B31
102
{ACAD_REACTORS
330
3F9
102
}
330
3F9
100
AcDbDictionary
281
     1
  0
DICTIONARY
  5
1933
102
{ACAD_REACTORS
330
3F9
102
}
330
3F9
100
AcDbDictionary
281
     1
1001
ACAD
1000
<All
  0
LAYOUT
  5
22
102
{ACAD_XDICTIONARY
360
30BD
102
}
102
{ACAD_REACTORS
330
1A
102
}
330
1A
100
AcDbPlotSettings
  1

  2
\\RD\EPSON Stylus C63 Series單色
  4
A4
  6

 40
3.757083177566528
 41
3.757076978683471
 42
3.757080078125
 43
3.757080078125
 44
209.9733276367187
 45
296.9683227539062
 46
0.0
 47
0.0
 48
0.0
 49
0.0
140
0.0
141
0.0
142
1.0
143
0.3405120737814363
 70
 11952
 72
     1
 73
     0
 74
     0
  7
彩色出圖.ctb
 75
     0
147
2.936753428137963
148
-2047.07469463503
149
-1261.649717473083
100
AcDbLayout
  1
Model
 70
     1
 71
     0
 10
0.0
 20
0.0
 11
12.0
 21
9.0
 12
0.0
 22
0.0
 32
0.0
 14
0.0
 24
0.0
 34
0.0
 15
0.0
 25
0.0
 35
0.0
146
0.0
 13
0.0
 23
0.0
 33
0.0
 16
1.0
 26
0.0
 36
0.0
 17
0.0
 27
1.0
 37
0.0
 76
     0
330
1F
1001
ACAD_PSEXT
1000
\\RD\EPSON Stylus C63 Series單色
1000
EPSON Stylus C63 Series
1000
\\RD
1000

1070
     0
  0
LAYOUT
  5
1E
102
{ACAD_XDICTIONARY
360
30BB
102
}
102
{ACAD_REACTORS
330
1A
102
}
330
1A
100
AcDbPlotSettings
  1

  2

  4

  6

 40
0.0
 41
0.0
 42
0.0
 43
0.0
 44
0.0
 45
0.0
 46
0.0
 47
0.0
 48
0.0
 49
0.0
140
0.0
141
0.0
142
1.0
143
1.0
 70
   688
 72
     0
 73
     0
 74
     5
  7
彩色出圖.ctb
 75
    16
147
1.0
148
0.0
149
0.0
100
AcDbLayout
  1
配置1
 70
     1
 71
     1
 10
0.0
 20
0.0
 11
420.0
 21
297.0
 12
0.0
 22
0.0
 32
0.0
 14
1.000000000000000E+20
 24
1.000000000000000E+20
 34
1.000000000000000E+20
 15
-1.000000000000000E+20
 25
-1.000000000000000E+20
 35
-1.000000000000000E+20
146
0.0
 13
0.0
 23
0.0
 33
0.0
 16
1.0
 26
0.0
 36
0.0
 17
0.0
 27
1.0
 37
0.0
 76
     0
330
1B
  0
LAYOUT
  5
26
102
{ACAD_XDICTIONARY
360
30BF
102
}
102
{ACAD_REACTORS
330
1A
102
}
330
1A
100
AcDbPlotSettings
  1

  2

  4

  6

 40
0.0
 41
0.0
 42
0.0
 43
0.0
 44
0.0
 45
0.0
 46
0.0
 47
0.0
 48
0.0
 49
0.0
140
0.0
141
0.0
142
1.0
143
1.0
 70
   688
 72
     0
 73
     0
 74
     5
  7
彩色出圖.ctb
 75
    16
147
1.0
148
0.0
149
0.0
100
AcDbLayout
  1
配置2
 70
     1
 71
     2
 10
0.0
 20
0.0
 11
12.0
 21
9.0
 12
0.0
 22
0.0
 32
0.0
 14
0.0
 24
0.0
 34
0.0
 15
0.0
 25
0.0
 35
0.0
146
0.0
 13
0.0
 23
0.0
 33
0.0
 16
1.0
 26
0.0
 36
0.0
 17
0.0
 27
1.0
 37
0.0
 76
     0
330
23
  0
MLINESTYLE
  5
18
102
{ACAD_REACTORS
330
17
102
}
330
17
100
AcDbMlineStyle
  2
STANDARD
 70
     0
  3

 62
   256
 51
90.0
 52
90.0
 71
     2
 49
0.5
 62
   256
  6
BYLAYER
 49
-0.5
 62
   256
  6
BYLAYER
  0
ACDBPLACEHOLDER
  5
19C9
102
{ACAD_REACTORS
330
E
102
}
330
E
  0
ACDBPLACEHOLDER
  5
F
102
{ACAD_REACTORS
330
E
102
}
330
E
  0
TABLESTYLE
  5
11B
102
{ACAD_REACTORS
330
11A
102
}
330
11A
100
AcDbTableStyle
  3
Standard
 70
     0
 71
     0
 40
1.5
 41
1.5
280
     0
281
     0
  7
STANDARD
140
4.5
170
     2
 62
     0
 63
     7
283
     0
274
    -2
284
     1
 64
     0
275
    -2
285
     1
 65
     0
276
    -2
286
     1
 66
     0
277
    -2
287
     1
 67
     0
278
    -2
288
     1
 68
     0
279
    -2
289
     1
 69
     0
  7
STANDARD
140
6.0
170
     5
 62
     0
 63
     7
283
     0
274
    -2
284
     1
 64
     0
275
    -2
285
     1
 65
     0
276
    -2
286
     1
 66
     0
277
    -2
287
     1
 67
     0
278
    -2
288
     1
 68
     0
279
    -2
289
     1
 69
     0
  7
STANDARD
140
4.5
170
     5
 62
     0
 63
     7
283
     0
274
    -2
284
     1
 64
     0
275
    -2
285
     1
 65
     0
276
    -2
286
     1
 66
     0
277
    -2
287
     1
 67
     0
278
    -2
288
     1
 68
     0
279
    -2
289
     1
 69
     0
  0
DICTIONARYVAR
  5
138
102
{ACAD_REACTORS
330
94
102
}
330
94
100
DictionaryVariables
280
     0
  1
STANDARD
  0
DICTIONARYVAR
  5
96
102
{ACAD_REACTORS
330
94
102
}
330
94
100
DictionaryVariables
280
     0
  1
2
  0
DICTIONARYVAR
  5
95
102
{ACAD_REACTORS
330
94
102
}
330
94
100
DictionaryVariables
280
     0
  1
0
  0
DICTIONARYVAR
  5
30B7
102
{ACAD_REACTORS
330
94
102
}
330
94
100
DictionaryVariables
280
     0
  1

  0
DICTIONARY
  5
1B5
102
{ACAD_REACTORS
330
5B
102
}
330
5B
100
AcDbDictionary
281
     1
  0
DICTIONARY
  5
61
102
{ACAD_REACTORS
330
5B
102
}
330
5B
100
AcDbDictionary
281
     1
  0
XRECORD
  5
123
102
{ACAD_REACTORS
330
5B
102
}
330
5B
100
AcDbXrecord
280
     1
 90
-1023410169
  0
DICTIONARY
  5
30BD
330
22
100
AcDbDictionary
280
     1
281
     1
  3
ACAD_XREC_ROUNDTRIP
360
30BE
  0
DICTIONARY
  5
30BB
330
1E
100
AcDbDictionary
280
     1
281
     1
  3
ACAD_XREC_ROUNDTRIP
360
30BC
  0
DICTIONARY
  5
30BF
330
26
100
AcDbDictionary
280
     1
281
     1
  3
ACAD_XREC_ROUNDTRIP
360
30C0
  0
XRECORD
  5
30BE
102
{ACAD_REACTORS
330
30BD
102
}
330
30BD
100
AcDbXrecord
280
     1
102
SHADEPLOT
 70
     0
102
SHADEPLOTRESLEVEL
 70
     2
102
SHADEPLOTCUSTOMDPI
 70
   300
  0
XRECORD
  5
30BC
102
{ACAD_REACTORS
330
30BB
102
}
330
30BB
100
AcDbXrecord
280
     1
102
SHADEPLOT
 70
     0
102
SHADEPLOTRESLEVEL
 70
     2
102
SHADEPLOTCUSTOMDPI
 70
   300
  0
XRECORD
  5
30C0
102
{ACAD_REACTORS
330
30BF
102
}
330
30BF
100
AcDbXrecord
280
     1
102
SHADEPLOT
 70
     0
102
SHADEPLOTRESLEVEL
 70
     2
102
SHADEPLOTCUSTOMDPI
 70
   300
  0
ENDSEC
  0
EOF
